  0
SECTION
  2
HEADER
  9
$ACADVER
  1
AC1015
  9
$ACADMAINTVER
 70
     6
  9
$DWGCODEPAGE
  3
ANSI_932
  9
$INSBASE
 10
0.0
 20
0.0
 30
0.0
  9
$EXTMIN
 10
-841.0
 20
-594.0
 30
1.000000E+20
  9
$EXTMAX
 10
841.0
 20
594.0
 30
-1.000000E+20
  9
$LIMMIN
 10
-841.0
 20
-594.0
  9
$LIMMAX
 10
841.0
 20
594.0
  9
$ORTHOMODE
 70
     0
  9
$REGENMODE
 70
     1
  9
$FILLMODE
 70
     1
  9
$QTEXTMODE
 70
     0
  9
$MIRRTEXT
 70
     1
  9
$LTSCALE
 40
1.0
  9
$ATTMODE
 70
     1
  9
$TEXTSIZE
 40
0.2
  9
$TRACEWID
 40
0.05
  9
$TEXTSTYLE
  7
STANDARD
  9
$CLAYER
  8
0
  9
$CELTYPE
  6
CONTINUOUS
  9
$CECOLOR
 62
   256
  9
$CELTSCALE
 40
1.0
  9
$DISPSILH
 70
     0
  9
$DIMSCALE
 40
2.0
  9
$DIMASZ
 40
2.0
  9
$DIMEXO
 40
1.0
  9
$DIMDLI
 40
0.38
  9
$DIMRND
 40
0.0
  9
$DIMDLE
 40
0.0
  9
$DIMEXE
 40
2.0
  9
$DIMTP
 40
0.0
  9
$DIMTM
 40
0.0
  9
$DIMTXT
 40
3.5
  9
$DIMCEN
 40
0.09
  9
$DIMTSZ
 40
0.0
  9
$DIMTOL
 70
     0
  9
$DIMLIM
 70
     0
  9
$DIMTIH
 70
     0
  9
$DIMTOH
 70
     0
  9
$DIMSE1
 70
     0
  9
$DIMSE2
 70
     0
  9
$DIMTAD
 70
     1
  9
$DIMZIN
 70
     0
  9
$DIMBLK
  1

  9
$DIMASO
 70
     1
  9
$DIMSHO
 70
     1
  9
$DIMPOST
  1

  9
$DIMAPOST
  1

  9
$DIMALT
 70
     0
  9
$DIMALTD
 70
     2
  9
$DIMALTF
 40
25.4
  9
$DIMLFAC
 40
1.0
  9
$DIMTOFL
 70
     0
  9
$DIMTVP
 40
0.0
  9
$DIMTIX
 70
     0
  9
$DIMSOXD
 70
     0
  9
$DIMSAH
 70
     0
  9
$DIMBLK1
  1

  9
$DIMBLK2
  1

  9
$DIMSTYLE
  2
Standard
  9
$DIMCLRD
 70
     0
  9
$DIMCLRE
 70
     0
  9
$DIMCLRT
 70
     0
  9
$DIMTFAC
 40
1.0
  9
$DIMGAP
 40
0.5
  9
$DIMJUST
 70
     0
  9
$DIMSD1
 70
     0
  9
$DIMSD2
 70
     0
  9
$DIMTOLJ
 70
     1
  9
$DIMTZIN
 70
     0
  9
$DIMALTZ
 70
     0
  9
$DIMALTTZ
 70
     0
  9
$DIMUPT
 70
     0
  9
$DIMDEC
 70
     3
  9
$DIMTDEC
 70
     4
  9
$DIMALTU
 70
     2
  9
$DIMALTTD
 70
     2
  9
$DIMTXSTY
  7
STANDARD
  9
$DIMAUNIT
 70
     0
  9
$DIMADEC
 70
     0
  9
$DIMALTRND
 40
0.0
  9
$DIMAZIN
 70
     0
  9
$DIMDSEP
 70
     0
  9
$DIMATFIT
 70
     3
  9
$DIMFRAC
 70
     0
  9
$DIMLDRBLK
  1

  9
$DIMLUNIT
 70
     2
  9
$DIMLWD
 70
     0
  9
$DIMLWE
 70
     0
  9
$DIMTMOVE
 70
     0
  9
$LUNITS
 70
     2
  9
$LUPREC
 70
     4
  9
$SKETCHINC
 40
0.1
  9
$FILLETRAD
 40
0.0
  9
$AUNITS
 70
     0
  9
$AUPREC
 70
     0
  9
$MENU
  1
acad
  9
$ELEVATION
 40
0.0
  9
$PELEVATION
 40
0.0
  9
$THICKNESS
 40
0.0
  9
$LIMCHECK
 70
     0
  9
$CHAMFERA
 40
0.0
  9
$CHAMFERB
 40
0.0
  9
$CHAMFERC
 40
0.0
  9
$CHAMFERD
 40
0.0
  9
$SKPOLY
 70
     0
  9
$TDCREATE
 40
2454540.000000000
  9
$TDUCREATE
 40
0.000000000
  9
$TDUPDATE
 40
0.000000000
  9
$TDUUPDATE
 40
2447892.625000000
  9
$TDINDWG
 40
0.0000000000
  9
$TDUSRTIMER
 40
0.0000000000
  9
$USRTIMER
 70
     1
  9
$ANGBASE
 50
0.0
  9
$ANGDIR
 70
     0
  9
$PDMODE
 70
     0
  9
$PDSIZE
 40
0.0
  9
$PLINEWID
 40
0.0
  9
$SPLFRAME
 70
     0
  9
$SPLINETYPE
 70
     6
  9
$SPLINESEGS
 70
     8
  9
$HANDSEED
  5
209
  9
$SURFTAB1
 70
     6
  9
$SURFTAB2
 70
     6
  9
$SURFTYPE
 70
     6
  9
$SURFU
 70
     6
  9
$SURFV
 70
     6
  9
$UCSBASE
  2

  9
$UCSNAME
  2

  9
$UCSORG
 10
0.0
 20
0.0
 30
0.0
  9
$UCSXDIR
 10
1.0
 20
0.0
 30
0.0
  9
$UCSYDIR
 10
0.0
 20
1.0
 30
0.0
  9
$UCSORTHOREF
  2

  9
$UCSORTHOVIEW
 70
     0
  9
$UCSORGTOP
 10
0.0
 20
0.0
 30
0.0
  9
$UCSORGBOTTOM
 10
0.0
 20
0.0
 30
0.0
  9
$UCSORGLEFT
 10
0.0
 20
0.0
 30
0.0
  9
$UCSORGRIGHT
 10
0.0
 20
0.0
 30
0.0
  9
$UCSORGFRONT
 10
0.0
 20
0.0
 30
0.0
  9
$UCSORGBACK
 10
0.0
 20
0.0
 30
0.0
  9
$PUCSBASE
  2

  9
$PUCSNAME
  2

  9
$PUCSORG
 10
0.0
 20
0.0
 30
0.0
  9
$PUCSXDIR
 10
1.0
 20
0.0
 30
0.0
  9
$PUCSYDIR
 10
0.0
 20
1.0
 30
0.0
  9
$PUCSORTHOREF
  2

  9
$PUCSORTHOVIEW
 70
     0
  9
$PUCSORGTOP
 10
0.0
 20
0.0
 30
0.0
  9
$PUCSORGBOTTOM
 10
0.0
 20
0.0
 30
0.0
  9
$PUCSORGLEFT
 10
0.0
 20
0.0
 30
0.0
  9
$PUCSORGRIGHT
 10
0.0
 20
0.0
 30
0.0
  9
$PUCSORGFRONT
 10
0.0
 20
0.0
 30
0.0
  9
$PUCSORGBACK
 10
0.0
 20
0.0
 30
0.0
  9
$USERI1
 70
     0
  9
$USERI2
 70
     0
  9
$USERI3
 70
     0
  9
$USERI4
 70
     0
  9
$USERI5
 70
     0
  9
$USERR1
 40
0.0
  9
$USERR2
 40
0.0
  9
$USERR3
 40
0.0
  9
$USERR4
 40
0.0
  9
$USERR5
 40
0.0
  9
$WORLDVIEW
 70
     1
  9
$SHADEDGE
 70
     3
  9
$SHADEDIF
 70
    70
  9
$TILEMODE
 70
     1
  9
$MAXACTVP
 70
    16
  9
$PINSBASE
 10
0.0
 20
0.0
 30
0.0
  9
$PLIMCHECK
 70
     0
  9
$PEXTMIN
 10
1.000000E+20
 20
1.000000E+20
 30
1.000000E+20
  9
$PEXTMAX
 10
-1.000000E+20
 20
-1.000000E+20
 30
-1.000000E+20
  9
$PLIMMIN
 10
0.0
 20
0.0
  9
$PLIMMAX
 10
12.0
 20
9.0
  9
$UNITMODE
 70
     0
  9
$VISRETAIN
 70
     0
  9
$PLINEGEN
 70
     1
  9
$PSLTSCALE
 70
     0
  9
$TREEDEPTH
 70
  3020
  9
$CMLSTYLE
  2
Standard
  9
$CMLJUST
 70
     0
  9
$CMLSCALE
 40
1.0
  9
$PROXYGRAPHICS
 70
     0
  9
$MEASUREMENT
 70
     0
  9
$CELWEIGHT
370
     0
  9
$ENDCAPS
280
     0
  9
$JOINSTYLE
280
     0
  9
$LWDISPLAY
290
     0
  9
$INSUNITS
 70
     0
  9
$HYPERLINKBASE
  1

  9
$STYLESHEET
  1

  9
$XEDIT
290
     1
  9
$CEPSNTYPE
380
     0
  9
$PSTYLEMODE
290
     1
  9
$FINGERPRINTGUID
  2

  9
$VERSIONGUID
  2

  9
$EXTNAMES
290
     1
  9
$PSVPSCALE
 40
0.0
  0
ENDSEC
  0
SECTION
  2
CLASSES
  0
CLASS
  1
LWPOLYLINE
  2
AcDbPolyline
  3
AutoCAD 2000
 90
        0
280
     0
281
     1
  0
CLASS
  1
IMAGE
  2
AcDbRasterImage
  3
ISM
 90
      127
280
     0
281
     1
  0
CLASS
  1
OLE2FRAME
  2
AcDbOle2Frame
  3
AutoCAD 2000
 90
        0
280
     0
281
     1
  0
CLASS
  1
HATCH
  2
AcDbHatch
  3
AutoCAD 2000
 90
        0
280
     0
281
     1
  0
CLASS
  1
DICTIONARYVAR
  2
AcDbDictionaryVar
  3
AutoCAD 2000
 90
        0
280
     0
281
     0
  0
CLASS
  1
RASTERVARIABLES
  2
AcDbRasterVariables
  3
ISM
 90
        0
280
     0
281
     0
  0
CLASS
  1
IMAGEDEF
  2
AcDbRasterImageDef
  3
ISM
 90
        0
280
     0
281
     0
  0
CLASS
  1
IMAGEDEF_REACTOR
  2
AcDbRasterImageDefReactor
  3
ISM
 90
        1
280
     0
281
     0
  0
CLASS
  1
IDBUFFER
  2
AcDbIdBuffer
  3
AutoCAD 2000
 90
        0
280
     0
281
     0
  0
CLASS
  1
SPATIAL_FILTER
  2
AcDbSpatialFilter
  3
AutoCAD 2000
 90
        0
280
     0
281
     0
  0
CLASS
  1
XRECORD
  2
AcDbXrecord
  3
AutoCAD 2000
 90
        0
280
     0
281
     0
  0
CLASS
  1
SORTENTSTABLE
  2
AcDbSortentsTable
  3
AutoCAD 2000
 90
        0
280
     0
281
     0
  0
CLASS
  1
LAYER_INDEX
  2
AcDbLayerIndex
  3
AutoCAD 2000
 90
        0
280
     0
281
     0
  0
CLASS
  1
SPATIAL_INDEX
  2
AcDbSpatialIndex
  3
AutoCAD 2000
 90
        0
280
     0
281
     0
  0
CLASS
  1
OBJECT_PTR
  2
CAseDLPNTableRecord
  3
"ASE-LPNTableRecord"
 90
        1
280
     0
281
     0
  0
CLASS
  1
LAYOUT
  2
AcDbLayout
  3
AutoCAD 2000
 90
        0
280
     0
281
     0
  0
CLASS
  1
PLOTSETTINGS
  2
AcDbPlotSettings
  3
AutoCAD 2000
 90
        0
280
     0
281
     0
  0
CLASS
  1
ACDBDICTIONARYWDFLT
  2
AcDbDictionaryWithDefault
  3
AutoCAD 2000
 90
        0
280
     0
281
     0
  0
CLASS
  1
ACDBPLACEHOLDER
  2
AcDbPlaceHolder
  3
AutoCAD 2000
 90
        0
280
     0
281
     0
  0
CLASS
  1
VBA_PROJECT
  2
AcDbVbaProject
  3
acadvba
 90
        0
280
     0
281
     0
  0
CLASS
  1
WIPEOUT
  2
AcDbWipeout
  3
WipeOut|AutoCAD Express Tool|expresstools@autodesk.com
 90
      127
280
     0
281
     1
  0
CLASS
  1
WIPEOUTVARIABLES
  2
AcDbWipeoutVariables
  3
WipeOut|AutoCAD Express Tool|expresstools@autodesk.com
 90
        0
280
     0
281
     0
  0
CLASS
  1
RTEXT
  2
RText
  3
RText|AutoCAD Express Tool|expresstools@autodesk.com
 90
        0
280
     0
281
     1
  0
CLASS
  1
ARCALIGNEDTEXT
  2
AcDbArcAlignedText
  3
ATEXT|AutoCAD Express Tool|expresstools@autodesk.com
 90
        0
280
     0
281
     1
  0
ENDSEC
  0
SECTION
  2
TABLES
  0
TABLE
  2
VPORT
  5
6
100
AcDbSymbolTable
 70
     1
  0
VPORT
  5
19
100
AcDbSymbolTableRecord
100
AcDbViewportTableRecord
  2
*ACTIVE
 70
     0
 10
0.0
 20
0.0
 11
1.0
 21
1.0
 12
0.0
 22
0.0
 13
0.0
 23
0.0
 14
1.0
 24
1.0
 15
0.0
 25
0.0
 16
0.0
 26
0.0
 36
1.0
 17
0.0
 27
0.0
 37
0.0
 40
1188.0
 41
1.415825
 42
50.0
 43
0.0
 44
0.0
 50
0.0
 51
0.0
 71
     0
 72
   500
 73
     1
 74
     1
 75
     0
 76
     0
 77
     0
 78
     0
281
     0
 65
     0
110
0.0
120
0.0
130
0.0
111
1.0
121
0.0
131
0.0
112
0.0
122
1.0
132
0.0
345
0
346
0
 79
     0
146
0.0
  0
ENDTAB
  0
TABLE
  2
LTYPE
  5
3
100
AcDbSymbolTable
 70
     9
  0
LTYPE
  5
C
100
AcDbSymbolTableRecord
100
AcDbLinetypeTableRecord
  2
ByBlock
 70
    64
  3

 72
    65
 73
     0
 40
0.0
  0
LTYPE
  5
D
100
AcDbSymbolTableRecord
100
AcDbLinetypeTableRecord
  2
ByLayer
 70
    64
  3

 72
    65
 73
     0
 40
0.0
  0
LTYPE
  5
E
100
AcDbSymbolTableRecord
100
AcDbLinetypeTableRecord
  2
CONTINUOUS
 70
     0
  3
Solid line
 72
    65
 73
     0
 40
0.0
  0
LTYPE
  5
F
100
AcDbSymbolTableRecord
100
AcDbLinetypeTableRecord
  2
DASHED
 70
     0
  3
__ __ __ __ __ __ __ __ __ __ __ __ __ __ __
 72
    65
 73
     2
 40
2.0
 49
1.2
 74
     0
 49
-0.8
 74
     0
  0
LTYPE
  5
10
100
AcDbSymbolTableRecord
100
AcDbLinetypeTableRecord
  2
CENTER
 70
     0
  3
____ _ ____ _ ____ _ ____ _ ____ _ ____ _ ____
 72
    65
 73
     4
 40
12.0
 49
9.0
 74
     0
 49
-1.0
 74
     0
 49
1.0
 74
     0
 49
-1.0
 74
     0
  0
LTYPE
  5
11
100
AcDbSymbolTableRecord
100
AcDbLinetypeTableRecord
  2
HIDDEN
 70
     0
  3
_ _ _ _ _ _ _ _ _ _ _ _ _ _ _ _ _ _ _ _ _ _ _
 72
    65
 73
     2
 40
3.2
 49
2.4
 74
     0
 49
-0.8
 74
     0
  0
LTYPE
  5
12
100
AcDbSymbolTableRecord
100
AcDbLinetypeTableRecord
  2
PHANTOM
 70
     0
  3
_____ _ _ _____ _ _ _____ _ _ _____ _ _ _____
 72
    65
 73
     6
 40
13.5
 49
9.0
 74
     0
 49
-1.0
 74
     0
 49
1.0
 74
     0
 49
-0.5
 74
     0
 49
1.0
 74
     0
 49
-1.0
 74
     0
  0
LTYPE
  5
13
100
AcDbSymbolTableRecord
100
AcDbLinetypeTableRecord
  2
DOT
 70
     0
  3
...............................................
 72
    65
 73
     2
 40
1.0
 49
0.5
 74
     0
 49
-0.5
 74
     0
  0
LTYPE
  5
14
100
AcDbSymbolTableRecord
100
AcDbLinetypeTableRecord
  2
DASHDOT
 70
     0
  3
__ . __ . __ . __ . __ . __ . __ . __ . __ . __
 72
    65
 73
     4
 40
8.0
 49
5.0
 74
     0
 49
-1.0
 74
     0
 49
1.0
 74
     0
 49
-1.0
 74
     0
  0
ENDTAB
  0
TABLE
  2
LAYER
  5
1
100
AcDbSymbolTable
 70
     4
  0
LAYER
  5
15
100
AcDbSymbolTableRecord
100
AcDbLayerTableRecord
  2
0
 70
     0
 62
   225
  6
CONTINUOUS
290
     1
370
    -3
390
0
  0
LAYER
  5
16
100
AcDbSymbolTableRecord
100
AcDbLayerTableRecord
  2
1
 70
     0
 62
     2
  6
CONTINUOUS
290
     1
370
    -3
390
0
  0
LAYER
  5
17
100
AcDbSymbolTableRecord
100
AcDbLayerTableRecord
  2
2
 70
     0
 62
     3
  6
CONTINUOUS
290
     1
370
    -3
390
0
  0
LAYER
  5
18
100
AcDbSymbolTableRecord
100
AcDbLayerTableRecord
  2
3
 70
     0
 62
     4
  6
CONTINUOUS
290
     1
370
    -3
390
0
  0
ENDTAB
  0
TABLE
  2
STYLE
  5
2
100
AcDbSymbolTable
 70
     1
  0
STYLE
  5
1B
100
AcDbSymbolTableRecord
100
AcDbTextStyleTableRecord
  2
STANDARD
 70
    64
 40
0.0
 41
1.0
 50
0.0
 71
     0
 42
1.0
  3
txt
  4
BIGFONT
  0
ENDTAB
  0
TABLE
  2
VIEW
  5
4
100
AcDbSymbolTable
 70
     0
  0
ENDTAB
  0
TABLE
  2
UCS
  5
5
100
AcDbSymbolTable
 70
     0
  0
ENDTAB
  0
TABLE
  2
APPID
  5
7
100
AcDbSymbolTable
 70
     1
  0
APPID
  5
1A
100
AcDbSymbolTableRecord
100
AcDbRegAppTableRecord
  2
ACAD
 70
     0
  0
ENDTAB
  0
TABLE
  2
DIMSTYLE
  5
8
100
AcDbSymbolTable
 70
     1
100
AcDbDimStyleTable
 71
     0
  0
DIMSTYLE
105
2C
100
AcDbSymbolTableRecord
100
AcDbDimStyleTableRecord
  2
Standard
 70
     0
  3

  4

 40
2.0
 41
2.0
 42
1.0
 43
0.38
 44
2.0
 45
0.0
 46
0.0
 47
0.0
 48
0.0
 71
     0
 72
     0
 73
     0
 74
     0
 75
     0
 76
     0
 77
     1
 78
     0
 79
     0
140
3.5
141
0.09
142
0.0
143
25.4
144
1.0
145
0.0
146
1.0
147
0.5
148
0.0
170
     0
171
     2
172
     0
173
     0
174
     0
175
     0
176
     0
177
     0
178
     0
179
     0
271
     3
272
     4
273
     2
274
     2
275
     0
276
     0
277
     2
278
    46
279
     0
280
     0
281
     0
282
     0
283
     1
284
     0
285
     0
286
     0
288
     0
289
     3
340
1B
341
0
342
0
343
0
344
0
371
    -2
372
    -2
  0
ENDTAB
  0
TABLE
  2
BLOCK_RECORD
  5
27
100
AcDbSymbolTable
 70
     9
  0
BLOCK_RECORD
  5
25
100
AcDbSymbolTableRecord
100
AcDbBlockTableRecord
  2
*Model_Space
340
0
  0
BLOCK_RECORD
  5
26
100
AcDbSymbolTableRecord
100
AcDbBlockTableRecord
  2
*Paper_Space
340
0
  0
BLOCK_RECORD
  5
1C
100
AcDbSymbolTableRecord
100
AcDbBlockTableRecord
  2
*D0
340
0
  0
BLOCK_RECORD
  5
1D
100
AcDbSymbolTableRecord
100
AcDbBlockTableRecord
  2
*D1
340
0
  0
BLOCK_RECORD
  5
1E
100
AcDbSymbolTableRecord
100
AcDbBlockTableRecord
  2
*D2
340
0
  0
BLOCK_RECORD
  5
1F
100
AcDbSymbolTableRecord
100
AcDbBlockTableRecord
  2
*D3
340
0
  0
BLOCK_RECORD
  5
20
100
AcDbSymbolTableRecord
100
AcDbBlockTableRecord
  2
*D4
340
0
  0
BLOCK_RECORD
  5
21
100
AcDbSymbolTableRecord
100
AcDbBlockTableRecord
  2
*D5
340
0
  0
BLOCK_RECORD
  5
22
100
AcDbSymbolTableRecord
100
AcDbBlockTableRecord
  2
*D6
340
0
  0
BLOCK_RECORD
  5
23
100
AcDbSymbolTableRecord
100
AcDbBlockTableRecord
  2
*D7
340
0
  0
BLOCK_RECORD
  5
24
100
AcDbSymbolTableRecord
100
AcDbBlockTableRecord
  2
*D8
340
0
  0
ENDTAB
  0
ENDSEC
  0
SECTION
  2
BLOCKS
  0
BLOCK
  5
28
100
AcDbEntity
  8
0
390
0
100
AcDbBlockBegin
  2
*Model_Space
 70
     0
 10
0.0
 20
0.0
 30
0.0
  3
*Model_Space
  1

  0
ENDBLK
  5
29
100
AcDbEntity
  8
0
390
0
100
AcDbBlockEnd
  0
BLOCK
  5
2A
100
AcDbEntity
 67
     1
  8
0
390
0
100
AcDbBlockBegin
  2
*Paper_Space
 70
     0
 10
0.0
 20
0.0
 30
0.0
  3
*Paper_Space
  1

  0
ENDBLK
  5
2B
100
AcDbEntity
 67
     1
  8
0
390
0
100
AcDbBlockEnd
  0
BLOCK
  5
19B
100
AcDbEntity
  8
3
100
AcDbBlockBegin
  2
*D0
 70
     1
 10
0.0
 20
0.0
 30
0.0
  3
*D0
  1

  0
TEXT
  5
19C
100
AcDbEntity
  8
3
370
    25
100
AcDbText
 10
-204.149722
 20
-123.705353
 30
0.0
 40
7.0
  1
１３５
 72
     5
 11
-184.549722
 21
-123.705353
 31
0.0
100
AcDbText
  0
LINE
  5
19D
100
AcDbEntity
  8
3
370
    25
100
AcDbLine
 10
-261.149387
 20
10.007529
 30
0.0
 11
-261.149387
 21
-126.705353
 31
0.0
  0
LINE
  5
19E
100
AcDbEntity
  8
3
370
    25
100
AcDbLine
 10
-261.149387
 20
-124.705353
 30
0.0
 11
-257.285683
 21
-125.740629
 31
0.0
  0
LINE
  5
19F
100
AcDbEntity
  8
3
370
    25
100
AcDbLine
 10
-261.149387
 20
-124.705353
 30
0.0
 11
-257.285683
 21
-123.670077
 31
0.0
  0
LINE
  5
1A0
100
AcDbEntity
  8
3
370
    25
100
AcDbLine
 10
-257.285683
 20
-125.740629
 30
0.0
 11
-257.285683
 21
-123.670077
 31
0.0
  0
LINE
  5
1A1
100
AcDbEntity
  8
3
370
    25
100
AcDbLine
 10
-261.149387
 20
-124.705353
 30
0.0
 11
-126.150058
 21
-124.705353
 31
0.0
  0
LINE
  5
1A2
100
AcDbEntity
  8
3
370
    25
100
AcDbLine
 10
-126.150058
 20
-124.705353
 30
0.0
 11
-130.013761
 21
-123.670077
 31
0.0
  0
LINE
  5
1A3
100
AcDbEntity
  8
3
370
    25
100
AcDbLine
 10
-126.150058
 20
-124.705353
 30
0.0
 11
-130.013761
 21
-125.740629
 31
0.0
  0
LINE
  5
1A4
100
AcDbEntity
  8
3
370
    25
100
AcDbLine
 10
-130.013761
 20
-123.670077
 30
0.0
 11
-130.013761
 21
-125.740629
 31
0.0
  0
LINE
  5
1A5
100
AcDbEntity
  8
3
370
    25
100
AcDbLine
 10
-126.150058
 20
10.007529
 30
0.0
 11
-126.150058
 21
-126.705353
 31
0.0
  0
ENDBLK
  5
1A6
100
AcDbEntity
  8
3
100
AcDbBlockEnd
  0
BLOCK
  5
1A7
100
AcDbEntity
  8
3
100
AcDbBlockBegin
  2
*D1
 70
     1
 10
0.0
 20
0.0
 30
0.0
  3
*D1
  1

  0
TEXT
  5
1A8
100
AcDbEntity
  8
3
370
    25
100
AcDbText
 10
-298.689133
 20
11.363883
 30
0.0
 40
7.0
  1
４０
 50
44.99932
 72
     5
 11
-289.779482
 21
20.273322
 31
0.0
100
AcDbText
  0
LINE
  5
1A9
100
AcDbEntity
  8
3
370
    25
100
AcDbLine
 10
-262.563584
 20
13.42176
 30
0.0
 11
-280.30409
 21
31.162686
 31
0.0
  0
LINE
  5
1AA
100
AcDbEntity
  8
3
370
    25
100
AcDbLine
 10
-278.889893
 20
29.748456
 30
0.0
 11
-282.354018
 21
27.748497
 31
0.0
  0
LINE
  5
1AB
100
AcDbEntity
  8
3
370
    25
100
AcDbLine
 10
-278.889893
 20
29.748456
 30
0.0
 11
-280.889934
 21
26.284378
 31
0.0
  0
LINE
  5
1AC
100
AcDbEntity
  8
3
370
    25
100
AcDbLine
 10
-282.354018
 20
27.748497
 30
0.0
 11
-280.889934
 21
26.284378
 31
0.0
  0
LINE
  5
1AD
100
AcDbEntity
  8
3
370
    25
100
AcDbLine
 10
-278.889893
 20
29.748456
 30
0.0
 11
-307.174564
 21
1.464456
 31
0.0
  0
LINE
  5
1AE
100
AcDbEntity
  8
3
370
    25
100
AcDbLine
 10
-307.174564
 20
1.464456
 30
0.0
 11
-303.710438
 21
3.464415
 31
0.0
  0
LINE
  5
1AF
100
AcDbEntity
  8
3
370
    25
100
AcDbLine
 10
-307.174564
 20
1.464456
 30
0.0
 11
-305.174523
 21
4.928534
 31
0.0
  0
LINE
  5
1B0
100
AcDbEntity
  8
3
370
    25
100
AcDbLine
 10
-303.710438
 20
3.464415
 30
0.0
 11
-305.174523
 21
4.928534
 31
0.0
  0
LINE
  5
1B1
100
AcDbEntity
  8
3
370
    25
100
AcDbLine
 10
-290.848255
 20
-14.86224
 30
0.0
 11
-308.588761
 21
2.878686
 31
0.0
  0
ENDBLK
  5
1B2
100
AcDbEntity
  8
3
100
AcDbBlockEnd
  0
BLOCK
  5
1B3
100
AcDbEntity
  8
3
100
AcDbBlockBegin
  2
*D2
 70
     1
 10
0.0
 20
0.0
 30
0.0
  3
*D2
  1

  0
TEXT
  5
1B4
100
AcDbEntity
  8
3
370
    25
100
AcDbText
 10
4.962133
 20
42.00735
 30
0.0
 40
7.0
  1
７４
 50
90.0
 72
     5
 11
4.962133
 21
54.60735
 31
0.0
100
AcDbText
  0
LINE
  5
1B5
100
AcDbEntity
  8
3
370
    25
100
AcDbLine
 10
230.100831
 20
12.007171
 30
0.0
 11
3.962133
 21
12.007171
 31
0.0
  0
LINE
  5
1B6
100
AcDbEntity
  8
3
370
    25
100
AcDbLine
 10
5.962133
 20
12.007171
 30
0.0
 11
6.99741
 21
15.870874
 31
0.0
  0
LINE
  5
1B7
100
AcDbEntity
  8
3
370
    25
100
AcDbLine
 10
5.962133
 20
12.007171
 30
0.0
 11
4.926857
 21
15.870874
 31
0.0
  0
LINE
  5
1B8
100
AcDbEntity
  8
3
370
    25
100
AcDbLine
 10
6.99741
 20
15.870874
 30
0.0
 11
4.926857
 21
15.870874
 31
0.0
  0
LINE
  5
1B9
100
AcDbEntity
  8
3
370
    25
100
AcDbLine
 10
5.962133
 20
12.007171
 30
0.0
 11
5.962133
 21
86.007529
 31
0.0
  0
LINE
  5
1BA
100
AcDbEntity
  8
3
370
    25
100
AcDbLine
 10
5.962133
 20
86.007529
 30
0.0
 11
4.926857
 21
82.143826
 31
0.0
  0
LINE
  5
1BB
100
AcDbEntity
  8
3
370
    25
100
AcDbLine
 10
5.962133
 20
86.007529
 30
0.0
 11
6.99741
 21
82.143826
 31
0.0
  0
LINE
  5
1BC
100
AcDbEntity
  8
3
370
    25
100
AcDbLine
 10
4.926857
 20
82.143826
 30
0.0
 11
6.99741
 21
82.143826
 31
0.0
  0
LINE
  5
1BD
100
AcDbEntity
  8
3
370
    25
100
AcDbLine
 10
204.349942
 20
86.007529
 30
0.0
 11
3.962133
 21
86.007529
 31
0.0
  0
ENDBLK
  5
1BE
100
AcDbEntity
  8
3
100
AcDbBlockEnd
  0
BLOCK
  5
1BF
100
AcDbEntity
  8
3
100
AcDbBlockBegin
  2
*D3
 70
     1
 10
0.0
 20
0.0
 30
0.0
  3
*D3
  1

  0
LINE
  5
1C0
100
AcDbEntity
  8
3
370
    25
100
AcDbLine
 10
206.349634
 20
-19.341796
 30
0.0
 11
206.349634
 21
-117.066544
 31
0.0
  0
LINE
  5
1C1
100
AcDbEntity
  8
3
370
    25
100
AcDbLine
 10
206.349634
 20
-115.066544
 30
0.0
 11
210.213337
 21
-116.10182
 31
0.0
  0
LINE
  5
1C2
100
AcDbEntity
  8
3
370
    25
100
AcDbLine
 10
206.349634
 20
-115.066544
 30
0.0
 11
210.213337
 21
-114.031267
 31
0.0
  0
LINE
  5
1C3
100
AcDbEntity
  8
3
370
    25
100
AcDbLine
 10
210.213337
 20
-116.10182
 30
0.0
 11
210.213337
 21
-114.031267
 31
0.0
  0
LINE
  5
1C4
100
AcDbEntity
  8
3
370
    25
100
AcDbLine
 10
206.349634
 20
-115.066544
 30
0.0
 11
281.349942
 21
-115.066544
 31
0.0
  0
LINE
  5
1C5
100
AcDbEntity
  8
3
370
    25
100
AcDbLine
 10
281.349942
 20
-115.066544
 30
0.0
 11
277.486239
 21
-114.031267
 31
0.0
  0
LINE
  5
1C6
100
AcDbEntity
  8
3
370
    25
100
AcDbLine
 10
281.349942
 20
-115.066544
 30
0.0
 11
277.486239
 21
-116.10182
 31
0.0
  0
LINE
  5
1C7
100
AcDbEntity
  8
3
370
    25
100
AcDbLine
 10
277.486239
 20
-114.031267
 30
0.0
 11
277.486239
 21
-116.10182
 31
0.0
  0
LINE
  5
1C8
100
AcDbEntity
  8
3
370
    25
100
AcDbLine
 10
281.349942
 20
-41.276471
 30
0.0
 11
281.349942
 21
-117.066544
 31
0.0
  0
ENDBLK
  5
1C9
100
AcDbEntity
  8
3
100
AcDbBlockEnd
  0
BLOCK
  5
1CA
100
AcDbEntity
  8
3
100
AcDbBlockBegin
  2
*D4
 70
     1
 10
0.0
 20
0.0
 30
0.0
  3
*D4
  1

  0
LINE
  5
1CB
100
AcDbEntity
  8
3
370
    25
100
AcDbLine
 10
281.349942
 20
-41.276471
 30
0.0
 11
281.349942
 21
-117.066544
 31
0.0
  0
LINE
  5
1CC
100
AcDbEntity
  8
3
370
    25
100
AcDbLine
 10
281.349942
 20
-115.066544
 30
0.0
 11
277.486239
 21
-114.031267
 31
0.0
  0
LINE
  5
1CD
100
AcDbEntity
  8
3
370
    25
100
AcDbLine
 10
281.349942
 20
-115.066544
 30
0.0
 11
277.486239
 21
-116.10182
 31
0.0
  0
LINE
  5
1CE
100
AcDbEntity
  8
3
370
    25
100
AcDbLine
 10
277.486239
 20
-114.031267
 30
0.0
 11
277.486239
 21
-116.10182
 31
0.0
  0
LINE
  5
1CF
100
AcDbEntity
  8
3
370
    25
100
AcDbLine
 10
271.349942
 20
-115.066544
 30
0.0
 11
331.349942
 21
-115.066544
 31
0.0
  0
LINE
  5
1D0
100
AcDbEntity
  8
3
370
    25
100
AcDbLine
 10
295.349942
 20
-115.066544
 30
0.0
 11
299.213646
 21
-116.10182
 31
0.0
  0
LINE
  5
1D1
100
AcDbEntity
  8
3
370
    25
100
AcDbLine
 10
295.349942
 20
-115.066544
 30
0.0
 11
299.213646
 21
-114.031267
 31
0.0
  0
LINE
  5
1D2
100
AcDbEntity
  8
3
370
    25
100
AcDbLine
 10
299.213646
 20
-116.10182
 30
0.0
 11
299.213646
 21
-114.031267
 31
0.0
  0
LINE
  5
1D3
100
AcDbEntity
  8
3
370
    25
100
AcDbLine
 10
295.349942
 20
-27.876471
 30
0.0
 11
295.349942
 21
-117.066544
 31
0.0
  0
ENDBLK
  5
1D4
100
AcDbEntity
  8
3
100
AcDbBlockEnd
  0
BLOCK
  5
1D5
100
AcDbEntity
  8
3
100
AcDbBlockBegin
  2
*D5
 70
     1
 10
0.0
 20
0.0
 30
0.0
  3
*D5
  1

  0
LINE
  5
1D6
100
AcDbEntity
  8
3
370
    25
100
AcDbLine
 10
-289.434058
 20
-18.276471
 30
0.0
 11
-289.434058
 21
-151.943192
 31
0.0
  0
LINE
  5
1D7
100
AcDbEntity
  8
3
370
    25
100
AcDbLine
 10
-289.434058
 20
-149.943192
 30
0.0
 11
-285.570354
 21
-150.978468
 31
0.0
  0
LINE
  5
1D8
100
AcDbEntity
  8
3
370
    25
100
AcDbLine
 10
-289.434058
 20
-149.943192
 30
0.0
 11
-285.570354
 21
-148.907915
 31
0.0
  0
LINE
  5
1D9
100
AcDbEntity
  8
3
370
    25
100
AcDbLine
 10
-285.570354
 20
-150.978468
 30
0.0
 11
-285.570354
 21
-148.907915
 31
0.0
  0
LINE
  5
1DA
100
AcDbEntity
  8
3
370
    25
100
AcDbLine
 10
-289.434058
 20
-149.943192
 30
0.0
 11
-97.865387
 21
-149.943192
 31
0.0
  0
LINE
  5
1DB
100
AcDbEntity
  8
3
370
    25
100
AcDbLine
 10
-97.865387
 20
-149.943192
 30
0.0
 11
-101.72909
 21
-148.907915
 31
0.0
  0
LINE
  5
1DC
100
AcDbEntity
  8
3
370
    25
100
AcDbLine
 10
-97.865387
 20
-149.943192
 30
0.0
 11
-101.72909
 21
-150.978468
 31
0.0
  0
LINE
  5
1DD
100
AcDbEntity
  8
3
370
    25
100
AcDbLine
 10
-101.72909
 20
-148.907915
 30
0.0
 11
-101.72909
 21
-150.978468
 31
0.0
  0
LINE
  5
1DE
100
AcDbEntity
  8
3
370
    25
100
AcDbLine
 10
-97.865387
 20
-18.276471
 30
0.0
 11
-97.865387
 21
-151.943192
 31
0.0
  0
ENDBLK
  5
1DF
100
AcDbEntity
  8
3
100
AcDbBlockEnd
  0
BLOCK
  5
1E0
100
AcDbEntity
  8
3
100
AcDbBlockBegin
  2
*D6
 70
     1
 10
0.0
 20
0.0
 30
0.0
  3
*D6
  1

  0
TEXT
  5
1E1
100
AcDbEntity
  8
3
370
    25
100
AcDbText
 10
110.849788
 20
-114.066544
 30
0.0
 40
7.0
  1
１７０
 72
     5
 11
130.449788
 21
-114.066544
 31
0.0
100
AcDbText
  0
LINE
  5
1E2
100
AcDbEntity
  8
3
370
    25
100
AcDbLine
 10
36.349942
 20
-83.992829
 30
0.0
 11
36.349942
 21
-117.066544
 31
0.0
  0
LINE
  5
1E3
100
AcDbEntity
  8
3
370
    25
100
AcDbLine
 10
36.349942
 20
-115.066544
 30
0.0
 11
40.213646
 21
-116.10182
 31
0.0
  0
LINE
  5
1E4
100
AcDbEntity
  8
3
370
    25
100
AcDbLine
 10
36.349942
 20
-115.066544
 30
0.0
 11
40.213646
 21
-114.031267
 31
0.0
  0
LINE
  5
1E5
100
AcDbEntity
  8
3
370
    25
100
AcDbLine
 10
40.213646
 20
-116.10182
 30
0.0
 11
40.213646
 21
-114.031267
 31
0.0
  0
LINE
  5
1E6
100
AcDbEntity
  8
3
370
    25
100
AcDbLine
 10
36.349942
 20
-115.066544
 30
0.0
 11
206.349634
 21
-115.066544
 31
0.0
  0
LINE
  5
1E7
100
AcDbEntity
  8
3
370
    25
100
AcDbLine
 10
206.349634
 20
-115.066544
 30
0.0
 11
202.485931
 21
-114.031267
 31
0.0
  0
LINE
  5
1E8
100
AcDbEntity
  8
3
370
    25
100
AcDbLine
 10
206.349634
 20
-115.066544
 30
0.0
 11
202.485931
 21
-116.10182
 31
0.0
  0
LINE
  5
1E9
100
AcDbEntity
  8
3
370
    25
100
AcDbLine
 10
202.485931
 20
-114.031267
 30
0.0
 11
202.485931
 21
-116.10182
 31
0.0
  0
LINE
  5
1EA
100
AcDbEntity
  8
3
370
    25
100
AcDbLine
 10
206.349634
 20
-19.341796
 30
0.0
 11
206.349634
 21
-117.066544
 31
0.0
  0
ENDBLK
  5
1EB
100
AcDbEntity
  8
3
100
AcDbBlockEnd
  0
BLOCK
  5
1EC
100
AcDbEntity
  8
3
100
AcDbBlockBegin
  2
*D7
 70
     1
 10
0.0
 20
0.0
 30
0.0
  3
*D7
  1

  0
TEXT
  5
1ED
100
AcDbEntity
  8
3
370
    25
100
AcDbText
 10
4.962133
 20
-41.992829
 30
0.0
 40
7.0
  1
９４
 50
90.0
 72
     5
 11
4.962133
 21
-29.392829
 31
0.0
100
AcDbText
  0
LINE
  5
1EE
100
AcDbEntity
  8
3
370
    25
100
AcDbLine
 10
34.349942
 20
-81.992829
 30
0.0
 11
3.962133
 21
-81.992829
 31
0.0
  0
LINE
  5
1EF
100
AcDbEntity
  8
3
370
    25
100
AcDbLine
 10
5.962133
 20
-81.992829
 30
0.0
 11
6.99741
 21
-78.129126
 31
0.0
  0
LINE
  5
1F0
100
AcDbEntity
  8
3
370
    25
100
AcDbLine
 10
5.962133
 20
-81.992829
 30
0.0
 11
4.926857
 21
-78.129126
 31
0.0
  0
LINE
  5
1F1
100
AcDbEntity
  8
3
370
    25
100
AcDbLine
 10
6.99741
 20
-78.129126
 30
0.0
 11
4.926857
 21
-78.129126
 31
0.0
  0
LINE
  5
1F2
100
AcDbEntity
  8
3
370
    25
100
AcDbLine
 10
5.962133
 20
-81.992829
 30
0.0
 11
5.962133
 21
12.007171
 31
0.0
  0
LINE
  5
1F3
100
AcDbEntity
  8
3
370
    25
100
AcDbLine
 10
5.962133
 20
12.007171
 30
0.0
 11
4.926857
 21
8.143468
 31
0.0
  0
LINE
  5
1F4
100
AcDbEntity
  8
3
370
    25
100
AcDbLine
 10
5.962133
 20
12.007171
 30
0.0
 11
6.99741
 21
8.143468
 31
0.0
  0
LINE
  5
1F5
100
AcDbEntity
  8
3
370
    25
100
AcDbLine
 10
4.926857
 20
8.143468
 30
0.0
 11
6.99741
 21
8.143468
 31
0.0
  0
LINE
  5
1F6
100
AcDbEntity
  8
3
370
    25
100
AcDbLine
 10
230.100831
 20
12.007171
 30
0.0
 11
3.962133
 21
12.007171
 31
0.0
  0
ENDBLK
  5
1F7
100
AcDbEntity
  8
3
100
AcDbBlockEnd
  0
BLOCK
  5
1F8
100
AcDbEntity
  8
3
100
AcDbBlockBegin
  2
*D8
 70
     1
 10
0.0
 20
0.0
 30
0.0
  3
*D8
  1

  0
TEXT
  5
1F9
100
AcDbEntity
  8
3
370
    25
100
AcDbText
 10
316.287933
 20
-23.276471
 30
0.0
 40
7.0
  1
４６
 50
90.0
 72
     5
 11
316.287933
 21
-10.676471
 31
0.0
100
AcDbText
  0
LINE
  5
1FA
100
AcDbEntity
  8
3
370
    25
100
AcDbLine
 10
283.349942
 20
-39.276471
 30
0.0
 11
319.287933
 21
-39.276471
 31
0.0
  0
LINE
  5
1FB
100
AcDbEntity
  8
3
370
    25
100
AcDbLine
 10
317.287933
 20
-39.276471
 30
0.0
 11
318.32321
 21
-35.412767
 31
0.0
  0
LINE
  5
1FC
100
AcDbEntity
  8
3
370
    25
100
AcDbLine
 10
317.287933
 20
-39.276471
 30
0.0
 11
316.252657
 21
-35.412767
 31
0.0
  0
LINE
  5
1FD
100
AcDbEntity
  8
3
370
    25
100
AcDbLine
 10
318.32321
 20
-35.412767
 30
0.0
 11
316.252657
 21
-35.412767
 31
0.0
  0
LINE
  5
1FE
100
AcDbEntity
  8
3
370
    25
100
AcDbLine
 10
317.287933
 20
-39.276471
 30
0.0
 11
317.287933
 21
6.723529
 31
0.0
  0
LINE
  5
1FF
100
AcDbEntity
  8
3
370
    25
100
AcDbLine
 10
317.287933
 20
6.723529
 30
0.0
 11
316.252657
 21
2.859826
 31
0.0
  0
LINE
  5
200
100
AcDbEntity
  8
3
370
    25
100
AcDbLine
 10
317.287933
 20
6.723529
 30
0.0
 11
318.32321
 21
2.859826
 31
0.0
  0
LINE
  5
201
100
AcDbEntity
  8
3
370
    25
100
AcDbLine
 10
316.252657
 20
2.859826
 30
0.0
 11
318.32321
 21
2.859826
 31
0.0
  0
LINE
  5
202
100
AcDbEntity
  8
3
370
    25
100
AcDbLine
 10
283.349942
 20
6.723529
 30
0.0
 11
319.287933
 21
6.723529
 31
0.0
  0
ENDBLK
  5
203
100
AcDbEntity
  8
3
100
AcDbBlockEnd
  0
ENDSEC
  0
SECTION
  2
ENTITIES
  0
LINE
  5
2D
100
AcDbEntity
  8
1
370
   100
100
AcDbLine
 10
-373.02157
 20
275.028767
 30
0.0
 11
394.982385
 21
275.028767
 31
0.0
  0
LINE
  5
2E
100
AcDbEntity
  8
1
370
   100
100
AcDbLine
 10
-373.02157
 20
275.028767
 30
0.0
 11
-373.02157
 21
-277.971881
 31
0.0
  0
LINE
  5
2F
100
AcDbEntity
  8
1
370
   100
100
AcDbLine
 10
-373.02157
 20
-277.971881
 30
0.0
 11
394.982385
 21
-277.971881
 31
0.0
  0
LINE
  5
30
100
AcDbEntity
  8
1
370
   100
100
AcDbLine
 10
394.982385
 20
-277.971881
 30
0.0
 11
394.982385
 21
275.028767
 31
0.0
  0
TEXT
  5
31
100
AcDbEntity
  8
1
370
    50
100
AcDbText
 10
359.628442
 20
-226.252857
 30
0.0
 40
6.0
  1
設計
 72
     5
 11
370.428442
 21
-226.252857
 31
0.0
100
AcDbText
  0
TEXT
  5
32
100
AcDbEntity
  8
1
370
    50
100
AcDbText
 10
379.127478
 20
-226.099658
 30
0.0
 40
6.0
  1
製図
 72
     5
 11
389.927478
 21
-226.099658
 31
0.0
100
AcDbText
  0
TEXT
  5
33
100
AcDbEntity
  8
1
370
    50
100
AcDbText
 10
319.005745
 20
-226.252857
 30
0.0
 40
6.0
  1
承認
 72
     5
 11
329.805745
 21
-226.252857
 31
0.0
100
AcDbText
  0
TEXT
  5
34
100
AcDbEntity
  8
1
370
    50
100
AcDbText
 10
338.989679
 20
-226.19802
 30
0.0
 40
6.0
  1
検図
 72
     5
 11
349.789679
 21
-226.19802
 31
0.0
100
AcDbText
  0
LINE
  5
35
100
AcDbEntity
  8
1
370
    25
100
AcDbLine
 10
284.982385
 20
-227.971881
 30
0.0
 11
394.982385
 21
-227.971881
 31
0.0
  0
LINE
  5
36
100
AcDbEntity
  8
1
370
    25
100
AcDbLine
 10
342.482385
 20
-245.971881
 30
0.0
 11
342.482385
 21
-259.971881
 31
0.0
  0
TEXT
  5
37
100
AcDbEntity
  8
1
370
    50
100
AcDbText
 10
319.55159
 20
-256.012528
 30
0.0
 40
6.0
  1
日　付
 72
     5
 11
336.35159
 21
-256.012528
 31
0.0
100
AcDbText
  0
LINE
  5
38
100
AcDbEntity
  8
1
370
    50
100
AcDbLine
 10
40.982385
 20
-259.971881
 30
0.0
 11
394.982385
 21
-259.971881
 31
0.0
  0
TEXT
  5
39
100
AcDbEntity
  8
1
370
    50
100
AcDbText
 10
287.775011
 20
-256.322406
 30
0.0
 40
6.0
  1
第三角法
 72
     5
 11
310.575011
 21
-256.322406
 31
0.0
100
AcDbText
  0
TEXT
  5
3A
100
AcDbEntity
  8
1
370
    50
100
AcDbText
 10
291.087419
 20
-225.99802
 30
0.0
 40
6.0
  1
尺　度
 72
     5
 11
307.887419
 21
-225.99802
 31
0.0
100
AcDbText
  0
LINE
  5
3B
100
AcDbEntity
  8
1
370
   100
100
AcDbLine
 10
40.982385
 20
-217.971881
 30
0.0
 11
394.982385
 21
-217.971881
 31
0.0
  0
LINE
  5
3C
100
AcDbEntity
  8
1
370
    50
100
AcDbLine
 10
211.982385
 20
-217.971881
 30
0.0
 11
211.982385
 21
-277.971881
 31
0.0
  0
LINE
  5
3D
100
AcDbEntity
  8
1
370
    25
100
AcDbLine
 10
374.982385
 20
-245.971881
 30
0.0
 11
374.982385
 21
-217.971881
 31
0.0
  0
LINE
  5
3E
100
AcDbEntity
  8
1
370
    25
100
AcDbLine
 10
354.982385
 20
-245.971881
 30
0.0
 11
354.982385
 21
-217.971881
 31
0.0
  0
LINE
  5
3F
100
AcDbEntity
  8
1
370
    25
100
AcDbLine
 10
334.982385
 20
-245.971881
 30
0.0
 11
334.982385
 21
-217.971881
 31
0.0
  0
LINE
  5
40
100
AcDbEntity
  8
1
370
    50
100
AcDbLine
 10
284.982385
 20
-277.971881
 30
0.0
 11
284.982385
 21
-217.971881
 31
0.0
  0
LINE
  5
41
100
AcDbEntity
  8
1
370
    50
100
AcDbLine
 10
189.982385
 20
-217.971881
 30
0.0
 11
189.982385
 21
-277.971881
 31
0.0
  0
LINE
  5
42
100
AcDbEntity
  8
1
370
    50
100
AcDbLine
 10
62.982385
 20
-217.971881
 30
0.0
 11
62.982385
 21
-259.971881
 31
0.0
  0
LINE
  5
43
100
AcDbEntity
  8
1
370
    50
100
AcDbLine
 10
284.982385
 20
-245.971881
 30
0.0
 11
394.982385
 21
-245.971881
 31
0.0
  0
TEXT
  5
44
100
AcDbEntity
  8
1
370
    50
100
AcDbText
 10
287.101129
 20
-271.880939
 30
0.0
 40
6.0
  1
コードＮｏ
 41
0.9
 72
     5
 11
313.021129
 21
-271.880939
 31
0.0
100
AcDbText
  0
TEXT
  5
45
100
AcDbEntity
  8
1
370
   100
100
AcDbText
 10
52.886774
 20
-272.875659
 30
0.0
 40
8.0
  1
ミズタニバルブ工業株式会社
 41
1.2
 72
     5
 11
175.766774
 21
-272.875659
 31
0.0
100
AcDbText
  0
LINE
  5
46
100
AcDbEntity
  8
1
370
    50
100
AcDbLine
 10
40.982385
 20
-238.971881
 30
0.0
 11
284.982385
 21
-238.971881
 31
0.0
  0
LINE
  5
47
100
AcDbEntity
  8
1
370
    50
100
AcDbLine
 10
115.482385
 20
-238.971881
 30
0.0
 11
115.482385
 21
-259.971881
 31
0.0
  0
LINE
  5
48
100
AcDbEntity
  8
1
370
    50
100
AcDbLine
 10
137.482385
 20
-238.971881
 30
0.0
 11
137.482385
 21
-259.971881
 31
0.0
  0
LINE
  5
49
100
AcDbEntity
  8
1
370
    50
100
AcDbLine
 10
314.982385
 20
-277.971881
 30
0.0
 11
314.982385
 21
-217.971881
 31
0.0
  0
TEXT
  5
4A
100
AcDbEntity
  8
1
370
    50
100
AcDbText
 10
345.098131
 20
-256.100293
 30
0.0
 40
6.0
  1
　　・　　・
 72
     5
 11
379.898131
 21
-256.100293
 31
0.0
100
AcDbText
  0
LINE
  5
4B
100
AcDbEntity
  8
1
370
   100
100
AcDbLine
 10
40.982385
 20
-217.971881
 30
0.0
 11
40.982385
 21
-277.971881
 31
0.0
  0
TEXT
  5
4C
100
AcDbEntity
  8
1
370
    50
100
AcDbText
 10
290.832582
 20
-240.013492
 30
0.0
 40
6.0
  1
　／ 
 72
     5
 11
301.632582
 21
-240.013492
 31
0.0
100
AcDbText
  0
TEXT
  5
4D
100
AcDbEntity
  8
1
370
    50
100
AcDbText
 10
193.904123
 20
-272.024909
 30
0.0
 40
6.0
  1
備 考 
 72
     5
 11
207.704123
 21
-272.024909
 31
0.0
100
AcDbText
  0
TEXT
  5
4E
100
AcDbEntity
  8
1
370
    50
100
AcDbText
 10
193.512534
 20
-230.89184
 30
0.0
 40
6.0
  1
仕 上
 72
     5
 11
207.312534
 21
-230.89184
 31
0.0
100
AcDbText
  0
TEXT
  5
4F
100
AcDbEntity
  8
1
370
    50
100
AcDbText
 10
193.447176
 20
-248.891666
 30
0.0
 40
6.0
  1
表 面
 72
     5
 11
207.247176
 21
-248.891666
 31
0.0
100
AcDbText
  0
TEXT
  5
50
100
AcDbEntity
  8
1
370
    50
100
AcDbText
 10
193.447176
 20
-255.891666
 30
0.0
 40
6.0
  1
処 理
 72
     5
 11
207.247176
 21
-255.891666
 31
0.0
100
AcDbText
  0
TEXT
  5
51
100
AcDbEntity
  8
1
370
    50
100
AcDbText
 10
44.79335
 20
-231.693399
 30
0.0
 40
6.0
  1
品 名
 72
     5
 11
58.59335
 21
-231.693399
 31
0.0
100
AcDbText
  0
TEXT
  5
52
100
AcDbEntity
  8
1
370
    50
100
AcDbText
 10
44.397766
 20
-252.462534
 30
0.0
 40
6.0
  1
材 質
 72
     5
 11
58.197766
 21
-252.462534
 31
0.0
100
AcDbText
  0
TEXT
  5
53
100
AcDbEntity
  8
1
370
    50
100
AcDbText
 10
118.897766
 20
-252.462534
 30
0.0
 40
6.0
  1
規 格
 72
     5
 11
132.697766
 21
-252.462534
 31
0.0
100
AcDbText
  0
LINE
  5
54
100
AcDbEntity
  8
2
370
    50
100
AcDbLine
 10
-113.650058
 20
12.007529
 30
0.0
 11
-113.650058
 21
35.007529
 31
0.0
  0
LINE
  5
55
100
AcDbEntity
  8
2
370
    50
100
AcDbLine
 10
-273.650058
 20
12.007529
 30
0.0
 11
-273.650058
 21
35.007529
 31
0.0
  0
LINE
  5
56
100
AcDbEntity
  8
2
370
    50
100
AcDbLine
 10
-138.650058
 20
33.757529
 30
0.0
 11
-138.650058
 21
35.007529
 31
0.0
  0
LINE
  5
57
100
AcDbEntity
  8
2
370
    50
100
AcDbLine
 10
-248.650058
 20
33.757529
 30
0.0
 11
-248.650058
 21
35.007529
 31
0.0
  0
ARC
  5
58
100
AcDbEntity
  8
2
370
    50
100
AcDbCircle
 10
-126.150058
 20
12.007529
 30
0.0
 40
12.5
100
AcDbArc
 50
270.0
 51
360.0
  0
ARC
  5
59
100
AcDbEntity
  8
2
370
    50
100
AcDbCircle
 10
-261.150058
 20
12.007529
 30
0.0
 40
12.5
100
AcDbArc
 50
180.0
 51
270.0
  0
LINE
  5
5A
100
AcDbEntity
  8
2
370
    50
100
AcDbLine
 10
-168.650058
 20
2.257529
 30
0.0
 11
-144.106603
 21
2.257529
 31
0.0
  0
ARC
  5
5B
100
AcDbEntity
  8
2
370
    50
100
AcDbCircle
 10
-126.150058
 20
29.507529
 30
0.0
 40
30.0
100
AcDbArc
 50
252.585892
 51
270.0
  0
ARC
  5
5C
100
AcDbEntity
  8
2
370
    50
100
AcDbCircle
 10
-144.106603
 20
-27.742471
 30
0.0
 40
30.0
100
AcDbArc
 50
72.585892
 51
90.0
  0
ARC
  5
5D
100
AcDbEntity
  8
2
370
    50
100
AcDbCircle
 10
-218.650058
 20
-9.742471
 30
0.0
 40
12.0
100
AcDbArc
 50
358.804541
 51
90.0
  0
LINE
  5
5E
100
AcDbEntity
  8
2
370
    50
100
AcDbLine
 10
-218.650058
 20
2.257529
 30
0.0
 11
-243.193513
 21
2.257529
 31
0.0
  0
ARC
  5
5F
100
AcDbEntity
  8
2
370
    50
100
AcDbCircle
 10
-243.193513
 20
-27.742471
 30
0.0
 40
30.0
100
AcDbArc
 50
90.0
 51
107.414108
  0
ARC
  5
60
100
AcDbEntity
  8
2
370
    50
100
AcDbCircle
 10
-261.150058
 20
29.507529
 30
0.0
 40
30.0
100
AcDbArc
 50
270.0
 51
287.414108
  0
POINT
  5
61
100
AcDbEntity
  8
2
370
    50
100
AcDbPoint
 10
-236.650058
 20
21.757529
 30
0.0
  0
POINT
  5
62
100
AcDbEntity
  8
2
370
    50
100
AcDbPoint
 10
-150.650058
 20
21.757529
 30
0.0
  0
ARC
  5
63
100
AcDbEntity
  8
2
370
    50
100
AcDbCircle
 10
-236.650058
 20
33.757529
 30
0.0
 40
12.0
100
AcDbArc
 50
180.0
 51
270.0
  0
ARC
  5
64
100
AcDbEntity
  8
2
370
    50
100
AcDbCircle
 10
-150.650058
 20
33.757529
 30
0.0
 40
12.0
100
AcDbArc
 50
270.0
 51
360.0
  0
ARC
  5
65
100
AcDbEntity
  8
2
370
    50
100
AcDbCircle
 10
-193.650058
 20
-476.390039
 30
0.0
 40
500.0
100
AcDbArc
 50
85.066469
 51
94.933531
  0
ARC
  5
66
100
AcDbEntity
  8
2
370
    50
100
AcDbCircle
 10
-261.150097
 20
6.007529
 30
0.0
 40
80.0
100
AcDbArc
 50
84.370157
 51
95.629843
  0
LINE
  5
67
100
AcDbEntity
  8
2
370
    50
100
AcDbLine
 10
-261.150058
 20
84.007529
 30
0.0
 11
-251.900097
 21
84.007529
 31
0.0
  0
ARC
  5
68
100
AcDbEntity
  8
2
370
    50
100
AcDbCircle
 10
-253.400097
 20
84.626468
 30
0.0
 40
1.0
100
AcDbArc
 50
0.0
 51
84.370157
  0
ARC
  5
69
100
AcDbEntity
  8
2
370
    50
100
AcDbCircle
 10
-186.431298
 20
56.428367
 30
0.0
 40
100.0
100
AcDbArc
 50
168.537652
 51
188.388164
  0
ARC
  5
6A
100
AcDbEntity
  8
2
370
    50
100
AcDbCircle
 10
-335.868895
 20
56.428367
 30
0.0
 40
100.0
100
AcDbArc
 50
351.611836
 51
11.462348
  0
ARC
  5
6B
100
AcDbEntity
  8
2
370
    50
100
AcDbCircle
 10
-261.150097
 20
-55.686556
 30
0.0
 40
140.0
100
AcDbArc
 50
93.788374
 51
96.34007
  0
ARC
  5
6C
100
AcDbEntity
  8
2
370
    50
100
AcDbCircle
 10
-261.150097
 20
-55.686556
 30
0.0
 40
140.0
100
AcDbArc
 50
83.65993
 51
86.211626
  0
ARC
  5
6D
100
AcDbEntity
  8
2
370
    50
100
AcDbCircle
 10
-275.616349
 20
74.512244
 30
0.0
 40
9.0
100
AcDbArc
 50
96.34007
 51
168.537652
  0
ARC
  5
6E
100
AcDbEntity
  8
2
370
    50
100
AcDbCircle
 10
-246.683844
 20
74.512244
 30
0.0
 40
9.0
100
AcDbArc
 50
11.462348
 51
83.65993
  0
ARC
  5
6F
100
AcDbEntity
  8
2
370
    50
100
AcDbCircle
 10
-277.447127
 20
43.007529
 30
0.0
 40
8.0
100
AcDbArc
 50
188.388164
 51
270.0
  0
ARC
  5
70
100
AcDbEntity
  8
2
370
    50
100
AcDbCircle
 10
-244.853066
 20
43.007529
 30
0.0
 40
8.0
100
AcDbArc
 50
270.0
 51
351.611836
  0
LINE
  5
71
100
AcDbEntity
  8
2
370
    50
100
AcDbLine
 10
-277.447127
 20
35.007529
 30
0.0
 11
-244.853066
 21
35.007529
 31
0.0
  0
LINE
  5
72
100
AcDbEntity
  8
2
370
    50
100
AcDbLine
 10
-269.900097
 20
84.626468
 30
0.0
 11
-269.900097
 21
84.007529
 31
0.0
  0
LINE
  5
73
100
AcDbEntity
  8
2
370
    50
100
AcDbLine
 10
-252.400097
 20
84.626468
 30
0.0
 11
-252.400097
 21
84.007529
 31
0.0
  0
ARC
  5
74
100
AcDbEntity
  8
2
370
    50
100
AcDbCircle
 10
-268.900097
 20
84.626468
 30
0.0
 40
1.0
100
AcDbArc
 50
95.629843
 51
180.0
  0
ARC
  5
75
100
AcDbEntity
  8
2
370
    50
100
AcDbCircle
 10
-253.400097
 20
84.626468
 30
0.0
 40
1.0
100
AcDbArc
 50
0.0
 51
84.370157
  0
ARC
  5
76
100
AcDbEntity
  8
2
370
    50
100
AcDbCircle
 10
-261.150097
 20
6.007529
 30
0.0
 40
80.0
100
AcDbArc
 50
84.370157
 51
95.629843
  0
LINE
  5
77
100
AcDbEntity
  8
2
370
    50
100
AcDbLine
 10
-270.400097
 20
84.007529
 30
0.0
 11
-261.150058
 21
84.007529
 31
0.0
  0
LINE
  5
78
100
AcDbEntity
  8
2
370
    50
100
AcDbLine
 10
-261.150058
 20
84.007529
 30
0.0
 11
-251.900097
 21
84.007529
 31
0.0
  0
ARC
  5
79
100
AcDbEntity
  8
2
370
    50
100
AcDbCircle
 10
-370.814998
 20
55.913194
 30
0.0
 40
120.0
100
AcDbArc
 50
355.059572
 51
9.155483
  0
ARC
  5
7A
100
AcDbEntity
  8
2
370
    50
100
AcDbCircle
 10
-151.485117
 20
55.913194
 30
0.0
 40
120.0
100
AcDbArc
 50
170.844517
 51
184.940428
  0
ARC
  5
7B
100
AcDbEntity
  8
2
370
    50
100
AcDbCircle
 10
-261.150058
 20
73.587609
 30
0.0
 40
8.91992
100
AcDbArc
 50
9.155483
 51
170.844517
  0
ARC
  5
7C
100
AcDbEntity
  8
2
370
    50
100
AcDbCircle
 10
-261.150058
 20
46.43364
 30
0.0
 40
9.926111
100
AcDbArc
 50
184.940428
 51
355.059572
  0
LINE
  5
7D
100
AcDbEntity
  8
2
370
    50
100
AcDbLine
 10
-246.650058
 20
80.507529
 30
0.0
 11
-246.650058
 21
39.507529
 31
0.0
  0
LINE
  5
7E
100
AcDbEntity
  8
2
370
    50
100
AcDbLine
 10
-275.650058
 20
80.507529
 30
0.0
 11
-275.650058
 21
39.507529
 31
0.0
  0
ARC
  5
7F
100
AcDbEntity
  8
2
370
    50
100
AcDbCircle
 10
-335.868857
 20
56.428367
 30
0.0
 40
99.5
100
AcDbArc
 50
352.362481
 51
11.528523
  0
ARC
  5
80
100
AcDbEntity
  8
2
370
    50
100
AcDbCircle
 10
-186.431259
 20
56.428367
 30
0.0
 40
99.5
100
AcDbArc
 50
168.471477
 51
187.637519
  0
ARC
  5
81
100
AcDbEntity
  8
2
370
    50
100
AcDbCircle
 10
-276.085277
 20
74.715167
 30
0.0
 40
8.0
100
AcDbArc
 50
105.117347
 51
168.471477
  0
ARC
  5
82
100
AcDbEntity
  8
2
370
    50
100
AcDbCircle
 10
-277.650058
 20
80.507529
 30
0.0
 40
2.0
100
AcDbArc
 50
0.0
 51
105.117347
  0
ARC
  5
83
100
AcDbEntity
  8
2
370
    50
100
AcDbCircle
 10
-246.214839
 20
74.715167
 30
0.0
 40
8.0
100
AcDbArc
 50
11.528523
 51
74.882653
  0
ARC
  5
84
100
AcDbEntity
  8
2
370
    50
100
AcDbCircle
 10
-244.650058
 20
80.507529
 30
0.0
 40
2.0
100
AcDbArc
 50
74.882653
 51
180.0
  0
ARC
  5
85
100
AcDbEntity
  8
2
370
    50
100
AcDbCircle
 10
-277.119537
 20
44.267519
 30
0.0
 40
8.0
100
AcDbArc
 50
187.637519
 51
252.175397
  0
ARC
  5
86
100
AcDbEntity
  8
2
370
    50
100
AcDbCircle
 10
-278.650058
 20
39.507529
 30
0.0
 40
3.0
100
AcDbArc
 50
252.175397
 51
360.0
  0
ARC
  5
87
100
AcDbEntity
  8
2
370
    50
100
AcDbCircle
 10
-243.650058
 20
39.507529
 30
0.0
 40
3.0
100
AcDbArc
 50
180.0
 51
287.824603
  0
ARC
  5
88
100
AcDbEntity
  8
2
370
    50
100
AcDbCircle
 10
-245.180578
 20
44.267519
 30
0.0
 40
8.0
100
AcDbArc
 50
287.824603
 51
352.362481
  0
POINT
  5
89
100
AcDbEntity
  8
2
370
    50
100
AcDbPoint
 10
-261.150058
 20
86.007529
 30
0.0
  0
LINE
  5
8A
100
AcDbEntity
  8
2
370
    50
100
AcDbLine
 10
-138.150058
 20
35.007529
 30
0.0
 11
-114.150058
 21
35.007529
 31
0.0
  0
ARC
  5
8B
100
AcDbEntity
  8
2
370
    50
100
AcDbCircle
 10
-51.43122
 20
56.428367
 30
0.0
 40
100.0
100
AcDbArc
 50
168.537652
 51
188.388164
  0
ARC
  5
8C
100
AcDbEntity
  8
2
370
    50
100
AcDbCircle
 10
-51.431259
 20
56.428367
 30
0.0
 40
99.5
100
AcDbArc
 50
168.471477
 51
187.637519
  0
ARC
  5
8D
100
AcDbEntity
  8
2
370
    50
100
AcDbCircle
 10
-140.616272
 20
74.512244
 30
0.0
 40
9.0
100
AcDbArc
 50
96.34007
 51
168.537652
  0
ARC
  5
8E
100
AcDbEntity
  8
2
370
    50
100
AcDbCircle
 10
-141.085277
 20
74.715167
 30
0.0
 40
8.0
100
AcDbArc
 50
105.117347
 51
168.471477
  0
ARC
  5
8F
100
AcDbEntity
  8
2
370
    50
100
AcDbCircle
 10
-142.650058
 20
80.507529
 30
0.0
 40
2.0
100
AcDbArc
 50
0.0
 51
105.117347
  0
LINE
  5
90
100
AcDbEntity
  8
2
370
    50
100
AcDbLine
 10
-140.650058
 20
80.507529
 30
0.0
 11
-140.650058
 21
39.507529
 31
0.0
  0
ARC
  5
91
100
AcDbEntity
  8
2
370
    50
100
AcDbCircle
 10
-143.650058
 20
39.507529
 30
0.0
 40
3.0
100
AcDbArc
 50
252.175397
 51
360.0
  0
ARC
  5
92
100
AcDbEntity
  8
2
370
    50
100
AcDbCircle
 10
-143.650058
 20
39.507529
 30
0.0
 40
3.0
100
AcDbArc
 50
252.175397
 51
360.0
  0
ARC
  5
93
100
AcDbEntity
  8
2
370
    50
100
AcDbCircle
 10
-142.119537
 20
44.267519
 30
0.0
 40
8.0
100
AcDbArc
 50
187.637519
 51
252.175397
  0
ARC
  5
94
100
AcDbEntity
  8
2
370
    50
100
AcDbCircle
 10
-142.447049
 20
43.007529
 30
0.0
 40
8.0
100
AcDbArc
 50
188.388164
 51
270.0
  0
LINE
  5
95
100
AcDbEntity
  8
2
370
    50
100
AcDbLine
 10
-109.852989
 20
35.007529
 30
0.0
 11
-142.447049
 21
35.007529
 31
0.0
  0
ARC
  5
96
100
AcDbEntity
  8
2
370
    50
100
AcDbCircle
 10
-109.852989
 20
43.007529
 30
0.0
 40
8.0
100
AcDbArc
 50
270.0
 51
351.611836
  0
ARC
  5
97
100
AcDbEntity
  8
2
370
    50
100
AcDbCircle
 10
-200.868818
 20
56.428367
 30
0.0
 40
100.0
100
AcDbArc
 50
351.611836
 51
11.462348
  0
ARC
  5
98
100
AcDbEntity
  8
2
370
    50
100
AcDbCircle
 10
-111.683766
 20
74.512244
 30
0.0
 40
9.0
100
AcDbArc
 50
11.462348
 51
83.65993
  0
ARC
  5
99
100
AcDbEntity
  8
2
370
    50
100
AcDbCircle
 10
-111.683766
 20
74.512244
 30
0.0
 40
9.0
100
AcDbArc
 50
11.462348
 51
83.65993
  0
ARC
  5
9A
100
AcDbEntity
  8
2
370
    50
100
AcDbCircle
 10
-126.150019
 20
-55.686556
 30
0.0
 40
140.0
100
AcDbArc
 50
83.65993
 51
86.211626
  0
LINE
  5
9B
100
AcDbEntity
  8
2
370
    50
100
AcDbLine
 10
-116.900019
 20
84.007529
 30
0.0
 11
-126.150058
 21
84.007529
 31
0.0
  0
LINE
  5
9C
100
AcDbEntity
  8
2
370
    50
100
AcDbLine
 10
-126.150058
 20
84.007529
 30
0.0
 11
-135.400019
 21
84.007529
 31
0.0
  0
ARC
  5
9D
100
AcDbEntity
  8
2
370
    50
100
AcDbCircle
 10
-126.150019
 20
-55.686556
 30
0.0
 40
140.0
100
AcDbArc
 50
93.788374
 51
96.34007
  0
ARC
  5
9E
100
AcDbEntity
  8
2
370
    50
100
AcDbCircle
 10
-126.150019
 20
-55.686556
 30
0.0
 40
140.0
100
AcDbArc
 50
93.788374
 51
96.34007
  0
ARC
  5
9F
100
AcDbEntity
  8
2
370
    50
100
AcDbCircle
 10
-126.150019
 20
6.007529
 30
0.0
 40
80.0
100
AcDbArc
 50
84.370157
 51
95.629843
  0
ARC
  5
A0
100
AcDbEntity
  8
2
370
    50
100
AcDbCircle
 10
-133.900019
 20
84.626468
 30
0.0
 40
1.0
100
AcDbArc
 50
95.629843
 51
180.0
  0
ARC
  5
A1
100
AcDbEntity
  8
2
370
    50
100
AcDbCircle
 10
-118.400019
 20
84.626468
 30
0.0
 40
1.0
100
AcDbArc
 50
0.0
 51
84.370157
  0
ARC
  5
A2
100
AcDbEntity
  8
2
370
    50
100
AcDbCircle
 10
-126.150058
 20
73.587609
 30
0.0
 40
8.91992
100
AcDbArc
 50
9.155483
 51
170.844517
  0
ARC
  5
A3
100
AcDbEntity
  8
2
370
    50
100
AcDbCircle
 10
-16.485117
 20
55.913194
 30
0.0
 40
120.0
100
AcDbArc
 50
170.844517
 51
184.940428
  0
ARC
  5
A4
100
AcDbEntity
  8
2
370
    50
100
AcDbCircle
 10
-235.814998
 20
55.913194
 30
0.0
 40
120.0
100
AcDbArc
 50
355.059572
 51
9.155483
  0
ARC
  5
A5
100
AcDbEntity
  8
2
370
    50
100
AcDbCircle
 10
-126.150058
 20
46.43364
 30
0.0
 40
9.926111
100
AcDbArc
 50
184.940428
 51
355.059572
  0
LINE
  5
A6
100
AcDbEntity
  8
2
370
    50
100
AcDbLine
 10
-111.650058
 20
80.507529
 30
0.0
 11
-111.650058
 21
39.507529
 31
0.0
  0
ARC
  5
A7
100
AcDbEntity
  8
2
370
    50
100
AcDbCircle
 10
-109.650058
 20
80.507529
 30
0.0
 40
2.0
100
AcDbArc
 50
74.882653
 51
180.0
  0
ARC
  5
A8
100
AcDbEntity
  8
2
370
    50
100
AcDbCircle
 10
-111.214839
 20
74.715167
 30
0.0
 40
8.0
100
AcDbArc
 50
11.528523
 51
74.882653
  0
ARC
  5
A9
100
AcDbEntity
  8
2
370
    50
100
AcDbCircle
 10
-200.868857
 20
56.428367
 30
0.0
 40
99.5
100
AcDbArc
 50
352.362481
 51
11.528523
  0
ARC
  5
AA
100
AcDbEntity
  8
2
370
    50
100
AcDbCircle
 10
-110.180578
 20
44.267519
 30
0.0
 40
8.0
100
AcDbArc
 50
287.824603
 51
352.362481
  0
ARC
  5
AB
100
AcDbEntity
  8
2
370
    50
100
AcDbCircle
 10
-110.180578
 20
44.267519
 30
0.0
 40
8.0
100
AcDbArc
 50
287.824603
 51
352.362481
  0
ARC
  5
AC
100
AcDbEntity
  8
2
370
    50
100
AcDbCircle
 10
-108.650058
 20
39.507529
 30
0.0
 40
3.0
100
AcDbArc
 50
180.0
 51
287.824603
  0
LINE
  5
AD
100
AcDbEntity
  8
2
370
    50
100
AcDbLine
 10
-126.150058
 20
84.007529
 30
0.0
 11
-135.400019
 21
84.007529
 31
0.0
  0
LINE
  5
AE
100
AcDbEntity
  8
2
370
    50
100
AcDbLine
 10
-117.400019
 20
84.626468
 30
0.0
 11
-117.400019
 21
84.007529
 31
0.0
  0
ARC
  5
AF
100
AcDbEntity
  8
2
370
    50
100
AcDbCircle
 10
-126.150019
 20
-55.686556
 30
0.0
 40
140.0
100
AcDbArc
 50
83.65993
 51
86.211626
  0
ARC
  5
B0
100
AcDbEntity
  8
2
370
    50
100
AcDbCircle
 10
-133.900019
 20
84.626468
 30
0.0
 40
1.0
100
AcDbArc
 50
95.629843
 51
180.0
  0
ARC
  5
B1
100
AcDbEntity
  8
2
370
    50
100
AcDbCircle
 10
-133.900019
 20
84.626468
 30
0.0
 40
1.0
100
AcDbArc
 50
95.629843
 51
180.0
  0
LINE
  5
B2
100
AcDbEntity
  8
2
370
    50
100
AcDbLine
 10
-134.900019
 20
84.626468
 30
0.0
 11
-134.900019
 21
84.007529
 31
0.0
  0
POINT
  5
B3
100
AcDbEntity
  8
2
370
    50
100
AcDbPoint
 10
-126.150058
 20
86.007529
 30
0.0
  0
POINT
  5
B4
100
AcDbEntity
  8
2
370
    50
100
AcDbPoint
 10
-126.150058
 20
12.007529
 30
0.0
  0
POINT
  5
B5
100
AcDbEntity
  8
2
370
    50
100
AcDbPoint
 10
-289.434058
 20
-16.276471
 30
0.0
  0
LINE
  5
B6
100
AcDbEntity
  8
2
370
    50
100
AcDbLine
 10
194.349942
 20
35.007529
 30
0.0
 11
218.349942
 21
35.007529
 31
0.0
  0
ARC
  5
B7
100
AcDbEntity
  8
2
370
    50
100
AcDbCircle
 10
281.06878
 20
56.428367
 30
0.0
 40
100.0
100
AcDbArc
 50
168.537652
 51
188.388164
  0
ARC
  5
B8
100
AcDbEntity
  8
2
370
    50
100
AcDbCircle
 10
281.068741
 20
56.428367
 30
0.0
 40
99.5
100
AcDbArc
 50
168.471477
 51
187.637519
  0
ARC
  5
B9
100
AcDbEntity
  8
2
370
    50
100
AcDbCircle
 10
191.883728
 20
74.512244
 30
0.0
 40
9.0
100
AcDbArc
 50
96.34007
 51
168.537652
  0
ARC
  5
BA
100
AcDbEntity
  8
2
370
    50
100
AcDbCircle
 10
191.414723
 20
74.715167
 30
0.0
 40
8.0
100
AcDbArc
 50
105.117347
 51
168.471477
  0
ARC
  5
BB
100
AcDbEntity
  8
2
370
    50
100
AcDbCircle
 10
189.849942
 20
80.507529
 30
0.0
 40
2.0
100
AcDbArc
 50
0.0
 51
105.117347
  0
LINE
  5
BC
100
AcDbEntity
  8
2
370
    50
100
AcDbLine
 10
191.849942
 20
80.507529
 30
0.0
 11
191.849942
 21
39.507529
 31
0.0
  0
ARC
  5
BD
100
AcDbEntity
  8
2
370
    50
100
AcDbCircle
 10
188.849942
 20
39.507529
 30
0.0
 40
3.0
100
AcDbArc
 50
252.175397
 51
360.0
  0
ARC
  5
BE
100
AcDbEntity
  8
2
370
    50
100
AcDbCircle
 10
188.849942
 20
39.507529
 30
0.0
 40
3.0
100
AcDbArc
 50
252.175397
 51
360.0
  0
ARC
  5
BF
100
AcDbEntity
  8
2
370
    50
100
AcDbCircle
 10
190.380463
 20
44.267519
 30
0.0
 40
8.0
100
AcDbArc
 50
187.637519
 51
252.175397
  0
ARC
  5
C0
100
AcDbEntity
  8
2
370
    50
100
AcDbCircle
 10
190.052951
 20
43.007529
 30
0.0
 40
8.0
100
AcDbArc
 50
188.388164
 51
270.0
  0
LINE
  5
C1
100
AcDbEntity
  8
2
370
    50
100
AcDbLine
 10
222.647011
 20
35.007529
 30
0.0
 11
190.052951
 21
35.007529
 31
0.0
  0
ARC
  5
C2
100
AcDbEntity
  8
2
370
    50
100
AcDbCircle
 10
222.647011
 20
43.007529
 30
0.0
 40
8.0
100
AcDbArc
 50
270.0
 51
351.611836
  0
ARC
  5
C3
100
AcDbEntity
  8
2
370
    50
100
AcDbCircle
 10
131.631182
 20
56.428367
 30
0.0
 40
100.0
100
AcDbArc
 50
351.611836
 51
11.462348
  0
ARC
  5
C4
100
AcDbEntity
  8
2
370
    50
100
AcDbCircle
 10
220.816234
 20
74.512244
 30
0.0
 40
9.0
100
AcDbArc
 50
11.462348
 51
83.65993
  0
ARC
  5
C5
100
AcDbEntity
  8
2
370
    50
100
AcDbCircle
 10
220.816234
 20
74.512244
 30
0.0
 40
9.0
100
AcDbArc
 50
11.462348
 51
83.65993
  0
ARC
  5
C6
100
AcDbEntity
  8
2
370
    50
100
AcDbCircle
 10
206.349981
 20
-55.686556
 30
0.0
 40
140.0
100
AcDbArc
 50
83.65993
 51
86.211626
  0
LINE
  5
C7
100
AcDbEntity
  8
2
370
    50
100
AcDbLine
 10
215.599981
 20
84.007529
 30
0.0
 11
206.349942
 21
84.007529
 31
0.0
  0
LINE
  5
C8
100
AcDbEntity
  8
2
370
    50
100
AcDbLine
 10
206.349942
 20
84.007529
 30
0.0
 11
197.099981
 21
84.007529
 31
0.0
  0
ARC
  5
C9
100
AcDbEntity
  8
2
370
    50
100
AcDbCircle
 10
206.349981
 20
-55.686556
 30
0.0
 40
140.0
100
AcDbArc
 50
93.788374
 51
96.34007
  0
ARC
  5
CA
100
AcDbEntity
  8
2
370
    50
100
AcDbCircle
 10
206.349981
 20
-55.686556
 30
0.0
 40
140.0
100
AcDbArc
 50
93.788374
 51
96.34007
  0
ARC
  5
CB
100
AcDbEntity
  8
2
370
    50
100
AcDbCircle
 10
206.349981
 20
6.007529
 30
0.0
 40
80.0
100
AcDbArc
 50
84.370157
 51
95.629843
  0
ARC
  5
CC
100
AcDbEntity
  8
2
370
    50
100
AcDbCircle
 10
198.599981
 20
84.626468
 30
0.0
 40
1.0
100
AcDbArc
 50
95.629843
 51
180.0
  0
ARC
  5
CD
100
AcDbEntity
  8
2
370
    50
100
AcDbCircle
 10
214.099981
 20
84.626468
 30
0.0
 40
1.0
100
AcDbArc
 50
0.0
 51
84.370157
  0
ARC
  5
CE
100
AcDbEntity
  8
2
370
    50
100
AcDbCircle
 10
206.349942
 20
73.587609
 30
0.0
 40
8.91992
100
AcDbArc
 50
9.155483
 51
170.844517
  0
ARC
  5
CF
100
AcDbEntity
  8
2
370
    50
100
AcDbCircle
 10
316.014883
 20
55.913194
 30
0.0
 40
120.0
100
AcDbArc
 50
170.844517
 51
184.940428
  0
ARC
  5
D0
100
AcDbEntity
  8
2
370
    50
100
AcDbCircle
 10
96.685002
 20
55.913194
 30
0.0
 40
120.0
100
AcDbArc
 50
355.059572
 51
9.155483
  0
ARC
  5
D1
100
AcDbEntity
  8
2
370
    50
100
AcDbCircle
 10
206.349942
 20
46.43364
 30
0.0
 40
9.926111
100
AcDbArc
 50
184.940428
 51
355.059572
  0
LINE
  5
D2
100
AcDbEntity
  8
2
370
    50
100
AcDbLine
 10
220.849942
 20
80.507529
 30
0.0
 11
220.849942
 21
39.507529
 31
0.0
  0
ARC
  5
D3
100
AcDbEntity
  8
2
370
    50
100
AcDbCircle
 10
222.849942
 20
80.507529
 30
0.0
 40
2.0
100
AcDbArc
 50
74.882653
 51
180.0
  0
ARC
  5
D4
100
AcDbEntity
  8
2
370
    50
100
AcDbCircle
 10
221.285161
 20
74.715167
 30
0.0
 40
8.0
100
AcDbArc
 50
11.528523
 51
74.882653
  0
ARC
  5
D5
100
AcDbEntity
  8
2
370
    50
100
AcDbCircle
 10
131.631143
 20
56.428367
 30
0.0
 40
99.5
100
AcDbArc
 50
352.362481
 51
11.528523
  0
ARC
  5
D6
100
AcDbEntity
  8
2
370
    50
100
AcDbCircle
 10
222.319422
 20
44.267519
 30
0.0
 40
8.0
100
AcDbArc
 50
287.824603
 51
352.362481
  0
ARC
  5
D7
100
AcDbEntity
  8
2
370
    50
100
AcDbCircle
 10
222.319422
 20
44.267519
 30
0.0
 40
8.0
100
AcDbArc
 50
287.824603
 51
352.362481
  0
ARC
  5
D8
100
AcDbEntity
  8
2
370
    50
100
AcDbCircle
 10
223.849942
 20
39.507529
 30
0.0
 40
3.0
100
AcDbArc
 50
180.0
 51
287.824603
  0
LINE
  5
D9
100
AcDbEntity
  8
2
370
    50
100
AcDbLine
 10
206.349942
 20
84.007529
 30
0.0
 11
197.099981
 21
84.007529
 31
0.0
  0
LINE
  5
DA
100
AcDbEntity
  8
2
370
    50
100
AcDbLine
 10
215.099981
 20
84.626468
 30
0.0
 11
215.099981
 21
84.007529
 31
0.0
  0
ARC
  5
DB
100
AcDbEntity
  8
2
370
    50
100
AcDbCircle
 10
206.349981
 20
-55.686556
 30
0.0
 40
140.0
100
AcDbArc
 50
83.65993
 51
86.211626
  0
ARC
  5
DC
100
AcDbEntity
  8
2
370
    50
100
AcDbCircle
 10
198.599981
 20
84.626468
 30
0.0
 40
1.0
100
AcDbArc
 50
95.629843
 51
180.0
  0
ARC
  5
DD
100
AcDbEntity
  8
2
370
    50
100
AcDbCircle
 10
198.599981
 20
84.626468
 30
0.0
 40
1.0
100
AcDbArc
 50
95.629843
 51
180.0
  0
LINE
  5
DE
100
AcDbEntity
  8
2
370
    50
100
AcDbLine
 10
197.599981
 20
84.626468
 30
0.0
 11
197.599981
 21
84.007529
 31
0.0
  0
POINT
  5
DF
100
AcDbEntity
  8
2
370
    50
100
AcDbPoint
 10
206.349942
 20
86.007529
 30
0.0
  0
LINE
  5
E0
100
AcDbEntity
  8
2
370
    50
100
AcDbLine
 10
194.349942
 20
22.602339
 30
0.0
 11
194.349942
 21
35.007529
 31
0.0
  0
LINE
  5
E1
100
AcDbEntity
  8
2
370
    50
100
AcDbLine
 10
218.349942
 20
29.944783
 30
0.0
 11
218.349942
 21
35.007529
 31
0.0
  0
ARC
  5
E2
100
AcDbEntity
  8
2
370
    50
100
AcDbCircle
 10
206.349942
 20
12.007529
 30
0.0
 40
12.5
100
AcDbArc
 50
174.596099
 51
292.619865
  0
ARC
  5
E3
100
AcDbEntity
  8
2
370
    50
100
AcDbCircle
 10
94.349942
 20
22.602339
 30
0.0
 40
100.0
100
AcDbArc
 50
354.596099
 51
360.0
  0
LINE
  5
E4
100
AcDbEntity
  8
2
370
    50
100
AcDbLine
 10
221.349942
 20
22.007529
 30
0.0
 11
225.849942
 21
22.007529
 31
0.0
  0
LINE
  5
E5
100
AcDbEntity
  8
2
370
    50
100
AcDbLine
 10
218.849942
 20
2.007529
 30
0.0
 11
225.849942
 21
2.007529
 31
0.0
  0
ARC
  5
E6
100
AcDbEntity
  8
2
370
    50
100
AcDbCircle
 10
230.349942
 20
29.944783
 30
0.0
 40
12.0
100
AcDbArc
 50
180.0
 51
221.409622
  0
ARC
  5
E7
100
AcDbEntity
  8
2
370
    50
100
AcDbCircle
 10
218.849942
 20
-17.992471
 30
0.0
 40
20.0
100
AcDbArc
 50
90.0
 51
112.619865
  0
LINE
  5
E8
100
AcDbEntity
  8
2
370
    50
100
AcDbLine
 10
225.849942
 20
-2.519139
 30
0.0
 11
225.849942
 21
26.534198
 31
0.0
  0
LINE
  5
E9
100
AcDbEntity
  8
2
370
    50
100
AcDbLine
 10
238.850831
 20
26.272468
 30
0.0
 11
238.850831
 21
-2.257409
 31
0.0
  0
ARC
  5
EA
100
AcDbEntity
  8
2
370
    50
100
AcDbCircle
 10
232.100831
 20
14.007171
 30
0.0
 40
14.0
100
AcDbArc
 50
61.174551
 51
116.518838
  0
LINE
  5
EB
100
AcDbEntity
  8
2
370
    50
100
AcDbLine
 10
271.349942
 20
-4.096814
 30
0.0
 11
271.349942
 21
-28.776596
 31
0.0
  0
LINE
  5
EC
100
AcDbEntity
  8
2
370
    50
100
AcDbLine
 10
295.349942
 20
-6.676471
 30
0.0
 11
295.349942
 21
-25.876471
 31
0.0
  0
LINE
  5
ED
100
AcDbEntity
  8
2
370
    50
100
AcDbLine
 10
281.349942
 20
6.723529
 30
0.0
 11
279.364557
 21
6.723529
 31
0.0
  0
LINE
  5
EE
100
AcDbEntity
  8
2
370
    50
100
AcDbLine
 10
281.349942
 20
6.723529
 30
0.0
 11
281.349942
 21
-39.276471
 31
0.0
  0
LINE
  5
EF
100
AcDbEntity
  8
2
370
    50
100
AcDbLine
 10
278.550826
 20
-38.857714
 30
0.0
 11
271.536212
 21
-29.03737
 31
0.0
  0
LINE
  5
F0
100
AcDbEntity
  8
2
370
    50
100
AcDbLine
 10
278.550826
 20
6.304772
 30
0.0
 11
271.536212
 21
-3.515571
 31
0.0
  0
ARC
  5
F1
100
AcDbEntity
  8
2
370
    50
100
AcDbCircle
 10
272.349942
 20
-28.456127
 30
0.0
 40
1.0
100
AcDbArc
 50
180.0
 51
215.538
  0
ARC
  5
F2
100
AcDbEntity
  8
2
370
    50
100
AcDbCircle
 10
272.349942
 20
-4.096814
 30
0.0
 40
1.0
100
AcDbArc
 50
144.462
 51
180.0
  0
ARC
  5
F3
100
AcDbEntity
  8
2
370
    50
100
AcDbCircle
 10
279.364557
 20
-38.276471
 30
0.0
 40
1.0
100
AcDbArc
 50
215.538
 51
270.0
  0
ARC
  5
F4
100
AcDbEntity
  8
2
370
    50
100
AcDbCircle
 10
279.364557
 20
5.723529
 30
0.0
 40
1.0
100
AcDbArc
 50
90.0
 51
144.462
  0
LINE
  5
F5
100
AcDbEntity
  8
2
370
    50
100
AcDbLine
 10
278.849942
 20
6.580951
 30
0.0
 11
278.849942
 21
-39.133893
 31
0.0
  0
LINE
  5
F6
100
AcDbEntity
  8
2
370
    50
100
AcDbLine
 10
295.349942
 20
-25.876471
 30
0.0
 11
281.349942
 21
-25.876471
 31
0.0
  0
LINE
  5
F7
100
AcDbEntity
  8
2
370
    50
100
AcDbLine
 10
295.349942
 20
-6.676471
 30
0.0
 11
281.349942
 21
-6.676471
 31
0.0
  0
LINE
  5
F8
100
AcDbEntity
  8
2
370
    50
100
AcDbLine
 10
295.349942
 20
-25.876471
 30
0.0
 11
294.449942
 21
-26.776471
 31
0.0
  0
LINE
  5
F9
100
AcDbEntity
  8
2
370
    50
100
AcDbLine
 10
295.349942
 20
-6.676471
 30
0.0
 11
294.449942
 21
-5.776471
 31
0.0
  0
LINE
  5
FA
100
AcDbEntity
  8
2
370
    50
100
AcDbLine
 10
294.449942
 20
-5.776471
 30
0.0
 11
294.449942
 21
-26.776471
 31
0.0
  0
LINE
  5
FB
100
AcDbEntity
  8
2
370
    50
100
AcDbLine
 10
263.349942
 20
-5.776471
 30
0.0
 11
271.349942
 21
-5.776471
 31
0.0
  0
LINE
  5
FC
100
AcDbEntity
  8
2
370
    50
100
AcDbLine
 10
281.349942
 20
-5.776471
 30
0.0
 11
294.449942
 21
-5.776471
 31
0.0
  0
LINE
  5
FD
100
AcDbEntity
  8
2
370
    50
100
AcDbLine
 10
249.349942
 20
-26.776471
 30
0.0
 11
271.349942
 21
-26.776471
 31
0.0
  0
LINE
  5
FE
100
AcDbEntity
  8
2
370
    50
100
AcDbLine
 10
281.349942
 20
-26.776471
 30
0.0
 11
294.449942
 21
-26.776471
 31
0.0
  0
CIRCLE
  5
FF
100
AcDbEntity
  8
2
370
    50
100
AcDbCircle
 10
232.100831
 20
12.007171
 30
0.0
 40
4.75
  0
ELLIPSE
  5
100
100
AcDbEntity
  8
2
370
    50
100
AcDbEllipse
 10
232.100831
 20
25.882171
 30
0.0
 11
4.7429389999999998
 21
0.0
 31
0.0
210
0.0
220
0.0
230
1.0
 40
0.463545
 41
0.0
 42
6.2831849999999996
  0
ELLIPSE
  5
101
100
AcDbEntity
  8
2
370
    50
100
AcDbEllipse
 10
232.100831
 20
-1.867113
 30
0.0
 11
-4.7429389999999998
 21
0.0
 31
0.0
210
0.0
220
0.0
230
1.0
 40
0.463545
 41
0.0
 42
6.2831849999999996
  0
ARC
  5
102
100
AcDbEntity
  8
2
370
    50
100
AcDbCircle
 10
232.100831
 20
10.007887
 30
0.0
 40
14.0
100
AcDbArc
 50
243.481162
 51
298.825449
  0
LINE
  5
103
100
AcDbEntity
  8
2
370
    50
100
AcDbLine
 10
249.349942
 20
-0.992495
 30
0.0
 11
238.850831
 21
-0.992495
 31
0.0
  0
LINE
  5
104
100
AcDbEntity
  8
2
370
    50
100
AcDbLine
 10
238.850831
 20
25.807529
 30
0.0
 11
263.349942
 21
25.807529
 31
0.0
  0
LINE
  5
105
100
AcDbEntity
  8
2
370
    50
100
AcDbLine
 10
263.349942
 20
25.807529
 30
0.0
 11
263.349942
 21
-5.776471
 31
0.0
  0
LINE
  5
106
100
AcDbEntity
  8
2
370
    50
100
AcDbLine
 10
249.349942
 20
10.939223
 30
0.0
 11
249.349942
 21
-26.776471
 31
0.0
  0
LINE
  5
107
100
AcDbEntity
  8
2
370
    50
100
AcDbLine
 10
225.849942
 20
22.007529
 30
0.0
 11
223.349942
 21
22.007529
 31
0.0
  0
LINE
  5
108
100
AcDbEntity
  8
2
370
    50
100
AcDbLine
 10
225.849942
 20
2.007529
 30
0.0
 11
223.349942
 21
2.007529
 31
0.0
  0
LINE
  5
109
100
AcDbEntity
  8
2
370
    50
100
AcDbLine
 10
218.600368
 20
2.007529
 30
0.0
 11
218.600368
 21
-9.992829
 31
0.0
  0
LINE
  5
10A
100
AcDbEntity
  8
2
370
    50
100
AcDbLine
 10
194.100368
 20
9.517966
 30
0.0
 11
194.100368
 21
-9.992829
 31
0.0
  0
LINE
  5
10B
100
AcDbEntity
  8
2
370
    50
100
AcDbLine
 10
279.364557
 20
-39.276471
 30
0.0
 11
281.349942
 21
-39.276471
 31
0.0
  0
POINT
  5
10C
100
AcDbEntity
  8
2
370
    50
100
AcDbPoint
 10
232.100831
 20
12.007171
 30
0.0
  0
POINT
  5
10D
100
AcDbEntity
  8
2
370
    50
100
AcDbPoint
 10
-261.149387
 20
12.007529
 30
0.0
  0
LINE
  5
10E
100
AcDbEntity
  8
2
370
    50
100
AcDbLine
 10
-185.749722
 20
-81.992829
 30
0.0
 11
-201.549722
 21
-81.992829
 31
0.0
  0
LINE
  5
10F
100
AcDbEntity
  8
2
370
    50
100
AcDbLine
 10
-185.749722
 20
-76.992829
 30
0.0
 11
-201.549722
 21
-76.992829
 31
0.0
  0
LINE
  5
110
100
AcDbEntity
  8
2
370
    50
100
AcDbLine
 10
-185.749722
 20
-19.992829
 30
0.0
 11
-185.749722
 21
-76.992829
 31
0.0
  0
LINE
  5
111
100
AcDbEntity
  8
2
370
    50
100
AcDbLine
 10
-201.549722
 20
-19.992829
 30
0.0
 11
-201.549722
 21
-76.992829
 31
0.0
  0
ARC
  5
112
100
AcDbEntity
  8
2
370
    50
100
AcDbCircle
 10
-193.649722
 20
-48.992829
 30
0.0
 40
7.9
100
AcDbArc
 50
0.0
 51
180.0
  0
ARC
  5
113
100
AcDbEntity
  8
2
370
    50
100
AcDbCircle
 10
-198.427223
 20
-79.492829
 30
0.0
 40
4.0
100
AcDbArc
 50
141.317813
 51
218.682187
  0
ARC
  5
114
100
AcDbEntity
  8
2
370
    50
100
AcDbCircle
 10
-188.872221
 20
-79.492829
 30
0.0
 40
4.0
100
AcDbArc
 50
321.317813
 51
38.682187
  0
LINE
  5
115
100
AcDbEntity
  8
2
370
    50
100
AcDbLine
 10
217.964942
 20
-9.992829
 30
0.0
 11
218.600368
 21
-9.357403
 31
0.0
  0
LINE
  5
116
100
AcDbEntity
  8
2
370
    50
100
AcDbLine
 10
194.734942
 20
-9.992829
 30
0.0
 11
194.100368
 21
-9.358254
 31
0.0
  0
ARC
  5
117
100
AcDbEntity
  8
2
370
    50
100
AcDbCircle
 10
-168.650058
 20
-9.742471
 30
0.0
 40
12.0
100
AcDbArc
 50
90.0
 51
181.195459
  0
LINE
  5
118
100
AcDbEntity
  8
2
370
    50
100
AcDbLine
 10
-181.284949
 20
-9.992829
 30
0.0
 11
-206.014949
 21
-9.992829
 31
0.0
  0
LINE
  5
119
100
AcDbEntity
  8
2
370
    50
100
AcDbLine
 10
-181.284949
 20
-9.992829
 30
0.0
 11
-180.643689
 21
-9.351569
 31
0.0
  0
LINE
  5
11A
100
AcDbEntity
  8
2
370
    50
100
AcDbLine
 10
-206.014949
 20
-9.992829
 30
0.0
 11
-206.656208
 21
-9.351569
 31
0.0
  0
POINT
  5
11B
100
AcDbEntity
  8
2
370
    50
100
AcDbPoint
 10
36.349942
 20
-81.992829
 30
0.0
  0
POINT
  5
11C
100
AcDbEntity
  8
2
370
    50
100
AcDbPoint
 10
-97.865387
 20
-16.276471
 30
0.0
  0
LINE
  5
11D
100
AcDbEntity
  8
2
370
    50
100
AcDbLine
 10
-299.191732
 20
-6.518668
 30
0.0
 11
-273.650058
 21
15.961606
 31
0.0
  0
ARC
  5
11E
100
AcDbEntity
  8
2
370
    50
100
AcDbCircle
 10
-289.433658
 20
-16.276742
 30
0.0
 40
13.8
100
AcDbArc
 50
135.0
 51
315.0
  0
LINE
  5
11F
100
AcDbEntity
  8
2
370
    50
100
AcDbLine
 10
-256.932486
 20
-0.194526
 30
0.0
 11
-279.675584
 21
-26.034816
 31
0.0
  0
ARC
  5
120
100
AcDbEntity
  8
2
370
    50
100
AcDbCircle
 10
-97.865787
 20
-16.276742
 30
0.0
 40
13.8
100
AcDbArc
 50
225.0
 51
45.0
  0
LINE
  5
121
100
AcDbEntity
  8
2
370
    50
100
AcDbLine
 10
-130.366959
 20
-0.194526
 30
0.0
 11
-107.62386
 21
-26.034816
 31
0.0
  0
LINE
  5
122
100
AcDbEntity
  8
2
370
    50
100
AcDbLine
 10
-88.107713
 20
-6.518668
 30
0.0
 11
-113.649387
 21
15.961606
 31
0.0
  0
ARC
  5
123
100
AcDbEntity
  8
2
370
    50
100
AcDbCircle
 10
-97.865387
 20
-16.276471
 30
0.0
 40
23.0
100
AcDbArc
 50
168.136713
 51
101.866232
  0
ARC
  5
124
100
AcDbEntity
  8
2
370
    50
100
AcDbCircle
 10
-289.434058
 20
-16.276471
 30
0.0
 40
23.0
100
AcDbArc
 50
78.133768
 51
11.863287
  0
POINT
  5
125
100
AcDbEntity
  8
2
370
    50
100
AcDbPoint
 10
206.349634
 20
-17.341796
 30
0.0
  0
LINE
  5
126
100
AcDbEntity
  8
2
370
    50
100
AcDbLine
 10
28.738806
 20
-81.992829
 30
0.0
 11
28.438806
 21
-81.992829
 31
0.0
  0
ARC
  5
127
100
AcDbEntity
  8
2
370
    50
100
AcDbCircle
 10
176.449149
 20
-19.092829
 30
0.0
 40
22.0
100
AcDbArc
 50
270.0
 51
357.655427
  0
ARC
  5
128
100
AcDbEntity
  8
2
370
    50
100
AcDbCircle
 10
66.088806
 20
-78.892829
 30
0.0
 40
22.0
100
AcDbArc
 50
90.0
 51
175.045556
  0
ARC
  5
129
100
AcDbEntity
  8
2
370
    50
100
AcDbCircle
 10
176.449149
 20
-19.092829
 30
0.0
 40
37.8
100
AcDbArc
 50
270.0
 51
358.635686
  0
ARC
  5
12A
100
AcDbEntity
  8
2
370
    50
100
AcDbCircle
 10
66.088806
 20
-78.892829
 30
0.0
 40
37.8
100
AcDbArc
 50
90.0
 51
177.118839
  0
ARC
  5
12B
100
AcDbEntity
  8
2
370
    50
100
AcDbCircle
 10
41.008099
 20
-79.441507
 30
0.0
 40
4.0
100
AcDbArc
 50
320.369767
 51
37.74654
  0
LINE
  5
12C
100
AcDbEntity
  8
2
370
    50
100
AcDbLine
 10
44.171005
 20
-76.992829
 30
0.0
 11
28.336587
 21
-76.992829
 31
0.0
  0
ARC
  5
12D
100
AcDbEntity
  8
2
370
    50
100
AcDbCircle
 10
31.509125
 20
-79.429015
 30
0.0
 40
4.0
100
AcDbArc
 50
142.479401
 51
219.862948
  0
LINE
  5
12E
100
AcDbEntity
  8
2
370
    50
100
AcDbLine
 10
28.738806
 20
-81.992829
 30
0.0
 11
44.088806
 21
-81.992829
 31
0.0
  0
LINE
  5
12F
100
AcDbEntity
  8
2
370
    50
100
AcDbLine
 10
91.198149
 20
-41.092829
 30
0.0
 11
66.088806
 21
-41.092829
 31
0.0
  0
LINE
  5
130
100
AcDbEntity
  8
2
370
    50
100
AcDbLine
 10
198.430733
 20
-19.992829
 30
0.0
 11
195.949149
 21
-19.992829
 31
0.0
  0
LINE
  5
131
100
AcDbEntity
  8
2
370
    50
100
AcDbLine
 10
221.749149
 20
-11.992829
 30
0.0
 11
221.749149
 21
-14.992829
 31
0.0
  0
LINE
  5
132
100
AcDbEntity
  8
2
370
    50
100
AcDbLine
 10
190.949149
 20
-11.992829
 30
0.0
 11
190.949149
 21
-14.992829
 31
0.0
  0
ARC
  5
133
100
AcDbEntity
  8
2
370
    50
100
AcDbCircle
 10
216.749149
 20
-14.992829
 30
0.0
 40
5.0
100
AcDbArc
 50
270.0
 51
360.0
  0
ARC
  5
134
100
AcDbEntity
  8
2
370
    50
100
AcDbCircle
 10
219.749149
 20
-11.992829
 30
0.0
 40
2.0
100
AcDbArc
 50
0.0
 51
90.0
  0
LINE
  5
135
100
AcDbEntity
  8
2
370
    50
100
AcDbLine
 10
192.949149
 20
-9.992829
 30
0.0
 11
192.984149
 21
-9.992829
 31
0.0
  0
LINE
  5
136
100
AcDbEntity
  8
2
370
    50
100
AcDbLine
 10
198.449149
 20
-9.992829
 30
0.0
 11
219.749149
 21
-9.992829
 31
0.0
  0
ARC
  5
137
100
AcDbEntity
  8
2
370
    50
100
AcDbCircle
 10
192.949149
 20
-11.992829
 30
0.0
 40
2.0
100
AcDbArc
 50
90.0
 51
180.0
  0
ARC
  5
138
100
AcDbEntity
  8
2
370
    50
100
AcDbCircle
 10
195.949149
 20
-14.992829
 30
0.0
 40
5.0
100
AcDbArc
 50
180.0
 51
270.0
  0
LINE
  5
139
100
AcDbEntity
  8
2
370
    50
100
AcDbLine
 10
216.749149
 20
-19.992829
 30
0.0
 11
198.430733
 21
-19.992829
 31
0.0
  0
LINE
  5
13A
100
AcDbEntity
  8
2
370
    50
100
AcDbLine
 10
192.984149
 20
-9.992829
 30
0.0
 11
198.449149
 21
-9.992829
 31
0.0
  0
LINE
  5
13B
100
AcDbEntity
  8
2
370
    50
100
AcDbLine
 10
215.049149
 20
-14.992829
 30
0.0
 11
213.049149
 21
-14.992829
 31
0.0
  0
LINE
  5
13C
100
AcDbEntity
  8
2
370
    50
100
AcDbLine
 10
215.049149
 20
-11.992829
 30
0.0
 11
213.049149
 21
-11.992829
 31
0.0
  0
LINE
  5
13D
100
AcDbEntity
  8
2
370
    50
100
AcDbLine
 10
215.049149
 20
-11.992829
 30
0.0
 11
215.049149
 21
-14.992829
 31
0.0
  0
LINE
  5
13E
100
AcDbEntity
  8
2
370
    50
100
AcDbLine
 10
213.049149
 20
-11.992829
 30
0.0
 11
213.049149
 21
-14.992829
 31
0.0
  0
ARC
  5
13F
100
AcDbEntity
  8
2
370
    50
100
AcDbCircle
 10
206.349149
 20
-22.215329
 30
0.0
 40
12.2225
100
AcDbArc
 50
56.758486
 51
90.0
  0
ARC
  5
140
100
AcDbEntity
  8
2
370
    50
100
AcDbCircle
 10
219.749149
 20
-14.992829
 30
0.0
 40
2.0
100
AcDbArc
 50
270.0
 51
360.0
  0
ARC
  5
141
100
AcDbEntity
  8
2
370
    50
100
AcDbCircle
 10
206.349149
 20
-4.770329
 30
0.0
 40
12.2225
100
AcDbArc
 50
270.0
 51
303.241514
  0
LINE
  5
142
100
AcDbEntity
  8
2
370
    50
100
AcDbLine
 10
219.749149
 20
-16.992829
 30
0.0
 11
217.709398
 21
-16.992829
 31
0.0
  0
ARC
  5
143
100
AcDbEntity
  8
2
370
    50
100
AcDbCircle
 10
217.879274
 20
-13.997642
 30
0.0
 40
3.0
100
AcDbArc
 50
199.373743
 51
273.246122
  0
ARC
  5
144
100
AcDbEntity
  8
2
370
    50
100
AcDbCircle
 10
217.879274
 20
-12.988015
 30
0.0
 40
3.0
100
AcDbArc
 50
86.753878
 51
160.626257
  0
LINE
  5
145
100
AcDbEntity
  8
2
370
    50
100
AcDbLine
 10
176.418489
 20
-56.892829
 30
0.0
 11
66.088806
 21
-56.892829
 31
0.0
  0
LINE
  5
146
100
AcDbEntity
  8
2
370
    50
100
AcDbLine
 10
95.218918
 20
-56.892829
 30
0.0
 11
66.088806
 21
-56.892829
 31
0.0
  0
LINE
  5
147
100
AcDbEntity
  8
2
370
    50
100
AcDbLine
 10
176.498739
 20
-41.092829
 30
0.0
 11
66.088806
 21
-41.092829
 31
0.0
  0
ARC
  5
148
100
AcDbEntity
  8
2
370
    50
100
AcDbCircle
 10
206.349149
 20
-22.215329
 30
0.0
 40
12.2225
100
AcDbArc
 50
90.0
 51
123.241514
  0
ARC
  5
149
100
AcDbEntity
  8
2
370
    50
100
AcDbCircle
 10
206.349149
 20
-4.770329
 30
0.0
 40
12.2225
100
AcDbArc
 50
236.758486
 51
270.0
  0
LINE
  5
14A
100
AcDbEntity
  8
2
370
    50
100
AcDbLine
 10
199.649149
 20
-11.992829
 30
0.0
 11
199.649149
 21
-14.992829
 31
0.0
  0
LINE
  5
14B
100
AcDbEntity
  8
2
370
    50
100
AcDbLine
 10
197.649149
 20
-14.992829
 30
0.0
 11
199.649149
 21
-14.992829
 31
0.0
  0
LINE
  5
14C
100
AcDbEntity
  8
2
370
    50
100
AcDbLine
 10
197.649149
 20
-11.992829
 30
0.0
 11
199.649149
 21
-11.992829
 31
0.0
  0
LINE
  5
14D
100
AcDbEntity
  8
2
370
    50
100
AcDbLine
 10
197.649149
 20
-11.992829
 30
0.0
 11
197.649149
 21
-14.992829
 31
0.0
  0
ARC
  5
14E
100
AcDbEntity
  8
2
370
    50
100
AcDbCircle
 10
194.819025
 20
-12.988015
 30
0.0
 40
3.0
100
AcDbArc
 50
19.373743
 51
93.246122
  0
ARC
  5
14F
100
AcDbEntity
  8
2
370
    50
100
AcDbCircle
 10
194.819025
 20
-13.997642
 30
0.0
 40
3.0
100
AcDbArc
 50
266.753878
 51
340.626257
  0
LINE
  5
150
100
AcDbEntity
  8
2
370
    50
100
AcDbLine
 10
192.949149
 20
-16.992829
 30
0.0
 11
194.988901
 21
-16.992829
 31
0.0
  0
ARC
  5
151
100
AcDbEntity
  8
2
370
    50
100
AcDbCircle
 10
192.949149
 20
-14.992829
 30
0.0
 40
2.0
100
AcDbArc
 50
180.0
 51
270.0
  0
POINT
  5
152
100
AcDbEntity
  8
2
370
    50
100
AcDbPoint
 10
-193.649366
 20
-17.341796
 30
0.0
  0
LINE
  5
153
100
AcDbEntity
  8
2
370
    50
100
AcDbLine
 10
-201.568267
 20
-19.992829
 30
0.0
 11
-204.049851
 21
-19.992829
 31
0.0
  0
LINE
  5
154
100
AcDbEntity
  8
2
370
    50
100
AcDbLine
 10
-178.249851
 20
-11.992829
 30
0.0
 11
-178.249851
 21
-14.992829
 31
0.0
  0
LINE
  5
155
100
AcDbEntity
  8
2
370
    50
100
AcDbLine
 10
-209.049851
 20
-11.992829
 30
0.0
 11
-209.049851
 21
-14.992829
 31
0.0
  0
ARC
  5
156
100
AcDbEntity
  8
2
370
    50
100
AcDbCircle
 10
-183.249851
 20
-14.992829
 30
0.0
 40
5.0
100
AcDbArc
 50
270.0
 51
360.0
  0
ARC
  5
157
100
AcDbEntity
  8
2
370
    50
100
AcDbCircle
 10
-180.249851
 20
-11.992829
 30
0.0
 40
2.0
100
AcDbArc
 50
0.0
 51
90.0
  0
LINE
  5
158
100
AcDbEntity
  8
2
370
    50
100
AcDbLine
 10
-207.049851
 20
-9.992829
 30
0.0
 11
-207.014851
 21
-9.992829
 31
0.0
  0
LINE
  5
159
100
AcDbEntity
  8
2
370
    50
100
AcDbLine
 10
-201.549851
 20
-9.992829
 30
0.0
 11
-180.249851
 21
-9.992829
 31
0.0
  0
ARC
  5
15A
100
AcDbEntity
  8
2
370
    50
100
AcDbCircle
 10
-207.049851
 20
-11.992829
 30
0.0
 40
2.0
100
AcDbArc
 50
90.0
 51
180.0
  0
ARC
  5
15B
100
AcDbEntity
  8
2
370
    50
100
AcDbCircle
 10
-204.049851
 20
-14.992829
 30
0.0
 40
5.0
100
AcDbArc
 50
180.0
 51
270.0
  0
LINE
  5
15C
100
AcDbEntity
  8
2
370
    50
100
AcDbLine
 10
-183.249851
 20
-19.992829
 30
0.0
 11
-201.568267
 21
-19.992829
 31
0.0
  0
LINE
  5
15D
100
AcDbEntity
  8
2
370
    50
100
AcDbLine
 10
-207.014851
 20
-9.992829
 30
0.0
 11
-201.549851
 21
-9.992829
 31
0.0
  0
LINE
  5
15E
100
AcDbEntity
  8
2
370
    50
100
AcDbLine
 10
-184.949851
 20
-14.992829
 30
0.0
 11
-186.949851
 21
-14.992829
 31
0.0
  0
LINE
  5
15F
100
AcDbEntity
  8
2
370
    50
100
AcDbLine
 10
-184.949851
 20
-11.992829
 30
0.0
 11
-186.949851
 21
-11.992829
 31
0.0
  0
LINE
  5
160
100
AcDbEntity
  8
2
370
    50
100
AcDbLine
 10
-184.949851
 20
-11.992829
 30
0.0
 11
-184.949851
 21
-14.992829
 31
0.0
  0
LINE
  5
161
100
AcDbEntity
  8
2
370
    50
100
AcDbLine
 10
-186.949851
 20
-11.992829
 30
0.0
 11
-186.949851
 21
-14.992829
 31
0.0
  0
ARC
  5
162
100
AcDbEntity
  8
2
370
    50
100
AcDbCircle
 10
-193.649851
 20
-22.215329
 30
0.0
 40
12.2225
100
AcDbArc
 50
56.758486
 51
90.0
  0
ARC
  5
163
100
AcDbEntity
  8
2
370
    50
100
AcDbCircle
 10
-180.249851
 20
-14.992829
 30
0.0
 40
2.0
100
AcDbArc
 50
270.0
 51
360.0
  0
ARC
  5
164
100
AcDbEntity
  8
2
370
    50
100
AcDbCircle
 10
-193.649851
 20
-4.770329
 30
0.0
 40
12.2225
100
AcDbArc
 50
270.0
 51
303.241514
  0
LINE
  5
165
100
AcDbEntity
  8
2
370
    50
100
AcDbLine
 10
-180.249851
 20
-16.992829
 30
0.0
 11
-182.289602
 21
-16.992829
 31
0.0
  0
ARC
  5
166
100
AcDbEntity
  8
2
370
    50
100
AcDbCircle
 10
-182.119726
 20
-13.997642
 30
0.0
 40
3.0
100
AcDbArc
 50
199.373743
 51
273.246122
  0
ARC
  5
167
100
AcDbEntity
  8
2
370
    50
100
AcDbCircle
 10
-182.119726
 20
-12.988015
 30
0.0
 40
3.0
100
AcDbArc
 50
86.753878
 51
160.626257
  0
ARC
  5
168
100
AcDbEntity
  8
2
370
    50
100
AcDbCircle
 10
-193.649851
 20
-22.215329
 30
0.0
 40
12.2225
100
AcDbArc
 50
90.0
 51
123.241514
  0
ARC
  5
169
100
AcDbEntity
  8
2
370
    50
100
AcDbCircle
 10
-193.649851
 20
-4.770329
 30
0.0
 40
12.2225
100
AcDbArc
 50
236.758486
 51
270.0
  0
LINE
  5
16A
100
AcDbEntity
  8
2
370
    50
100
AcDbLine
 10
-200.349851
 20
-11.992829
 30
0.0
 11
-200.349851
 21
-14.992829
 31
0.0
  0
LINE
  5
16B
100
AcDbEntity
  8
2
370
    50
100
AcDbLine
 10
-202.349851
 20
-14.992829
 30
0.0
 11
-200.349851
 21
-14.992829
 31
0.0
  0
LINE
  5
16C
100
AcDbEntity
  8
2
370
    50
100
AcDbLine
 10
-202.349851
 20
-11.992829
 30
0.0
 11
-200.349851
 21
-11.992829
 31
0.0
  0
LINE
  5
16D
100
AcDbEntity
  8
2
370
    50
100
AcDbLine
 10
-202.349851
 20
-11.992829
 30
0.0
 11
-202.349851
 21
-14.992829
 31
0.0
  0
ARC
  5
16E
100
AcDbEntity
  8
2
370
    50
100
AcDbCircle
 10
-205.179975
 20
-12.988015
 30
0.0
 40
3.0
100
AcDbArc
 50
19.373743
 51
93.246122
  0
ARC
  5
16F
100
AcDbEntity
  8
2
370
    50
100
AcDbCircle
 10
-205.179975
 20
-13.997642
 30
0.0
 40
3.0
100
AcDbArc
 50
266.753878
 51
340.626257
  0
LINE
  5
170
100
AcDbEntity
  8
2
370
    50
100
AcDbLine
 10
-207.049851
 20
-16.992829
 30
0.0
 11
-205.010099
 21
-16.992829
 31
0.0
  0
ARC
  5
171
100
AcDbEntity
  8
2
370
    50
100
AcDbCircle
 10
-207.049851
 20
-14.992829
 30
0.0
 40
2.0
100
AcDbArc
 50
180.0
 51
270.0
  0
TEXT
  5
172
100
AcDbEntity
  8
3
370
    50
100
AcDbText
 10
230.278992
 20
-272.075134
 30
0.0
 40
7.0
  1
外観寸法図
 72
     5
 11
263.878992
 21
-272.075134
 31
0.0
100
AcDbText
  0
TEXT
  5
173
100
AcDbEntity
  8
3
370
    50
100
AcDbText
 10
288.320221
 20
-239.912292
 30
0.0
 40
7.0
  1
１
 72
     5
 11
293.920221
 21
-239.912292
 31
0.0
100
AcDbText
  0
TEXT
  5
174
100
AcDbEntity
  8
3
370
    50
100
AcDbText
 10
303.537354
 20
-240.199203
 30
0.0
 40
7.0
  1
２
 72
     5
 11
309.137354
 21
-240.199203
 31
0.0
100
AcDbText
  0
TEXT
  5
175
100
AcDbEntity
  8
3
370
    50
100
AcDbText
 10
67.982487
 20
-227.59259
 30
0.0
 40
7.0
  1
壁付混合栓
 72
     5
 11
101.582487
 21
-227.59259
 31
0.0
100
AcDbText
  0
TEXT
  5
176
100
AcDbEntity
  8
3
370
    50
100
AcDbText
 10
67.982487
 20
-235.994034
 30
0.0
 40
7.0
  1
Ｋ１３－４３６
 72
     5
 11
115.582487
 21
-235.994034
 31
0.0
100
AcDbText
  0
TEXT
  5
177
100
AcDbEntity
  8
3
370
    50
100
AcDbText
 10
322.774139
 20
-273.055786
 30
0.0
 40
10.5
  1
３０１２００
 72
     5
 11
383.674139
 21
-273.055786
 31
0.0
100
AcDbText
  0
DIMENSION
  5
178
100
AcDbEntity
  8
3
370
    25
100
AcDbDimension
  2
*D0
 10
-126.150058
 20
-124.705353
 30
0.0
 11
-193.649722
 21
-120.205353
 31
0.0
 71
     0
 72
     0
 41
0.0
 42
0.0
  3
Standard
100
AcDbAlignedDimension
 13
-261.149387
 23
12.007529
 33
0.0
 14
-126.150058
 24
12.007529
 34
0.0
100
AcDbRotatedDimension
  0
DIMENSION
  5
179
100
AcDbEntity
  8
3
370
    25
100
AcDbDimension
  2
*D1
 10
-307.174564
 20
1.464456
 30
0.0
 11
-293.739327
 21
13.838727
 31
0.0
 70
     1
 71
     0
 72
     0
 41
0.0
 42
0.0
  3
Standard
100
AcDbAlignedDimension
 13
-261.149387
 23
12.007529
 33
0.0
 14
-289.434058
 24
-16.276471
 34
0.0
 50
44.99932
  0
DIMENSION
  5
17A
100
AcDbEntity
  8
3
370
    25
100
AcDbDimension
  2
*D2
 10
5.962133
 20
86.007529
 30
0.0
 11
-2.037867
 21
49.00735
 31
0.0
 71
     0
 72
     0
 41
0.0
 42
0.0
  3
Standard
100
AcDbAlignedDimension
 13
232.100831
 23
12.007171
 33
0.0
 14
206.349942
 24
86.007529
 34
0.0
 50
90.0
100
AcDbRotatedDimension
  0
TEXT
  5
17B
100
AcDbEntity
  8
3
370
    50
100
AcDbText
 10
229.849788
 20
-114.066544
 30
0.0
 40
7.0
  1
（７５）
 72
     5
 11
256.449788
 21
-114.066544
 31
0.0
100
AcDbText
  0
DIMENSION
  5
17C
100
AcDbEntity
  8
3
370
    25
100
AcDbDimension
  2
*D3
 10
281.349942
 20
-115.066544
 30
0.0
 11
243.849788
 21
-113.066544
 31
0.0
 71
     0
 72
     0
 41
0.0
 42
0.0
  3
Standard
100
AcDbAlignedDimension
 13
206.349634
 23
-17.341796
 33
0.0
 14
281.349942
 24
-39.276471
 34
0.0
100
AcDbRotatedDimension
  0
TEXT
  5
17D
100
AcDbEntity
  8
3
370
    50
100
AcDbText
 10
303.349942
 20
-114.066544
 30
0.0
 40
7.0
  1
（１４）
 72
     5
 11
329.949942
 21
-114.066544
 31
0.0
100
AcDbText
  0
DIMENSION
  5
17E
100
AcDbEntity
  8
3
370
    25
100
AcDbDimension
  2
*D4
 10
295.349942
 20
-115.066544
 30
0.0
 11
288.349942
 21
-113.066544
 31
0.0
 71
     0
 72
     0
 41
0.0
 42
0.0
  3
Standard
100
AcDbAlignedDimension
 13
281.349942
 23
-39.276471
 33
0.0
 14
295.349942
 24
-25.876471
 34
0.0
100
AcDbRotatedDimension
  0
TEXT
  5
17F
100
AcDbEntity
  8
3
370
    50
100
AcDbText
 10
-275.004822
 20
109.546944
 30
0.0
 40
7.0
  1
（湯表示）
 72
     5
 11
-241.404822
 21
109.546944
 31
0.0
100
AcDbText
  0
TEXT
  5
180
100
AcDbEntity
  8
3
370
    50
100
AcDbText
 10
-135.294623
 20
117.546944
 30
0.0
 40
7.0
  1
サックス
 72
     5
 11
-108.694623
 21
117.546944
 31
0.0
100
AcDbText
  0
TEXT
  5
181
100
AcDbEntity
  8
3
370
    50
100
AcDbText
 10
-275.004822
 20
117.546944
 30
0.0
 40
7.0
  1
ピンク
 72
     5
 11
-255.404822
 21
117.546944
 31
0.0
100
AcDbText
  0
TEXT
  5
182
100
AcDbEntity
  8
3
370
    50
100
AcDbText
 10
-135.294623
 20
109.546944
 30
0.0
 40
7.0
  1
（水表示）
 72
     5
 11
-101.694623
 21
109.546944
 31
0.0
100
AcDbText
  0
LWPOLYLINE
  5
183
100
AcDbEntity
  8
3
370
    25
100
AcDbPolyline
 90
        2
 70
     0
 10
-260.709686
 20
86.369972
 10
-262.658966
 20
107.154556
  0
LWPOLYLINE
  5
187
100
AcDbEntity
  8
3
370
    25
100
AcDbPolyline
 90
        2
 70
     0
 10
-126.589758
 20
86.369972
 10
-124.640479
 20
107.154556
  0
TEXT
  5
18B
100
AcDbEntity
  8
3
370
    50
100
AcDbText
 10
297.64563
 20
18.926785
 30
0.0
 40
7.0
  1
ＰＪ１／２
 72
     5
 11
331.24563
 21
18.926785
 31
0.0
100
AcDbText
  0
LWPOLYLINE
  5
18C
100
AcDbEntity
  8
3
370
    25
100
AcDbPolyline
 90
        3
 70
     0
 10
285.390625
 20
-5.776471
 10
293.775604
 20
16.992537
 10
334.410828
 20
16.992537
  0
LINE
  5
191
100
AcDbEntity
  8
3
370
    25
100
AcDbLine
 10
286.725823
 20
-2.150805
 30
0.0
 11
285.754329
 21
-1.79304
 31
0.0
  0
LINE
  5
192
100
AcDbEntity
  8
3
370
    25
100
AcDbLine
 10
285.754329
 20
-1.79304
 30
0.0
 11
285.390625
 21
-5.776471
 31
0.0
  0
LINE
  5
193
100
AcDbEntity
  8
3
370
    25
100
AcDbLine
 10
285.390625
 20
-5.776471
 30
0.0
 11
287.697317
 21
-2.50857
 31
0.0
  0
LINE
  5
194
100
AcDbEntity
  8
3
370
    25
100
AcDbLine
 10
287.697317
 20
-2.50857
 30
0.0
 11
286.725823
 21
-2.150805
 31
0.0
  0
TEXT
  5
195
100
AcDbEntity
  8
3
370
    50
100
AcDbText
 10
-235.649722
 20
-148.943192
 30
0.0
 40
7.0
  1
２００（ＭＡＸ　２１０）
 72
     5
 11
-153.049722
 21
-148.943192
 31
0.0
100
AcDbText
  0
DIMENSION
  5
196
100
AcDbEntity
  8
3
370
    25
100
AcDbDimension
  2
*D5
 10
-97.865387
 20
-149.943192
 30
0.0
 11
-193.649722
 21
-147.943192
 31
0.0
 70
     1
 71
     0
 72
     0
 41
0.0
 42
0.0
  3
Standard
100
AcDbAlignedDimension
 13
-289.434058
 23
-16.276471
 33
0.0
 14
-97.865387
 24
-16.276471
 34
0.0
 50
180.0
  0
DIMENSION
  5
197
100
AcDbEntity
  8
3
370
    25
100
AcDbDimension
  2
*D6
 10
206.349634
 20
-115.066544
 30
0.0
 11
121.349788
 21
-110.566544
 31
0.0
 71
     0
 72
     0
 41
0.0
 42
0.0
  3
Standard
100
AcDbAlignedDimension
 13
36.349942
 23
-81.992829
 33
0.0
 14
206.349634
 24
-17.341796
 34
0.0
100
AcDbRotatedDimension
  0
DIMENSION
  5
198
100
AcDbEntity
  8
3
370
    25
100
AcDbDimension
  2
*D7
 10
5.962133
 20
12.007171
 30
0.0
 11
-2.037867
 21
-34.992829
 31
0.0
 71
     0
 72
     0
 41
0.0
 42
0.0
  3
Standard
100
AcDbAlignedDimension
 13
36.349942
 23
-81.992829
 33
0.0
 14
232.100831
 24
12.007171
 34
0.0
 50
90.0
100
AcDbRotatedDimension
  0
TEXT
  5
199
100
AcDbEntity
  8
3
370
    50
100
AcDbText
 10
344.88205
 20
-256.268799
 30
0.0
 40
6.0
  1
０８　　６　２１
 72
     5
 11
391.68205
 21
-256.268799
 31
0.0
100
AcDbText
  0
DIMENSION
  5
19A
100
AcDbEntity
  8
3
370
    25
100
AcDbDimension
  2
*D8
 10
317.287933
 20
6.723529
 30
0.0
 11
309.287933
 21
-16.276471
 31
0.0
 71
     0
 72
     0
 41
0.0
 42
0.0
  3
Standard
100
AcDbAlignedDimension
 13
281.349942
 23
-39.276471
 33
0.0
 14
281.349942
 24
6.723529
 34
0.0
 50
90.0
100
AcDbRotatedDimension
  0
ENDSEC
  0
SECTION
  2
OBJECTS
  0
DICTIONARY
  5
204
100
AcDbDictionary
280
     0
281
     1
  3
ACAD_GROUP
350
205
  3
ACAD_MLINESTYLE
350
206
  0
DICTIONARY
  5
205
102
{ACAD_REACTORS
330
204
102
}
100
AcDbDictionary
280
     0
281
     1
  0
DICTIONARY
  5
206
102
{ACAD_REACTORS
330
204
102
}
100
AcDbDictionary
280
     0
281
     1
  3
Standard
350
207
  0
MLINESTYLE
  5
207
102
{ACAD_REACTORS
330
206
102
}
100
AcDbMlineStyle
  2
Standard
 70
     0
  3

 62
     0
 51
90.0
 52
90.0
 71
     2
 49
0.5
 62
   256
  6
ByLayer
 49
-0.5
 62
   256
  6
ByLayer
  0
ENDSEC
  0
EOF
