  0
SECTION
  2
HEADER
  9
$ACADVER
  1
AC1015
  9
$ACADMAINTVER
 70
     6
  9
$DWGCODEPAGE
  3
ANSI_932
  9
$INSBASE
 10
0.0
 20
0.0
 30
0.0
  9
$EXTMIN
 10
-841.0
 20
-594.0
 30
1.000000E+20
  9
$EXTMAX
 10
841.0
 20
594.0
 30
-1.000000E+20
  9
$LIMMIN
 10
-841.0
 20
-594.0
  9
$LIMMAX
 10
841.0
 20
594.0
  9
$ORTHOMODE
 70
     0
  9
$REGENMODE
 70
     1
  9
$FILLMODE
 70
     1
  9
$QTEXTMODE
 70
     0
  9
$MIRRTEXT
 70
     1
  9
$LTSCALE
 40
1.0
  9
$ATTMODE
 70
     1
  9
$TEXTSIZE
 40
0.2
  9
$TRACEWID
 40
0.05
  9
$TEXTSTYLE
  7
STANDARD
  9
$CLAYER
  8
0
  9
$CELTYPE
  6
CONTINUOUS
  9
$CECOLOR
 62
   256
  9
$CELTSCALE
 40
1.0
  9
$DISPSILH
 70
     0
  9
$DIMSCALE
 40
2.0
  9
$DIMASZ
 40
2.0
  9
$DIMEXO
 40
1.0
  9
$DIMDLI
 40
0.38
  9
$DIMRND
 40
0.0
  9
$DIMDLE
 40
0.0
  9
$DIMEXE
 40
2.0
  9
$DIMTP
 40
0.0
  9
$DIMTM
 40
0.0
  9
$DIMTXT
 40
3.5
  9
$DIMCEN
 40
0.09
  9
$DIMTSZ
 40
0.0
  9
$DIMTOL
 70
     0
  9
$DIMLIM
 70
     0
  9
$DIMTIH
 70
     0
  9
$DIMTOH
 70
     0
  9
$DIMSE1
 70
     0
  9
$DIMSE2
 70
     0
  9
$DIMTAD
 70
     1
  9
$DIMZIN
 70
     0
  9
$DIMBLK
  1

  9
$DIMASO
 70
     1
  9
$DIMSHO
 70
     1
  9
$DIMPOST
  1

  9
$DIMAPOST
  1

  9
$DIMALT
 70
     0
  9
$DIMALTD
 70
     2
  9
$DIMALTF
 40
25.4
  9
$DIMLFAC
 40
1.0
  9
$DIMTOFL
 70
     0
  9
$DIMTVP
 40
0.0
  9
$DIMTIX
 70
     0
  9
$DIMSOXD
 70
     0
  9
$DIMSAH
 70
     0
  9
$DIMBLK1
  1

  9
$DIMBLK2
  1

  9
$DIMSTYLE
  2
Standard
  9
$DIMCLRD
 70
     0
  9
$DIMCLRE
 70
     0
  9
$DIMCLRT
 70
     0
  9
$DIMTFAC
 40
1.0
  9
$DIMGAP
 40
0.5
  9
$DIMJUST
 70
     0
  9
$DIMSD1
 70
     0
  9
$DIMSD2
 70
     0
  9
$DIMTOLJ
 70
     1
  9
$DIMTZIN
 70
     0
  9
$DIMALTZ
 70
     0
  9
$DIMALTTZ
 70
     0
  9
$DIMUPT
 70
     0
  9
$DIMDEC
 70
     3
  9
$DIMTDEC
 70
     4
  9
$DIMALTU
 70
     2
  9
$DIMALTTD
 70
     2
  9
$DIMTXSTY
  7
STANDARD
  9
$DIMAUNIT
 70
     0
  9
$DIMADEC
 70
     0
  9
$DIMALTRND
 40
0.0
  9
$DIMAZIN
 70
     0
  9
$DIMDSEP
 70
     0
  9
$DIMATFIT
 70
     3
  9
$DIMFRAC
 70
     0
  9
$DIMLDRBLK
  1

  9
$DIMLUNIT
 70
     2
  9
$DIMLWD
 70
     0
  9
$DIMLWE
 70
     0
  9
$DIMTMOVE
 70
     0
  9
$LUNITS
 70
     2
  9
$LUPREC
 70
     4
  9
$SKETCHINC
 40
0.1
  9
$FILLETRAD
 40
0.0
  9
$AUNITS
 70
     0
  9
$AUPREC
 70
     0
  9
$MENU
  1
acad
  9
$ELEVATION
 40
0.0
  9
$PELEVATION
 40
0.0
  9
$THICKNESS
 40
0.0
  9
$LIMCHECK
 70
     0
  9
$CHAMFERA
 40
0.0
  9
$CHAMFERB
 40
0.0
  9
$CHAMFERC
 40
0.0
  9
$CHAMFERD
 40
0.0
  9
$SKPOLY
 70
     0
  9
$TDCREATE
 40
2453383.000000000
  9
$TDUCREATE
 40
0.000000000
  9
$TDUPDATE
 40
0.000000000
  9
$TDUUPDATE
 40
2447892.625000000
  9
$TDINDWG
 40
0.0000000000
  9
$TDUSRTIMER
 40
0.0000000000
  9
$USRTIMER
 70
     1
  9
$ANGBASE
 50
0.0
  9
$ANGDIR
 70
     0
  9
$PDMODE
 70
     0
  9
$PDSIZE
 40
0.0
  9
$PLINEWID
 40
0.0
  9
$SPLFRAME
 70
     0
  9
$SPLINETYPE
 70
     6
  9
$SPLINESEGS
 70
     8
  9
$HANDSEED
  5
445
  9
$SURFTAB1
 70
     6
  9
$SURFTAB2
 70
     6
  9
$SURFTYPE
 70
     6
  9
$SURFU
 70
     6
  9
$SURFV
 70
     6
  9
$UCSBASE
  2

  9
$UCSNAME
  2

  9
$UCSORG
 10
0.0
 20
0.0
 30
0.0
  9
$UCSXDIR
 10
1.0
 20
0.0
 30
0.0
  9
$UCSYDIR
 10
0.0
 20
1.0
 30
0.0
  9
$UCSORTHOREF
  2

  9
$UCSORTHOVIEW
 70
     0
  9
$UCSORGTOP
 10
0.0
 20
0.0
 30
0.0
  9
$UCSORGBOTTOM
 10
0.0
 20
0.0
 30
0.0
  9
$UCSORGLEFT
 10
0.0
 20
0.0
 30
0.0
  9
$UCSORGRIGHT
 10
0.0
 20
0.0
 30
0.0
  9
$UCSORGFRONT
 10
0.0
 20
0.0
 30
0.0
  9
$UCSORGBACK
 10
0.0
 20
0.0
 30
0.0
  9
$PUCSBASE
  2

  9
$PUCSNAME
  2

  9
$PUCSORG
 10
0.0
 20
0.0
 30
0.0
  9
$PUCSXDIR
 10
1.0
 20
0.0
 30
0.0
  9
$PUCSYDIR
 10
0.0
 20
1.0
 30
0.0
  9
$PUCSORTHOREF
  2

  9
$PUCSORTHOVIEW
 70
     0
  9
$PUCSORGTOP
 10
0.0
 20
0.0
 30
0.0
  9
$PUCSORGBOTTOM
 10
0.0
 20
0.0
 30
0.0
  9
$PUCSORGLEFT
 10
0.0
 20
0.0
 30
0.0
  9
$PUCSORGRIGHT
 10
0.0
 20
0.0
 30
0.0
  9
$PUCSORGFRONT
 10
0.0
 20
0.0
 30
0.0
  9
$PUCSORGBACK
 10
0.0
 20
0.0
 30
0.0
  9
$USERI1
 70
     0
  9
$USERI2
 70
     0
  9
$USERI3
 70
     0
  9
$USERI4
 70
     0
  9
$USERI5
 70
     0
  9
$USERR1
 40
0.0
  9
$USERR2
 40
0.0
  9
$USERR3
 40
0.0
  9
$USERR4
 40
0.0
  9
$USERR5
 40
0.0
  9
$WORLDVIEW
 70
     1
  9
$SHADEDGE
 70
     3
  9
$SHADEDIF
 70
    70
  9
$TILEMODE
 70
     1
  9
$MAXACTVP
 70
    16
  9
$PINSBASE
 10
0.0
 20
0.0
 30
0.0
  9
$PLIMCHECK
 70
     0
  9
$PEXTMIN
 10
1.000000E+20
 20
1.000000E+20
 30
1.000000E+20
  9
$PEXTMAX
 10
-1.000000E+20
 20
-1.000000E+20
 30
-1.000000E+20
  9
$PLIMMIN
 10
0.0
 20
0.0
  9
$PLIMMAX
 10
12.0
 20
9.0
  9
$UNITMODE
 70
     0
  9
$VISRETAIN
 70
     0
  9
$PLINEGEN
 70
     1
  9
$PSLTSCALE
 70
     0
  9
$TREEDEPTH
 70
  3020
  9
$CMLSTYLE
  2
Standard
  9
$CMLJUST
 70
     0
  9
$CMLSCALE
 40
1.0
  9
$PROXYGRAPHICS
 70
     0
  9
$MEASUREMENT
 70
     0
  9
$CELWEIGHT
370
     0
  9
$ENDCAPS
280
     0
  9
$JOINSTYLE
280
     0
  9
$LWDISPLAY
290
     0
  9
$INSUNITS
 70
     0
  9
$HYPERLINKBASE
  1

  9
$STYLESHEET
  1

  9
$XEDIT
290
     1
  9
$CEPSNTYPE
380
     0
  9
$PSTYLEMODE
290
     1
  9
$FINGERPRINTGUID
  2

  9
$VERSIONGUID
  2

  9
$EXTNAMES
290
     1
  9
$PSVPSCALE
 40
0.0
  0
ENDSEC
  0
SECTION
  2
CLASSES
  0
CLASS
  1
LWPOLYLINE
  2
AcDbPolyline
  3
AutoCAD 2000
 90
        0
280
     0
281
     1
  0
CLASS
  1
IMAGE
  2
AcDbRasterImage
  3
ISM
 90
      127
280
     0
281
     1
  0
CLASS
  1
OLE2FRAME
  2
AcDbOle2Frame
  3
AutoCAD 2000
 90
        0
280
     0
281
     1
  0
CLASS
  1
HATCH
  2
AcDbHatch
  3
AutoCAD 2000
 90
        0
280
     0
281
     1
  0
CLASS
  1
DICTIONARYVAR
  2
AcDbDictionaryVar
  3
AutoCAD 2000
 90
        0
280
     0
281
     0
  0
CLASS
  1
RASTERVARIABLES
  2
AcDbRasterVariables
  3
ISM
 90
        0
280
     0
281
     0
  0
CLASS
  1
IMAGEDEF
  2
AcDbRasterImageDef
  3
ISM
 90
        0
280
     0
281
     0
  0
CLASS
  1
IMAGEDEF_REACTOR
  2
AcDbRasterImageDefReactor
  3
ISM
 90
        1
280
     0
281
     0
  0
CLASS
  1
IDBUFFER
  2
AcDbIdBuffer
  3
AutoCAD 2000
 90
        0
280
     0
281
     0
  0
CLASS
  1
SPATIAL_FILTER
  2
AcDbSpatialFilter
  3
AutoCAD 2000
 90
        0
280
     0
281
     0
  0
CLASS
  1
XRECORD
  2
AcDbXrecord
  3
AutoCAD 2000
 90
        0
280
     0
281
     0
  0
CLASS
  1
SORTENTSTABLE
  2
AcDbSortentsTable
  3
AutoCAD 2000
 90
        0
280
     0
281
     0
  0
CLASS
  1
LAYER_INDEX
  2
AcDbLayerIndex
  3
AutoCAD 2000
 90
        0
280
     0
281
     0
  0
CLASS
  1
SPATIAL_INDEX
  2
AcDbSpatialIndex
  3
AutoCAD 2000
 90
        0
280
     0
281
     0
  0
CLASS
  1
OBJECT_PTR
  2
CAseDLPNTableRecord
  3
"ASE-LPNTableRecord"
 90
        1
280
     0
281
     0
  0
CLASS
  1
LAYOUT
  2
AcDbLayout
  3
AutoCAD 2000
 90
        0
280
     0
281
     0
  0
CLASS
  1
PLOTSETTINGS
  2
AcDbPlotSettings
  3
AutoCAD 2000
 90
        0
280
     0
281
     0
  0
CLASS
  1
ACDBDICTIONARYWDFLT
  2
AcDbDictionaryWithDefault
  3
AutoCAD 2000
 90
        0
280
     0
281
     0
  0
CLASS
  1
ACDBPLACEHOLDER
  2
AcDbPlaceHolder
  3
AutoCAD 2000
 90
        0
280
     0
281
     0
  0
CLASS
  1
VBA_PROJECT
  2
AcDbVbaProject
  3
acadvba
 90
        0
280
     0
281
     0
  0
CLASS
  1
WIPEOUT
  2
AcDbWipeout
  3
WipeOut|AutoCAD Express Tool|expresstools@autodesk.com
 90
      127
280
     0
281
     1
  0
CLASS
  1
WIPEOUTVARIABLES
  2
AcDbWipeoutVariables
  3
WipeOut|AutoCAD Express Tool|expresstools@autodesk.com
 90
        0
280
     0
281
     0
  0
CLASS
  1
RTEXT
  2
RText
  3
RText|AutoCAD Express Tool|expresstools@autodesk.com
 90
        0
280
     0
281
     1
  0
CLASS
  1
ARCALIGNEDTEXT
  2
AcDbArcAlignedText
  3
ATEXT|AutoCAD Express Tool|expresstools@autodesk.com
 90
        0
280
     0
281
     1
  0
ENDSEC
  0
SECTION
  2
TABLES
  0
TABLE
  2
VPORT
  5
6
100
AcDbSymbolTable
 70
     1
  0
VPORT
  5
1A
100
AcDbSymbolTableRecord
100
AcDbViewportTableRecord
  2
*ACTIVE
 70
     0
 10
0.0
 20
0.0
 11
1.0
 21
1.0
 12
0.0
 22
0.0
 13
0.0
 23
0.0
 14
1.0
 24
1.0
 15
0.0
 25
0.0
 16
0.0
 26
0.0
 36
1.0
 17
0.0
 27
0.0
 37
0.0
 40
1188.0
 41
1.415825
 42
50.0
 43
0.0
 44
0.0
 50
0.0
 51
0.0
 71
     0
 72
   500
 73
     1
 74
     1
 75
     0
 76
     0
 77
     0
 78
     0
281
     0
 65
     0
110
0.0
120
0.0
130
0.0
111
1.0
121
0.0
131
0.0
112
0.0
122
1.0
132
0.0
345
0
346
0
 79
     0
146
0.0
  0
ENDTAB
  0
TABLE
  2
LTYPE
  5
3
100
AcDbSymbolTable
 70
     9
  0
LTYPE
  5
C
100
AcDbSymbolTableRecord
100
AcDbLinetypeTableRecord
  2
ByBlock
 70
    64
  3

 72
    65
 73
     0
 40
0.0
  0
LTYPE
  5
D
100
AcDbSymbolTableRecord
100
AcDbLinetypeTableRecord
  2
ByLayer
 70
    64
  3

 72
    65
 73
     0
 40
0.0
  0
LTYPE
  5
E
100
AcDbSymbolTableRecord
100
AcDbLinetypeTableRecord
  2
CONTINUOUS
 70
     0
  3
Solid line
 72
    65
 73
     0
 40
0.0
  0
LTYPE
  5
F
100
AcDbSymbolTableRecord
100
AcDbLinetypeTableRecord
  2
DASHED
 70
     0
  3
__ __ __ __ __ __ __ __ __ __ __ __ __ __ __
 72
    65
 73
     2
 40
2.0
 49
1.2
 74
     0
 49
-0.8
 74
     0
  0
LTYPE
  5
10
100
AcDbSymbolTableRecord
100
AcDbLinetypeTableRecord
  2
CENTER
 70
     0
  3
____ _ ____ _ ____ _ ____ _ ____ _ ____ _ ____
 72
    65
 73
     4
 40
12.0
 49
9.0
 74
     0
 49
-1.0
 74
     0
 49
1.0
 74
     0
 49
-1.0
 74
     0
  0
LTYPE
  5
11
100
AcDbSymbolTableRecord
100
AcDbLinetypeTableRecord
  2
HIDDEN
 70
     0
  3
_ _ _ _ _ _ _ _ _ _ _ _ _ _ _ _ _ _ _ _ _ _ _
 72
    65
 73
     2
 40
3.2
 49
2.4
 74
     0
 49
-0.8
 74
     0
  0
LTYPE
  5
12
100
AcDbSymbolTableRecord
100
AcDbLinetypeTableRecord
  2
PHANTOM
 70
     0
  3
_____ _ _ _____ _ _ _____ _ _ _____ _ _ _____
 72
    65
 73
     6
 40
13.5
 49
9.0
 74
     0
 49
-1.0
 74
     0
 49
1.0
 74
     0
 49
-0.5
 74
     0
 49
1.0
 74
     0
 49
-1.0
 74
     0
  0
LTYPE
  5
13
100
AcDbSymbolTableRecord
100
AcDbLinetypeTableRecord
  2
DOT
 70
     0
  3
...............................................
 72
    65
 73
     2
 40
1.0
 49
0.5
 74
     0
 49
-0.5
 74
     0
  0
LTYPE
  5
14
100
AcDbSymbolTableRecord
100
AcDbLinetypeTableRecord
  2
DASHDOT
 70
     0
  3
__ . __ . __ . __ . __ . __ . __ . __ . __ . __
 72
    65
 73
     4
 40
8.0
 49
5.0
 74
     0
 49
-1.0
 74
     0
 49
1.0
 74
     0
 49
-1.0
 74
     0
  0
ENDTAB
  0
TABLE
  2
LAYER
  5
1
100
AcDbSymbolTable
 70
     5
  0
LAYER
  5
15
100
AcDbSymbolTableRecord
100
AcDbLayerTableRecord
  2
0
 70
     0
 62
     7
  6
CONTINUOUS
290
     1
370
    -3
390
0
  0
LAYER
  5
16
100
AcDbSymbolTableRecord
100
AcDbLayerTableRecord
  2
1
 70
     0
 62
     7
  6
CONTINUOUS
290
     1
370
    -3
390
0
  0
LAYER
  5
17
100
AcDbSymbolTableRecord
100
AcDbLayerTableRecord
  2
2
 70
     0
 62
     7
  6
CONTINUOUS
290
     1
370
    -3
390
0
  0
LAYER
  5
18
100
AcDbSymbolTableRecord
100
AcDbLayerTableRecord
  2
3
 70
     0
 62
     7
  6
CONTINUOUS
290
     1
370
    -3
390
0
  0
LAYER
  5
19
100
AcDbSymbolTableRecord
100
AcDbLayerTableRecord
  2
5
 70
     0
 62
     7
  6
CONTINUOUS
290
     1
370
    -3
390
0
  0
ENDTAB
  0
TABLE
  2
STYLE
  5
2
100
AcDbSymbolTable
 70
     1
  0
STYLE
  5
1C
100
AcDbSymbolTableRecord
100
AcDbTextStyleTableRecord
  2
STANDARD
 70
    64
 40
0.0
 41
1.0
 50
0.0
 71
     0
 42
1.0
  3
MS Gothic.ttf
  4

1001
ACAD
1000
MS Gothic
1071
    32817
  0
ENDTAB
  0
TABLE
  2
VIEW
  5
4
100
AcDbSymbolTable
 70
     0
  0
ENDTAB
  0
TABLE
  2
UCS
  5
5
100
AcDbSymbolTable
 70
     0
  0
ENDTAB
  0
TABLE
  2
APPID
  5
7
100
AcDbSymbolTable
 70
     1
  0
APPID
  5
1B
100
AcDbSymbolTableRecord
100
AcDbRegAppTableRecord
  2
ACAD
 70
     0
  0
ENDTAB
  0
TABLE
  2
DIMSTYLE
  5
8
100
AcDbSymbolTable
 70
     1
100
AcDbDimStyleTable
 71
     0
  0
DIMSTYLE
105
31
100
AcDbSymbolTableRecord
100
AcDbDimStyleTableRecord
  2
Standard
 70
     0
  3

  4

 40
2.0
 41
2.0
 42
1.0
 43
0.38
 44
2.0
 45
0.0
 46
0.0
 47
0.0
 48
0.0
 71
     0
 72
     0
 73
     0
 74
     0
 75
     0
 76
     0
 77
     1
 78
     0
 79
     0
140
3.5
141
0.09
142
0.0
143
25.4
144
1.0
145
0.0
146
1.0
147
0.5
148
0.0
170
     0
171
     2
172
     0
173
     0
174
     0
175
     0
176
     0
177
     0
178
     0
179
     0
271
     3
272
     4
273
     2
274
     2
275
     0
276
     0
277
     2
278
    46
279
     0
280
     0
281
     0
282
     0
283
     1
284
     0
285
     0
286
     0
288
     0
289
     3
340
1C
341
0
342
0
343
0
344
0
371
    -2
372
    -2
  0
ENDTAB
  0
TABLE
  2
BLOCK_RECORD
  5
2C
100
AcDbSymbolTable
 70
    13
  0
BLOCK_RECORD
  5
2A
100
AcDbSymbolTableRecord
100
AcDbBlockTableRecord
  2
*Model_Space
340
0
  0
BLOCK_RECORD
  5
2B
100
AcDbSymbolTableRecord
100
AcDbBlockTableRecord
  2
*Paper_Space
340
0
  0
BLOCK_RECORD
  5
1D
100
AcDbSymbolTableRecord
100
AcDbBlockTableRecord
  2
*D0
340
0
  0
BLOCK_RECORD
  5
1E
100
AcDbSymbolTableRecord
100
AcDbBlockTableRecord
  2
*D1
340
0
  0
BLOCK_RECORD
  5
1F
100
AcDbSymbolTableRecord
100
AcDbBlockTableRecord
  2
*D2
340
0
  0
BLOCK_RECORD
  5
20
100
AcDbSymbolTableRecord
100
AcDbBlockTableRecord
  2
*D3
340
0
  0
BLOCK_RECORD
  5
21
100
AcDbSymbolTableRecord
100
AcDbBlockTableRecord
  2
*D4
340
0
  0
BLOCK_RECORD
  5
22
100
AcDbSymbolTableRecord
100
AcDbBlockTableRecord
  2
*D5
340
0
  0
BLOCK_RECORD
  5
23
100
AcDbSymbolTableRecord
100
AcDbBlockTableRecord
  2
*D6
340
0
  0
BLOCK_RECORD
  5
24
100
AcDbSymbolTableRecord
100
AcDbBlockTableRecord
  2
*D7
340
0
  0
BLOCK_RECORD
  5
25
100
AcDbSymbolTableRecord
100
AcDbBlockTableRecord
  2
*D8
340
0
  0
BLOCK_RECORD
  5
26
100
AcDbSymbolTableRecord
100
AcDbBlockTableRecord
  2
*D9
340
0
  0
BLOCK_RECORD
  5
27
100
AcDbSymbolTableRecord
100
AcDbBlockTableRecord
  2
*D10
340
0
  0
BLOCK_RECORD
  5
28
100
AcDbSymbolTableRecord
100
AcDbBlockTableRecord
  2
*D11
340
0
  0
BLOCK_RECORD
  5
29
100
AcDbSymbolTableRecord
100
AcDbBlockTableRecord
  2
*D12
340
0
  0
ENDTAB
  0
ENDSEC
  0
SECTION
  2
BLOCKS
  0
BLOCK
  5
2D
100
AcDbEntity
  8
0
390
0
100
AcDbBlockBegin
  2
*Model_Space
 70
     0
 10
0.0
 20
0.0
 30
0.0
  3
*Model_Space
  1

  0
ENDBLK
  5
2E
100
AcDbEntity
  8
0
390
0
100
AcDbBlockEnd
  0
BLOCK
  5
2F
100
AcDbEntity
 67
     1
  8
0
390
0
100
AcDbBlockBegin
  2
*Paper_Space
 70
     0
 10
0.0
 20
0.0
 30
0.0
  3
*Paper_Space
  1

  0
ENDBLK
  5
30
100
AcDbEntity
 67
     1
  8
0
390
0
100
AcDbBlockEnd
  0
BLOCK
  5
3A8
100
AcDbEntity
  8
3
100
AcDbBlockBegin
  2
*D0
 70
     1
 10
0.0
 20
0.0
 30
0.0
  3
*D0
  1

  0
TEXT
  5
3A9
100
AcDbEntity
  8
3
 62
     2
100
AcDbText
 10
-140.581066
 20
9.386562
 30
0.0
 40
7.0
  1
３０゜
 50
15.0
 72
     5
 11
-121.64892
 21
14.459415
 31
0.0
100
AcDbText
  0
LINE
  5
3AA
100
AcDbEntity
  8
3
 62
     2
100
AcDbLine
 10
-160.258074
 20
13.552078
 30
0.0
 11
-160.258074
 21
5.178386
 31
0.0
  0
LINE
  5
3AB
100
AcDbEntity
  8
3
 62
     2
100
AcDbLine
 10
-105.338594
 20
28.267708
 30
0.0
 11
-101.151748
 21
21.015878
 31
0.0
  0
LINE
  5
3AC
100
AcDbEntity
  8
3
 62
     2
100
AcDbLine
 10
-160.258074
 20
7.178386
 30
0.0
 11
-156.377694
 21
6.207481
 31
0.0
  0
LINE
  5
3AD
100
AcDbEntity
  8
3
 62
     2
100
AcDbLine
 10
-160.258074
 20
7.178386
 30
0.0
 11
-156.412114
 21
8.277747
 31
0.0
  0
LINE
  5
3AE
100
AcDbEntity
  8
3
 62
     2
100
AcDbLine
 10
-156.377694
 20
6.207481
 30
0.0
 11
-156.412114
 21
8.277747
 31
0.0
  0
LINE
  5
3AF
100
AcDbEntity
  8
3
 62
     2
100
AcDbLine
 10
-102.151748
 20
22.747929
 30
0.0
 11
-106.032127
 21
21.777024
 31
0.0
  0
LINE
  5
3B0
100
AcDbEntity
  8
3
 62
     2
100
AcDbLine
 10
-102.151748
 20
22.747929
 30
0.0
 11
-105.026802
 21
19.966911
 31
0.0
  0
LINE
  5
3B1
100
AcDbEntity
  8
3
 62
     2
100
AcDbLine
 10
-106.032127
 20
21.777024
 30
0.0
 11
-105.026802
 21
19.966911
 31
0.0
  0
ARC
  5
3B2
100
AcDbEntity
  8
3
 62
     2
100
AcDbCircle
 10
-160.258074
 20
123.391037
 30
0.0
 40
116.212652
100
AcDbArc
 50
270.0
 51
300.0
  0
ENDBLK
  5
3B3
100
AcDbEntity
  8
3
100
AcDbBlockEnd
  0
BLOCK
  5
3B4
100
AcDbEntity
  8
3
100
AcDbBlockBegin
  2
*D1
 70
     1
 10
0.0
 20
0.0
 30
0.0
  3
*D1
  1

  0
TEXT
  5
3B5
100
AcDbEntity
  8
3
 62
     2
100
AcDbText
 10
-226.856375
 20
28.478313
 30
0.0
 40
7.0
  1
６０゜
 50
330.0
 72
     5
 11
-209.882277
 21
18.678313
 31
0.0
100
AcDbText
  0
LINE
  5
3B6
100
AcDbEntity
  8
3
 62
     2
100
AcDbLine
 10
-255.867315
 20
67.629932
 30
0.0
 11
-262.457791
 21
63.824919
 31
0.0
  0
LINE
  5
3B7
100
AcDbEntity
  8
3
 62
     2
100
AcDbLine
 10
-160.258074
 20
13.552078
 30
0.0
 11
-160.258074
 21
4.819885
 31
0.0
  0
LINE
  5
3B8
100
AcDbEntity
  8
3
 62
     2
100
AcDbLine
 10
-260.72574
 20
64.824919
 30
0.0
 11
-259.626268
 21
60.978992
 31
0.0
  0
LINE
  5
3B9
100
AcDbEntity
  8
3
 62
     2
100
AcDbLine
 10
-260.72574
 20
64.824919
 30
0.0
 11
-257.850605
 21
62.043985
 31
0.0
  0
LINE
  5
3BA
100
AcDbEntity
  8
3
 62
     2
100
AcDbLine
 10
-259.626268
 20
60.978992
 30
0.0
 11
-257.850605
 21
62.043985
 31
0.0
  0
LINE
  5
3BB
100
AcDbEntity
  8
3
 62
     2
100
AcDbLine
 10
-160.258074
 20
6.819885
 30
0.0
 11
-164.104001
 21
7.919358
 31
0.0
  0
LINE
  5
3BC
100
AcDbEntity
  8
3
 62
     2
100
AcDbLine
 10
-160.258074
 20
6.819885
 30
0.0
 11
-164.138481
 21
5.849092
 31
0.0
  0
LINE
  5
3BD
100
AcDbEntity
  8
3
 62
     2
100
AcDbLine
 10
-164.104001
 20
7.919358
 30
0.0
 11
-164.138481
 21
5.849092
 31
0.0
  0
ARC
  5
3BE
100
AcDbEntity
  8
3
 62
     2
100
AcDbCircle
 10
-160.258074
 20
122.829954
 30
0.0
 40
116.010069
100
AcDbArc
 50
210.0
 51
270.0
  0
ENDBLK
  5
3BF
100
AcDbEntity
  8
3
100
AcDbBlockEnd
  0
BLOCK
  5
3C0
100
AcDbEntity
  8
3
100
AcDbBlockBegin
  2
*D2
 70
     1
 10
0.0
 20
0.0
 30
0.0
  3
*D2
  1

  0
LINE
  5
3C1
100
AcDbEntity
  8
3
 62
     2
100
AcDbLine
 10
203.093704
 20
1.967566
 30
0.0
 11
20.639064
 21
1.967566
 31
0.0
  0
LINE
  5
3C2
100
AcDbEntity
  8
3
 62
     2
100
AcDbLine
 10
22.639064
 20
1.967566
 30
0.0
 11
23.674341
 21
5.831269
 31
0.0
  0
LINE
  5
3C3
100
AcDbEntity
  8
3
 62
     2
100
AcDbLine
 10
22.639064
 20
1.967566
 30
0.0
 11
21.603788
 21
5.831269
 31
0.0
  0
LINE
  5
3C4
100
AcDbEntity
  8
3
 62
     2
100
AcDbLine
 10
23.674341
 20
5.831269
 30
0.0
 11
21.603788
 21
5.831269
 31
0.0
  0
LINE
  5
3C5
100
AcDbEntity
  8
3
 62
     2
100
AcDbLine
 10
22.639064
 20
1.967566
 30
0.0
 11
22.639064
 21
147.640067
 31
0.0
  0
LINE
  5
3C6
100
AcDbEntity
  8
3
 62
     2
100
AcDbLine
 10
22.639064
 20
147.640067
 30
0.0
 11
21.603788
 21
143.776364
 31
0.0
  0
LINE
  5
3C7
100
AcDbEntity
  8
3
 62
     2
100
AcDbLine
 10
22.639064
 20
147.640067
 30
0.0
 11
23.674341
 21
143.776364
 31
0.0
  0
LINE
  5
3C8
100
AcDbEntity
  8
3
 62
     2
100
AcDbLine
 10
21.603788
 20
143.776364
 30
0.0
 11
23.674341
 21
143.776364
 31
0.0
  0
LINE
  5
3C9
100
AcDbEntity
  8
3
 62
     2
100
AcDbLine
 10
165.242362
 20
147.640067
 30
0.0
 11
20.639064
 21
147.640067
 31
0.0
  0
ENDBLK
  5
3CA
100
AcDbEntity
  8
3
100
AcDbBlockEnd
  0
BLOCK
  5
3CB
100
AcDbEntity
  8
3
100
AcDbBlockBegin
  2
*D3
 70
     1
 10
0.0
 20
0.0
 30
0.0
  3
*D3
  1

  0
TEXT
  5
3CC
100
AcDbEntity
  8
3
 62
     2
100
AcDbText
 10
121.252595
 20
128.106006
 30
0.0
 40
7.0
  1
２５゜
 50
77.5
 72
     5
 11
125.494812
 21
147.241408
 31
0.0
100
AcDbText
  0
LINE
  5
3CD
100
AcDbEntity
  8
3
 62
     2
100
AcDbLine
 10
163.636634
 20
149.321446
 30
0.0
 11
130.407422
 21
164.816482
 31
0.0
  0
LINE
  5
3CE
100
AcDbEntity
  8
3
 62
     2
100
AcDbLine
 10
124.780363
 20
111.468235
 30
0.0
 11
118.5804
 21
111.468235
 31
0.0
  0
LINE
  5
3CF
100
AcDbEntity
  8
3
 62
     2
100
AcDbLine
 10
132.220037
 20
163.971246
 30
0.0
 11
129.696847
 21
160.867456
 31
0.0
  0
LINE
  5
3D0
100
AcDbEntity
  8
3
 62
     2
100
AcDbLine
 10
132.220037
 20
163.971246
 30
0.0
 11
131.586785
 21
160.02169
 31
0.0
  0
LINE
  5
3D1
100
AcDbEntity
  8
3
 62
     2
100
AcDbLine
 10
129.696847
 20
160.867456
 30
0.0
 11
131.586785
 21
160.02169
 31
0.0
  0
LINE
  5
3D2
100
AcDbEntity
  8
3
 62
     2
100
AcDbLine
 10
120.5804
 20
111.468235
 30
0.0
 11
121.675633
 21
115.315372
 31
0.0
  0
LINE
  5
3D3
100
AcDbEntity
  8
3
 62
     2
100
AcDbLine
 10
120.5804
 20
111.468235
 30
0.0
 11
119.605331
 21
115.34757
 31
0.0
  0
LINE
  5
3D4
100
AcDbEntity
  8
3
 62
     2
100
AcDbLine
 10
121.675633
 20
115.315372
 30
0.0
 11
119.605331
 21
115.34757
 31
0.0
  0
ARC
  5
3D5
100
AcDbEntity
  8
3
 62
     2
100
AcDbCircle
 10
244.813107
 20
111.468235
 30
0.0
 40
124.232707
100
AcDbArc
 50
155.0
 51
180.0
  0
ENDBLK
  5
3D6
100
AcDbEntity
  8
3
100
AcDbBlockEnd
  0
BLOCK
  5
3D7
100
AcDbEntity
  8
3
100
AcDbBlockBegin
  2
*D4
 70
     1
 10
0.0
 20
0.0
 30
0.0
  3
*D4
  1

  0
TEXT
  5
3D8
100
AcDbEntity
  8
3
 62
     2
100
AcDbText
 10
134.903107
 20
-105.895004
 30
0.0
 40
7.0
  1
１７０
 72
     5
 11
154.503107
 21
-105.895004
 31
0.0
100
AcDbText
  0
LINE
  5
3D9
100
AcDbEntity
  8
3
 62
     2
100
AcDbLine
 10
60.40326
 20
-56.9319
 30
0.0
 11
60.40326
 21
-108.895004
 31
0.0
  0
LINE
  5
3DA
100
AcDbEntity
  8
3
 62
     2
100
AcDbLine
 10
60.40326
 20
-106.895004
 30
0.0
 11
64.266963
 21
-107.93028
 31
0.0
  0
LINE
  5
3DB
100
AcDbEntity
  8
3
 62
     2
100
AcDbLine
 10
60.40326
 20
-106.895004
 30
0.0
 11
64.266963
 21
-105.859728
 31
0.0
  0
LINE
  5
3DC
100
AcDbEntity
  8
3
 62
     2
100
AcDbLine
 10
64.266963
 20
-107.93028
 30
0.0
 11
64.266963
 21
-105.859728
 31
0.0
  0
LINE
  5
3DD
100
AcDbEntity
  8
3
 62
     2
100
AcDbLine
 10
60.40326
 20
-106.895004
 30
0.0
 11
230.402954
 21
-106.895004
 31
0.0
  0
LINE
  5
3DE
100
AcDbEntity
  8
3
 62
     2
100
AcDbLine
 10
230.402954
 20
-106.895004
 30
0.0
 11
226.539251
 21
-105.859728
 31
0.0
  0
LINE
  5
3DF
100
AcDbEntity
  8
3
 62
     2
100
AcDbLine
 10
230.402954
 20
-106.895004
 30
0.0
 11
226.539251
 21
-107.93028
 31
0.0
  0
LINE
  5
3E0
100
AcDbEntity
  8
3
 62
     2
100
AcDbLine
 10
226.539251
 20
-105.859728
 30
0.0
 11
226.539251
 21
-107.93028
 31
0.0
  0
LINE
  5
3E1
100
AcDbEntity
  8
3
 62
     2
100
AcDbLine
 10
230.402954
 20
-30.0319
 30
0.0
 11
230.402954
 21
-108.895004
 31
0.0
  0
ENDBLK
  5
3E2
100
AcDbEntity
  8
3
100
AcDbBlockEnd
  0
BLOCK
  5
3E3
100
AcDbEntity
  8
3
100
AcDbBlockBegin
  2
*D5
 70
     1
 10
0.0
 20
0.0
 30
0.0
  3
*D5
  1

  0
TEXT
  5
3E4
100
AcDbEntity
  8
3
 62
     2
100
AcDbText
 10
21.639064
 20
-33.481584
 30
0.0
 40
7.0
  1
５７
 50
90.0
 72
     5
 11
21.639064
 21
-20.881584
 31
0.0
100
AcDbText
  0
LINE
  5
3E5
100
AcDbEntity
  8
3
 62
     2
100
AcDbLine
 10
58.40326
 20
-54.9319
 30
0.0
 11
20.639064
 21
-54.9319
 31
0.0
  0
LINE
  5
3E6
100
AcDbEntity
  8
3
 62
     2
100
AcDbLine
 10
22.639064
 20
-54.9319
 30
0.0
 11
23.674341
 21
-51.068197
 31
0.0
  0
LINE
  5
3E7
100
AcDbEntity
  8
3
 62
     2
100
AcDbLine
 10
22.639064
 20
-54.9319
 30
0.0
 11
21.603788
 21
-51.068197
 31
0.0
  0
LINE
  5
3E8
100
AcDbEntity
  8
3
 62
     2
100
AcDbLine
 10
23.674341
 20
-51.068197
 30
0.0
 11
21.603788
 21
-51.068197
 31
0.0
  0
LINE
  5
3E9
100
AcDbEntity
  8
3
 62
     2
100
AcDbLine
 10
22.639064
 20
-54.9319
 30
0.0
 11
22.639064
 21
1.968732
 31
0.0
  0
LINE
  5
3EA
100
AcDbEntity
  8
3
 62
     2
100
AcDbLine
 10
22.639064
 20
1.968732
 30
0.0
 11
21.603788
 21
-1.894972
 31
0.0
  0
LINE
  5
3EB
100
AcDbEntity
  8
3
 62
     2
100
AcDbLine
 10
22.639064
 20
1.968732
 30
0.0
 11
23.674341
 21
-1.894972
 31
0.0
  0
LINE
  5
3EC
100
AcDbEntity
  8
3
 62
     2
100
AcDbLine
 10
21.603788
 20
-1.894972
 30
0.0
 11
23.674341
 21
-1.894972
 31
0.0
  0
LINE
  5
3ED
100
AcDbEntity
  8
3
 62
     2
100
AcDbLine
 10
203.647019
 20
1.968732
 30
0.0
 11
20.639064
 21
1.968732
 31
0.0
  0
ENDBLK
  5
3EE
100
AcDbEntity
  8
3
100
AcDbBlockEnd
  0
BLOCK
  5
3EF
100
AcDbEntity
  8
3
100
AcDbBlockBegin
  2
*D6
 70
     1
 10
0.0
 20
0.0
 30
0.0
  3
*D6
  1

  0
TEXT
  5
3F0
100
AcDbEntity
  8
3
 62
     2
100
AcDbText
 10
52.428577
 20
46.218483
 30
0.0
 40
7.0
  1
１１０
 50
90.0
 72
     5
 11
52.428577
 21
65.818483
 31
0.0
100
AcDbText
  0
LINE
  5
3F1
100
AcDbEntity
  8
3
 62
     2
100
AcDbLine
 10
203.647019
 20
1.968732
 30
0.0
 11
51.428577
 21
1.968732
 31
0.0
  0
LINE
  5
3F2
100
AcDbEntity
  8
3
 62
     2
100
AcDbLine
 10
53.428577
 20
1.968732
 30
0.0
 11
54.463854
 21
5.832435
 31
0.0
  0
LINE
  5
3F3
100
AcDbEntity
  8
3
 62
     2
100
AcDbLine
 10
53.428577
 20
1.968732
 30
0.0
 11
52.393301
 21
5.832435
 31
0.0
  0
LINE
  5
3F4
100
AcDbEntity
  8
3
 62
     2
100
AcDbLine
 10
54.463854
 20
5.832435
 30
0.0
 11
52.393301
 21
5.832435
 31
0.0
  0
LINE
  5
3F5
100
AcDbEntity
  8
3
 62
     2
100
AcDbLine
 10
53.428577
 20
1.968732
 30
0.0
 11
53.428577
 21
111.468235
 31
0.0
  0
LINE
  5
3F6
100
AcDbEntity
  8
3
 62
     2
100
AcDbLine
 10
53.428577
 20
111.468235
 30
0.0
 11
52.393301
 21
107.604532
 31
0.0
  0
LINE
  5
3F7
100
AcDbEntity
  8
3
 62
     2
100
AcDbLine
 10
53.428577
 20
111.468235
 30
0.0
 11
54.463854
 21
107.604532
 31
0.0
  0
LINE
  5
3F8
100
AcDbEntity
  8
3
 62
     2
100
AcDbLine
 10
52.393301
 20
107.604532
 30
0.0
 11
54.463854
 21
107.604532
 31
0.0
  0
LINE
  5
3F9
100
AcDbEntity
  8
3
 62
     2
100
AcDbLine
 10
128.402954
 20
111.468235
 30
0.0
 11
51.428577
 21
111.468235
 31
0.0
  0
ENDBLK
  5
3FA
100
AcDbEntity
  8
3
100
AcDbBlockEnd
  0
BLOCK
  5
3FB
100
AcDbEntity
  8
3
100
AcDbBlockBegin
  2
*D7
 70
     1
 10
0.0
 20
0.0
 30
0.0
  3
*D7
  1

  0
LINE
  5
3FC
100
AcDbEntity
  8
3
 62
     2
100
AcDbLine
 10
230.402954
 20
-30.0319
 30
0.0
 11
230.402954
 21
-108.895004
 31
0.0
  0
LINE
  5
3FD
100
AcDbEntity
  8
3
 62
     2
100
AcDbLine
 10
230.402954
 20
-106.895004
 30
0.0
 11
234.266657
 21
-107.93028
 31
0.0
  0
LINE
  5
3FE
100
AcDbEntity
  8
3
 62
     2
100
AcDbLine
 10
230.402954
 20
-106.895004
 30
0.0
 11
234.266657
 21
-105.859728
 31
0.0
  0
LINE
  5
3FF
100
AcDbEntity
  8
3
 62
     2
100
AcDbLine
 10
234.266657
 20
-107.93028
 30
0.0
 11
234.266657
 21
-105.859728
 31
0.0
  0
LINE
  5
400
100
AcDbEntity
  8
3
 62
     2
100
AcDbLine
 10
230.402954
 20
-106.895004
 30
0.0
 11
316.003206
 21
-106.895004
 31
0.0
  0
LINE
  5
401
100
AcDbEntity
  8
3
 62
     2
100
AcDbLine
 10
316.003206
 20
-106.895004
 30
0.0
 11
312.139503
 21
-105.859728
 31
0.0
  0
LINE
  5
402
100
AcDbEntity
  8
3
 62
     2
100
AcDbLine
 10
316.003206
 20
-106.895004
 30
0.0
 11
312.139503
 21
-107.93028
 31
0.0
  0
LINE
  5
403
100
AcDbEntity
  8
3
 62
     2
100
AcDbLine
 10
312.139503
 20
-105.859728
 30
0.0
 11
312.139503
 21
-107.93028
 31
0.0
  0
LINE
  5
404
100
AcDbEntity
  8
3
 62
     2
100
AcDbLine
 10
316.003206
 20
-83.031675
 30
0.0
 11
316.003206
 21
-108.895004
 31
0.0
  0
ENDBLK
  5
405
100
AcDbEntity
  8
3
100
AcDbBlockEnd
  0
BLOCK
  5
406
100
AcDbEntity
  8
3
100
AcDbBlockBegin
  2
*D8
 70
     1
 10
0.0
 20
0.0
 30
0.0
  3
*D8
  1

  0
LINE
  5
407
100
AcDbEntity
  8
3
 62
     2
100
AcDbLine
 10
316.003206
 20
-83.031675
 30
0.0
 11
316.003206
 21
-108.895004
 31
0.0
  0
LINE
  5
408
100
AcDbEntity
  8
3
 62
     2
100
AcDbLine
 10
316.003206
 20
-106.895004
 30
0.0
 11
312.139503
 21
-105.859728
 31
0.0
  0
LINE
  5
409
100
AcDbEntity
  8
3
 62
     2
100
AcDbLine
 10
316.003206
 20
-106.895004
 30
0.0
 11
312.139503
 21
-107.93028
 31
0.0
  0
LINE
  5
40A
100
AcDbEntity
  8
3
 62
     2
100
AcDbLine
 10
312.139503
 20
-105.859728
 30
0.0
 11
312.139503
 21
-107.93028
 31
0.0
  0
LINE
  5
40B
100
AcDbEntity
  8
3
 62
     2
100
AcDbLine
 10
306.003206
 20
-106.895004
 30
0.0
 11
369.003206
 21
-106.895004
 31
0.0
  0
LINE
  5
40C
100
AcDbEntity
  8
3
 62
     2
100
AcDbLine
 10
333.003206
 20
-106.895004
 30
0.0
 11
336.866909
 21
-107.93028
 31
0.0
  0
LINE
  5
40D
100
AcDbEntity
  8
3
 62
     2
100
AcDbLine
 10
333.003206
 20
-106.895004
 30
0.0
 11
336.866909
 21
-105.859728
 31
0.0
  0
LINE
  5
40E
100
AcDbEntity
  8
3
 62
     2
100
AcDbLine
 10
336.866909
 20
-107.93028
 30
0.0
 11
336.866909
 21
-105.859728
 31
0.0
  0
LINE
  5
40F
100
AcDbEntity
  8
3
 62
     2
100
AcDbLine
 10
333.003206
 20
-69.347175
 30
0.0
 11
333.003206
 21
-108.895004
 31
0.0
  0
ENDBLK
  5
410
100
AcDbEntity
  8
3
100
AcDbBlockEnd
  0
BLOCK
  5
411
100
AcDbEntity
  8
3
100
AcDbBlockBegin
  2
*D9
 70
     1
 10
0.0
 20
0.0
 30
0.0
  3
*D9
  1

  0
LINE
  5
412
100
AcDbEntity
  8
3
 62
     2
100
AcDbLine
 10
-252.684481
 20
-205.957675
 30
0.0
 11
-252.684481
 21
-265.05603
 31
0.0
  0
LINE
  5
413
100
AcDbEntity
  8
3
 62
     2
100
AcDbLine
 10
-252.684481
 20
-263.05603
 30
0.0
 11
-248.820777
 21
-264.091306
 31
0.0
  0
LINE
  5
414
100
AcDbEntity
  8
3
 62
     2
100
AcDbLine
 10
-252.684481
 20
-263.05603
 30
0.0
 11
-248.820777
 21
-262.020754
 31
0.0
  0
LINE
  5
415
100
AcDbEntity
  8
3
 62
     2
100
AcDbLine
 10
-248.820777
 20
-264.091306
 30
0.0
 11
-248.820777
 21
-262.020754
 31
0.0
  0
LINE
  5
416
100
AcDbEntity
  8
3
 62
     2
100
AcDbLine
 10
-252.684481
 20
-263.05603
 30
0.0
 11
-67.831667
 21
-263.05603
 31
0.0
  0
LINE
  5
417
100
AcDbEntity
  8
3
 62
     2
100
AcDbLine
 10
-67.831667
 20
-263.05603
 30
0.0
 11
-71.69537
 21
-262.020754
 31
0.0
  0
LINE
  5
418
100
AcDbEntity
  8
3
 62
     2
100
AcDbLine
 10
-67.831667
 20
-263.05603
 30
0.0
 11
-71.69537
 21
-264.091306
 31
0.0
  0
LINE
  5
419
100
AcDbEntity
  8
3
 62
     2
100
AcDbLine
 10
-71.69537
 20
-262.020754
 30
0.0
 11
-71.69537
 21
-264.091306
 31
0.0
  0
LINE
  5
41A
100
AcDbEntity
  8
3
 62
     2
100
AcDbLine
 10
-67.831667
 20
-205.957675
 30
0.0
 11
-67.831667
 21
-265.05603
 31
0.0
  0
ENDBLK
  5
41B
100
AcDbEntity
  8
3
100
AcDbBlockEnd
  0
BLOCK
  5
41C
100
AcDbEntity
  8
3
100
AcDbBlockBegin
  2
*D10
 70
     1
 10
0.0
 20
0.0
 30
0.0
  3
*D10
  1

  0
TEXT
  5
41D
100
AcDbEntity
  8
3
 62
     2
100
AcDbText
 10
-170.758074
 20
252.127769
 30
0.0
 40
7.0
  1
１００
 72
     5
 11
-151.158074
 21
252.127769
 31
0.0
100
AcDbText
  0
LINE
  5
41E
100
AcDbEntity
  8
3
 62
     2
100
AcDbLine
 10
-210.257667
 20
162.291081
 30
0.0
 11
-210.257667
 21
253.127769
 31
0.0
  0
LINE
  5
41F
100
AcDbEntity
  8
3
 62
     2
100
AcDbLine
 10
-210.257667
 20
251.127769
 30
0.0
 11
-206.393963
 21
250.092493
 31
0.0
  0
LINE
  5
420
100
AcDbEntity
  8
3
 62
     2
100
AcDbLine
 10
-210.257667
 20
251.127769
 30
0.0
 11
-206.393963
 21
252.163045
 31
0.0
  0
LINE
  5
421
100
AcDbEntity
  8
3
 62
     2
100
AcDbLine
 10
-206.393963
 20
250.092493
 30
0.0
 11
-206.393963
 21
252.163045
 31
0.0
  0
LINE
  5
422
100
AcDbEntity
  8
3
 62
     2
100
AcDbLine
 10
-210.257667
 20
251.127769
 30
0.0
 11
-110.258481
 21
251.127769
 31
0.0
  0
LINE
  5
423
100
AcDbEntity
  8
3
 62
     2
100
AcDbLine
 10
-110.258481
 20
251.127769
 30
0.0
 11
-114.122184
 21
252.163045
 31
0.0
  0
LINE
  5
424
100
AcDbEntity
  8
3
 62
     2
100
AcDbLine
 10
-110.258481
 20
251.127769
 30
0.0
 11
-114.122184
 21
250.092493
 31
0.0
  0
LINE
  5
425
100
AcDbEntity
  8
3
 62
     2
100
AcDbLine
 10
-114.122184
 20
252.163045
 30
0.0
 11
-114.122184
 21
250.092493
 31
0.0
  0
LINE
  5
426
100
AcDbEntity
  8
3
 62
     2
100
AcDbLine
 10
-110.258481
 20
162.291081
 30
0.0
 11
-110.258481
 21
253.127769
 31
0.0
  0
ENDBLK
  5
427
100
AcDbEntity
  8
3
100
AcDbBlockEnd
  0
BLOCK
  5
428
100
AcDbEntity
  8
3
100
AcDbBlockBegin
  2
*D11
 70
     1
 10
0.0
 20
0.0
 30
0.0
  3
*D11
  1

  0
TEXT
  5
429
100
AcDbEntity
  8
3
 62
     2
100
AcDbText
 10
-87.257721
 20
252.127769
 30
0.0
 40
7.0
  1
６０
 72
     5
 11
-74.657721
 21
252.127769
 31
0.0
100
AcDbText
  0
LINE
  5
42A
100
AcDbEntity
  8
3
 62
     2
100
AcDbLine
 10
-110.257721
 20
162.291081
 30
0.0
 11
-110.257721
 21
253.127769
 31
0.0
  0
LINE
  5
42B
100
AcDbEntity
  8
3
 62
     2
100
AcDbLine
 10
-110.257721
 20
251.127769
 30
0.0
 11
-106.394018
 21
250.092493
 31
0.0
  0
LINE
  5
42C
100
AcDbEntity
  8
3
 62
     2
100
AcDbLine
 10
-110.257721
 20
251.127769
 30
0.0
 11
-106.394018
 21
252.163045
 31
0.0
  0
LINE
  5
42D
100
AcDbEntity
  8
3
 62
     2
100
AcDbLine
 10
-106.394018
 20
250.092493
 30
0.0
 11
-106.394018
 21
252.163045
 31
0.0
  0
LINE
  5
42E
100
AcDbEntity
  8
3
 62
     2
100
AcDbLine
 10
-110.257721
 20
251.127769
 30
0.0
 11
-50.257721
 21
251.127769
 31
0.0
  0
LINE
  5
42F
100
AcDbEntity
  8
3
 62
     2
100
AcDbLine
 10
-50.257721
 20
251.127769
 30
0.0
 11
-54.121425
 21
252.163045
 31
0.0
  0
LINE
  5
430
100
AcDbEntity
  8
3
 62
     2
100
AcDbLine
 10
-50.257721
 20
251.127769
 30
0.0
 11
-54.121425
 21
250.092493
 31
0.0
  0
LINE
  5
431
100
AcDbEntity
  8
3
 62
     2
100
AcDbLine
 10
-54.121425
 20
252.163045
 30
0.0
 11
-54.121425
 21
250.092493
 31
0.0
  0
LINE
  5
432
100
AcDbEntity
  8
3
 62
     2
100
AcDbLine
 10
-50.257721
 20
228.383778
 30
0.0
 11
-50.257721
 21
253.127769
 31
0.0
  0
ENDBLK
  5
433
100
AcDbEntity
  8
3
100
AcDbBlockEnd
  0
BLOCK
  5
434
100
AcDbEntity
  8
3
100
AcDbBlockBegin
  2
*D12
 70
     1
 10
0.0
 20
0.0
 30
0.0
  3
*D12
  1

  0
TEXT
  5
435
100
AcDbEntity
  8
3
 62
     2
100
AcDbText
 10
-280.758426
 20
252.636315
 30
0.0
 40
7.0
  1
φ４６
 72
     5
 11
-261.158426
 21
252.636315
 31
0.0
100
AcDbText
  0
LINE
  5
436
100
AcDbEntity
  8
3
 62
     2
100
AcDbLine
 10
-293.258426
 20
208.491333
 30
0.0
 11
-293.258426
 21
253.636315
 31
0.0
  0
LINE
  5
437
100
AcDbEntity
  8
3
 62
     2
100
AcDbLine
 10
-293.258426
 20
251.636315
 30
0.0
 11
-289.394723
 21
250.601039
 31
0.0
  0
LINE
  5
438
100
AcDbEntity
  8
3
 62
     2
100
AcDbLine
 10
-293.258426
 20
251.636315
 30
0.0
 11
-289.394723
 21
252.671591
 31
0.0
  0
LINE
  5
439
100
AcDbEntity
  8
3
 62
     2
100
AcDbLine
 10
-289.394723
 20
250.601039
 30
0.0
 11
-289.394723
 21
252.671591
 31
0.0
  0
LINE
  5
43A
100
AcDbEntity
  8
3
 62
     2
100
AcDbLine
 10
-293.258426
 20
251.636315
 30
0.0
 11
-247.258426
 21
251.636315
 31
0.0
  0
LINE
  5
43B
100
AcDbEntity
  8
3
 62
     2
100
AcDbLine
 10
-247.258426
 20
251.636315
 30
0.0
 11
-251.122129
 21
252.671591
 31
0.0
  0
LINE
  5
43C
100
AcDbEntity
  8
3
 62
     2
100
AcDbLine
 10
-247.258426
 20
251.636315
 30
0.0
 11
-251.122129
 21
250.601039
 31
0.0
  0
LINE
  5
43D
100
AcDbEntity
  8
3
 62
     2
100
AcDbLine
 10
-251.122129
 20
252.671591
 30
0.0
 11
-251.122129
 21
250.601039
 31
0.0
  0
LINE
  5
43E
100
AcDbEntity
  8
3
 62
     2
100
AcDbLine
 10
-247.258426
 20
208.491333
 30
0.0
 11
-247.258426
 21
253.636315
 31
0.0
  0
ENDBLK
  5
43F
100
AcDbEntity
  8
3
100
AcDbBlockEnd
  0
ENDSEC
  0
SECTION
  2
ENTITIES
  0
LINE
  5
32
100
AcDbEntity
  8
1
 62
     3
100
AcDbLine
 10
-373.02157
 20
275.028767
 30
0.0
 11
394.982385
 21
275.028767
 31
0.0
  0
LINE
  5
33
100
AcDbEntity
  8
1
 62
     3
100
AcDbLine
 10
-373.02157
 20
275.028767
 30
0.0
 11
-373.02157
 21
-277.971881
 31
0.0
  0
LINE
  5
34
100
AcDbEntity
  8
1
 62
     3
100
AcDbLine
 10
-373.02157
 20
-277.971881
 30
0.0
 11
394.982385
 21
-277.971881
 31
0.0
  0
LINE
  5
35
100
AcDbEntity
  8
1
 62
     3
100
AcDbLine
 10
394.982385
 20
-277.971881
 30
0.0
 11
394.982385
 21
275.028767
 31
0.0
  0
TEXT
  5
36
100
AcDbEntity
  8
1
100
AcDbText
 10
359.628442
 20
-226.252857
 30
0.0
 40
6.0
  1
設計
 72
     5
 11
370.428442
 21
-226.252857
 31
0.0
100
AcDbText
  0
TEXT
  5
37
100
AcDbEntity
  8
1
100
AcDbText
 10
379.127478
 20
-226.099658
 30
0.0
 40
6.0
  1
製図
 72
     5
 11
389.927478
 21
-226.099658
 31
0.0
100
AcDbText
  0
TEXT
  5
38
100
AcDbEntity
  8
1
100
AcDbText
 10
319.005745
 20
-226.252857
 30
0.0
 40
6.0
  1
承認
 72
     5
 11
329.805745
 21
-226.252857
 31
0.0
100
AcDbText
  0
TEXT
  5
39
100
AcDbEntity
  8
1
100
AcDbText
 10
338.989679
 20
-226.19802
 30
0.0
 40
6.0
  1
検図
 72
     5
 11
349.789679
 21
-226.19802
 31
0.0
100
AcDbText
  0
LINE
  5
3A
100
AcDbEntity
  8
1
 62
     2
100
AcDbLine
 10
284.982385
 20
-227.971881
 30
0.0
 11
394.982385
 21
-227.971881
 31
0.0
  0
LINE
  5
3B
100
AcDbEntity
  8
1
 62
     2
100
AcDbLine
 10
342.482385
 20
-245.971881
 30
0.0
 11
342.482385
 21
-259.971881
 31
0.0
  0
TEXT
  5
3C
100
AcDbEntity
  8
1
100
AcDbText
 10
319.55159
 20
-256.012528
 30
0.0
 40
6.0
  1
日　付
 72
     5
 11
336.35159
 21
-256.012528
 31
0.0
100
AcDbText
  0
LINE
  5
3D
100
AcDbEntity
  8
1
100
AcDbLine
 10
40.982385
 20
-259.971881
 30
0.0
 11
394.982385
 21
-259.971881
 31
0.0
  0
TEXT
  5
3E
100
AcDbEntity
  8
1
100
AcDbText
 10
287.775011
 20
-256.322406
 30
0.0
 40
6.0
  1
第三角法
 72
     5
 11
310.575011
 21
-256.322406
 31
0.0
100
AcDbText
  0
TEXT
  5
3F
100
AcDbEntity
  8
1
100
AcDbText
 10
291.087419
 20
-225.99802
 30
0.0
 40
6.0
  1
尺　度
 72
     5
 11
307.887419
 21
-225.99802
 31
0.0
100
AcDbText
  0
LINE
  5
40
100
AcDbEntity
  8
1
 62
     3
100
AcDbLine
 10
40.982385
 20
-217.971881
 30
0.0
 11
394.982385
 21
-217.971881
 31
0.0
  0
LINE
  5
41
100
AcDbEntity
  8
1
100
AcDbLine
 10
211.982385
 20
-217.971881
 30
0.0
 11
211.982385
 21
-277.971881
 31
0.0
  0
LINE
  5
42
100
AcDbEntity
  8
1
 62
     2
100
AcDbLine
 10
374.982385
 20
-245.971881
 30
0.0
 11
374.982385
 21
-217.971881
 31
0.0
  0
LINE
  5
43
100
AcDbEntity
  8
1
 62
     2
100
AcDbLine
 10
354.982385
 20
-245.971881
 30
0.0
 11
354.982385
 21
-217.971881
 31
0.0
  0
LINE
  5
44
100
AcDbEntity
  8
1
 62
     2
100
AcDbLine
 10
334.982385
 20
-245.971881
 30
0.0
 11
334.982385
 21
-217.971881
 31
0.0
  0
LINE
  5
45
100
AcDbEntity
  8
1
100
AcDbLine
 10
284.982385
 20
-277.971881
 30
0.0
 11
284.982385
 21
-217.971881
 31
0.0
  0
LINE
  5
46
100
AcDbEntity
  8
1
100
AcDbLine
 10
189.982385
 20
-217.971881
 30
0.0
 11
189.982385
 21
-277.971881
 31
0.0
  0
LINE
  5
47
100
AcDbEntity
  8
1
100
AcDbLine
 10
62.982385
 20
-217.971881
 30
0.0
 11
62.982385
 21
-259.971881
 31
0.0
  0
LINE
  5
48
100
AcDbEntity
  8
1
100
AcDbLine
 10
284.982385
 20
-245.971881
 30
0.0
 11
394.982385
 21
-245.971881
 31
0.0
  0
TEXT
  5
49
100
AcDbEntity
  8
1
100
AcDbText
 10
287.101129
 20
-271.880939
 30
0.0
 40
6.0
  1
コードＮｏ
 41
0.9
 72
     5
 11
313.021129
 21
-271.880939
 31
0.0
100
AcDbText
  0
TEXT
  5
4A
100
AcDbEntity
  8
1
 62
     3
100
AcDbText
 10
52.886774
 20
-272.875659
 30
0.0
 40
8.0
  1
ミズタニバルブ工業株式会社
 41
1.2
 72
     5
 11
175.766774
 21
-272.875659
 31
0.0
100
AcDbText
  0
LINE
  5
4B
100
AcDbEntity
  8
1
100
AcDbLine
 10
40.982385
 20
-238.971881
 30
0.0
 11
284.982385
 21
-238.971881
 31
0.0
  0
LINE
  5
4C
100
AcDbEntity
  8
1
100
AcDbLine
 10
115.482385
 20
-238.971881
 30
0.0
 11
115.482385
 21
-259.971881
 31
0.0
  0
LINE
  5
4D
100
AcDbEntity
  8
1
100
AcDbLine
 10
137.482385
 20
-238.971881
 30
0.0
 11
137.482385
 21
-259.971881
 31
0.0
  0
LINE
  5
4E
100
AcDbEntity
  8
1
100
AcDbLine
 10
314.982385
 20
-277.971881
 30
0.0
 11
314.982385
 21
-217.971881
 31
0.0
  0
TEXT
  5
4F
100
AcDbEntity
  8
1
100
AcDbText
 10
345.098131
 20
-256.100293
 30
0.0
 40
6.0
  1
　　・　　・
 72
     5
 11
379.898131
 21
-256.100293
 31
0.0
100
AcDbText
  0
LINE
  5
50
100
AcDbEntity
  8
1
 62
     3
100
AcDbLine
 10
40.982385
 20
-217.971881
 30
0.0
 11
40.982385
 21
-277.971881
 31
0.0
  0
TEXT
  5
51
100
AcDbEntity
  8
1
100
AcDbText
 10
290.832582
 20
-240.013492
 30
0.0
 40
6.0
  1
　／ 
 72
     5
 11
301.632582
 21
-240.013492
 31
0.0
100
AcDbText
  0
TEXT
  5
52
100
AcDbEntity
  8
1
100
AcDbText
 10
193.904123
 20
-272.024909
 30
0.0
 40
6.0
  1
備 考 
 72
     5
 11
207.704123
 21
-272.024909
 31
0.0
100
AcDbText
  0
TEXT
  5
53
100
AcDbEntity
  8
1
100
AcDbText
 10
193.512534
 20
-230.89184
 30
0.0
 40
6.0
  1
仕 上
 72
     5
 11
207.312534
 21
-230.89184
 31
0.0
100
AcDbText
  0
TEXT
  5
54
100
AcDbEntity
  8
1
100
AcDbText
 10
193.447176
 20
-248.891666
 30
0.0
 40
6.0
  1
表 面
 72
     5
 11
207.247176
 21
-248.891666
 31
0.0
100
AcDbText
  0
TEXT
  5
55
100
AcDbEntity
  8
1
100
AcDbText
 10
193.447176
 20
-255.891666
 30
0.0
 40
6.0
  1
処 理
 72
     5
 11
207.247176
 21
-255.891666
 31
0.0
100
AcDbText
  0
TEXT
  5
56
100
AcDbEntity
  8
1
100
AcDbText
 10
44.79335
 20
-231.693399
 30
0.0
 40
6.0
  1
品 名
 72
     5
 11
58.59335
 21
-231.693399
 31
0.0
100
AcDbText
  0
TEXT
  5
57
100
AcDbEntity
  8
1
100
AcDbText
 10
44.397766
 20
-252.462534
 30
0.0
 40
6.0
  1
材 質
 72
     5
 11
58.197766
 21
-252.462534
 31
0.0
100
AcDbText
  0
TEXT
  5
58
100
AcDbEntity
  8
1
100
AcDbText
 10
118.897766
 20
-252.462534
 30
0.0
 40
6.0
  1
規 格
 72
     5
 11
132.697766
 21
-252.462534
 31
0.0
100
AcDbText
  0
LINE
  5
59
100
AcDbEntity
  8
2
100
AcDbLine
 10
-181.309109
 20
-101.031268
 30
0.0
 11
-139.207038
 21
-101.031268
 31
0.0
  0
LINE
  5
5A
100
AcDbEntity
  8
2
100
AcDbLine
 10
-147.258074
 20
-161.031268
 30
0.0
 11
-142.258074
 21
-161.031268
 31
0.0
  0
LINE
  5
5B
100
AcDbEntity
  8
2
100
AcDbLine
 10
-178.258074
 20
-161.031268
 30
0.0
 11
-173.258074
 21
-161.031268
 31
0.0
  0
POINT
  5
5C
100
AcDbEntity
  8
2
100
AcDbPoint
 10
-160.258074
 20
-159.030536
 30
0.0
  0
ARC
  5
5D
100
AcDbEntity
  8
2
100
AcDbCircle
 10
-111.258074
 20
-143.031268
 30
0.0
 40
14.5
100
AcDbArc
 50
279.774188
 51
87.0
  0
ARC
  5
5E
100
AcDbEntity
  8
2
100
AcDbCircle
 10
-209.258074
 20
-143.031268
 30
0.0
 40
14.5
100
AcDbArc
 50
93.0
 51
259.332032
  0
ARC
  5
5F
100
AcDbEntity
  8
2
100
AcDbCircle
 10
-156.330826
 20
118.614861
 30
0.0
 40
280.0
100
AcDbArc
 50
272.88089
 51
279.774188
  0
ARC
  5
60
100
AcDbEntity
  8
2
100
AcDbCircle
 10
-164.185321
 20
118.614861
 30
0.0
 40
280.0
100
AcDbArc
 50
260.225812
 51
267.11911
  0
POINT
  5
61
100
AcDbEntity
  8
2
100
AcDbPoint
 10
-211.719674
 20
-157.320793
 30
0.0
  0
POINT
  5
62
100
AcDbEntity
  8
2
100
AcDbPoint
 10
-160.258074
 20
-101.031268
 30
0.0
  0
LINE
  5
63
100
AcDbEntity
  8
2
100
AcDbLine
 10
-147.858074
 20
-163.031268
 30
0.0
 11
-147.258074
 21
-162.431268
 31
0.0
  0
LINE
  5
64
100
AcDbEntity
  8
2
100
AcDbLine
 10
-172.658074
 20
-163.031268
 30
0.0
 11
-173.258074
 21
-162.431268
 31
0.0
  0
POINT
  5
65
100
AcDbEntity
  8
2
100
AcDbPoint
 10
-160.258074
 20
-159.030536
 30
0.0
  0
LINE
  5
66
100
AcDbEntity
  8
2
100
AcDbLine
 10
-138.208409
 20
-101.978932
 30
0.0
 11
-137.241724
 21
-120.424371
 31
0.0
  0
LINE
  5
67
100
AcDbEntity
  8
2
100
AcDbLine
 10
-110.499202
 20
-128.55114
 30
0.0
 11
-130.144522
 21
-127.521573
 31
0.0
  0
ARC
  5
68
100
AcDbEntity
  8
2
100
AcDbCircle
 10
-129.752003
 20
-120.031851
 30
0.0
 40
7.5
100
AcDbArc
 50
183.0
 51
267.0
  0
ARC
  5
69
100
AcDbEntity
  8
2
100
AcDbCircle
 10
-190.764145
 20
-120.031851
 30
0.0
 40
7.5
100
AcDbArc
 50
273.0
 51
357.0
  0
LINE
  5
6A
100
AcDbEntity
  8
2
100
AcDbLine
 10
-210.016945
 20
-128.55114
 30
0.0
 11
-190.371625
 21
-127.521573
 31
0.0
  0
LINE
  5
6B
100
AcDbEntity
  8
2
100
AcDbLine
 10
-182.307739
 20
-101.978932
 30
0.0
 11
-183.274423
 21
-120.424371
 31
0.0
  0
POINT
  5
6C
100
AcDbEntity
  8
2
100
AcDbPoint
 10
-183.627849
 20
-127.168146
 30
0.0
  0
POINT
  5
6D
100
AcDbEntity
  8
2
100
AcDbPoint
 10
-160.258074
 20
-101.031268
 30
0.0
  0
ARC
  5
6E
100
AcDbEntity
  8
2
100
AcDbCircle
 10
-139.207038
 20
-102.031268
 30
0.0
 40
1.0
100
AcDbArc
 50
3.0
 51
90.0
  0
ARC
  5
6F
100
AcDbEntity
  8
2
100
AcDbCircle
 10
-181.309109
 20
-102.031268
 30
0.0
 40
1.0
100
AcDbArc
 50
90.0
 51
177.0
  0
POINT
  5
70
100
AcDbEntity
  8
2
100
AcDbPoint
 10
-160.258074
 20
142.391039
 30
0.0
  0
POINT
  5
71
100
AcDbEntity
  8
2
100
AcDbPoint
 10
-160.258074
 20
98.954037
 30
0.0
  0
POINT
  5
72
100
AcDbEntity
  8
2
100
AcDbPoint
 10
-135.910154
 20
140.410147
 30
0.0
  0
POINT
  5
73
100
AcDbEntity
  8
2
100
AcDbPoint
 10
-135.910154
 20
140.410147
 30
0.0
  0
LINE
  5
74
100
AcDbEntity
  8
2
100
AcDbLine
 10
-97.349325
 20
143.391421
 30
0.0
 11
-123.698783
 21
143.391421
 31
0.0
  0
LINE
  5
75
100
AcDbEntity
  8
2
100
AcDbLine
 10
-138.758074
 20
-95.531765
 30
0.0
 11
-181.758074
 21
-95.531765
 31
0.0
  0
CIRCLE
  5
76
100
AcDbEntity
  8
2
100
AcDbCircle
 10
-160.258074
 20
-82.531765
 30
0.0
 40
5.0
  0
POINT
  5
77
100
AcDbEntity
  8
2
100
AcDbPoint
 10
-160.258074
 20
-78.031765
 30
0.0
  0
LINE
  5
78
100
AcDbEntity
  8
2
100
AcDbLine
 10
-181.758074
 20
-76.456083
 30
0.0
 11
-181.758074
 21
-95.531765
 31
0.0
  0
LINE
  5
79
100
AcDbEntity
  8
2
100
AcDbLine
 10
-138.758074
 20
-76.456083
 30
0.0
 11
-138.758074
 21
-95.531765
 31
0.0
  0
ARC
  5
7A
100
AcDbEntity
  8
2
100
AcDbCircle
 10
-160.258074
 20
-71.953324
 30
0.0
 40
38.263071
100
AcDbArc
 50
79.986433
 51
100.013567
  0
LINE
  5
7B
100
AcDbEntity
  8
2
100
AcDbLine
 10
-170.918346
 20
-38.092296
 30
0.0
 11
-179.988074
 21
-78.129745
 31
0.0
  0
ARC
  5
7C
100
AcDbEntity
  8
2
100
AcDbCircle
 10
-173.280656
 20
-76.456083
 30
0.0
 40
8.477417
100
AcDbArc
 50
149.878537
 51
180.0
  0
ARC
  5
7D
100
AcDbEntity
  8
2
100
AcDbCircle
 10
-217.0717
 20
-51.049383
 30
0.0
 40
42.150203
100
AcDbArc
 50
329.878537
 51
347.236145
  0
ARC
  5
7E
100
AcDbEntity
  8
2
100
AcDbCircle
 10
-103.444448
 20
-51.049383
 30
0.0
 40
42.150203
100
AcDbArc
 50
192.763855
 51
210.121463
  0
ARC
  5
7F
100
AcDbEntity
  8
2
100
AcDbCircle
 10
-147.235491
 20
-76.456083
 30
0.0
 40
8.477417
100
AcDbArc
 50
360.0
 51
30.121463
  0
ARC
  5
80
100
AcDbEntity
  8
2
100
AcDbCircle
 10
-166.041902
 20
-39.196962
 30
0.0
 40
5.0
100
AcDbArc
 50
100.013567
 51
167.236145
  0
ARC
  5
81
100
AcDbEntity
  8
2
100
AcDbCircle
 10
-154.474246
 20
-39.196962
 30
0.0
 40
5.0
100
AcDbArc
 50
12.763855
 51
79.986433
  0
LINE
  5
82
100
AcDbEntity
  8
2
100
AcDbLine
 10
-149.597801
 20
-38.092296
 30
0.0
 11
-140.528074
 21
-78.129745
 31
0.0
  0
LINE
  5
83
100
AcDbEntity
  8
2
100
AcDbLine
 10
-169.096941
 20
-39.440457
 30
0.0
 11
-150.534334
 21
-39.440457
 31
0.0
  0
ARC
  5
84
100
AcDbEntity
  8
2
 62
     2
100
AcDbCircle
 10
-160.258074
 20
-111.655051
 30
0.0
 40
38.900116
100
AcDbArc
 50
66.010861
 51
113.805803
  0
ARC
  5
85
100
AcDbEntity
  8
2
100
AcDbCircle
 10
-180.758074
 20
-100.031704
 30
0.0
 40
1.0
100
AcDbArc
 50
179.975044
 51
270.0
  0
ARC
  5
86
100
AcDbEntity
  8
2
100
AcDbCircle
 10
-88.299813
 20
-135.605888
 30
0.0
 40
100.0
100
AcDbArc
 50
156.375476
 51
159.160816
  0
ARC
  5
87
100
AcDbEntity
  8
2
100
AcDbCircle
 10
-232.216334
 20
-135.605888
 30
0.0
 40
100.0
100
AcDbArc
 50
20.839184
 51
23.624524
  0
POINT
  5
88
100
AcDbEntity
  8
2
100
AcDbPoint
 10
-138.758074
 20
-100.031268
 30
0.0
  0
ARC
  5
89
100
AcDbEntity
  8
2
100
AcDbCircle
 10
-139.758074
 20
-100.031704
 30
0.0
 40
1.0
100
AcDbArc
 50
270.0
 51
0.024956
  0
LINE
  5
8A
100
AcDbEntity
  8
2
100
AcDbLine
 10
-150.296127
 20
32.519945
 30
0.0
 11
-144.449181
 21
99.350836
 31
0.0
  0
LINE
  5
8B
100
AcDbEntity
  8
2
100
AcDbLine
 10
-170.220021
 20
32.519945
 30
0.0
 11
-176.066966
 21
99.350836
 31
0.0
  0
ARC
  5
8C
100
AcDbEntity
  8
2
100
AcDbCircle
 10
-94.639446
 20
94.993049
 30
0.0
 40
50.0
100
AcDbArc
 50
156.598328
 51
175.0
  0
ARC
  5
8D
100
AcDbEntity
  8
2
100
AcDbCircle
 10
-225.876701
 20
94.993049
 30
0.0
 40
50.0
100
AcDbArc
 50
5.0
 51
23.401672
  0
ARC
  5
8E
100
AcDbEntity
  8
2
100
AcDbCircle
 10
-160.258074
 20
33.391503
 30
0.0
 40
10.0
100
AcDbArc
 50
185.0
 51
355.0
  0
ARC
  5
8F
100
AcDbEntity
  8
2
100
AcDbCircle
 10
-160.258074
 20
123.391037
 30
0.0
 40
21.5
100
AcDbArc
 50
336.598328
 51
203.401672
  0
POINT
  5
90
100
AcDbEntity
  8
2
100
AcDbPoint
 10
-170.220021
 20
32.519945
 30
0.0
  0
POINT
  5
91
100
AcDbEntity
  8
2
100
AcDbPoint
 10
-150.296127
 20
32.519945
 30
0.0
  0
POINT
  5
92
100
AcDbEntity
  8
2
100
AcDbPoint
 10
-160.258074
 20
23.391503
 30
0.0
  0
ARC
  5
93
100
AcDbEntity
  8
2
100
AcDbCircle
 10
-160.258074
 20
123.391037
 30
0.0
 40
22.0
100
AcDbArc
 50
326.395307
 51
213.604693
  0
LINE
  5
94
100
AcDbEntity
  8
2
100
AcDbLine
 10
-172.658074
 20
-163.031268
 30
0.0
 11
-147.858074
 21
-163.031268
 31
0.0
  0
LINE
  5
95
100
AcDbEntity
  8
2
100
AcDbLine
 10
-173.258074
 20
-161.031268
 30
0.0
 11
-147.258074
 21
-161.031268
 31
0.0
  0
POINT
  5
96
100
AcDbEntity
  8
2
100
AcDbPoint
 10
-110.258074
 20
-143.031268
 30
0.0
  0
LINE
  5
97
100
AcDbEntity
  8
2
100
AcDbLine
 10
-215.825838
 20
-128.031268
 30
0.0
 11
-204.690309
 21
-128.031268
 31
0.0
  0
LINE
  5
98
100
AcDbEntity
  8
2
100
AcDbLine
 10
-226.032337
 20
-140.353094
 30
0.0
 11
-220.464573
 21
-130.709443
 31
0.0
  0
LINE
  5
99
100
AcDbEntity
  8
2
100
AcDbLine
 10
-220.464573
 20
-155.353094
 30
0.0
 11
-226.032337
 21
-145.709443
 31
0.0
  0
LINE
  5
9A
100
AcDbEntity
  8
2
100
AcDbLine
 10
-207.393181
 20
-158.031268
 30
0.0
 11
-215.825838
 21
-158.031268
 31
0.0
  0
ARC
  5
9B
100
AcDbEntity
  8
2
100
AcDbCircle
 10
-210.258074
 20
-143.031268
 30
0.0
 40
16.0
100
AcDbArc
 50
110.364135
 51
129.635865
  0
ARC
  5
9C
100
AcDbEntity
  8
2
100
AcDbCircle
 10
-210.258074
 20
-143.031268
 30
0.0
 40
16.0
100
AcDbArc
 50
170.364135
 51
189.635865
  0
ARC
  5
9D
100
AcDbEntity
  8
2
100
AcDbCircle
 10
-210.258074
 20
-143.031268
 30
0.0
 40
16.0
100
AcDbArc
 50
230.364135
 51
249.635865
  0
ARC
  5
9E
100
AcDbEntity
  8
2
100
AcDbCircle
 10
-210.258074
 20
-143.031268
 30
0.0
 40
16.0
100
AcDbArc
 50
67.552449
 51
69.635865
  0
LINE
  5
9F
100
AcDbEntity
  8
2
100
AcDbLine
 10
-115.825838
 20
-128.031268
 30
0.0
 11
-104.690309
 21
-128.031268
 31
0.0
  0
POINT
  5
A0
100
AcDbEntity
  8
2
100
AcDbPoint
 10
-110.258074
 20
-143.031268
 30
0.0
  0
LINE
  5
A1
100
AcDbEntity
  8
2
100
AcDbLine
 10
-104.690309
 20
-158.031268
 30
0.0
 11
-113.122966
 21
-158.031268
 31
0.0
  0
LINE
  5
A2
100
AcDbEntity
  8
2
100
AcDbLine
 10
-94.48381
 20
-145.709443
 30
0.0
 11
-100.051575
 21
-155.353094
 31
0.0
  0
LINE
  5
A3
100
AcDbEntity
  8
2
100
AcDbLine
 10
-100.051575
 20
-130.709443
 30
0.0
 11
-94.48381
 21
-140.353094
 31
0.0
  0
ARC
  5
A4
100
AcDbEntity
  8
2
100
AcDbCircle
 10
-110.258074
 20
-143.031268
 30
0.0
 40
16.0
100
AcDbArc
 50
110.364135
 51
112.447551
  0
ARC
  5
A5
100
AcDbEntity
  8
2
100
AcDbCircle
 10
-110.258074
 20
-143.031268
 30
0.0
 40
16.0
100
AcDbArc
 50
290.364135
 51
309.635865
  0
ARC
  5
A6
100
AcDbEntity
  8
2
100
AcDbCircle
 10
-110.258074
 20
-143.031268
 30
0.0
 40
16.0
100
AcDbArc
 50
350.364135
 51
9.635865
  0
ARC
  5
A7
100
AcDbEntity
  8
2
100
AcDbCircle
 10
-110.258074
 20
-143.031268
 30
0.0
 40
16.0
100
AcDbArc
 50
50.364135
 51
69.635865
  0
LINE
  5
A8
100
AcDbEntity
  8
2
  6
CENTER
 62
     2
100
AcDbLine
 10
-187.758074
 20
123.391037
 30
0.0
 11
-132.758074
 21
123.391037
 31
0.0
  0
LINE
  5
A9
100
AcDbEntity
  8
2
  6
CENTER
 62
     2
100
AcDbLine
 10
-165.801358
 20
-82.531765
 30
0.0
 11
-154.932506
 21
-82.531765
 31
0.0
  0
LINE
  5
AA
100
AcDbEntity
  8
2
100
AcDbLine
 10
-161.705466
 20
-80.78999
 30
0.0
 11
-164.298202
 21
-82.271553
 31
0.0
  0
ARC
  5
AB
100
AcDbEntity
  8
2
100
AcDbCircle
 10
-161.556774
 20
-81.050202
 30
0.0
 40
0.2997
100
AcDbArc
 50
0.0
 51
119.744881
  0
LINE
  5
AC
100
AcDbEntity
  8
2
100
AcDbLine
 10
-161.257074
 20
-81.050202
 30
0.0
 11
-161.257074
 21
-84.013328
 31
0.0
  0
ARC
  5
AD
100
AcDbEntity
  8
2
100
AcDbCircle
 10
-161.556774
 20
-84.013328
 30
0.0
 40
0.2997
100
AcDbArc
 50
240.255119
 51
360.0
  0
LINE
  5
AE
100
AcDbEntity
  8
2
100
AcDbLine
 10
-161.705466
 20
-84.273541
 30
0.0
 11
-164.298202
 21
-82.791977
 31
0.0
  0
ARC
  5
AF
100
AcDbEntity
  8
2
100
AcDbCircle
 10
-164.149509
 20
-82.531765
 30
0.0
 40
0.2997
100
AcDbArc
 50
119.744881
 51
240.255119
  0
ARC
  5
B0
100
AcDbEntity
  8
2
100
AcDbCircle
 10
-158.959374
 20
-81.050202
 30
0.0
 40
0.2997
100
AcDbArc
 50
60.255119
 51
180.0
  0
LINE
  5
B1
100
AcDbEntity
  8
2
100
AcDbLine
 10
-159.259074
 20
-81.050202
 30
0.0
 11
-159.259074
 21
-84.013328
 31
0.0
  0
LINE
  5
B2
100
AcDbEntity
  8
2
100
AcDbLine
 10
-158.810681
 20
-80.78999
 30
0.0
 11
-156.217945
 21
-82.271553
 31
0.0
  0
ARC
  5
B3
100
AcDbEntity
  8
2
100
AcDbCircle
 10
-156.366638
 20
-82.531765
 30
0.0
 40
0.2997
100
AcDbArc
 50
299.744881
 51
60.255119
  0
LINE
  5
B4
100
AcDbEntity
  8
2
100
AcDbLine
 10
-158.810681
 20
-84.273541
 30
0.0
 11
-156.217945
 21
-82.791977
 31
0.0
  0
ARC
  5
B5
100
AcDbEntity
  8
2
100
AcDbCircle
 10
-158.959374
 20
-84.013328
 30
0.0
 40
0.2997
100
AcDbArc
 50
180.0
 51
299.744881
  0
LINE
  5
B6
100
AcDbEntity
  8
2
100
AcDbLine
 10
-96.353187
 20
142.303882
 30
0.0
 11
-97.550869
 21
128.614318
 31
0.0
  0
LINE
  5
B7
100
AcDbEntity
  8
2
100
AcDbLine
 10
-224.16296
 20
142.303882
 30
0.0
 11
-222.965278
 21
128.614318
 31
0.0
  0
POINT
  5
B8
100
AcDbEntity
  8
2
100
AcDbPoint
 10
-96.258074
 20
143.391037
 30
0.0
  0
ARC
  5
B9
100
AcDbEntity
  8
2
100
AcDbCircle
 10
-97.349382
 20
142.391037
 30
0.0
 40
1.0
100
AcDbArc
 50
355.0
 51
90.0
  0
LINE
  5
BA
100
AcDbEntity
  8
2
100
AcDbLine
 10
-176.569521
 20
103.287747
 30
0.0
 11
-220.17616
 21
124.556126
 31
0.0
  0
LINE
  5
BB
100
AcDbEntity
  8
2
100
AcDbLine
 10
-143.946626
 20
103.287747
 30
0.0
 11
-100.339987
 21
124.556126
 31
0.0
  0
LINE
  5
BC
100
AcDbEntity
  8
2
100
AcDbLine
 10
-187.59782
 20
138.391037
 30
0.0
 11
-184.069835
 21
138.391037
 31
0.0
  0
ARC
  5
BD
100
AcDbEntity
  8
2
100
AcDbCircle
 10
-184.069835
 20
160.391037
 30
0.0
 40
22.0
100
AcDbArc
 50
270.0
 51
302.763758
  0
ARC
  5
BE
100
AcDbEntity
  8
2
100
AcDbCircle
 10
-136.446312
 20
160.391037
 30
0.0
 40
22.0
100
AcDbArc
 50
237.236242
 51
270.0
  0
LINE
  5
BF
100
AcDbEntity
  8
2
100
AcDbLine
 10
-132.918328
 20
138.391037
 30
0.0
 11
-136.446312
 21
138.391037
 31
0.0
  0
POINT
  5
C0
100
AcDbEntity
  8
2
100
AcDbPoint
 10
-160.258074
 20
98.391037
 30
0.0
  0
ARC
  5
C1
100
AcDbEntity
  8
2
100
AcDbCircle
 10
-187.59782
 20
148.391037
 30
0.0
 40
10.0
100
AcDbArc
 50
213.055731
 51
270.0
  0
ARC
  5
C2
100
AcDbEntity
  8
2
100
AcDbCircle
 10
-132.918328
 20
148.391037
 30
0.0
 40
10.0
100
AcDbArc
 50
270.0
 51
326.944269
  0
ARC
  5
C3
100
AcDbEntity
  8
2
100
AcDbCircle
 10
-223.166765
 20
142.391037
 30
0.0
 40
1.0
100
AcDbArc
 50
90.0
 51
185.0
  0
POINT
  5
C4
100
AcDbEntity
  8
2
100
AcDbPoint
 10
-224.258074
 20
143.391037
 30
0.0
  0
ARC
  5
C5
100
AcDbEntity
  8
2
100
AcDbCircle
 10
-196.817364
 20
142.391037
 30
0.0
 40
1.0
100
AcDbArc
 50
33.055731
 51
90.0
  0
ARC
  5
C6
100
AcDbEntity
  8
2
100
AcDbCircle
 10
-123.698783
 20
142.391037
 30
0.0
 40
1.0
100
AcDbArc
 50
90.0
 51
146.944269
  0
POINT
  5
C7
100
AcDbEntity
  8
2
100
AcDbPoint
 10
-160.258074
 20
145.391037
 30
0.0
  0
ARC
  5
C8
100
AcDbEntity
  8
2
100
AcDbCircle
 10
-102.531843
 20
129.050096
 30
0.0
 40
5.0
100
AcDbArc
 50
296.0
 51
355.0
  0
ARC
  5
C9
100
AcDbEntity
  8
2
100
AcDbCircle
 10
-217.984305
 20
129.050096
 30
0.0
 40
5.0
100
AcDbArc
 50
185.0
 51
244.0
  0
LINE
  5
CA
100
AcDbEntity
  8
2
100
AcDbLine
 10
-100.008481
 20
144.091081
 30
0.0
 11
-100.008481
 21
143.391081
 31
0.0
  0
LINE
  5
CB
100
AcDbEntity
  8
2
100
AcDbLine
 10
-120.508481
 20
144.091081
 30
0.0
 11
-120.508481
 21
143.391081
 31
0.0
  0
LINE
  5
CC
100
AcDbEntity
  8
2
100
AcDbLine
 10
-147.258074
 20
-161.031636
 30
0.0
 11
-147.258074
 21
-163.031201
 31
0.0
  0
LINE
  5
CD
100
AcDbEntity
  8
2
100
AcDbLine
 10
-173.258074
 20
-161.031636
 30
0.0
 11
-173.258074
 21
-163.031201
 31
0.0
  0
LINE
  5
CE
100
AcDbEntity
  8
2
100
AcDbLine
 10
-147.858074
 20
-163.031201
 30
0.0
 11
-147.258074
 21
-162.431201
 31
0.0
  0
LINE
  5
CF
100
AcDbEntity
  8
2
100
AcDbLine
 10
-172.658074
 20
-163.031201
 30
0.0
 11
-173.258074
 21
-162.431201
 31
0.0
  0
POINT
  5
D0
100
AcDbEntity
  8
2
100
AcDbPoint
 10
-280.466226
 20
3.182885
 30
0.0
  0
POINT
  5
D1
100
AcDbEntity
  8
2
100
AcDbPoint
 10
-160.258074
 20
-163.031636
 30
0.0
  0
POINT
  5
D2
100
AcDbEntity
  8
2
100
AcDbPoint
 10
-148.039574
 20
102.227975
 30
0.0
  0
POINT
  5
D3
100
AcDbEntity
  8
2
100
AcDbPoint
 10
-110.258306
 20
36.7889
 30
0.0
  0
LINE
  5
D4
100
AcDbEntity
  8
2
  6
CENTER
 62
     2
100
AcDbLine
 10
-106.338594
 20
29.999759
 30
0.0
 11
-174.008074
 21
147.206736
 31
0.0
  0
POINT
  5
D5
100
AcDbEntity
  8
2
100
AcDbPoint
 10
-147.758074
 20
101.740402
 30
0.0
  0
POINT
  5
D6
100
AcDbEntity
  8
2
100
AcDbPoint
 10
-182.150005
 20
110.751725
 30
0.0
  0
LINE
  5
D7
100
AcDbEntity
  8
2
  6
DASHED
 62
     2
100
AcDbLine
 10
-234.702644
 20
68.907379
 30
0.0
 11
-181.709539
 21
93.61847
 31
0.0
  0
LINE
  5
D8
100
AcDbEntity
  8
2
  6
DASHED
 62
     2
100
AcDbLine
 10
-244.664591
 20
86.161978
 30
0.0
 11
-205.114016
 21
113.855588
 31
0.0
  0
ARC
  5
D9
100
AcDbEntity
  8
2
  6
DASHED
 62
     2
100
AcDbCircle
 10
-238.928826
 20
77.970457
 30
0.0
 40
10.0
100
AcDbArc
 50
125.0
 51
295.0
  0
POINT
  5
DA
100
AcDbEntity
  8
2
100
AcDbPoint
 10
-244.421634
 20
85.741165
 30
0.0
  0
POINT
  5
DB
100
AcDbEntity
  8
2
100
AcDbPoint
 10
-234.459687
 20
68.486567
 30
0.0
  0
POINT
  5
DC
100
AcDbEntity
  8
2
100
AcDbPoint
 10
-247.58908
 20
72.970457
 30
0.0
  0
LINE
  5
DD
100
AcDbEntity
  8
2
  6
CENTER
 62
     2
100
AcDbLine
 10
-254.378221
 20
69.050745
 30
0.0
 11
-137.171244
 21
136.720225
 31
0.0
  0
POINT
  5
DE
100
AcDbEntity
  8
2
100
AcDbPoint
 10
-182.637578
 20
110.470225
 30
0.0
  0
LINE
  5
DF
100
AcDbEntity
  8
2
  6
DASHED
 62
     2
100
AcDbLine
 10
-106.195228
 20
49.675337
 30
0.0
 11
-131.696977
 21
104.364013
 31
0.0
  0
LINE
  5
E0
100
AcDbEntity
  8
2
  6
DASHED
 62
     2
100
AcDbLine
 10
-123.449827
 20
39.71339
 30
0.0
 11
-142.899352
 21
67.490191
 31
0.0
  0
ARC
  5
E1
100
AcDbEntity
  8
2
  6
DASHED
 62
     2
100
AcDbCircle
 10
-115.258306
 20
45.449154
 30
0.0
 40
10.0
100
AcDbArc
 50
215.0
 51
25.0
  0
POINT
  5
E2
100
AcDbEntity
  8
2
100
AcDbPoint
 10
-123.449827
 20
39.71339
 30
0.0
  0
POINT
  5
E3
100
AcDbEntity
  8
2
100
AcDbPoint
 10
-106.195228
 20
49.675337
 30
0.0
  0
LINE
  5
E4
100
AcDbEntity
  8
2
100
AcDbLine
 10
-223.166822
 20
143.391421
 30
0.0
 11
-196.817364
 21
143.391421
 31
0.0
  0
LINE
  5
E5
100
AcDbEntity
  8
2
100
AcDbLine
 10
-223.166822
 20
143.391421
 30
0.0
 11
-196.817364
 21
143.391421
 31
0.0
  0
LINE
  5
E6
100
AcDbEntity
  8
2
100
AcDbLine
 10
-220.507667
 20
144.091081
 30
0.0
 11
-220.507667
 21
143.391081
 31
0.0
  0
LINE
  5
E7
100
AcDbEntity
  8
2
100
AcDbLine
 10
-200.007667
 20
144.091081
 30
0.0
 11
-200.007667
 21
143.391081
 31
0.0
  0
POINT
  5
E8
100
AcDbEntity
  8
2
100
AcDbPoint
 10
230.402954
 20
-16.531268
 30
0.0
  0
POINT
  5
E9
100
AcDbEntity
  8
2
100
AcDbPoint
 10
252.402954
 20
-3.531704
 30
0.0
  0
LINE
  5
EA
100
AcDbEntity
  8
2
100
AcDbLine
 10
250.57839
 20
43.968732
 30
0.0
 11
251.402954
 21
43.968732
 31
0.0
  0
LINE
  5
EB
100
AcDbEntity
  8
2
100
AcDbLine
 10
130.402954
 20
106.559543
 30
0.0
 11
130.402954
 21
110.330204
 31
0.0
  0
LINE
  5
EC
100
AcDbEntity
  8
2
100
AcDbLine
 10
131.49011
 20
105.563349
 30
0.0
 11
137.711981
 21
106.107692
 31
0.0
  0
ARC
  5
ED
100
AcDbEntity
  8
2
100
AcDbCircle
 10
193.90296
 20
72.245066
 30
0.0
 40
15.0
100
AcDbArc
 50
0.000001
 51
64.279919
  0
ARC
  5
EE
100
AcDbEntity
  8
2
100
AcDbCircle
 10
131.402954
 20
106.559543
 30
0.0
 40
1.0
100
AcDbArc
 50
180.0
 51
275.0
  0
ARC
  5
EF
100
AcDbEntity
  8
2
100
AcDbCircle
 10
138.14776
 20
101.126719
 30
0.0
 40
5.0
100
AcDbArc
 50
79.123693
 51
95.0
  0
LINE
  5
F0
100
AcDbEntity
  8
2
100
AcDbLine
 10
208.902954
 20
72.245066
 30
0.0
 11
208.902954
 21
49.468235
 31
0.0
  0
LINE
  5
F1
100
AcDbEntity
  8
2
100
AcDbLine
 10
208.902954
 20
49.468235
 30
0.0
 11
230.402954
 21
49.468235
 31
0.0
  0
LINE
  5
F2
100
AcDbEntity
  8
2
100
AcDbLine
 10
251.902954
 20
62.956446
 30
0.0
 11
251.902954
 21
57.293595
 31
0.0
  0
ARC
  5
F3
100
AcDbEntity
  8
2
100
AcDbCircle
 10
91.918864
 20
-139.472303
 30
0.0
 40
250.0
100
AcDbArc
 50
64.279919
 51
79.123693
  0
ARC
  5
F4
100
AcDbEntity
  8
2
100
AcDbCircle
 10
96.946679
 20
-150.991398
 30
0.0
 40
264.583411
100
AcDbArc
 50
54.261314
 51
82.488657
  0
ARC
  5
F5
100
AcDbEntity
  8
2
100
AcDbCircle
 10
250.902954
 20
62.956446
 30
0.0
 40
1.0
100
AcDbArc
 50
360.0
 51
54.261314
  0
ARC
  5
F6
100
AcDbEntity
  8
2
100
AcDbCircle
 10
131.402954
 20
110.330204
 30
0.0
 40
1.0
100
AcDbArc
 50
82.488657
 51
180.0
  0
LINE
  5
F7
100
AcDbEntity
  8
2
100
AcDbLine
 10
230.402954
 20
49.468235
 30
0.0
 11
251.902954
 21
57.293595
 31
0.0
  0
POINT
  5
F8
100
AcDbEntity
  8
2
100
AcDbPoint
 10
209.902954
 20
49.468235
 30
0.0
  0
LINE
  5
F9
100
AcDbEntity
  8
2
100
AcDbLine
 10
209.189255
 20
43.968732
 30
0.0
 11
214.027954
 21
43.968732
 31
0.0
  0
POINT
  5
FA
100
AcDbEntity
  8
2
100
AcDbPoint
 10
230.402954
 20
51.968418
 30
0.0
  0
POINT
  5
FB
100
AcDbEntity
  8
2
100
AcDbPoint
 10
208.902954
 20
49.468235
 30
0.0
  0
POINT
  5
FC
100
AcDbEntity
  8
2
100
AcDbPoint
 10
260.652954
 20
1.968732
 30
0.0
  0
POINT
  5
FD
100
AcDbEntity
  8
2
100
AcDbPoint
 10
254.402954
 20
1.968732
 30
0.0
  0
LINE
  5
FE
100
AcDbEntity
  8
2
100
AcDbLine
 10
253.602954
 20
12.468732
 30
0.0
 11
252.387123
 21
12.468732
 31
0.0
  0
LINE
  5
FF
100
AcDbEntity
  8
2
100
AcDbLine
 10
253.602954
 20
-8.531268
 30
0.0
 11
252.402954
 21
-8.531268
 31
0.0
  0
POINT
  5
100
100
AcDbEntity
  8
2
100
AcDbPoint
 10
230.402954
 20
-16.531268
 30
0.0
  0
LINE
  5
101
100
AcDbEntity
  8
2
100
AcDbLine
 10
230.402954
 20
-16.031704
 30
0.0
 11
251.402954
 21
-16.031704
 31
0.0
  0
LINE
  5
102
100
AcDbEntity
  8
2
100
AcDbLine
 10
230.402954
 20
43.968296
 30
0.0
 11
209.319285
 21
43.968296
 31
0.0
  0
LINE
  5
103
100
AcDbEntity
  8
2
100
AcDbLine
 10
242.802954
 20
-18.031268
 30
0.0
 11
243.402954
 21
-17.431268
 31
0.0
  0
LINE
  5
104
100
AcDbEntity
  8
2
100
AcDbLine
 10
218.002954
 20
-18.031268
 30
0.0
 11
217.402954
 21
-17.431268
 31
0.0
  0
POINT
  5
105
100
AcDbEntity
  8
2
100
AcDbPoint
 10
230.402954
 20
-16.531268
 30
0.0
  0
LINE
  5
106
100
AcDbEntity
  8
2
100
AcDbLine
 10
213.930704
 20
-16.031704
 30
0.0
 11
230.402954
 21
-16.031704
 31
0.0
  0
LINE
  5
107
100
AcDbEntity
  8
2
100
AcDbLine
 10
252.402954
 20
-15.031704
 30
0.0
 11
252.402954
 21
42.968296
 31
0.0
  0
POINT
  5
108
100
AcDbEntity
  8
2
100
AcDbPoint
 10
252.402954
 20
-3.531704
 30
0.0
  0
POINT
  5
109
100
AcDbEntity
  8
2
100
AcDbPoint
 10
230.402954
 20
43.968296
 30
0.0
  0
POINT
  5
10A
100
AcDbEntity
  8
2
100
AcDbPoint
 10
230.402954
 20
43.968296
 30
0.0
  0
ARC
  5
10B
100
AcDbEntity
  8
2
100
AcDbCircle
 10
251.402954
 20
42.968296
 30
0.0
 40
1.0
100
AcDbArc
 50
0.0
 51
90.0
  0
ARC
  5
10C
100
AcDbEntity
  8
2
100
AcDbCircle
 10
251.402954
 20
-15.031704
 30
0.0
 40
1.0
100
AcDbArc
 50
270.0
 51
360.0
  0
ARC
  5
10D
100
AcDbEntity
  8
2
100
AcDbCircle
 10
250.402954
 20
9.580793
 30
0.0
 40
45.0
100
AcDbArc
 50
179.874484
 51
214.012581
  0
LINE
  5
10E
100
AcDbEntity
  8
2
100
AcDbLine
 10
208.323091
 20
43.055452
 30
0.0
 11
205.403062
 21
9.679373
 31
0.0
  0
ARC
  5
10F
100
AcDbEntity
  8
2
100
AcDbCircle
 10
209.319285
 20
42.968296
 30
0.0
 40
1.0
100
AcDbArc
 50
90.0
 51
175.0
  0
ARC
  5
110
100
AcDbEntity
  8
2
100
AcDbCircle
 10
213.930704
 20
-15.031704
 30
0.0
 40
1.0
100
AcDbArc
 50
214.012581
 51
270.0
  0
POINT
  5
111
100
AcDbEntity
  8
2
100
AcDbPoint
 10
230.402954
 20
51.968418
 30
0.0
  0
POINT
  5
112
100
AcDbEntity
  8
2
100
AcDbPoint
 10
230.402954
 20
51.968418
 30
0.0
  0
LINE
  5
113
100
AcDbEntity
  8
2
100
AcDbLine
 10
268.802954
 20
18.468325
 30
0.0
 11
254.602954
 21
18.468325
 31
0.0
  0
LINE
  5
114
100
AcDbEntity
  8
2
100
AcDbLine
 10
268.802954
 20
-14.531675
 30
0.0
 11
254.602954
 21
-14.531675
 31
0.0
  0
LINE
  5
115
100
AcDbEntity
  8
2
100
AcDbLine
 10
269.802954
 20
-12.781675
 30
0.0
 11
269.802954
 21
16.719138
 31
0.0
  0
LINE
  5
116
100
AcDbEntity
  8
2
100
AcDbLine
 10
253.602954
 20
-12.781675
 30
0.0
 11
253.602954
 21
-10.819838
 31
0.0
  0
LINE
  5
117
100
AcDbEntity
  8
2
100
AcDbLine
 10
254.402954
 20
18.118325
 30
0.0
 11
254.602954
 21
18.468325
 31
0.0
  0
LINE
  5
118
100
AcDbEntity
  8
2
100
AcDbLine
 10
253.602954
 20
-12.781675
 30
0.0
 11
254.602954
 21
-14.531675
 31
0.0
  0
LINE
  5
119
100
AcDbEntity
  8
2
100
AcDbLine
 10
268.802954
 20
-14.531675
 30
0.0
 11
269.802954
 21
-12.781675
 31
0.0
  0
LINE
  5
11A
100
AcDbEntity
  8
2
100
AcDbLine
 10
254.602954
 20
9.363424
 30
0.0
 11
268.802954
 21
9.363424
 31
0.0
  0
LINE
  5
11B
100
AcDbEntity
  8
2
100
AcDbLine
 10
254.602954
 20
11.04465
 30
0.0
 11
268.802954
 21
11.04465
 31
0.0
  0
LINE
  5
11C
100
AcDbEntity
  8
2
100
AcDbLine
 10
254.602954
 20
-5.426775
 30
0.0
 11
268.802954
 21
-5.426775
 31
0.0
  0
LINE
  5
11D
100
AcDbEntity
  8
2
100
AcDbLine
 10
254.602954
 20
-7.108
 30
0.0
 11
268.802954
 21
-7.108
 31
0.0
  0
ARC
  5
11E
100
AcDbEntity
  8
2
100
AcDbCircle
 10
241.959204
 20
1.968325
 30
0.0
 40
27.84375
100
AcDbArc
 50
344.59782
 51
15.40218
  0
LINE
  5
11F
100
AcDbEntity
  8
2
100
AcDbLine
 10
268.802954
 20
-7.108
 30
0.0
 11
268.802954
 21
-5.426775
 31
0.0
  0
LINE
  5
120
100
AcDbEntity
  8
2
100
AcDbLine
 10
268.802954
 20
9.363424
 30
0.0
 11
268.802954
 21
11.04465
 31
0.0
  0
ARC
  5
121
100
AcDbEntity
  8
2
100
AcDbCircle
 10
262.414085
 20
-10.819838
 30
0.0
 40
7.388869
100
AcDbArc
 50
329.844052
 51
30.155948
  0
ARC
  5
122
100
AcDbEntity
  8
2
100
AcDbCircle
 10
262.414085
 20
14.756487
 30
0.0
 40
7.388869
100
AcDbArc
 50
329.844052
 51
30.155948
  0
ARC
  5
123
100
AcDbEntity
  8
2
100
AcDbCircle
 10
260.991823
 20
14.756487
 30
0.0
 40
7.388869
100
AcDbArc
 50
206.908673
 51
210.155948
  0
LINE
  5
124
100
AcDbEntity
  8
2
100
AcDbLine
 10
254.602954
 20
-7.108
 30
0.0
 11
254.602954
 21
-5.426775
 31
0.0
  0
LINE
  5
125
100
AcDbEntity
  8
2
100
AcDbLine
 10
254.602954
 20
9.363424
 30
0.0
 11
254.602954
 21
11.04465
 31
0.0
  0
ARC
  5
126
100
AcDbEntity
  8
2
100
AcDbCircle
 10
281.446704
 20
1.968325
 30
0.0
 40
27.84375
100
AcDbArc
 50
164.59782
 51
166.232214
  0
ARC
  5
127
100
AcDbEntity
  8
2
100
AcDbCircle
 10
281.446704
 20
1.968325
 30
0.0
 40
27.84375
100
AcDbArc
 50
193.767786
 51
195.40218
  0
ARC
  5
128
100
AcDbEntity
  8
2
100
AcDbCircle
 10
260.991823
 20
-10.819838
 30
0.0
 40
7.388869
100
AcDbArc
 50
149.844052
 51
157.786468
  0
ARC
  5
129
100
AcDbEntity
  8
2
100
AcDbCircle
 10
260.991823
 20
-10.819838
 30
0.0
 40
7.388869
100
AcDbArc
 50
186.52386
 51
210.155948
  0
ARC
  5
12A
100
AcDbEntity
  8
2
100
AcDbCircle
 10
260.991823
 20
14.756487
 30
0.0
 40
7.388869
100
AcDbArc
 50
149.844052
 51
210.155948
  0
ARC
  5
12B
100
AcDbEntity
  8
2
100
AcDbCircle
 10
281.446704
 20
1.968325
 30
0.0
 40
27.84375
100
AcDbArc
 50
164.59782
 51
195.40218
  0
ARC
  5
12C
100
AcDbEntity
  8
2
100
AcDbCircle
 10
260.991823
 20
-10.819838
 30
0.0
 40
7.388869
100
AcDbArc
 50
149.844052
 51
210.155948
  0
LINE
  5
12D
100
AcDbEntity
  8
2
100
AcDbLine
 10
254.602954
 20
-14.531675
 30
0.0
 11
253.602954
 21
-12.781675
 31
0.0
  0
LINE
  5
12E
100
AcDbEntity
  8
2
100
AcDbLine
 10
253.602954
 20
-10.819838
 30
0.0
 11
253.602954
 21
16.719138
 31
0.0
  0
LINE
  5
12F
100
AcDbEntity
  8
2
100
AcDbLine
 10
250.652954
 20
43.968732
 30
0.0
 11
246.777954
 21
43.968732
 31
0.0
  0
LINE
  5
130
100
AcDbEntity
  8
2
100
AcDbLine
 10
230.402954
 20
43.968732
 30
0.0
 11
246.777954
 21
43.968732
 31
0.0
  0
LINE
  5
131
100
AcDbEntity
  8
2
100
AcDbLine
 10
214.027954
 20
43.968732
 30
0.0
 11
214.402954
 21
43.968732
 31
0.0
  0
LINE
  5
132
100
AcDbEntity
  8
2
100
AcDbLine
 10
210.152954
 20
43.968732
 30
0.0
 11
214.027954
 21
43.968732
 31
0.0
  0
ARC
  5
133
100
AcDbEntity
  8
2
100
AcDbCircle
 10
210.152954
 20
44.968732
 30
0.0
 40
1.0
100
AcDbArc
 50
159.772974
 51
270.0
  0
POINT
  5
134
100
AcDbEntity
  8
2
100
AcDbPoint
 10
209.152954
 20
44.968732
 30
0.0
  0
POINT
  5
135
100
AcDbEntity
  8
2
100
AcDbPoint
 10
209.152954
 20
44.968732
 30
0.0
  0
LINE
  5
136
100
AcDbEntity
  8
2
100
AcDbLine
 10
246.777954
 20
43.968732
 30
0.0
 11
246.402954
 21
43.968732
 31
0.0
  0
LINE
  5
137
100
AcDbEntity
  8
2
100
AcDbLine
 10
250.652954
 20
43.968732
 30
0.0
 11
246.777954
 21
43.968732
 31
0.0
  0
ARC
  5
138
100
AcDbEntity
  8
2
100
AcDbCircle
 10
250.652954
 20
44.968732
 30
0.0
 40
1.0
100
AcDbArc
 50
270.0
 51
22.322634
  0
POINT
  5
139
100
AcDbEntity
  8
2
100
AcDbPoint
 10
251.652954
 20
44.968732
 30
0.0
  0
POINT
  5
13A
100
AcDbEntity
  8
2
100
AcDbPoint
 10
251.652954
 20
44.968732
 30
0.0
  0
ARC
  5
13B
100
AcDbEntity
  8
2
100
AcDbCircle
 10
159.072039
 20
7.36639
 30
0.0
 40
100.0
100
AcDbArc
 50
22.322634
 51
28.723244
  0
ARC
  5
13C
100
AcDbEntity
  8
2
100
AcDbCircle
 10
301.733869
 20
7.36639
 30
0.0
 40
100.0
100
AcDbArc
 50
155.101097
 51
157.677366
  0
LINE
  5
13D
100
AcDbEntity
  8
2
100
AcDbLine
 10
130.402954
 20
106.559543
 30
0.0
 11
130.402954
 21
110.330204
 31
0.0
  0
LINE
  5
13E
100
AcDbEntity
  8
2
100
AcDbLine
 10
131.49011
 20
105.563349
 30
0.0
 11
137.711981
 21
106.107692
 31
0.0
  0
ARC
  5
13F
100
AcDbEntity
  8
2
100
AcDbCircle
 10
131.402954
 20
106.559543
 30
0.0
 40
1.0
100
AcDbArc
 50
180.0
 51
275.0
  0
ARC
  5
140
100
AcDbEntity
  8
2
100
AcDbCircle
 10
138.14776
 20
101.126719
 30
0.0
 40
5.0
100
AcDbArc
 50
79.123693
 51
95.0
  0
POINT
  5
141
100
AcDbEntity
  8
2
100
AcDbPoint
 10
230.402954
 20
49.468235
 30
0.0
  0
POINT
  5
142
100
AcDbEntity
  8
2
100
AcDbPoint
 10
230.402954
 20
49.468235
 30
0.0
  0
ARC
  5
143
100
AcDbEntity
  8
2
100
AcDbCircle
 10
91.918864
 20
-139.472303
 30
0.0
 40
250.0
100
AcDbArc
 50
64.279919
 51
79.123693
  0
POINT
  5
144
100
AcDbEntity
  8
2
100
AcDbPoint
 10
208.902954
 20
81.468238
 30
0.0
  0
POINT
  5
145
100
AcDbEntity
  8
2
100
AcDbPoint
 10
230.402954
 20
77.468235
 30
0.0
  0
ARC
  5
146
100
AcDbEntity
  8
2
100
AcDbCircle
 10
131.402954
 20
110.330204
 30
0.0
 40
1.0
100
AcDbArc
 50
82.488657
 51
180.0
  0
POINT
  5
147
100
AcDbEntity
  8
2
100
AcDbPoint
 10
146.604016
 20
104.473458
 30
0.0
  0
POINT
  5
148
100
AcDbEntity
  8
2
100
AcDbPoint
 10
189.691047
 20
90.615941
 30
0.0
  0
POINT
  5
149
100
AcDbEntity
  8
2
100
AcDbPoint
 10
147.431574
 20
108.73087
 30
0.0
  0
POINT
  5
14A
100
AcDbEntity
  8
2
100
AcDbPoint
 10
191.764893
 20
96.018496
 30
0.0
  0
POINT
  5
14B
100
AcDbEntity
  8
2
100
AcDbPoint
 10
138.402954
 20
106.168144
 30
0.0
  0
POINT
  5
14C
100
AcDbEntity
  8
2
100
AcDbPoint
 10
130.402954
 20
111.468235
 30
0.0
  0
POINT
  5
14D
100
AcDbEntity
  8
2
100
AcDbPoint
 10
212.163063
 20
103.68524
 30
0.0
  0
POINT
  5
14E
100
AcDbEntity
  8
2
100
AcDbPoint
 10
216.325824
 20
107.705172
 30
0.0
  0
POINT
  5
14F
100
AcDbEntity
  8
2
100
AcDbPoint
 10
130.402954
 20
105.468235
 30
0.0
  0
LINE
  5
150
100
AcDbEntity
  8
2
100
AcDbLine
 10
243.402954
 20
-16.032336
 30
0.0
 11
243.402954
 21
-18.032234
 31
0.0
  0
LINE
  5
151
100
AcDbEntity
  8
2
100
AcDbLine
 10
217.402954
 20
-16.032336
 30
0.0
 11
217.402954
 21
-18.032234
 31
0.0
  0
LINE
  5
152
100
AcDbEntity
  8
2
100
AcDbLine
 10
242.802954
 20
-18.0319
 30
0.0
 11
243.402954
 21
-17.4319
 31
0.0
  0
LINE
  5
153
100
AcDbEntity
  8
2
100
AcDbLine
 10
218.002954
 20
-18.0319
 30
0.0
 11
217.402954
 21
-17.4319
 31
0.0
  0
LINE
  5
154
100
AcDbEntity
  8
2
100
AcDbLine
 10
268.802954
 20
18.469138
 30
0.0
 11
269.802954
 21
16.719138
 31
0.0
  0
LINE
  5
155
100
AcDbEntity
  8
2
100
AcDbLine
 10
253.602954
 20
16.719138
 30
0.0
 11
254.602954
 21
18.469138
 31
0.0
  0
POINT
  5
156
100
AcDbEntity
  8
2
100
AcDbPoint
 10
-110.257721
 20
144.091081
 30
0.0
  0
LINE
  5
157
100
AcDbEntity
  8
2
100
AcDbLine
 10
-126.758481
 20
159.291081
 30
0.0
 11
-126.758481
 21
145.091081
 31
0.0
  0
LINE
  5
158
100
AcDbEntity
  8
2
100
AcDbLine
 10
-93.758481
 20
159.291081
 30
0.0
 11
-93.758481
 21
145.091081
 31
0.0
  0
LINE
  5
159
100
AcDbEntity
  8
2
100
AcDbLine
 10
-95.508481
 20
160.291081
 30
0.0
 11
-123.046643
 21
160.291081
 31
0.0
  0
LINE
  5
15A
100
AcDbEntity
  8
2
100
AcDbLine
 10
-126.408481
 20
144.891081
 30
0.0
 11
-126.758481
 21
145.091081
 31
0.0
  0
LINE
  5
15B
100
AcDbEntity
  8
2
100
AcDbLine
 10
-95.508481
 20
144.091081
 30
0.0
 11
-93.758481
 21
145.091081
 31
0.0
  0
LINE
  5
15C
100
AcDbEntity
  8
2
100
AcDbLine
 10
-93.758481
 20
159.291081
 30
0.0
 11
-95.508481
 21
160.291081
 31
0.0
  0
LINE
  5
15D
100
AcDbEntity
  8
2
100
AcDbLine
 10
-117.65358
 20
145.091081
 30
0.0
 11
-117.65358
 21
159.291081
 31
0.0
  0
LINE
  5
15E
100
AcDbEntity
  8
2
100
AcDbLine
 10
-119.334805
 20
145.091081
 30
0.0
 11
-119.334805
 21
159.291081
 31
0.0
  0
LINE
  5
15F
100
AcDbEntity
  8
2
100
AcDbLine
 10
-102.863381
 20
145.091081
 30
0.0
 11
-102.863381
 21
159.291081
 31
0.0
  0
LINE
  5
160
100
AcDbEntity
  8
2
100
AcDbLine
 10
-101.182156
 20
145.091081
 30
0.0
 11
-101.182156
 21
159.291081
 31
0.0
  0
ARC
  5
161
100
AcDbEntity
  8
2
100
AcDbCircle
 10
-110.258481
 20
132.447331
 30
0.0
 40
27.84375
100
AcDbArc
 50
74.59782
 51
105.40218
  0
LINE
  5
162
100
AcDbEntity
  8
2
100
AcDbLine
 10
-101.182156
 20
159.291081
 30
0.0
 11
-102.863381
 21
159.291081
 31
0.0
  0
LINE
  5
163
100
AcDbEntity
  8
2
100
AcDbLine
 10
-117.65358
 20
159.291081
 30
0.0
 11
-119.334805
 21
159.291081
 31
0.0
  0
ARC
  5
164
100
AcDbEntity
  8
2
100
AcDbCircle
 10
-97.470318
 20
152.902212
 30
0.0
 40
7.388869
100
AcDbArc
 50
59.844052
 51
120.155948
  0
ARC
  5
165
100
AcDbEntity
  8
2
100
AcDbCircle
 10
-123.046643
 20
152.902212
 30
0.0
 40
7.388869
100
AcDbArc
 50
59.844052
 51
120.155948
  0
ARC
  5
166
100
AcDbEntity
  8
2
100
AcDbCircle
 10
-123.046643
 20
151.479951
 30
0.0
 40
7.388869
100
AcDbArc
 50
296.908673
 51
300.155948
  0
LINE
  5
167
100
AcDbEntity
  8
2
100
AcDbLine
 10
-101.182156
 20
145.091081
 30
0.0
 11
-102.863381
 21
145.091081
 31
0.0
  0
LINE
  5
168
100
AcDbEntity
  8
2
100
AcDbLine
 10
-117.65358
 20
145.091081
 30
0.0
 11
-119.334805
 21
145.091081
 31
0.0
  0
ARC
  5
169
100
AcDbEntity
  8
2
100
AcDbCircle
 10
-110.258481
 20
171.934831
 30
0.0
 40
27.84375
100
AcDbArc
 50
254.59782
 51
256.232214
  0
ARC
  5
16A
100
AcDbEntity
  8
2
100
AcDbCircle
 10
-110.258481
 20
171.934831
 30
0.0
 40
27.84375
100
AcDbArc
 50
283.767786
 51
285.40218
  0
ARC
  5
16B
100
AcDbEntity
  8
2
100
AcDbCircle
 10
-97.470318
 20
151.479951
 30
0.0
 40
7.388869
100
AcDbArc
 50
239.844052
 51
247.786468
  0
ARC
  5
16C
100
AcDbEntity
  8
2
100
AcDbCircle
 10
-97.470318
 20
151.479951
 30
0.0
 40
7.388869
100
AcDbArc
 50
276.52386
 51
300.155948
  0
ARC
  5
16D
100
AcDbEntity
  8
2
100
AcDbCircle
 10
-123.046643
 20
151.479951
 30
0.0
 40
7.388869
100
AcDbArc
 50
239.844052
 51
300.155948
  0
ARC
  5
16E
100
AcDbEntity
  8
2
100
AcDbCircle
 10
-110.258481
 20
171.934831
 30
0.0
 40
27.84375
100
AcDbArc
 50
254.59782
 51
285.40218
  0
ARC
  5
16F
100
AcDbEntity
  8
2
100
AcDbCircle
 10
-97.470318
 20
151.479951
 30
0.0
 40
7.388869
100
AcDbArc
 50
239.844052
 51
300.155948
  0
LINE
  5
170
100
AcDbEntity
  8
2
100
AcDbLine
 10
-93.758481
 20
145.091081
 30
0.0
 11
-95.508481
 21
144.091081
 31
0.0
  0
LINE
  5
171
100
AcDbEntity
  8
2
100
AcDbLine
 10
-95.508481
 20
144.091081
 30
0.0
 11
-125.006962
 21
144.091081
 31
0.0
  0
LINE
  5
172
100
AcDbEntity
  8
2
100
AcDbLine
 10
-126.758481
 20
159.291081
 30
0.0
 11
-126.758481
 21
145.091081
 31
0.0
  0
LINE
  5
173
100
AcDbEntity
  8
2
100
AcDbLine
 10
-93.758481
 20
159.291081
 30
0.0
 11
-93.758481
 21
145.091081
 31
0.0
  0
LINE
  5
174
100
AcDbEntity
  8
2
100
AcDbLine
 10
-95.508481
 20
160.291081
 30
0.0
 11
-125.006962
 21
160.291081
 31
0.0
  0
LINE
  5
175
100
AcDbEntity
  8
2
100
AcDbLine
 10
-126.408481
 20
144.891081
 30
0.0
 11
-126.758481
 21
145.091081
 31
0.0
  0
LINE
  5
176
100
AcDbEntity
  8
2
100
AcDbLine
 10
-95.508481
 20
144.091081
 30
0.0
 11
-93.758481
 21
145.091081
 31
0.0
  0
LINE
  5
177
100
AcDbEntity
  8
2
100
AcDbLine
 10
-93.758481
 20
159.291081
 30
0.0
 11
-95.508481
 21
160.291081
 31
0.0
  0
LINE
  5
178
100
AcDbEntity
  8
2
100
AcDbLine
 10
-117.65358
 20
145.091081
 30
0.0
 11
-117.65358
 21
159.291081
 31
0.0
  0
LINE
  5
179
100
AcDbEntity
  8
2
100
AcDbLine
 10
-119.334805
 20
145.091081
 30
0.0
 11
-119.334805
 21
159.291081
 31
0.0
  0
LINE
  5
17A
100
AcDbEntity
  8
2
100
AcDbLine
 10
-102.863381
 20
145.091081
 30
0.0
 11
-102.863381
 21
159.291081
 31
0.0
  0
LINE
  5
17B
100
AcDbEntity
  8
2
100
AcDbLine
 10
-101.182156
 20
145.091081
 30
0.0
 11
-101.182156
 21
159.291081
 31
0.0
  0
ARC
  5
17C
100
AcDbEntity
  8
2
100
AcDbCircle
 10
-110.258481
 20
132.447331
 30
0.0
 40
27.84375
100
AcDbArc
 50
74.59782
 51
105.40218
  0
LINE
  5
17D
100
AcDbEntity
  8
2
100
AcDbLine
 10
-101.182156
 20
159.291081
 30
0.0
 11
-102.863381
 21
159.291081
 31
0.0
  0
LINE
  5
17E
100
AcDbEntity
  8
2
100
AcDbLine
 10
-117.65358
 20
159.291081
 30
0.0
 11
-119.334805
 21
159.291081
 31
0.0
  0
ARC
  5
17F
100
AcDbEntity
  8
2
100
AcDbCircle
 10
-97.470318
 20
152.902212
 30
0.0
 40
7.388869
100
AcDbArc
 50
59.844052
 51
120.155948
  0
ARC
  5
180
100
AcDbEntity
  8
2
100
AcDbCircle
 10
-123.046643
 20
152.902212
 30
0.0
 40
7.388869
100
AcDbArc
 50
59.844052
 51
120.155948
  0
ARC
  5
181
100
AcDbEntity
  8
2
100
AcDbCircle
 10
-123.046643
 20
151.479951
 30
0.0
 40
7.388869
100
AcDbArc
 50
296.908673
 51
300.155948
  0
LINE
  5
182
100
AcDbEntity
  8
2
100
AcDbLine
 10
-101.182156
 20
145.091081
 30
0.0
 11
-102.863381
 21
145.091081
 31
0.0
  0
LINE
  5
183
100
AcDbEntity
  8
2
100
AcDbLine
 10
-117.65358
 20
145.091081
 30
0.0
 11
-119.334805
 21
145.091081
 31
0.0
  0
ARC
  5
184
100
AcDbEntity
  8
2
100
AcDbCircle
 10
-110.258481
 20
171.934831
 30
0.0
 40
27.84375
100
AcDbArc
 50
254.59782
 51
256.232214
  0
ARC
  5
185
100
AcDbEntity
  8
2
100
AcDbCircle
 10
-110.258481
 20
171.934831
 30
0.0
 40
27.84375
100
AcDbArc
 50
283.767786
 51
285.40218
  0
ARC
  5
186
100
AcDbEntity
  8
2
100
AcDbCircle
 10
-97.470318
 20
151.479951
 30
0.0
 40
7.388869
100
AcDbArc
 50
239.844052
 51
247.786468
  0
ARC
  5
187
100
AcDbEntity
  8
2
100
AcDbCircle
 10
-97.470318
 20
151.479951
 30
0.0
 40
7.388869
100
AcDbArc
 50
276.52386
 51
300.155948
  0
ARC
  5
188
100
AcDbEntity
  8
2
100
AcDbCircle
 10
-123.046643
 20
151.479951
 30
0.0
 40
7.388869
100
AcDbArc
 50
239.844052
 51
300.155948
  0
ARC
  5
189
100
AcDbEntity
  8
2
100
AcDbCircle
 10
-110.258481
 20
171.934831
 30
0.0
 40
27.84375
100
AcDbArc
 50
254.59782
 51
285.40218
  0
ARC
  5
18A
100
AcDbEntity
  8
2
100
AcDbCircle
 10
-97.470318
 20
151.479951
 30
0.0
 40
7.388869
100
AcDbArc
 50
239.844052
 51
300.155948
  0
LINE
  5
18B
100
AcDbEntity
  8
2
100
AcDbLine
 10
-93.758481
 20
145.091081
 30
0.0
 11
-95.508481
 21
144.091081
 31
0.0
  0
LINE
  5
18C
100
AcDbEntity
  8
2
100
AcDbLine
 10
-126.756962
 20
159.291081
 30
0.0
 11
-125.006962
 21
160.291081
 31
0.0
  0
LINE
  5
18D
100
AcDbEntity
  8
2
100
AcDbLine
 10
-126.756962
 20
145.091081
 30
0.0
 11
-125.006962
 21
144.091081
 31
0.0
  0
LINE
  5
18E
100
AcDbEntity
  8
2
100
AcDbLine
 10
-193.757667
 20
159.291081
 30
0.0
 11
-193.757667
 21
145.091081
 31
0.0
  0
LINE
  5
18F
100
AcDbEntity
  8
2
100
AcDbLine
 10
-226.757667
 20
159.291081
 30
0.0
 11
-226.757667
 21
145.091081
 31
0.0
  0
LINE
  5
190
100
AcDbEntity
  8
2
100
AcDbLine
 10
-225.007667
 20
160.291081
 30
0.0
 11
-197.469504
 21
160.291081
 31
0.0
  0
LINE
  5
191
100
AcDbEntity
  8
2
100
AcDbLine
 10
-225.007667
 20
144.091081
 30
0.0
 11
-226.757667
 21
145.091081
 31
0.0
  0
LINE
  5
192
100
AcDbEntity
  8
2
100
AcDbLine
 10
-226.757667
 20
159.291081
 30
0.0
 11
-225.007667
 21
160.291081
 31
0.0
  0
LINE
  5
193
100
AcDbEntity
  8
2
100
AcDbLine
 10
-202.862567
 20
145.091081
 30
0.0
 11
-202.862567
 21
159.291081
 31
0.0
  0
LINE
  5
194
100
AcDbEntity
  8
2
100
AcDbLine
 10
-201.181342
 20
145.091081
 30
0.0
 11
-201.181342
 21
159.291081
 31
0.0
  0
LINE
  5
195
100
AcDbEntity
  8
2
100
AcDbLine
 10
-217.652766
 20
145.091081
 30
0.0
 11
-217.652766
 21
159.291081
 31
0.0
  0
LINE
  5
196
100
AcDbEntity
  8
2
100
AcDbLine
 10
-219.333992
 20
145.091081
 30
0.0
 11
-219.333992
 21
159.291081
 31
0.0
  0
ARC
  5
197
100
AcDbEntity
  8
2
100
AcDbCircle
 10
-210.257667
 20
132.447331
 30
0.0
 40
27.84375
100
AcDbArc
 50
74.59782
 51
105.40218
  0
LINE
  5
198
100
AcDbEntity
  8
2
100
AcDbLine
 10
-219.333992
 20
159.291081
 30
0.0
 11
-217.652766
 21
159.291081
 31
0.0
  0
LINE
  5
199
100
AcDbEntity
  8
2
100
AcDbLine
 10
-202.862567
 20
159.291081
 30
0.0
 11
-201.181342
 21
159.291081
 31
0.0
  0
ARC
  5
19A
100
AcDbEntity
  8
2
100
AcDbCircle
 10
-223.045829
 20
152.902212
 30
0.0
 40
7.388869
100
AcDbArc
 50
59.844052
 51
120.155948
  0
ARC
  5
19B
100
AcDbEntity
  8
2
100
AcDbCircle
 10
-197.469504
 20
152.902212
 30
0.0
 40
7.388869
100
AcDbArc
 50
59.844052
 51
120.155948
  0
ARC
  5
19C
100
AcDbEntity
  8
2
100
AcDbCircle
 10
-197.469504
 20
151.479951
 30
0.0
 40
7.388869
100
AcDbArc
 50
239.844052
 51
243.091327
  0
LINE
  5
19D
100
AcDbEntity
  8
2
100
AcDbLine
 10
-219.333992
 20
145.091081
 30
0.0
 11
-217.652766
 21
145.091081
 31
0.0
  0
LINE
  5
19E
100
AcDbEntity
  8
2
100
AcDbLine
 10
-202.862567
 20
145.091081
 30
0.0
 11
-201.181342
 21
145.091081
 31
0.0
  0
ARC
  5
19F
100
AcDbEntity
  8
2
100
AcDbCircle
 10
-210.257667
 20
171.934831
 30
0.0
 40
27.84375
100
AcDbArc
 50
254.59782
 51
256.232214
  0
ARC
  5
1A0
100
AcDbEntity
  8
2
100
AcDbCircle
 10
-223.045829
 20
151.479951
 30
0.0
 40
7.388869
100
AcDbArc
 50
292.213532
 51
300.155948
  0
ARC
  5
1A1
100
AcDbEntity
  8
2
100
AcDbCircle
 10
-223.045829
 20
151.479951
 30
0.0
 40
7.388869
100
AcDbArc
 50
239.844052
 51
263.47614
  0
ARC
  5
1A2
100
AcDbEntity
  8
2
100
AcDbCircle
 10
-197.469504
 20
151.479951
 30
0.0
 40
7.388869
100
AcDbArc
 50
239.844052
 51
300.155948
  0
ARC
  5
1A3
100
AcDbEntity
  8
2
100
AcDbCircle
 10
-210.257667
 20
171.934831
 30
0.0
 40
27.84375
100
AcDbArc
 50
254.59782
 51
285.40218
  0
ARC
  5
1A4
100
AcDbEntity
  8
2
100
AcDbCircle
 10
-223.045829
 20
151.479951
 30
0.0
 40
7.388869
100
AcDbArc
 50
239.844052
 51
300.155948
  0
LINE
  5
1A5
100
AcDbEntity
  8
2
100
AcDbLine
 10
-226.757667
 20
145.091081
 30
0.0
 11
-225.007667
 21
144.091081
 31
0.0
  0
LINE
  5
1A6
100
AcDbEntity
  8
2
100
AcDbLine
 10
-225.007667
 20
144.091081
 30
0.0
 11
-195.509185
 21
144.091081
 31
0.0
  0
LINE
  5
1A7
100
AcDbEntity
  8
2
100
AcDbLine
 10
-193.757667
 20
159.291081
 30
0.0
 11
-193.757667
 21
145.091081
 31
0.0
  0
LINE
  5
1A8
100
AcDbEntity
  8
2
100
AcDbLine
 10
-226.757667
 20
159.291081
 30
0.0
 11
-226.757667
 21
145.091081
 31
0.0
  0
LINE
  5
1A9
100
AcDbEntity
  8
2
100
AcDbLine
 10
-225.007667
 20
160.291081
 30
0.0
 11
-195.509185
 21
160.291081
 31
0.0
  0
LINE
  5
1AA
100
AcDbEntity
  8
2
100
AcDbLine
 10
-225.007667
 20
144.091081
 30
0.0
 11
-226.757667
 21
145.091081
 31
0.0
  0
LINE
  5
1AB
100
AcDbEntity
  8
2
100
AcDbLine
 10
-226.757667
 20
159.291081
 30
0.0
 11
-225.007667
 21
160.291081
 31
0.0
  0
LINE
  5
1AC
100
AcDbEntity
  8
2
100
AcDbLine
 10
-202.862567
 20
145.091081
 30
0.0
 11
-202.862567
 21
159.291081
 31
0.0
  0
LINE
  5
1AD
100
AcDbEntity
  8
2
100
AcDbLine
 10
-201.181342
 20
145.091081
 30
0.0
 11
-201.181342
 21
159.291081
 31
0.0
  0
LINE
  5
1AE
100
AcDbEntity
  8
2
100
AcDbLine
 10
-217.652766
 20
145.091081
 30
0.0
 11
-217.652766
 21
159.291081
 31
0.0
  0
LINE
  5
1AF
100
AcDbEntity
  8
2
100
AcDbLine
 10
-219.333992
 20
145.091081
 30
0.0
 11
-219.333992
 21
159.291081
 31
0.0
  0
ARC
  5
1B0
100
AcDbEntity
  8
2
100
AcDbCircle
 10
-210.257667
 20
132.447331
 30
0.0
 40
27.84375
100
AcDbArc
 50
74.59782
 51
105.40218
  0
LINE
  5
1B1
100
AcDbEntity
  8
2
100
AcDbLine
 10
-219.333992
 20
159.291081
 30
0.0
 11
-217.652766
 21
159.291081
 31
0.0
  0
LINE
  5
1B2
100
AcDbEntity
  8
2
100
AcDbLine
 10
-202.862567
 20
159.291081
 30
0.0
 11
-201.181342
 21
159.291081
 31
0.0
  0
ARC
  5
1B3
100
AcDbEntity
  8
2
100
AcDbCircle
 10
-223.045829
 20
152.902212
 30
0.0
 40
7.388869
100
AcDbArc
 50
59.844052
 51
120.155948
  0
ARC
  5
1B4
100
AcDbEntity
  8
2
100
AcDbCircle
 10
-197.469504
 20
152.902212
 30
0.0
 40
7.388869
100
AcDbArc
 50
59.844052
 51
120.155948
  0
ARC
  5
1B5
100
AcDbEntity
  8
2
100
AcDbCircle
 10
-197.469504
 20
151.479951
 30
0.0
 40
7.388869
100
AcDbArc
 50
239.844052
 51
243.091327
  0
LINE
  5
1B6
100
AcDbEntity
  8
2
100
AcDbLine
 10
-219.333992
 20
145.091081
 30
0.0
 11
-217.652766
 21
145.091081
 31
0.0
  0
LINE
  5
1B7
100
AcDbEntity
  8
2
100
AcDbLine
 10
-202.862567
 20
145.091081
 30
0.0
 11
-201.181342
 21
145.091081
 31
0.0
  0
ARC
  5
1B8
100
AcDbEntity
  8
2
100
AcDbCircle
 10
-210.257667
 20
171.934831
 30
0.0
 40
27.84375
100
AcDbArc
 50
254.59782
 51
256.232214
  0
ARC
  5
1B9
100
AcDbEntity
  8
2
100
AcDbCircle
 10
-223.045829
 20
151.479951
 30
0.0
 40
7.388869
100
AcDbArc
 50
292.213532
 51
300.155948
  0
ARC
  5
1BA
100
AcDbEntity
  8
2
100
AcDbCircle
 10
-223.045829
 20
151.479951
 30
0.0
 40
7.388869
100
AcDbArc
 50
239.844052
 51
263.47614
  0
ARC
  5
1BB
100
AcDbEntity
  8
2
100
AcDbCircle
 10
-210.257667
 20
171.934831
 30
0.0
 40
27.84375
100
AcDbArc
 50
254.59782
 51
285.40218
  0
ARC
  5
1BC
100
AcDbEntity
  8
2
100
AcDbCircle
 10
-223.045829
 20
151.479951
 30
0.0
 40
7.388869
100
AcDbArc
 50
239.844052
 51
300.155948
  0
LINE
  5
1BD
100
AcDbEntity
  8
2
100
AcDbLine
 10
-226.757667
 20
145.091081
 30
0.0
 11
-225.007667
 21
144.091081
 31
0.0
  0
LINE
  5
1BE
100
AcDbEntity
  8
2
100
AcDbLine
 10
-193.759185
 20
159.291081
 30
0.0
 11
-195.509185
 21
160.291081
 31
0.0
  0
LINE
  5
1BF
100
AcDbEntity
  8
2
100
AcDbLine
 10
-193.759185
 20
145.091081
 30
0.0
 11
-195.509185
 21
144.091081
 31
0.0
  0
ARC
  5
1C0
100
AcDbEntity
  8
2
100
AcDbCircle
 10
220.127954
 20
-23.0319
 30
0.0
 40
5.0
100
AcDbArc
 50
221.840901
 51
270.0
  0
ARC
  5
1C1
100
AcDbEntity
  8
2
100
AcDbCircle
 10
237.472668
 20
-23.0319
 30
0.0
 40
8.205286
100
AcDbArc
 50
32.369572
 51
37.543478
  0
ARC
  5
1C2
100
AcDbEntity
  8
2
100
AcDbCircle
 10
240.677954
 20
-23.0319
 30
0.0
 40
5.0
100
AcDbArc
 50
270.0
 51
318.159099
  0
ARC
  5
1C3
100
AcDbEntity
  8
2
100
AcDbCircle
 10
223.33324
 20
-23.0319
 30
0.0
 40
8.205286
100
AcDbArc
 50
142.456522
 51
147.630428
  0
LINE
  5
1C4
100
AcDbEntity
  8
2
100
AcDbLine
 10
244.402954
 20
-26.367222
 30
0.0
 11
244.402954
 21
-18.638968
 31
0.0
  0
LINE
  5
1C5
100
AcDbEntity
  8
2
100
AcDbLine
 10
216.402954
 20
-26.367222
 30
0.0
 11
216.402954
 21
-18.638968
 31
0.0
  0
LINE
  5
1C6
100
AcDbEntity
  8
2
100
AcDbLine
 10
216.827341
 20
-18.0319
 30
0.0
 11
217.402954
 21
-18.0319
 31
0.0
  0
LINE
  5
1C7
100
AcDbEntity
  8
2
100
AcDbLine
 10
243.978567
 20
-18.0319
 30
0.0
 11
216.827341
 21
-18.0319
 31
0.0
  0
LINE
  5
1C8
100
AcDbEntity
  8
2
100
AcDbLine
 10
238.302954
 20
-28.0319
 30
0.0
 11
220.127954
 21
-28.0319
 31
0.0
  0
LINE
  5
1C9
100
AcDbEntity
  8
2
100
AcDbLine
 10
238.302954
 20
-28.0319
 30
0.0
 11
240.677954
 21
-28.0319
 31
0.0
  0
ARC
  5
1CA
100
AcDbEntity
  8
2
100
AcDbCircle
 10
220.127954
 20
-23.0319
 30
0.0
 40
5.0
100
AcDbArc
 50
221.840901
 51
270.0
  0
ARC
  5
1CB
100
AcDbEntity
  8
2
100
AcDbCircle
 10
237.472668
 20
-23.0319
 30
0.0
 40
8.205286
100
AcDbArc
 50
32.369572
 51
37.543478
  0
ARC
  5
1CC
100
AcDbEntity
  8
2
100
AcDbCircle
 10
240.677954
 20
-23.0319
 30
0.0
 40
5.0
100
AcDbArc
 50
270.0
 51
318.159099
  0
ARC
  5
1CD
100
AcDbEntity
  8
2
100
AcDbCircle
 10
223.33324
 20
-23.0319
 30
0.0
 40
8.205286
100
AcDbArc
 50
142.456522
 51
147.630428
  0
LINE
  5
1CE
100
AcDbEntity
  8
2
100
AcDbLine
 10
244.402954
 20
-26.367222
 30
0.0
 11
244.402954
 21
-18.638968
 31
0.0
  0
LINE
  5
1CF
100
AcDbEntity
  8
2
100
AcDbLine
 10
216.402954
 20
-26.367222
 30
0.0
 11
216.402954
 21
-18.638968
 31
0.0
  0
LINE
  5
1D0
100
AcDbEntity
  8
2
100
AcDbLine
 10
216.827341
 20
-18.0319
 30
0.0
 11
243.978567
 21
-18.0319
 31
0.0
  0
LINE
  5
1D1
100
AcDbEntity
  8
2
100
AcDbLine
 10
220.127954
 20
-28.0319
 30
0.0
 11
240.677954
 21
-28.0319
 31
0.0
  0
ELLIPSE
  5
1D2
100
AcDbEntity
  8
2
100
AcDbEllipse
 10
223.402954
 20
-22.503095
 30
0.0
 11
5.5560780000000003
 21
0.0
 31
0.0
210
0.0
220
0.0
230
1.0
 40
0.695478
 41
0.0
 42
6.2831849999999996
  0
ELLIPSE
  5
1D3
100
AcDbEntity
  8
2
100
AcDbEllipse
 10
237.402954
 20
-22.503095
 30
0.0
 11
5.5560780000000003
 21
0.0
 31
0.0
210
0.0
220
0.0
230
1.0
 40
0.695478
 41
0.0
 42
6.2831849999999996
  0
POINT
  5
1D4
100
AcDbEntity
  8
2
100
AcDbPoint
 10
230.402954
 20
-28.0319
 30
0.0
  0
POINT
  5
1D5
100
AcDbEntity
  8
2
100
AcDbPoint
 10
230.402954
 20
-28.0319
 30
0.0
  0
POINT
  5
1D6
100
AcDbEntity
  8
2
100
AcDbPoint
 10
230.402954
 20
-18.0319
 30
0.0
  0
LINE
  5
1D7
100
AcDbEntity
  8
2
100
AcDbLine
 10
-149.983074
 20
-173.031268
 30
0.0
 11
-170.533074
 21
-173.031268
 31
0.0
  0
LINE
  5
1D8
100
AcDbEntity
  8
2
100
AcDbLine
 10
-146.682461
 20
-163.031268
 30
0.0
 11
-173.833686
 21
-163.031268
 31
0.0
  0
ARC
  5
1D9
100
AcDbEntity
  8
2
100
AcDbCircle
 10
-170.533074
 20
-168.031268
 30
0.0
 40
5.0
100
AcDbArc
 50
180.0
 51
270.0
  0
ARC
  5
1DA
100
AcDbEntity
  8
2
100
AcDbCircle
 10
-167.327788
 20
-168.031268
 30
0.0
 40
8.205286
100
AcDbArc
 50
142.456522
 51
180.0
  0
ELLIPSE
  5
1DB
100
AcDbEntity
  8
2
100
AcDbEllipse
 10
-160.258074
 20
-167.502463
 30
0.0
 11
-6.10947
 21
0.0
 31
0.0
210
0.0
220
0.0
230
1.0
 40
0.632482
 41
0.0
 42
6.2831849999999996
  0
ELLIPSE
  5
1DC
100
AcDbEntity
  8
2
100
AcDbEllipse
 10
-172.382429
 20
-167.502463
 30
0.0
 11
0.0
 21
-3.8641269999999999
 31
0.0
210
0.0
220
0.0
230
1.0
 40
0.790537
 41
0.0
 42
6.2831849999999996
  0
ELLIPSE
  5
1DD
100
AcDbEntity
  8
2
100
AcDbEllipse
 10
-148.133718
 20
-167.502463
 30
0.0
 11
0.0
 21
3.8641269999999999
 31
0.0
210
0.0
220
0.0
230
1.0
 40
0.790537
 41
0.0
 42
6.2831849999999996
  0
ARC
  5
1DE
100
AcDbEntity
  8
2
100
AcDbCircle
 10
-149.983074
 20
-168.031268
 30
0.0
 40
5.0
100
AcDbArc
 50
270.0
 51
0.0
  0
ARC
  5
1DF
100
AcDbEntity
  8
2
100
AcDbCircle
 10
-153.18836
 20
-168.031268
 30
0.0
 40
8.205286
100
AcDbArc
 50
0.0
 51
37.543478
  0
LINE
  5
1E0
100
AcDbEntity
  8
2
100
AcDbLine
 10
-147.258074
 20
-162.731636
 30
0.0
 11
-147.258074
 21
-163.031636
 31
0.0
  0
LINE
  5
1E1
100
AcDbEntity
  8
2
100
AcDbLine
 10
-173.258074
 20
-162.731636
 30
0.0
 11
-173.258074
 21
-163.031636
 31
0.0
  0
POINT
  5
1E2
100
AcDbEntity
  8
2
100
AcDbPoint
 10
-160.258074
 20
-163.531081
 30
0.0
  0
LINE
  5
1E3
100
AcDbEntity
  8
2
  6
CENTER
 62
     2
100
AcDbLine
 10
-160.258074
 20
-236.672153
 30
0.0
 11
-160.258074
 21
-31.63518
 31
0.0
  0
LINE
  5
1E4
100
AcDbEntity
  8
2
  6
CENTER
 62
     2
100
AcDbLine
 10
-160.258074
 20
15.248936
 30
0.0
 11
-160.258074
 21
149.307617
 31
0.0
  0
POINT
  5
1E5
100
AcDbEntity
  8
2
100
AcDbPoint
 10
60.40326
 20
-54.9319
 30
0.0
  0
POINT
  5
1E6
100
AcDbEntity
  8
2
100
AcDbPoint
 10
230.402954
 20
-18.0319
 30
0.0
  0
LINE
  5
1E7
100
AcDbEntity
  8
2
100
AcDbLine
 10
72.40326
 20
-48.5319
 30
0.0
 11
48.40326
 21
-48.5319
 31
0.0
  0
LINE
  5
1E8
100
AcDbEntity
  8
2
100
AcDbLine
 10
69.40326
 20
-52.0319
 30
0.0
 11
51.40326
 21
-52.0319
 31
0.0
  0
LINE
  5
1E9
100
AcDbEntity
  8
2
100
AcDbLine
 10
51.40326
 20
-48.5319
 30
0.0
 11
51.40326
 21
-52.0319
 31
0.0
  0
LINE
  5
1EA
100
AcDbEntity
  8
2
100
AcDbLine
 10
69.40326
 20
-48.5319
 30
0.0
 11
69.40326
 21
-52.0319
 31
0.0
  0
ARC
  5
1EB
100
AcDbEntity
  8
2
100
AcDbCircle
 10
60.40326
 20
-44.9319
 30
0.0
 40
10.0
100
AcDbArc
 50
225.234915
 51
314.765085
  0
LINE
  5
1EC
100
AcDbEntity
  8
2
100
AcDbLine
 10
72.40326
 20
-48.5319
 30
0.0
 11
72.40326
 21
-47.0319
 31
0.0
  0
LINE
  5
1ED
100
AcDbEntity
  8
2
100
AcDbLine
 10
48.40326
 20
-48.5319
 30
0.0
 11
48.40326
 21
-47.0319
 31
0.0
  0
POINT
  5
1EE
100
AcDbEntity
  8
2
100
AcDbPoint
 10
230.402954
 20
-18.0319
 30
0.0
  0
LINE
  5
1EF
100
AcDbEntity
  8
2
100
AcDbLine
 10
243.402954
 20
-47.0319
 30
0.0
 11
60.40326
 21
-47.0319
 31
0.0
  0
LINE
  5
1F0
100
AcDbEntity
  8
2
100
AcDbLine
 10
230.402954
 20
-34.0319
 30
0.0
 11
59.3675
 21
-34.0319
 31
0.0
  0
ARC
  5
1F1
100
AcDbEntity
  8
2
100
AcDbCircle
 10
60.201909
 20
-72.0319
 30
0.0
 40
38.0
100
AcDbArc
 50
90.0
 51
110.23732
  0
LINE
  5
1F2
100
AcDbEntity
  8
2
100
AcDbLine
 10
46.40326
 20
-47.0319
 30
0.0
 11
46.40326
 21
-37.315987
 31
0.0
  0
ARC
  5
1F3
100
AcDbEntity
  8
2
100
AcDbCircle
 10
47.40326
 20
-37.315987
 30
0.0
 40
1.0
100
AcDbArc
 50
110.23732
 51
180.0
  0
LINE
  5
1F4
100
AcDbEntity
  8
2
100
AcDbLine
 10
244.402954
 20
-34.0319
 30
0.0
 11
244.402954
 21
-46.0319
 31
0.0
  0
ARC
  5
1F5
100
AcDbEntity
  8
2
100
AcDbCircle
 10
243.402954
 20
-46.0319
 30
0.0
 40
1.0
100
AcDbArc
 50
270.0
 51
360.0
  0
LINE
  5
1F6
100
AcDbEntity
  8
2
100
AcDbLine
 10
216.402954
 20
-30.5319
 30
0.0
 11
216.402954
 21
-34.0319
 31
0.0
  0
LINE
  5
1F7
100
AcDbEntity
  8
2
100
AcDbLine
 10
244.402954
 20
-30.5319
 30
0.0
 11
244.402954
 21
-34.0319
 31
0.0
  0
LINE
  5
1F8
100
AcDbEntity
  8
2
100
AcDbLine
 10
216.402954
 20
-30.5319
 30
0.0
 11
216.902954
 21
-30.0319
 31
0.0
  0
LINE
  5
1F9
100
AcDbEntity
  8
2
100
AcDbLine
 10
244.402954
 20
-30.5319
 30
0.0
 11
243.902954
 21
-30.0319
 31
0.0
  0
LINE
  5
1FA
100
AcDbEntity
  8
2
100
AcDbLine
 10
222.427954
 20
-30.0319
 30
0.0
 11
222.427954
 21
-28.0319
 31
0.0
  0
LINE
  5
1FB
100
AcDbEntity
  8
2
100
AcDbLine
 10
238.377954
 20
-30.0319
 30
0.0
 11
238.377954
 21
-28.0319
 31
0.0
  0
LINE
  5
1FC
100
AcDbEntity
  8
2
100
AcDbLine
 10
243.902954
 20
-30.0319
 30
0.0
 11
230.402954
 21
-30.0319
 31
0.0
  0
LINE
  5
1FD
100
AcDbEntity
  8
2
100
AcDbLine
 10
230.402954
 20
-30.0319
 30
0.0
 11
216.902954
 21
-30.0319
 31
0.0
  0
LINE
  5
1FE
100
AcDbEntity
  8
2
100
AcDbLine
 10
217.477954
 20
-34.0319
 30
0.0
 11
216.402954
 21
-34.0319
 31
0.0
  0
LINE
  5
1FF
100
AcDbEntity
  8
2
100
AcDbLine
 10
73.85326
 20
-47.0319
 30
0.0
 11
72.75326
 21
-47.0319
 31
0.0
  0
LINE
  5
200
100
AcDbEntity
  8
2
100
AcDbLine
 10
60.40326
 20
-47.0319
 30
0.0
 11
46.40326
 21
-47.0319
 31
0.0
  0
LINE
  5
201
100
AcDbEntity
  8
2
100
AcDbLine
 10
244.402954
 20
-30.5319
 30
0.0
 11
216.402954
 21
-30.5319
 31
0.0
  0
POINT
  5
202
100
AcDbEntity
  8
2
100
AcDbPoint
 10
60.40326
 20
-40.5319
 30
0.0
  0
LINE
  5
203
100
AcDbEntity
  8
2
100
AcDbLine
 10
-146.258074
 20
-179.031268
 30
0.0
 11
-146.258074
 21
-190.031268
 31
0.0
  0
LINE
  5
204
100
AcDbEntity
  8
2
100
AcDbLine
 10
-174.258074
 20
-175.531268
 30
0.0
 11
-174.258074
 21
-182.390252
 31
0.0
  0
LINE
  5
205
100
AcDbEntity
  8
2
100
AcDbLine
 10
-146.258074
 20
-175.531268
 30
0.0
 11
-146.258074
 21
-179.031268
 31
0.0
  0
LINE
  5
206
100
AcDbEntity
  8
2
100
AcDbLine
 10
-174.258074
 20
-175.531268
 30
0.0
 11
-173.758074
 21
-175.031268
 31
0.0
  0
LINE
  5
207
100
AcDbEntity
  8
2
100
AcDbLine
 10
-146.258074
 20
-175.531268
 30
0.0
 11
-146.758074
 21
-175.031268
 31
0.0
  0
LINE
  5
208
100
AcDbEntity
  8
2
100
AcDbLine
 10
-168.233074
 20
-175.031268
 30
0.0
 11
-168.233074
 21
-173.031268
 31
0.0
  0
LINE
  5
209
100
AcDbEntity
  8
2
100
AcDbLine
 10
-152.283074
 20
-175.031268
 30
0.0
 11
-152.283074
 21
-173.031268
 31
0.0
  0
LINE
  5
20A
100
AcDbEntity
  8
2
100
AcDbLine
 10
-146.758074
 20
-175.031268
 30
0.0
 11
-160.258074
 21
-175.031268
 31
0.0
  0
LINE
  5
20B
100
AcDbEntity
  8
2
100
AcDbLine
 10
-160.258074
 20
-175.031268
 30
0.0
 11
-173.758074
 21
-175.031268
 31
0.0
  0
LINE
  5
20C
100
AcDbEntity
  8
2
100
AcDbLine
 10
-146.258074
 20
-175.531268
 30
0.0
 11
-174.258074
 21
-175.531268
 31
0.0
  0
LINE
  5
20D
100
AcDbEntity
  8
2
100
AcDbLine
 10
-172.258074
 20
-192.031268
 30
0.0
 11
-148.258074
 21
-192.031268
 31
0.0
  0
ARC
  5
20E
100
AcDbEntity
  8
2
100
AcDbCircle
 10
-160.258074
 20
-217.031268
 30
0.0
 40
38.0
100
AcDbArc
 50
69.430008
 51
110.569992
  0
LINE
  5
20F
100
AcDbEntity
  8
2
100
AcDbLine
 10
-146.258074
 20
-182.390252
 30
0.0
 11
-146.258074
 21
-190.031268
 31
0.0
  0
LINE
  5
210
100
AcDbEntity
  8
2
100
AcDbLine
 10
-174.258074
 20
-182.390252
 30
0.0
 11
-174.258074
 21
-190.031268
 31
0.0
  0
ARC
  5
211
100
AcDbEntity
  8
2
100
AcDbCircle
 10
-148.258074
 20
-190.031268
 30
0.0
 40
2.0
100
AcDbArc
 50
270.0
 51
360.0
  0
ARC
  5
212
100
AcDbEntity
  8
2
100
AcDbCircle
 10
-172.258074
 20
-190.031268
 30
0.0
 40
2.0
100
AcDbArc
 50
180.0
 51
270.0
  0
ARC
  5
213
100
AcDbEntity
  8
2
100
AcDbCircle
 10
-147.258074
 20
-182.390252
 30
0.0
 40
1.0
100
AcDbArc
 50
0.0
 51
69.430008
  0
ARC
  5
214
100
AcDbEntity
  8
2
100
AcDbCircle
 10
-173.258074
 20
-182.390252
 30
0.0
 40
1.0
100
AcDbArc
 50
110.569992
 51
180.0
  0
LINE
  5
215
100
AcDbEntity
  8
2
100
AcDbLine
 10
-168.233074
 20
-173.031268
 30
0.0
 11
-152.283074
 21
-173.031268
 31
0.0
  0
POINT
  5
216
100
AcDbEntity
  8
2
100
AcDbPoint
 10
-160.258074
 20
-173.031268
 30
0.0
  0
POINT
  5
217
100
AcDbEntity
  8
2
100
AcDbPoint
 10
-160.258074
 20
-173.031268
 30
0.0
  0
LINE
  5
218
100
AcDbEntity
  8
2
100
AcDbLine
 10
-175.136344
 20
88.713777
 30
0.0
 11
-269.859408
 21
-6.009287
 31
0.0
  0
LINE
  5
219
100
AcDbEntity
  8
2
100
AcDbLine
 10
-192.426425
 20
111.021676
 30
0.0
 11
-289.658398
 21
13.789703
 31
0.0
  0
ARC
  5
21A
100
AcDbEntity
  8
2
100
AcDbCircle
 10
-279.758903
 20
3.890208
 30
0.0
 40
14.0
100
AcDbArc
 50
135.0
 51
315.0
  0
LINE
  5
21B
100
AcDbEntity
  8
2
100
AcDbLine
 10
-148.258074
 20
-193.531268
 30
0.0
 11
-172.258074
 21
-193.531268
 31
0.0
  0
LINE
  5
21C
100
AcDbEntity
  8
2
100
AcDbLine
 10
-151.258074
 20
-197.031268
 30
0.0
 11
-169.258074
 21
-197.031268
 31
0.0
  0
LINE
  5
21D
100
AcDbEntity
  8
2
100
AcDbLine
 10
-169.258074
 20
-193.531268
 30
0.0
 11
-169.258074
 21
-197.031268
 31
0.0
  0
LINE
  5
21E
100
AcDbEntity
  8
2
100
AcDbLine
 10
-151.258074
 20
-193.531268
 30
0.0
 11
-151.258074
 21
-197.031268
 31
0.0
  0
ARC
  5
21F
100
AcDbEntity
  8
2
100
AcDbCircle
 10
-160.258074
 20
-189.931268
 30
0.0
 40
10.0
100
AcDbArc
 50
225.234915
 51
314.765085
  0
LINE
  5
220
100
AcDbEntity
  8
2
100
AcDbLine
 10
-148.258074
 20
-193.531268
 30
0.0
 11
-148.258074
 21
-192.031268
 31
0.0
  0
LINE
  5
221
100
AcDbEntity
  8
2
100
AcDbLine
 10
-172.258074
 20
-193.531268
 30
0.0
 11
-172.258074
 21
-192.031268
 31
0.0
  0
LINE
  5
222
100
AcDbEntity
  8
2
100
AcDbLine
 10
-97.258481
 20
160.291081
 30
0.0
 11
-123.258481
 21
160.291081
 31
0.0
  0
POINT
  5
223
100
AcDbEntity
  8
2
100
AcDbPoint
 10
269.802954
 20
1.968732
 30
0.0
  0
LINE
  5
224
100
AcDbEntity
  8
2
100
AcDbLine
 10
250.402954
 20
15.457726
 30
0.0
 11
250.402954
 21
-15.031268
 31
0.0
  0
LINE
  5
225
100
AcDbEntity
  8
2
100
AcDbLine
 10
208.089471
 20
16.457726
 30
0.0
 11
249.402954
 21
16.457726
 31
0.0
  0
LINE
  5
226
100
AcDbEntity
  8
2
 62
     2
100
AcDbLine
 10
208.471375
 20
16.10967
 30
0.0
 11
229.173317
 21
9.998098
 31
0.0
  0
LINE
  5
227
100
AcDbEntity
  8
2
 62
     2
100
AcDbLine
 10
214.178111
 20
-15.40209
 30
0.0
 11
227.806813
 21
-12.242959
 31
0.0
  0
ARC
  5
228
100
AcDbEntity
  8
2
 62
     2
100
AcDbCircle
 10
180.402954
 20
1.968732
 30
0.0
 40
50.0
100
AcDbArc
 50
344.326601
 51
8.296257
  0
ARC
  5
229
100
AcDbEntity
  8
2
 62
     2
100
AcDbCircle
 10
228.89018
 20
9.039018
 30
0.0
 40
1.0
100
AcDbArc
 50
8.296257
 51
73.552486
  0
ARC
  5
22A
100
AcDbEntity
  8
2
 62
     2
100
AcDbCircle
 10
227.581001
 20
-11.268788
 30
0.0
 40
1.0
100
AcDbArc
 50
283.05067
 51
344.326601
  0
ARC
  5
22B
100
AcDbEntity
  8
2
100
AcDbCircle
 10
249.402954
 20
15.457726
 30
0.0
 40
1.0
100
AcDbArc
 50
0.0
 51
90.0
  0
ARC
  5
22C
100
AcDbEntity
  8
2
100
AcDbCircle
 10
249.402954
 20
-15.031268
 30
0.0
 40
1.0
100
AcDbArc
 50
270.0
 51
360.0
  0
LINE
  5
22D
100
AcDbEntity
  8
2
  6
CENTER
 62
     2
100
AcDbLine
 10
205.647019
 20
1.968732
 30
0.0
 11
308.971344
 21
1.968732
 31
0.0
  0
LINE
  5
22E
100
AcDbEntity
  8
2
 62
     2
100
AcDbLine
 10
333.003206
 20
-48.716175
 30
0.0
 11
316.003206
 21
-48.716175
 31
0.0
  0
LINE
  5
22F
100
AcDbEntity
  8
2
100
AcDbLine
 10
304.003206
 20
-47.554175
 30
0.0
 11
306.015849
 21
-48.716175
 31
0.0
  0
LINE
  5
230
100
AcDbEntity
  8
2
100
AcDbLine
 10
297.003206
 20
15.968325
 30
0.0
 11
297.003206
 21
-34.371421
 31
0.0
  0
LINE
  5
231
100
AcDbEntity
  8
2
100
AcDbLine
 10
304.003206
 20
-68.509175
 30
0.0
 11
306.015849
 21
-67.347175
 31
0.0
  0
LINE
  5
232
100
AcDbEntity
  8
2
 62
     2
100
AcDbLine
 10
333.003206
 20
-67.347175
 30
0.0
 11
316.003206
 21
-67.347175
 31
0.0
  0
LINE
  5
233
100
AcDbEntity
  8
2
100
AcDbLine
 10
333.003206
 20
-48.716175
 30
0.0
 11
333.003206
 21
-67.347175
 31
0.0
  0
LINE
  5
234
100
AcDbEntity
  8
2
100
AcDbLine
 10
333.003206
 20
-48.716175
 30
0.0
 11
331.841206
 21
-47.554175
 31
0.0
  0
LINE
  5
235
100
AcDbEntity
  8
2
100
AcDbLine
 10
333.003206
 20
-67.347175
 30
0.0
 11
331.841206
 21
-68.509175
 31
0.0
  0
LINE
  5
236
100
AcDbEntity
  8
2
100
AcDbLine
 10
282.303206
 20
-45.431675
 30
0.0
 11
282.303206
 21
-42.031675
 31
0.0
  0
LINE
  5
237
100
AcDbEntity
  8
2
  6
CENTER
 62
     2
100
AcDbLine
 10
339.189471
 20
-58.031675
 30
0.0
 11
279.241324
 21
-58.031675
 31
0.0
  0
LINE
  5
238
100
AcDbEntity
  8
2
100
AcDbLine
 10
303.003206
 20
-73.031675
 30
0.0
 11
282.303206
 21
-73.031675
 31
0.0
  0
LINE
  5
239
100
AcDbEntity
  8
2
100
AcDbLine
 10
282.303206
 20
-42.031675
 30
0.0
 11
281.803206
 21
-42.031675
 31
0.0
  0
LINE
  5
23A
100
AcDbEntity
  8
2
100
AcDbLine
 10
303.003206
 20
-73.031675
 30
0.0
 11
304.003206
 21
-72.031675
 31
0.0
  0
LINE
  5
23B
100
AcDbEntity
  8
2
100
AcDbLine
 10
281.803206
 20
-42.031675
 30
0.0
 11
281.803206
 21
-33.031675
 31
0.0
  0
LINE
  5
23C
100
AcDbEntity
  8
2
100
AcDbLine
 10
281.803206
 20
-33.031675
 30
0.0
 11
281.803206
 21
-11.231675
 31
0.0
  0
LINE
  5
23D
100
AcDbEntity
  8
2
100
AcDbLine
 10
303.003206
 20
-43.031675
 30
0.0
 11
304.003206
 21
-44.031675
 31
0.0
  0
LINE
  5
23E
100
AcDbEntity
  8
2
100
AcDbLine
 10
304.003206
 20
-47.554175
 30
0.0
 11
304.003206
 21
-44.031675
 31
0.0
  0
LINE
  5
23F
100
AcDbEntity
  8
2
100
AcDbLine
 10
304.003206
 20
-68.509175
 30
0.0
 11
304.003206
 21
-72.031675
 31
0.0
  0
ARC
  5
240
100
AcDbEntity
  8
2
100
AcDbCircle
 10
307.003206
 20
-33.866524
 30
0.0
 40
10.0
100
AcDbArc
 50
180.0
 51
246.421822
  0
LINE
  5
241
100
AcDbEntity
  8
2
100
AcDbLine
 10
277.103206
 20
-58.031675
 30
0.0
 11
277.103206
 21
-45.031675
 31
0.0
  0
LINE
  5
242
100
AcDbEntity
  8
2
100
AcDbLine
 10
279.603206
 20
-42.531675
 30
0.0
 11
281.803206
 21
-42.531675
 31
0.0
  0
LINE
  5
243
100
AcDbEntity
  8
2
100
AcDbLine
 10
282.303206
 20
-58.031675
 30
0.0
 11
282.303206
 21
-43.031675
 31
0.0
  0
LINE
  5
244
100
AcDbEntity
  8
2
100
AcDbLine
 10
277.103206
 20
-45.031675
 30
0.0
 11
279.603206
 21
-42.531675
 31
0.0
  0
LINE
  5
245
100
AcDbEntity
  8
2
100
AcDbLine
 10
279.603206
 20
-73.531675
 30
0.0
 11
281.803206
 21
-73.531675
 31
0.0
  0
LINE
  5
246
100
AcDbEntity
  8
2
100
AcDbLine
 10
282.303206
 20
-58.031675
 30
0.0
 11
282.303206
 21
-73.031675
 31
0.0
  0
LINE
  5
247
100
AcDbEntity
  8
2
100
AcDbLine
 10
281.803206
 20
-73.531675
 30
0.0
 11
282.303206
 21
-73.031675
 31
0.0
  0
LINE
  5
248
100
AcDbEntity
  8
2
100
AcDbLine
 10
282.303206
 20
-43.031675
 30
0.0
 11
281.803206
 21
-42.531675
 31
0.0
  0
LINE
  5
249
100
AcDbEntity
  8
2
100
AcDbLine
 10
279.603206
 20
-73.531675
 30
0.0
 11
277.103206
 21
-71.031675
 31
0.0
  0
LINE
  5
24A
100
AcDbEntity
  8
2
100
AcDbLine
 10
277.103206
 20
-71.031675
 30
0.0
 11
277.103206
 21
-58.031675
 31
0.0
  0
LINE
  5
24B
100
AcDbEntity
  8
2
100
AcDbLine
 10
277.403206
 20
-58.781675
 30
0.0
 11
278.603206
 21
-58.781675
 31
0.0
  0
LINE
  5
24C
100
AcDbEntity
  8
2
100
AcDbLine
 10
277.103206
 20
-59.081675
 30
0.0
 11
277.403206
 21
-58.781675
 31
0.0
  0
LINE
  5
24D
100
AcDbEntity
  8
2
100
AcDbLine
 10
278.603206
 20
-58.781675
 30
0.0
 11
278.603206
 21
-58.031675
 31
0.0
  0
POINT
  5
24E
100
AcDbEntity
  8
2
100
AcDbPoint
 10
277.103206
 20
-58.031675
 30
0.0
  0
LINE
  5
24F
100
AcDbEntity
  8
2
100
AcDbLine
 10
277.403206
 20
-58.781675
 30
0.0
 11
277.403206
 21
-58.031675
 31
0.0
  0
LINE
  5
250
100
AcDbEntity
  8
2
100
AcDbLine
 10
278.603206
 20
-57.281675
 30
0.0
 11
278.603206
 21
-58.031675
 31
0.0
  0
LINE
  5
251
100
AcDbEntity
  8
2
100
AcDbLine
 10
277.403206
 20
-57.281675
 30
0.0
 11
278.603206
 21
-57.281675
 31
0.0
  0
LINE
  5
252
100
AcDbEntity
  8
2
100
AcDbLine
 10
277.103206
 20
-56.981675
 30
0.0
 11
277.403206
 21
-57.281675
 31
0.0
  0
LINE
  5
253
100
AcDbEntity
  8
2
100
AcDbLine
 10
277.403206
 20
-57.281675
 30
0.0
 11
277.403206
 21
-58.031675
 31
0.0
  0
LINE
  5
254
100
AcDbEntity
  8
2
 62
     2
100
AcDbLine
 10
279.603206
 20
-42.531675
 30
0.0
 11
279.603206
 21
-73.531675
 31
0.0
  0
LINE
  5
255
100
AcDbEntity
  8
2
 62
     2
100
AcDbLine
 10
281.803206
 20
-73.531675
 30
0.0
 11
281.803206
 21
-42.531675
 31
0.0
  0
LINE
  5
256
100
AcDbEntity
  8
2
 62
     2
100
AcDbLine
 10
331.841206
 20
-47.554175
 30
0.0
 11
331.841206
 21
-68.509175
 31
0.0
  0
LINE
  5
257
100
AcDbEntity
  8
2
100
AcDbLine
 10
306.015849
 20
-67.347175
 30
0.0
 11
306.015849
 21
-48.716175
 31
0.0
  0
LINE
  5
258
100
AcDbEntity
  8
2
100
AcDbLine
 10
304.003206
 20
-47.554175
 30
0.0
 11
304.003206
 21
-68.509175
 31
0.0
  0
LINE
  5
259
100
AcDbEntity
  8
2
100
AcDbLine
 10
297.003206
 20
15.968325
 30
0.0
 11
297.003206
 21
-34.371421
 31
0.0
  0
LINE
  5
25A
100
AcDbEntity
  8
2
100
AcDbLine
 10
281.803206
 20
16.968325
 30
0.0
 11
296.003206
 21
16.968325
 31
0.0
  0
ARC
  5
25B
100
AcDbEntity
  8
2
100
AcDbCircle
 10
296.003206
 20
15.968325
 30
0.0
 40
1.0
100
AcDbArc
 50
0.0
 51
90.0
  0
LINE
  5
25C
100
AcDbEntity
  8
2
100
AcDbLine
 10
281.803206
 20
-11.231675
 30
0.0
 11
281.803206
 21
15.168325
 31
0.0
  0
LINE
  5
25D
100
AcDbEntity
  8
2
100
AcDbLine
 10
269.802954
 20
-11.231675
 30
0.0
 11
281.803206
 21
-11.231675
 31
0.0
  0
LINE
  5
25E
100
AcDbEntity
  8
2
 62
     2
100
AcDbLine
 10
269.802954
 20
-10.131675
 30
0.0
 11
272.303206
 21
-10.131675
 31
0.0
  0
LINE
  5
25F
100
AcDbEntity
  8
2
100
AcDbLine
 10
272.303206
 20
-10.131675
 30
0.0
 11
274.208462
 21
-11.231675
 31
0.0
  0
LINE
  5
260
100
AcDbEntity
  8
2
100
AcDbLine
 10
269.802954
 20
15.168325
 30
0.0
 11
281.803206
 21
15.168325
 31
0.0
  0
LINE
  5
261
100
AcDbEntity
  8
2
100
AcDbLine
 10
272.303206
 20
14.068325
 30
0.0
 11
274.208462
 21
15.168325
 31
0.0
  0
LINE
  5
262
100
AcDbEntity
  8
2
 62
     2
100
AcDbLine
 10
269.802954
 20
14.068325
 30
0.0
 11
272.303206
 21
14.068325
 31
0.0
  0
LINE
  5
263
100
AcDbEntity
  8
2
100
AcDbLine
 10
281.803206
 20
16.968325
 30
0.0
 11
296.003206
 21
16.968325
 31
0.0
  0
LINE
  5
264
100
AcDbEntity
  8
2
100
AcDbLine
 10
281.803206
 20
15.168325
 30
0.0
 11
281.803206
 21
16.968325
 31
0.0
  0
LINE
  5
265
100
AcDbEntity
  8
2
100
AcDbLine
 10
281.803206
 20
-33.031675
 30
0.0
 11
281.803206
 21
-11.231675
 31
0.0
  0
LINE
  5
266
100
AcDbEntity
  8
2
100
AcDbLine
 10
281.803206
 20
-11.231675
 30
0.0
 11
281.803206
 21
15.168325
 31
0.0
  0
LINE
  5
267
100
AcDbEntity
  8
2
 62
     2
100
AcDbLine
 10
272.303206
 20
-10.131675
 30
0.0
 11
272.303206
 21
14.068325
 31
0.0
  0
LINE
  5
268
100
AcDbEntity
  8
2
 62
     2
100
AcDbLine
 10
274.208462
 20
15.168325
 30
0.0
 11
274.208462
 21
-11.231675
 31
0.0
  0
LINE
  5
269
100
AcDbEntity
  8
2
100
AcDbLine
 10
316.003206
 20
-81.031675
 30
0.0
 11
312.644326
 21
-81.031675
 31
0.0
  0
LINE
  5
26A
100
AcDbEntity
  8
2
100
AcDbLine
 10
316.003206
 20
-35.031675
 30
0.0
 11
316.003206
 21
-81.031675
 31
0.0
  0
ARC
  5
26B
100
AcDbEntity
  8
2
100
AcDbCircle
 10
308.003206
 20
-71.531675
 30
0.0
 40
2.0
100
AcDbArc
 50
180.0
 51
204.670512
  0
LINE
  5
26C
100
AcDbEntity
  8
2
100
AcDbLine
 10
311.735603
 20
-80.449075
 30
0.0
 11
306.18576
 21
-72.366474
 31
0.0
  0
LINE
  5
26D
100
AcDbEntity
  8
2
100
AcDbLine
 10
311.735603
 20
-35.614276
 30
0.0
 11
306.354461
 21
-43.451186
 31
0.0
  0
ARC
  5
26E
100
AcDbEntity
  8
2
100
AcDbCircle
 10
312.644326
 20
-80.031675
 30
0.0
 40
1.0
100
AcDbArc
 50
204.670512
 51
270.0
  0
LINE
  5
26F
100
AcDbEntity
  8
2
100
AcDbLine
 10
312.644326
 20
-35.031675
 30
0.0
 11
316.003206
 21
-35.031675
 31
0.0
  0
LINE
  5
270
100
AcDbEntity
  8
2
100
AcDbLine
 10
311.735603
 20
-35.614276
 30
0.0
 11
306.18576
 21
-43.696876
 31
0.0
  0
ARC
  5
271
100
AcDbEntity
  8
2
100
AcDbCircle
 10
312.644326
 20
-36.031675
 30
0.0
 40
1.0
100
AcDbArc
 50
90.0
 51
155.329488
  0
LINE
  5
272
100
AcDbEntity
  8
2
100
AcDbLine
 10
306.003206
 20
-44.583281
 30
0.0
 11
306.003206
 21
-71.531675
 31
0.0
  0
LINE
  5
273
100
AcDbEntity
  8
2
 62
     2
100
AcDbLine
 10
312.13564
 20
-35.770957
 30
0.0
 11
312.13564
 21
-80.191565
 31
0.0
  0
ARC
  5
274
100
AcDbEntity
  8
2
100
AcDbCircle
 10
308.003206
 20
-44.583281
 30
0.0
 40
2.0
100
AcDbArc
 50
145.52492
 51
180.0
  0
LINE
  5
275
100
AcDbEntity
  8
2
100
AcDbLine
 10
304.003206
 20
-47.554175
 30
0.0
 11
306.003206
 21
-47.554175
 31
0.0
  0
LINE
  5
276
100
AcDbEntity
  8
2
100
AcDbLine
 10
316.003206
 20
-47.554175
 30
0.0
 11
331.841206
 21
-47.554175
 31
0.0
  0
LINE
  5
277
100
AcDbEntity
  8
2
100
AcDbLine
 10
304.003206
 20
-68.509175
 30
0.0
 11
306.015849
 21
-68.509175
 31
0.0
  0
LINE
  5
278
100
AcDbEntity
  8
2
100
AcDbLine
 10
316.003206
 20
-68.509175
 30
0.0
 11
331.841206
 21
-68.509175
 31
0.0
  0
POINT
  5
279
100
AcDbEntity
  8
2
100
AcDbPoint
 10
279.831353
 20
-67.231703
 30
0.0
  0
POINT
  5
27A
100
AcDbEntity
  8
2
100
AcDbPoint
 10
285.869625
 20
-14.538794
 30
0.0
  0
POINT
  5
27B
100
AcDbEntity
  8
2
100
AcDbPoint
 10
-67.831667
 20
-185.457675
 30
0.0
  0
POINT
  5
27C
100
AcDbEntity
  8
2
100
AcDbPoint
 10
-58.285725
 20
-195.003617
 30
0.0
  0
LINE
  5
27D
100
AcDbEntity
  8
2
100
AcDbLine
 10
-59.986405
 20
-172.089733
 30
0.0
 11
-61.162069
 21
-170.91407
 31
0.0
  0
LINE
  5
27E
100
AcDbEntity
  8
2
100
AcDbLine
 10
-61.162069
 20
-170.91407
 30
0.0
 11
-98.255086
 21
-133.821052
 31
0.0
  0
LINE
  5
27F
100
AcDbEntity
  8
2
100
AcDbLine
 10
-81.199609
 20
-193.302937
 30
0.0
 11
-116.032501
 21
-158.470045
 31
0.0
  0
POINT
  5
280
100
AcDbEntity
  8
2
100
AcDbPoint
 10
-67.831667
 20
-185.457675
 30
0.0
  0
CIRCLE
  5
281
100
AcDbEntity
  8
2
100
AcDbCircle
 10
-67.831667
 20
-185.457675
 30
0.0
 40
15.5
  0
CIRCLE
  5
282
100
AcDbEntity
  8
2
100
AcDbCircle
 10
-67.831667
 20
-185.457675
 30
0.0
 40
4.5
  0
LINE
  5
283
100
AcDbEntity
  8
2
  6
CENTER
 62
     2
100
AcDbLine
 10
-86.331667
 20
-185.457675
 30
0.0
 11
-49.331667
 21
-185.457675
 31
0.0
  0
LINE
  5
284
100
AcDbEntity
  8
2
  6
CENTER
 62
     2
100
AcDbLine
 10
-67.831667
 20
-203.957675
 30
0.0
 11
-67.831667
 21
-166.957675
 31
0.0
  0
ARC
  5
285
100
AcDbEntity
  8
2
100
AcDbCircle
 10
-67.831667
 20
-185.457675
 30
0.0
 40
13.0
100
AcDbArc
 50
94.411726
 51
265.588274
  0
ARC
  5
286
100
AcDbEntity
  8
2
100
AcDbCircle
 10
-67.831667
 20
-185.457675
 30
0.0
 40
13.0
100
AcDbArc
 50
274.411726
 51
85.588274
  0
ARC
  5
287
100
AcDbEntity
  8
2
 62
     2
100
AcDbCircle
 10
-67.831667
 20
-185.457675
 30
0.0
 40
5.5
100
AcDbArc
 50
100.475682
 51
259.524318
  0
ARC
  5
288
100
AcDbEntity
  8
2
 62
     2
100
AcDbCircle
 10
-67.831667
 20
-185.457675
 30
0.0
 40
5.5
100
AcDbArc
 50
280.475682
 51
79.524318
  0
LINE
  5
289
100
AcDbEntity
  8
2
100
AcDbLine
 10
-68.831667
 20
-180.049348
 30
0.0
 11
-68.831667
 21
-172.496194
 31
0.0
  0
LINE
  5
28A
100
AcDbEntity
  8
2
100
AcDbLine
 10
-66.831667
 20
-180.049348
 30
0.0
 11
-66.831667
 21
-172.496194
 31
0.0
  0
LINE
  5
28B
100
AcDbEntity
  8
2
 62
     2
100
AcDbLine
 10
-69.131667
 20
-180.11352
 30
0.0
 11
-69.131667
 21
-172.522839
 31
0.0
  0
LINE
  5
28C
100
AcDbEntity
  8
2
 62
     2
100
AcDbLine
 10
-66.531667
 20
-180.11352
 30
0.0
 11
-66.531667
 21
-172.522839
 31
0.0
  0
LINE
  5
28D
100
AcDbEntity
  8
2
 62
     2
100
AcDbLine
 10
-66.531667
 20
-190.801831
 30
0.0
 11
-66.531667
 21
-198.392512
 31
0.0
  0
LINE
  5
28E
100
AcDbEntity
  8
2
100
AcDbLine
 10
-66.831667
 20
-190.866002
 30
0.0
 11
-66.831667
 21
-198.419157
 31
0.0
  0
LINE
  5
28F
100
AcDbEntity
  8
2
100
AcDbLine
 10
-68.831667
 20
-190.866002
 30
0.0
 11
-68.831667
 21
-198.419157
 31
0.0
  0
LINE
  5
290
100
AcDbEntity
  8
2
 62
     2
100
AcDbLine
 10
-69.131667
 20
-190.801831
 30
0.0
 11
-69.131667
 21
-198.392512
 31
0.0
  0
CIRCLE
  5
291
100
AcDbEntity
  8
2
100
AcDbCircle
 10
-67.831667
 20
-185.457675
 30
0.0
 40
4.4
  0
LINE
  5
292
100
AcDbEntity
  8
2
 62
     2
100
AcDbLine
 10
-69.131667
 20
-189.661245
 30
0.0
 11
-69.131667
 21
-181.254105
 31
0.0
  0
LINE
  5
293
100
AcDbEntity
  8
2
100
AcDbLine
 10
-68.831667
 20
-189.742532
 30
0.0
 11
-68.831667
 21
-181.172818
 31
0.0
  0
LINE
  5
294
100
AcDbEntity
  8
2
100
AcDbLine
 10
-66.831667
 20
-189.742532
 30
0.0
 11
-66.831667
 21
-181.172818
 31
0.0
  0
LINE
  5
295
100
AcDbEntity
  8
2
 62
     2
100
AcDbLine
 10
-66.531667
 20
-189.661245
 30
0.0
 11
-66.531667
 21
-181.254105
 31
0.0
  0
ARC
  5
296
100
AcDbEntity
  8
2
 62
     2
100
AcDbCircle
 10
-67.831667
 20
-185.457675
 30
0.0
 40
3.9
100
AcDbArc
 50
289.471221
 51
70.528779
  0
ARC
  5
297
100
AcDbEntity
  8
2
 62
     2
100
AcDbCircle
 10
-67.831667
 20
-185.457675
 30
0.0
 40
3.9
100
AcDbArc
 50
109.471221
 51
250.528779
  0
POINT
  5
298
100
AcDbEntity
  8
2
100
AcDbPoint
 10
-252.684481
 20
-185.457675
 30
0.0
  0
POINT
  5
299
100
AcDbEntity
  8
2
100
AcDbPoint
 10
-262.230422
 20
-195.003617
 30
0.0
  0
LINE
  5
29A
100
AcDbEntity
  8
2
100
AcDbLine
 10
-260.529742
 20
-172.089733
 30
0.0
 11
-259.354078
 21
-170.91407
 31
0.0
  0
LINE
  5
29B
100
AcDbEntity
  8
2
100
AcDbLine
 10
-259.354078
 20
-170.91407
 30
0.0
 11
-222.261061
 21
-133.821052
 31
0.0
  0
LINE
  5
29C
100
AcDbEntity
  8
2
100
AcDbLine
 10
-239.316539
 20
-193.302937
 30
0.0
 11
-204.483647
 21
-158.470045
 31
0.0
  0
POINT
  5
29D
100
AcDbEntity
  8
2
100
AcDbPoint
 10
-252.684481
 20
-185.457675
 30
0.0
  0
CIRCLE
  5
29E
100
AcDbEntity
  8
2
100
AcDbCircle
 10
-252.684481
 20
-185.457675
 30
0.0
 40
15.5
  0
CIRCLE
  5
29F
100
AcDbEntity
  8
2
100
AcDbCircle
 10
-252.684481
 20
-185.457675
 30
0.0
 40
4.5
  0
LINE
  5
2A0
100
AcDbEntity
  8
2
  6
CENTER
 62
     2
100
AcDbLine
 10
-234.184481
 20
-185.457675
 30
0.0
 11
-271.184481
 21
-185.457675
 31
0.0
  0
LINE
  5
2A1
100
AcDbEntity
  8
2
  6
CENTER
 62
     2
100
AcDbLine
 10
-252.684481
 20
-203.957675
 30
0.0
 11
-252.684481
 21
-166.957675
 31
0.0
  0
ARC
  5
2A2
100
AcDbEntity
  8
2
100
AcDbCircle
 10
-252.684481
 20
-185.457675
 30
0.0
 40
13.0
100
AcDbArc
 50
274.411726
 51
85.588274
  0
ARC
  5
2A3
100
AcDbEntity
  8
2
100
AcDbCircle
 10
-252.684481
 20
-185.457675
 30
0.0
 40
13.0
100
AcDbArc
 50
94.411726
 51
265.588274
  0
ARC
  5
2A4
100
AcDbEntity
  8
2
 62
     2
100
AcDbCircle
 10
-252.684481
 20
-185.457675
 30
0.0
 40
5.5
100
AcDbArc
 50
280.475682
 51
79.524318
  0
ARC
  5
2A5
100
AcDbEntity
  8
2
 62
     2
100
AcDbCircle
 10
-252.684481
 20
-185.457675
 30
0.0
 40
5.5
100
AcDbArc
 50
100.475682
 51
259.524318
  0
LINE
  5
2A6
100
AcDbEntity
  8
2
100
AcDbLine
 10
-251.684481
 20
-180.049348
 30
0.0
 11
-251.684481
 21
-172.496194
 31
0.0
  0
LINE
  5
2A7
100
AcDbEntity
  8
2
100
AcDbLine
 10
-253.684481
 20
-180.049348
 30
0.0
 11
-253.684481
 21
-172.496194
 31
0.0
  0
LINE
  5
2A8
100
AcDbEntity
  8
2
 62
     2
100
AcDbLine
 10
-251.384481
 20
-180.11352
 30
0.0
 11
-251.384481
 21
-172.522839
 31
0.0
  0
LINE
  5
2A9
100
AcDbEntity
  8
2
 62
     2
100
AcDbLine
 10
-253.984481
 20
-180.11352
 30
0.0
 11
-253.984481
 21
-172.522839
 31
0.0
  0
LINE
  5
2AA
100
AcDbEntity
  8
2
 62
     2
100
AcDbLine
 10
-253.984481
 20
-190.801831
 30
0.0
 11
-253.984481
 21
-198.392512
 31
0.0
  0
LINE
  5
2AB
100
AcDbEntity
  8
2
100
AcDbLine
 10
-253.684481
 20
-190.866002
 30
0.0
 11
-253.684481
 21
-198.419157
 31
0.0
  0
LINE
  5
2AC
100
AcDbEntity
  8
2
100
AcDbLine
 10
-251.684481
 20
-190.866002
 30
0.0
 11
-251.684481
 21
-198.419157
 31
0.0
  0
LINE
  5
2AD
100
AcDbEntity
  8
2
 62
     2
100
AcDbLine
 10
-251.384481
 20
-190.801831
 30
0.0
 11
-251.384481
 21
-198.392512
 31
0.0
  0
CIRCLE
  5
2AE
100
AcDbEntity
  8
2
100
AcDbCircle
 10
-252.684481
 20
-185.457675
 30
0.0
 40
4.4
  0
LINE
  5
2AF
100
AcDbEntity
  8
2
 62
     2
100
AcDbLine
 10
-251.384481
 20
-189.661245
 30
0.0
 11
-251.384481
 21
-181.254105
 31
0.0
  0
LINE
  5
2B0
100
AcDbEntity
  8
2
100
AcDbLine
 10
-251.684481
 20
-189.742532
 30
0.0
 11
-251.684481
 21
-181.172818
 31
0.0
  0
LINE
  5
2B1
100
AcDbEntity
  8
2
100
AcDbLine
 10
-253.684481
 20
-189.742532
 30
0.0
 11
-253.684481
 21
-181.172818
 31
0.0
  0
LINE
  5
2B2
100
AcDbEntity
  8
2
 62
     2
100
AcDbLine
 10
-253.984481
 20
-189.661245
 30
0.0
 11
-253.984481
 21
-181.254105
 31
0.0
  0
ARC
  5
2B3
100
AcDbEntity
  8
2
 62
     2
100
AcDbCircle
 10
-252.684481
 20
-185.457675
 30
0.0
 40
3.9
100
AcDbArc
 50
109.471221
 51
250.528779
  0
ARC
  5
2B4
100
AcDbEntity
  8
2
 62
     2
100
AcDbCircle
 10
-252.684481
 20
-185.457675
 30
0.0
 40
3.9
100
AcDbArc
 50
289.471221
 51
70.528779
  0
ARC
  5
2B5
100
AcDbEntity
  8
2
100
AcDbCircle
 10
-67.831667
 20
-185.457675
 30
0.0
 40
23.0
100
AcDbArc
 50
175.705707
 51
94.294293
  0
ARC
  5
2B6
100
AcDbEntity
  8
2
100
AcDbCircle
 10
-252.684481
 20
-185.457675
 30
0.0
 40
23.0
100
AcDbArc
 50
85.705707
 51
4.294293
  0
LINE
  5
2B7
100
AcDbEntity
  8
2
100
AcDbLine
 10
-193.759185
 20
159.291081
 30
0.0
 11
-195.509185
 21
160.291081
 31
0.0
  0
LINE
  5
2B8
100
AcDbEntity
  8
2
 62
     2
100
AcDbLine
 10
-59.573221
 20
223.491333
 30
0.0
 11
-59.573221
 21
206.491333
 31
0.0
  0
LINE
  5
2B9
100
AcDbEntity
  8
2
100
AcDbLine
 10
-60.735221
 20
194.491333
 30
0.0
 11
-59.573221
 21
196.503976
 31
0.0
  0
LINE
  5
2BA
100
AcDbEntity
  8
2
100
AcDbLine
 10
-124.257721
 20
187.491333
 30
0.0
 11
-73.917976
 21
187.491333
 31
0.0
  0
LINE
  5
2BB
100
AcDbEntity
  8
2
100
AcDbLine
 10
-39.780221
 20
194.491333
 30
0.0
 11
-40.942221
 21
196.503976
 31
0.0
  0
LINE
  5
2BC
100
AcDbEntity
  8
2
 62
     2
100
AcDbLine
 10
-40.942221
 20
223.491333
 30
0.0
 11
-40.942221
 21
206.491333
 31
0.0
  0
LINE
  5
2BD
100
AcDbEntity
  8
2
100
AcDbLine
 10
-59.573221
 20
223.491333
 30
0.0
 11
-40.942221
 21
223.491333
 31
0.0
  0
LINE
  5
2BE
100
AcDbEntity
  8
2
100
AcDbLine
 10
-59.573221
 20
223.491333
 30
0.0
 11
-60.735221
 21
222.329333
 31
0.0
  0
LINE
  5
2BF
100
AcDbEntity
  8
2
100
AcDbLine
 10
-40.942221
 20
223.491333
 30
0.0
 11
-39.780221
 21
222.329333
 31
0.0
  0
LINE
  5
2C0
100
AcDbEntity
  8
2
100
AcDbLine
 10
-62.857721
 20
172.791333
 30
0.0
 11
-66.257721
 21
172.791333
 31
0.0
  0
LINE
  5
2C1
100
AcDbEntity
  8
2
  6
CENTER
 62
     2
100
AcDbLine
 10
-50.257721
 20
226.383778
 30
0.0
 11
-50.257721
 21
158.590443
 31
0.0
  0
LINE
  5
2C2
100
AcDbEntity
  8
2
100
AcDbLine
 10
-35.257721
 20
193.491333
 30
0.0
 11
-35.257721
 21
172.791333
 31
0.0
  0
LINE
  5
2C3
100
AcDbEntity
  8
2
100
AcDbLine
 10
-66.257721
 20
172.791333
 30
0.0
 11
-66.257721
 21
172.291333
 31
0.0
  0
LINE
  5
2C4
100
AcDbEntity
  8
2
100
AcDbLine
 10
-35.257721
 20
193.491333
 30
0.0
 11
-36.257721
 21
194.491333
 31
0.0
  0
LINE
  5
2C5
100
AcDbEntity
  8
2
100
AcDbLine
 10
-66.257721
 20
172.291333
 30
0.0
 11
-75.257721
 21
172.291333
 31
0.0
  0
LINE
  5
2C6
100
AcDbEntity
  8
2
100
AcDbLine
 10
-75.257721
 20
172.291333
 30
0.0
 11
-97.057721
 21
172.291333
 31
0.0
  0
LINE
  5
2C7
100
AcDbEntity
  8
2
100
AcDbLine
 10
-65.257721
 20
193.491333
 30
0.0
 11
-64.257721
 21
194.491333
 31
0.0
  0
LINE
  5
2C8
100
AcDbEntity
  8
2
100
AcDbLine
 10
-60.735221
 20
194.491333
 30
0.0
 11
-64.257721
 21
194.491333
 31
0.0
  0
LINE
  5
2C9
100
AcDbEntity
  8
2
100
AcDbLine
 10
-39.780221
 20
194.491333
 30
0.0
 11
-36.257721
 21
194.491333
 31
0.0
  0
ARC
  5
2CA
100
AcDbEntity
  8
2
100
AcDbCircle
 10
-74.422873
 20
197.491333
 30
0.0
 40
10.0
100
AcDbArc
 50
270.0
 51
336.421822
  0
LINE
  5
2CB
100
AcDbEntity
  8
2
100
AcDbLine
 10
-51.307721
 20
167.591333
 30
0.0
 11
-63.257721
 21
167.591333
 31
0.0
  0
LINE
  5
2CC
100
AcDbEntity
  8
2
100
AcDbLine
 10
-65.757721
 20
170.091333
 30
0.0
 11
-65.757721
 21
172.291333
 31
0.0
  0
LINE
  5
2CD
100
AcDbEntity
  8
2
100
AcDbLine
 10
-50.257721
 20
172.791333
 30
0.0
 11
-65.257721
 21
172.791333
 31
0.0
  0
LINE
  5
2CE
100
AcDbEntity
  8
2
100
AcDbLine
 10
-63.257721
 20
167.591333
 30
0.0
 11
-65.757721
 21
170.091333
 31
0.0
  0
LINE
  5
2CF
100
AcDbEntity
  8
2
100
AcDbLine
 10
-34.757721
 20
170.091333
 30
0.0
 11
-34.757721
 21
172.291333
 31
0.0
  0
LINE
  5
2D0
100
AcDbEntity
  8
2
100
AcDbLine
 10
-50.257721
 20
172.791333
 30
0.0
 11
-35.257721
 21
172.791333
 31
0.0
  0
LINE
  5
2D1
100
AcDbEntity
  8
2
100
AcDbLine
 10
-34.757721
 20
172.291333
 30
0.0
 11
-35.257721
 21
172.791333
 31
0.0
  0
LINE
  5
2D2
100
AcDbEntity
  8
2
100
AcDbLine
 10
-65.257721
 20
172.791333
 30
0.0
 11
-65.757721
 21
172.291333
 31
0.0
  0
LINE
  5
2D3
100
AcDbEntity
  8
2
100
AcDbLine
 10
-34.757721
 20
170.091333
 30
0.0
 11
-37.257721
 21
167.591333
 31
0.0
  0
LINE
  5
2D4
100
AcDbEntity
  8
2
100
AcDbLine
 10
-37.257721
 20
167.591333
 30
0.0
 11
-49.207721
 21
167.591333
 31
0.0
  0
LINE
  5
2D5
100
AcDbEntity
  8
2
100
AcDbLine
 10
-49.507721
 20
167.891333
 30
0.0
 11
-49.507721
 21
169.091333
 31
0.0
  0
LINE
  5
2D6
100
AcDbEntity
  8
2
100
AcDbLine
 10
-49.207721
 20
167.591333
 30
0.0
 11
-49.507721
 21
167.891333
 31
0.0
  0
LINE
  5
2D7
100
AcDbEntity
  8
2
100
AcDbLine
 10
-49.507721
 20
169.091333
 30
0.0
 11
-50.257721
 21
169.091333
 31
0.0
  0
LINE
  5
2D8
100
AcDbEntity
  8
2
100
AcDbLine
 10
-51.007721
 20
169.091333
 30
0.0
 11
-50.257721
 21
169.091333
 31
0.0
  0
LINE
  5
2D9
100
AcDbEntity
  8
2
100
AcDbLine
 10
-51.007721
 20
167.891333
 30
0.0
 11
-51.007721
 21
169.091333
 31
0.0
  0
LINE
  5
2DA
100
AcDbEntity
  8
2
100
AcDbLine
 10
-51.307721
 20
167.591333
 30
0.0
 11
-51.007721
 21
167.891333
 31
0.0
  0
LINE
  5
2DB
100
AcDbEntity
  8
2
 62
     2
100
AcDbLine
 10
-65.757721
 20
170.091333
 30
0.0
 11
-34.757721
 21
170.091333
 31
0.0
  0
LINE
  5
2DC
100
AcDbEntity
  8
2
 62
     2
100
AcDbLine
 10
-34.757721
 20
172.291333
 30
0.0
 11
-65.757721
 21
172.291333
 31
0.0
  0
LINE
  5
2DD
100
AcDbEntity
  8
2
 62
     2
100
AcDbLine
 10
-60.735221
 20
222.329333
 30
0.0
 11
-39.780221
 21
222.329333
 31
0.0
  0
LINE
  5
2DE
100
AcDbEntity
  8
2
100
AcDbLine
 10
-40.942221
 20
196.503976
 30
0.0
 11
-59.573221
 21
196.503976
 31
0.0
  0
LINE
  5
2DF
100
AcDbEntity
  8
2
100
AcDbLine
 10
-60.735221
 20
194.491333
 30
0.0
 11
-39.780221
 21
194.491333
 31
0.0
  0
LINE
  5
2E0
100
AcDbEntity
  8
2
100
AcDbLine
 10
-124.257721
 20
187.491333
 30
0.0
 11
-73.917976
 21
187.491333
 31
0.0
  0
LINE
  5
2E1
100
AcDbEntity
  8
2
100
AcDbLine
 10
-125.257721
 20
172.291333
 30
0.0
 11
-125.257721
 21
186.491333
 31
0.0
  0
ARC
  5
2E2
100
AcDbEntity
  8
2
100
AcDbCircle
 10
-124.257721
 20
186.491333
 30
0.0
 40
1.0
100
AcDbArc
 50
90.0
 51
180.0
  0
LINE
  5
2E3
100
AcDbEntity
  8
2
100
AcDbLine
 10
-97.057721
 20
172.291333
 30
0.0
 11
-123.457721
 21
172.291333
 31
0.0
  0
LINE
  5
2E4
100
AcDbEntity
  8
2
100
AcDbLine
 10
-97.057721
 20
160.291081
 30
0.0
 11
-97.057721
 21
172.291333
 31
0.0
  0
LINE
  5
2E5
100
AcDbEntity
  8
2
 62
     2
100
AcDbLine
 10
-98.157721
 20
160.291081
 30
0.0
 11
-98.157721
 21
162.791333
 31
0.0
  0
LINE
  5
2E6
100
AcDbEntity
  8
2
100
AcDbLine
 10
-98.157721
 20
162.791333
 30
0.0
 11
-97.057721
 21
164.696589
 31
0.0
  0
LINE
  5
2E7
100
AcDbEntity
  8
2
100
AcDbLine
 10
-123.457721
 20
160.291081
 30
0.0
 11
-123.457721
 21
172.291333
 31
0.0
  0
LINE
  5
2E8
100
AcDbEntity
  8
2
100
AcDbLine
 10
-122.357721
 20
162.791333
 30
0.0
 11
-123.457721
 21
164.696589
 31
0.0
  0
LINE
  5
2E9
100
AcDbEntity
  8
2
 62
     2
100
AcDbLine
 10
-122.357721
 20
160.291081
 30
0.0
 11
-122.357721
 21
162.791333
 31
0.0
  0
LINE
  5
2EA
100
AcDbEntity
  8
2
100
AcDbLine
 10
-125.257721
 20
172.291333
 30
0.0
 11
-125.257721
 21
186.491333
 31
0.0
  0
LINE
  5
2EB
100
AcDbEntity
  8
2
100
AcDbLine
 10
-123.457721
 20
172.291333
 30
0.0
 11
-125.257721
 21
172.291333
 31
0.0
  0
LINE
  5
2EC
100
AcDbEntity
  8
2
100
AcDbLine
 10
-75.257721
 20
172.291333
 30
0.0
 11
-97.057721
 21
172.291333
 31
0.0
  0
LINE
  5
2ED
100
AcDbEntity
  8
2
100
AcDbLine
 10
-97.057721
 20
172.291333
 30
0.0
 11
-123.457721
 21
172.291333
 31
0.0
  0
LINE
  5
2EE
100
AcDbEntity
  8
2
 62
     2
100
AcDbLine
 10
-98.157721
 20
162.791333
 30
0.0
 11
-122.357721
 21
162.791333
 31
0.0
  0
LINE
  5
2EF
100
AcDbEntity
  8
2
 62
     2
100
AcDbLine
 10
-123.457721
 20
164.696589
 30
0.0
 11
-97.057721
 21
164.696589
 31
0.0
  0
LINE
  5
2F0
100
AcDbEntity
  8
2
100
AcDbLine
 10
-73.257721
 20
206.491333
 30
0.0
 11
-27.257721
 21
206.491333
 31
0.0
  0
ARC
  5
2F1
100
AcDbEntity
  8
2
100
AcDbCircle
 10
-36.757721
 20
198.491333
 30
0.0
 40
2.0
100
AcDbArc
 50
270.0
 51
294.670512
  0
LINE
  5
2F2
100
AcDbEntity
  8
2
100
AcDbLine
 10
-27.840322
 20
202.22373
 30
0.0
 11
-35.922923
 21
196.673887
 31
0.0
  0
LINE
  5
2F3
100
AcDbEntity
  8
2
100
AcDbLine
 10
-72.675121
 20
202.22373
 30
0.0
 11
-64.838211
 21
196.842588
 31
0.0
  0
LINE
  5
2F4
100
AcDbEntity
  8
2
100
AcDbLine
 10
-73.257721
 20
203.132453
 30
0.0
 11
-73.257721
 21
206.491333
 31
0.0
  0
LINE
  5
2F5
100
AcDbEntity
  8
2
100
AcDbLine
 10
-72.675121
 20
202.22373
 30
0.0
 11
-64.59252
 21
196.673887
 31
0.0
  0
ARC
  5
2F6
100
AcDbEntity
  8
2
100
AcDbCircle
 10
-72.257721
 20
203.132453
 30
0.0
 40
1.0
100
AcDbArc
 50
180.0
 51
245.329488
  0
LINE
  5
2F7
100
AcDbEntity
  8
2
100
AcDbLine
 10
-63.706116
 20
196.491333
 30
0.0
 11
-36.757721
 21
196.491333
 31
0.0
  0
LINE
  5
2F8
100
AcDbEntity
  8
2
 62
     2
100
AcDbLine
 10
-72.51844
 20
202.623767
 30
0.0
 11
-28.097831
 21
202.623767
 31
0.0
  0
ARC
  5
2F9
100
AcDbEntity
  8
2
100
AcDbCircle
 10
-63.706116
 20
198.491333
 30
0.0
 40
2.0
100
AcDbArc
 50
235.52492
 51
270.0
  0
LINE
  5
2FA
100
AcDbEntity
  8
2
100
AcDbLine
 10
-60.735221
 20
194.491333
 30
0.0
 11
-60.735221
 21
196.491333
 31
0.0
  0
LINE
  5
2FB
100
AcDbEntity
  8
2
100
AcDbLine
 10
-60.735221
 20
206.491333
 30
0.0
 11
-60.735221
 21
222.329333
 31
0.0
  0
LINE
  5
2FC
100
AcDbEntity
  8
2
100
AcDbLine
 10
-39.780221
 20
194.491333
 30
0.0
 11
-39.780221
 21
196.491333
 31
0.0
  0
LINE
  5
2FD
100
AcDbEntity
  8
2
100
AcDbLine
 10
-39.780221
 20
206.491333
 30
0.0
 11
-39.780221
 21
222.329333
 31
0.0
  0
LINE
  5
2FE
100
AcDbEntity
  8
2
 62
     2
100
AcDbLine
 10
-260.942926
 20
223.491333
 30
0.0
 11
-260.942926
 21
206.491333
 31
0.0
  0
LINE
  5
2FF
100
AcDbEntity
  8
2
100
AcDbLine
 10
-259.780926
 20
194.491333
 30
0.0
 11
-260.942926
 21
196.503976
 31
0.0
  0
LINE
  5
300
100
AcDbEntity
  8
2
100
AcDbLine
 10
-196.258426
 20
187.491333
 30
0.0
 11
-246.598172
 21
187.491333
 31
0.0
  0
LINE
  5
301
100
AcDbEntity
  8
2
100
AcDbLine
 10
-280.735926
 20
194.491333
 30
0.0
 11
-279.573926
 21
196.503976
 31
0.0
  0
LINE
  5
302
100
AcDbEntity
  8
2
 62
     2
100
AcDbLine
 10
-279.573926
 20
223.491333
 30
0.0
 11
-279.573926
 21
206.491333
 31
0.0
  0
LINE
  5
303
100
AcDbEntity
  8
2
100
AcDbLine
 10
-260.942926
 20
223.491333
 30
0.0
 11
-279.573926
 21
223.491333
 31
0.0
  0
LINE
  5
304
100
AcDbEntity
  8
2
100
AcDbLine
 10
-260.942926
 20
223.491333
 30
0.0
 11
-259.780926
 21
222.329333
 31
0.0
  0
LINE
  5
305
100
AcDbEntity
  8
2
100
AcDbLine
 10
-279.573926
 20
223.491333
 30
0.0
 11
-280.735926
 21
222.329333
 31
0.0
  0
LINE
  5
306
100
AcDbEntity
  8
2
100
AcDbLine
 10
-257.658426
 20
172.791333
 30
0.0
 11
-254.258426
 21
172.791333
 31
0.0
  0
LINE
  5
307
100
AcDbEntity
  8
2
  6
CENTER
 62
     2
100
AcDbLine
 10
-270.258426
 20
226.383778
 30
0.0
 11
-270.258426
 21
158.590443
 31
0.0
  0
LINE
  5
308
100
AcDbEntity
  8
2
100
AcDbLine
 10
-285.258426
 20
193.491333
 30
0.0
 11
-285.258426
 21
172.791333
 31
0.0
  0
LINE
  5
309
100
AcDbEntity
  8
2
100
AcDbLine
 10
-254.258426
 20
172.791333
 30
0.0
 11
-254.258426
 21
172.291333
 31
0.0
  0
LINE
  5
30A
100
AcDbEntity
  8
2
100
AcDbLine
 10
-285.258426
 20
193.491333
 30
0.0
 11
-284.258426
 21
194.491333
 31
0.0
  0
LINE
  5
30B
100
AcDbEntity
  8
2
100
AcDbLine
 10
-254.258426
 20
172.291333
 30
0.0
 11
-245.258426
 21
172.291333
 31
0.0
  0
LINE
  5
30C
100
AcDbEntity
  8
2
100
AcDbLine
 10
-245.258426
 20
172.291333
 30
0.0
 11
-223.458426
 21
172.291333
 31
0.0
  0
LINE
  5
30D
100
AcDbEntity
  8
2
100
AcDbLine
 10
-255.258426
 20
193.491333
 30
0.0
 11
-256.258426
 21
194.491333
 31
0.0
  0
LINE
  5
30E
100
AcDbEntity
  8
2
100
AcDbLine
 10
-259.780926
 20
194.491333
 30
0.0
 11
-256.258426
 21
194.491333
 31
0.0
  0
LINE
  5
30F
100
AcDbEntity
  8
2
100
AcDbLine
 10
-280.735926
 20
194.491333
 30
0.0
 11
-284.258426
 21
194.491333
 31
0.0
  0
ARC
  5
310
100
AcDbEntity
  8
2
100
AcDbCircle
 10
-246.093274
 20
197.491333
 30
0.0
 40
10.0
100
AcDbArc
 50
203.578178
 51
270.0
  0
LINE
  5
311
100
AcDbEntity
  8
2
100
AcDbLine
 10
-269.208426
 20
167.591333
 30
0.0
 11
-257.258426
 21
167.591333
 31
0.0
  0
LINE
  5
312
100
AcDbEntity
  8
2
100
AcDbLine
 10
-254.758426
 20
170.091333
 30
0.0
 11
-254.758426
 21
172.291333
 31
0.0
  0
LINE
  5
313
100
AcDbEntity
  8
2
100
AcDbLine
 10
-270.258426
 20
172.791333
 30
0.0
 11
-255.258426
 21
172.791333
 31
0.0
  0
LINE
  5
314
100
AcDbEntity
  8
2
100
AcDbLine
 10
-257.258426
 20
167.591333
 30
0.0
 11
-254.758426
 21
170.091333
 31
0.0
  0
LINE
  5
315
100
AcDbEntity
  8
2
100
AcDbLine
 10
-285.758426
 20
170.091333
 30
0.0
 11
-285.758426
 21
172.291333
 31
0.0
  0
LINE
  5
316
100
AcDbEntity
  8
2
100
AcDbLine
 10
-270.258426
 20
172.791333
 30
0.0
 11
-285.258426
 21
172.791333
 31
0.0
  0
LINE
  5
317
100
AcDbEntity
  8
2
100
AcDbLine
 10
-285.758426
 20
172.291333
 30
0.0
 11
-285.258426
 21
172.791333
 31
0.0
  0
LINE
  5
318
100
AcDbEntity
  8
2
100
AcDbLine
 10
-255.258426
 20
172.791333
 30
0.0
 11
-254.758426
 21
172.291333
 31
0.0
  0
LINE
  5
319
100
AcDbEntity
  8
2
100
AcDbLine
 10
-285.758426
 20
170.091333
 30
0.0
 11
-283.258426
 21
167.591333
 31
0.0
  0
LINE
  5
31A
100
AcDbEntity
  8
2
100
AcDbLine
 10
-283.258426
 20
167.591333
 30
0.0
 11
-271.308426
 21
167.591333
 31
0.0
  0
LINE
  5
31B
100
AcDbEntity
  8
2
100
AcDbLine
 10
-271.008426
 20
167.891333
 30
0.0
 11
-271.008426
 21
169.091333
 31
0.0
  0
LINE
  5
31C
100
AcDbEntity
  8
2
100
AcDbLine
 10
-271.308426
 20
167.591333
 30
0.0
 11
-271.008426
 21
167.891333
 31
0.0
  0
LINE
  5
31D
100
AcDbEntity
  8
2
100
AcDbLine
 10
-271.008426
 20
169.091333
 30
0.0
 11
-270.258426
 21
169.091333
 31
0.0
  0
LINE
  5
31E
100
AcDbEntity
  8
2
100
AcDbLine
 10
-269.508426
 20
169.091333
 30
0.0
 11
-270.258426
 21
169.091333
 31
0.0
  0
LINE
  5
31F
100
AcDbEntity
  8
2
100
AcDbLine
 10
-269.508426
 20
167.891333
 30
0.0
 11
-269.508426
 21
169.091333
 31
0.0
  0
LINE
  5
320
100
AcDbEntity
  8
2
100
AcDbLine
 10
-269.208426
 20
167.591333
 30
0.0
 11
-269.508426
 21
167.891333
 31
0.0
  0
LINE
  5
321
100
AcDbEntity
  8
2
 62
     2
100
AcDbLine
 10
-254.758426
 20
170.091333
 30
0.0
 11
-285.758426
 21
170.091333
 31
0.0
  0
LINE
  5
322
100
AcDbEntity
  8
2
 62
     2
100
AcDbLine
 10
-285.758426
 20
172.291333
 30
0.0
 11
-254.758426
 21
172.291333
 31
0.0
  0
LINE
  5
323
100
AcDbEntity
  8
2
 62
     2
100
AcDbLine
 10
-259.780926
 20
222.329333
 30
0.0
 11
-280.735926
 21
222.329333
 31
0.0
  0
LINE
  5
324
100
AcDbEntity
  8
2
100
AcDbLine
 10
-279.573926
 20
196.503976
 30
0.0
 11
-260.942926
 21
196.503976
 31
0.0
  0
LINE
  5
325
100
AcDbEntity
  8
2
100
AcDbLine
 10
-259.780926
 20
194.491333
 30
0.0
 11
-280.735926
 21
194.491333
 31
0.0
  0
LINE
  5
326
100
AcDbEntity
  8
2
100
AcDbLine
 10
-196.258426
 20
187.491333
 30
0.0
 11
-246.598172
 21
187.491333
 31
0.0
  0
LINE
  5
327
100
AcDbEntity
  8
2
100
AcDbLine
 10
-195.258426
 20
172.291333
 30
0.0
 11
-195.258426
 21
186.491333
 31
0.0
  0
ARC
  5
328
100
AcDbEntity
  8
2
100
AcDbCircle
 10
-196.258426
 20
186.491333
 30
0.0
 40
1.0
100
AcDbArc
 50
0.0
 51
90.0
  0
LINE
  5
329
100
AcDbEntity
  8
2
100
AcDbLine
 10
-223.458426
 20
172.291333
 30
0.0
 11
-197.058426
 21
172.291333
 31
0.0
  0
LINE
  5
32A
100
AcDbEntity
  8
2
100
AcDbLine
 10
-223.458426
 20
160.291081
 30
0.0
 11
-223.458426
 21
172.291333
 31
0.0
  0
LINE
  5
32B
100
AcDbEntity
  8
2
 62
     2
100
AcDbLine
 10
-222.358426
 20
160.291081
 30
0.0
 11
-222.358426
 21
162.791333
 31
0.0
  0
LINE
  5
32C
100
AcDbEntity
  8
2
100
AcDbLine
 10
-222.358426
 20
162.791333
 30
0.0
 11
-223.458426
 21
164.696589
 31
0.0
  0
LINE
  5
32D
100
AcDbEntity
  8
2
100
AcDbLine
 10
-197.058426
 20
160.291081
 30
0.0
 11
-197.058426
 21
172.291333
 31
0.0
  0
LINE
  5
32E
100
AcDbEntity
  8
2
100
AcDbLine
 10
-198.158426
 20
162.791333
 30
0.0
 11
-197.058426
 21
164.696589
 31
0.0
  0
LINE
  5
32F
100
AcDbEntity
  8
2
 62
     2
100
AcDbLine
 10
-198.158426
 20
160.291081
 30
0.0
 11
-198.158426
 21
162.791333
 31
0.0
  0
LINE
  5
330
100
AcDbEntity
  8
2
100
AcDbLine
 10
-195.258426
 20
172.291333
 30
0.0
 11
-195.258426
 21
186.491333
 31
0.0
  0
LINE
  5
331
100
AcDbEntity
  8
2
100
AcDbLine
 10
-197.058426
 20
172.291333
 30
0.0
 11
-195.258426
 21
172.291333
 31
0.0
  0
LINE
  5
332
100
AcDbEntity
  8
2
100
AcDbLine
 10
-245.258426
 20
172.291333
 30
0.0
 11
-223.458426
 21
172.291333
 31
0.0
  0
LINE
  5
333
100
AcDbEntity
  8
2
100
AcDbLine
 10
-223.458426
 20
172.291333
 30
0.0
 11
-197.058426
 21
172.291333
 31
0.0
  0
LINE
  5
334
100
AcDbEntity
  8
2
 62
     2
100
AcDbLine
 10
-222.358426
 20
162.791333
 30
0.0
 11
-198.158426
 21
162.791333
 31
0.0
  0
LINE
  5
335
100
AcDbEntity
  8
2
 62
     2
100
AcDbLine
 10
-197.058426
 20
164.696589
 30
0.0
 11
-223.458426
 21
164.696589
 31
0.0
  0
LINE
  5
336
100
AcDbEntity
  8
2
100
AcDbLine
 10
-293.258426
 20
206.491333
 30
0.0
 11
-293.258426
 21
203.132453
 31
0.0
  0
LINE
  5
337
100
AcDbEntity
  8
2
100
AcDbLine
 10
-247.258426
 20
206.491333
 30
0.0
 11
-293.258426
 21
206.491333
 31
0.0
  0
ARC
  5
338
100
AcDbEntity
  8
2
100
AcDbCircle
 10
-283.758426
 20
198.491333
 30
0.0
 40
2.0
100
AcDbArc
 50
245.329488
 51
270.0
  0
LINE
  5
339
100
AcDbEntity
  8
2
100
AcDbLine
 10
-292.675825
 20
202.22373
 30
0.0
 11
-284.593225
 21
196.673887
 31
0.0
  0
LINE
  5
33A
100
AcDbEntity
  8
2
100
AcDbLine
 10
-247.841026
 20
202.22373
 30
0.0
 11
-255.677936
 21
196.842588
 31
0.0
  0
ARC
  5
33B
100
AcDbEntity
  8
2
100
AcDbCircle
 10
-292.258426
 20
203.132453
 30
0.0
 40
1.0
100
AcDbArc
 50
180.0
 51
245.329488
  0
LINE
  5
33C
100
AcDbEntity
  8
2
100
AcDbLine
 10
-247.258426
 20
203.132453
 30
0.0
 11
-247.258426
 21
206.491333
 31
0.0
  0
LINE
  5
33D
100
AcDbEntity
  8
2
100
AcDbLine
 10
-247.841026
 20
202.22373
 30
0.0
 11
-255.923627
 21
196.673887
 31
0.0
  0
ARC
  5
33E
100
AcDbEntity
  8
2
100
AcDbCircle
 10
-248.258426
 20
203.132453
 30
0.0
 40
1.0
100
AcDbArc
 50
294.670512
 51
0.0
  0
LINE
  5
33F
100
AcDbEntity
  8
2
100
AcDbLine
 10
-256.810032
 20
196.491333
 30
0.0
 11
-283.758426
 21
196.491333
 31
0.0
  0
LINE
  5
340
100
AcDbEntity
  8
2
 62
     2
100
AcDbLine
 10
-247.997707
 20
202.623767
 30
0.0
 11
-292.418316
 21
202.623767
 31
0.0
  0
ARC
  5
341
100
AcDbEntity
  8
2
100
AcDbCircle
 10
-256.810032
 20
198.491333
 30
0.0
 40
2.0
100
AcDbArc
 50
270.0
 51
304.47508
  0
LINE
  5
342
100
AcDbEntity
  8
2
100
AcDbLine
 10
-259.780926
 20
194.491333
 30
0.0
 11
-259.780926
 21
196.491333
 31
0.0
  0
LINE
  5
343
100
AcDbEntity
  8
2
100
AcDbLine
 10
-259.780926
 20
206.491333
 30
0.0
 11
-259.780926
 21
222.329333
 31
0.0
  0
LINE
  5
344
100
AcDbEntity
  8
2
100
AcDbLine
 10
-280.735926
 20
194.491333
 30
0.0
 11
-280.735926
 21
196.491333
 31
0.0
  0
LINE
  5
345
100
AcDbEntity
  8
2
100
AcDbLine
 10
-280.735926
 20
206.491333
 30
0.0
 11
-280.735926
 21
222.329333
 31
0.0
  0
POINT
  5
346
100
AcDbEntity
  8
2
100
AcDbPoint
 10
-280.735926
 20
214.410333
 30
0.0
  0
POINT
  5
347
100
AcDbEntity
  8
2
100
AcDbPoint
 10
-95.25924
 20
185.791333
 30
0.0
  0
ARC
  5
348
100
AcDbEntity
  8
2
  6
DASHED
 62
     2
100
AcDbCircle
 10
166.074168
 20
142.769099
 30
0.0
 40
1.0
100
AcDbArc
 50
155.0
 51
250.0
  0
ARC
  5
349
100
AcDbEntity
  8
2
  6
DASHED
 62
     2
100
AcDbCircle
 10
169.891027
 20
134.99481
 30
0.0
 40
5.0
100
AcDbArc
 50
54.123693
 51
70.0
  0
ARC
  5
34A
100
AcDbEntity
  8
2
  6
DASHED
 62
     2
100
AcDbCircle
 10
26.000445
 20
-76.089474
 30
0.0
 40
264.583411
100
AcDbArc
 50
38.733524
 51
57.488657
  0
LINE
  5
34B
100
AcDbEntity
  8
2
  6
DASHED
 62
     2
100
AcDbLine
 10
165.16786
 20
143.191718
 30
0.0
 11
166.76141
 21
146.609096
 31
0.0
  0
LINE
  5
34C
100
AcDbEntity
  8
2
  6
DASHED
 62
     2
100
AcDbLine
 10
165.732147
 20
141.829407
 30
0.0
 11
171.601127
 21
139.693273
 31
0.0
  0
ARC
  5
34D
100
AcDbEntity
  8
2
  6
DASHED
 62
     2
100
AcDbCircle
 10
169.891027
 20
134.99481
 30
0.0
 40
5.0
100
AcDbArc
 50
54.123693
 51
70.0
  0
ARC
  5
34E
100
AcDbEntity
  8
2
  6
DASHED
 62
     2
100
AcDbCircle
 10
26.311878
 20
-63.524782
 30
0.0
 40
250.0
100
AcDbArc
 50
39.279919
 51
54.123693
  0
ARC
  5
34F
100
AcDbEntity
  8
2
  6
DASHED
 62
     2
100
AcDbCircle
 10
167.667717
 20
146.186478
 30
0.0
 40
1.0
100
AcDbArc
 50
57.488657
 51
155.0
  0
LINE
  5
350
100
AcDbEntity
  8
2
100
AcDbLine
 10
-27.257721
 20
203.132453
 30
0.0
 11
-27.257721
 21
206.491333
 31
0.0
  0
ARC
  5
351
100
AcDbEntity
  8
2
100
AcDbCircle
 10
-28.257721
 20
203.132453
 30
0.0
 40
1.0
100
AcDbArc
 50
294.670512
 51
0.0
  0
TEXT
  5
352
100
AcDbEntity
  8
3
100
AcDbText
 10
290.832582
 20
-240.013492
 30
0.0
 40
6.0
  1
１　２
 72
     5
 11
307.632582
 21
-240.013492
 31
0.0
100
AcDbText
  0
DIMENSION
  5
353
100
AcDbEntity
  8
3
 62
     2
100
AcDbDimension
  2
*D0
 10
-110.52544
 20
37.25159
 30
0.0
 11
-120.296624
 21
14.821762
 31
0.0
 70
     2
 71
     0
 72
     0
 41
0.0
 42
0.0
  3
Standard
100
AcDb2LineAngularDimension
 13
-160.258074
 23
23.925771
 33
0.0
 14
-160.258074
 24
123.391037
 34
0.0
 15
-160.258074
 25
123.391037
 35
0.0
 16
-130.180026
 26
11.138236
 36
0.0
1001
ACAD
1000
DSTYLE
1002
{
1070
   275
1070
     0
1070
   179
1070
     0
1002
}
  0
DIMENSION
  5
354
100
AcDbEntity
  8
3
 62
     2
100
AcDbDimension
  2
*D1
 10
-160.258074
 20
24.284271
 30
0.0
 11
-208.669841
 21
17.978313
 31
0.0
 70
     2
 71
     0
 72
     0
 41
0.0
 42
0.0
  3
Standard
100
AcDb2LineAngularDimension
 13
-247.544789
 23
72.434945
 33
0.0
 14
-160.258074
 24
122.829954
 34
0.0
 15
-160.258074
 25
122.829954
 35
0.0
 16
-218.263108
 26
22.362287
 36
0.0
1001
ACAD
1000
DSTYLE
1002
{
1070
   275
1070
     0
1070
   179
1070
     0
1002
}
  0
TEXT
  5
355
100
AcDbEntity
  8
3
100
AcDbText
 10
136.599862
 20
112.661096
 30
0.0
 40
7.0
  1
止水
 72
     5
 11
149.199862
 21
112.661096
 31
0.0
100
AcDbText
  0
TEXT
  5
356
100
AcDbEntity
  8
3
100
AcDbText
 10
173.630036
 20
146.179188
 30
0.0
 40
7.0
  1
吐水
 72
     5
 11
186.230036
 21
146.179188
 31
0.0
100
AcDbText
  0
TEXT
  5
357
100
AcDbEntity
  8
3
100
AcDbText
 10
21.639064
 20
64.303816
 30
0.0
 40
7.0
  1
１４６
 50
90.0
 72
     5
 11
21.639064
 21
83.903816
 31
0.0
100
AcDbText
  0
DIMENSION
  5
358
100
AcDbEntity
  8
3
 62
     2
100
AcDbDimension
  2
*D2
 10
22.639064
 20
147.640067
 30
0.0
 11
20.139064
 21
74.803816
 31
0.0
 71
     0
 72
     0
 41
0.0
 42
0.0
  3
Standard
100
AcDbAlignedDimension
 13
205.093704
 23
1.967566
 33
0.0
 14
167.242362
 24
147.640067
 34
0.0
 50
90.0
100
AcDbRotatedDimension
  0
DIMENSION
  5
359
100
AcDbEntity
  8
3
 62
     2
100
AcDbDimension
  2
*D3
 10
132.980325
 20
111.468235
 30
0.0
 11
125.797827
 21
148.608222
 31
0.0
 70
     2
 71
     0
 72
     0
 41
0.0
 42
0.0
  3
Standard
100
AcDb2LineAngularDimension
 13
198.678462
 23
132.981173
 33
0.0
 14
244.813107
 24
111.468235
 34
0.0
 15
244.813107
 25
111.468235
 35
0.0
 16
123.525211
 26
138.357114
 36
0.0
1001
ACAD
1000
DSTYLE
1002
{
1070
   275
1070
     0
1070
   179
1070
     0
1002
}
  0
TEXT
  5
35A
100
AcDbEntity
  8
3
100
AcDbText
 10
233.753326
 20
-272.129395
 30
0.0
 40
6.0
  1
外観寸法図
 72
     5
 11
262.553326
 21
-272.129395
 31
0.0
100
AcDbText
  0
DIMENSION
  5
35B
100
AcDbEntity
  8
3
 62
     2
100
AcDbDimension
  2
*D4
 10
230.402954
 20
-106.895004
 30
0.0
 11
145.403107
 21
-102.395004
 31
0.0
 71
     0
 72
     0
 41
0.0
 42
0.0
  3
Standard
100
AcDbAlignedDimension
 13
60.40326
 23
-54.9319
 33
0.0
 14
230.402954
 24
-28.0319
 34
0.0
100
AcDbRotatedDimension
  0
DIMENSION
  5
35C
100
AcDbEntity
  8
3
 62
     2
100
AcDbDimension
  2
*D5
 10
22.639064
 20
1.968732
 30
0.0
 11
14.639064
 21
-26.481584
 31
0.0
 71
     0
 72
     0
 41
0.0
 42
0.0
  3
Standard
100
AcDbAlignedDimension
 13
60.40326
 23
-54.9319
 33
0.0
 14
205.647019
 24
1.968732
 34
0.0
 50
90.0
100
AcDbRotatedDimension
  0
LINE
  5
35D
100
AcDbEntity
  8
3
  6
CENTER
 62
     2
100
AcDbLine
 10
-227.005978
 20
-53.936299
 30
0.0
 11
-227.005978
 21
-63.888802
 31
0.0
  0
LINE
  5
35E
100
AcDbEntity
  8
3
  6
CENTER
 62
     2
100
AcDbLine
 10
-232.549263
 20
-59.515194
 30
0.0
 11
-221.680411
 21
-59.515194
 31
0.0
  0
ARC
  5
35F
100
AcDbEntity
  8
3
100
AcDbCircle
 10
-227.005978
 20
-59.515194
 30
0.0
 40
4.8951
100
AcDbArc
 50
305.281262
 51
234.718738
  0
LINE
  5
360
100
AcDbEntity
  8
3
100
AcDbLine
 10
-229.833342
 20
-63.511194
 30
0.0
 11
-224.178614
 21
-63.511194
 31
0.0
  0
LINE
  5
361
100
AcDbEntity
  8
3
100
AcDbLine
 10
-228.453371
 20
-57.773418
 30
0.0
 11
-231.046106
 21
-59.254981
 31
0.0
  0
ARC
  5
362
100
AcDbEntity
  8
3
100
AcDbCircle
 10
-228.304678
 20
-58.033631
 30
0.0
 40
0.2997
100
AcDbArc
 50
0.0
 51
119.744881
  0
LINE
  5
363
100
AcDbEntity
  8
3
100
AcDbLine
 10
-228.004978
 20
-58.033631
 30
0.0
 11
-228.004978
 21
-60.996757
 31
0.0
  0
ARC
  5
364
100
AcDbEntity
  8
3
100
AcDbCircle
 10
-228.304678
 20
-60.996757
 30
0.0
 40
0.2997
100
AcDbArc
 50
240.255119
 51
360.0
  0
LINE
  5
365
100
AcDbEntity
  8
3
100
AcDbLine
 10
-228.453371
 20
-61.256969
 30
0.0
 11
-231.046106
 21
-59.775406
 31
0.0
  0
ARC
  5
366
100
AcDbEntity
  8
3
100
AcDbCircle
 10
-230.897414
 20
-59.515194
 30
0.0
 40
0.2997
100
AcDbArc
 50
119.744881
 51
240.255119
  0
ARC
  5
367
100
AcDbEntity
  8
3
100
AcDbCircle
 10
-225.707278
 20
-58.033631
 30
0.0
 40
0.2997
100
AcDbArc
 50
60.255119
 51
180.0
  0
LINE
  5
368
100
AcDbEntity
  8
3
100
AcDbLine
 10
-226.006978
 20
-58.033631
 30
0.0
 11
-226.006978
 21
-60.996757
 31
0.0
  0
LINE
  5
369
100
AcDbEntity
  8
3
100
AcDbLine
 10
-225.558585
 20
-57.773418
 30
0.0
 11
-222.96585
 21
-59.254981
 31
0.0
  0
ARC
  5
36A
100
AcDbEntity
  8
3
100
AcDbCircle
 10
-223.114543
 20
-59.515194
 30
0.0
 40
0.2997
100
AcDbArc
 50
299.744881
 51
60.255119
  0
LINE
  5
36B
100
AcDbEntity
  8
3
100
AcDbLine
 10
-225.558585
 20
-61.256969
 30
0.0
 11
-222.96585
 21
-59.775406
 31
0.0
  0
ARC
  5
36C
100
AcDbEntity
  8
3
100
AcDbCircle
 10
-225.707278
 20
-60.996757
 30
0.0
 40
0.2997
100
AcDbArc
 50
180.0
 51
299.744881
  0
LWPOLYLINE
  5
36D
100
AcDbEntity
  8
3
 62
     2
100
AcDbPolyline
 90
        3
 70
     0
 10
-225.04663
 20
-58.904558
 10
-219.563201
 20
-50.469415
 10
-184.954009
 20
-50.469415
  0
LWPOLYLINE
  5
372
100
AcDbEntity
  8
3
 62
     2
100
AcDbPolyline
 90
        3
 70
     0
 10
-228.965327
 20
-58.904558
 10
-234.448756
 20
-50.469415
 10
-268.325499
 20
-50.469415
  0
TEXT
  5
377
100
AcDbEntity
  8
3
100
AcDbText
 10
-217.913909
 20
-49.764268
 30
0.0
 40
7.0
  1
青色
 72
     5
 11
-205.313909
 21
-49.764268
 31
0.0
100
AcDbText
  0
TEXT
  5
378
100
AcDbEntity
  8
3
100
AcDbText
 10
-217.913909
 20
-57.764268
 30
0.0
 40
7.0
  1
（水表示）
 72
     5
 11
-184.313909
 21
-57.764268
 31
0.0
100
AcDbText
  0
TEXT
  5
379
100
AcDbEntity
  8
3
100
AcDbText
 10
-268.516539
 20
-57.850526
 30
0.0
 40
7.0
  1
（湯表示）
 72
     5
 11
-234.916539
 21
-57.850526
 31
0.0
100
AcDbText
  0
TEXT
  5
37A
100
AcDbEntity
  8
3
100
AcDbText
 10
-249.516539
 20
-49.850526
 30
0.0
 40
7.0
  1
赤色
 72
     5
 11
-236.916539
 21
-49.850526
 31
0.0
100
AcDbText
  0
LWPOLYLINE
  5
37B
100
AcDbEntity
  8
3
 62
     2
100
AcDbPolyline
 90
        2
 70
     0
 10
-163.386664
 20
-80.194845
 10
-224.100463
 20
-62.177568
  0
DIMENSION
  5
37F
100
AcDbEntity
  8
3
 62
     2
100
AcDbDimension
  2
*D6
 10
53.428577
 20
111.468235
 30
0.0
 11
41.928577
 21
53.218483
 31
0.0
 71
     0
 72
     0
 41
0.0
 42
0.0
  3
Standard
100
AcDbAlignedDimension
 13
205.647019
 23
1.968732
 33
0.0
 14
130.402954
 24
111.468235
 34
0.0
 50
90.0
100
AcDbRotatedDimension
  0
TEXT
  5
380
100
AcDbEntity
  8
3
100
AcDbText
 10
65.721176
 20
-227.630386
 30
0.0
 40
7.0
  1
壁付シングルレバー湯水混合水栓（共）
 72
     5
 11
190.321176
 21
-227.630386
 31
0.0
100
AcDbText
  0
TEXT
  5
381
100
AcDbEntity
  8
3
100
AcDbText
 10
259.20308
 20
-105.895004
 30
0.0
 40
7.0
  1
（８６）
 72
     5
 11
285.80308
 21
-105.895004
 31
0.0
100
AcDbText
  0
DIMENSION
  5
382
100
AcDbEntity
  8
3
 62
     2
100
AcDbDimension
  2
*D7
 10
316.003206
 20
-106.895004
 30
0.0
 11
273.20308
 21
-104.895004
 31
0.0
 71
     0
 72
     0
 41
0.0
 42
0.0
  3
Standard
100
AcDbAlignedDimension
 13
230.402954
 23
-28.0319
 33
0.0
 14
316.003206
 24
-81.031675
 34
0.0
100
AcDbRotatedDimension
  0
TEXT
  5
383
100
AcDbEntity
  8
3
100
AcDbText
 10
341.003206
 20
-105.895004
 30
0.0
 40
7.0
  1
（１７）
 72
     5
 11
367.603206
 21
-105.895004
 31
0.0
100
AcDbText
  0
DIMENSION
  5
384
100
AcDbEntity
  8
3
 62
     2
100
AcDbDimension
  2
*D8
 10
333.003206
 20
-106.895004
 30
0.0
 11
324.503206
 21
-104.895004
 31
0.0
 71
     0
 72
     0
 41
0.0
 42
0.0
  3
Standard
100
AcDbAlignedDimension
 13
316.003206
 23
-81.031675
 33
0.0
 14
333.003206
 24
-67.347175
 34
0.0
100
AcDbRotatedDimension
  0
TEXT
  5
385
100
AcDbEntity
  8
3
100
AcDbText
 10
-198.758074
 20
-262.05603
 30
0.0
 40
7.0
  1
１８５（ＭＡＸ２２０）
 72
     5
 11
-123.158074
 21
-262.05603
 31
0.0
100
AcDbText
  0
DIMENSION
  5
386
100
AcDbEntity
  8
3
 62
     2
100
AcDbDimension
  2
*D9
 10
-67.831667
 20
-263.05603
 30
0.0
 11
-160.258074
 21
-261.05603
 31
0.0
 71
     0
 72
     0
 41
0.0
 42
0.0
  3
Standard
100
AcDbAlignedDimension
 13
-252.684481
 23
-203.957675
 33
0.0
 14
-67.831667
 24
-203.957675
 34
0.0
100
AcDbRotatedDimension
  0
DIMENSION
  5
387
100
AcDbEntity
  8
3
 62
     2
100
AcDbDimension
  2
*D10
 10
-110.258481
 20
251.127769
 30
0.0
 11
-160.258074
 21
255.627769
 31
0.0
 71
     0
 72
     0
 41
0.0
 42
0.0
  3
Standard
100
AcDbAlignedDimension
 13
-210.257667
 23
160.291081
 33
0.0
 14
-110.258481
 24
160.291081
 34
0.0
100
AcDbRotatedDimension
  0
TEXT
  5
388
100
AcDbEntity
  8
3
100
AcDbText
 10
-342.877428
 20
227.717218
 30
0.0
 40
7.0
  1
ＰＪ１／２
 72
     5
 11
-309.277428
 21
227.717218
 31
0.0
100
AcDbText
  0
LWPOLYLINE
  5
389
100
AcDbEntity
  8
3
 62
     2
100
AcDbPolyline
 90
        3
 70
     0
 10
-280.735926
 20
214.410333
 10
-306.744279
 20
225.340982
 10
-343.828264
 20
225.340982
  0
LINE
  5
38E
100
AcDbEntity
  8
3
 62
     2
100
AcDbLine
 10
-284.297842
 20
215.907316
 30
0.0
 11
-284.698957
 21
214.952903
 31
0.0
  0
LINE
  5
38F
100
AcDbEntity
  8
3
 62
     2
100
AcDbLine
 10
-284.698957
 20
214.952903
 30
0.0
 11
-280.735926
 21
214.410333
 31
0.0
  0
LINE
  5
390
100
AcDbEntity
  8
3
 62
     2
100
AcDbLine
 10
-280.735926
 20
214.410333
 30
0.0
 11
-283.896727
 21
216.861728
 31
0.0
  0
LINE
  5
391
100
AcDbEntity
  8
3
 62
     2
100
AcDbLine
 10
-283.896727
 20
216.861728
 30
0.0
 11
-284.297842
 21
215.907316
 31
0.0
  0
DIMENSION
  5
392
100
AcDbEntity
  8
3
 62
     2
100
AcDbDimension
  2
*D11
 10
-50.257721
 20
251.127769
 30
0.0
 11
-80.257721
 21
255.627769
 31
0.0
 71
     0
 72
     0
 41
0.0
 42
0.0
  3
Standard
100
AcDbAlignedDimension
 13
-110.257721
 23
160.291081
 33
0.0
 14
-50.257721
 24
226.383778
 34
0.0
100
AcDbRotatedDimension
  0
DIMENSION
  5
393
100
AcDbEntity
  8
3
 62
     2
100
AcDbDimension
  2
*D12
 10
-247.258426
 20
251.636315
 30
0.0
 11
-270.258426
 21
256.136315
 31
0.0
 70
     1
 71
     0
 72
     0
 41
0.0
 42
0.0
  3
Standard
100
AcDbAlignedDimension
 13
-293.258426
 23
206.491333
 33
0.0
 14
-247.258426
 24
206.491333
 34
0.0
  0
TEXT
  5
394
100
AcDbEntity
  8
3
100
AcDbText
 10
336.982385
 20
-272.129395
 30
0.0
 40
6.0
  1
１１０２０９
 72
     5
 11
371.782385
 21
-272.129395
 31
0.0
100
AcDbText
  0
TEXT
  5
395
100
AcDbEntity
  8
3
100
AcDbText
 10
345.098131
 20
-256.100293
 30
0.0
 40
6.0
  1
１９　　９　２５
 72
     5
 11
391.898131
 21
-256.100293
 31
0.0
100
AcDbText
  0
TEXT
  5
396
100
AcDbEntity
  8
3
100
AcDbText
 10
64.863625
 20
-236.598251
 30
0.0
 40
7.0
  1
ＭＫ３１７ＭＭＥ
 72
     5
 11
119.463625
 21
-236.598251
 31
0.0
100
AcDbText
  0
LINE
  5
397
100
AcDbEntity
  8
5
 62
     3
100
AcDbLine
 10
161.482385
 20
218.028767
 30
0.0
 11
394.982385
 21
218.028767
 31
0.0
  0
LINE
  5
398
100
AcDbEntity
  8
5
 62
     2
100
AcDbLine
 10
161.482385
 20
233.028767
 30
0.0
 11
394.982385
 21
233.028767
 31
0.0
  0
LINE
  5
399
100
AcDbEntity
  8
5
 62
     2
100
AcDbLine
 10
161.482385
 20
248.028767
 30
0.0
 11
394.982385
 21
248.028767
 31
0.0
  0
LINE
  5
39A
100
AcDbEntity
  8
5
100
AcDbLine
 10
161.482385
 20
263.028767
 30
0.0
 11
394.982385
 21
263.028767
 31
0.0
  0
TEXT
  5
39B
100
AcDbEntity
  8
5
100
AcDbText
 10
165.052644
 20
265.950703
 30
0.0
 40
6.0
  1
記号
 72
     5
 11
175.852644
 21
265.950703
 31
0.0
100
AcDbText
  0
TEXT
  5
39C
100
AcDbEntity
  8
5
100
AcDbText
 10
316.856729
 20
265.859212
 30
0.0
 40
6.0
  1
訂 正 記 事
 72
     5
 11
357.656729
 21
265.859212
 31
0.0
100
AcDbText
  0
TEXT
  5
39D
100
AcDbEntity
  8
5
100
AcDbText
 10
380.887817
 20
265.835536
 30
0.0
 40
6.0
  1
印
 72
     5
 11
385.687817
 21
265.835536
 31
0.0
100
AcDbText
  0
LINE
  5
39E
100
AcDbEntity
  8
5
 62
     3
100
AcDbLine
 10
161.482385
 20
218.028767
 30
0.0
 11
161.482385
 21
275.028767
 31
0.0
  0
LINE
  5
39F
100
AcDbEntity
  8
5
 62
     2
100
AcDbLine
 10
180.482385
 20
218.028767
 30
0.0
 11
180.482385
 21
275.028767
 31
0.0
  0
LINE
  5
3A0
100
AcDbEntity
  8
5
 62
     2
100
AcDbLine
 10
372.982385
 20
218.028767
 30
0.0
 11
372.982385
 21
275.028767
 31
0.0
  0
LINE
  5
3A1
100
AcDbEntity
  8
5
 62
     2
100
AcDbLine
 10
302.982385
 20
218.028767
 30
0.0
 11
302.982385
 21
275.028767
 31
0.0
  0
LINE
  5
3A2
100
AcDbEntity
  8
5
100
AcDbLine
 10
232.982385
 20
218.028767
 30
0.0
 11
232.982385
 21
275.028767
 31
0.0
  0
TEXT
  5
3A3
100
AcDbEntity
  8
5
100
AcDbText
 10
246.91768
 20
265.924672
 30
0.0
 40
6.0
  1
変　更　理　由
 72
     5
 11
287.71768
 21
265.924672
 31
0.0
100
AcDbText
  0
TEXT
  5
3A4
100
AcDbEntity
  8
5
100
AcDbText
 10
194.793748
 20
266.40334
 30
0.0
 40
6.0
  1
日　　付
 72
     5
 11
217.593748
 21
266.40334
 31
0.0
100
AcDbText
  0
TEXT
  5
3A5
100
AcDbEntity
  8
5
100
AcDbText
 10
183.098131
 20
252.400355
 30
0.0
 40
6.0
  1
　　・　　・
 72
     5
 11
217.898131
 21
252.400355
 31
0.0
100
AcDbText
  0
TEXT
  5
3A6
100
AcDbEntity
  8
5
100
AcDbText
 10
183.098131
 20
237.400355
 30
0.0
 40
6.0
  1
　　・　　・
 72
     5
 11
217.898131
 21
237.400355
 31
0.0
100
AcDbText
  0
TEXT
  5
3A7
100
AcDbEntity
  8
5
100
AcDbText
 10
183.098131
 20
222.400355
 30
0.0
 40
6.0
  1
　　・　　・
 72
     5
 11
217.898131
 21
222.400355
 31
0.0
100
AcDbText
  0
ENDSEC
  0
SECTION
  2
OBJECTS
  0
DICTIONARY
  5
440
100
AcDbDictionary
280
     0
281
     1
  3
ACAD_GROUP
350
441
  3
ACAD_MLINESTYLE
350
442
  0
DICTIONARY
  5
441
102
{ACAD_REACTORS
330
440
102
}
100
AcDbDictionary
280
     0
281
     1
  0
DICTIONARY
  5
442
102
{ACAD_REACTORS
330
440
102
}
100
AcDbDictionary
280
     0
281
     1
  3
Standard
350
443
  0
MLINESTYLE
  5
443
102
{ACAD_REACTORS
330
442
102
}
100
AcDbMlineStyle
  2
Standard
 70
     0
  3

 62
     0
 51
90.0
 52
90.0
 71
     2
 49
0.5
 62
   256
  6
ByLayer
 49
-0.5
 62
   256
  6
ByLayer
  0
ENDSEC
  0
EOF
