  0
SECTION
  2
HEADER
  9
$ACADVER
  1
AC1015
  9
$ACADMAINTVER
 70
     6
  9
$DWGCODEPAGE
  3
ANSI_932
  9
$INSBASE
 10
0.0
 20
0.0
 30
0.0
  9
$EXTMIN
 10
-841.0
 20
-594.0
 30
1.000000E+20
  9
$EXTMAX
 10
841.0
 20
594.0
 30
-1.000000E+20
  9
$LIMMIN
 10
-841.0
 20
-594.0
  9
$LIMMAX
 10
841.0
 20
594.0
  9
$ORTHOMODE
 70
     0
  9
$REGENMODE
 70
     1
  9
$FILLMODE
 70
     1
  9
$QTEXTMODE
 70
     0
  9
$MIRRTEXT
 70
     1
  9
$LTSCALE
 40
1.0
  9
$ATTMODE
 70
     1
  9
$TEXTSIZE
 40
0.2
  9
$TRACEWID
 40
0.05
  9
$TEXTSTYLE
  7
STANDARD
  9
$CLAYER
  8
0
  9
$CELTYPE
  6
CONTINUOUS
  9
$CECOLOR
 62
   256
  9
$CELTSCALE
 40
1.0
  9
$DISPSILH
 70
     0
  9
$DIMSCALE
 40
2.0
  9
$DIMASZ
 40
2.0
  9
$DIMEXO
 40
1.0
  9
$DIMDLI
 40
0.38
  9
$DIMRND
 40
0.0
  9
$DIMDLE
 40
0.0
  9
$DIMEXE
 40
2.0
  9
$DIMTP
 40
0.0
  9
$DIMTM
 40
0.0
  9
$DIMTXT
 40
3.5
  9
$DIMCEN
 40
0.09
  9
$DIMTSZ
 40
0.0
  9
$DIMTOL
 70
     0
  9
$DIMLIM
 70
     0
  9
$DIMTIH
 70
     0
  9
$DIMTOH
 70
     0
  9
$DIMSE1
 70
     0
  9
$DIMSE2
 70
     0
  9
$DIMTAD
 70
     1
  9
$DIMZIN
 70
     0
  9
$DIMBLK
  1

  9
$DIMASO
 70
     1
  9
$DIMSHO
 70
     1
  9
$DIMPOST
  1

  9
$DIMAPOST
  1

  9
$DIMALT
 70
     0
  9
$DIMALTD
 70
     2
  9
$DIMALTF
 40
25.4
  9
$DIMLFAC
 40
1.0
  9
$DIMTOFL
 70
     0
  9
$DIMTVP
 40
0.0
  9
$DIMTIX
 70
     0
  9
$DIMSOXD
 70
     0
  9
$DIMSAH
 70
     0
  9
$DIMBLK1
  1

  9
$DIMBLK2
  1

  9
$DIMSTYLE
  2
Standard
  9
$DIMCLRD
 70
     0
  9
$DIMCLRE
 70
     0
  9
$DIMCLRT
 70
     0
  9
$DIMTFAC
 40
1.0
  9
$DIMGAP
 40
0.5
  9
$DIMJUST
 70
     0
  9
$DIMSD1
 70
     0
  9
$DIMSD2
 70
     0
  9
$DIMTOLJ
 70
     1
  9
$DIMTZIN
 70
     0
  9
$DIMALTZ
 70
     0
  9
$DIMALTTZ
 70
     0
  9
$DIMUPT
 70
     0
  9
$DIMDEC
 70
     3
  9
$DIMTDEC
 70
     4
  9
$DIMALTU
 70
     2
  9
$DIMALTTD
 70
     2
  9
$DIMTXSTY
  7
STANDARD
  9
$DIMAUNIT
 70
     0
  9
$DIMADEC
 70
     0
  9
$DIMALTRND
 40
0.0
  9
$DIMAZIN
 70
     0
  9
$DIMDSEP
 70
     0
  9
$DIMATFIT
 70
     3
  9
$DIMFRAC
 70
     0
  9
$DIMLDRBLK
  1

  9
$DIMLUNIT
 70
     2
  9
$DIMLWD
 70
     0
  9
$DIMLWE
 70
     0
  9
$DIMTMOVE
 70
     0
  9
$LUNITS
 70
     2
  9
$LUPREC
 70
     4
  9
$SKETCHINC
 40
0.1
  9
$FILLETRAD
 40
0.0
  9
$AUNITS
 70
     0
  9
$AUPREC
 70
     0
  9
$MENU
  1
acad
  9
$ELEVATION
 40
0.0
  9
$PELEVATION
 40
0.0
  9
$THICKNESS
 40
0.0
  9
$LIMCHECK
 70
     0
  9
$CHAMFERA
 40
0.0
  9
$CHAMFERB
 40
0.0
  9
$CHAMFERC
 40
0.0
  9
$CHAMFERD
 40
0.0
  9
$SKPOLY
 70
     0
  9
$TDCREATE
 40
2453383.000000000
  9
$TDUCREATE
 40
0.000000000
  9
$TDUPDATE
 40
0.000000000
  9
$TDUUPDATE
 40
2447892.625000000
  9
$TDINDWG
 40
0.0000000000
  9
$TDUSRTIMER
 40
0.0000000000
  9
$USRTIMER
 70
     1
  9
$ANGBASE
 50
0.0
  9
$ANGDIR
 70
     0
  9
$PDMODE
 70
     0
  9
$PDSIZE
 40
0.0
  9
$PLINEWID
 40
0.0
  9
$SPLFRAME
 70
     0
  9
$SPLINETYPE
 70
     6
  9
$SPLINESEGS
 70
     8
  9
$HANDSEED
  5
302
  9
$SURFTAB1
 70
     6
  9
$SURFTAB2
 70
     6
  9
$SURFTYPE
 70
     6
  9
$SURFU
 70
     6
  9
$SURFV
 70
     6
  9
$UCSBASE
  2

  9
$UCSNAME
  2

  9
$UCSORG
 10
0.0
 20
0.0
 30
0.0
  9
$UCSXDIR
 10
1.0
 20
0.0
 30
0.0
  9
$UCSYDIR
 10
0.0
 20
1.0
 30
0.0
  9
$UCSORTHOREF
  2

  9
$UCSORTHOVIEW
 70
     0
  9
$UCSORGTOP
 10
0.0
 20
0.0
 30
0.0
  9
$UCSORGBOTTOM
 10
0.0
 20
0.0
 30
0.0
  9
$UCSORGLEFT
 10
0.0
 20
0.0
 30
0.0
  9
$UCSORGRIGHT
 10
0.0
 20
0.0
 30
0.0
  9
$UCSORGFRONT
 10
0.0
 20
0.0
 30
0.0
  9
$UCSORGBACK
 10
0.0
 20
0.0
 30
0.0
  9
$PUCSBASE
  2

  9
$PUCSNAME
  2

  9
$PUCSORG
 10
0.0
 20
0.0
 30
0.0
  9
$PUCSXDIR
 10
1.0
 20
0.0
 30
0.0
  9
$PUCSYDIR
 10
0.0
 20
1.0
 30
0.0
  9
$PUCSORTHOREF
  2

  9
$PUCSORTHOVIEW
 70
     0
  9
$PUCSORGTOP
 10
0.0
 20
0.0
 30
0.0
  9
$PUCSORGBOTTOM
 10
0.0
 20
0.0
 30
0.0
  9
$PUCSORGLEFT
 10
0.0
 20
0.0
 30
0.0
  9
$PUCSORGRIGHT
 10
0.0
 20
0.0
 30
0.0
  9
$PUCSORGFRONT
 10
0.0
 20
0.0
 30
0.0
  9
$PUCSORGBACK
 10
0.0
 20
0.0
 30
0.0
  9
$USERI1
 70
     0
  9
$USERI2
 70
     0
  9
$USERI3
 70
     0
  9
$USERI4
 70
     0
  9
$USERI5
 70
     0
  9
$USERR1
 40
0.0
  9
$USERR2
 40
0.0
  9
$USERR3
 40
0.0
  9
$USERR4
 40
0.0
  9
$USERR5
 40
0.0
  9
$WORLDVIEW
 70
     1
  9
$SHADEDGE
 70
     3
  9
$SHADEDIF
 70
    70
  9
$TILEMODE
 70
     1
  9
$MAXACTVP
 70
    16
  9
$PINSBASE
 10
0.0
 20
0.0
 30
0.0
  9
$PLIMCHECK
 70
     0
  9
$PEXTMIN
 10
1.000000E+20
 20
1.000000E+20
 30
1.000000E+20
  9
$PEXTMAX
 10
-1.000000E+20
 20
-1.000000E+20
 30
-1.000000E+20
  9
$PLIMMIN
 10
0.0
 20
0.0
  9
$PLIMMAX
 10
12.0
 20
9.0
  9
$UNITMODE
 70
     0
  9
$VISRETAIN
 70
     0
  9
$PLINEGEN
 70
     1
  9
$PSLTSCALE
 70
     0
  9
$TREEDEPTH
 70
  3020
  9
$CMLSTYLE
  2
Standard
  9
$CMLJUST
 70
     0
  9
$CMLSCALE
 40
1.0
  9
$PROXYGRAPHICS
 70
     0
  9
$MEASUREMENT
 70
     0
  9
$CELWEIGHT
370
     0
  9
$ENDCAPS
280
     0
  9
$JOINSTYLE
280
     0
  9
$LWDISPLAY
290
     0
  9
$INSUNITS
 70
     0
  9
$HYPERLINKBASE
  1

  9
$STYLESHEET
  1

  9
$XEDIT
290
     1
  9
$CEPSNTYPE
380
     0
  9
$PSTYLEMODE
290
     1
  9
$FINGERPRINTGUID
  2

  9
$VERSIONGUID
  2

  9
$EXTNAMES
290
     1
  9
$PSVPSCALE
 40
0.0
  0
ENDSEC
  0
SECTION
  2
CLASSES
  0
CLASS
  1
LWPOLYLINE
  2
AcDbPolyline
  3
AutoCAD 2000
 90
        0
280
     0
281
     1
  0
CLASS
  1
IMAGE
  2
AcDbRasterImage
  3
ISM
 90
      127
280
     0
281
     1
  0
CLASS
  1
OLE2FRAME
  2
AcDbOle2Frame
  3
AutoCAD 2000
 90
        0
280
     0
281
     1
  0
CLASS
  1
HATCH
  2
AcDbHatch
  3
AutoCAD 2000
 90
        0
280
     0
281
     1
  0
CLASS
  1
DICTIONARYVAR
  2
AcDbDictionaryVar
  3
AutoCAD 2000
 90
        0
280
     0
281
     0
  0
CLASS
  1
RASTERVARIABLES
  2
AcDbRasterVariables
  3
ISM
 90
        0
280
     0
281
     0
  0
CLASS
  1
IMAGEDEF
  2
AcDbRasterImageDef
  3
ISM
 90
        0
280
     0
281
     0
  0
CLASS
  1
IMAGEDEF_REACTOR
  2
AcDbRasterImageDefReactor
  3
ISM
 90
        1
280
     0
281
     0
  0
CLASS
  1
IDBUFFER
  2
AcDbIdBuffer
  3
AutoCAD 2000
 90
        0
280
     0
281
     0
  0
CLASS
  1
SPATIAL_FILTER
  2
AcDbSpatialFilter
  3
AutoCAD 2000
 90
        0
280
     0
281
     0
  0
CLASS
  1
XRECORD
  2
AcDbXrecord
  3
AutoCAD 2000
 90
        0
280
     0
281
     0
  0
CLASS
  1
SORTENTSTABLE
  2
AcDbSortentsTable
  3
AutoCAD 2000
 90
        0
280
     0
281
     0
  0
CLASS
  1
LAYER_INDEX
  2
AcDbLayerIndex
  3
AutoCAD 2000
 90
        0
280
     0
281
     0
  0
CLASS
  1
SPATIAL_INDEX
  2
AcDbSpatialIndex
  3
AutoCAD 2000
 90
        0
280
     0
281
     0
  0
CLASS
  1
OBJECT_PTR
  2
CAseDLPNTableRecord
  3
"ASE-LPNTableRecord"
 90
        1
280
     0
281
     0
  0
CLASS
  1
LAYOUT
  2
AcDbLayout
  3
AutoCAD 2000
 90
        0
280
     0
281
     0
  0
CLASS
  1
PLOTSETTINGS
  2
AcDbPlotSettings
  3
AutoCAD 2000
 90
        0
280
     0
281
     0
  0
CLASS
  1
ACDBDICTIONARYWDFLT
  2
AcDbDictionaryWithDefault
  3
AutoCAD 2000
 90
        0
280
     0
281
     0
  0
CLASS
  1
ACDBPLACEHOLDER
  2
AcDbPlaceHolder
  3
AutoCAD 2000
 90
        0
280
     0
281
     0
  0
CLASS
  1
VBA_PROJECT
  2
AcDbVbaProject
  3
acadvba
 90
        0
280
     0
281
     0
  0
CLASS
  1
WIPEOUT
  2
AcDbWipeout
  3
WipeOut|AutoCAD Express Tool|expresstools@autodesk.com
 90
      127
280
     0
281
     1
  0
CLASS
  1
WIPEOUTVARIABLES
  2
AcDbWipeoutVariables
  3
WipeOut|AutoCAD Express Tool|expresstools@autodesk.com
 90
        0
280
     0
281
     0
  0
CLASS
  1
RTEXT
  2
RText
  3
RText|AutoCAD Express Tool|expresstools@autodesk.com
 90
        0
280
     0
281
     1
  0
CLASS
  1
ARCALIGNEDTEXT
  2
AcDbArcAlignedText
  3
ATEXT|AutoCAD Express Tool|expresstools@autodesk.com
 90
        0
280
     0
281
     1
  0
ENDSEC
  0
SECTION
  2
TABLES
  0
TABLE
  2
VPORT
  5
6
100
AcDbSymbolTable
 70
     1
  0
VPORT
  5
19
100
AcDbSymbolTableRecord
100
AcDbViewportTableRecord
  2
*ACTIVE
 70
     0
 10
0.0
 20
0.0
 11
1.0
 21
1.0
 12
0.0
 22
0.0
 13
0.0
 23
0.0
 14
1.0
 24
1.0
 15
0.0
 25
0.0
 16
0.0
 26
0.0
 36
1.0
 17
0.0
 27
0.0
 37
0.0
 40
1188.0
 41
1.415825
 42
50.0
 43
0.0
 44
0.0
 50
0.0
 51
0.0
 71
     0
 72
   500
 73
     1
 74
     1
 75
     0
 76
     0
 77
     0
 78
     0
281
     0
 65
     0
110
0.0
120
0.0
130
0.0
111
1.0
121
0.0
131
0.0
112
0.0
122
1.0
132
0.0
345
0
346
0
 79
     0
146
0.0
  0
ENDTAB
  0
TABLE
  2
LTYPE
  5
3
100
AcDbSymbolTable
 70
     9
  0
LTYPE
  5
C
100
AcDbSymbolTableRecord
100
AcDbLinetypeTableRecord
  2
ByBlock
 70
    64
  3

 72
    65
 73
     0
 40
0.0
  0
LTYPE
  5
D
100
AcDbSymbolTableRecord
100
AcDbLinetypeTableRecord
  2
ByLayer
 70
    64
  3

 72
    65
 73
     0
 40
0.0
  0
LTYPE
  5
E
100
AcDbSymbolTableRecord
100
AcDbLinetypeTableRecord
  2
CONTINUOUS
 70
     0
  3
Solid line
 72
    65
 73
     0
 40
0.0
  0
LTYPE
  5
F
100
AcDbSymbolTableRecord
100
AcDbLinetypeTableRecord
  2
DASHED
 70
     0
  3
__ __ __ __ __ __ __ __ __ __ __ __ __ __ __
 72
    65
 73
     2
 40
2.0
 49
1.2
 74
     0
 49
-0.8
 74
     0
  0
LTYPE
  5
10
100
AcDbSymbolTableRecord
100
AcDbLinetypeTableRecord
  2
CENTER
 70
     0
  3
____ _ ____ _ ____ _ ____ _ ____ _ ____ _ ____
 72
    65
 73
     4
 40
12.0
 49
9.0
 74
     0
 49
-1.0
 74
     0
 49
1.0
 74
     0
 49
-1.0
 74
     0
  0
LTYPE
  5
11
100
AcDbSymbolTableRecord
100
AcDbLinetypeTableRecord
  2
HIDDEN
 70
     0
  3
_ _ _ _ _ _ _ _ _ _ _ _ _ _ _ _ _ _ _ _ _ _ _
 72
    65
 73
     2
 40
3.2
 49
2.4
 74
     0
 49
-0.8
 74
     0
  0
LTYPE
  5
12
100
AcDbSymbolTableRecord
100
AcDbLinetypeTableRecord
  2
PHANTOM
 70
     0
  3
_____ _ _ _____ _ _ _____ _ _ _____ _ _ _____
 72
    65
 73
     6
 40
13.5
 49
9.0
 74
     0
 49
-1.0
 74
     0
 49
1.0
 74
     0
 49
-0.5
 74
     0
 49
1.0
 74
     0
 49
-1.0
 74
     0
  0
LTYPE
  5
13
100
AcDbSymbolTableRecord
100
AcDbLinetypeTableRecord
  2
DOT
 70
     0
  3
...............................................
 72
    65
 73
     2
 40
1.0
 49
0.5
 74
     0
 49
-0.5
 74
     0
  0
LTYPE
  5
14
100
AcDbSymbolTableRecord
100
AcDbLinetypeTableRecord
  2
DASHDOT
 70
     0
  3
__ . __ . __ . __ . __ . __ . __ . __ . __ . __
 72
    65
 73
     4
 40
8.0
 49
5.0
 74
     0
 49
-1.0
 74
     0
 49
1.0
 74
     0
 49
-1.0
 74
     0
  0
ENDTAB
  0
TABLE
  2
LAYER
  5
1
100
AcDbSymbolTable
 70
     4
  0
LAYER
  5
15
100
AcDbSymbolTableRecord
100
AcDbLayerTableRecord
  2
0
 70
     0
 62
     7
  6
CONTINUOUS
290
     1
370
    -3
390
0
  0
LAYER
  5
16
100
AcDbSymbolTableRecord
100
AcDbLayerTableRecord
  2
1
 70
     0
 62
     7
  6
CONTINUOUS
290
     1
370
    -3
390
0
  0
LAYER
  5
17
100
AcDbSymbolTableRecord
100
AcDbLayerTableRecord
  2
4
 70
     0
 62
     7
  6
CONTINUOUS
290
     1
370
    -3
390
0
  0
LAYER
  5
18
100
AcDbSymbolTableRecord
100
AcDbLayerTableRecord
  2
5
 70
     0
 62
     7
  6
CONTINUOUS
290
     1
370
    -3
390
0
  0
ENDTAB
  0
TABLE
  2
STYLE
  5
2
100
AcDbSymbolTable
 70
     1
  0
STYLE
  5
1B
100
AcDbSymbolTableRecord
100
AcDbTextStyleTableRecord
  2
STANDARD
 70
    64
 40
0.0
 41
1.0
 50
0.0
 71
     0
 42
1.0
  3
txt
  4
BIGFONT
  0
ENDTAB
  0
TABLE
  2
VIEW
  5
4
100
AcDbSymbolTable
 70
     0
  0
ENDTAB
  0
TABLE
  2
UCS
  5
5
100
AcDbSymbolTable
 70
     0
  0
ENDTAB
  0
TABLE
  2
APPID
  5
7
100
AcDbSymbolTable
 70
     1
  0
APPID
  5
1A
100
AcDbSymbolTableRecord
100
AcDbRegAppTableRecord
  2
ACAD
 70
     0
  0
ENDTAB
  0
TABLE
  2
DIMSTYLE
  5
8
100
AcDbSymbolTable
 70
     1
100
AcDbDimStyleTable
 71
     0
  0
DIMSTYLE
105
2C
100
AcDbSymbolTableRecord
100
AcDbDimStyleTableRecord
  2
Standard
 70
     0
  3

  4

 40
2.0
 41
2.0
 42
1.0
 43
0.38
 44
2.0
 45
0.0
 46
0.0
 47
0.0
 48
0.0
 71
     0
 72
     0
 73
     0
 74
     0
 75
     0
 76
     0
 77
     1
 78
     0
 79
     0
140
3.5
141
0.09
142
0.0
143
25.4
144
1.0
145
0.0
146
1.0
147
0.5
148
0.0
170
     0
171
     2
172
     0
173
     0
174
     0
175
     0
176
     0
177
     0
178
     0
179
     0
271
     3
272
     4
273
     2
274
     2
275
     0
276
     0
277
     2
278
    46
279
     0
280
     0
281
     0
282
     0
283
     1
284
     0
285
     0
286
     0
288
     0
289
     3
340
1B
341
0
342
0
343
0
344
0
371
    -2
372
    -2
  0
ENDTAB
  0
TABLE
  2
BLOCK_RECORD
  5
27
100
AcDbSymbolTable
 70
     9
  0
BLOCK_RECORD
  5
25
100
AcDbSymbolTableRecord
100
AcDbBlockTableRecord
  2
*Model_Space
340
0
  0
BLOCK_RECORD
  5
26
100
AcDbSymbolTableRecord
100
AcDbBlockTableRecord
  2
*Paper_Space
340
0
  0
BLOCK_RECORD
  5
1C
100
AcDbSymbolTableRecord
100
AcDbBlockTableRecord
  2
*D0
340
0
  0
BLOCK_RECORD
  5
1D
100
AcDbSymbolTableRecord
100
AcDbBlockTableRecord
  2
*D1
340
0
  0
BLOCK_RECORD
  5
1E
100
AcDbSymbolTableRecord
100
AcDbBlockTableRecord
  2
*D2
340
0
  0
BLOCK_RECORD
  5
1F
100
AcDbSymbolTableRecord
100
AcDbBlockTableRecord
  2
*D3
340
0
  0
BLOCK_RECORD
  5
20
100
AcDbSymbolTableRecord
100
AcDbBlockTableRecord
  2
*D4
340
0
  0
BLOCK_RECORD
  5
21
100
AcDbSymbolTableRecord
100
AcDbBlockTableRecord
  2
*D5
340
0
  0
BLOCK_RECORD
  5
22
100
AcDbSymbolTableRecord
100
AcDbBlockTableRecord
  2
*D6
340
0
  0
BLOCK_RECORD
  5
23
100
AcDbSymbolTableRecord
100
AcDbBlockTableRecord
  2
*D7
340
0
  0
BLOCK_RECORD
  5
24
100
AcDbSymbolTableRecord
100
AcDbBlockTableRecord
  2
*D8
340
0
  0
ENDTAB
  0
ENDSEC
  0
SECTION
  2
BLOCKS
  0
BLOCK
  5
28
100
AcDbEntity
  8
0
390
0
100
AcDbBlockBegin
  2
*Model_Space
 70
     0
 10
0.0
 20
0.0
 30
0.0
  3
*Model_Space
  1

  0
ENDBLK
  5
29
100
AcDbEntity
  8
0
390
0
100
AcDbBlockEnd
  0
BLOCK
  5
2A
100
AcDbEntity
 67
     1
  8
0
390
0
100
AcDbBlockBegin
  2
*Paper_Space
 70
     0
 10
0.0
 20
0.0
 30
0.0
  3
*Paper_Space
  1

  0
ENDBLK
  5
2B
100
AcDbEntity
 67
     1
  8
0
390
0
100
AcDbBlockEnd
  0
BLOCK
  5
296
100
AcDbEntity
  8
5
100
AcDbBlockBegin
  2
*D0
 70
     1
 10
0.0
 20
0.0
 30
0.0
  3
*D0
  1

  0
TEXT
  5
297
100
AcDbEntity
  8
5
370
    25
100
AcDbText
 10
-211.211231
 20
176.899689
 30
0.0
 40
7.0
  1
２４９
 72
     5
 11
-191.611231
 21
176.899689
 31
0.0
100
AcDbText
  0
LINE
  5
298
100
AcDbEntity
  8
5
370
    25
100
AcDbLine
 10
-325.211231
 20
-74.078048
 30
0.0
 11
-325.211231
 21
177.899689
 31
0.0
  0
LINE
  5
299
100
AcDbEntity
  8
5
370
    25
100
AcDbLine
 10
-325.211231
 20
175.899689
 30
0.0
 11
-321.347527
 21
174.864413
 31
0.0
  0
LINE
  5
29A
100
AcDbEntity
  8
5
370
    25
100
AcDbLine
 10
-325.211231
 20
175.899689
 30
0.0
 11
-321.347527
 21
176.934965
 31
0.0
  0
LINE
  5
29B
100
AcDbEntity
  8
5
370
    25
100
AcDbLine
 10
-321.347527
 20
174.864413
 30
0.0
 11
-321.347527
 21
176.934965
 31
0.0
  0
LINE
  5
29C
100
AcDbEntity
  8
5
370
    25
100
AcDbLine
 10
-325.211231
 20
175.899689
 30
0.0
 11
-76.211231
 21
175.899689
 31
0.0
  0
LINE
  5
29D
100
AcDbEntity
  8
5
370
    25
100
AcDbLine
 10
-76.211231
 20
175.899689
 30
0.0
 11
-80.074934
 21
176.934965
 31
0.0
  0
LINE
  5
29E
100
AcDbEntity
  8
5
370
    25
100
AcDbLine
 10
-76.211231
 20
175.899689
 30
0.0
 11
-80.074934
 21
174.864413
 31
0.0
  0
LINE
  5
29F
100
AcDbEntity
  8
5
370
    25
100
AcDbLine
 10
-80.074934
 20
176.934965
 30
0.0
 11
-80.074934
 21
174.864413
 31
0.0
  0
LINE
  5
2A0
100
AcDbEntity
  8
5
370
    25
100
AcDbLine
 10
-76.211231
 20
-74.078048
 30
0.0
 11
-76.211231
 21
177.899689
 31
0.0
  0
ENDBLK
  5
2A1
100
AcDbEntity
  8
5
100
AcDbBlockEnd
  0
BLOCK
  5
2A2
100
AcDbEntity
  8
5
100
AcDbBlockBegin
  2
*D1
 70
     1
 10
0.0
 20
0.0
 30
0.0
  3
*D1
  1

  0
TEXT
  5
2A3
100
AcDbEntity
  8
5
370
    25
100
AcDbText
 10
137.483096
 20
150.067077
 30
0.0
 40
7.0
  1
３０゜
 50
64.197115
 72
     5
 11
146.014514
 21
167.712895
 31
0.0
100
AcDbText
  0
LINE
  5
2A4
100
AcDbEntity
  8
5
370
    25
100
AcDbLine
 10
204.658821
 20
162.900219
 30
0.0
 11
164.612575
 21
197.470731
 31
0.0
  0
LINE
  5
2A5
100
AcDbEntity
  8
5
370
    25
100
AcDbLine
 10
157.063462
 20
112.403306
 30
0.0
 11
126.320277
 21
118.269487
 31
0.0
  0
LINE
  5
2A6
100
AcDbEntity
  8
5
370
    25
100
AcDbLine
 10
166.126499
 20
196.163813
 30
0.0
 11
162.844142
 21
193.87774
 31
0.0
  0
LINE
  5
2A7
100
AcDbEntity
  8
5
370
    25
100
AcDbLine
 10
166.126499
 20
196.163813
 30
0.0
 11
164.426931
 21
192.542837
 31
0.0
  0
LINE
  5
2A8
100
AcDbEntity
  8
5
370
    25
100
AcDbLine
 10
162.844142
 20
193.87774
 30
0.0
 11
164.426931
 21
192.542837
 31
0.0
  0
LINE
  5
2A9
100
AcDbEntity
  8
5
370
    25
100
AcDbLine
 10
128.284832
 20
117.894625
 30
0.0
 11
130.067246
 21
121.475547
 31
0.0
  0
LINE
  5
2AA
100
AcDbEntity
  8
5
370
    25
100
AcDbLine
 10
128.284832
 20
117.894625
 30
0.0
 11
128.037987
 21
121.887001
 31
0.0
  0
LINE
  5
2AB
100
AcDbEntity
  8
5
370
    25
100
AcDbLine
 10
130.067246
 20
121.475547
 30
0.0
 11
128.037987
 21
121.887001
 31
0.0
  0
ARC
  5
2AC
100
AcDbEntity
  8
5
370
    25
100
AcDbCircle
 10
293.257959
 20
86.415708
 30
0.0
 40
167.949561
100
AcDbArc
 50
139.197115
 51
169.197115
  0
ENDBLK
  5
2AD
100
AcDbEntity
  8
5
100
AcDbBlockEnd
  0
BLOCK
  5
2AE
100
AcDbEntity
  8
5
100
AcDbBlockBegin
  2
*D2
 70
     1
 10
0.0
 20
0.0
 30
0.0
  3
*D2
  1

  0
TEXT
  5
2AF
100
AcDbEntity
  8
5
370
    25
100
AcDbText
 10
3.682802
 20
45.379169
 30
0.0
 40
6.0
  1
5%%d
 50
357.5
 41
2.0
 72
     5
 11
13.273665
 21
44.960423
 31
0.0
100
AcDbText
  0
LINE
  5
2B0
100
AcDbEntity
  8
5
370
    25
100
AcDbLine
 10
14.683768
 20
66.574864
 30
0.0
 11
12.446858
 21
41.006866
 31
0.0
  0
LINE
  5
2B1
100
AcDbEntity
  8
5
370
    25
100
AcDbLine
 10
15.073333
 20
69.027609
 30
0.0
 11
15.073333
 21
40.892192
 31
0.0
  0
LINE
  5
2B2
100
AcDbEntity
  8
5
370
    25
100
AcDbLine
 10
12.62117
 20
42.999255
 30
0.0
 11
8.965206
 21
44.622194
 31
0.0
  0
LINE
  5
2B3
100
AcDbEntity
  8
5
370
    25
100
AcDbLine
 10
12.62117
 20
42.999255
 30
0.0
 11
8.643543
 21
42.57678
 31
0.0
  0
LINE
  5
2B4
100
AcDbEntity
  8
5
370
    25
100
AcDbLine
 10
8.965206
 20
44.622194
 30
0.0
 11
8.643543
 21
42.57678
 31
0.0
  0
LINE
  5
2B5
100
AcDbEntity
  8
5
370
    25
100
AcDbLine
 10
15.073333
 20
42.892192
 30
0.0
 11
18.999002
 21
42.124651
 31
0.0
  0
LINE
  5
2B6
100
AcDbEntity
  8
5
370
    25
100
AcDbLine
 10
15.073333
 20
42.892192
 30
0.0
 11
18.856833
 21
44.190316
 31
0.0
  0
LINE
  5
2B7
100
AcDbEntity
  8
5
370
    25
100
AcDbLine
 10
18.999002
 20
42.124651
 30
0.0
 11
18.856833
 21
44.190316
 31
0.0
  0
ARC
  5
2B8
100
AcDbEntity
  8
5
370
    25
100
AcDbCircle
 10
15.073333
 20
71.027609
 30
0.0
 40
28.135417
100
AcDbArc
 50
245.433571
 51
289.566429
  0
ENDBLK
  5
2B9
100
AcDbEntity
  8
5
100
AcDbBlockEnd
  0
BLOCK
  5
2BA
100
AcDbEntity
  8
5
100
AcDbBlockBegin
  2
*D3
 70
     1
 10
0.0
 20
0.0
 30
0.0
  3
*D3
  1

  0
LINE
  5
2BB
100
AcDbEntity
  8
5
370
    25
100
AcDbLine
 10
16.654065
 20
86.889713
 30
0.0
 11
16.654065
 21
-90.611725
 31
0.0
  0
LINE
  5
2BC
100
AcDbEntity
  8
5
370
    25
100
AcDbLine
 10
16.654065
 20
-88.611725
 30
0.0
 11
20.517768
 21
-89.647001
 31
0.0
  0
LINE
  5
2BD
100
AcDbEntity
  8
5
370
    25
100
AcDbLine
 10
16.654065
 20
-88.611725
 30
0.0
 11
20.517768
 21
-87.576449
 31
0.0
  0
LINE
  5
2BE
100
AcDbEntity
  8
5
370
    25
100
AcDbLine
 10
20.517768
 20
-89.647001
 30
0.0
 11
20.517768
 21
-87.576449
 31
0.0
  0
LINE
  5
2BF
100
AcDbEntity
  8
5
370
    25
100
AcDbLine
 10
16.654065
 20
-88.611725
 30
0.0
 11
275.090308
 21
-88.611725
 31
0.0
  0
LINE
  5
2C0
100
AcDbEntity
  8
5
370
    25
100
AcDbLine
 10
275.090308
 20
-88.611725
 30
0.0
 11
271.226604
 21
-87.576449
 31
0.0
  0
LINE
  5
2C1
100
AcDbEntity
  8
5
370
    25
100
AcDbLine
 10
275.090308
 20
-88.611725
 30
0.0
 11
271.226604
 21
-89.647001
 31
0.0
  0
LINE
  5
2C2
100
AcDbEntity
  8
5
370
    25
100
AcDbLine
 10
271.226604
 20
-87.576449
 30
0.0
 11
271.226604
 21
-89.647001
 31
0.0
  0
ENDBLK
  5
2C3
100
AcDbEntity
  8
5
100
AcDbBlockEnd
  0
BLOCK
  5
2C4
100
AcDbEntity
  8
5
100
AcDbBlockBegin
  2
*D4
 70
     1
 10
0.0
 20
0.0
 30
0.0
  3
*D4
  1

  0
LINE
  5
2C5
100
AcDbEntity
  8
5
370
    25
100
AcDbLine
 10
245.611153
 20
-76.077736
 30
0.0
 11
102.723839
 21
-76.077736
 31
0.0
  0
LINE
  5
2C6
100
AcDbEntity
  8
5
370
    25
100
AcDbLine
 10
104.723839
 20
-76.077736
 30
0.0
 11
105.759115
 21
-72.214032
 31
0.0
  0
LINE
  5
2C7
100
AcDbEntity
  8
5
370
    25
100
AcDbLine
 10
104.723839
 20
-76.077736
 30
0.0
 11
103.688563
 21
-72.214032
 31
0.0
  0
LINE
  5
2C8
100
AcDbEntity
  8
5
370
    25
100
AcDbLine
 10
105.759115
 20
-72.214032
 30
0.0
 11
103.688563
 21
-72.214032
 31
0.0
  0
LINE
  5
2C9
100
AcDbEntity
  8
5
370
    25
100
AcDbLine
 10
104.723839
 20
-76.077736
 30
0.0
 11
104.723839
 21
120.022433
 31
0.0
  0
LINE
  5
2CA
100
AcDbEntity
  8
5
370
    25
100
AcDbLine
 10
104.723839
 20
120.022433
 30
0.0
 11
103.688563
 21
116.158729
 31
0.0
  0
LINE
  5
2CB
100
AcDbEntity
  8
5
370
    25
100
AcDbLine
 10
104.723839
 20
120.022433
 30
0.0
 11
105.759115
 21
116.158729
 31
0.0
  0
LINE
  5
2CC
100
AcDbEntity
  8
5
370
    25
100
AcDbLine
 10
103.688563
 20
116.158729
 30
0.0
 11
105.759115
 21
116.158729
 31
0.0
  0
LINE
  5
2CD
100
AcDbEntity
  8
5
370
    25
100
AcDbLine
 10
168.784532
 20
120.022433
 30
0.0
 11
102.723839
 21
120.022433
 31
0.0
  0
ENDBLK
  5
2CE
100
AcDbEntity
  8
5
100
AcDbBlockEnd
  0
BLOCK
  5
2CF
100
AcDbEntity
  8
5
100
AcDbBlockBegin
  2
*D5
 70
     1
 10
0.0
 20
0.0
 30
0.0
  3
*D5
  1

  0
TEXT
  5
2D0
100
AcDbEntity
  8
5
370
    25
100
AcDbText
 10
268.091153
 20
-172.458008
 30
0.0
 40
7.0
  1
５５
 72
     5
 11
280.691153
 21
-172.458008
 31
0.0
100
AcDbText
  0
LINE
  5
2D1
100
AcDbEntity
  8
5
370
    25
100
AcDbLine
 10
247.611153
 20
-80.577736
 30
0.0
 11
247.611153
 21
-175.458008
 31
0.0
  0
LINE
  5
2D2
100
AcDbEntity
  8
5
370
    25
100
AcDbLine
 10
247.611153
 20
-173.458008
 30
0.0
 11
251.474856
 21
-174.493284
 31
0.0
  0
LINE
  5
2D3
100
AcDbEntity
  8
5
370
    25
100
AcDbLine
 10
247.611153
 20
-173.458008
 30
0.0
 11
251.474856
 21
-172.422732
 31
0.0
  0
LINE
  5
2D4
100
AcDbEntity
  8
5
370
    25
100
AcDbLine
 10
251.474856
 20
-174.493284
 30
0.0
 11
251.474856
 21
-172.422732
 31
0.0
  0
LINE
  5
2D5
100
AcDbEntity
  8
5
370
    25
100
AcDbLine
 10
247.611153
 20
-173.458008
 30
0.0
 11
302.571153
 21
-173.458008
 31
0.0
  0
LINE
  5
2D6
100
AcDbEntity
  8
5
370
    25
100
AcDbLine
 10
302.571153
 20
-173.458008
 30
0.0
 11
298.707449
 21
-172.422732
 31
0.0
  0
LINE
  5
2D7
100
AcDbEntity
  8
5
370
    25
100
AcDbLine
 10
302.571153
 20
-173.458008
 30
0.0
 11
298.707449
 21
-174.493284
 31
0.0
  0
LINE
  5
2D8
100
AcDbEntity
  8
5
370
    25
100
AcDbLine
 10
298.707449
 20
-172.422732
 30
0.0
 11
298.707449
 21
-174.493284
 31
0.0
  0
LINE
  5
2D9
100
AcDbEntity
  8
5
370
    25
100
AcDbLine
 10
302.571153
 20
-80.577736
 30
0.0
 11
302.571153
 21
-175.458008
 31
0.0
  0
ENDBLK
  5
2DA
100
AcDbEntity
  8
5
100
AcDbBlockEnd
  0
BLOCK
  5
2DB
100
AcDbEntity
  8
5
100
AcDbBlockBegin
  2
*D6
 70
     1
 10
0.0
 20
0.0
 30
0.0
  3
*D6
  1

  0
LINE
  5
2DC
100
AcDbEntity
  8
5
370
    25
100
AcDbLine
 10
-302.211231
 20
-142.678402
 30
0.0
 11
-302.211231
 21
-183.29425
 31
0.0
  0
LINE
  5
2DD
100
AcDbEntity
  8
5
370
    25
100
AcDbLine
 10
-302.211231
 20
-181.29425
 30
0.0
 11
-298.347527
 21
-182.329527
 31
0.0
  0
LINE
  5
2DE
100
AcDbEntity
  8
5
370
    25
100
AcDbLine
 10
-302.211231
 20
-181.29425
 30
0.0
 11
-298.347527
 21
-180.258974
 31
0.0
  0
LINE
  5
2DF
100
AcDbEntity
  8
5
370
    25
100
AcDbLine
 10
-298.347527
 20
-182.329527
 30
0.0
 11
-298.347527
 21
-180.258974
 31
0.0
  0
LINE
  5
2E0
100
AcDbEntity
  8
5
370
    25
100
AcDbLine
 10
-302.211231
 20
-181.29425
 30
0.0
 11
-99.211231
 21
-181.29425
 31
0.0
  0
LINE
  5
2E1
100
AcDbEntity
  8
5
370
    25
100
AcDbLine
 10
-99.211231
 20
-181.29425
 30
0.0
 11
-103.074934
 21
-180.258974
 31
0.0
  0
LINE
  5
2E2
100
AcDbEntity
  8
5
370
    25
100
AcDbLine
 10
-99.211231
 20
-181.29425
 30
0.0
 11
-103.074934
 21
-182.329527
 31
0.0
  0
LINE
  5
2E3
100
AcDbEntity
  8
5
370
    25
100
AcDbLine
 10
-103.074934
 20
-180.258974
 30
0.0
 11
-103.074934
 21
-182.329527
 31
0.0
  0
LINE
  5
2E4
100
AcDbEntity
  8
5
370
    25
100
AcDbLine
 10
-99.211231
 20
-148.183014
 30
0.0
 11
-99.211231
 21
-183.29425
 31
0.0
  0
ENDBLK
  5
2E5
100
AcDbEntity
  8
5
100
AcDbBlockEnd
  0
BLOCK
  5
2E6
100
AcDbEntity
  8
5
100
AcDbBlockBegin
  2
*D7
 70
     1
 10
0.0
 20
0.0
 30
0.0
  3
*D7
  1

  0
LINE
  5
2E7
100
AcDbEntity
  8
5
370
    25
100
AcDbLine
 10
245.611153
 20
-76.077736
 30
0.0
 11
-9.029481
 21
-76.077736
 31
0.0
  0
LINE
  5
2E8
100
AcDbEntity
  8
5
370
    25
100
AcDbLine
 10
-7.029481
 20
-76.077736
 30
0.0
 11
-5.994205
 21
-72.214032
 31
0.0
  0
LINE
  5
2E9
100
AcDbEntity
  8
5
370
    25
100
AcDbLine
 10
-7.029481
 20
-76.077736
 30
0.0
 11
-8.064758
 21
-72.214032
 31
0.0
  0
LINE
  5
2EA
100
AcDbEntity
  8
5
370
    25
100
AcDbLine
 10
-5.994205
 20
-72.214032
 30
0.0
 11
-8.064758
 21
-72.214032
 31
0.0
  0
LINE
  5
2EB
100
AcDbEntity
  8
5
370
    25
100
AcDbLine
 10
-7.029481
 20
-76.077736
 30
0.0
 11
-7.029481
 21
71.026046
 31
0.0
  0
LINE
  5
2EC
100
AcDbEntity
  8
5
370
    25
100
AcDbLine
 10
-7.029481
 20
71.026046
 30
0.0
 11
-8.064758
 21
67.162343
 31
0.0
  0
LINE
  5
2ED
100
AcDbEntity
  8
5
370
    25
100
AcDbLine
 10
-7.029481
 20
71.026046
 30
0.0
 11
-5.994205
 21
67.162343
 31
0.0
  0
LINE
  5
2EE
100
AcDbEntity
  8
5
370
    25
100
AcDbLine
 10
-8.064758
 20
67.162343
 30
0.0
 11
-5.994205
 21
67.162343
 31
0.0
  0
LINE
  5
2EF
100
AcDbEntity
  8
5
370
    25
100
AcDbLine
 10
13.091196
 20
71.026046
 30
0.0
 11
-9.029481
 21
71.026046
 31
0.0
  0
ENDBLK
  5
2F0
100
AcDbEntity
  8
5
100
AcDbBlockEnd
  0
BLOCK
  5
2F1
100
AcDbEntity
  8
5
100
AcDbBlockBegin
  2
*D8
 70
     1
 10
0.0
 20
0.0
 30
0.0
  3
*D8
  1

  0
TEXT
  5
2F2
100
AcDbEntity
  8
5
370
    25
100
AcDbText
 10
-120.211692
 20
-91.316704
 30
0.0
 40
7.0
  1
３５．００１
 72
     5
 11
-79.611692
 21
-91.316704
 31
0.0
100
AcDbText
  0
LINE
  5
2F3
100
AcDbEntity
  8
5
370
    25
100
AcDbLine
 10
-116.712139
 20
-95.078356
 30
0.0
 11
-116.712139
 21
-90.316704
 31
0.0
  0
LINE
  5
2F4
100
AcDbEntity
  8
5
370
    25
100
AcDbLine
 10
-116.712139
 20
-92.316704
 30
0.0
 11
-112.848436
 21
-93.35198
 31
0.0
  0
LINE
  5
2F5
100
AcDbEntity
  8
5
370
    25
100
AcDbLine
 10
-116.712139
 20
-92.316704
 30
0.0
 11
-112.848436
 21
-91.281428
 31
0.0
  0
LINE
  5
2F6
100
AcDbEntity
  8
5
370
    25
100
AcDbLine
 10
-112.848436
 20
-93.35198
 30
0.0
 11
-112.848436
 21
-91.281428
 31
0.0
  0
LINE
  5
2F7
100
AcDbEntity
  8
5
370
    25
100
AcDbLine
 10
-116.712139
 20
-92.316704
 30
0.0
 11
-81.711245
 21
-92.316704
 31
0.0
  0
LINE
  5
2F8
100
AcDbEntity
  8
5
370
    25
100
AcDbLine
 10
-81.711245
 20
-92.316704
 30
0.0
 11
-85.574948
 21
-91.281428
 31
0.0
  0
LINE
  5
2F9
100
AcDbEntity
  8
5
370
    25
100
AcDbLine
 10
-81.711245
 20
-92.316704
 30
0.0
 11
-85.574948
 21
-93.35198
 31
0.0
  0
LINE
  5
2FA
100
AcDbEntity
  8
5
370
    25
100
AcDbLine
 10
-85.574948
 20
-91.281428
 30
0.0
 11
-85.574948
 21
-93.35198
 31
0.0
  0
LINE
  5
2FB
100
AcDbEntity
  8
5
370
    25
100
AcDbLine
 10
-81.711245
 20
-95.078356
 30
0.0
 11
-81.711245
 21
-90.316704
 31
0.0
  0
ENDBLK
  5
2FC
100
AcDbEntity
  8
5
100
AcDbBlockEnd
  0
ENDSEC
  0
SECTION
  2
ENTITIES
  0
LINE
  5
2D
100
AcDbEntity
  8
1
370
   100
100
AcDbLine
 10
-373.02157
 20
275.028767
 30
0.0
 11
394.982385
 21
275.028767
 31
0.0
  0
LINE
  5
2E
100
AcDbEntity
  8
1
370
   100
100
AcDbLine
 10
-373.02157
 20
275.028767
 30
0.0
 11
-373.02157
 21
-277.971881
 31
0.0
  0
LINE
  5
2F
100
AcDbEntity
  8
1
370
   100
100
AcDbLine
 10
-373.02157
 20
-277.971881
 30
0.0
 11
394.982385
 21
-277.971881
 31
0.0
  0
LINE
  5
30
100
AcDbEntity
  8
1
370
   100
100
AcDbLine
 10
394.982385
 20
-277.971881
 30
0.0
 11
394.982385
 21
275.028767
 31
0.0
  0
TEXT
  5
31
100
AcDbEntity
  8
1
370
    50
100
AcDbText
 10
359.628442
 20
-226.252857
 30
0.0
 40
6.0
  1
設計
 72
     5
 11
370.428442
 21
-226.252857
 31
0.0
100
AcDbText
  0
TEXT
  5
32
100
AcDbEntity
  8
1
370
    50
100
AcDbText
 10
379.127478
 20
-226.099658
 30
0.0
 40
6.0
  1
製図
 72
     5
 11
389.927478
 21
-226.099658
 31
0.0
100
AcDbText
  0
TEXT
  5
33
100
AcDbEntity
  8
1
370
    50
100
AcDbText
 10
319.005745
 20
-226.252857
 30
0.0
 40
6.0
  1
承認
 72
     5
 11
329.805745
 21
-226.252857
 31
0.0
100
AcDbText
  0
TEXT
  5
34
100
AcDbEntity
  8
1
370
    50
100
AcDbText
 10
338.989679
 20
-226.19802
 30
0.0
 40
6.0
  1
検図
 72
     5
 11
349.789679
 21
-226.19802
 31
0.0
100
AcDbText
  0
LINE
  5
35
100
AcDbEntity
  8
1
370
    25
100
AcDbLine
 10
284.982385
 20
-227.971881
 30
0.0
 11
394.982385
 21
-227.971881
 31
0.0
  0
LINE
  5
36
100
AcDbEntity
  8
1
370
    25
100
AcDbLine
 10
342.482385
 20
-245.971881
 30
0.0
 11
342.482385
 21
-259.971881
 31
0.0
  0
TEXT
  5
37
100
AcDbEntity
  8
1
370
    50
100
AcDbText
 10
319.55159
 20
-256.012528
 30
0.0
 40
6.0
  1
日　付
 72
     5
 11
336.35159
 21
-256.012528
 31
0.0
100
AcDbText
  0
LINE
  5
38
100
AcDbEntity
  8
1
370
    50
100
AcDbLine
 10
40.982385
 20
-259.971881
 30
0.0
 11
394.982385
 21
-259.971881
 31
0.0
  0
TEXT
  5
39
100
AcDbEntity
  8
1
370
    50
100
AcDbText
 10
287.775011
 20
-256.322406
 30
0.0
 40
6.0
  1
第三角法
 72
     5
 11
310.575011
 21
-256.322406
 31
0.0
100
AcDbText
  0
TEXT
  5
3A
100
AcDbEntity
  8
1
370
    50
100
AcDbText
 10
291.087419
 20
-225.99802
 30
0.0
 40
6.0
  1
尺　度
 72
     5
 11
307.887419
 21
-225.99802
 31
0.0
100
AcDbText
  0
LINE
  5
3B
100
AcDbEntity
  8
1
370
   100
100
AcDbLine
 10
40.982385
 20
-217.971881
 30
0.0
 11
394.982385
 21
-217.971881
 31
0.0
  0
LINE
  5
3C
100
AcDbEntity
  8
1
370
    50
100
AcDbLine
 10
211.982385
 20
-217.971881
 30
0.0
 11
211.982385
 21
-277.971881
 31
0.0
  0
LINE
  5
3D
100
AcDbEntity
  8
1
370
    25
100
AcDbLine
 10
374.982385
 20
-245.971881
 30
0.0
 11
374.982385
 21
-217.971881
 31
0.0
  0
LINE
  5
3E
100
AcDbEntity
  8
1
370
    25
100
AcDbLine
 10
354.982385
 20
-245.971881
 30
0.0
 11
354.982385
 21
-217.971881
 31
0.0
  0
LINE
  5
3F
100
AcDbEntity
  8
1
370
    25
100
AcDbLine
 10
334.982385
 20
-245.971881
 30
0.0
 11
334.982385
 21
-217.971881
 31
0.0
  0
LINE
  5
40
100
AcDbEntity
  8
1
370
    50
100
AcDbLine
 10
284.982385
 20
-277.971881
 30
0.0
 11
284.982385
 21
-217.971881
 31
0.0
  0
LINE
  5
41
100
AcDbEntity
  8
1
370
    50
100
AcDbLine
 10
189.982385
 20
-217.971881
 30
0.0
 11
189.982385
 21
-277.971881
 31
0.0
  0
LINE
  5
42
100
AcDbEntity
  8
1
370
    50
100
AcDbLine
 10
62.982385
 20
-217.971881
 30
0.0
 11
62.982385
 21
-259.971881
 31
0.0
  0
LINE
  5
43
100
AcDbEntity
  8
1
370
    50
100
AcDbLine
 10
284.982385
 20
-245.971881
 30
0.0
 11
394.982385
 21
-245.971881
 31
0.0
  0
TEXT
  5
44
100
AcDbEntity
  8
1
370
    50
100
AcDbText
 10
287.101129
 20
-271.880939
 30
0.0
 40
6.0
  1
コードＮｏ
 41
0.9
 72
     5
 11
313.021129
 21
-271.880939
 31
0.0
100
AcDbText
  0
TEXT
  5
45
100
AcDbEntity
  8
1
370
   100
100
AcDbText
 10
52.886774
 20
-272.875659
 30
0.0
 40
8.0
  1
ミズタニバルブ工業株式会社
 41
1.2
 72
     5
 11
175.766774
 21
-272.875659
 31
0.0
100
AcDbText
  0
LINE
  5
46
100
AcDbEntity
  8
1
370
    50
100
AcDbLine
 10
40.982385
 20
-238.971881
 30
0.0
 11
284.982385
 21
-238.971881
 31
0.0
  0
LINE
  5
47
100
AcDbEntity
  8
1
370
    50
100
AcDbLine
 10
115.482385
 20
-238.971881
 30
0.0
 11
115.482385
 21
-259.971881
 31
0.0
  0
LINE
  5
48
100
AcDbEntity
  8
1
370
    50
100
AcDbLine
 10
137.482385
 20
-238.971881
 30
0.0
 11
137.482385
 21
-259.971881
 31
0.0
  0
LINE
  5
49
100
AcDbEntity
  8
1
370
    50
100
AcDbLine
 10
314.982385
 20
-277.971881
 30
0.0
 11
314.982385
 21
-217.971881
 31
0.0
  0
TEXT
  5
4A
100
AcDbEntity
  8
1
370
    50
100
AcDbText
 10
345.098131
 20
-256.100293
 30
0.0
 40
6.0
  1
　　・　　・
 72
     5
 11
379.898131
 21
-256.100293
 31
0.0
100
AcDbText
  0
LINE
  5
4B
100
AcDbEntity
  8
1
370
   100
100
AcDbLine
 10
40.982385
 20
-217.971881
 30
0.0
 11
40.982385
 21
-277.971881
 31
0.0
  0
TEXT
  5
4C
100
AcDbEntity
  8
1
370
    50
100
AcDbText
 10
290.832582
 20
-240.013492
 30
0.0
 40
6.0
  1
　／ 
 72
     5
 11
301.632582
 21
-240.013492
 31
0.0
100
AcDbText
  0
TEXT
  5
4D
100
AcDbEntity
  8
1
370
    50
100
AcDbText
 10
193.904123
 20
-272.024909
 30
0.0
 40
6.0
  1
備 考 
 72
     5
 11
207.704123
 21
-272.024909
 31
0.0
100
AcDbText
  0
TEXT
  5
4E
100
AcDbEntity
  8
1
370
    50
100
AcDbText
 10
193.512534
 20
-230.89184
 30
0.0
 40
6.0
  1
仕 上
 72
     5
 11
207.312534
 21
-230.89184
 31
0.0
100
AcDbText
  0
TEXT
  5
4F
100
AcDbEntity
  8
1
370
    50
100
AcDbText
 10
193.447176
 20
-248.891666
 30
0.0
 40
6.0
  1
表 面
 72
     5
 11
207.247176
 21
-248.891666
 31
0.0
100
AcDbText
  0
TEXT
  5
50
100
AcDbEntity
  8
1
370
    50
100
AcDbText
 10
193.447176
 20
-255.891666
 30
0.0
 40
6.0
  1
処 理
 72
     5
 11
207.247176
 21
-255.891666
 31
0.0
100
AcDbText
  0
TEXT
  5
51
100
AcDbEntity
  8
1
370
    50
100
AcDbText
 10
44.79335
 20
-231.693399
 30
0.0
 40
6.0
  1
品 名
 72
     5
 11
58.59335
 21
-231.693399
 31
0.0
100
AcDbText
  0
TEXT
  5
52
100
AcDbEntity
  8
1
370
    50
100
AcDbText
 10
44.397766
 20
-252.462534
 30
0.0
 40
6.0
  1
材 質
 72
     5
 11
58.197766
 21
-252.462534
 31
0.0
100
AcDbText
  0
TEXT
  5
53
100
AcDbEntity
  8
1
370
    50
100
AcDbText
 10
118.897766
 20
-252.462534
 30
0.0
 40
6.0
  1
規 格
 72
     5
 11
132.697766
 21
-252.462534
 31
0.0
100
AcDbText
  0
LINE
  5
54
100
AcDbEntity
  8
4
370
    50
100
AcDbLine
 10
-222.711231
 20
-11.476765
 30
0.0
 11
-222.711231
 21
-11.978048
 31
0.0
  0
LINE
  5
55
100
AcDbEntity
  8
4
370
    50
100
AcDbLine
 10
-178.711231
 20
-11.476765
 30
0.0
 11
-178.711231
 21
-11.978048
 31
0.0
  0
LINE
  5
56
100
AcDbEntity
  8
4
370
    50
100
AcDbLine
 10
-223.461231
 20
-11.978048
 30
0.0
 11
-223.461231
 21
-12.186765
 31
0.0
  0
LINE
  5
57
100
AcDbEntity
  8
4
370
    50
100
AcDbLine
 10
-177.961231
 20
-11.978048
 30
0.0
 11
-177.961231
 21
-12.186765
 31
0.0
  0
LINE
  5
58
100
AcDbEntity
  8
4
370
    50
100
AcDbLine
 10
-227.211231
 20
-48.078048
 30
0.0
 11
-174.211231
 21
-48.078048
 31
0.0
  0
LINE
  5
59
100
AcDbEntity
  8
4
370
    25
  6
CENTER
100
AcDbLine
 10
-302.211231
 20
-62.319603
 30
0.0
 11
-302.211231
 21
-140.678402
 31
0.0
  0
LINE
  5
5A
100
AcDbEntity
  8
4
370
    50
100
AcDbLine
 10
-76.211231
 20
-76.078048
 30
0.0
 11
-76.682661
 21
-62.578048
 31
0.0
  0
ARC
  5
5B
100
AcDbEntity
  8
4
370
    50
100
AcDbCircle
 10
-109.469061
 20
-157.050541
 30
0.0
 40
100.0
100
AcDbArc
 50
70.86082
 51
86.278423
  0
LINE
  5
5C
100
AcDbEntity
  8
4
370
    50
100
AcDbLine
 10
-102.97825
 20
-57.261417
 30
0.0
 11
-166.145491
 21
-53.152686
 31
0.0
  0
ARC
  5
5D
100
AcDbEntity
  8
4
370
    50
100
AcDbCircle
 10
-165.49641
 20
-43.173774
 30
0.0
 40
10.0
100
AcDbArc
 50
209.368679
 51
266.278423
  0
ARC
  5
5E
100
AcDbEntity
  8
4
370
    50
100
AcDbCircle
 10
-235.926051
 20
-43.173774
 30
0.0
 40
10.0
100
AcDbArc
 50
273.721577
 51
330.631321
  0
LINE
  5
5F
100
AcDbEntity
  8
4
370
    50
100
AcDbLine
 10
-298.444211
 20
-57.261417
 30
0.0
 11
-235.27697
 21
-53.152686
 31
0.0
  0
ARC
  5
60
100
AcDbEntity
  8
4
370
    50
100
AcDbCircle
 10
-291.9534
 20
-157.050541
 30
0.0
 40
100.0
100
AcDbArc
 50
93.721577
 51
109.13918
  0
LINE
  5
61
100
AcDbEntity
  8
4
370
    50
100
AcDbLine
 10
-325.211231
 20
-76.078048
 30
0.0
 11
-324.7398
 21
-62.578048
 31
0.0
  0
LINE
  5
62
100
AcDbEntity
  8
4
370
    50
100
AcDbLine
 10
-99.211231
 20
-62.578048
 30
0.0
 11
-76.682661
 21
-62.578048
 31
0.0
  0
LINE
  5
63
100
AcDbEntity
  8
4
370
    50
100
AcDbLine
 10
-99.211231
 20
-62.578048
 30
0.0
 11
-200.711231
 21
-58.078048
 31
0.0
  0
ARC
  5
64
100
AcDbEntity
  8
4
370
    50
100
AcDbCircle
 10
-158.936292
 20
20.148446
 30
0.0
 40
80.0
100
AcDbArc
 50
249.606593
 51
267.461455
  0
ARC
  5
65
100
AcDbEntity
  8
4
370
    50
100
AcDbCircle
 10
-183.328785
 20
-45.464101
 30
0.0
 40
10.0
100
AcDbArc
 50
195.152838
 51
249.606593
  0
LINE
  5
66
100
AcDbEntity
  8
4
370
    50
100
AcDbLine
 10
248.591153
 20
-48.077736
 30
0.0
 11
255.591153
 21
-48.077736
 31
0.0
  0
LINE
  5
67
100
AcDbEntity
  8
4
370
    50
100
AcDbLine
 10
294.591153
 20
-48.077736
 30
0.0
 11
301.591153
 21
-48.077736
 31
0.0
  0
LINE
  5
68
100
AcDbEntity
  8
4
370
    50
100
AcDbLine
 10
247.611153
 20
-76.077736
 30
0.0
 11
302.571153
 21
-76.077736
 31
0.0
  0
LINE
  5
69
100
AcDbEntity
  8
4
370
    50
100
AcDbLine
 10
301.591153
 20
-48.077736
 30
0.0
 11
302.571153
 21
-76.077736
 31
0.0
  0
LINE
  5
6A
100
AcDbEntity
  8
4
370
    50
100
AcDbLine
 10
248.591153
 20
-48.077736
 30
0.0
 11
247.611153
 21
-76.077736
 31
0.0
  0
LINE
  5
6B
100
AcDbEntity
  8
4
370
    50
100
AcDbLine
 10
252.090993
 20
46.283201
 30
0.0
 11
252.090993
 21
43.488569
 31
0.0
  0
LINE
  5
6C
100
AcDbEntity
  8
4
370
    50
100
AcDbLine
 10
298.090993
 20
49.905433
 30
0.0
 11
298.090993
 21
43.488569
 31
0.0
  0
ARC
  5
6D
100
AcDbEntity
  8
4
370
    50
100
AcDbCircle
 10
301.090993
 20
43.488569
 30
0.0
 40
3.0
100
AcDbArc
 50
180.0
 51
221.297605
  0
ARC
  5
6E
100
AcDbEntity
  8
4
370
    50
100
AcDbCircle
 10
294.329367
 20
37.548837
 30
0.0
 40
6.0
100
AcDbArc
 50
8.812469
 51
41.297605
  0
ARC
  5
6F
100
AcDbEntity
  8
4
370
    50
100
AcDbCircle
 10
299.333201
 20
30.807998
 30
0.0
 40
50.0
100
AcDbArc
 50
171.187531
 51
179.695747
  0
ARC
  5
70
100
AcDbEntity
  8
4
370
    50
100
AcDbCircle
 10
255.852618
 20
37.548837
 30
0.0
 40
6.0
100
AcDbArc
 50
138.702395
 51
171.187531
  0
ARC
  5
71
100
AcDbEntity
  8
4
370
    50
100
AcDbCircle
 10
249.090993
 20
43.488569
 30
0.0
 40
3.0
100
AcDbArc
 50
318.702395
 51
360.0
  0
ARC
  5
72
100
AcDbEntity
  8
4
370
    50
100
AcDbCircle
 10
275.090993
 20
49.905433
 30
0.0
 40
23.0
100
AcDbArc
 50
0.0
 51
14.001241
  0
LINE
  5
73
100
AcDbEntity
  8
4
370
    25
  6
CENTER
100
AcDbLine
 10
-200.71119
 20
152.402817
 30
0.0
 11
-200.71119
 21
-84.351486
 31
0.0
  0
LINE
  5
74
100
AcDbEntity
  8
4
370
    50
100
AcDbLine
 10
-227.207699
 20
-11.276795
 30
0.0
 11
-226.461366
 21
31.4806
 31
0.0
  0
LINE
  5
75
100
AcDbEntity
  8
4
370
    50
100
AcDbLine
 10
-174.21468
 20
-11.276795
 30
0.0
 11
-174.961013
 21
31.4806
 31
0.0
  0
LINE
  5
76
100
AcDbEntity
  8
4
370
    50
100
AcDbLine
 10
-223.71119
 20
46.369988
 30
0.0
 11
-223.71119
 21
43.288551
 31
0.0
  0
LINE
  5
77
100
AcDbEntity
  8
4
370
    50
100
AcDbLine
 10
-177.71119
 20
46.369988
 30
0.0
 11
-177.71119
 21
43.288551
 31
0.0
  0
LINE
  5
78
100
AcDbEntity
  8
4
370
    50
100
AcDbLine
 10
-174.41119
 20
-11.476765
 30
0.0
 11
-174.21468
 21
-11.276795
 31
0.0
  0
LINE
  5
79
100
AcDbEntity
  8
4
370
    50
100
AcDbLine
 10
-174.21468
 20
-11.276795
 30
0.0
 11
-188.21119
 21
-11.276795
 31
0.0
  0
LINE
  5
7A
100
AcDbEntity
  8
4
370
    25
100
AcDbLine
 10
-188.21119
 20
42.023235
 30
0.0
 11
-177.431296
 21
42.023235
 31
0.0
  0
LINE
  5
7B
100
AcDbEntity
  8
4
370
    25
100
AcDbLine
 10
-188.21119
 20
39.023235
 30
0.0
 11
-175.71119
 21
39.023235
 31
0.0
  0
ARC
  5
7C
100
AcDbEntity
  8
4
370
    50
100
AcDbCircle
 10
-224.953398
 20
30.607979
 30
0.0
 40
50.0
100
AcDbArc
 50
1.0
 51
8.812469
  0
ARC
  5
7D
100
AcDbEntity
  8
4
370
    50
100
AcDbCircle
 10
-174.71119
 20
43.288551
 30
0.0
 40
3.0
100
AcDbArc
 50
180.0
 51
221.297605
  0
ARC
  5
7E
100
AcDbEntity
  8
4
370
    50
100
AcDbCircle
 10
-181.472815
 20
37.348818
 30
0.0
 40
6.0
100
AcDbArc
 50
8.812469
 51
41.297605
  0
ARC
  5
7F
100
AcDbEntity
  8
4
370
    50
100
AcDbCircle
 10
-176.468982
 20
30.607979
 30
0.0
 40
50.0
100
AcDbArc
 50
171.187531
 51
179.0
  0
ARC
  5
80
100
AcDbEntity
  8
4
370
    50
100
AcDbCircle
 10
-219.949564
 20
37.348818
 30
0.0
 40
6.0
100
AcDbArc
 50
138.702395
 51
171.187531
  0
LINE
  5
81
100
AcDbEntity
  8
4
370
    50
100
AcDbLine
 10
-227.01119
 20
-11.476765
 30
0.0
 11
-227.207699
 21
-11.276795
 31
0.0
  0
LINE
  5
82
100
AcDbEntity
  8
4
370
    25
100
AcDbLine
 10
-213.21119
 20
42.023235
 30
0.0
 11
-223.991084
 21
42.023235
 31
0.0
  0
LINE
  5
83
100
AcDbEntity
  8
4
370
    25
100
AcDbLine
 10
-213.21119
 20
39.023235
 30
0.0
 11
-225.71119
 21
39.023235
 31
0.0
  0
LINE
  5
84
100
AcDbEntity
  8
4
370
    50
100
AcDbLine
 10
-227.207699
 20
-11.276795
 30
0.0
 11
-213.21119
 21
-11.276795
 31
0.0
  0
POINT
  5
85
100
AcDbEntity
  8
4
370
    50
100
AcDbPoint
 10
-200.71119
 20
41.424581
 30
0.0
  0
LINE
  5
86
100
AcDbEntity
  8
4
370
    50
100
AcDbLine
 10
-310.211554
 20
-76.077505
 30
0.0
 11
-291.962455
 21
-76.077505
 31
0.0
  0
LINE
  5
87
100
AcDbEntity
  8
4
370
    50
100
AcDbLine
 10
-312.461561
 20
-76.077505
 30
0.0
 11
-310.211554
 21
-76.077505
 31
0.0
  0
LINE
  5
88
100
AcDbEntity
  8
4
370
    50
100
AcDbLine
 10
-116.712139
 20
-98.578356
 30
0.0
 11
-116.712139
 21
-97.078356
 31
0.0
  0
LINE
  5
89
100
AcDbEntity
  8
4
370
    50
100
AcDbLine
 10
-99.212139
 20
-97.078356
 30
0.0
 11
-116.712139
 21
-97.078356
 31
0.0
  0
LINE
  5
8A
100
AcDbEntity
  8
4
370
    50
100
AcDbLine
 10
-99.212139
 20
-98.578356
 30
0.0
 11
-116.712139
 21
-98.578356
 31
0.0
  0
LINE
  5
8B
100
AcDbEntity
  8
4
370
    50
100
AcDbLine
 10
-111.212139
 20
-107.278356
 30
0.0
 11
-99.212139
 21
-107.278356
 31
0.0
  0
LINE
  5
8C
100
AcDbEntity
  8
4
370
    50
100
AcDbLine
 10
-112.962139
 20
-106.267993
 30
0.0
 11
-112.962139
 21
-100.778356
 31
0.0
  0
LINE
  5
8D
100
AcDbEntity
  8
4
370
    50
100
AcDbLine
 10
-111.212139
 20
-107.278356
 30
0.0
 11
-112.962139
 21
-106.267993
 31
0.0
  0
LINE
  5
8E
100
AcDbEntity
  8
4
370
    50
100
AcDbLine
 10
-119.212139
 20
-100.278356
 30
0.0
 11
-119.212139
 21
-99.078356
 31
0.0
  0
LINE
  5
8F
100
AcDbEntity
  8
4
370
    50
100
AcDbLine
 10
-99.212139
 20
-100.778356
 30
0.0
 11
-113.53269
 21
-100.778356
 31
0.0
  0
LINE
  5
90
100
AcDbEntity
  8
4
370
    50
100
AcDbLine
 10
-119.212139
 20
-99.078356
 30
0.0
 11
-99.212139
 21
-99.078356
 31
0.0
  0
LINE
  5
91
100
AcDbEntity
  8
4
370
    50
100
AcDbLine
 10
-119.212139
 20
-100.278356
 30
0.0
 11
-99.212139
 21
-100.278356
 31
0.0
  0
ARC
  5
92
100
AcDbEntity
  8
4
370
    50
100
AcDbCircle
 10
-113.53269
 20
-95.778356
 30
0.0
 40
5.0
100
AcDbArc
 50
246.443536
 51
270.0
  0
ARC
  5
93
100
AcDbEntity
  8
4
370
    50
100
AcDbCircle
 10
-113.53269
 20
-103.578356
 30
0.0
 40
5.0
100
AcDbArc
 50
90.0
 51
113.556464
  0
ARC
  5
94
100
AcDbEntity
  8
4
370
    50
100
AcDbCircle
 10
-115.930606
 20
-101.278356
 30
0.0
 40
1.0
100
AcDbArc
 50
66.443536
 51
90.0
  0
ARC
  5
95
100
AcDbEntity
  8
4
370
    50
100
AcDbCircle
 10
-115.930606
 20
-98.078356
 30
0.0
 40
1.0
100
AcDbArc
 50
270.0
 51
293.556464
  0
LINE
  5
96
100
AcDbEntity
  8
4
370
    50
100
AcDbLine
 10
-106.212139
 20
-106.267993
 30
0.0
 11
-106.212139
 21
-100.778356
 31
0.0
  0
ARC
  5
97
100
AcDbEntity
  8
4
370
    50
100
AcDbCircle
 10
-99.212139
 20
-82.524464
 30
0.0
 40
24.753893
100
AcDbArc
 50
253.573579
 51
270.0
  0
ARC
  5
98
100
AcDbEntity
  8
4
370
    50
100
AcDbCircle
 10
-109.587139
 20
-101.136277
 30
0.0
 40
6.142079
100
AcDbArc
 50
236.668091
 51
303.331909
  0
ARC
  5
99
100
AcDbEntity
  8
4
370
    50
100
AcDbCircle
 10
-99.212139
 20
-84.528356
 30
0.0
 40
16.25
100
AcDbArc
 50
255.749967
 51
270.0
  0
ARC
  5
9A
100
AcDbEntity
  8
4
370
    50
100
AcDbCircle
 10
-107.462139
 20
-84.528356
 30
0.0
 40
16.25
100
AcDbArc
 50
255.749967
 51
277.069714
  0
ARC
  5
9B
100
AcDbEntity
  8
4
370
    50
100
AcDbCircle
 10
-103.462139
 20
-84.528356
 30
0.0
 40
16.25
100
AcDbArc
 50
255.749967
 51
277.514045
  0
ARC
  5
9C
100
AcDbEntity
  8
4
370
    50
100
AcDbCircle
 10
-111.462139
 20
-84.528356
 30
0.0
 40
16.25
100
AcDbArc
 50
270.0
 51
277.069714
  0
ARC
  5
9D
100
AcDbEntity
  8
4
370
    50
100
AcDbCircle
 10
-99.212139
 20
-114.828356
 30
0.0
 40
16.25
100
AcDbArc
 50
90.0
 51
104.250033
  0
ARC
  5
9E
100
AcDbEntity
  8
4
370
    50
100
AcDbCircle
 10
-103.462139
 20
-114.828356
 30
0.0
 40
16.25
100
AcDbArc
 50
82.485955
 51
104.250033
  0
ARC
  5
9F
100
AcDbEntity
  8
4
370
    50
100
AcDbCircle
 10
-107.462139
 20
-114.828356
 30
0.0
 40
16.25
100
AcDbArc
 50
82.930286
 51
104.250033
  0
ARC
  5
A0
100
AcDbEntity
  8
4
370
    50
100
AcDbCircle
 10
-111.462139
 20
-114.828356
 30
0.0
 40
16.25
100
AcDbArc
 50
82.930286
 51
90.0
  0
LINE
  5
A1
100
AcDbEntity
  8
4
370
    50
100
AcDbLine
 10
-81.711245
 20
-98.578356
 30
0.0
 11
-81.711245
 21
-97.078356
 31
0.0
  0
LINE
  5
A2
100
AcDbEntity
  8
4
370
    50
100
AcDbLine
 10
-99.211245
 20
-97.078356
 30
0.0
 11
-81.711245
 21
-97.078356
 31
0.0
  0
LINE
  5
A3
100
AcDbEntity
  8
4
370
    50
100
AcDbLine
 10
-99.211245
 20
-98.578356
 30
0.0
 11
-81.711245
 21
-98.578356
 31
0.0
  0
LINE
  5
A4
100
AcDbEntity
  8
4
370
    50
100
AcDbLine
 10
-87.211245
 20
-107.278356
 30
0.0
 11
-99.211245
 21
-107.278356
 31
0.0
  0
LINE
  5
A5
100
AcDbEntity
  8
4
370
    50
100
AcDbLine
 10
-85.461245
 20
-106.267993
 30
0.0
 11
-85.461245
 21
-100.778356
 31
0.0
  0
LINE
  5
A6
100
AcDbEntity
  8
4
370
    50
100
AcDbLine
 10
-87.211245
 20
-107.278356
 30
0.0
 11
-85.461245
 21
-106.267993
 31
0.0
  0
LINE
  5
A7
100
AcDbEntity
  8
4
370
    50
100
AcDbLine
 10
-79.211245
 20
-100.278356
 30
0.0
 11
-79.211245
 21
-99.078356
 31
0.0
  0
LINE
  5
A8
100
AcDbEntity
  8
4
370
    50
100
AcDbLine
 10
-99.211245
 20
-100.778356
 30
0.0
 11
-84.890695
 21
-100.778356
 31
0.0
  0
LINE
  5
A9
100
AcDbEntity
  8
4
370
    50
100
AcDbLine
 10
-79.211245
 20
-99.078356
 30
0.0
 11
-99.211245
 21
-99.078356
 31
0.0
  0
LINE
  5
AA
100
AcDbEntity
  8
4
370
    50
100
AcDbLine
 10
-79.211245
 20
-100.278356
 30
0.0
 11
-99.211245
 21
-100.278356
 31
0.0
  0
ARC
  5
AB
100
AcDbEntity
  8
4
370
    50
100
AcDbCircle
 10
-84.890695
 20
-95.778356
 30
0.0
 40
5.0
100
AcDbArc
 50
270.0
 51
293.556464
  0
ARC
  5
AC
100
AcDbEntity
  8
4
370
    50
100
AcDbCircle
 10
-84.890695
 20
-103.578356
 30
0.0
 40
5.0
100
AcDbArc
 50
66.443536
 51
90.0
  0
ARC
  5
AD
100
AcDbEntity
  8
4
370
    50
100
AcDbCircle
 10
-82.492779
 20
-101.278356
 30
0.0
 40
1.0
100
AcDbArc
 50
90.0
 51
113.556464
  0
ARC
  5
AE
100
AcDbEntity
  8
4
370
    50
100
AcDbCircle
 10
-82.492779
 20
-98.078356
 30
0.0
 40
1.0
100
AcDbArc
 50
246.443536
 51
270.0
  0
LINE
  5
AF
100
AcDbEntity
  8
4
370
    50
100
AcDbLine
 10
-92.211245
 20
-106.267993
 30
0.0
 11
-92.211245
 21
-100.778356
 31
0.0
  0
ARC
  5
B0
100
AcDbEntity
  8
4
370
    50
100
AcDbCircle
 10
-99.211245
 20
-82.524464
 30
0.0
 40
24.753893
100
AcDbArc
 50
270.0
 51
286.426421
  0
ARC
  5
B1
100
AcDbEntity
  8
4
370
    50
100
AcDbCircle
 10
-88.836245
 20
-101.136277
 30
0.0
 40
6.142079
100
AcDbArc
 50
236.668091
 51
303.331909
  0
ARC
  5
B2
100
AcDbEntity
  8
4
370
    50
100
AcDbCircle
 10
-90.961245
 20
-84.528356
 30
0.0
 40
16.25
100
AcDbArc
 50
262.930286
 51
284.250033
  0
ARC
  5
B3
100
AcDbEntity
  8
4
370
    50
100
AcDbCircle
 10
-94.961245
 20
-84.528356
 30
0.0
 40
16.25
100
AcDbArc
 50
262.485955
 51
284.250033
  0
ARC
  5
B4
100
AcDbEntity
  8
4
370
    50
100
AcDbCircle
 10
-86.961245
 20
-84.528356
 30
0.0
 40
16.25
100
AcDbArc
 50
262.930286
 51
270.0
  0
ARC
  5
B5
100
AcDbEntity
  8
4
370
    50
100
AcDbCircle
 10
-94.961245
 20
-114.828356
 30
0.0
 40
16.25
100
AcDbArc
 50
75.749967
 51
97.514045
  0
ARC
  5
B6
100
AcDbEntity
  8
4
370
    50
100
AcDbCircle
 10
-90.961245
 20
-114.828356
 30
0.0
 40
16.25
100
AcDbArc
 50
75.749967
 51
97.069714
  0
ARC
  5
B7
100
AcDbEntity
  8
4
370
    50
100
AcDbCircle
 10
-86.961245
 20
-114.828356
 30
0.0
 40
16.25
100
AcDbArc
 50
90.0
 51
97.069714
  0
LINE
  5
B8
100
AcDbEntity
  8
4
370
    50
100
AcDbLine
 10
-88.961245
 20
-78.578048
 30
0.0
 11
-88.961245
 21
-97.078356
 31
0.0
  0
LINE
  5
B9
100
AcDbEntity
  8
4
370
    25
100
AcDbLine
 10
-89.961245
 20
-78.578048
 30
0.0
 11
-89.961245
 21
-97.078356
 31
0.0
  0
LINE
  5
BA
100
AcDbEntity
  8
4
370
    25
100
AcDbLine
 10
-108.462139
 20
-78.578048
 30
0.0
 11
-108.462139
 21
-97.078356
 31
0.0
  0
LINE
  5
BB
100
AcDbEntity
  8
4
370
    50
100
AcDbLine
 10
-109.462139
 20
-78.578048
 30
0.0
 11
-109.462139
 21
-97.078356
 31
0.0
  0
LINE
  5
BC
100
AcDbEntity
  8
4
370
    50
100
AcDbLine
 10
-325.211231
 20
-76.078048
 30
0.0
 11
-312.461561
 21
-76.078048
 31
0.0
  0
LINE
  5
BD
100
AcDbEntity
  8
4
370
    50
100
AcDbLine
 10
-291.962455
 20
-76.078048
 30
0.0
 11
-76.211231
 21
-76.078048
 31
0.0
  0
LINE
  5
BE
100
AcDbEntity
  8
4
370
    50
100
AcDbLine
 10
257.589861
 20
-98.578356
 30
0.0
 11
257.589861
 21
-97.078356
 31
0.0
  0
LINE
  5
BF
100
AcDbEntity
  8
4
370
    50
100
AcDbLine
 10
275.089861
 20
-97.078356
 30
0.0
 11
257.589861
 21
-97.078356
 31
0.0
  0
LINE
  5
C0
100
AcDbEntity
  8
4
370
    50
100
AcDbLine
 10
275.089861
 20
-98.578356
 30
0.0
 11
257.589861
 21
-98.578356
 31
0.0
  0
LINE
  5
C1
100
AcDbEntity
  8
4
370
    25
100
AcDbLine
 10
265.839861
 20
-126.578402
 30
0.0
 11
265.839861
 21
-107.278356
 31
0.0
  0
LINE
  5
C2
100
AcDbEntity
  8
4
370
    50
100
AcDbLine
 10
264.839861
 20
-126.578402
 30
0.0
 11
264.839861
 21
-107.278356
 31
0.0
  0
LINE
  5
C3
100
AcDbEntity
  8
4
370
    50
100
AcDbLine
 10
263.089861
 20
-107.278356
 30
0.0
 11
275.089861
 21
-107.278356
 31
0.0
  0
LINE
  5
C4
100
AcDbEntity
  8
4
370
    50
100
AcDbLine
 10
261.339861
 20
-106.267993
 30
0.0
 11
261.339861
 21
-100.778356
 31
0.0
  0
LINE
  5
C5
100
AcDbEntity
  8
4
370
    50
100
AcDbLine
 10
263.089861
 20
-107.278356
 30
0.0
 11
261.339861
 21
-106.267993
 31
0.0
  0
LINE
  5
C6
100
AcDbEntity
  8
4
370
    50
100
AcDbLine
 10
255.089861
 20
-100.278356
 30
0.0
 11
255.089861
 21
-99.078356
 31
0.0
  0
LINE
  5
C7
100
AcDbEntity
  8
4
370
    50
100
AcDbLine
 10
275.089861
 20
-100.778356
 30
0.0
 11
260.76931
 21
-100.778356
 31
0.0
  0
LINE
  5
C8
100
AcDbEntity
  8
4
370
    50
100
AcDbLine
 10
255.089861
 20
-99.078356
 30
0.0
 11
275.089861
 21
-99.078356
 31
0.0
  0
LINE
  5
C9
100
AcDbEntity
  8
4
370
    50
100
AcDbLine
 10
255.089861
 20
-100.278356
 30
0.0
 11
275.089861
 21
-100.278356
 31
0.0
  0
ARC
  5
CA
100
AcDbEntity
  8
4
370
    50
100
AcDbCircle
 10
260.76931
 20
-95.778356
 30
0.0
 40
5.0
100
AcDbArc
 50
246.443536
 51
270.0
  0
ARC
  5
CB
100
AcDbEntity
  8
4
370
    50
100
AcDbCircle
 10
260.76931
 20
-103.578356
 30
0.0
 40
5.0
100
AcDbArc
 50
90.0
 51
113.556464
  0
ARC
  5
CC
100
AcDbEntity
  8
4
370
    50
100
AcDbCircle
 10
258.371394
 20
-101.278356
 30
0.0
 40
1.0
100
AcDbArc
 50
66.443536
 51
90.0
  0
ARC
  5
CD
100
AcDbEntity
  8
4
370
    50
100
AcDbCircle
 10
258.371394
 20
-98.078356
 30
0.0
 40
1.0
100
AcDbArc
 50
270.0
 51
293.556464
  0
LINE
  5
CE
100
AcDbEntity
  8
4
370
    50
100
AcDbLine
 10
268.089861
 20
-106.267993
 30
0.0
 11
268.089861
 21
-100.778356
 31
0.0
  0
ARC
  5
CF
100
AcDbEntity
  8
4
370
    50
100
AcDbCircle
 10
275.089861
 20
-82.524464
 30
0.0
 40
24.753893
100
AcDbArc
 50
253.573579
 51
270.0
  0
ARC
  5
D0
100
AcDbEntity
  8
4
370
    50
100
AcDbCircle
 10
264.714861
 20
-101.136277
 30
0.0
 40
6.142079
100
AcDbArc
 50
236.668091
 51
303.331909
  0
ARC
  5
D1
100
AcDbEntity
  8
4
370
    50
100
AcDbCircle
 10
275.089861
 20
-84.528356
 30
0.0
 40
16.25
100
AcDbArc
 50
255.749967
 51
270.0
  0
ARC
  5
D2
100
AcDbEntity
  8
4
370
    50
100
AcDbCircle
 10
266.839861
 20
-84.528356
 30
0.0
 40
16.25
100
AcDbArc
 50
255.749967
 51
277.069714
  0
ARC
  5
D3
100
AcDbEntity
  8
4
370
    50
100
AcDbCircle
 10
270.839861
 20
-84.528356
 30
0.0
 40
16.25
100
AcDbArc
 50
255.749967
 51
277.514045
  0
ARC
  5
D4
100
AcDbEntity
  8
4
370
    50
100
AcDbCircle
 10
262.839861
 20
-84.528356
 30
0.0
 40
16.25
100
AcDbArc
 50
270.0
 51
277.069714
  0
ARC
  5
D5
100
AcDbEntity
  8
4
370
    50
100
AcDbCircle
 10
275.089861
 20
-114.828356
 30
0.0
 40
16.25
100
AcDbArc
 50
90.0
 51
104.250033
  0
ARC
  5
D6
100
AcDbEntity
  8
4
370
    50
100
AcDbCircle
 10
270.839861
 20
-114.828356
 30
0.0
 40
16.25
100
AcDbArc
 50
82.485955
 51
104.250033
  0
ARC
  5
D7
100
AcDbEntity
  8
4
370
    50
100
AcDbCircle
 10
266.839861
 20
-114.828356
 30
0.0
 40
16.25
100
AcDbArc
 50
82.930286
 51
104.250033
  0
ARC
  5
D8
100
AcDbEntity
  8
4
370
    50
100
AcDbCircle
 10
262.839861
 20
-114.828356
 30
0.0
 40
16.25
100
AcDbArc
 50
82.930286
 51
90.0
  0
LINE
  5
D9
100
AcDbEntity
  8
4
370
    50
100
AcDbLine
 10
292.590755
 20
-98.578356
 30
0.0
 11
292.590755
 21
-97.078356
 31
0.0
  0
LINE
  5
DA
100
AcDbEntity
  8
4
370
    50
100
AcDbLine
 10
275.090755
 20
-97.078356
 30
0.0
 11
292.590755
 21
-97.078356
 31
0.0
  0
LINE
  5
DB
100
AcDbEntity
  8
4
370
    50
100
AcDbLine
 10
275.090755
 20
-98.578356
 30
0.0
 11
292.590755
 21
-98.578356
 31
0.0
  0
LINE
  5
DC
100
AcDbEntity
  8
4
370
    25
100
AcDbLine
 10
284.340755
 20
-126.578402
 30
0.0
 11
284.340755
 21
-107.278356
 31
0.0
  0
LINE
  5
DD
100
AcDbEntity
  8
4
370
    50
100
AcDbLine
 10
285.340755
 20
-126.578402
 30
0.0
 11
285.340755
 21
-107.278356
 31
0.0
  0
LINE
  5
DE
100
AcDbEntity
  8
4
370
    50
100
AcDbLine
 10
287.090755
 20
-107.278356
 30
0.0
 11
275.090755
 21
-107.278356
 31
0.0
  0
LINE
  5
DF
100
AcDbEntity
  8
4
370
    50
100
AcDbLine
 10
288.840755
 20
-106.267993
 30
0.0
 11
288.840755
 21
-100.778356
 31
0.0
  0
LINE
  5
E0
100
AcDbEntity
  8
4
370
    50
100
AcDbLine
 10
287.090755
 20
-107.278356
 30
0.0
 11
288.840755
 21
-106.267993
 31
0.0
  0
LINE
  5
E1
100
AcDbEntity
  8
4
370
    50
100
AcDbLine
 10
295.090755
 20
-100.278356
 30
0.0
 11
295.090755
 21
-99.078356
 31
0.0
  0
LINE
  5
E2
100
AcDbEntity
  8
4
370
    50
100
AcDbLine
 10
275.090755
 20
-100.778356
 30
0.0
 11
289.411305
 21
-100.778356
 31
0.0
  0
LINE
  5
E3
100
AcDbEntity
  8
4
370
    50
100
AcDbLine
 10
295.090755
 20
-99.078356
 30
0.0
 11
275.090755
 21
-99.078356
 31
0.0
  0
LINE
  5
E4
100
AcDbEntity
  8
4
370
    50
100
AcDbLine
 10
295.090755
 20
-100.278356
 30
0.0
 11
275.090755
 21
-100.278356
 31
0.0
  0
ARC
  5
E5
100
AcDbEntity
  8
4
370
    50
100
AcDbCircle
 10
289.411305
 20
-95.778356
 30
0.0
 40
5.0
100
AcDbArc
 50
270.0
 51
293.556464
  0
ARC
  5
E6
100
AcDbEntity
  8
4
370
    50
100
AcDbCircle
 10
289.411305
 20
-103.578356
 30
0.0
 40
5.0
100
AcDbArc
 50
66.443536
 51
90.0
  0
ARC
  5
E7
100
AcDbEntity
  8
4
370
    50
100
AcDbCircle
 10
291.809221
 20
-101.278356
 30
0.0
 40
1.0
100
AcDbArc
 50
90.0
 51
113.556464
  0
ARC
  5
E8
100
AcDbEntity
  8
4
370
    50
100
AcDbCircle
 10
291.809221
 20
-98.078356
 30
0.0
 40
1.0
100
AcDbArc
 50
246.443536
 51
270.0
  0
LINE
  5
E9
100
AcDbEntity
  8
4
370
    50
100
AcDbLine
 10
282.090755
 20
-106.267993
 30
0.0
 11
282.090755
 21
-100.778356
 31
0.0
  0
ARC
  5
EA
100
AcDbEntity
  8
4
370
    50
100
AcDbCircle
 10
275.090755
 20
-82.524464
 30
0.0
 40
24.753893
100
AcDbArc
 50
270.0
 51
286.426421
  0
ARC
  5
EB
100
AcDbEntity
  8
4
370
    50
100
AcDbCircle
 10
285.465755
 20
-101.136277
 30
0.0
 40
6.142079
100
AcDbArc
 50
236.668091
 51
303.331909
  0
ARC
  5
EC
100
AcDbEntity
  8
4
370
    50
100
AcDbCircle
 10
283.340755
 20
-84.528356
 30
0.0
 40
16.25
100
AcDbArc
 50
262.930286
 51
284.250033
  0
ARC
  5
ED
100
AcDbEntity
  8
4
370
    50
100
AcDbCircle
 10
279.340755
 20
-84.528356
 30
0.0
 40
16.25
100
AcDbArc
 50
262.485955
 51
284.250033
  0
ARC
  5
EE
100
AcDbEntity
  8
4
370
    50
100
AcDbCircle
 10
287.340755
 20
-84.528356
 30
0.0
 40
16.25
100
AcDbArc
 50
262.930286
 51
270.0
  0
ARC
  5
EF
100
AcDbEntity
  8
4
370
    50
100
AcDbCircle
 10
279.340755
 20
-114.828356
 30
0.0
 40
16.25
100
AcDbArc
 50
75.749967
 51
97.514045
  0
ARC
  5
F0
100
AcDbEntity
  8
4
370
    50
100
AcDbCircle
 10
283.340755
 20
-114.828356
 30
0.0
 40
16.25
100
AcDbArc
 50
75.749967
 51
97.069714
  0
ARC
  5
F1
100
AcDbEntity
  8
4
370
    50
100
AcDbCircle
 10
287.340755
 20
-114.828356
 30
0.0
 40
16.25
100
AcDbArc
 50
90.0
 51
97.069714
  0
LINE
  5
F2
100
AcDbEntity
  8
4
370
    50
100
AcDbLine
 10
285.340755
 20
-78.577736
 30
0.0
 11
285.340755
 21
-97.078356
 31
0.0
  0
LINE
  5
F3
100
AcDbEntity
  8
4
370
    25
100
AcDbLine
 10
284.340755
 20
-78.577736
 30
0.0
 11
284.340755
 21
-97.078356
 31
0.0
  0
LINE
  5
F4
100
AcDbEntity
  8
4
370
    25
100
AcDbLine
 10
265.839861
 20
-78.577736
 30
0.0
 11
265.839861
 21
-97.078356
 31
0.0
  0
LINE
  5
F5
100
AcDbEntity
  8
4
370
    50
100
AcDbLine
 10
264.839861
 20
-78.577736
 30
0.0
 11
264.839861
 21
-97.078356
 31
0.0
  0
LINE
  5
F6
100
AcDbEntity
  8
4
370
    50
100
AcDbLine
 10
-227.211231
 20
-46.978048
 30
0.0
 11
-174.211231
 21
-46.978048
 31
0.0
  0
LINE
  5
F7
100
AcDbEntity
  8
4
370
    50
100
AcDbLine
 10
-227.211231
 20
-12.186765
 30
0.0
 11
-227.211231
 21
-48.078048
 31
0.0
  0
LINE
  5
F8
100
AcDbEntity
  8
4
370
    50
100
AcDbLine
 10
-174.211231
 20
-12.186765
 30
0.0
 11
-174.211231
 21
-48.078048
 31
0.0
  0
LINE
  5
F9
100
AcDbEntity
  8
4
370
    50
100
AcDbLine
 10
-227.01119
 20
-11.476765
 30
0.0
 11
-213.21119
 21
-11.476765
 31
0.0
  0
LINE
  5
FA
100
AcDbEntity
  8
4
370
    50
100
AcDbLine
 10
-188.21119
 20
-11.476765
 30
0.0
 11
-174.41119
 21
-11.476765
 31
0.0
  0
LINE
  5
FB
100
AcDbEntity
  8
4
370
    50
100
AcDbLine
 10
-223.461231
 20
-11.978048
 30
0.0
 11
-213.21119
 21
-11.978048
 31
0.0
  0
LINE
  5
FC
100
AcDbEntity
  8
4
370
    50
100
AcDbLine
 10
-188.21119
 20
-11.978048
 30
0.0
 11
-177.961231
 21
-11.978048
 31
0.0
  0
LINE
  5
FD
100
AcDbEntity
  8
4
370
    50
100
AcDbLine
 10
-227.211231
 20
-12.186765
 30
0.0
 11
-213.21119
 21
-12.186765
 31
0.0
  0
LINE
  5
FE
100
AcDbEntity
  8
4
370
    50
100
AcDbLine
 10
-188.21119
 20
-12.186765
 30
0.0
 11
-174.211231
 21
-12.186765
 31
0.0
  0
LINE
  5
FF
100
AcDbEntity
  8
4
370
    50
100
AcDbLine
 10
-312.461135
 20
-78.578048
 30
0.0
 11
-76.211231
 21
-78.578048
 31
0.0
  0
LINE
  5
100
100
AcDbEntity
  8
4
370
    50
100
AcDbLine
 10
-325.211231
 20
-78.578048
 30
0.0
 11
-312.461561
 21
-78.578048
 31
0.0
  0
LINE
  5
101
100
AcDbEntity
  8
4
370
    50
100
AcDbLine
 10
-76.211231
 20
-78.578048
 30
0.0
 11
-76.211231
 21
-76.078048
 31
0.0
  0
LINE
  5
102
100
AcDbEntity
  8
4
370
    50
100
AcDbLine
 10
-325.211231
 20
-78.578048
 30
0.0
 11
-325.211231
 21
-76.078048
 31
0.0
  0
LINE
  5
103
100
AcDbEntity
  8
4
370
    50
100
AcDbLine
 10
247.611153
 20
-78.577736
 30
0.0
 11
302.571153
 21
-78.577736
 31
0.0
  0
LINE
  5
104
100
AcDbEntity
  8
4
370
    50
100
AcDbLine
 10
302.571153
 20
-78.577736
 30
0.0
 11
302.571153
 21
-76.077736
 31
0.0
  0
LINE
  5
105
100
AcDbEntity
  8
4
370
    50
100
AcDbLine
 10
247.611153
 20
-78.577736
 30
0.0
 11
247.611153
 21
-76.077736
 31
0.0
  0
LINE
  5
106
100
AcDbEntity
  8
4
370
    50
100
AcDbLine
 10
-223.261231
 20
-76.078347
 30
0.0
 11
-204.161231
 21
-76.078347
 31
0.0
  0
LINE
  5
107
100
AcDbEntity
  8
4
370
    25
100
AcDbLine
 10
-108.461332
 20
-125.078667
 30
0.0
 11
-108.461332
 21
-107.278049
 31
0.0
  0
LINE
  5
108
100
AcDbEntity
  8
4
370
    50
100
AcDbLine
 10
-109.461332
 20
-125.078667
 30
0.0
 11
-109.461332
 21
-107.278049
 31
0.0
  0
LINE
  5
109
100
AcDbEntity
  8
4
370
    25
100
AcDbLine
 10
-89.960437
 20
-125.078667
 30
0.0
 11
-89.960437
 21
-107.278049
 31
0.0
  0
LINE
  5
10A
100
AcDbEntity
  8
4
370
    50
100
AcDbLine
 10
-88.960437
 20
-125.078667
 30
0.0
 11
-88.960437
 21
-107.278049
 31
0.0
  0
POINT
  5
10B
100
AcDbEntity
  8
4
370
    50
100
AcDbPoint
 10
248.591196
 20
-28.334964
 30
0.0
  0
LINE
  5
10C
100
AcDbEntity
  8
4
370
    50
100
AcDbLine
 10
-212.71119
 20
87.285383
 30
0.0
 11
-212.71119
 21
79.541753
 31
0.0
  0
LINE
  5
10D
100
AcDbEntity
  8
4
370
    50
100
AcDbLine
 10
-188.71119
 20
87.285383
 30
0.0
 11
-188.71119
 21
79.541753
 31
0.0
  0
ELLIPSE
  5
10E
100
AcDbEntity
  8
4
370
    50
100
AcDbEllipse
 10
-200.71119
 20
87.285383
 30
0.0
 11
12.0
 21
0.0
 31
0.0
210
0.0
220
0.0
230
1.0
 40
0.087156
 41
0.0
 42
3.1415929999999999
  0
ELLIPSE
  5
10F
100
AcDbEntity
  8
4
370
    25
100
AcDbEllipse
 10
-200.71119
 20
79.541753
 30
0.0
 11
12.0
 21
0.0
 31
0.0
210
0.0
220
0.0
230
1.0
 40
0.084932
 41
0.379329
 42
2.7755260000000002
  0
LINE
  5
110
100
AcDbEntity
  8
4
370
    50
100
AcDbLine
 10
-188.71119
 20
79.541753
 30
0.0
 11
-189.71119
 21
76.028383
 31
0.0
  0
LINE
  5
111
100
AcDbEntity
  8
4
370
    50
100
AcDbLine
 10
-212.71119
 20
79.541753
 30
0.0
 11
-211.71119
 21
76.028383
 31
0.0
  0
LINE
  5
112
100
AcDbEntity
  8
4
370
    50
100
AcDbLine
 10
-189.71119
 20
89.975109
 30
0.0
 11
-189.71119
 21
87.703368
 31
0.0
  0
ELLIPSE
  5
113
100
AcDbEntity
  8
4
370
    50
100
AcDbEllipse
 10
-200.71119
 20
89.975109
 30
0.0
 11
11.0
 21
0.0
 31
0.0
210
0.0
220
0.0
230
1.0
 40
0.087156
 41
0.0
 42
3.1415929999999999
  0
LINE
  5
114
100
AcDbEntity
  8
4
370
    50
100
AcDbLine
 10
-211.71119
 20
89.975109
 30
0.0
 11
-211.71119
 21
87.703368
 31
0.0
  0
LINE
  5
115
100
AcDbEntity
  8
4
370
    50
100
AcDbLine
 10
-213.21119
 20
100.435153
 30
0.0
 11
-213.21119
 21
-40.426095
 31
0.0
  0
ELLIPSE
  5
116
100
AcDbEntity
  8
4
370
    50
100
AcDbEllipse
 10
-200.71119
 20
89.975109
 30
0.0
 11
12.5
 21
0.0
 31
0.0
210
0.0
220
0.0
230
1.0
 40
0.104587
 41
0.0
 42
3.1415929999999999
  0
ELLIPSE
  5
117
100
AcDbEntity
  8
4
370
    50
100
AcDbEllipse
 10
-200.71119
 20
100.435153
 30
0.0
 11
12.5
 21
0.0
 31
0.0
210
0.0
220
0.0
230
1.0
 40
0.343674
 41
0.0
 42
3.1415929999999999
  0
ELLIPSE
  5
118
100
AcDbEntity
  8
4
370
    25
100
AcDbEllipse
 10
-200.71119
 20
100.435153
 30
0.0
 11
12.5
 21
0.0
 31
0.0
210
0.0
220
0.0
230
1.0
 40
0.239087
 41
0.555964
 42
2.5017369999999999
  0
ELLIPSE
  5
119
100
AcDbEntity
  8
4
370
    50
100
AcDbEllipse
 10
-200.71119
 20
76.028383
 30
0.0
 11
7.5
 21
0.0
 31
0.0
210
0.0
220
0.0
230
1.0
 40
0.087156
 41
0.0
 42
6.2831849999999996
  0
ELLIPSE
  5
11A
100
AcDbEntity
  8
4
370
    50
100
AcDbEllipse
 10
-200.71119
 20
76.028383
 30
0.0
 11
11.0
 21
0.0
 31
0.0
210
0.0
220
0.0
230
1.0
 40
0.081179
 41
0.336236
 42
2.793256
  0
ELLIPSE
  5
11B
100
AcDbEntity
  8
4
370
    50
100
AcDbEllipse
 10
-200.71119
 20
76.028383
 30
0.0
 11
11.0
 21
0.0
 31
0.0
210
0.0
220
0.0
230
1.0
 40
0.081179
 41
3.1415929999999999
 42
0.0
  0
LINE
  5
11C
100
AcDbEntity
  8
4
370
    50
100
AcDbLine
 10
-188.21119
 20
100.435153
 30
0.0
 11
-188.21119
 21
-40.426095
 31
0.0
  0
LINE
  5
11D
100
AcDbEntity
  8
4
370
    25
  6
CENTER
100
AcDbLine
 10
-99.211231
 20
-62.319603
 30
0.0
 11
-99.211231
 21
-146.183014
 31
0.0
  0
POINT
  5
11E
100
AcDbEntity
  8
4
370
    50
100
AcDbPoint
 10
-99.211231
 20
-140.678402
 30
0.0
  0
ARC
  5
11F
100
AcDbEntity
  8
4
370
    50
100
AcDbCircle
 10
-94.384922
 20
-130.828356
 30
0.0
 40
9.0
100
AcDbArc
 50
320.290983
 51
39.709017
  0
LINE
  5
120
100
AcDbEntity
  8
4
370
    50
100
AcDbLine
 10
-110.961231
 20
-136.578356
 30
0.0
 11
-87.461231
 21
-136.578356
 31
0.0
  0
LINE
  5
121
100
AcDbEntity
  8
4
370
    50
100
AcDbLine
 10
-87.461231
 20
-125.078356
 30
0.0
 11
-110.961231
 21
-125.078356
 31
0.0
  0
ELLIPSE
  5
122
100
AcDbEntity
  8
4
370
    50
100
AcDbEllipse
 10
-88.385913
 20
-130.828356
 30
0.0
 11
0.0
 21
4.6479999999999997
 31
0.0
210
0.0
220
0.0
230
1.0
 40
0.616179
 41
0.0
 42
6.2831849999999996
  0
ELLIPSE
  5
123
100
AcDbEntity
  8
4
370
    50
100
AcDbEllipse
 10
-99.211231
 20
-130.828356
 30
0.0
 11
5.7279999999999998
 21
0.0
 31
0.0
210
0.0
220
0.0
230
1.0
 40
0.811453
 41
4.7123889999999999
 42
1.5707960000000001
  0
LINE
  5
124
100
AcDbEntity
  8
4
370
    50
100
AcDbLine
 10
286.589861
 20
-138.578402
 30
0.0
 11
263.589861
 21
-138.578402
 31
0.0
  0
LINE
  5
125
100
AcDbEntity
  8
4
370
    50
100
AcDbLine
 10
286.589861
 20
-126.578402
 30
0.0
 11
263.589861
 21
-126.578402
 31
0.0
  0
LINE
  5
126
100
AcDbEntity
  8
4
370
    50
100
AcDbLine
 10
286.589861
 20
-138.578402
 30
0.0
 11
286.589861
 21
-126.578402
 31
0.0
  0
LINE
  5
127
100
AcDbEntity
  8
4
370
    50
100
AcDbLine
 10
263.589861
 20
-138.578402
 30
0.0
 11
263.589861
 21
-126.578402
 31
0.0
  0
ELLIPSE
  5
128
100
AcDbEntity
  8
4
370
    50
100
AcDbEllipse
 10
280.839861
 20
-132.578402
 30
0.0
 11
0.0
 21
6.0
 31
0.0
210
0.0
220
0.0
230
1.0
 40
0.794667
 41
0.0
 42
6.2831849999999996
  0
ELLIPSE
  5
129
100
AcDbEntity
  8
4
370
    50
100
AcDbEllipse
 10
269.339861
 20
-132.578402
 30
0.0
 11
0.0
 21
6.0
 31
0.0
210
0.0
220
0.0
230
1.0
 40
0.794667
 41
0.0
 42
6.2831849999999996
  0
POINT
  5
12A
100
AcDbEntity
  8
4
370
    50
100
AcDbPoint
 10
-99.211099
 20
-134.178356
 30
0.0
  0
POINT
  5
12B
100
AcDbEntity
  8
4
370
    50
100
AcDbPoint
 10
-99.211099
 20
-134.178356
 30
0.0
  0
ELLIPSE
  5
12C
100
AcDbEntity
  8
4
370
    50
100
AcDbEllipse
 10
-99.211231
 20
-130.828356
 30
0.0
 11
-5.7279999999999998
 21
0.0
 31
0.0
210
0.0
220
0.0
230
1.0
 40
0.811453
 41
4.7123889999999999
 42
1.5707960000000001
  0
ELLIPSE
  5
12D
100
AcDbEntity
  8
4
370
    50
100
AcDbEllipse
 10
-110.036548
 20
-130.828356
 30
0.0
 11
0.0
 21
4.6479999999999997
 31
0.0
210
0.0
220
0.0
230
1.0
 40
0.616179
 41
0.0
 42
6.2831849999999996
  0
ARC
  5
12E
100
AcDbEntity
  8
4
370
    50
100
AcDbCircle
 10
-104.037539
 20
-130.828356
 30
0.0
 40
9.0
100
AcDbArc
 50
140.290983
 51
219.709017
  0
ARC
  5
12F
100
AcDbEntity
  8
4
370
    50
100
AcDbCircle
 10
-226.71119
 20
43.288551
 30
0.0
 40
3.0
100
AcDbArc
 50
318.702395
 51
360.0
  0
POINT
  5
130
100
AcDbEntity
  8
4
370
    50
100
AcDbPoint
 10
-200.735537
 20
161.639996
 30
0.0
  0
LINE
  5
131
100
AcDbEntity
  8
4
370
    50
100
AcDbLine
 10
252.341153
 20
-48.077736
 30
0.0
 11
287.591194
 21
-48.077736
 31
0.0
  0
LINE
  5
132
100
AcDbEntity
  8
4
370
    50
100
AcDbLine
 10
287.591194
 20
-48.077736
 30
0.0
 11
297.841153
 21
-48.077736
 31
0.0
  0
LINE
  5
133
100
AcDbEntity
  8
4
370
    50
100
AcDbLine
 10
297.445162
 20
-57.577736
 30
0.0
 11
298.091196
 21
-76.077736
 31
0.0
  0
LINE
  5
134
100
AcDbEntity
  8
4
370
    50
100
AcDbLine
 10
252.562627
 20
-62.577736
 30
0.0
 11
252.091196
 21
-76.077736
 31
0.0
  0
LINE
  5
135
100
AcDbEntity
  8
4
370
    50
100
AcDbLine
 10
252.562627
 20
-62.577736
 30
0.0
 11
288.784908
 21
-62.577736
 31
0.0
  0
LINE
  5
136
100
AcDbEntity
  8
4
370
    50
100
AcDbLine
 10
275.091196
 20
-57.577736
 30
0.0
 11
297.445162
 21
-57.577736
 31
0.0
  0
ARC
  5
137
100
AcDbEntity
  8
4
370
    50
100
AcDbCircle
 10
285.349026
 20
-157.050229
 30
0.0
 40
100.0
100
AcDbArc
 50
95.88766
 51
109.13918
  0
ARC
  5
138
100
AcDbEntity
  8
4
370
    50
100
AcDbCircle
 10
257.563471
 20
-53.917969
 30
0.0
 40
10.0
100
AcDbArc
 50
201.467701
 51
239.994415
  0
ARC
  5
139
100
AcDbEntity
  8
4
370
    50
100
AcDbCircle
 10
288.784908
 20
-52.577736
 30
0.0
 40
10.0
100
AcDbArc
 50
270.0
 51
330.0
  0
ARC
  5
13A
100
AcDbEntity
  8
4
370
    50
100
AcDbCircle
 10
307.403724
 20
-56.21655
 30
0.0
 40
10.0
100
AcDbArc
 50
125.523084
 51
187.823303
  0
POINT
  5
13B
100
AcDbEntity
  8
4
370
    50
100
AcDbPoint
 10
301.499588
 20
-6.228368
 30
0.0
  0
POINT
  5
13C
100
AcDbEntity
  8
4
370
    50
100
AcDbPoint
 10
287.591194
 20
39.023548
 30
0.0
  0
POINT
  5
13D
100
AcDbEntity
  8
4
370
    50
100
AcDbPoint
 10
288.569824
 20
36.31144
 30
0.0
  0
ARC
  5
13E
100
AcDbEntity
  8
4
370
    50
100
AcDbCircle
 10
250.848784
 20
30.807998
 30
0.0
 40
50.0
100
AcDbArc
 50
0.343278
 51
8.812469
  0
LINE
  5
13F
100
AcDbEntity
  8
4
370
    50
100
AcDbLine
 10
251.708777
 20
42.023235
 30
0.0
 11
298.473208
 21
42.023235
 31
0.0
  0
LINE
  5
140
100
AcDbEntity
  8
4
370
    50
100
AcDbLine
 10
251.724553
 20
-27.679954
 30
0.0
 11
251.724553
 21
-40.254634
 31
0.0
  0
LINE
  5
141
100
AcDbEntity
  8
4
370
    50
100
AcDbLine
 10
45.777397
 20
82.892095
 30
0.0
 11
1.41306
 21
86.773471
 31
0.0
  0
LINE
  5
142
100
AcDbEntity
  8
4
370
    50
100
AcDbLine
 10
1.369482
 20
86.275374
 30
0.0
 11
2.458929
 21
98.727808
 31
0.0
  0
LINE
  5
143
100
AcDbEntity
  8
4
370
    50
100
AcDbLine
 10
46.910422
 20
95.842626
 30
0.0
 11
3.542279
 21
99.636847
 31
0.0
  0
ARC
  5
144
100
AcDbEntity
  8
4
370
    50
100
AcDbCircle
 10
3.455124
 20
98.640652
 30
0.0
 40
1.0
100
AcDbArc
 50
85.0
 51
175.0
  0
ARC
  5
145
100
AcDbEntity
  8
4
370
    50
100
AcDbCircle
 10
32.704035
 20
-66.53711
 30
0.0
 40
150.0
100
AcDbArc
 50
54.0
 51
85.0
  0
ARC
  5
146
100
AcDbEntity
  8
4
370
    50
100
AcDbCircle
 10
32.704035
 20
-66.53711
 30
0.0
 40
163.0
100
AcDbArc
 50
54.0
 51
85.0
  0
ARC
  5
147
100
AcDbEntity
  8
4
370
    50
100
AcDbCircle
 10
32.704035
 20
-66.53711
 30
0.0
 40
150.0
100
AcDbArc
 50
54.0
 51
85.0
  0
LINE
  5
148
100
AcDbEntity
  8
4
370
    50
100
AcDbLine
 10
248.591653
 20
-21.909565
 30
0.0
 11
128.513032
 21
65.33266
 31
0.0
  0
ARC
  5
149
100
AcDbEntity
  8
4
370
    50
100
AcDbCircle
 10
32.704035
 20
-66.53711
 30
0.0
 40
163.0
100
AcDbArc
 50
54.0
 51
85.0
  0
LINE
  5
14A
100
AcDbEntity
  8
4
370
    50
100
AcDbLine
 10
251.724553
 20
-40.254634
 30
0.0
 11
120.871823
 21
54.815439
 31
0.0
  0
LINE
  5
14B
100
AcDbEntity
  8
4
370
    50
100
AcDbLine
 10
27.052644
 20
81.522708
 30
0.0
 11
27.270544
 21
84.013325
 31
0.0
  0
LINE
  5
14C
100
AcDbEntity
  8
4
370
    50
100
AcDbLine
 10
5.354261
 20
85.930751
 30
0.0
 11
5.13636
 21
83.440134
 31
0.0
  0
LINE
  5
14D
100
AcDbEntity
  8
4
370
    50
100
AcDbLine
 10
1.369482
 20
86.279374
 30
0.0
 11
31.255323
 21
83.664702
 31
0.0
  0
LINE
  5
14E
100
AcDbEntity
  8
4
370
    50
100
AcDbLine
 10
27.84908
 20
81.453029
 30
0.0
 11
27.052124
 21
81.522754
 31
0.0
  0
LINE
  5
14F
100
AcDbEntity
  8
4
370
    50
100
AcDbLine
 10
28.030888
 20
81.236359
 30
0.0
 11
27.382772
 21
73.82836
 31
0.0
  0
LINE
  5
150
100
AcDbEntity
  8
4
370
    50
100
AcDbLine
 10
4.122215
 20
83.328097
 30
0.0
 11
3.474099
 21
75.920097
 31
0.0
  0
LINE
  5
151
100
AcDbEntity
  8
4
370
    50
100
AcDbLine
 10
4.027396
 20
72.58597
 30
0.0
 11
3.485486
 21
75.659293
 31
0.0
  0
LINE
  5
152
100
AcDbEntity
  8
4
370
    50
100
AcDbLine
 10
26.258916
 20
70.640964
 30
0.0
 11
27.32627
 21
73.573495
 31
0.0
  0
ARC
  5
153
100
AcDbEntity
  8
4
370
    50
100
AcDbCircle
 10
4.321454
 20
83.310666
 30
0.0
 40
0.2
100
AcDbArc
 50
85.0
 51
175.0
  0
ARC
  5
154
100
AcDbEntity
  8
4
370
    50
100
AcDbCircle
 10
27.831649
 20
81.25379
 30
0.0
 40
0.2
100
AcDbArc
 50
355.0
 51
85.0
  0
LINE
  5
155
100
AcDbEntity
  8
4
370
    50
100
AcDbLine
 10
27.052644
 20
81.522708
 30
0.0
 11
4.338885
 21
83.509905
 31
0.0
  0
ARC
  5
156
100
AcDbEntity
  8
4
370
    50
100
AcDbCircle
 10
4.470294
 20
75.832942
 30
0.0
 40
1.0
100
AcDbArc
 50
175.0
 51
190.0
  0
ARC
  5
157
100
AcDbEntity
  8
4
370
    50
100
AcDbCircle
 10
26.386577
 20
73.915515
 30
0.0
 40
1.0
100
AcDbArc
 50
340.0
 51
355.0
  0
LINE
  5
158
100
AcDbEntity
  8
4
370
    50
100
AcDbLine
 10
27.051629
 20
81.523572
 30
0.0
 11
27.269518
 21
84.014059
 31
0.0
  0
LINE
  5
159
100
AcDbEntity
  8
4
370
    50
100
AcDbLine
 10
5.135346
 20
83.440998
 30
0.0
 11
5.353235
 21
85.931485
 31
0.0
  0
LINE
  5
15A
100
AcDbEntity
  8
4
370
    50
100
AcDbLine
 10
27.848585
 20
81.453847
 30
0.0
 11
27.051629
 21
81.523572
 31
0.0
  0
LINE
  5
15B
100
AcDbEntity
  8
4
370
    50
100
AcDbLine
 10
4.33839
 20
83.510723
 30
0.0
 11
27.051629
 21
81.523572
 31
0.0
  0
LINE
  5
15C
100
AcDbEntity
  8
4
370
    50
100
AcDbLine
 10
4.884486
 20
71.919017
 30
0.0
 11
25.297907
 21
70.133075
 31
0.0
  0
LINE
  5
15D
100
AcDbEntity
  8
4
370
    50
100
AcDbLine
 10
4.33839
 20
83.510723
 30
0.0
 11
4.12172
 21
83.328915
 31
0.0
  0
LINE
  5
15E
100
AcDbEntity
  8
4
370
    50
100
AcDbLine
 10
28.030393
 20
81.237177
 30
0.0
 11
27.848585
 21
81.453847
 31
0.0
  0
ARC
  5
15F
100
AcDbEntity
  8
4
370
    50
100
AcDbCircle
 10
4.971641
 20
72.915212
 30
0.0
 40
1.0
100
AcDbArc
 50
190.945396
 51
265.0
  0
LINE
  5
160
100
AcDbEntity
  8
4
370
    50
100
AcDbLine
 10
4.12172
 20
83.328915
 30
0.0
 11
28.030393
 21
81.237177
 31
0.0
  0
LINE
  5
161
100
AcDbEntity
  8
4
370
    25
100
AcDbLine
 10
4.250131
 20
75.487886
 30
0.0
 11
26.62042
 21
73.530739
 31
0.0
  0
ARC
  5
162
100
AcDbEntity
  8
4
370
    50
100
AcDbCircle
 10
25.386188
 20
71.129171
 30
0.0
 40
1.0
100
AcDbArc
 50
265.0
 51
330.777227
  0
LINE
  5
163
100
AcDbEntity
  8
4
370
    50
100
AcDbLine
 10
31.298901
 20
84.162799
 30
0.0
 11
31.255323
 21
83.664702
 31
0.0
  0
LINE
  5
164
100
AcDbEntity
  8
4
370
    25
100
AcDbLine
 10
46.648954
 20
92.854042
 30
0.0
 11
17.208245
 21
95.42977
 31
0.0
  0
ARC
  5
165
100
AcDbEntity
  8
4
370
    25
100
AcDbCircle
 10
32.704035
 20
-66.53711
 30
0.0
 40
160.0
100
AcDbArc
 50
54.0
 51
85.0
  0
LINE
  5
166
100
AcDbEntity
  8
4
370
    25
100
AcDbLine
 10
251.724553
 20
-27.893954
 30
0.0
 11
126.749676
 21
62.905609
 31
0.0
  0
ARC
  5
167
100
AcDbEntity
  8
4
370
    50
100
AcDbCircle
 10
244.442487
 20
-27.893954
 30
0.0
 40
7.282067
100
AcDbArc
 50
0.0
 51
55.265202
  0
ARC
  5
168
100
AcDbEntity
  8
4
370
    25
100
AcDbCircle
 10
20.606846
 20
134.275954
 30
0.0
 40
38.99457
100
AcDbArc
 50
245.962986
 51
265.0
  0
POINT
  5
169
100
AcDbEntity
  8
4
370
    50
100
AcDbPoint
 10
301.591196
 20
-0.228368
 30
0.0
  0
POINT
  5
16A
100
AcDbEntity
  8
4
370
    50
100
AcDbPoint
 10
301.590288
 20
-0.228389
 30
0.0
  0
POINT
  5
16B
100
AcDbEntity
  8
4
370
    50
100
AcDbPoint
 10
275.089664
 20
48.837613
 30
0.0
  0
POINT
  5
16C
100
AcDbEntity
  8
4
370
    50
100
AcDbPoint
 10
247.356028
 20
46.36585
 30
0.0
  0
ARC
  5
16D
100
AcDbEntity
  8
4
370
    50
100
AcDbCircle
 10
71.723452
 20
-380.29047
 30
0.0
 40
500.0
100
AcDbArc
 50
70.266103
 51
78.450142
  0
LINE
  5
16E
100
AcDbEntity
  8
4
370
    50
100
AcDbLine
 10
273.851992
 20
45.903362
 30
0.0
 11
247.650792
 21
46.360705
 31
0.0
  0
LINE
  5
16F
100
AcDbEntity
  8
4
370
    50
100
AcDbLine
 10
275.729636
 20
46.268339
 30
0.0
 11
299.852351
 21
56.507824
 31
0.0
  0
ARC
  5
170
100
AcDbEntity
  8
4
370
    50
100
AcDbCircle
 10
299.735132
 20
56.783975
 30
0.0
 40
0.3
100
AcDbArc
 50
293.0
 51
1.579148
  0
ARC
  5
171
100
AcDbEntity
  8
4
370
    50
100
AcDbCircle
 10
297.040612
 20
74.691631
 30
0.0
 40
2.5
100
AcDbArc
 50
1.579148
 51
53.184173
  0
ARC
  5
172
100
AcDbEntity
  8
4
370
    50
100
AcDbCircle
 10
260.223873
 20
92.706135
 30
0.0
 40
3.0
100
AcDbArc
 50
69.470338
 51
97.744647
  0
ARC
  5
173
100
AcDbEntity
  8
4
370
    50
100
AcDbCircle
 10
273.932273
 20
50.502661
 30
0.0
 40
4.6
100
AcDbArc
 50
269.0
 51
293.0
  0
LINE
  5
174
100
AcDbEntity
  8
4
370
    25
  6
DOT
100
AcDbLine
 10
299.539663
 20
74.760526
 30
0.0
 11
299.506589
 21
75.960205
 31
0.0
  0
LINE
  5
175
100
AcDbEntity
  8
4
370
    50
100
AcDbLine
 10
300.035018
 20
56.792242
 30
0.0
 11
299.539663
 21
74.760526
 31
0.0
  0
ARC
  5
176
100
AcDbEntity
  8
4
370
    50
100
AcDbCircle
 10
180.941402
 20
10.488196
 30
0.0
 40
110.0
100
AcDbArc
 50
95.299884
 51
101.319359
  0
LINE
  5
177
100
AcDbEntity
  8
4
370
    50
100
AcDbLine
 10
157.049725
 20
115.137086
 30
0.0
 11
157.426759
 21
116.544196
 31
0.0
  0
ARC
  5
178
100
AcDbEntity
  8
4
370
    50
100
AcDbCircle
 10
71.723452
 20
-380.29047
 30
0.0
 40
500.0
100
AcDbArc
 50
78.450142
 51
79.944087
  0
ARC
  5
179
100
AcDbEntity
  8
4
370
    25
  6
DOT
100
AcDbCircle
 10
232.621799
 20
-11.369199
 30
0.0
 40
110.0
100
AcDbArc
 50
52.551827
 51
53.184173
  0
ARC
  5
17A
100
AcDbEntity
  8
4
370
    50
100
AcDbCircle
 10
232.621799
 20
-11.369199
 30
0.0
 40
110.0
100
AcDbArc
 50
53.184173
 51
67.905627
  0
ARC
  5
17B
100
AcDbEntity
  8
4
370
    50
100
AcDbCircle
 10
180.903102
 20
132.416566
 30
0.0
 40
16.0
100
AcDbArc
 50
230.771799
 51
258.85705
  0
ARC
  5
17C
100
AcDbEntity
  8
4
370
    25
  6
DOT
100
AcDbCircle
 10
81.182227
 20
-373.855838
 30
0.0
 40
500.0
100
AcDbArc
 50
64.109749
 51
64.168261
  0
LINE
  5
17D
100
AcDbEntity
  8
4
370
    50
100
AcDbLine
 10
254.873118
 20
95.006054
 30
0.0
 11
259.819598
 21
95.67877
 31
0.0
  0
ARC
  5
17E
100
AcDbEntity
  8
4
370
    50
100
AcDbCircle
 10
81.182227
 20
-373.855838
 30
0.0
 40
500.0
100
AcDbArc
 50
69.672743
 51
78.85705
  0
ARC
  5
17F
100
AcDbEntity
  8
4
370
    50
100
AcDbCircle
 10
85.929823
 20
-372.729773
 30
0.0
 40
500.0
100
AcDbArc
 50
67.905627
 51
69.470338
  0
ARC
  5
180
100
AcDbEntity
  8
4
370
    50
100
AcDbCircle
 10
159.841574
 20
115.897148
 30
0.0
 40
2.5
100
AcDbArc
 50
101.319359
 51
165.0
  0
ARC
  5
181
100
AcDbEntity
  8
4
370
    50
100
AcDbCircle
 10
159.46454
 20
114.490039
 30
0.0
 40
2.5
100
AcDbArc
 50
165.0
 51
259.944087
  0
LINE
  5
182
100
AcDbEntity
  8
4
370
    50
100
AcDbLine
 10
273.852375
 20
45.903355
 30
0.0
 11
263.585278
 21
68.963633
 31
0.0
  0
ARC
  5
183
100
AcDbEntity
  8
4
370
    50
100
AcDbCircle
 10
227.043459
 20
52.694167
 30
0.0
 40
40.0
100
AcDbArc
 50
24.0
 51
70.266103
  0
LINE
  5
184
100
AcDbEntity
  8
4
370
    50
100
AcDbLine
 10
247.356028
 20
46.660659
 30
0.0
 11
247.356028
 21
77.336208
 31
0.0
  0
ARC
  5
185
100
AcDbEntity
  8
4
370
    50
100
AcDbCircle
 10
232.356028
 20
77.336208
 30
0.0
 40
15.0
100
AcDbArc
 50
0.0
 51
70.658301
  0
ARC
  5
186
100
AcDbEntity
  8
4
370
    50
100
AcDbCircle
 10
247.656028
 20
46.660659
 30
0.0
 40
0.3
100
AcDbArc
 50
180.0
 51
269.0
  0
ARC
  5
187
100
AcDbEntity
  8
4
370
    25
100
AcDbCircle
 10
87.898542
 20
-377.054181
 30
0.0
 40
500.0
100
AcDbArc
 50
65.019107
 51
81.906442
  0
ARC
  5
188
100
AcDbEntity
  8
4
370
    50
100
AcDbCircle
 10
-115.594683
 20
-221.115102
 30
0.0
 40
500.0
100
AcDbArc
 50
43.069181
 51
48.450142
  0
ARC
  5
189
100
AcDbEntity
  8
4
370
    50
100
AcDbCircle
 10
174.380168
 20
62.700175
 30
0.0
 40
110.0
100
AcDbArc
 50
65.299884
 51
71.319359
  0
LINE
  5
18A
100
AcDbEntity
  8
4
370
    50
100
AcDbLine
 10
206.013815
 20
165.274611
 30
0.0
 11
207.043891
 21
166.304686
 31
0.0
  0
ARC
  5
18B
100
AcDbEntity
  8
4
370
    50
100
AcDbCircle
 10
-115.594683
 20
-221.115102
 30
0.0
 40
500.0
100
AcDbArc
 50
48.450142
 51
49.944087
  0
ARC
  5
18C
100
AcDbEntity
  8
4
370
    50
100
AcDbCircle
 10
235.311185
 20
168.31239
 30
0.0
 40
16.0
100
AcDbArc
 50
200.771799
 51
228.85705
  0
ARC
  5
18D
100
AcDbEntity
  8
4
370
    50
100
AcDbCircle
 10
-104.185828
 20
-220.271935
 30
0.0
 40
500.0
100
AcDbArc
 50
43.875171
 51
48.85705
  0
ARC
  5
18E
100
AcDbEntity
  8
4
370
    50
100
AcDbCircle
 10
208.811658
 20
164.536919
 30
0.0
 40
2.5
100
AcDbArc
 50
71.319359
 51
135.0
  0
ARC
  5
18F
100
AcDbEntity
  8
4
370
    50
100
AcDbCircle
 10
207.781582
 20
163.506844
 30
0.0
 40
2.5
100
AcDbArc
 50
135.0
 51
229.944087
  0
POINT
  5
190
100
AcDbEntity
  8
4
370
    50
100
AcDbPoint
 10
287.591194
 20
-48.077736
 30
0.0
  0
LINE
  5
191
100
AcDbEntity
  8
4
370
    50
100
AcDbLine
 10
253.091153
 20
-11.476452
 30
0.0
 11
253.091153
 21
-11.977736
 31
0.0
  0
LINE
  5
192
100
AcDbEntity
  8
4
370
    50
100
AcDbLine
 10
297.091153
 20
-11.476452
 30
0.0
 11
297.091153
 21
-11.977736
 31
0.0
  0
LINE
  5
193
100
AcDbEntity
  8
4
370
    50
100
AcDbLine
 10
252.341153
 20
-11.977736
 30
0.0
 11
252.341153
 21
-12.186452
 31
0.0
  0
LINE
  5
194
100
AcDbEntity
  8
4
370
    50
100
AcDbLine
 10
297.841153
 20
-11.977736
 30
0.0
 11
297.841153
 21
-12.186452
 31
0.0
  0
LINE
  5
195
100
AcDbEntity
  8
4
370
    50
100
AcDbLine
 10
248.594684
 20
-11.276483
 30
0.0
 11
249.333906
 21
31.073507
 31
0.0
  0
LINE
  5
196
100
AcDbEntity
  8
4
370
    50
100
AcDbLine
 10
301.587703
 20
-11.276483
 30
0.0
 11
300.847887
 21
31.107562
 31
0.0
  0
LINE
  5
197
100
AcDbEntity
  8
4
370
    50
100
AcDbLine
 10
301.391194
 20
-11.476452
 30
0.0
 11
301.587703
 21
-11.276483
 31
0.0
  0
LINE
  5
198
100
AcDbEntity
  8
4
370
    50
100
AcDbLine
 10
301.587703
 20
-11.276483
 30
0.0
 11
287.591194
 21
-11.276483
 31
0.0
  0
LINE
  5
199
100
AcDbEntity
  8
4
370
    25
100
AcDbLine
 10
287.591194
 20
39.023548
 30
0.0
 11
300.091194
 21
39.023548
 31
0.0
  0
LINE
  5
19A
100
AcDbEntity
  8
4
370
    50
100
AcDbLine
 10
248.791194
 20
-11.476452
 30
0.0
 11
248.594684
 21
-11.276483
 31
0.0
  0
LINE
  5
19B
100
AcDbEntity
  8
4
370
    25
100
AcDbLine
 10
287.591194
 20
39.023548
 30
0.0
 11
250.091194
 21
39.023548
 31
0.0
  0
LINE
  5
19C
100
AcDbEntity
  8
4
370
    50
100
AcDbLine
 10
248.594684
 20
-11.276483
 30
0.0
 11
287.591194
 21
-11.276483
 31
0.0
  0
LINE
  5
19D
100
AcDbEntity
  8
4
370
    50
100
AcDbLine
 10
248.591153
 20
-46.977736
 30
0.0
 11
301.591153
 21
-46.977736
 31
0.0
  0
LINE
  5
19E
100
AcDbEntity
  8
4
370
    50
100
AcDbLine
 10
301.591153
 20
-12.186452
 30
0.0
 11
301.591153
 21
-48.077736
 31
0.0
  0
LINE
  5
19F
100
AcDbEntity
  8
4
370
    50
100
AcDbLine
 10
248.791194
 20
-11.476452
 30
0.0
 11
287.591194
 21
-11.476452
 31
0.0
  0
LINE
  5
1A0
100
AcDbEntity
  8
4
370
    50
100
AcDbLine
 10
287.591194
 20
-11.476452
 30
0.0
 11
301.391194
 21
-11.476452
 31
0.0
  0
LINE
  5
1A1
100
AcDbEntity
  8
4
370
    50
100
AcDbLine
 10
252.341153
 20
-11.977736
 30
0.0
 11
287.591194
 21
-11.977736
 31
0.0
  0
LINE
  5
1A2
100
AcDbEntity
  8
4
370
    50
100
AcDbLine
 10
287.591194
 20
-11.977736
 30
0.0
 11
297.841153
 21
-11.977736
 31
0.0
  0
LINE
  5
1A3
100
AcDbEntity
  8
4
370
    50
100
AcDbLine
 10
248.591153
 20
-12.186452
 30
0.0
 11
287.591194
 21
-12.186452
 31
0.0
  0
LINE
  5
1A4
100
AcDbEntity
  8
4
370
    50
100
AcDbLine
 10
287.591194
 20
-12.186452
 30
0.0
 11
301.591153
 21
-12.186452
 31
0.0
  0
LINE
  5
1A5
100
AcDbEntity
  8
4
370
    50
100
AcDbLine
 10
248.591153
 20
-48.077736
 30
0.0
 11
248.591153
 21
-37.978085
 31
0.0
  0
LINE
  5
1A6
100
AcDbEntity
  8
4
370
    50
100
AcDbLine
 10
248.591153
 20
-21.909201
 30
0.0
 11
248.591153
 21
-12.186452
 31
0.0
  0
POINT
  5
1A7
100
AcDbEntity
  8
4
370
    50
100
AcDbPoint
 10
287.591194
 20
39.023548
 30
0.0
  0
POINT
  5
1A8
100
AcDbEntity
  8
4
370
    50
100
AcDbPoint
 10
275.089664
 20
39.023548
 30
0.0
  0
POINT
  5
1A9
100
AcDbEntity
  8
4
370
    50
100
AcDbPoint
 10
298.473208
 20
42.023235
 30
0.0
  0
POINT
  5
1AA
100
AcDbEntity
  8
4
370
    50
100
AcDbPoint
 10
251.708777
 20
42.023235
 30
0.0
  0
POINT
  5
1AB
100
AcDbEntity
  8
4
370
    50
100
AcDbPoint
 10
-200.71119
 20
120.022433
 30
0.0
  0
LINE
  5
1AC
100
AcDbEntity
  8
4
370
    50
100
AcDbLine
 10
-225.678651
 20
76.96057
 30
0.0
 11
-227.21119
 21
46.369988
 31
0.0
  0
LINE
  5
1AD
100
AcDbEntity
  8
4
370
    50
100
AcDbLine
 10
-175.743729
 20
76.96057
 30
0.0
 11
-174.21119
 21
46.369988
 31
0.0
  0
LINE
  5
1AE
100
AcDbEntity
  8
4
370
    50
100
AcDbLine
 10
-229.71119
 20
117.289966
 30
0.0
 11
-229.71119
 21
113.52419
 31
0.0
  0
LINE
  5
1AF
100
AcDbEntity
  8
4
370
    50
100
AcDbLine
 10
-171.71119
 20
117.289966
 30
0.0
 11
-171.71119
 21
113.52419
 31
0.0
  0
ARC
  5
1B0
100
AcDbEntity
  8
4
370
    50
100
AcDbCircle
 10
-173.71119
 20
113.52419
 30
0.0
 40
2.0
100
AcDbArc
 50
266.916867
 51
360.0
  0
ARC
  5
1B1
100
AcDbEntity
  8
4
370
    50
100
AcDbCircle
 10
-227.71119
 20
113.52419
 30
0.0
 40
2.0
100
AcDbArc
 50
180.0
 51
273.083133
  0
ARC
  5
1B2
100
AcDbEntity
  8
4
370
    50
100
AcDbCircle
 10
-227.71119
 20
117.289966
 30
0.0
 40
2.0
100
AcDbArc
 50
93.107922
 51
180.0
  0
ARC
  5
1B3
100
AcDbEntity
  8
4
370
    50
100
AcDbCircle
 10
-173.71119
 20
117.289966
 30
0.0
 40
2.0
100
AcDbArc
 50
0.0
 51
86.892078
  0
ARC
  5
1B4
100
AcDbEntity
  8
4
370
    50
100
AcDbCircle
 10
-1717.35198
 20
-79.725833
 30
0.0
 40
1510.0
100
AcDbArc
 50
6.471945
 51
7.290578
  0
ARC
  5
1B5
100
AcDbEntity
  8
4
370
    50
100
AcDbCircle
 10
1315.942515
 20
-79.62597
 30
0.0
 40
1510.0
100
AcDbArc
 50
172.713243
 51
173.531817
  0
ARC
  5
1B6
100
AcDbEntity
  8
4
370
    50
100
AcDbCircle
 10
-173.71119
 20
115.078139
 30
0.0
 40
2.0
100
AcDbArc
 50
0.0
 51
86.892078
  0
ARC
  5
1B7
100
AcDbEntity
  8
4
370
    50
100
AcDbCircle
 10
-227.71119
 20
115.078139
 30
0.0
 40
2.0
100
AcDbArc
 50
93.107922
 51
180.0
  0
LINE
  5
1B8
100
AcDbEntity
  8
4
370
    50
100
AcDbLine
 10
-173.205359
 20
106.891377
 30
0.0
 11
-171.71119
 21
113.52419
 31
0.0
  0
LINE
  5
1B9
100
AcDbEntity
  8
4
370
    50
100
AcDbLine
 10
-229.71119
 20
113.52419
 30
0.0
 11
-228.21702
 21
106.891377
 31
0.0
  0
ARC
  5
1BA
100
AcDbEntity
  8
4
370
    50
100
AcDbCircle
 10
-335.5279
 20
82.717525
 30
0.0
 40
110.0
100
AcDbArc
 50
357.0
 51
12.695072
  0
ARC
  5
1BB
100
AcDbEntity
  8
4
370
    50
100
AcDbCircle
 10
-65.89448
 20
82.717525
 30
0.0
 40
110.0
100
AcDbArc
 50
167.304928
 51
183.0
  0
ARC
  5
1BC
100
AcDbEntity
  8
4
370
    25
100
AcDbCircle
 10
-196.965473
 20
91.897143
 30
0.0
 40
12.6
100
AcDbArc
 50
314.010038
 51
336.866841
  0
ARC
  5
1BD
100
AcDbEntity
  8
4
370
    50
100
AcDbCircle
 10
-196.965473
 20
91.897143
 30
0.0
 40
12.6
100
AcDbArc
 50
336.866841
 51
353.531817
  0
ARC
  5
1BE
100
AcDbEntity
  8
4
370
    50
100
AcDbCircle
 10
-204.455257
 20
91.89662
 30
0.0
 40
12.6
100
AcDbArc
 50
186.471945
 51
203.130575
  0
ARC
  5
1BF
100
AcDbEntity
  8
4
370
    25
100
AcDbCircle
 10
-204.455257
 20
91.89662
 30
0.0
 40
12.6
100
AcDbArc
 50
203.130575
 51
225.979532
  0
ARC
  5
1C0
100
AcDbEntity
  8
4
370
    50
100
AcDbCircle
 10
-200.71119
 20
-402.64439
 30
0.0
 40
500.0
100
AcDbArc
 50
88.048466
 51
88.567456
  0
ARC
  5
1C1
100
AcDbEntity
  8
4
370
    50
100
AcDbCircle
 10
-200.71119
 20
-402.64439
 30
0.0
 40
500.0
100
AcDbArc
 50
91.432544
 51
91.951403
  0
ARC
  5
1C2
100
AcDbEntity
  8
4
370
    50
100
AcDbCircle
 10
-200.71119
 20
-387.749189
 30
0.0
 40
500.0
100
AcDbArc
 50
86.916867
 51
88.567456
  0
ARC
  5
1C3
100
AcDbEntity
  8
4
370
    50
100
AcDbCircle
 10
-200.71119
 20
-387.749189
 30
0.0
 40
500.0
100
AcDbArc
 50
88.567456
 51
93.083133
  0
ARC
  5
1C4
100
AcDbEntity
  8
4
370
    50
100
AcDbCircle
 10
-200.71119
 20
-382.189394
 30
0.0
 40
500.0
100
AcDbArc
 50
86.892078
 51
88.567456
  0
ARC
  5
1C5
100
AcDbEntity
  8
4
370
    50
100
AcDbCircle
 10
-200.71119
 20
-382.189394
 30
0.0
 40
500.0
100
AcDbArc
 50
88.567456
 51
93.107922
  0
ARC
  5
1C6
100
AcDbEntity
  8
4
370
    50
100
AcDbCircle
 10
-200.71119
 20
-379.977567
 30
0.0
 40
500.0
100
AcDbArc
 50
88.567456
 51
93.107922
  0
LINE
  5
1C7
100
AcDbEntity
  8
4
370
    50
100
AcDbLine
 10
-227.21119
 20
46.369988
 30
0.0
 11
-213.21119
 21
46.369988
 31
0.0
  0
LINE
  5
1C8
100
AcDbEntity
  8
4
370
    50
100
AcDbLine
 10
-188.21119
 20
46.369988
 30
0.0
 11
-174.21119
 21
46.369988
 31
0.0
  0
ARC
  5
1C9
100
AcDbEntity
  8
4
370
    50
100
AcDbCircle
 10
-200.71119
 20
-379.977567
 30
0.0
 40
500.0
100
AcDbArc
 50
86.892078
 51
88.567456
  0
POINT
  5
1CA
100
AcDbEntity
  8
4
370
    50
100
AcDbPoint
 10
-188.21119
 20
119.866158
 30
0.0
  0
POINT
  5
1CB
100
AcDbEntity
  8
4
370
    50
100
AcDbPoint
 10
-188.21119
 20
117.654331
 30
0.0
  0
POINT
  5
1CC
100
AcDbEntity
  8
4
370
    50
100
AcDbPoint
 10
-188.21119
 20
112.094537
 30
0.0
  0
POINT
  5
1CD
100
AcDbEntity
  8
4
370
    50
100
AcDbPoint
 10
-174.21119
 20
46.369988
 30
0.0
  0
LINE
  5
1CE
100
AcDbEntity
  8
4
370
    50
100
AcDbLine
 10
-325.211149
 20
-76.078048
 30
0.0
 11
-324.739719
 21
-62.578048
 31
0.0
  0
LINE
  5
1CF
100
AcDbEntity
  8
4
370
    50
100
AcDbLine
 10
-302.211149
 20
-62.578048
 30
0.0
 11
-324.739719
 21
-62.578048
 31
0.0
  0
LINE
  5
1D0
100
AcDbEntity
  8
4
370
    50
100
AcDbLine
 10
-302.211149
 20
-62.578048
 30
0.0
 11
-200.711149
 21
-58.078048
 31
0.0
  0
ARC
  5
1D1
100
AcDbEntity
  8
4
370
    50
100
AcDbCircle
 10
-242.486088
 20
20.148446
 30
0.0
 40
80.0
100
AcDbArc
 50
272.538545
 51
290.393407
  0
ARC
  5
1D2
100
AcDbEntity
  8
4
370
    50
100
AcDbCircle
 10
-218.093594
 20
-45.464101
 30
0.0
 40
10.0
100
AcDbArc
 50
290.393407
 51
344.847162
  0
LINE
  5
1D3
100
AcDbEntity
  8
4
370
    50
100
AcDbLine
 10
-284.71024
 20
-98.578356
 30
0.0
 11
-284.71024
 21
-97.078356
 31
0.0
  0
LINE
  5
1D4
100
AcDbEntity
  8
4
370
    50
100
AcDbLine
 10
-302.21024
 20
-97.078356
 30
0.0
 11
-284.71024
 21
-97.078356
 31
0.0
  0
LINE
  5
1D5
100
AcDbEntity
  8
4
370
    50
100
AcDbLine
 10
-302.21024
 20
-98.578356
 30
0.0
 11
-284.71024
 21
-98.578356
 31
0.0
  0
LINE
  5
1D6
100
AcDbEntity
  8
4
370
    50
100
AcDbLine
 10
-290.21024
 20
-107.278356
 30
0.0
 11
-302.21024
 21
-107.278356
 31
0.0
  0
LINE
  5
1D7
100
AcDbEntity
  8
4
370
    50
100
AcDbLine
 10
-288.46024
 20
-106.267993
 30
0.0
 11
-288.46024
 21
-100.778356
 31
0.0
  0
LINE
  5
1D8
100
AcDbEntity
  8
4
370
    50
100
AcDbLine
 10
-290.21024
 20
-107.278356
 30
0.0
 11
-288.46024
 21
-106.267993
 31
0.0
  0
LINE
  5
1D9
100
AcDbEntity
  8
4
370
    50
100
AcDbLine
 10
-282.21024
 20
-100.278356
 30
0.0
 11
-282.21024
 21
-99.078356
 31
0.0
  0
LINE
  5
1DA
100
AcDbEntity
  8
4
370
    50
100
AcDbLine
 10
-302.21024
 20
-100.778356
 30
0.0
 11
-287.88969
 21
-100.778356
 31
0.0
  0
LINE
  5
1DB
100
AcDbEntity
  8
4
370
    50
100
AcDbLine
 10
-282.21024
 20
-99.078356
 30
0.0
 11
-302.21024
 21
-99.078356
 31
0.0
  0
LINE
  5
1DC
100
AcDbEntity
  8
4
370
    50
100
AcDbLine
 10
-282.21024
 20
-100.278356
 30
0.0
 11
-302.21024
 21
-100.278356
 31
0.0
  0
ARC
  5
1DD
100
AcDbEntity
  8
4
370
    50
100
AcDbCircle
 10
-287.88969
 20
-95.778356
 30
0.0
 40
5.0
100
AcDbArc
 50
270.0
 51
293.556464
  0
ARC
  5
1DE
100
AcDbEntity
  8
4
370
    50
100
AcDbCircle
 10
-287.88969
 20
-103.578356
 30
0.0
 40
5.0
100
AcDbArc
 50
66.443536
 51
90.0
  0
ARC
  5
1DF
100
AcDbEntity
  8
4
370
    50
100
AcDbCircle
 10
-285.491774
 20
-101.278356
 30
0.0
 40
1.0
100
AcDbArc
 50
90.0
 51
113.556464
  0
ARC
  5
1E0
100
AcDbEntity
  8
4
370
    50
100
AcDbCircle
 10
-285.491774
 20
-98.078356
 30
0.0
 40
1.0
100
AcDbArc
 50
246.443536
 51
270.0
  0
LINE
  5
1E1
100
AcDbEntity
  8
4
370
    50
100
AcDbLine
 10
-295.21024
 20
-106.267993
 30
0.0
 11
-295.21024
 21
-100.778356
 31
0.0
  0
ARC
  5
1E2
100
AcDbEntity
  8
4
370
    50
100
AcDbCircle
 10
-302.21024
 20
-82.524464
 30
0.0
 40
24.753893
100
AcDbArc
 50
270.0
 51
286.426421
  0
ARC
  5
1E3
100
AcDbEntity
  8
4
370
    50
100
AcDbCircle
 10
-291.83524
 20
-101.136277
 30
0.0
 40
6.142079
100
AcDbArc
 50
236.668091
 51
303.331909
  0
ARC
  5
1E4
100
AcDbEntity
  8
4
370
    50
100
AcDbCircle
 10
-302.21024
 20
-84.528356
 30
0.0
 40
16.25
100
AcDbArc
 50
270.0
 51
284.250033
  0
ARC
  5
1E5
100
AcDbEntity
  8
4
370
    50
100
AcDbCircle
 10
-293.96024
 20
-84.528356
 30
0.0
 40
16.25
100
AcDbArc
 50
262.930286
 51
284.250033
  0
ARC
  5
1E6
100
AcDbEntity
  8
4
370
    50
100
AcDbCircle
 10
-297.96024
 20
-84.528356
 30
0.0
 40
16.25
100
AcDbArc
 50
262.485955
 51
284.250033
  0
ARC
  5
1E7
100
AcDbEntity
  8
4
370
    50
100
AcDbCircle
 10
-289.96024
 20
-84.528356
 30
0.0
 40
16.25
100
AcDbArc
 50
262.930286
 51
270.0
  0
ARC
  5
1E8
100
AcDbEntity
  8
4
370
    50
100
AcDbCircle
 10
-302.21024
 20
-114.828356
 30
0.0
 40
16.25
100
AcDbArc
 50
75.749967
 51
90.0
  0
ARC
  5
1E9
100
AcDbEntity
  8
4
370
    50
100
AcDbCircle
 10
-297.96024
 20
-114.828356
 30
0.0
 40
16.25
100
AcDbArc
 50
75.749967
 51
97.514045
  0
ARC
  5
1EA
100
AcDbEntity
  8
4
370
    50
100
AcDbCircle
 10
-293.96024
 20
-114.828356
 30
0.0
 40
16.25
100
AcDbArc
 50
75.749967
 51
97.069714
  0
ARC
  5
1EB
100
AcDbEntity
  8
4
370
    50
100
AcDbCircle
 10
-289.96024
 20
-114.828356
 30
0.0
 40
16.25
100
AcDbArc
 50
90.0
 51
97.069714
  0
LINE
  5
1EC
100
AcDbEntity
  8
4
370
    50
100
AcDbLine
 10
-319.711135
 20
-98.578356
 30
0.0
 11
-319.711135
 21
-97.078356
 31
0.0
  0
LINE
  5
1ED
100
AcDbEntity
  8
4
370
    50
100
AcDbLine
 10
-302.211135
 20
-97.078356
 30
0.0
 11
-319.711135
 21
-97.078356
 31
0.0
  0
LINE
  5
1EE
100
AcDbEntity
  8
4
370
    50
100
AcDbLine
 10
-302.211135
 20
-98.578356
 30
0.0
 11
-319.711135
 21
-98.578356
 31
0.0
  0
LINE
  5
1EF
100
AcDbEntity
  8
4
370
    50
100
AcDbLine
 10
-314.211135
 20
-107.278356
 30
0.0
 11
-302.211135
 21
-107.278356
 31
0.0
  0
LINE
  5
1F0
100
AcDbEntity
  8
4
370
    50
100
AcDbLine
 10
-315.961135
 20
-106.267993
 30
0.0
 11
-315.961135
 21
-100.778356
 31
0.0
  0
LINE
  5
1F1
100
AcDbEntity
  8
4
370
    50
100
AcDbLine
 10
-314.211135
 20
-107.278356
 30
0.0
 11
-315.961135
 21
-106.267993
 31
0.0
  0
LINE
  5
1F2
100
AcDbEntity
  8
4
370
    50
100
AcDbLine
 10
-322.211135
 20
-100.278356
 30
0.0
 11
-322.211135
 21
-99.078356
 31
0.0
  0
LINE
  5
1F3
100
AcDbEntity
  8
4
370
    50
100
AcDbLine
 10
-302.211135
 20
-100.778356
 30
0.0
 11
-316.531685
 21
-100.778356
 31
0.0
  0
LINE
  5
1F4
100
AcDbEntity
  8
4
370
    50
100
AcDbLine
 10
-322.211135
 20
-99.078356
 30
0.0
 11
-302.211135
 21
-99.078356
 31
0.0
  0
LINE
  5
1F5
100
AcDbEntity
  8
4
370
    50
100
AcDbLine
 10
-322.211135
 20
-100.278356
 30
0.0
 11
-302.211135
 21
-100.278356
 31
0.0
  0
ARC
  5
1F6
100
AcDbEntity
  8
4
370
    50
100
AcDbCircle
 10
-316.531685
 20
-95.778356
 30
0.0
 40
5.0
100
AcDbArc
 50
246.443536
 51
270.0
  0
ARC
  5
1F7
100
AcDbEntity
  8
4
370
    50
100
AcDbCircle
 10
-316.531685
 20
-103.578356
 30
0.0
 40
5.0
100
AcDbArc
 50
90.0
 51
113.556464
  0
ARC
  5
1F8
100
AcDbEntity
  8
4
370
    50
100
AcDbCircle
 10
-318.929601
 20
-101.278356
 30
0.0
 40
1.0
100
AcDbArc
 50
66.443536
 51
90.0
  0
ARC
  5
1F9
100
AcDbEntity
  8
4
370
    50
100
AcDbCircle
 10
-318.929601
 20
-98.078356
 30
0.0
 40
1.0
100
AcDbArc
 50
270.0
 51
293.556464
  0
LINE
  5
1FA
100
AcDbEntity
  8
4
370
    50
100
AcDbLine
 10
-309.211135
 20
-106.267993
 30
0.0
 11
-309.211135
 21
-100.778356
 31
0.0
  0
ARC
  5
1FB
100
AcDbEntity
  8
4
370
    50
100
AcDbCircle
 10
-302.211135
 20
-82.524464
 30
0.0
 40
24.753893
100
AcDbArc
 50
253.573579
 51
270.0
  0
ARC
  5
1FC
100
AcDbEntity
  8
4
370
    50
100
AcDbCircle
 10
-312.586135
 20
-101.136277
 30
0.0
 40
6.142079
100
AcDbArc
 50
236.668091
 51
303.331909
  0
ARC
  5
1FD
100
AcDbEntity
  8
4
370
    50
100
AcDbCircle
 10
-310.461135
 20
-84.528356
 30
0.0
 40
16.25
100
AcDbArc
 50
255.749967
 51
277.069714
  0
ARC
  5
1FE
100
AcDbEntity
  8
4
370
    50
100
AcDbCircle
 10
-306.461135
 20
-84.528356
 30
0.0
 40
16.25
100
AcDbArc
 50
255.749967
 51
277.514045
  0
ARC
  5
1FF
100
AcDbEntity
  8
4
370
    50
100
AcDbCircle
 10
-314.461135
 20
-84.528356
 30
0.0
 40
16.25
100
AcDbArc
 50
270.0
 51
277.069714
  0
ARC
  5
200
100
AcDbEntity
  8
4
370
    50
100
AcDbCircle
 10
-306.461135
 20
-114.828356
 30
0.0
 40
16.25
100
AcDbArc
 50
82.485955
 51
104.250033
  0
ARC
  5
201
100
AcDbEntity
  8
4
370
    50
100
AcDbCircle
 10
-310.461135
 20
-114.828356
 30
0.0
 40
16.25
100
AcDbArc
 50
82.930286
 51
104.250033
  0
ARC
  5
202
100
AcDbEntity
  8
4
370
    50
100
AcDbCircle
 10
-314.461135
 20
-114.828356
 30
0.0
 40
16.25
100
AcDbArc
 50
82.930286
 51
90.0
  0
LINE
  5
203
100
AcDbEntity
  8
4
370
    50
100
AcDbLine
 10
-312.461135
 20
-78.578048
 30
0.0
 11
-312.461135
 21
-97.078356
 31
0.0
  0
LINE
  5
204
100
AcDbEntity
  8
4
370
    25
100
AcDbLine
 10
-311.461135
 20
-78.578048
 30
0.0
 11
-311.461135
 21
-97.078356
 31
0.0
  0
LINE
  5
205
100
AcDbEntity
  8
4
370
    25
100
AcDbLine
 10
-292.96024
 20
-78.578048
 30
0.0
 11
-292.96024
 21
-97.078356
 31
0.0
  0
LINE
  5
206
100
AcDbEntity
  8
4
370
    50
100
AcDbLine
 10
-291.96024
 20
-78.578048
 30
0.0
 11
-291.96024
 21
-97.078356
 31
0.0
  0
LINE
  5
207
100
AcDbEntity
  8
4
370
    50
100
AcDbLine
 10
-325.211149
 20
-78.578048
 30
0.0
 11
-325.211149
 21
-76.078048
 31
0.0
  0
LINE
  5
208
100
AcDbEntity
  8
4
370
    25
100
AcDbLine
 10
-292.961048
 20
-125.078667
 30
0.0
 11
-292.961048
 21
-107.278049
 31
0.0
  0
LINE
  5
209
100
AcDbEntity
  8
4
370
    50
100
AcDbLine
 10
-291.961048
 20
-125.078667
 30
0.0
 11
-291.961048
 21
-107.278049
 31
0.0
  0
LINE
  5
20A
100
AcDbEntity
  8
4
370
    25
100
AcDbLine
 10
-311.461942
 20
-125.078667
 30
0.0
 11
-311.461942
 21
-107.278049
 31
0.0
  0
LINE
  5
20B
100
AcDbEntity
  8
4
370
    50
100
AcDbLine
 10
-312.461942
 20
-125.078667
 30
0.0
 11
-312.461942
 21
-107.278049
 31
0.0
  0
POINT
  5
20C
100
AcDbEntity
  8
4
370
    50
100
AcDbPoint
 10
-302.211149
 20
-140.678402
 30
0.0
  0
ARC
  5
20D
100
AcDbEntity
  8
4
370
    50
100
AcDbCircle
 10
-307.037458
 20
-130.828356
 30
0.0
 40
9.0
100
AcDbArc
 50
140.290983
 51
219.709017
  0
LINE
  5
20E
100
AcDbEntity
  8
4
370
    50
100
AcDbLine
 10
-290.461149
 20
-136.578356
 30
0.0
 11
-313.961149
 21
-136.578356
 31
0.0
  0
LINE
  5
20F
100
AcDbEntity
  8
4
370
    50
100
AcDbLine
 10
-313.961149
 20
-125.078356
 30
0.0
 11
-290.461149
 21
-125.078356
 31
0.0
  0
ELLIPSE
  5
210
100
AcDbEntity
  8
4
370
    50
100
AcDbEllipse
 10
-313.036467
 20
-130.828356
 30
0.0
 11
0.0
 21
4.6479999999999997
 31
0.0
210
0.0
220
0.0
230
1.0
 40
0.616179
 41
0.0
 42
6.2831849999999996
  0
ELLIPSE
  5
211
100
AcDbEntity
  8
4
370
    50
100
AcDbEllipse
 10
-302.211149
 20
-130.828356
 30
0.0
 11
-5.7279999999999998
 21
0.0
 31
0.0
210
0.0
220
0.0
230
1.0
 40
0.811453
 41
4.7123889999999999
 42
1.5707960000000001
  0
POINT
  5
212
100
AcDbEntity
  8
4
370
    50
100
AcDbPoint
 10
-302.21128
 20
-134.178356
 30
0.0
  0
POINT
  5
213
100
AcDbEntity
  8
4
370
    50
100
AcDbPoint
 10
-302.21128
 20
-134.178356
 30
0.0
  0
ELLIPSE
  5
214
100
AcDbEntity
  8
4
370
    50
100
AcDbEllipse
 10
-302.211149
 20
-130.828356
 30
0.0
 11
5.7279999999999998
 21
0.0
 31
0.0
210
0.0
220
0.0
230
1.0
 40
0.811453
 41
4.7123889999999999
 42
1.5707960000000001
  0
ELLIPSE
  5
215
100
AcDbEntity
  8
4
370
    50
100
AcDbEllipse
 10
-291.385832
 20
-130.828356
 30
0.0
 11
0.0
 21
4.6479999999999997
 31
0.0
210
0.0
220
0.0
230
1.0
 40
0.616179
 41
0.0
 42
6.2831849999999996
  0
ARC
  5
216
100
AcDbEntity
  8
4
370
    50
100
AcDbCircle
 10
-297.38484
 20
-130.828356
 30
0.0
 40
9.0
100
AcDbArc
 50
320.290983
 51
39.709017
  0
POINT
  5
217
100
AcDbEntity
  8
4
370
    50
100
AcDbPoint
 10
-310.211554
 20
-76.077505
 30
0.0
  0
LINE
  5
218
100
AcDbEntity
  8
4
370
    50
100
AcDbLine
 10
227.325869
 20
-33.034062
 30
0.0
 11
232.322043
 21
-26.157418
 31
0.0
  0
LINE
  5
219
100
AcDbEntity
  8
4
370
    50
100
AcDbLine
 10
237.84309
 20
-40.67527
 30
0.0
 11
242.839264
 21
-33.798626
 31
0.0
  0
LINE
  5
21A
100
AcDbEntity
  8
4
370
    50
100
AcDbLine
 10
237.84309
 20
-40.67527
 30
0.0
 11
237.144689
 21
-40.785886
 31
0.0
  0
LINE
  5
21B
100
AcDbEntity
  8
4
370
    50
100
AcDbLine
 10
227.436485
 20
-33.732463
 30
0.0
 11
227.325869
 21
-33.034062
 31
0.0
  0
LINE
  5
21C
100
AcDbEntity
  8
4
370
    50
100
AcDbLine
 10
228.68799
 20
-36.263566
 30
0.0
 11
229.459216
 21
-35.202064
 31
0.0
  0
LINE
  5
21D
100
AcDbEntity
  8
4
370
    50
100
AcDbLine
 10
225.462367
 20
-33.898049
 30
0.0
 11
222.699749
 21
-37.700466
 31
0.0
  0
LINE
  5
21E
100
AcDbEntity
  8
4
370
    50
100
AcDbLine
 10
234.33283
 20
-40.403221
 30
0.0
 11
235.122335
 21
-39.31656
 31
0.0
  0
LINE
  5
21F
100
AcDbEntity
  8
4
370
    50
100
AcDbLine
 10
237.558453
 20
-42.768738
 30
0.0
 11
225.462367
 21
-33.898049
 31
0.0
  0
LINE
  5
220
100
AcDbEntity
  8
4
370
    50
100
AcDbLine
 10
237.558453
 20
-42.768738
 30
0.0
 11
234.795835
 21
-46.571156
 31
0.0
  0
ARC
  5
221
100
AcDbEntity
  8
4
370
    50
100
AcDbCircle
 10
245.925628
 20
-18.712087
 30
0.0
 40
30.0
100
AcDbArc
 50
219.267806
 51
248.223123
  0
LINE
  5
222
100
AcDbEntity
  8
4
370
    50
100
AcDbLine
 10
227.436485
 20
-33.732463
 30
0.0
 11
237.144689
 21
-40.785886
 31
0.0
  0
LINE
  5
223
100
AcDbEntity
  8
4
370
    50
100
AcDbLine
 10
234.795835
 20
-46.571156
 30
0.0
 11
222.699749
 21
-37.700466
 31
0.0
  0
LINE
  5
224
100
AcDbEntity
  8
4
370
    50
100
AcDbLine
 10
231.510221
 20
-38.333255
 30
0.0
 11
228.747603
 21
-42.135673
 31
0.0
  0
LINE
  5
225
100
AcDbEntity
  8
4
370
    50
100
AcDbLine
 10
230.703816
 20
-37.741876
 30
0.0
 11
227.941198
 21
-41.544293
 31
0.0
  0
LINE
  5
226
100
AcDbEntity
  8
4
370
    50
100
AcDbLine
 10
232.316627
 20
-38.924635
 30
0.0
 11
229.554009
 21
-42.727052
 31
0.0
  0
LINE
  5
227
100
AcDbEntity
  8
4
370
    50
100
AcDbLine
 10
233.123033
 20
-39.516014
 30
0.0
 11
230.360415
 21
-43.318431
 31
0.0
  0
LINE
  5
228
100
AcDbEntity
  8
4
370
    50
100
AcDbLine
 10
233.929439
 20
-40.107393
 30
0.0
 11
231.166821
 21
-43.909811
 31
0.0
  0
LINE
  5
229
100
AcDbEntity
  8
4
370
    50
100
AcDbLine
 10
229.89741
 20
-37.150497
 30
0.0
 11
227.134792
 21
-40.952914
 31
0.0
  0
LINE
  5
22A
100
AcDbEntity
  8
4
370
    50
100
AcDbLine
 10
229.091004
 20
-36.559117
 30
0.0
 11
226.328386
 21
-40.361535
 31
0.0
  0
LINE
  5
22B
100
AcDbEntity
  8
4
370
    50
100
AcDbLine
 10
228.607161
 20
-36.20429
 30
0.0
 11
225.844543
 21
-40.006707
 31
0.0
  0
LINE
  5
22C
100
AcDbEntity
  8
4
370
    50
100
AcDbLine
 10
228.123317
 20
-35.849462
 30
0.0
 11
225.360699
 21
-39.65188
 31
0.0
  0
LINE
  5
22D
100
AcDbEntity
  8
4
370
    50
100
AcDbLine
 10
227.639474
 20
-35.494635
 30
0.0
 11
224.876856
 21
-39.297052
 31
0.0
  0
LINE
  5
22E
100
AcDbEntity
  8
4
370
    50
100
AcDbLine
 10
227.15563
 20
-35.139807
 30
0.0
 11
224.393012
 21
-38.942224
 31
0.0
  0
LINE
  5
22F
100
AcDbEntity
  8
4
370
    50
100
AcDbLine
 10
226.671787
 20
-34.78498
 30
0.0
 11
223.909169
 21
-38.587397
 31
0.0
  0
LINE
  5
230
100
AcDbEntity
  8
4
370
    50
100
AcDbLine
 10
234.413282
 20
-40.462221
 30
0.0
 11
231.650664
 21
-44.264638
 31
0.0
  0
LINE
  5
231
100
AcDbEntity
  8
4
370
    50
100
AcDbLine
 10
234.897125
 20
-40.817049
 30
0.0
 11
232.134508
 21
-44.619466
 31
0.0
  0
LINE
  5
232
100
AcDbEntity
  8
4
370
    50
100
AcDbLine
 10
235.380969
 20
-41.171876
 30
0.0
 11
232.618351
 21
-44.974294
 31
0.0
  0
LINE
  5
233
100
AcDbEntity
  8
4
370
    50
100
AcDbLine
 10
235.864812
 20
-41.526704
 30
0.0
 11
233.102194
 21
-45.329121
 31
0.0
  0
LINE
  5
234
100
AcDbEntity
  8
4
370
    50
100
AcDbLine
 10
236.348656
 20
-41.881531
 30
0.0
 11
233.586038
 21
-45.683949
 31
0.0
  0
LINE
  5
235
100
AcDbEntity
  8
4
370
    50
100
AcDbLine
 10
226.349225
 20
-34.548428
 30
0.0
 11
223.586607
 21
-38.350845
 31
0.0
  0
LINE
  5
236
100
AcDbEntity
  8
4
370
    50
100
AcDbLine
 10
226.026662
 20
-34.311876
 30
0.0
 11
223.264044
 21
-38.114293
 31
0.0
  0
LINE
  5
237
100
AcDbEntity
  8
4
370
    50
100
AcDbLine
 10
225.7041
 20
-34.075324
 30
0.0
 11
222.941482
 21
-37.877742
 31
0.0
  0
LINE
  5
238
100
AcDbEntity
  8
4
370
    50
100
AcDbLine
 10
236.671218
 20
-42.118083
 30
0.0
 11
233.9086
 21
-45.9205
 31
0.0
  0
LINE
  5
239
100
AcDbEntity
  8
4
370
    50
100
AcDbLine
 10
236.99378
 20
-42.354635
 30
0.0
 11
234.231162
 21
-46.157052
 31
0.0
  0
LINE
  5
23A
100
AcDbEntity
  8
4
370
    50
100
AcDbLine
 10
237.316343
 20
-42.591187
 30
0.0
 11
234.553725
 21
-46.393604
 31
0.0
  0
LINE
  5
23B
100
AcDbEntity
  8
4
370
    50
100
AcDbLine
 10
227.325869
 20
-33.034062
 30
0.0
 11
237.84309
 21
-40.67527
 31
0.0
  0
POINT
  5
23C
100
AcDbEntity
  8
4
370
    50
100
AcDbPoint
 10
228.187648
 20
-42.906385
 30
0.0
  0
LINE
  5
23D
100
AcDbEntity
  8
4
370
    50
100
AcDbLine
 10
-207.20919
 20
-29.978022
 30
0.0
 11
-207.20919
 21
-36.968304
 31
0.0
  0
LINE
  5
23E
100
AcDbEntity
  8
4
370
    50
100
AcDbLine
 10
-194.20919
 20
-29.978022
 30
0.0
 11
-194.20919
 21
-36.968304
 31
0.0
  0
LINE
  5
23F
100
AcDbEntity
  8
4
370
    50
100
AcDbLine
 10
-208.20919
 20
-38.796777
 30
0.0
 11
-208.20919
 21
-43.12153
 31
0.0
  0
LINE
  5
240
100
AcDbEntity
  8
4
370
    50
100
AcDbLine
 10
-193.20919
 20
-38.796777
 30
0.0
 11
-193.20919
 21
-43.12153
 31
0.0
  0
ELLIPSE
  5
241
100
AcDbEntity
  8
4
370
    50
100
AcDbEllipse
 10
-200.70919
 20
-43.12153
 30
0.0
 11
7.5
 21
0.0
 31
0.0
210
0.0
220
0.0
230
1.0
 40
0.48868
 41
0.0
 42
6.2831849999999996
  0
ELLIPSE
  5
242
100
AcDbEntity
  8
4
370
    50
100
AcDbEllipse
 10
-200.70919
 20
-38.796777
 30
0.0
 11
7.5
 21
0.0
 31
0.0
210
0.0
220
0.0
230
1.0
 40
0.48868
 41
0.0
 42
3.1415929999999999
  0
ELLIPSE
  5
243
100
AcDbEntity
  8
4
370
    50
100
AcDbEllipse
 10
-200.70919
 20
-43.954739
 30
0.0
 11
1.5
 21
0.0
 31
0.0
210
0.0
220
0.0
230
1.0
 40
0.51038
 41
0.0
 42
6.2831849999999996
  0
ELLIPSE
  5
244
100
AcDbEntity
  8
4
370
    50
100
AcDbEllipse
 10
-200.70919
 20
-29.978022
 30
0.0
 11
6.5
 21
0.0
 31
0.0
210
0.0
220
0.0
230
1.0
 40
0.48481
 41
0.0
 42
3.1415929999999999
  0
ELLIPSE
  5
245
100
AcDbEntity
  8
4
370
    50
100
AcDbEllipse
 10
-200.70919
 20
-37.41229
 30
0.0
 11
6.5
 21
0.0
 31
0.0
210
0.0
220
0.0
230
1.0
 40
0.48481
 41
0.164717
 42
2.9768759999999999
  0
ELLIPSE
  5
246
100
AcDbEntity
  8
4
370
    50
100
AcDbEllipse
 10
-200.70919
 20
-37.8496
 30
0.0
 11
6.0
 21
0.0
 31
0.0
210
0.0
220
0.0
230
1.0
 40
0.48481
 41
0.815133
 42
2.32646
  0
LINE
  5
247
100
AcDbEntity
  8
4
370
    50
100
AcDbLine
 10
-200.70919
 20
-35.131678
 30
0.0
 11
-200.70919
 21
-39.456431
 31
0.0
  0
LINE
  5
248
100
AcDbEntity
  8
4
370
    50
100
AcDbLine
 10
-202.10919
 20
-35.196098
 30
0.0
 11
-202.10919
 21
-39.520851
 31
0.0
  0
LINE
  5
249
100
AcDbEntity
  8
4
370
    50
100
AcDbLine
 10
-203.50919
 20
-35.396674
 30
0.0
 11
-203.50919
 21
-39.721428
 31
0.0
  0
LINE
  5
24A
100
AcDbEntity
  8
4
370
    50
100
AcDbLine
 10
-199.30919
 20
-35.196098
 30
0.0
 11
-199.30919
 21
-39.520851
 31
0.0
  0
LINE
  5
24B
100
AcDbEntity
  8
4
370
    50
100
AcDbLine
 10
-197.90919
 20
-35.396674
 30
0.0
 11
-197.90919
 21
-39.721428
 31
0.0
  0
LINE
  5
24C
100
AcDbEntity
  8
4
370
    50
100
AcDbLine
 10
-204.50919
 20
-35.636941
 30
0.0
 11
-204.50919
 21
-39.961694
 31
0.0
  0
LINE
  5
24D
100
AcDbEntity
  8
4
370
    50
100
AcDbLine
 10
-205.50919
 20
-35.980607
 30
0.0
 11
-205.50919
 21
-40.30536
 31
0.0
  0
LINE
  5
24E
100
AcDbEntity
  8
4
370
    50
100
AcDbLine
 10
-196.90919
 20
-35.636941
 30
0.0
 11
-196.90919
 21
-39.961694
 31
0.0
  0
LINE
  5
24F
100
AcDbEntity
  8
4
370
    50
100
AcDbLine
 10
-195.90919
 20
-35.980607
 30
0.0
 11
-195.90919
 21
-40.30536
 31
0.0
  0
LINE
  5
250
100
AcDbEntity
  8
4
370
    50
100
AcDbLine
 10
-206.10919
 20
-36.253293
 30
0.0
 11
-206.10919
 21
-40.578046
 31
0.0
  0
LINE
  5
251
100
AcDbEntity
  8
4
370
    50
100
AcDbLine
 10
-206.70919
 20
-36.597717
 30
0.0
 11
-206.70919
 21
-40.922471
 31
0.0
  0
LINE
  5
252
100
AcDbEntity
  8
4
370
    50
100
AcDbLine
 10
-207.30919
 20
-37.055951
 30
0.0
 11
-207.30919
 21
-41.380704
 31
0.0
  0
LINE
  5
253
100
AcDbEntity
  8
4
370
    50
100
AcDbLine
 10
-195.30919
 20
-36.253293
 30
0.0
 11
-195.30919
 21
-40.578046
 31
0.0
  0
LINE
  5
254
100
AcDbEntity
  8
4
370
    50
100
AcDbLine
 10
-194.70919
 20
-36.597717
 30
0.0
 11
-194.70919
 21
-40.922471
 31
0.0
  0
LINE
  5
255
100
AcDbEntity
  8
4
370
    50
100
AcDbLine
 10
-194.10919
 20
-37.055951
 30
0.0
 11
-194.10919
 21
-41.380704
 31
0.0
  0
LINE
  5
256
100
AcDbEntity
  8
4
370
    50
100
AcDbLine
 10
-207.70919
 20
-37.480966
 30
0.0
 11
-207.70919
 21
-41.805719
 31
0.0
  0
LINE
  5
257
100
AcDbEntity
  8
4
370
    50
100
AcDbLine
 10
-208.10919
 20
-38.200267
 30
0.0
 11
-208.10919
 21
-42.52502
 31
0.0
  0
LINE
  5
258
100
AcDbEntity
  8
4
370
    50
100
AcDbLine
 10
-193.70919
 20
-37.480966
 30
0.0
 11
-193.70919
 21
-41.805719
 31
0.0
  0
LINE
  5
259
100
AcDbEntity
  8
4
370
    50
100
AcDbLine
 10
-193.30919
 20
-38.200267
 30
0.0
 11
-193.30919
 21
-42.52502
 31
0.0
  0
ARC
  5
25A
100
AcDbEntity
  8
4
370
    50
100
AcDbCircle
 10
-200.71119
 20
-71.115268
 30
0.0
 40
33.13722
100
AcDbArc
 50
67.838452
 51
76.915256
  0
ARC
  5
25B
100
AcDbEntity
  8
4
370
    50
100
AcDbCircle
 10
-200.71119
 20
-71.115268
 30
0.0
 40
33.13722
100
AcDbArc
 50
103.077643
 51
112.161548
  0
TEXT
  5
25C
100
AcDbEntity
  8
5
370
    50
100
AcDbText
 10
290.987579
 20
-238.989197
 30
0.0
 40
6.0
  1
１　２
 72
     5
 11
307.787579
 21
-238.989197
 31
0.0
100
AcDbText
  0
TEXT
  5
25D
100
AcDbEntity
  8
5
370
    50
100
AcDbText
 10
-74.001324
 20
-109.484711
 30
0.0
 40
7.0
  1
２４六角
 72
     5
 11
-47.401324
 21
-109.484711
 31
0.0
100
AcDbText
  0
LWPOLYLINE
  5
25E
100
AcDbEntity
  8
5
370
    25
100
AcDbPolyline
 90
        3
 70
     0
 10
-85.461245
 20
-102.656097
 10
-73.404087
 20
-110.474335
 10
-44.957579
 20
-110.474335
  0
LINE
  5
263
100
AcDbEntity
  8
5
370
    25
100
AcDbLine
 10
-82.219426
 20
-104.758194
 30
0.0
 11
-81.656171
 21
-103.889551
 31
0.0
  0
LINE
  5
264
100
AcDbEntity
  8
5
370
    25
100
AcDbLine
 10
-81.656171
 20
-103.889551
 30
0.0
 11
-85.461245
 21
-102.656097
 31
0.0
  0
LINE
  5
265
100
AcDbEntity
  8
5
370
    25
100
AcDbLine
 10
-85.461245
 20
-102.656097
 30
0.0
 11
-82.782681
 21
-105.626837
 31
0.0
  0
LINE
  5
266
100
AcDbEntity
  8
5
370
    25
100
AcDbLine
 10
-82.782681
 20
-105.626837
 30
0.0
 11
-82.219426
 21
-104.758194
 31
0.0
  0
TEXT
  5
267
100
AcDbEntity
  8
5
370
    50
100
AcDbText
 10
-60.655954
 20
-126.708679
 30
0.0
 40
7.0
  1
ＰＪ１／２
 72
     5
 11
-27.055954
 21
-126.708679
 31
0.0
100
AcDbText
  0
LWPOLYLINE
  5
268
100
AcDbEntity
  8
5
370
    25
100
AcDbPolyline
 90
        3
 70
     0
 10
-88.960437
 20
-115.274635
 10
-72.58569
 20
-127.383629
 10
-14.594481
 20
-127.383629
  0
LINE
  5
26D
100
AcDbEntity
  8
5
370
    25
100
AcDbLine
 10
-85.853876
 20
-117.571912
 30
0.0
 11
-85.238323
 21
-116.739512
 31
0.0
  0
LINE
  5
26E
100
AcDbEntity
  8
5
370
    25
100
AcDbLine
 10
-85.238323
 20
-116.739512
 30
0.0
 11
-88.960437
 21
-115.274635
 31
0.0
  0
LINE
  5
26F
100
AcDbEntity
  8
5
370
    25
100
AcDbLine
 10
-88.960437
 20
-115.274635
 30
0.0
 11
-86.46943
 21
-118.404313
 31
0.0
  0
LINE
  5
270
100
AcDbEntity
  8
5
370
    25
100
AcDbLine
 10
-86.46943
 20
-118.404313
 30
0.0
 11
-85.853876
 21
-117.571912
 31
0.0
  0
TEXT
  5
271
100
AcDbEntity
  8
5
370
    50
100
AcDbText
 10
-211.703918
 20
-179.881332
 30
0.0
 40
7.0
  1
２０３
 72
     5
 11
-192.103918
 21
-179.881332
 31
0.0
100
AcDbText
  0
TEXT
  5
272
100
AcDbEntity
  8
5
370
    50
100
AcDbText
 10
-153.766745
 20
-146.967331
 30
0.0
 40
7.0
  1
２３六角
 72
     5
 11
-127.166745
 21
-146.967331
 31
0.0
100
AcDbText
  0
LWPOLYLINE
  5
273
100
AcDbEntity
  8
5
370
    25
100
AcDbPolyline
 90
        3
 70
     0
 10
-112.120821
 20
-134.785698
 10
-126.0055
 20
-147.67157
 10
-154.74047
 20
-147.67157
  0
LINE
  5
278
100
AcDbEntity
  8
5
370
    25
100
AcDbLine
 10
-114.952834
 20
-137.413988
 30
0.0
 11
-114.248586
 21
-138.172823
 31
0.0
  0
LINE
  5
279
100
AcDbEntity
  8
5
370
    25
100
AcDbLine
 10
-114.248586
 20
-138.172823
 30
0.0
 11
-112.120821
 21
-134.785698
 31
0.0
  0
LINE
  5
27A
100
AcDbEntity
  8
5
370
    25
100
AcDbLine
 10
-112.120821
 20
-134.785698
 30
0.0
 11
-115.657082
 21
-136.655152
 31
0.0
  0
LINE
  5
27B
100
AcDbEntity
  8
5
370
    25
100
AcDbLine
 10
-115.657082
 20
-136.655152
 30
0.0
 11
-114.952834
 21
-137.413988
 31
0.0
  0
DIMENSION
  5
27C
100
AcDbEntity
  8
5
370
    25
100
AcDbDimension
  2
*D0
 10
-76.211231
 20
175.899689
 30
0.0
 11
-200.711231
 21
180.399689
 31
0.0
 71
     0
 72
     0
 41
0.0
 42
0.0
  3
Standard
100
AcDbAlignedDimension
 13
-325.211231
 23
-76.078048
 33
0.0
 14
-76.211231
 24
-76.078048
 34
0.0
100
AcDbRotatedDimension
  0
TEXT
  5
27D
100
AcDbEntity
  8
5
370
    50
100
AcDbText
 10
-69.904861
 20
-135.047462
 30
0.0
 40
7.0
  1
取付穴φ２３±１
 72
     5
 11
-15.304861
 21
-135.047462
 31
0.0
100
AcDbText
  0
TEXT
  5
27E
100
AcDbEntity
  8
5
370
    50
100
AcDbText
 10
142.611323
 20
122.409471
 30
0.0
 40
7.0
  1
止水
 72
     5
 11
155.211323
 21
122.409471
 31
0.0
100
AcDbText
  0
DIMENSION
  5
27F
100
AcDbEntity
  8
5
370
    25
100
AcDbDimension
  2
*D1
 10
189.771202
 20
106.162264
 30
0.0
 11
146.623901
 21
168.973311
 31
0.0
 70
     2
 71
     0
 72
     0
 41
0.0
 42
0.0
  3
Standard
100
AcDb2LineAngularDimension
 13
246.218991
 23
127.02279
 33
0.0
 14
293.257959
 24
86.415708
 34
0.0
 15
293.257959
 25
86.415708
 35
0.0
 16
142.053499
 26
159.520194
 36
0.0
1001
ACAD
1000
DSTYLE
1002
{
1070
   275
1070
     0
1070
   179
1070
     0
1002
}
  0
TEXT
  5
280
100
AcDbEntity
  8
5
370
    50
100
AcDbText
 10
203.928405
 20
175.882539
 30
0.0
 40
7.0
  1
吐水
 72
     5
 11
216.528405
 21
175.882539
 31
0.0
100
AcDbText
  0
DIMENSION
  5
281
100
AcDbEntity
  8
5
370
    25
100
AcDbDimension
  2
*D2
 10
15.073333
 20
71.024795
 30
0.0
 11
15.671381
 21
44.855737
 31
0.0
 70
     2
 71
     0
 72
     0
 41
0.0
 42
0.0
  3
Standard
100
AcDb2LineAngularDimension
 13
15.073088
 23
71.024806
 33
0.0
 14
15.073333
 24
71.027609
 34
0.0
 15
15.073333
 25
71.027609
 35
0.0
 16
13.846083
 26
42.91897
 36
0.0
1001
ACAD
1000
DSTYLE
1002
{
1070
   275
1070
     0
1070
   179
1070
     0
1002
}
  0
LINE
  5
282
100
AcDbEntity
  8
5
370
    25
  6
CENTER
100
AcDbLine
 10
275.090308
 20
-72.423721
 30
0.0
 11
275.090308
 21
-92.221115
 31
0.0
  0
TEXT
  5
283
100
AcDbEntity
  8
5
370
    50
100
AcDbText
 10
121.372186
 20
-87.611725
 30
0.0
 40
7.0
  1
２６０
 72
     5
 11
140.972186
 21
-87.611725
 31
0.0
100
AcDbText
  0
DIMENSION
  5
284
100
AcDbEntity
  8
5
370
    25
100
AcDbDimension
  2
*D3
 10
275.090308
 20
-88.611725
 30
0.0
 11
145.872186
 21
-86.611725
 31
0.0
 71
     0
 72
     0
 41
0.0
 42
0.0
  3
Standard
100
AcDbAlignedDimension
 13
16.654065
 23
88.889713
 33
0.0
 14
275.090308
 24
-88.611725
 34
0.0
100
AcDbRotatedDimension
  0
DIMENSION
  5
285
100
AcDbEntity
  8
5
370
    25
100
AcDbDimension
  2
*D4
 10
104.723839
 20
120.022433
 30
0.0
 11
102.223839
 21
21.972349
 31
0.0
 71
     0
 72
     0
 41
0.0
 42
0.0
  3
Standard
100
AcDbAlignedDimension
 13
247.611153
 23
-76.077736
 33
0.0
 14
170.784532
 24
120.022433
 34
0.0
 50
90.0
100
AcDbRotatedDimension
  0
DIMENSION
  5
286
100
AcDbEntity
  8
5
370
    25
100
AcDbDimension
  2
*D5
 10
302.571153
 20
-173.458008
 30
0.0
 11
275.091153
 21
-168.958008
 31
0.0
 71
     0
 72
     0
 41
0.0
 42
0.0
  3
Standard
100
AcDbAlignedDimension
 13
247.611153
 23
-78.577736
 33
0.0
 14
302.571153
 24
-78.577736
 34
0.0
100
AcDbRotatedDimension
  0
TEXT
  5
287
100
AcDbEntity
  8
5
370
    50
100
AcDbText
 10
232.921417
 20
-272.247955
 30
0.0
 40
6.0
  1
外観寸法図
 72
     5
 11
261.721417
 21
-272.247955
 31
0.0
100
AcDbText
  0
DIMENSION
  5
288
100
AcDbEntity
  8
5
370
    25
100
AcDbDimension
  2
*D6
 10
-99.211231
 20
-181.29425
 30
0.0
 11
-200.711231
 21
-179.29425
 31
0.0
 71
     0
 72
     0
 41
0.0
 42
0.0
  3
Standard
100
AcDbAlignedDimension
 13
-302.211231
 23
-140.678402
 33
0.0
 14
-99.211231
 24
-146.183014
 34
0.0
100
AcDbRotatedDimension
  0
LINE
  5
289
100
AcDbEntity
  8
5
370
    50
100
AcDbLine
 10
-81.711245
 20
-98.578356
 30
0.0
 11
-81.711245
 21
-97.078356
 31
0.0
  0
LINE
  5
28A
100
AcDbEntity
  8
5
370
    50
100
AcDbLine
 10
-79.211245
 20
-100.278356
 30
0.0
 11
-79.211245
 21
-99.078356
 31
0.0
  0
ARC
  5
28B
100
AcDbEntity
  8
5
370
    50
100
AcDbCircle
 10
-82.492779
 20
-101.278356
 30
0.0
 40
1.0
100
AcDbArc
 50
90.0
 51
113.556464
  0
ARC
  5
28C
100
AcDbEntity
  8
5
370
    50
100
AcDbCircle
 10
-82.492779
 20
-98.078356
 30
0.0
 40
1.0
100
AcDbArc
 50
246.443536
 51
270.0
  0
POINT
  5
28D
100
AcDbEntity
  8
5
370
    50
100
AcDbPoint
 10
-200.735537
 20
161.639996
 30
0.0
  0
LINE
  5
28E
100
AcDbEntity
  8
5
370
    50
100
AcDbLine
 10
157.049725
 20
115.137086
 30
0.0
 11
157.426759
 21
116.544196
 31
0.0
  0
TEXT
  5
28F
100
AcDbEntity
  8
5
370
    50
100
AcDbText
 10
68.751892
 20
-236.109451
 30
0.0
 40
6.0
  1
ＭＫ５１０ＴＭＭＤＡＨ
 72
     5
 11
133.551892
 21
-236.109451
 31
0.0
100
AcDbText
  0
TEXT
  5
290
100
AcDbEntity
  8
5
370
    50
100
AcDbText
 10
69.12133
 20
-227.531891
 30
0.0
 40
6.0
  1
台付きシングルレバ－湯水混合水栓（寒）
 72
     5
 11
181.92133
 21
-227.531891
 31
0.0
100
AcDbText
  0
TEXT
  5
291
100
AcDbEntity
  8
5
370
    50
100
AcDbText
 10
344.226166
 20
-255.619583
 30
0.0
 40
6.0
  1
１０　　３　３０
 72
     5
 11
391.026166
 21
-255.619583
 31
0.0
100
AcDbText
  0
TEXT
  5
292
100
AcDbEntity
  8
5
370
    50
100
AcDbText
 10
339.372864
 20
-271.878967
 30
0.0
 40
6.0
  1
１１０１０３
 72
     5
 11
374.172864
 21
-271.878967
 31
0.0
100
AcDbText
  0
TEXT
  5
293
100
AcDbEntity
  8
5
370
    50
100
AcDbText
 10
-8.029481
 20
-23.525845
 30
0.0
 40
7.0
  1
１４６
 50
90.0
 72
     5
 11
-8.029481
 21
-3.925845
 31
0.0
100
AcDbText
  0
DIMENSION
  5
294
100
AcDbEntity
  8
5
370
    25
100
AcDbDimension
  2
*D7
 10
-7.029481
 20
71.026046
 30
0.0
 11
-9.529481
 21
-2.525845
 31
0.0
 71
     0
 72
     0
 41
0.0
 42
0.0
  3
Standard
100
AcDbAlignedDimension
 13
247.611153
 23
-76.077736
 33
0.0
 14
15.091196
 24
71.026046
 34
0.0
 50
90.0
100
AcDbRotatedDimension
  0
DIMENSION
  5
295
100
AcDbEntity
  8
5
370
    25
100
AcDbDimension
  2
*D8
 10
-81.711245
 20
-92.316704
 30
0.0
 11
-99.211692
 21
-87.816704
 31
0.0
 71
     0
 72
     0
 41
0.0
 42
0.0
  3
Standard
100
AcDbAlignedDimension
 13
-116.712139
 23
-97.078356
 33
0.0
 14
-81.711245
 24
-97.078356
 34
0.0
100
AcDbRotatedDimension
  0
ENDSEC
  0
SECTION
  2
OBJECTS
  0
DICTIONARY
  5
2FD
100
AcDbDictionary
280
     0
281
     1
  3
ACAD_GROUP
350
2FE
  3
ACAD_MLINESTYLE
350
2FF
  0
DICTIONARY
  5
2FE
102
{ACAD_REACTORS
330
2FD
102
}
100
AcDbDictionary
280
     0
281
     1
  0
DICTIONARY
  5
2FF
102
{ACAD_REACTORS
330
2FD
102
}
100
AcDbDictionary
280
     0
281
     1
  3
Standard
350
300
  0
MLINESTYLE
  5
300
102
{ACAD_REACTORS
330
2FF
102
}
100
AcDbMlineStyle
  2
Standard
 70
     0
  3

 62
     0
 51
90.0
 52
90.0
 71
     2
 49
0.5
 62
   256
  6
ByLayer
 49
-0.5
 62
   256
  6
ByLayer
  0
ENDSEC
  0
EOF
