  0
SECTION
  2
HEADER
  9
$ACADVER
  1
AC1015
  9
$ACADMAINTVER
 70
     6
  9
$DWGCODEPAGE
  3
ANSI_932
  9
$INSBASE
 10
0.0
 20
0.0
 30
0.0
  9
$EXTMIN
 10
-420.0
 20
-297.0
 30
1.000000E+20
  9
$EXTMAX
 10
420.0
 20
297.0
 30
-1.000000E+20
  9
$LIMMIN
 10
-420.0
 20
-297.0
  9
$LIMMAX
 10
420.0
 20
297.0
  9
$ORTHOMODE
 70
     0
  9
$REGENMODE
 70
     1
  9
$FILLMODE
 70
     1
  9
$QTEXTMODE
 70
     0
  9
$MIRRTEXT
 70
     1
  9
$LTSCALE
 40
1.0
  9
$ATTMODE
 70
     1
  9
$TEXTSIZE
 40
0.2
  9
$TRACEWID
 40
0.05
  9
$TEXTSTYLE
  7
STANDARD
  9
$CLAYER
  8
0
  9
$CELTYPE
  6
CONTINUOUS
  9
$CECOLOR
 62
   256
  9
$CELTSCALE
 40
1.0
  9
$DISPSILH
 70
     0
  9
$DIMSCALE
 40
2.0
  9
$DIMASZ
 40
2.0
  9
$DIMEXO
 40
1.0
  9
$DIMDLI
 40
0.38
  9
$DIMRND
 40
0.0
  9
$DIMDLE
 40
0.0
  9
$DIMEXE
 40
2.0
  9
$DIMTP
 40
0.0
  9
$DIMTM
 40
0.0
  9
$DIMTXT
 40
3.5
  9
$DIMCEN
 40
0.09
  9
$DIMTSZ
 40
0.0
  9
$DIMTOL
 70
     0
  9
$DIMLIM
 70
     0
  9
$DIMTIH
 70
     0
  9
$DIMTOH
 70
     0
  9
$DIMSE1
 70
     0
  9
$DIMSE2
 70
     0
  9
$DIMTAD
 70
     1
  9
$DIMZIN
 70
     0
  9
$DIMBLK
  1

  9
$DIMASO
 70
     1
  9
$DIMSHO
 70
     1
  9
$DIMPOST
  1

  9
$DIMAPOST
  1

  9
$DIMALT
 70
     0
  9
$DIMALTD
 70
     2
  9
$DIMALTF
 40
25.4
  9
$DIMLFAC
 40
1.0
  9
$DIMTOFL
 70
     0
  9
$DIMTVP
 40
0.0
  9
$DIMTIX
 70
     0
  9
$DIMSOXD
 70
     0
  9
$DIMSAH
 70
     0
  9
$DIMBLK1
  1

  9
$DIMBLK2
  1

  9
$DIMSTYLE
  2
Standard
  9
$DIMCLRD
 70
     0
  9
$DIMCLRE
 70
     0
  9
$DIMCLRT
 70
     0
  9
$DIMTFAC
 40
1.0
  9
$DIMGAP
 40
0.5
  9
$DIMJUST
 70
     0
  9
$DIMSD1
 70
     0
  9
$DIMSD2
 70
     0
  9
$DIMTOLJ
 70
     1
  9
$DIMTZIN
 70
     0
  9
$DIMALTZ
 70
     0
  9
$DIMALTTZ
 70
     0
  9
$DIMUPT
 70
     0
  9
$DIMDEC
 70
     3
  9
$DIMTDEC
 70
     4
  9
$DIMALTU
 70
     2
  9
$DIMALTTD
 70
     2
  9
$DIMTXSTY
  7
STANDARD
  9
$DIMAUNIT
 70
     0
  9
$DIMADEC
 70
     2
  9
$DIMALTRND
 40
0.0
  9
$DIMAZIN
 70
     0
  9
$DIMDSEP
 70
     0
  9
$DIMATFIT
 70
     3
  9
$DIMFRAC
 70
     0
  9
$DIMLDRBLK
  1

  9
$DIMLUNIT
 70
     2
  9
$DIMLWD
 70
     0
  9
$DIMLWE
 70
     0
  9
$DIMTMOVE
 70
     0
  9
$LUNITS
 70
     2
  9
$LUPREC
 70
     4
  9
$SKETCHINC
 40
0.1
  9
$FILLETRAD
 40
0.0
  9
$AUNITS
 70
     0
  9
$AUPREC
 70
     0
  9
$MENU
  1
acad
  9
$ELEVATION
 40
0.0
  9
$PELEVATION
 40
0.0
  9
$THICKNESS
 40
0.0
  9
$LIMCHECK
 70
     0
  9
$CHAMFERA
 40
0.0
  9
$CHAMFERB
 40
0.0
  9
$CHAMFERC
 40
0.0
  9
$CHAMFERD
 40
0.0
  9
$SKPOLY
 70
     0
  9
$TDCREATE
 40
2459501.000000000
  9
$TDUCREATE
 40
0.000000000
  9
$TDUPDATE
 40
0.000000000
  9
$TDUUPDATE
 40
2447892.625000000
  9
$TDINDWG
 40
0.0000000000
  9
$TDUSRTIMER
 40
0.0000000000
  9
$USRTIMER
 70
     1
  9
$ANGBASE
 50
0.0
  9
$ANGDIR
 70
     0
  9
$PDMODE
 70
     0
  9
$PDSIZE
 40
0.0
  9
$PLINEWID
 40
0.0
  9
$SPLFRAME
 70
     0
  9
$SPLINETYPE
 70
     6
  9
$SPLINESEGS
 70
     8
  9
$HANDSEED
  5
5CC
  9
$SURFTAB1
 70
     6
  9
$SURFTAB2
 70
     6
  9
$SURFTYPE
 70
     6
  9
$SURFU
 70
     6
  9
$SURFV
 70
     6
  9
$UCSBASE
  2

  9
$UCSNAME
  2

  9
$UCSORG
 10
0.0
 20
0.0
 30
0.0
  9
$UCSXDIR
 10
1.0
 20
0.0
 30
0.0
  9
$UCSYDIR
 10
0.0
 20
1.0
 30
0.0
  9
$UCSORTHOREF
  2

  9
$UCSORTHOVIEW
 70
     0
  9
$UCSORGTOP
 10
0.0
 20
0.0
 30
0.0
  9
$UCSORGBOTTOM
 10
0.0
 20
0.0
 30
0.0
  9
$UCSORGLEFT
 10
0.0
 20
0.0
 30
0.0
  9
$UCSORGRIGHT
 10
0.0
 20
0.0
 30
0.0
  9
$UCSORGFRONT
 10
0.0
 20
0.0
 30
0.0
  9
$UCSORGBACK
 10
0.0
 20
0.0
 30
0.0
  9
$PUCSBASE
  2

  9
$PUCSNAME
  2

  9
$PUCSORG
 10
0.0
 20
0.0
 30
0.0
  9
$PUCSXDIR
 10
1.0
 20
0.0
 30
0.0
  9
$PUCSYDIR
 10
0.0
 20
1.0
 30
0.0
  9
$PUCSORTHOREF
  2

  9
$PUCSORTHOVIEW
 70
     0
  9
$PUCSORGTOP
 10
0.0
 20
0.0
 30
0.0
  9
$PUCSORGBOTTOM
 10
0.0
 20
0.0
 30
0.0
  9
$PUCSORGLEFT
 10
0.0
 20
0.0
 30
0.0
  9
$PUCSORGRIGHT
 10
0.0
 20
0.0
 30
0.0
  9
$PUCSORGFRONT
 10
0.0
 20
0.0
 30
0.0
  9
$PUCSORGBACK
 10
0.0
 20
0.0
 30
0.0
  9
$USERI1
 70
     0
  9
$USERI2
 70
     0
  9
$USERI3
 70
     0
  9
$USERI4
 70
     0
  9
$USERI5
 70
     0
  9
$USERR1
 40
0.0
  9
$USERR2
 40
0.0
  9
$USERR3
 40
0.0
  9
$USERR4
 40
0.0
  9
$USERR5
 40
0.0
  9
$WORLDVIEW
 70
     1
  9
$SHADEDGE
 70
     3
  9
$SHADEDIF
 70
    70
  9
$TILEMODE
 70
     1
  9
$MAXACTVP
 70
    16
  9
$PINSBASE
 10
0.0
 20
0.0
 30
0.0
  9
$PLIMCHECK
 70
     0
  9
$PEXTMIN
 10
1.000000E+20
 20
1.000000E+20
 30
1.000000E+20
  9
$PEXTMAX
 10
-1.000000E+20
 20
-1.000000E+20
 30
-1.000000E+20
  9
$PLIMMIN
 10
0.0
 20
0.0
  9
$PLIMMAX
 10
12.0
 20
9.0
  9
$UNITMODE
 70
     0
  9
$VISRETAIN
 70
     0
  9
$PLINEGEN
 70
     1
  9
$PSLTSCALE
 70
     0
  9
$TREEDEPTH
 70
  3020
  9
$CMLSTYLE
  2
Standard
  9
$CMLJUST
 70
     0
  9
$CMLSCALE
 40
1.0
  9
$PROXYGRAPHICS
 70
     0
  9
$MEASUREMENT
 70
     0
  9
$CELWEIGHT
370
     0
  9
$ENDCAPS
280
     0
  9
$JOINSTYLE
280
     0
  9
$LWDISPLAY
290
     0
  9
$INSUNITS
 70
     0
  9
$HYPERLINKBASE
  1

  9
$STYLESHEET
  1

  9
$XEDIT
290
     1
  9
$CEPSNTYPE
380
     0
  9
$PSTYLEMODE
290
     1
  9
$FINGERPRINTGUID
  2

  9
$VERSIONGUID
  2

  9
$EXTNAMES
290
     1
  9
$PSVPSCALE
 40
0.0
  0
ENDSEC
  0
SECTION
  2
CLASSES
  0
CLASS
  1
LWPOLYLINE
  2
AcDbPolyline
  3
AutoCAD 2000
 90
        0
280
     0
281
     1
  0
CLASS
  1
IMAGE
  2
AcDbRasterImage
  3
ISM
 90
      127
280
     0
281
     1
  0
CLASS
  1
OLE2FRAME
  2
AcDbOle2Frame
  3
AutoCAD 2000
 90
        0
280
     0
281
     1
  0
CLASS
  1
HATCH
  2
AcDbHatch
  3
AutoCAD 2000
 90
        0
280
     0
281
     1
  0
CLASS
  1
DICTIONARYVAR
  2
AcDbDictionaryVar
  3
AutoCAD 2000
 90
        0
280
     0
281
     0
  0
CLASS
  1
RASTERVARIABLES
  2
AcDbRasterVariables
  3
ISM
 90
        0
280
     0
281
     0
  0
CLASS
  1
IMAGEDEF
  2
AcDbRasterImageDef
  3
ISM
 90
        0
280
     0
281
     0
  0
CLASS
  1
IMAGEDEF_REACTOR
  2
AcDbRasterImageDefReactor
  3
ISM
 90
        1
280
     0
281
     0
  0
CLASS
  1
IDBUFFER
  2
AcDbIdBuffer
  3
AutoCAD 2000
 90
        0
280
     0
281
     0
  0
CLASS
  1
SPATIAL_FILTER
  2
AcDbSpatialFilter
  3
AutoCAD 2000
 90
        0
280
     0
281
     0
  0
CLASS
  1
XRECORD
  2
AcDbXrecord
  3
AutoCAD 2000
 90
        0
280
     0
281
     0
  0
CLASS
  1
SORTENTSTABLE
  2
AcDbSortentsTable
  3
AutoCAD 2000
 90
        0
280
     0
281
     0
  0
CLASS
  1
LAYER_INDEX
  2
AcDbLayerIndex
  3
AutoCAD 2000
 90
        0
280
     0
281
     0
  0
CLASS
  1
SPATIAL_INDEX
  2
AcDbSpatialIndex
  3
AutoCAD 2000
 90
        0
280
     0
281
     0
  0
CLASS
  1
OBJECT_PTR
  2
CAseDLPNTableRecord
  3
"ASE-LPNTableRecord"
 90
        1
280
     0
281
     0
  0
CLASS
  1
LAYOUT
  2
AcDbLayout
  3
AutoCAD 2000
 90
        0
280
     0
281
     0
  0
CLASS
  1
PLOTSETTINGS
  2
AcDbPlotSettings
  3
AutoCAD 2000
 90
        0
280
     0
281
     0
  0
CLASS
  1
ACDBDICTIONARYWDFLT
  2
AcDbDictionaryWithDefault
  3
AutoCAD 2000
 90
        0
280
     0
281
     0
  0
CLASS
  1
ACDBPLACEHOLDER
  2
AcDbPlaceHolder
  3
AutoCAD 2000
 90
        0
280
     0
281
     0
  0
CLASS
  1
VBA_PROJECT
  2
AcDbVbaProject
  3
acadvba
 90
        0
280
     0
281
     0
  0
CLASS
  1
WIPEOUT
  2
AcDbWipeout
  3
WipeOut|AutoCAD Express Tool|expresstools@autodesk.com
 90
      127
280
     0
281
     1
  0
CLASS
  1
WIPEOUTVARIABLES
  2
AcDbWipeoutVariables
  3
WipeOut|AutoCAD Express Tool|expresstools@autodesk.com
 90
        0
280
     0
281
     0
  0
CLASS
  1
RTEXT
  2
RText
  3
RText|AutoCAD Express Tool|expresstools@autodesk.com
 90
        0
280
     0
281
     1
  0
CLASS
  1
ARCALIGNEDTEXT
  2
AcDbArcAlignedText
  3
ATEXT|AutoCAD Express Tool|expresstools@autodesk.com
 90
        0
280
     0
281
     1
  0
ENDSEC
  0
SECTION
  2
TABLES
  0
TABLE
  2
VPORT
  5
6
100
AcDbSymbolTable
 70
     1
  0
VPORT
  5
19
100
AcDbSymbolTableRecord
100
AcDbViewportTableRecord
  2
*ACTIVE
 70
     0
 10
0.0
 20
0.0
 11
1.0
 21
1.0
 12
0.0
 22
0.0
 13
0.0
 23
0.0
 14
1.0
 24
1.0
 15
0.0
 25
0.0
 16
0.0
 26
0.0
 36
1.0
 17
0.0
 27
0.0
 37
0.0
 40
594.0
 41
1.414141
 42
50.0
 43
0.0
 44
0.0
 50
0.0
 51
0.0
 71
     0
 72
   500
 73
     1
 74
     1
 75
     0
 76
     0
 77
     0
 78
     0
281
     0
 65
     0
110
0.0
120
0.0
130
0.0
111
1.0
121
0.0
131
0.0
112
0.0
122
1.0
132
0.0
345
0
346
0
 79
     0
146
0.0
  0
ENDTAB
  0
TABLE
  2
LTYPE
  5
3
100
AcDbSymbolTable
 70
     9
  0
LTYPE
  5
C
100
AcDbSymbolTableRecord
100
AcDbLinetypeTableRecord
  2
ByBlock
 70
    64
  3

 72
    65
 73
     0
 40
0.0
  0
LTYPE
  5
D
100
AcDbSymbolTableRecord
100
AcDbLinetypeTableRecord
  2
ByLayer
 70
    64
  3

 72
    65
 73
     0
 40
0.0
  0
LTYPE
  5
E
100
AcDbSymbolTableRecord
100
AcDbLinetypeTableRecord
  2
CONTINUOUS
 70
     0
  3
Solid line
 72
    65
 73
     0
 40
0.0
  0
LTYPE
  5
F
100
AcDbSymbolTableRecord
100
AcDbLinetypeTableRecord
  2
DASHED
 70
     0
  3
__ __ __ __ __ __ __ __ __ __ __ __ __ __ __
 72
    65
 73
     2
 40
2.0
 49
1.2
 74
     0
 49
-0.8
 74
     0
  0
LTYPE
  5
10
100
AcDbSymbolTableRecord
100
AcDbLinetypeTableRecord
  2
CENTER
 70
     0
  3
____ _ ____ _ ____ _ ____ _ ____ _ ____ _ ____
 72
    65
 73
     4
 40
12.0
 49
9.0
 74
     0
 49
-1.0
 74
     0
 49
1.0
 74
     0
 49
-1.0
 74
     0
  0
LTYPE
  5
11
100
AcDbSymbolTableRecord
100
AcDbLinetypeTableRecord
  2
HIDDEN
 70
     0
  3
_ _ _ _ _ _ _ _ _ _ _ _ _ _ _ _ _ _ _ _ _ _ _
 72
    65
 73
     2
 40
3.2
 49
2.4
 74
     0
 49
-0.8
 74
     0
  0
LTYPE
  5
12
100
AcDbSymbolTableRecord
100
AcDbLinetypeTableRecord
  2
PHANTOM
 70
     0
  3
_____ _ _ _____ _ _ _____ _ _ _____ _ _ _____
 72
    65
 73
     6
 40
13.5
 49
9.0
 74
     0
 49
-1.0
 74
     0
 49
1.0
 74
     0
 49
-0.5
 74
     0
 49
1.0
 74
     0
 49
-1.0
 74
     0
  0
LTYPE
  5
13
100
AcDbSymbolTableRecord
100
AcDbLinetypeTableRecord
  2
DOT
 70
     0
  3
...............................................
 72
    65
 73
     2
 40
1.0
 49
0.5
 74
     0
 49
-0.5
 74
     0
  0
LTYPE
  5
14
100
AcDbSymbolTableRecord
100
AcDbLinetypeTableRecord
  2
DASHDOT
 70
     0
  3
__ . __ . __ . __ . __ . __ . __ . __ . __ . __
 72
    65
 73
     4
 40
8.0
 49
5.0
 74
     0
 49
-1.0
 74
     0
 49
1.0
 74
     0
 49
-1.0
 74
     0
  0
ENDTAB
  0
TABLE
  2
LAYER
  5
1
100
AcDbSymbolTable
 70
     4
  0
LAYER
  5
15
100
AcDbSymbolTableRecord
100
AcDbLayerTableRecord
  2
0
 70
     0
 62
   225
  6
CONTINUOUS
290
     1
370
    -3
390
0
  0
LAYER
  5
16
100
AcDbSymbolTableRecord
100
AcDbLayerTableRecord
  2
1
 70
     0
 62
     2
  6
CONTINUOUS
290
     1
370
    -3
390
0
  0
LAYER
  5
17
100
AcDbSymbolTableRecord
100
AcDbLayerTableRecord
  2
2
 70
     0
 62
     3
  6
CONTINUOUS
290
     1
370
    -3
390
0
  0
LAYER
  5
18
100
AcDbSymbolTableRecord
100
AcDbLayerTableRecord
  2
3
 70
     0
 62
     4
  6
CONTINUOUS
290
     1
370
    -3
390
0
  0
ENDTAB
  0
TABLE
  2
STYLE
  5
2
100
AcDbSymbolTable
 70
     1
  0
STYLE
  5
1B
100
AcDbSymbolTableRecord
100
AcDbTextStyleTableRecord
  2
STANDARD
 70
    64
 40
0.0
 41
1.0
 50
0.0
 71
     0
 42
1.0
  3
txt
  4
BIGFONT
  0
ENDTAB
  0
TABLE
  2
VIEW
  5
4
100
AcDbSymbolTable
 70
     0
  0
ENDTAB
  0
TABLE
  2
UCS
  5
5
100
AcDbSymbolTable
 70
     0
  0
ENDTAB
  0
TABLE
  2
APPID
  5
7
100
AcDbSymbolTable
 70
     1
  0
APPID
  5
1A
100
AcDbSymbolTableRecord
100
AcDbRegAppTableRecord
  2
ACAD
 70
     0
  0
ENDTAB
  0
TABLE
  2
DIMSTYLE
  5
8
100
AcDbSymbolTable
 70
     1
100
AcDbDimStyleTable
 71
     0
  0
DIMSTYLE
105
2D
100
AcDbSymbolTableRecord
100
AcDbDimStyleTableRecord
  2
Standard
 70
     0
  3

  4

 40
2.0
 41
2.0
 42
1.0
 43
0.38
 44
2.0
 45
0.0
 46
0.0
 47
0.0
 48
0.0
 71
     0
 72
     0
 73
     0
 74
     0
 75
     0
 76
     0
 77
     1
 78
     0
 79
     0
140
3.5
141
0.09
142
0.0
143
25.4
144
1.0
145
0.0
146
1.0
147
0.5
148
0.0
170
     0
171
     2
172
     0
173
     0
174
     0
175
     0
176
     0
177
     0
178
     0
179
     0
271
     3
272
     4
273
     2
274
     2
275
     0
276
     0
277
     2
278
    46
279
     0
280
     0
281
     0
282
     0
283
     1
284
     0
285
     0
286
     0
288
     0
289
     3
340
1B
341
0
342
0
343
0
344
0
371
    -2
372
    -2
  0
ENDTAB
  0
TABLE
  2
BLOCK_RECORD
  5
28
100
AcDbSymbolTable
 70
    10
  0
BLOCK_RECORD
  5
26
100
AcDbSymbolTableRecord
100
AcDbBlockTableRecord
  2
*Model_Space
340
0
  0
BLOCK_RECORD
  5
27
100
AcDbSymbolTableRecord
100
AcDbBlockTableRecord
  2
*Paper_Space
340
0
  0
BLOCK_RECORD
  5
1C
100
AcDbSymbolTableRecord
100
AcDbBlockTableRecord
  2
*D0
340
0
  0
BLOCK_RECORD
  5
1D
100
AcDbSymbolTableRecord
100
AcDbBlockTableRecord
  2
*D1
340
0
  0
BLOCK_RECORD
  5
1E
100
AcDbSymbolTableRecord
100
AcDbBlockTableRecord
  2
*D2
340
0
  0
BLOCK_RECORD
  5
1F
100
AcDbSymbolTableRecord
100
AcDbBlockTableRecord
  2
*D3
340
0
  0
BLOCK_RECORD
  5
20
100
AcDbSymbolTableRecord
100
AcDbBlockTableRecord
  2
*D4
340
0
  0
BLOCK_RECORD
  5
21
100
AcDbSymbolTableRecord
100
AcDbBlockTableRecord
  2
*D5
340
0
  0
BLOCK_RECORD
  5
22
100
AcDbSymbolTableRecord
100
AcDbBlockTableRecord
  2
*D6
340
0
  0
BLOCK_RECORD
  5
23
100
AcDbSymbolTableRecord
100
AcDbBlockTableRecord
  2
*D7
340
0
  0
BLOCK_RECORD
  5
24
100
AcDbSymbolTableRecord
100
AcDbBlockTableRecord
  2
*D8
340
0
  0
BLOCK_RECORD
  5
25
100
AcDbSymbolTableRecord
100
AcDbBlockTableRecord
  2
*D9
340
0
  0
ENDTAB
  0
ENDSEC
  0
SECTION
  2
BLOCKS
  0
BLOCK
  5
29
100
AcDbEntity
  8
0
390
0
100
AcDbBlockBegin
  2
*Model_Space
 70
     0
 10
0.0
 20
0.0
 30
0.0
  3
*Model_Space
  1

  0
ENDBLK
  5
2A
100
AcDbEntity
  8
0
390
0
100
AcDbBlockEnd
  0
BLOCK
  5
2B
100
AcDbEntity
 67
     1
  8
0
390
0
100
AcDbBlockBegin
  2
*Paper_Space
 70
     0
 10
0.0
 20
0.0
 30
0.0
  3
*Paper_Space
  1

  0
ENDBLK
  5
2C
100
AcDbEntity
 67
     1
  8
0
390
0
100
AcDbBlockEnd
  0
BLOCK
  5
556
100
AcDbEntity
  8
2
100
AcDbBlockBegin
  2
*D0
 70
     1
 10
0.0
 20
0.0
 30
0.0
  3
*D0
  1

  0
LINE
  5
557
100
AcDbEntity
  8
2
370
    25
100
AcDbLine
 10
17.959774
 20
197.431864
 30
0.0
 11
-11.170686
 21
222.579163
 31
0.0
  0
LINE
  5
558
100
AcDbEntity
  8
2
370
    25
100
AcDbLine
 10
-29.635585
 20
146.93495
 30
0.0
 11
-46.213816
 21
150.098282
 31
0.0
  0
LINE
  5
559
100
AcDbEntity
  8
2
370
    25
100
AcDbLine
 10
-9.656762
 20
221.272245
 30
0.0
 11
-12.936647
 21
218.982626
 31
0.0
  0
LINE
  5
55A
100
AcDbEntity
  8
2
370
    25
100
AcDbLine
 10
-9.656762
 20
221.272245
 30
0.0
 11
-11.352416
 21
217.649435
 31
0.0
  0
LINE
  5
55B
100
AcDbEntity
  8
2
370
    25
100
AcDbLine
 10
-12.936647
 20
218.982626
 30
0.0
 11
-11.352416
 21
217.649435
 31
0.0
  0
LINE
  5
55C
100
AcDbEntity
  8
2
370
    25
100
AcDbLine
 10
-44.24926
 20
149.723421
 30
0.0
 11
-42.462979
 21
153.302415
 31
0.0
  0
LINE
  5
55D
100
AcDbEntity
  8
2
370
    25
100
AcDbLine
 10
-44.24926
 20
149.723421
 30
0.0
 11
-44.491792
 21
153.716061
 31
0.0
  0
LINE
  5
55E
100
AcDbEntity
  8
2
370
    25
100
AcDbLine
 10
-42.462979
 20
153.302415
 30
0.0
 11
-44.491792
 21
153.716061
 31
0.0
  0
ARC
  5
55F
100
AcDbEntity
  8
2
370
    25
100
AcDbCircle
 10
106.558913
 20
120.947352
 30
0.0
 40
153.529044
100
AcDbArc
 50
139.197115
 51
169.197115
  0
ENDBLK
  5
560
100
AcDbEntity
  8
2
100
AcDbBlockEnd
  0
BLOCK
  5
561
100
AcDbEntity
  8
3
100
AcDbBlockBegin
  2
*D1
 70
     1
 10
0.0
 20
0.0
 30
0.0
  3
*D1
  1

  0
TEXT
  5
562
100
AcDbEntity
  8
3
370
    25
100
AcDbText
 10
-185.545511
 20
98.547271
 30
0.0
 40
6.0
  1
13%%d
 50
353.5
 41
2.0
 72
     5
 11
-170.04579
 21
96.781301
 31
0.0
100
AcDbText
  0
LINE
  5
563
100
AcDbEntity
  8
3
370
    25
100
AcDbLine
 10
-176.806951
 20
113.937969
 30
0.0
 11
-181.559882
 21
93.350763
 31
0.0
  0
LINE
  5
564
100
AcDbEntity
  8
3
370
    25
100
AcDbLine
 10
-173.653795
 20
111.995025
 30
0.0
 11
-173.653795
 21
92.449978
 31
0.0
  0
LINE
  5
565
100
AcDbEntity
  8
3
370
    25
100
AcDbLine
 10
-181.10998
 20
95.299503
 30
0.0
 11
-184.526317
 21
97.380042
 31
0.0
  0
LINE
  5
566
100
AcDbEntity
  8
3
370
    25
100
AcDbLine
 10
-181.10998
 20
95.299503
 30
0.0
 11
-185.108884
 21
95.393134
 31
0.0
  0
LINE
  5
567
100
AcDbEntity
  8
3
370
    25
100
AcDbLine
 10
-184.526317
 20
97.380042
 30
0.0
 11
-185.108884
 21
95.393134
 31
0.0
  0
LINE
  5
568
100
AcDbEntity
  8
3
370
    25
100
AcDbLine
 10
-173.653795
 20
94.449978
 30
0.0
 11
-169.736321
 21
93.641651
 31
0.0
  0
LINE
  5
569
100
AcDbEntity
  8
3
370
    25
100
AcDbLine
 10
-173.653795
 20
94.449978
 30
0.0
 11
-169.856999
 21
95.708684
 31
0.0
  0
LINE
  5
56A
100
AcDbEntity
  8
3
370
    25
100
AcDbLine
 10
-169.736321
 20
93.641651
 30
0.0
 11
-169.856999
 21
95.708684
 31
0.0
  0
ARC
  5
56B
100
AcDbEntity
  8
3
370
    25
100
AcDbCircle
 10
-173.653795
 20
127.595787
 30
0.0
 40
33.145809
100
AcDbArc
 50
240.211581
 51
286.788419
  0
ENDBLK
  5
56C
100
AcDbEntity
  8
3
100
AcDbBlockEnd
  0
BLOCK
  5
56D
100
AcDbEntity
  8
3
100
AcDbBlockBegin
  2
*D2
 70
     1
 10
0.0
 20
0.0
 30
0.0
  3
*D2
  1

  0
TEXT
  5
56E
100
AcDbEntity
  8
3
370
    25
100
AcDbText
 10
-198.031717
 20
45.832292
 30
0.0
 40
6.0
  1
１４０
 50
90.0
 72
     5
 11
-198.031717
 21
62.632292
 31
0.0
100
AcDbText
  0
LINE
  5
56F
100
AcDbEntity
  8
3
370
    25
100
AcDbLine
 10
60.191261
 20
-11.931202
 30
0.0
 11
-199.031717
 21
-11.931202
 31
0.0
  0
LINE
  5
570
100
AcDbEntity
  8
3
370
    25
100
AcDbLine
 10
-197.031717
 20
-11.931202
 30
0.0
 11
-195.996441
 21
-8.067499
 31
0.0
  0
LINE
  5
571
100
AcDbEntity
  8
3
370
    25
100
AcDbLine
 10
-197.031717
 20
-11.931202
 30
0.0
 11
-198.066993
 21
-8.067499
 31
0.0
  0
LINE
  5
572
100
AcDbEntity
  8
3
370
    25
100
AcDbLine
 10
-195.996441
 20
-8.067499
 30
0.0
 11
-198.066993
 21
-8.067499
 31
0.0
  0
LINE
  5
573
100
AcDbEntity
  8
3
370
    25
100
AcDbLine
 10
-197.031717
 20
-11.931202
 30
0.0
 11
-197.031717
 21
127.595787
 31
0.0
  0
LINE
  5
574
100
AcDbEntity
  8
3
370
    25
100
AcDbLine
 10
-197.031717
 20
127.595787
 30
0.0
 11
-198.066993
 21
123.732084
 31
0.0
  0
LINE
  5
575
100
AcDbEntity
  8
3
370
    25
100
AcDbLine
 10
-197.031717
 20
127.595787
 30
0.0
 11
-195.996441
 21
123.732084
 31
0.0
  0
LINE
  5
576
100
AcDbEntity
  8
3
370
    25
100
AcDbLine
 10
-198.066993
 20
123.732084
 30
0.0
 11
-195.996441
 21
123.732084
 31
0.0
  0
LINE
  5
577
100
AcDbEntity
  8
3
370
    25
100
AcDbLine
 10
-175.653795
 20
127.595787
 30
0.0
 11
-199.031717
 21
127.595787
 31
0.0
  0
ENDBLK
  5
578
100
AcDbEntity
  8
3
100
AcDbBlockEnd
  0
BLOCK
  5
579
100
AcDbEntity
  8
3
100
AcDbBlockBegin
  2
*D3
 70
     1
 10
0.0
 20
0.0
 30
0.0
  3
*D3
  1

  0
TEXT
  5
57A
100
AcDbEntity
  8
3
370
    25
100
AcDbText
 10
-54.631267
 20
-23.196709
 30
0.0
 40
6.0
  1
２６２
 72
     5
 11
-37.831267
 21
-23.196709
 31
0.0
100
AcDbText
  0
LINE
  5
57B
100
AcDbEntity
  8
3
370
    25
100
AcDbLine
 10
-173.653795
 20
125.595787
 30
0.0
 11
-173.653795
 21
-26.196709
 31
0.0
  0
LINE
  5
57C
100
AcDbEntity
  8
3
370
    25
100
AcDbLine
 10
-173.653795
 20
-24.196709
 30
0.0
 11
-169.790092
 21
-25.231985
 31
0.0
  0
LINE
  5
57D
100
AcDbEntity
  8
3
370
    25
100
AcDbLine
 10
-173.653795
 20
-24.196709
 30
0.0
 11
-169.790092
 21
-23.161432
 31
0.0
  0
LINE
  5
57E
100
AcDbEntity
  8
3
370
    25
100
AcDbLine
 10
-169.790092
 20
-25.231985
 30
0.0
 11
-169.790092
 21
-23.161432
 31
0.0
  0
LINE
  5
57F
100
AcDbEntity
  8
3
370
    25
100
AcDbLine
 10
-173.653795
 20
-24.196709
 30
0.0
 11
88.391261
 21
-24.196709
 31
0.0
  0
LINE
  5
580
100
AcDbEntity
  8
3
370
    25
100
AcDbLine
 10
88.391261
 20
-24.196709
 30
0.0
 11
84.527558
 21
-23.161432
 31
0.0
  0
LINE
  5
581
100
AcDbEntity
  8
3
370
    25
100
AcDbLine
 10
88.391261
 20
-24.196709
 30
0.0
 11
84.527558
 21
-25.231985
 31
0.0
  0
LINE
  5
582
100
AcDbEntity
  8
3
370
    25
100
AcDbLine
 10
84.527558
 20
-23.161432
 30
0.0
 11
84.527558
 21
-25.231985
 31
0.0
  0
ENDBLK
  5
583
100
AcDbEntity
  8
3
100
AcDbBlockEnd
  0
BLOCK
  5
584
100
AcDbEntity
  8
3
100
AcDbBlockBegin
  2
*D4
 70
     1
 10
0.0
 20
0.0
 30
0.0
  3
*D4
  1

  0
TEXT
  5
585
100
AcDbEntity
  8
3
370
    25
100
AcDbText
 10
-212.896509
 20
77.657318
 30
0.0
 40
6.0
  1
１９７
 50
90.0
 72
     5
 11
-212.896509
 21
94.457318
 31
0.0
100
AcDbText
  0
LINE
  5
586
100
AcDbEntity
  8
3
370
    25
100
AcDbLine
 10
60.191261
 20
-11.931202
 30
0.0
 11
-213.896509
 21
-11.931202
 31
0.0
  0
LINE
  5
587
100
AcDbEntity
  8
3
370
    25
100
AcDbLine
 10
-211.896509
 20
-11.931202
 30
0.0
 11
-210.861232
 21
-8.067499
 31
0.0
  0
LINE
  5
588
100
AcDbEntity
  8
3
370
    25
100
AcDbLine
 10
-211.896509
 20
-11.931202
 30
0.0
 11
-212.931785
 21
-8.067499
 31
0.0
  0
LINE
  5
589
100
AcDbEntity
  8
3
370
    25
100
AcDbLine
 10
-210.861232
 20
-8.067499
 30
0.0
 11
-212.931785
 21
-8.067499
 31
0.0
  0
LINE
  5
58A
100
AcDbEntity
  8
3
370
    25
100
AcDbLine
 10
-211.896509
 20
-11.931202
 30
0.0
 11
-211.896509
 21
185.245837
 31
0.0
  0
LINE
  5
58B
100
AcDbEntity
  8
3
370
    25
100
AcDbLine
 10
-211.896509
 20
185.245837
 30
0.0
 11
-212.931785
 21
181.382134
 31
0.0
  0
LINE
  5
58C
100
AcDbEntity
  8
3
370
    25
100
AcDbLine
 10
-211.896509
 20
185.245837
 30
0.0
 11
-210.861232
 21
181.382134
 31
0.0
  0
LINE
  5
58D
100
AcDbEntity
  8
3
370
    25
100
AcDbLine
 10
-212.931785
 20
181.382134
 30
0.0
 11
-210.861232
 21
181.382134
 31
0.0
  0
LINE
  5
58E
100
AcDbEntity
  8
3
370
    25
100
AcDbLine
 10
-182.100084
 20
185.245837
 30
0.0
 11
-213.896509
 21
185.245837
 31
0.0
  0
ENDBLK
  5
58F
100
AcDbEntity
  8
3
100
AcDbBlockEnd
  0
BLOCK
  5
590
100
AcDbEntity
  8
3
100
AcDbBlockBegin
  2
*D5
 70
     1
 10
0.0
 20
0.0
 30
0.0
  3
*D5
  1

  0
LINE
  5
591
100
AcDbEntity
  8
3
370
    25
100
AcDbLine
 10
-289.572337
 20
-27.930941
 30
0.0
 11
-317.591867
 21
-27.930941
 31
0.0
  0
LINE
  5
592
100
AcDbEntity
  8
3
370
    25
100
AcDbLine
 10
-315.591867
 20
-27.930941
 30
0.0
 11
-316.627143
 21
-31.794645
 31
0.0
  0
LINE
  5
593
100
AcDbEntity
  8
3
370
    25
100
AcDbLine
 10
-315.591867
 20
-27.930941
 30
0.0
 11
-314.556591
 21
-31.794645
 31
0.0
  0
LINE
  5
594
100
AcDbEntity
  8
3
370
    25
100
AcDbLine
 10
-316.627143
 20
-31.794645
 30
0.0
 11
-314.556591
 21
-31.794645
 31
0.0
  0
LINE
  5
595
100
AcDbEntity
  8
3
370
    25
100
AcDbLine
 10
-315.591867
 20
-70.930941
 30
0.0
 11
-315.591867
 21
-1.931202
 31
0.0
  0
LINE
  5
596
100
AcDbEntity
  8
3
370
    25
100
AcDbLine
 10
-315.591867
 20
-11.931202
 30
0.0
 11
-314.556591
 21
-8.067499
 31
0.0
  0
LINE
  5
597
100
AcDbEntity
  8
3
370
    25
100
AcDbLine
 10
-315.591867
 20
-11.931202
 30
0.0
 11
-316.627143
 21
-8.067499
 31
0.0
  0
LINE
  5
598
100
AcDbEntity
  8
3
370
    25
100
AcDbLine
 10
-314.556591
 20
-8.067499
 30
0.0
 11
-316.627143
 21
-8.067499
 31
0.0
  0
LINE
  5
599
100
AcDbEntity
  8
3
370
    25
100
AcDbLine
 10
-290.772337
 20
-11.931202
 30
0.0
 11
-317.591867
 21
-11.931202
 31
0.0
  0
ENDBLK
  5
59A
100
AcDbEntity
  8
3
100
AcDbBlockEnd
  0
BLOCK
  5
59B
100
AcDbEntity
  8
3
100
AcDbBlockBegin
  2
*D6
 70
     1
 10
0.0
 20
0.0
 30
0.0
  3
*D6
  1

  0
TEXT
  5
59C
100
AcDbEntity
  8
3
370
    25
100
AcDbText
 10
235.874988
 20
84.318898
 30
0.0
 40
6.0
  1
２１４
 50
90.0
 72
     5
 11
235.874988
 21
101.118898
 31
0.0
100
AcDbText
  0
LINE
  5
59D
100
AcDbEntity
  8
3
370
    25
100
AcDbLine
 10
116.590189
 20
-11.930768
 30
0.0
 11
238.874988
 21
-11.930768
 31
0.0
  0
LINE
  5
59E
100
AcDbEntity
  8
3
370
    25
100
AcDbLine
 10
236.874988
 20
-11.930768
 30
0.0
 11
237.910264
 21
-8.067065
 31
0.0
  0
LINE
  5
59F
100
AcDbEntity
  8
3
370
    25
100
AcDbLine
 10
236.874988
 20
-11.930768
 30
0.0
 11
235.839712
 21
-8.067065
 31
0.0
  0
LINE
  5
5A0
100
AcDbEntity
  8
3
370
    25
100
AcDbLine
 10
237.910264
 20
-8.067065
 30
0.0
 11
235.839712
 21
-8.067065
 31
0.0
  0
LINE
  5
5A1
100
AcDbEntity
  8
3
370
    25
100
AcDbLine
 10
236.874988
 20
-11.930768
 30
0.0
 11
236.874988
 21
201.568564
 31
0.0
  0
LINE
  5
5A2
100
AcDbEntity
  8
3
370
    25
100
AcDbLine
 10
236.874988
 20
201.568564
 30
0.0
 11
235.839712
 21
197.70486
 31
0.0
  0
LINE
  5
5A3
100
AcDbEntity
  8
3
370
    25
100
AcDbLine
 10
236.874988
 20
201.568564
 30
0.0
 11
237.910264
 21
197.70486
 31
0.0
  0
LINE
  5
5A4
100
AcDbEntity
  8
3
370
    25
100
AcDbLine
 10
235.839712
 20
197.70486
 30
0.0
 11
237.910264
 21
197.70486
 31
0.0
  0
LINE
  5
5A5
100
AcDbEntity
  8
3
370
    25
100
AcDbLine
 10
24.112611
 20
201.568564
 30
0.0
 11
238.874988
 21
201.568564
 31
0.0
  0
ENDBLK
  5
5A6
100
AcDbEntity
  8
3
100
AcDbBlockEnd
  0
BLOCK
  5
5A7
100
AcDbEntity
  8
3
100
AcDbBlockBegin
  2
*D7
 70
     1
 10
0.0
 20
0.0
 30
0.0
  3
*D7
  1

  0
LINE
  5
5A8
100
AcDbEntity
  8
3
370
    25
100
AcDbLine
 10
116.590189
 20
-11.930768
 30
0.0
 11
219.077655
 21
-11.930768
 31
0.0
  0
LINE
  5
5A9
100
AcDbEntity
  8
3
370
    25
100
AcDbLine
 10
217.077655
 20
-11.930768
 30
0.0
 11
218.112932
 21
-8.067065
 31
0.0
  0
LINE
  5
5AA
100
AcDbEntity
  8
3
370
    25
100
AcDbLine
 10
217.077655
 20
-11.930768
 30
0.0
 11
216.042379
 21
-8.067065
 31
0.0
  0
LINE
  5
5AB
100
AcDbEntity
  8
3
370
    25
100
AcDbLine
 10
218.112932
 20
-8.067065
 30
0.0
 11
216.042379
 21
-8.067065
 31
0.0
  0
LINE
  5
5AC
100
AcDbEntity
  8
3
370
    25
100
AcDbLine
 10
217.077655
 20
-11.930768
 30
0.0
 11
217.077655
 21
154.549578
 31
0.0
  0
LINE
  5
5AD
100
AcDbEntity
  8
3
370
    25
100
AcDbLine
 10
217.077655
 20
154.549578
 30
0.0
 11
216.042379
 21
150.685874
 31
0.0
  0
LINE
  5
5AE
100
AcDbEntity
  8
3
370
    25
100
AcDbLine
 10
217.077655
 20
154.549578
 30
0.0
 11
218.112932
 21
150.685874
 31
0.0
  0
LINE
  5
5AF
100
AcDbEntity
  8
3
370
    25
100
AcDbLine
 10
216.042379
 20
150.685874
 30
0.0
 11
218.112932
 21
150.685874
 31
0.0
  0
LINE
  5
5B0
100
AcDbEntity
  8
3
370
    25
100
AcDbLine
 10
-13.918188
 20
154.549578
 30
0.0
 11
219.077655
 21
154.549578
 31
0.0
  0
ENDBLK
  5
5B1
100
AcDbEntity
  8
3
100
AcDbBlockEnd
  0
BLOCK
  5
5B2
100
AcDbEntity
  8
3
100
AcDbBlockBegin
  2
*D8
 70
     1
 10
0.0
 20
0.0
 30
0.0
  3
*D8
  1

  0
TEXT
  5
5B3
100
AcDbEntity
  8
3
370
    25
100
AcDbText
 10
-314.072337
 20
-5.047337
 30
0.0
 40
6.0
  1
φ５３
 72
     5
 11
-297.272337
 21
-5.047337
 31
0.0
100
AcDbText
  0
LINE
  5
5B4
100
AcDbEntity
  8
3
370
    25
100
AcDbLine
 10
-236.072337
 20
-6.047337
 30
0.0
 11
-232.208633
 21
-7.082613
 31
0.0
  0
LINE
  5
5B5
100
AcDbEntity
  8
3
370
    25
100
AcDbLine
 10
-236.072337
 20
-6.047337
 30
0.0
 11
-232.208633
 21
-5.012061
 31
0.0
  0
LINE
  5
5B6
100
AcDbEntity
  8
3
370
    25
100
AcDbLine
 10
-232.208633
 20
-7.082613
 30
0.0
 11
-232.208633
 21
-5.012061
 31
0.0
  0
LINE
  5
5B7
100
AcDbEntity
  8
3
370
    25
100
AcDbLine
 10
-226.072337
 20
-6.047337
 30
0.0
 11
-314.072337
 21
-6.047337
 31
0.0
  0
LINE
  5
5B8
100
AcDbEntity
  8
3
370
    25
100
AcDbLine
 10
-289.072337
 20
-6.047337
 30
0.0
 11
-292.93604
 21
-5.012061
 31
0.0
  0
LINE
  5
5B9
100
AcDbEntity
  8
3
370
    25
100
AcDbLine
 10
-289.072337
 20
-6.047337
 30
0.0
 11
-292.93604
 21
-7.082613
 31
0.0
  0
LINE
  5
5BA
100
AcDbEntity
  8
3
370
    25
100
AcDbLine
 10
-292.93604
 20
-5.012061
 30
0.0
 11
-292.93604
 21
-7.082613
 31
0.0
  0
ENDBLK
  5
5BB
100
AcDbEntity
  8
3
100
AcDbBlockEnd
  0
BLOCK
  5
5BC
100
AcDbEntity
  8
3
100
AcDbBlockBegin
  2
*D9
 70
     1
 10
0.0
 20
0.0
 30
0.0
  3
*D9
  1

  0
LINE
  5
5BD
100
AcDbEntity
  8
3
370
    25
100
AcDbLine
 10
82.39126
 20
-159.330648
 30
0.0
 11
-3.785353
 21
-159.330648
 31
0.0
  0
LINE
  5
5BE
100
AcDbEntity
  8
3
370
    25
100
AcDbLine
 10
-1.785353
 20
-159.330648
 30
0.0
 11
-0.750077
 21
-155.466945
 31
0.0
  0
LINE
  5
5BF
100
AcDbEntity
  8
3
370
    25
100
AcDbLine
 10
-1.785353
 20
-159.330648
 30
0.0
 11
-2.820629
 21
-155.466945
 31
0.0
  0
LINE
  5
5C0
100
AcDbEntity
  8
3
370
    25
100
AcDbLine
 10
-0.750077
 20
-155.466945
 30
0.0
 11
-2.820629
 21
-155.466945
 31
0.0
  0
LINE
  5
5C1
100
AcDbEntity
  8
3
370
    25
100
AcDbLine
 10
-1.785353
 20
-159.330648
 30
0.0
 11
-1.785353
 21
-11.930659
 31
0.0
  0
LINE
  5
5C2
100
AcDbEntity
  8
3
370
    25
100
AcDbLine
 10
-1.785353
 20
-11.930659
 30
0.0
 11
-2.820629
 21
-15.794363
 31
0.0
  0
LINE
  5
5C3
100
AcDbEntity
  8
3
370
    25
100
AcDbLine
 10
-1.785353
 20
-11.930659
 30
0.0
 11
-0.750077
 21
-15.794363
 31
0.0
  0
LINE
  5
5C4
100
AcDbEntity
  8
3
370
    25
100
AcDbLine
 10
-2.820629
 20
-15.794363
 30
0.0
 11
-0.750077
 21
-15.794363
 31
0.0
  0
LINE
  5
5C5
100
AcDbEntity
  8
3
370
    25
100
AcDbLine
 10
60.19126
 20
-11.930659
 30
0.0
 11
-3.785353
 21
-11.930659
 31
0.0
  0
ENDBLK
  5
5C6
100
AcDbEntity
  8
3
100
AcDbBlockEnd
  0
ENDSEC
  0
SECTION
  2
ENTITIES
  0
LINE
  5
2E
100
AcDbEntity
  8
1
370
   100
100
AcDbLine
 10
-406.500476
 20
295.942085
 30
0.0
 11
361.503479
 21
295.942085
 31
0.0
  0
LINE
  5
2F
100
AcDbEntity
  8
1
370
   100
100
AcDbLine
 10
-406.500476
 20
295.942085
 30
0.0
 11
-406.500476
 21
-257.058563
 31
0.0
  0
LINE
  5
30
100
AcDbEntity
  8
1
370
   100
100
AcDbLine
 10
-406.500476
 20
-257.058563
 30
0.0
 11
361.503479
 21
-257.058563
 31
0.0
  0
LINE
  5
31
100
AcDbEntity
  8
1
370
   100
100
AcDbLine
 10
361.503479
 20
-257.058563
 30
0.0
 11
361.503479
 21
295.942085
 31
0.0
  0
TEXT
  5
32
100
AcDbEntity
  8
1
370
    50
100
AcDbText
 10
326.149536
 20
-205.339539
 30
0.0
 40
6.0
  1
設計
 72
     5
 11
336.949536
 21
-205.339539
 31
0.0
100
AcDbText
  0
TEXT
  5
33
100
AcDbEntity
  8
1
370
    50
100
AcDbText
 10
345.648572
 20
-205.18634
 30
0.0
 40
6.0
  1
製図
 72
     5
 11
356.448572
 21
-205.18634
 31
0.0
100
AcDbText
  0
TEXT
  5
34
100
AcDbEntity
  8
1
370
    50
100
AcDbText
 10
285.526839
 20
-205.339539
 30
0.0
 40
6.0
  1
承認
 72
     5
 11
296.326839
 21
-205.339539
 31
0.0
100
AcDbText
  0
TEXT
  5
35
100
AcDbEntity
  8
1
370
    50
100
AcDbText
 10
305.510773
 20
-205.284702
 30
0.0
 40
6.0
  1
検図
 72
     5
 11
316.310773
 21
-205.284702
 31
0.0
100
AcDbText
  0
LINE
  5
36
100
AcDbEntity
  8
1
370
    25
100
AcDbLine
 10
251.503479
 20
-207.058563
 30
0.0
 11
361.503479
 21
-207.058563
 31
0.0
  0
LINE
  5
37
100
AcDbEntity
  8
1
370
    25
100
AcDbLine
 10
309.003479
 20
-225.058563
 30
0.0
 11
309.003479
 21
-239.058563
 31
0.0
  0
TEXT
  5
38
100
AcDbEntity
  8
1
370
    50
100
AcDbText
 10
286.072684
 20
-235.09921
 30
0.0
 40
6.0
  1
日　付
 72
     5
 11
302.872684
 21
-235.09921
 31
0.0
100
AcDbText
  0
LINE
  5
39
100
AcDbEntity
  8
1
370
    50
100
AcDbLine
 10
7.503479
 20
-239.058563
 30
0.0
 11
361.503479
 21
-239.058563
 31
0.0
  0
TEXT
  5
3A
100
AcDbEntity
  8
1
370
    50
100
AcDbText
 10
254.296104
 20
-235.409088
 30
0.0
 40
6.0
  1
第三角法
 72
     5
 11
277.096104
 21
-235.409088
 31
0.0
100
AcDbText
  0
TEXT
  5
3B
100
AcDbEntity
  8
1
370
    50
100
AcDbText
 10
257.608513
 20
-205.084702
 30
0.0
 40
6.0
  1
尺　度
 72
     5
 11
274.408513
 21
-205.084702
 31
0.0
100
AcDbText
  0
LINE
  5
3C
100
AcDbEntity
  8
1
370
   100
100
AcDbLine
 10
7.503479
 20
-197.058563
 30
0.0
 11
361.503479
 21
-197.058563
 31
0.0
  0
LINE
  5
3D
100
AcDbEntity
  8
1
370
    50
100
AcDbLine
 10
178.503479
 20
-197.058563
 30
0.0
 11
178.503479
 21
-257.058563
 31
0.0
  0
LINE
  5
3E
100
AcDbEntity
  8
1
370
    25
100
AcDbLine
 10
341.503479
 20
-225.058563
 30
0.0
 11
341.503479
 21
-197.058563
 31
0.0
  0
LINE
  5
3F
100
AcDbEntity
  8
1
370
    25
100
AcDbLine
 10
321.503479
 20
-225.058563
 30
0.0
 11
321.503479
 21
-197.058563
 31
0.0
  0
LINE
  5
40
100
AcDbEntity
  8
1
370
    25
100
AcDbLine
 10
301.503479
 20
-225.058563
 30
0.0
 11
301.503479
 21
-197.058563
 31
0.0
  0
LINE
  5
41
100
AcDbEntity
  8
1
370
    50
100
AcDbLine
 10
251.503479
 20
-257.058563
 30
0.0
 11
251.503479
 21
-197.058563
 31
0.0
  0
LINE
  5
42
100
AcDbEntity
  8
1
370
    50
100
AcDbLine
 10
156.503479
 20
-197.058563
 30
0.0
 11
156.503479
 21
-257.058563
 31
0.0
  0
LINE
  5
43
100
AcDbEntity
  8
1
370
    50
100
AcDbLine
 10
29.503479
 20
-197.058563
 30
0.0
 11
29.503479
 21
-239.058563
 31
0.0
  0
LINE
  5
44
100
AcDbEntity
  8
1
370
    50
100
AcDbLine
 10
251.503479
 20
-225.058563
 30
0.0
 11
361.503479
 21
-225.058563
 31
0.0
  0
TEXT
  5
45
100
AcDbEntity
  8
1
370
    50
100
AcDbText
 10
253.622223
 20
-250.967621
 30
0.0
 40
6.0
  1
コードＮｏ
 41
0.9
 72
     5
 11
279.542223
 21
-250.967621
 31
0.0
100
AcDbText
  0
TEXT
  5
46
100
AcDbEntity
  8
1
370
   100
100
AcDbText
 10
19.407867
 20
-251.962341
 30
0.0
 40
8.0
  1
ミズタニバルブ工業株式会社
 41
1.2
 72
     5
 11
142.287867
 21
-251.962341
 31
0.0
100
AcDbText
  0
LINE
  5
47
100
AcDbEntity
  8
1
370
    50
100
AcDbLine
 10
7.503479
 20
-218.058563
 30
0.0
 11
251.503479
 21
-218.058563
 31
0.0
  0
LINE
  5
48
100
AcDbEntity
  8
1
370
    50
100
AcDbLine
 10
82.003479
 20
-218.058563
 30
0.0
 11
82.003479
 21
-239.058563
 31
0.0
  0
LINE
  5
49
100
AcDbEntity
  8
1
370
    50
100
AcDbLine
 10
104.003479
 20
-218.058563
 30
0.0
 11
104.003479
 21
-239.058563
 31
0.0
  0
LINE
  5
4A
100
AcDbEntity
  8
1
370
    50
100
AcDbLine
 10
281.503479
 20
-257.058563
 30
0.0
 11
281.503479
 21
-197.058563
 31
0.0
  0
TEXT
  5
4B
100
AcDbEntity
  8
1
370
    50
100
AcDbText
 10
311.619225
 20
-235.186975
 30
0.0
 40
6.0
  1
　　・　　・
 72
     5
 11
346.419225
 21
-235.186975
 31
0.0
100
AcDbText
  0
LINE
  5
4C
100
AcDbEntity
  8
1
370
   100
100
AcDbLine
 10
7.503479
 20
-197.058563
 30
0.0
 11
7.503479
 21
-257.058563
 31
0.0
  0
TEXT
  5
4D
100
AcDbEntity
  8
1
370
    50
100
AcDbText
 10
257.353676
 20
-219.100174
 30
0.0
 40
6.0
  1
　／ 
 72
     5
 11
268.153676
 21
-219.100174
 31
0.0
100
AcDbText
  0
TEXT
  5
4E
100
AcDbEntity
  8
1
370
    50
100
AcDbText
 10
160.425216
 20
-251.111591
 30
0.0
 40
6.0
  1
備 考 
 72
     5
 11
174.225216
 21
-251.111591
 31
0.0
100
AcDbText
  0
TEXT
  5
4F
100
AcDbEntity
  8
1
370
    50
100
AcDbText
 10
160.033627
 20
-209.978522
 30
0.0
 40
6.0
  1
仕 上
 72
     5
 11
173.833627
 21
-209.978522
 31
0.0
100
AcDbText
  0
TEXT
  5
50
100
AcDbEntity
  8
1
370
    50
100
AcDbText
 10
159.96827
 20
-227.978348
 30
0.0
 40
6.0
  1
表 面
 72
     5
 11
173.76827
 21
-227.978348
 31
0.0
100
AcDbText
  0
TEXT
  5
51
100
AcDbEntity
  8
1
370
    50
100
AcDbText
 10
159.96827
 20
-234.978348
 30
0.0
 40
6.0
  1
処 理
 72
     5
 11
173.76827
 21
-234.978348
 31
0.0
100
AcDbText
  0
TEXT
  5
52
100
AcDbEntity
  8
1
370
    50
100
AcDbText
 10
11.314444
 20
-210.780081
 30
0.0
 40
6.0
  1
品 名
 72
     5
 11
25.114444
 21
-210.780081
 31
0.0
100
AcDbText
  0
TEXT
  5
53
100
AcDbEntity
  8
1
370
    50
100
AcDbText
 10
10.91886
 20
-231.549216
 30
0.0
 40
6.0
  1
材 質
 72
     5
 11
24.71886
 21
-231.549216
 31
0.0
100
AcDbText
  0
TEXT
  5
54
100
AcDbEntity
  8
1
370
    50
100
AcDbText
 10
85.41886
 20
-231.549216
 30
0.0
 40
6.0
  1
規 格
 72
     5
 11
99.21886
 21
-231.549216
 31
0.0
100
AcDbText
  0
TEXT
  5
55
100
AcDbEntity
  8
2
370
    50
100
AcDbText
 10
33.109786
 20
-216.159081
 30
0.0
 40
6.0
  1
ＭＫＺ６００ＧＧ
 72
     5
 11
79.909786
 21
-216.159081
 31
0.0
100
AcDbText
  0
TEXT
  5
56
100
AcDbEntity
  8
2
370
    50
100
AcDbText
 10
33.442343
 20
-207.515313
 30
0.0
 40
6.0
  1
台付きシングルレバ－湯水混合水栓
 72
     5
 11
128.242343
 21
-207.515313
 31
0.0
100
AcDbText
  0
TEXT
  5
57
100
AcDbEntity
  8
2
370
    50
100
AcDbText
 10
259.26879
 20
-219.151146
 30
0.0
 40
6.0
  1
１　２
 72
     5
 11
276.06879
 21
-219.151146
 31
0.0
100
AcDbText
  0
TEXT
  5
58
100
AcDbEntity
  8
2
370
    50
100
AcDbText
 10
312.150107
 20
-236.771157
 30
0.0
 40
6.0
  1
０３　　３　２６
 72
     5
 11
358.950107
 21
-236.771157
 31
0.0
100
AcDbText
  0
TEXT
  5
59
100
AcDbEntity
  8
2
370
    50
100
AcDbText
 10
201.731253
 20
-253.726296
 30
0.0
 40
6.0
  1
外観寸法図
 72
     5
 11
230.531253
 21
-253.726296
 31
0.0
100
AcDbText
  0
TEXT
  5
5A
100
AcDbEntity
  8
2
370
    50
100
AcDbText
 10
306.828757
 20
-252.396462
 30
0.0
 40
6.0
  1
１１００３２
 72
     5
 11
341.628757
 21
-252.396462
 31
0.0
100
AcDbText
  0
LINE
  5
5B
100
AcDbEntity
  8
2
370
    50
100
AcDbLine
 10
-236.372337
 20
-11.931202
 30
0.0
 11
-288.772337
 21
-11.931202
 31
0.0
  0
LINE
  5
5C
100
AcDbEntity
  8
2
370
    50
100
AcDbLine
 10
-250.072337
 20
123.036792
 30
0.0
 11
-250.072337
 21
16.001521
 31
0.0
  0
LINE
  5
5D
100
AcDbEntity
  8
2
370
    50
100
AcDbLine
 10
-275.072337
 20
109.985491
 30
0.0
 11
-275.072337
 21
109.705942
 31
0.0
  0
LINE
  5
5E
100
AcDbEntity
  8
2
370
    50
100
AcDbLine
 10
-275.072337
 20
123.036792
 30
0.0
 11
-275.072337
 21
16.001521
 31
0.0
  0
LINE
  5
5F
100
AcDbEntity
  8
2
370
    50
100
AcDbLine
 10
-238.572337
 20
85.59721
 30
0.0
 11
-238.572337
 21
80.177435
 31
0.0
  0
LINE
  5
60
100
AcDbEntity
  8
2
370
    50
100
AcDbLine
 10
-286.572337
 20
85.59721
 30
0.0
 11
-286.572337
 21
80.177435
 31
0.0
  0
LINE
  5
61
100
AcDbEntity
  8
2
370
    50
100
AcDbLine
 10
-288.907066
 20
79.597939
 30
0.0
 11
-286.737607
 21
79.980473
 31
0.0
  0
ARC
  5
62
100
AcDbEntity
  8
2
370
    50
100
AcDbCircle
 10
-286.772337
 20
80.177435
 30
0.0
 40
0.2
100
AcDbArc
 50
280.0
 51
360.0
  0
ARC
  5
63
100
AcDbEntity
  8
2
370
    50
100
AcDbCircle
 10
-288.872337
 20
79.400978
 30
0.0
 40
0.2
100
AcDbArc
 50
100.0
 51
180.0
  0
LINE
  5
64
100
AcDbEntity
  8
2
370
    50
100
AcDbLine
 10
-236.237607
 20
79.597939
 30
0.0
 11
-238.407066
 21
79.980473
 31
0.0
  0
ARC
  5
65
100
AcDbEntity
  8
2
370
    50
100
AcDbCircle
 10
-236.272337
 20
79.400978
 30
0.0
 40
0.2
100
AcDbArc
 50
360.0
 51
80.0
  0
ARC
  5
66
100
AcDbEntity
  8
2
370
    50
100
AcDbCircle
 10
-238.372337
 20
80.177435
 30
0.0
 40
0.2
100
AcDbArc
 50
180.0
 51
260.0
  0
LINE
  5
67
100
AcDbEntity
  8
2
370
    50
100
AcDbLine
 10
-288.772337
 20
37.568798
 30
0.0
 11
-275.072337
 21
37.568798
 31
0.0
  0
LINE
  5
68
100
AcDbEntity
  8
2
370
    50
100
AcDbLine
 10
-250.072337
 20
37.568798
 30
0.0
 11
-236.372337
 21
37.568798
 31
0.0
  0
LINE
  5
69
100
AcDbEntity
  8
2
370
    50
100
AcDbLine
 10
-288.772337
 20
37.068798
 30
0.0
 11
-275.072337
 21
37.068798
 31
0.0
  0
LINE
  5
6A
100
AcDbEntity
  8
2
370
    50
100
AcDbLine
 10
-250.072337
 20
37.068798
 30
0.0
 11
-236.372337
 21
37.068798
 31
0.0
  0
LINE
  5
6B
100
AcDbEntity
  8
2
370
    25
100
AcDbLine
 10
-285.538248
 20
80.009615
 30
0.0
 11
-275.072337
 21
80.009615
 31
0.0
  0
LINE
  5
6C
100
AcDbEntity
  8
2
370
    25
100
AcDbLine
 10
-250.072337
 20
80.009615
 30
0.0
 11
-239.700076
 21
80.009615
 31
0.0
  0
LINE
  5
6D
100
AcDbEntity
  8
2
370
    25
100
AcDbLine
 10
-286.572337
 20
79.568798
 30
0.0
 11
-275.072337
 21
79.568798
 31
0.0
  0
LINE
  5
6E
100
AcDbEntity
  8
2
370
    25
100
AcDbLine
 10
-250.072337
 20
79.568798
 30
0.0
 11
-238.572337
 21
79.568798
 31
0.0
  0
LINE
  5
6F
100
AcDbEntity
  8
2
370
    50
100
AcDbLine
 10
-236.072337
 20
-11.631202
 30
0.0
 11
-236.372337
 21
-11.931202
 31
0.0
  0
LINE
  5
70
100
AcDbEntity
  8
2
370
    50
100
AcDbLine
 10
-289.072337
 20
-11.631202
 30
0.0
 11
-288.772337
 21
-11.931202
 31
0.0
  0
LINE
  5
71
100
AcDbEntity
  8
2
370
    50
100
AcDbLine
 10
-236.372337
 20
1.068798
 30
0.0
 11
-236.072337
 21
0.768798
 31
0.0
  0
LINE
  5
72
100
AcDbEntity
  8
2
370
    50
100
AcDbLine
 10
-288.772337
 20
1.068798
 30
0.0
 11
-289.072337
 21
0.768798
 31
0.0
  0
LINE
  5
73
100
AcDbEntity
  8
2
370
    50
100
AcDbLine
 10
-236.372337
 20
2.068798
 30
0.0
 11
-236.072337
 21
2.368798
 31
0.0
  0
LINE
  5
74
100
AcDbEntity
  8
2
370
    50
100
AcDbLine
 10
-288.772337
 20
2.068798
 30
0.0
 11
-289.072337
 21
2.368798
 31
0.0
  0
LINE
  5
75
100
AcDbEntity
  8
2
370
    50
100
AcDbLine
 10
-236.372337
 20
37.068798
 30
0.0
 11
-236.072337
 21
36.768798
 31
0.0
  0
LINE
  5
76
100
AcDbEntity
  8
2
370
    50
100
AcDbLine
 10
-288.772337
 20
37.068798
 30
0.0
 11
-289.072337
 21
36.768798
 31
0.0
  0
LINE
  5
77
100
AcDbEntity
  8
2
370
    50
100
AcDbLine
 10
-236.372337
 20
37.568798
 30
0.0
 11
-236.072337
 21
37.868798
 31
0.0
  0
LINE
  5
78
100
AcDbEntity
  8
2
370
    50
100
AcDbLine
 10
-288.772337
 20
37.568798
 30
0.0
 11
-289.072337
 21
37.868798
 31
0.0
  0
LINE
  5
79
100
AcDbEntity
  8
2
370
    50
100
AcDbLine
 10
-236.072337
 20
37.868798
 30
0.0
 11
-236.072337
 21
79.400978
 31
0.0
  0
LINE
  5
7A
100
AcDbEntity
  8
2
370
    50
100
AcDbLine
 10
-289.072337
 20
37.868798
 30
0.0
 11
-289.072337
 21
79.400978
 31
0.0
  0
LINE
  5
7B
100
AcDbEntity
  8
2
370
    50
100
AcDbLine
 10
-289.072337
 20
37.868798
 30
0.0
 11
-275.072337
 21
37.868798
 31
0.0
  0
LINE
  5
7C
100
AcDbEntity
  8
2
370
    50
100
AcDbLine
 10
-250.072337
 20
37.868798
 30
0.0
 11
-236.072337
 21
37.868798
 31
0.0
  0
LINE
  5
7D
100
AcDbEntity
  8
2
370
    50
100
AcDbLine
 10
-236.072337
 20
-11.631202
 30
0.0
 11
-289.072337
 21
-11.631202
 31
0.0
  0
LINE
  5
7E
100
AcDbEntity
  8
2
370
    50
100
AcDbLine
 10
-236.072337
 20
2.368798
 30
0.0
 11
-236.072337
 21
36.768798
 31
0.0
  0
LINE
  5
7F
100
AcDbEntity
  8
2
370
    50
100
AcDbLine
 10
-236.072337
 20
1.068798
 30
0.0
 11
-236.072337
 21
2.068798
 31
0.0
  0
LINE
  5
80
100
AcDbEntity
  8
2
370
    50
100
AcDbLine
 10
-289.072337
 20
2.368798
 30
0.0
 11
-289.072337
 21
36.768798
 31
0.0
  0
LINE
  5
81
100
AcDbEntity
  8
2
370
    50
100
AcDbLine
 10
-289.072337
 20
1.068798
 30
0.0
 11
-289.072337
 21
2.068798
 31
0.0
  0
LINE
  5
82
100
AcDbEntity
  8
2
370
    50
100
AcDbLine
 10
-289.072337
 20
36.768798
 30
0.0
 11
-275.072337
 21
36.768798
 31
0.0
  0
LINE
  5
83
100
AcDbEntity
  8
2
370
    50
100
AcDbLine
 10
-250.072337
 20
36.768798
 30
0.0
 11
-236.072337
 21
36.768798
 31
0.0
  0
LINE
  5
84
100
AcDbEntity
  8
2
370
    50
100
AcDbLine
 10
-289.072337
 20
80.134211
 30
0.0
 11
-286.572337
 21
80.134211
 31
0.0
  0
LINE
  5
85
100
AcDbEntity
  8
2
370
    50
100
AcDbLine
 10
-238.572337
 20
80.134211
 30
0.0
 11
-236.072337
 21
80.134211
 31
0.0
  0
ELLIPSE
  5
86
100
AcDbEntity
  8
2
370
    50
100
AcDbEllipse
 10
-262.572337
 20
80.134211
 30
0.0
 11
25.617999999999999
 21
0.0
 31
0.0
210
0.0
220
0.0
230
1.0
 40
0.609708
 41
0.0
 42
1.06107
  0
ELLIPSE
  5
87
100
AcDbEntity
  8
2
370
    50
100
AcDbEllipse
 10
-262.572337
 20
80.134211
 30
0.0
 11
25.617999999999999
 21
0.0
 31
0.0
210
0.0
220
0.0
230
1.0
 40
0.609708
 41
2.0805220000000002
 42
3.1415929999999999
  0
ELLIPSE
  5
88
100
AcDbEntity
  8
2
370
    50
100
AcDbEllipse
 10
-262.572337
 20
80.134211
 30
0.0
 11
26.5
 21
0.0
 31
0.0
210
0.0
220
0.0
230
1.0
 40
0.620451
 41
0.0
 42
1.0795809999999999
  0
ELLIPSE
  5
89
100
AcDbEntity
  8
2
370
    50
100
AcDbEllipse
 10
-262.572337
 20
80.134211
 30
0.0
 11
26.5
 21
0.0
 31
0.0
210
0.0
220
0.0
230
1.0
 40
0.620451
 41
2.0620120000000002
 42
3.1415929999999999
  0
LINE
  5
8A
100
AcDbEntity
  8
2
370
    50
100
AcDbLine
 10
-288.572337
 20
-11.931202
 30
0.0
 11
-288.572337
 21
-14.931202
 31
0.0
  0
LINE
  5
8B
100
AcDbEntity
  8
2
370
    50
100
AcDbLine
 10
-236.572337
 20
-11.931202
 30
0.0
 11
-236.572337
 21
-14.931202
 31
0.0
  0
LINE
  5
8C
100
AcDbEntity
  8
2
370
    50
100
AcDbLine
 10
-236.572337
 20
-14.931202
 30
0.0
 11
-288.572337
 21
-14.931202
 31
0.0
  0
ELLIPSE
  5
8D
100
AcDbEntity
  8
2
370
    50
100
AcDbEllipse
 10
-262.572337
 20
16.001521
 30
0.0
 11
12.5
 21
0.0
 31
0.0
210
0.0
220
0.0
230
1.0
 40
0.874618
 41
3.1415929999999999
 42
0.0
  0
LINE
  5
8E
100
AcDbEntity
  8
2
370
    50
100
AcDbLine
 10
-289.072337
 20
2.368798
 30
0.0
 11
-270.072337
 21
2.368798
 31
0.0
  0
LINE
  5
8F
100
AcDbEntity
  8
2
370
    50
100
AcDbLine
 10
-270.072337
 20
2.368798
 30
0.0
 11
-236.072337
 21
2.368798
 31
0.0
  0
LINE
  5
90
100
AcDbEntity
  8
2
370
    50
100
AcDbLine
 10
-289.072337
 20
2.068798
 30
0.0
 11
-255.072337
 21
2.068798
 31
0.0
  0
LINE
  5
91
100
AcDbEntity
  8
2
370
    50
100
AcDbLine
 10
-255.072337
 20
2.068798
 30
0.0
 11
-236.072337
 21
2.068798
 31
0.0
  0
LINE
  5
92
100
AcDbEntity
  8
2
370
    50
100
AcDbLine
 10
-289.072337
 20
1.068798
 30
0.0
 11
-255.072337
 21
1.068798
 31
0.0
  0
LINE
  5
93
100
AcDbEntity
  8
2
370
    50
100
AcDbLine
 10
-255.072337
 20
1.068798
 30
0.0
 11
-236.072337
 21
1.068798
 31
0.0
  0
LINE
  5
94
100
AcDbEntity
  8
2
370
    50
100
AcDbLine
 10
-289.072337
 20
0.768798
 30
0.0
 11
-270.072337
 21
0.768798
 31
0.0
  0
LINE
  5
95
100
AcDbEntity
  8
2
370
    50
100
AcDbLine
 10
-270.072337
 20
0.768798
 30
0.0
 11
-236.072337
 21
0.768798
 31
0.0
  0
LINE
  5
96
100
AcDbEntity
  8
2
370
    50
100
AcDbLine
 10
-280.072337
 20
-14.931202
 30
0.0
 11
-280.072337
 21
-16.931202
 31
0.0
  0
LINE
  5
97
100
AcDbEntity
  8
2
370
    50
100
AcDbLine
 10
-245.072337
 20
-14.931202
 30
0.0
 11
-245.072337
 21
-16.931202
 31
0.0
  0
LINE
  5
98
100
AcDbEntity
  8
2
370
    25
100
AcDbLine
 10
-245.872337
 20
-14.931202
 30
0.0
 11
-245.872337
 21
-16.931202
 31
0.0
  0
LINE
  5
99
100
AcDbEntity
  8
2
370
    25
100
AcDbLine
 10
-279.272337
 20
-14.931202
 30
0.0
 11
-279.272337
 21
-16.931202
 31
0.0
  0
LINE
  5
9A
100
AcDbEntity
  8
2
370
    25
  6
CENTER
100
AcDbLine
 10
-254.572337
 20
-111.622684
 30
0.0
 11
-184.778259
 21
-86.828606
 31
0.0
  0
LINE
  5
9B
100
AcDbEntity
  8
2
370
    25
  6
CENTER
100
AcDbLine
 10
-270.572337
 20
-86.988109
 30
0.0
 11
-270.572337
 21
-111.622684
 31
0.0
  0
LINE
  5
9C
100
AcDbEntity
  8
2
370
    50
100
AcDbLine
 10
-276.572337
 20
-59.542527
 30
0.0
 11
-276.572337
 21
-54.219877
 31
0.0
  0
LINE
  5
9D
100
AcDbEntity
  8
2
370
    50
100
AcDbLine
 10
-264.572337
 20
-59.542527
 30
0.0
 11
-264.572337
 21
-54.219877
 31
0.0
  0
LINE
  5
9E
100
AcDbEntity
  8
2
370
    50
100
AcDbLine
 10
-264.772337
 20
-59.831202
 30
0.0
 11
-276.372337
 21
-59.831202
 31
0.0
  0
LINE
  5
9F
100
AcDbEntity
  8
2
370
    50
100
AcDbLine
 10
-268.174421
 20
-54.219877
 30
0.0
 11
-268.174421
 21
-59.542527
 31
0.0
  0
LINE
  5
A0
100
AcDbEntity
  8
2
370
    50
100
AcDbLine
 10
-267.008155
 20
-54.219877
 30
0.0
 11
-267.008155
 21
-59.542527
 31
0.0
  0
LINE
  5
A1
100
AcDbEntity
  8
2
370
    50
100
AcDbLine
 10
-264.610239
 20
-54.219877
 30
0.0
 11
-264.610239
 21
-59.542527
 31
0.0
  0
LINE
  5
A2
100
AcDbEntity
  8
2
370
    50
100
AcDbLine
 10
-265.072337
 20
-59.831202
 30
0.0
 11
-264.572337
 21
-59.542527
 31
0.0
  0
LINE
  5
A3
100
AcDbEntity
  8
2
370
    50
100
AcDbLine
 10
-267.008155
 20
-59.542527
 30
0.0
 11
-268.174421
 21
-59.542527
 31
0.0
  0
LINE
  5
A4
100
AcDbEntity
  8
2
370
    50
100
AcDbLine
 10
-276.572337
 20
-59.542527
 30
0.0
 11
-276.072337
 21
-59.831202
 31
0.0
  0
ARC
  5
A5
100
AcDbEntity
  8
2
370
    50
100
AcDbCircle
 10
-270.572337
 20
-49.727573
 30
0.0
 40
10.10363
100
AcDbArc
 50
270.0
 51
283.729133
  0
LINE
  5
A6
100
AcDbEntity
  8
2
370
    50
100
AcDbLine
 10
-264.572337
 20
-59.542527
 30
0.0
 11
-264.610239
 21
-59.542527
 31
0.0
  0
ARC
  5
A7
100
AcDbEntity
  8
2
370
    50
100
AcDbCircle
 10
-265.809197
 20
-57.197042
 30
0.0
 40
2.634161
100
AcDbArc
 50
242.924933
 51
297.075067
  0
LINE
  5
A8
100
AcDbEntity
  8
2
370
    50
100
AcDbLine
 10
-277.072337
 20
-76.831202
 30
0.0
 11
-264.072337
 21
-76.831202
 31
0.0
  0
LINE
  5
A9
100
AcDbEntity
  8
2
370
    50
100
AcDbLine
 10
-277.072337
 20
-76.831202
 30
0.0
 11
-277.072337
 21
-64.331202
 31
0.0
  0
LINE
  5
AA
100
AcDbEntity
  8
2
370
    50
100
AcDbLine
 10
-274.446667
 20
-62.831202
 30
0.0
 11
-274.446667
 21
-60.331202
 31
0.0
  0
LINE
  5
AB
100
AcDbEntity
  8
2
370
    50
100
AcDbLine
 10
-275.153774
 20
-62.831202
 30
0.0
 11
-275.153774
 21
-60.331202
 31
0.0
  0
LINE
  5
AC
100
AcDbEntity
  8
2
370
    50
100
AcDbLine
 10
-276.551467
 20
-62.831202
 30
0.0
 11
-276.551467
 21
-60.331202
 31
0.0
  0
LINE
  5
AD
100
AcDbEntity
  8
2
370
    50
100
AcDbLine
 10
-276.572337
 20
-62.831202
 30
0.0
 11
-276.572337
 21
-60.031202
 31
0.0
  0
LINE
  5
AE
100
AcDbEntity
  8
2
370
    50
100
AcDbLine
 10
-271.072337
 20
-62.831202
 30
0.0
 11
-271.072337
 21
-60.331202
 31
0.0
  0
LINE
  5
AF
100
AcDbEntity
  8
2
370
    50
100
AcDbLine
 10
-270.072337
 20
-62.831202
 30
0.0
 11
-270.072337
 21
-60.331202
 31
0.0
  0
LINE
  5
B0
100
AcDbEntity
  8
2
370
    50
100
AcDbLine
 10
-266.698006
 20
-62.831202
 30
0.0
 11
-266.698006
 21
-60.331202
 31
0.0
  0
LINE
  5
B1
100
AcDbEntity
  8
2
370
    50
100
AcDbLine
 10
-265.9909
 20
-62.831202
 30
0.0
 11
-265.9909
 21
-60.331202
 31
0.0
  0
LINE
  5
B2
100
AcDbEntity
  8
2
370
    50
100
AcDbLine
 10
-264.572337
 20
-62.831202
 30
0.0
 11
-264.572337
 21
-60.031202
 31
0.0
  0
LINE
  5
B3
100
AcDbEntity
  8
2
370
    50
100
AcDbLine
 10
-264.593206
 20
-62.831202
 30
0.0
 11
-264.593206
 21
-60.331202
 31
0.0
  0
LINE
  5
B4
100
AcDbEntity
  8
2
370
    50
100
AcDbLine
 10
-275.153774
 20
-60.331202
 30
0.0
 11
-276.572337
 21
-60.331202
 31
0.0
  0
LINE
  5
B5
100
AcDbEntity
  8
2
370
    50
100
AcDbLine
 10
-271.072337
 20
-60.331202
 30
0.0
 11
-274.446667
 21
-60.331202
 31
0.0
  0
LINE
  5
B6
100
AcDbEntity
  8
2
370
    50
100
AcDbLine
 10
-264.572337
 20
-60.331202
 30
0.0
 11
-265.9909
 21
-60.331202
 31
0.0
  0
LINE
  5
B7
100
AcDbEntity
  8
2
370
    50
100
AcDbLine
 10
-266.698006
 20
-60.331202
 30
0.0
 11
-270.072337
 21
-60.331202
 31
0.0
  0
LINE
  5
B8
100
AcDbEntity
  8
2
370
    50
100
AcDbLine
 10
-275.153774
 20
-62.831202
 30
0.0
 11
-276.572337
 21
-62.831202
 31
0.0
  0
LINE
  5
B9
100
AcDbEntity
  8
2
370
    50
100
AcDbLine
 10
-271.072337
 20
-62.831202
 30
0.0
 11
-274.446667
 21
-62.831202
 31
0.0
  0
LINE
  5
BA
100
AcDbEntity
  8
2
370
    50
100
AcDbLine
 10
-264.572337
 20
-62.831202
 30
0.0
 11
-265.9909
 21
-62.831202
 31
0.0
  0
LINE
  5
BB
100
AcDbEntity
  8
2
370
    50
100
AcDbLine
 10
-266.698006
 20
-62.831202
 30
0.0
 11
-270.072337
 21
-62.831202
 31
0.0
  0
ARC
  5
BC
100
AcDbEntity
  8
2
370
    50
100
AcDbCircle
 10
-264.772337
 20
-60.031202
 30
0.0
 40
0.2
100
AcDbArc
 50
0.0
 51
90.0
  0
ARC
  5
BD
100
AcDbEntity
  8
2
370
    50
100
AcDbCircle
 10
-276.372337
 20
-60.031202
 30
0.0
 40
0.2
100
AcDbArc
 50
90.0
 51
180.0
  0
ARC
  5
BE
100
AcDbEntity
  8
2
370
    50
100
AcDbCircle
 10
-274.572337
 20
-64.331202
 30
0.0
 40
2.5
100
AcDbArc
 50
143.130102
 51
180.0
  0
ARC
  5
BF
100
AcDbEntity
  8
2
370
    50
100
AcDbCircle
 10
-266.572337
 20
-64.331202
 30
0.0
 40
2.5
100
AcDbArc
 50
0.0
 51
36.869898
  0
LINE
  5
C0
100
AcDbEntity
  8
2
370
    25
100
AcDbLine
 10
-277.053077
 20
-76.831202
 30
0.0
 11
-277.053077
 21
-64.331202
 31
0.0
  0
LINE
  5
C1
100
AcDbEntity
  8
2
370
    25
100
AcDbLine
 10
-275.508466
 20
-76.831202
 30
0.0
 11
-275.508466
 21
-64.331202
 31
0.0
  0
LINE
  5
C2
100
AcDbEntity
  8
2
370
    25
100
AcDbLine
 10
-274.801359
 20
-76.831202
 30
0.0
 11
-274.801359
 21
-64.331202
 31
0.0
  0
LINE
  5
C3
100
AcDbEntity
  8
2
370
    25
100
AcDbLine
 10
-271.072337
 20
-76.831202
 30
0.0
 11
-271.072337
 21
-64.331202
 31
0.0
  0
LINE
  5
C4
100
AcDbEntity
  8
2
370
    25
100
AcDbLine
 10
-270.072337
 20
-76.831202
 30
0.0
 11
-270.072337
 21
-64.331202
 31
0.0
  0
LINE
  5
C5
100
AcDbEntity
  8
2
370
    25
100
AcDbLine
 10
-266.343314
 20
-76.831202
 30
0.0
 11
-266.343314
 21
-64.331202
 31
0.0
  0
LINE
  5
C6
100
AcDbEntity
  8
2
370
    25
100
AcDbLine
 10
-265.636208
 20
-76.831202
 30
0.0
 11
-265.636208
 21
-64.331202
 31
0.0
  0
LINE
  5
C7
100
AcDbEntity
  8
2
370
    25
100
AcDbLine
 10
-264.091596
 20
-76.831202
 30
0.0
 11
-264.091596
 21
-64.331202
 31
0.0
  0
ARC
  5
C8
100
AcDbEntity
  8
2
370
    50
100
AcDbCircle
 10
-270.572337
 20
-49.727573
 30
0.0
 40
10.10363
100
AcDbArc
 50
256.270867
 51
270.0
  0
LINE
  5
C9
100
AcDbEntity
  8
2
370
    50
100
AcDbLine
 10
-274.136518
 20
-59.542527
 30
0.0
 11
-272.970252
 21
-59.542527
 31
0.0
  0
LINE
  5
CA
100
AcDbEntity
  8
2
370
    50
100
AcDbLine
 10
-272.970252
 20
-54.219877
 30
0.0
 11
-272.970252
 21
-59.542527
 31
0.0
  0
LINE
  5
CB
100
AcDbEntity
  8
2
370
    50
100
AcDbLine
 10
-274.136519
 20
-54.219877
 30
0.0
 11
-274.136518
 21
-59.542527
 31
0.0
  0
ARC
  5
CC
100
AcDbEntity
  8
2
370
    50
100
AcDbCircle
 10
-275.335476
 20
-57.197042
 30
0.0
 40
2.634161
100
AcDbArc
 50
242.924933
 51
297.075067
  0
LINE
  5
CD
100
AcDbEntity
  8
2
370
    50
100
AcDbLine
 10
-276.322337
 20
-98.831202
 30
0.0
 11
-276.322337
 21
-76.831202
 31
0.0
  0
LINE
  5
CE
100
AcDbEntity
  8
2
370
    50
100
AcDbLine
 10
-264.822337
 20
-98.831202
 30
0.0
 11
-264.822337
 21
-76.831202
 31
0.0
  0
LINE
  5
CF
100
AcDbEntity
  8
2
370
    50
100
AcDbLine
 10
-276.534434
 20
-54.219877
 30
0.0
 11
-276.534434
 21
-59.542527
 31
0.0
  0
LINE
  5
D0
100
AcDbEntity
  8
2
370
    50
100
AcDbLine
 10
-276.534434
 20
-59.542527
 30
0.0
 11
-276.572337
 21
-59.542527
 31
0.0
  0
ARC
  5
D1
100
AcDbEntity
  8
2
370
    50
100
AcDbCircle
 10
-273.447337
 20
-94.997869
 30
0.0
 40
4.791667
100
AcDbArc
 50
233.130102
 51
306.869898
  0
ARC
  5
D2
100
AcDbEntity
  8
2
370
    50
100
AcDbCircle
 10
-267.697337
 20
-102.664536
 30
0.0
 40
4.791667
100
AcDbArc
 50
53.130102
 51
126.869898
  0
ARC
  5
D3
100
AcDbEntity
  8
2
370
    50
100
AcDbCircle
 10
-267.697337
 20
-94.997869
 30
0.0
 40
4.791667
100
AcDbArc
 50
233.130102
 51
306.869898
  0
LINE
  5
D4
100
AcDbEntity
  8
2
370
    25
  6
CENTER
100
AcDbLine
 10
-254.572337
 20
-111.622684
 30
0.0
 11
-254.572337
 21
-86.988109
 31
0.0
  0
LINE
  5
D5
100
AcDbEntity
  8
2
370
    50
100
AcDbLine
 10
-260.572337
 20
-59.542527
 30
0.0
 11
-260.572337
 21
-54.219877
 31
0.0
  0
LINE
  5
D6
100
AcDbEntity
  8
2
370
    50
100
AcDbLine
 10
-248.572337
 20
-59.542527
 30
0.0
 11
-248.572337
 21
-54.219877
 31
0.0
  0
LINE
  5
D7
100
AcDbEntity
  8
2
370
    50
100
AcDbLine
 10
-248.772337
 20
-59.831202
 30
0.0
 11
-260.372337
 21
-59.831202
 31
0.0
  0
LINE
  5
D8
100
AcDbEntity
  8
2
370
    50
100
AcDbLine
 10
-252.174421
 20
-54.219877
 30
0.0
 11
-252.174421
 21
-59.542527
 31
0.0
  0
LINE
  5
D9
100
AcDbEntity
  8
2
370
    50
100
AcDbLine
 10
-251.008155
 20
-54.219877
 30
0.0
 11
-251.008155
 21
-59.542527
 31
0.0
  0
LINE
  5
DA
100
AcDbEntity
  8
2
370
    50
100
AcDbLine
 10
-248.610239
 20
-54.219877
 30
0.0
 11
-248.610239
 21
-59.542527
 31
0.0
  0
LINE
  5
DB
100
AcDbEntity
  8
2
370
    50
100
AcDbLine
 10
-249.072337
 20
-59.831202
 30
0.0
 11
-248.572337
 21
-59.542527
 31
0.0
  0
LINE
  5
DC
100
AcDbEntity
  8
2
370
    50
100
AcDbLine
 10
-251.008155
 20
-59.542527
 30
0.0
 11
-252.174421
 21
-59.542527
 31
0.0
  0
LINE
  5
DD
100
AcDbEntity
  8
2
370
    50
100
AcDbLine
 10
-260.572337
 20
-59.542527
 30
0.0
 11
-260.072337
 21
-59.831202
 31
0.0
  0
ARC
  5
DE
100
AcDbEntity
  8
2
370
    50
100
AcDbCircle
 10
-254.572337
 20
-49.727573
 30
0.0
 40
10.10363
100
AcDbArc
 50
270.0
 51
283.729133
  0
LINE
  5
DF
100
AcDbEntity
  8
2
370
    50
100
AcDbLine
 10
-248.572337
 20
-59.542527
 30
0.0
 11
-248.610239
 21
-59.542527
 31
0.0
  0
ARC
  5
E0
100
AcDbEntity
  8
2
370
    50
100
AcDbCircle
 10
-249.809197
 20
-57.197042
 30
0.0
 40
2.634161
100
AcDbArc
 50
242.924933
 51
297.075067
  0
LINE
  5
E1
100
AcDbEntity
  8
2
370
    50
100
AcDbLine
 10
-261.072337
 20
-76.831202
 30
0.0
 11
-248.072337
 21
-76.831202
 31
0.0
  0
LINE
  5
E2
100
AcDbEntity
  8
2
370
    50
100
AcDbLine
 10
-261.072337
 20
-76.831202
 30
0.0
 11
-261.072337
 21
-64.331202
 31
0.0
  0
LINE
  5
E3
100
AcDbEntity
  8
2
370
    50
100
AcDbLine
 10
-258.446667
 20
-62.831202
 30
0.0
 11
-258.446667
 21
-60.331202
 31
0.0
  0
LINE
  5
E4
100
AcDbEntity
  8
2
370
    50
100
AcDbLine
 10
-259.153774
 20
-62.831202
 30
0.0
 11
-259.153774
 21
-60.331202
 31
0.0
  0
LINE
  5
E5
100
AcDbEntity
  8
2
370
    50
100
AcDbLine
 10
-260.551467
 20
-62.831202
 30
0.0
 11
-260.551467
 21
-60.331202
 31
0.0
  0
LINE
  5
E6
100
AcDbEntity
  8
2
370
    50
100
AcDbLine
 10
-260.572337
 20
-62.831202
 30
0.0
 11
-260.572337
 21
-60.031202
 31
0.0
  0
LINE
  5
E7
100
AcDbEntity
  8
2
370
    50
100
AcDbLine
 10
-255.072337
 20
-62.831202
 30
0.0
 11
-255.072337
 21
-60.331202
 31
0.0
  0
LINE
  5
E8
100
AcDbEntity
  8
2
370
    50
100
AcDbLine
 10
-254.072337
 20
-62.831202
 30
0.0
 11
-254.072337
 21
-60.331202
 31
0.0
  0
LINE
  5
E9
100
AcDbEntity
  8
2
370
    50
100
AcDbLine
 10
-250.698006
 20
-62.831202
 30
0.0
 11
-250.698006
 21
-60.331202
 31
0.0
  0
LINE
  5
EA
100
AcDbEntity
  8
2
370
    50
100
AcDbLine
 10
-249.9909
 20
-62.831202
 30
0.0
 11
-249.9909
 21
-60.331202
 31
0.0
  0
LINE
  5
EB
100
AcDbEntity
  8
2
370
    50
100
AcDbLine
 10
-248.572337
 20
-62.831202
 30
0.0
 11
-248.572337
 21
-60.031202
 31
0.0
  0
LINE
  5
EC
100
AcDbEntity
  8
2
370
    50
100
AcDbLine
 10
-248.593206
 20
-62.831202
 30
0.0
 11
-248.593206
 21
-60.331202
 31
0.0
  0
LINE
  5
ED
100
AcDbEntity
  8
2
370
    50
100
AcDbLine
 10
-259.153774
 20
-60.331202
 30
0.0
 11
-260.572337
 21
-60.331202
 31
0.0
  0
LINE
  5
EE
100
AcDbEntity
  8
2
370
    50
100
AcDbLine
 10
-255.072337
 20
-60.331202
 30
0.0
 11
-258.446667
 21
-60.331202
 31
0.0
  0
LINE
  5
EF
100
AcDbEntity
  8
2
370
    50
100
AcDbLine
 10
-248.572337
 20
-60.331202
 30
0.0
 11
-249.9909
 21
-60.331202
 31
0.0
  0
LINE
  5
F0
100
AcDbEntity
  8
2
370
    50
100
AcDbLine
 10
-250.698006
 20
-60.331202
 30
0.0
 11
-254.072337
 21
-60.331202
 31
0.0
  0
LINE
  5
F1
100
AcDbEntity
  8
2
370
    50
100
AcDbLine
 10
-259.153774
 20
-62.831202
 30
0.0
 11
-260.572337
 21
-62.831202
 31
0.0
  0
LINE
  5
F2
100
AcDbEntity
  8
2
370
    50
100
AcDbLine
 10
-255.072337
 20
-62.831202
 30
0.0
 11
-258.446667
 21
-62.831202
 31
0.0
  0
LINE
  5
F3
100
AcDbEntity
  8
2
370
    50
100
AcDbLine
 10
-248.572337
 20
-62.831202
 30
0.0
 11
-249.9909
 21
-62.831202
 31
0.0
  0
LINE
  5
F4
100
AcDbEntity
  8
2
370
    50
100
AcDbLine
 10
-250.698006
 20
-62.831202
 30
0.0
 11
-254.072337
 21
-62.831202
 31
0.0
  0
ARC
  5
F5
100
AcDbEntity
  8
2
370
    50
100
AcDbCircle
 10
-248.772337
 20
-60.031202
 30
0.0
 40
0.2
100
AcDbArc
 50
0.0
 51
90.0
  0
ARC
  5
F6
100
AcDbEntity
  8
2
370
    50
100
AcDbCircle
 10
-260.372337
 20
-60.031202
 30
0.0
 40
0.2
100
AcDbArc
 50
90.0
 51
180.0
  0
ARC
  5
F7
100
AcDbEntity
  8
2
370
    50
100
AcDbCircle
 10
-258.572337
 20
-64.331202
 30
0.0
 40
2.5
100
AcDbArc
 50
143.130102
 51
180.0
  0
ARC
  5
F8
100
AcDbEntity
  8
2
370
    50
100
AcDbCircle
 10
-250.572337
 20
-64.331202
 30
0.0
 40
2.5
100
AcDbArc
 50
0.0
 51
36.869898
  0
LINE
  5
F9
100
AcDbEntity
  8
2
370
    25
100
AcDbLine
 10
-261.053077
 20
-76.831202
 30
0.0
 11
-261.053077
 21
-64.331202
 31
0.0
  0
LINE
  5
FA
100
AcDbEntity
  8
2
370
    25
100
AcDbLine
 10
-259.508466
 20
-76.831202
 30
0.0
 11
-259.508466
 21
-64.331202
 31
0.0
  0
LINE
  5
FB
100
AcDbEntity
  8
2
370
    25
100
AcDbLine
 10
-258.801359
 20
-76.831202
 30
0.0
 11
-258.801359
 21
-64.331202
 31
0.0
  0
LINE
  5
FC
100
AcDbEntity
  8
2
370
    25
100
AcDbLine
 10
-255.072337
 20
-76.831202
 30
0.0
 11
-255.072337
 21
-64.331202
 31
0.0
  0
LINE
  5
FD
100
AcDbEntity
  8
2
370
    25
100
AcDbLine
 10
-254.072337
 20
-76.831202
 30
0.0
 11
-254.072337
 21
-64.331202
 31
0.0
  0
LINE
  5
FE
100
AcDbEntity
  8
2
370
    25
100
AcDbLine
 10
-250.343314
 20
-76.831202
 30
0.0
 11
-250.343314
 21
-64.331202
 31
0.0
  0
LINE
  5
FF
100
AcDbEntity
  8
2
370
    25
100
AcDbLine
 10
-249.636208
 20
-76.831202
 30
0.0
 11
-249.636208
 21
-64.331202
 31
0.0
  0
LINE
  5
100
100
AcDbEntity
  8
2
370
    25
100
AcDbLine
 10
-248.091596
 20
-76.831202
 30
0.0
 11
-248.091596
 21
-64.331202
 31
0.0
  0
ARC
  5
101
100
AcDbEntity
  8
2
370
    50
100
AcDbCircle
 10
-254.572337
 20
-49.727573
 30
0.0
 40
10.10363
100
AcDbArc
 50
256.270867
 51
270.0
  0
LINE
  5
102
100
AcDbEntity
  8
2
370
    50
100
AcDbLine
 10
-258.136518
 20
-59.542527
 30
0.0
 11
-256.970252
 21
-59.542527
 31
0.0
  0
LINE
  5
103
100
AcDbEntity
  8
2
370
    50
100
AcDbLine
 10
-256.970252
 20
-54.219877
 30
0.0
 11
-256.970252
 21
-59.542527
 31
0.0
  0
LINE
  5
104
100
AcDbEntity
  8
2
370
    50
100
AcDbLine
 10
-258.136519
 20
-54.219877
 30
0.0
 11
-258.136518
 21
-59.542527
 31
0.0
  0
ARC
  5
105
100
AcDbEntity
  8
2
370
    50
100
AcDbCircle
 10
-259.335476
 20
-57.197042
 30
0.0
 40
2.634161
100
AcDbArc
 50
242.924933
 51
297.075067
  0
LINE
  5
106
100
AcDbEntity
  8
2
370
    50
100
AcDbLine
 10
-260.322337
 20
-98.831202
 30
0.0
 11
-260.322337
 21
-76.831202
 31
0.0
  0
LINE
  5
107
100
AcDbEntity
  8
2
370
    50
100
AcDbLine
 10
-248.822337
 20
-98.831202
 30
0.0
 11
-248.822337
 21
-76.831202
 31
0.0
  0
LINE
  5
108
100
AcDbEntity
  8
2
370
    50
100
AcDbLine
 10
-260.534434
 20
-54.219877
 30
0.0
 11
-260.534434
 21
-59.542527
 31
0.0
  0
LINE
  5
109
100
AcDbEntity
  8
2
370
    50
100
AcDbLine
 10
-260.534434
 20
-59.542527
 30
0.0
 11
-260.572337
 21
-59.542527
 31
0.0
  0
ARC
  5
10A
100
AcDbEntity
  8
2
370
    50
100
AcDbCircle
 10
-257.447337
 20
-94.997869
 30
0.0
 40
4.791667
100
AcDbArc
 50
233.130102
 51
306.869898
  0
ARC
  5
10B
100
AcDbEntity
  8
2
370
    50
100
AcDbCircle
 10
-251.697337
 20
-102.664536
 30
0.0
 40
4.791667
100
AcDbArc
 50
53.130102
 51
126.869898
  0
ARC
  5
10C
100
AcDbEntity
  8
2
370
    50
100
AcDbCircle
 10
-251.697337
 20
-94.997869
 30
0.0
 40
4.791667
100
AcDbArc
 50
233.130102
 51
306.869898
  0
LINE
  5
10D
100
AcDbEntity
  8
2
370
    50
100
AcDbLine
 10
-264.072337
 20
-64.331202
 30
0.0
 11
-264.072337
 21
-76.831202
 31
0.0
  0
LINE
  5
10E
100
AcDbEntity
  8
2
370
    25
  6
CENTER
100
AcDbLine
 10
-270.572337
 20
-111.622684
 30
0.0
 11
-340.365788
 21
-86.828606
 31
0.0
  0
LINE
  5
10F
100
AcDbEntity
  8
2
370
    50
100
AcDbLine
 10
-111.801542
 20
151.338924
 30
0.0
 11
61.890618
 21
34.182084
 31
0.0
  0
LINE
  5
110
100
AcDbEntity
  8
2
370
    50
100
AcDbLine
 10
-111.755802
 20
151.067062
 30
0.0
 11
-122.844348
 21
134.627617
 31
0.0
  0
LINE
  5
111
100
AcDbEntity
  8
2
370
    50
100
AcDbLine
 10
-122.82793
 20
134.651957
 30
0.0
 11
-125.512163
 21
130.672417
 31
0.0
  0
LINE
  5
112
100
AcDbEntity
  8
2
370
    50
100
AcDbLine
 10
-137.914783
 20
140.003299
 30
0.0
 11
-138.804177
 21
138.684717
 31
0.0
  0
LINE
  5
113
100
AcDbEntity
  8
2
370
    50
100
AcDbLine
 10
-138.078734
 20
139.758882
 30
0.0
 11
-123.934443
 21
160.728655
 31
0.0
  0
LINE
  5
114
100
AcDbEntity
  8
2
370
    50
100
AcDbLine
 10
-137.914265
 20
140.002716
 30
0.0
 11
-139.032652
 21
138.34464
 31
0.0
  0
LINE
  5
115
100
AcDbEntity
  8
2
370
    50
100
AcDbLine
 10
-194.495476
 20
157.346658
 30
0.0
 11
-191.413647
 21
170.695528
 31
0.0
  0
LINE
  5
116
100
AcDbEntity
  8
2
370
    50
  6
DASHED
100
AcDbLine
 10
-188.731773
 20
182.392018
 30
0.0
 11
-190.640564
 21
182.832697
 31
0.0
  0
ARC
  5
117
100
AcDbEntity
  8
2
370
    50
100
AcDbCircle
 10
-187.983119
 20
65.528666
 30
0.0
 40
120.0
100
AcDbArc
 50
68.109565
 51
85.890435
  0
LINE
  5
118
100
AcDbEntity
  8
2
370
    50
100
AcDbLine
 10
-142.199187
 20
140.480495
 30
0.0
 11
-139.032652
 21
138.34464
 31
0.0
  0
LINE
  5
119
100
AcDbEntity
  8
2
370
    50
100
AcDbLine
 10
-137.188303
 20
169.668496
 30
0.0
 11
-123.934443
 21
160.728655
 31
0.0
  0
LINE
  5
11A
100
AcDbEntity
  8
2
370
    50
100
AcDbLine
 10
-142.199187
 20
140.480495
 30
0.0
 11
-141.193706
 21
144.835714
 31
0.0
  0
ARC
  5
11B
100
AcDbEntity
  8
2
370
    50
100
AcDbCircle
 10
-141.38858
 20
144.880704
 30
0.0
 40
0.2
100
AcDbArc
 50
347.0
 51
77.0
  0
ARC
  5
11C
100
AcDbEntity
  8
2
370
    50
100
AcDbCircle
 10
-146.971502
 20
167.597502
 30
0.0
 40
10.0
100
AcDbArc
 50
11.952425
 51
68.109565
  0
ARC
  5
11D
100
AcDbEntity
  8
2
370
    50
100
AcDbCircle
 10
-180.100084
 20
175.245837
 30
0.0
 40
10.0
100
AcDbArc
 50
85.890435
 51
136.85887
  0
LINE
  5
11E
100
AcDbEntity
  8
2
370
    50
100
AcDbLine
 10
-189.907709
 20
181.6372
 30
0.0
 11
-192.15722
 21
171.893499
 31
0.0
  0
LINE
  5
11F
100
AcDbEntity
  8
2
370
    50
100
AcDbLine
 10
-191.839885
 20
182.083278
 30
0.0
 11
-194.089396
 21
172.339577
 31
0.0
  0
ARC
  5
120
100
AcDbEntity
  8
2
370
    25
  6
DASHED
100
AcDbCircle
 10
-190.865515
 20
181.858327
 30
0.0
 40
1.0
100
AcDbArc
 50
77.0
 51
167.0
  0
ARC
  5
121
100
AcDbEntity
  8
2
370
    25
  6
DASHED
100
AcDbCircle
 10
-193.115026
 20
172.114626
 30
0.0
 40
1.0
100
AcDbArc
 50
167.0
 51
257.0
  0
LINE
  5
122
100
AcDbEntity
  8
2
370
    50
100
AcDbLine
 10
-194.315641
 20
156.791988
 30
0.0
 11
-194.607952
 21
156.859473
 31
0.0
  0
LINE
  5
123
100
AcDbEntity
  8
2
370
    50
100
AcDbLine
 10
-194.315641
 20
156.791988
 30
0.0
 11
-194.203165
 21
157.279173
 31
0.0
  0
LINE
  5
124
100
AcDbEntity
  8
2
370
    50
100
AcDbLine
 10
-196.744994
 20
147.602959
 30
0.0
 11
-194.607952
 21
156.859473
 31
0.0
  0
LINE
  5
125
100
AcDbEntity
  8
2
370
    50
100
AcDbLine
 10
-144.128997
 20
135.455599
 30
0.0
 11
-141.991968
 21
144.712116
 31
0.0
  0
ARC
  5
126
100
AcDbEntity
  8
2
370
    50
100
AcDbCircle
 10
-194.972178
 20
134.570131
 30
0.0
 40
2.0
100
AcDbArc
 50
179.0
 51
257.0
  0
ARC
  5
127
100
AcDbEntity
  8
2
370
    50
100
AcDbCircle
 10
-151.435608
 20
124.518922
 30
0.0
 40
2.0
100
AcDbArc
 50
257.0
 51
335.0
  0
LINE
  5
128
100
AcDbEntity
  8
2
370
    50
100
AcDbLine
 10
-196.744994
 20
147.602959
 30
0.0
 11
-196.971873
 21
134.605036
 31
0.0
  0
LINE
  5
129
100
AcDbEntity
  8
2
370
    50
100
AcDbLine
 10
-144.128997
 20
135.455599
 30
0.0
 11
-149.622993
 21
123.673686
 31
0.0
  0
LINE
  5
12A
100
AcDbEntity
  8
2
370
    50
100
AcDbLine
 10
-151.88551
 20
122.570182
 30
0.0
 11
-195.42208
 21
132.621391
 31
0.0
  0
LINE
  5
12B
100
AcDbEntity
  8
2
370
    50
100
AcDbLine
 10
-138.641734
 20
138.925549
 30
0.0
 11
-138.325671
 21
139.394131
 31
0.0
  0
LINE
  5
12C
100
AcDbEntity
  8
2
370
    50
100
AcDbLine
 10
-138.920683
 20
138.51064
 30
0.0
 11
-125.795246
 21
130.609914
 31
0.0
  0
LINE
  5
12D
100
AcDbEntity
  8
2
370
    50
100
AcDbLine
 10
-124.046196
 20
160.562975
 30
0.0
 11
-111.803894
 21
151.352946
 31
0.0
  0
LINE
  5
12E
100
AcDbEntity
  8
2
370
    50
100
AcDbLine
 10
-111.803894
 20
151.352946
 30
0.0
 11
-111.75591
 21
151.066902
 31
0.0
  0
LINE
  5
12F
100
AcDbEntity
  8
2
370
    50
100
AcDbLine
 10
-346.866414
 20
-116.83072
 30
0.0
 11
-333.866414
 21
-116.83072
 31
0.0
  0
LINE
  5
130
100
AcDbEntity
  8
2
370
    50
100
AcDbLine
 10
-344.947851
 20
-130.83072
 30
0.0
 11
-346.366414
 21
-130.83072
 31
0.0
  0
LINE
  5
131
100
AcDbEntity
  8
2
370
    50
100
AcDbLine
 10
-344.947851
 20
-133.33072
 30
0.0
 11
-346.366414
 21
-133.33072
 31
0.0
  0
ARC
  5
132
100
AcDbEntity
  8
2
370
    50
100
AcDbCircle
 10
-346.166414
 20
-133.63072
 30
0.0
 40
0.2
100
AcDbArc
 50
180.0
 51
270.0
  0
LINE
  5
133
100
AcDbEntity
  8
2
370
    50
100
AcDbLine
 10
-340.866414
 20
-133.33072
 30
0.0
 11
-344.240744
 21
-133.33072
 31
0.0
  0
LINE
  5
134
100
AcDbEntity
  8
2
370
    50
100
AcDbLine
 10
-340.866414
 20
-130.83072
 30
0.0
 11
-344.240744
 21
-130.83072
 31
0.0
  0
LINE
  5
135
100
AcDbEntity
  8
2
370
    50
100
AcDbLine
 10
-336.492084
 20
-133.33072
 30
0.0
 11
-339.866414
 21
-133.33072
 31
0.0
  0
LINE
  5
136
100
AcDbEntity
  8
2
370
    50
100
AcDbLine
 10
-336.492084
 20
-130.83072
 30
0.0
 11
-339.866414
 21
-130.83072
 31
0.0
  0
LINE
  5
137
100
AcDbEntity
  8
2
370
    50
100
AcDbLine
 10
-334.366414
 20
-133.33072
 30
0.0
 11
-335.784977
 21
-133.33072
 31
0.0
  0
LINE
  5
138
100
AcDbEntity
  8
2
370
    50
100
AcDbLine
 10
-334.366414
 20
-130.83072
 30
0.0
 11
-335.784977
 21
-130.83072
 31
0.0
  0
ARC
  5
139
100
AcDbEntity
  8
2
370
    50
100
AcDbCircle
 10
-334.566414
 20
-133.63072
 30
0.0
 40
0.2
100
AcDbArc
 50
270.0
 51
360.0
  0
LINE
  5
13A
100
AcDbEntity
  8
2
370
    50
100
AcDbLine
 10
-334.366414
 20
-130.83072
 30
0.0
 11
-334.366414
 21
-133.63072
 31
0.0
  0
LINE
  5
13B
100
AcDbEntity
  8
2
370
    50
100
AcDbLine
 10
-334.387284
 20
-130.83072
 30
0.0
 11
-334.387284
 21
-133.33072
 31
0.0
  0
ARC
  5
13C
100
AcDbEntity
  8
2
370
    50
100
AcDbCircle
 10
-336.366414
 20
-129.33072
 30
0.0
 40
2.5
100
AcDbArc
 50
323.130102
 51
360.0
  0
LINE
  5
13D
100
AcDbEntity
  8
2
370
    50
100
AcDbLine
 10
-335.784977
 20
-130.83072
 30
0.0
 11
-335.784977
 21
-133.33072
 31
0.0
  0
LINE
  5
13E
100
AcDbEntity
  8
2
370
    50
100
AcDbLine
 10
-336.492084
 20
-130.83072
 30
0.0
 11
-336.492084
 21
-133.33072
 31
0.0
  0
LINE
  5
13F
100
AcDbEntity
  8
2
370
    50
100
AcDbLine
 10
-339.866414
 20
-130.83072
 30
0.0
 11
-339.866414
 21
-133.33072
 31
0.0
  0
LINE
  5
140
100
AcDbEntity
  8
2
370
    50
100
AcDbLine
 10
-340.866414
 20
-130.83072
 30
0.0
 11
-340.866414
 21
-133.33072
 31
0.0
  0
LINE
  5
141
100
AcDbEntity
  8
2
370
    50
100
AcDbLine
 10
-344.947851
 20
-130.83072
 30
0.0
 11
-344.947851
 21
-133.33072
 31
0.0
  0
LINE
  5
142
100
AcDbEntity
  8
2
370
    50
100
AcDbLine
 10
-344.240744
 20
-130.83072
 30
0.0
 11
-344.240744
 21
-133.33072
 31
0.0
  0
LINE
  5
143
100
AcDbEntity
  8
2
370
    50
100
AcDbLine
 10
-346.366414
 20
-130.83072
 30
0.0
 11
-346.366414
 21
-133.63072
 31
0.0
  0
LINE
  5
144
100
AcDbEntity
  8
2
370
    50
100
AcDbLine
 10
-346.345545
 20
-130.83072
 30
0.0
 11
-346.345545
 21
-133.33072
 31
0.0
  0
ARC
  5
145
100
AcDbEntity
  8
2
370
    50
100
AcDbCircle
 10
-344.366414
 20
-129.33072
 30
0.0
 40
2.5
100
AcDbArc
 50
180.0
 51
216.869898
  0
LINE
  5
146
100
AcDbEntity
  8
2
370
    50
100
AcDbLine
 10
-346.866414
 20
-116.83072
 30
0.0
 11
-346.866414
 21
-129.33072
 31
0.0
  0
LINE
  5
147
100
AcDbEntity
  8
2
370
    25
100
AcDbLine
 10
-333.885674
 20
-116.83072
 30
0.0
 11
-333.885674
 21
-129.33072
 31
0.0
  0
LINE
  5
148
100
AcDbEntity
  8
2
370
    50
100
AcDbLine
 10
-333.866414
 20
-116.83072
 30
0.0
 11
-333.866414
 21
-129.33072
 31
0.0
  0
LINE
  5
149
100
AcDbEntity
  8
2
370
    50
100
AcDbLine
 10
-333.366414
 20
-133.83072
 30
0.0
 11
-347.366414
 21
-133.83072
 31
0.0
  0
LINE
  5
14A
100
AcDbEntity
  8
2
370
    50
100
AcDbLine
 10
-332.866414
 20
-134.33072
 30
0.0
 11
-333.366414
 21
-133.83072
 31
0.0
  0
LINE
  5
14B
100
AcDbEntity
  8
2
370
    50
100
AcDbLine
 10
-346.116414
 20
-116.83072
 30
0.0
 11
-346.116414
 21
-96.338862
 31
0.0
  0
LINE
  5
14C
100
AcDbEntity
  8
2
370
    50
100
AcDbLine
 10
-334.616414
 20
-116.83072
 30
0.0
 11
-334.616414
 21
-96.486921
 31
0.0
  0
LINE
  5
14D
100
AcDbEntity
  8
2
370
    25
100
AcDbLine
 10
-333.866554
 20
-147.630098
 30
0.0
 11
-333.866554
 21
-144.630098
 31
0.0
  0
LINE
  5
14E
100
AcDbEntity
  8
2
370
    50
100
AcDbLine
 10
-331.466414
 20
-139.231355
 30
0.0
 11
-331.466414
 21
-141.631355
 31
0.0
  0
LINE
  5
14F
100
AcDbEntity
  8
2
370
    50
100
AcDbLine
 10
-331.666414
 20
-139.031355
 30
0.0
 11
-331.466414
 21
-139.231355
 31
0.0
  0
LINE
  5
150
100
AcDbEntity
  8
2
370
    50
100
AcDbLine
 10
-331.666414
 20
-141.831355
 30
0.0
 11
-331.466414
 21
-141.631355
 31
0.0
  0
LINE
  5
151
100
AcDbEntity
  8
2
370
    50
100
AcDbLine
 10
-332.866414
 20
-139.031355
 30
0.0
 11
-332.866414
 21
-138.630098
 31
0.0
  0
LINE
  5
152
100
AcDbEntity
  8
2
370
    50
100
AcDbLine
 10
-332.866414
 20
-134.33072
 30
0.0
 11
-332.866414
 21
-135.630098
 31
0.0
  0
LINE
  5
153
100
AcDbEntity
  8
2
370
    50
100
AcDbLine
 10
-349.266414
 20
-139.23072
 30
0.0
 11
-349.266414
 21
-141.63072
 31
0.0
  0
LINE
  5
154
100
AcDbEntity
  8
2
370
    50
100
AcDbLine
 10
-331.466414
 20
-139.23072
 30
0.0
 11
-331.466414
 21
-141.63072
 31
0.0
  0
LINE
  5
155
100
AcDbEntity
  8
2
370
    50
100
AcDbLine
 10
-331.666414
 20
-139.03072
 30
0.0
 11
-331.466414
 21
-139.23072
 31
0.0
  0
LINE
  5
156
100
AcDbEntity
  8
2
370
    50
100
AcDbLine
 10
-349.066414
 20
-139.03072
 30
0.0
 11
-349.266414
 21
-139.23072
 31
0.0
  0
LINE
  5
157
100
AcDbEntity
  8
2
370
    50
100
AcDbLine
 10
-349.066414
 20
-141.83072
 30
0.0
 11
-349.266414
 21
-141.63072
 31
0.0
  0
LINE
  5
158
100
AcDbEntity
  8
2
370
    50
100
AcDbLine
 10
-349.366414
 20
-147.63072
 30
0.0
 11
-331.366414
 21
-147.63072
 31
0.0
  0
LINE
  5
159
100
AcDbEntity
  8
2
370
    50
100
AcDbLine
 10
-348.666414
 20
-135.63072
 30
0.0
 11
-332.066414
 21
-135.63072
 31
0.0
  0
LINE
  5
15A
100
AcDbEntity
  8
2
370
    50
100
AcDbLine
 10
-336.366414
 20
-136.63072
 30
0.0
 11
-336.366414
 21
-146.63072
 31
0.0
  0
LINE
  5
15B
100
AcDbEntity
  8
2
370
    50
100
AcDbLine
 10
-344.366414
 20
-136.63072
 30
0.0
 11
-344.366414
 21
-146.63072
 31
0.0
  0
LINE
  5
15C
100
AcDbEntity
  8
2
370
    50
100
AcDbLine
 10
-325.866414
 20
-134.63072
 30
0.0
 11
-325.866414
 21
-146.63072
 31
0.0
  0
LINE
  5
15D
100
AcDbEntity
  8
2
370
    50
100
AcDbLine
 10
-354.866414
 20
-134.63072
 30
0.0
 11
-354.866414
 21
-146.63072
 31
0.0
  0
ARC
  5
15E
100
AcDbEntity
  8
2
370
    50
100
AcDbCircle
 10
-353.866414
 20
-134.63072
 30
0.0
 40
1.0
100
AcDbArc
 50
90.0
 51
180.0
  0
ARC
  5
15F
100
AcDbEntity
  8
2
370
    50
100
AcDbCircle
 10
-326.866414
 20
-134.63072
 30
0.0
 40
1.0
100
AcDbArc
 50
0.0
 51
90.0
  0
ARC
  5
160
100
AcDbEntity
  8
2
370
    50
100
AcDbCircle
 10
-326.866414
 20
-146.63072
 30
0.0
 40
1.0
100
AcDbArc
 50
270.0
 51
360.0
  0
ARC
  5
161
100
AcDbEntity
  8
2
370
    50
100
AcDbCircle
 10
-353.866414
 20
-146.63072
 30
0.0
 40
1.0
100
AcDbArc
 50
180.0
 51
270.0
  0
LINE
  5
162
100
AcDbEntity
  8
2
370
    50
100
AcDbLine
 10
-326.866414
 20
-133.63072
 30
0.0
 11
-334.366414
 21
-133.63072
 31
0.0
  0
LINE
  5
163
100
AcDbEntity
  8
2
370
    50
100
AcDbLine
 10
-346.366414
 20
-133.63072
 30
0.0
 11
-353.866414
 21
-133.63072
 31
0.0
  0
LINE
  5
164
100
AcDbEntity
  8
2
370
    50
100
AcDbLine
 10
-326.866414
 20
-147.63072
 30
0.0
 11
-332.866414
 21
-147.63072
 31
0.0
  0
LINE
  5
165
100
AcDbEntity
  8
2
370
    50
100
AcDbLine
 10
-348.666414
 20
-147.63072
 30
0.0
 11
-353.866414
 21
-147.63072
 31
0.0
  0
LINE
  5
166
100
AcDbEntity
  8
2
370
    50
100
AcDbLine
 10
-348.666414
 20
-138.63072
 30
0.0
 11
-344.366414
 21
-138.63072
 31
0.0
  0
LINE
  5
167
100
AcDbEntity
  8
2
370
    50
100
AcDbLine
 10
-336.366414
 20
-138.63072
 30
0.0
 11
-332.066414
 21
-138.63072
 31
0.0
  0
LINE
  5
168
100
AcDbEntity
  8
2
370
    50
100
AcDbLine
 10
-349.066414
 20
-139.03072
 30
0.0
 11
-344.366414
 21
-139.03072
 31
0.0
  0
LINE
  5
169
100
AcDbEntity
  8
2
370
    50
100
AcDbLine
 10
-336.366414
 20
-139.03072
 30
0.0
 11
-331.666414
 21
-139.03072
 31
0.0
  0
LINE
  5
16A
100
AcDbEntity
  8
2
370
    50
100
AcDbLine
 10
-349.266414
 20
-139.23072
 30
0.0
 11
-344.366414
 21
-139.23072
 31
0.0
  0
LINE
  5
16B
100
AcDbEntity
  8
2
370
    50
100
AcDbLine
 10
-336.366414
 20
-139.23072
 30
0.0
 11
-331.466414
 21
-139.23072
 31
0.0
  0
LINE
  5
16C
100
AcDbEntity
  8
2
370
    50
100
AcDbLine
 10
-349.266414
 20
-141.63072
 30
0.0
 11
-344.366414
 21
-141.63072
 31
0.0
  0
LINE
  5
16D
100
AcDbEntity
  8
2
370
    50
100
AcDbLine
 10
-336.366414
 20
-141.63072
 30
0.0
 11
-331.466414
 21
-141.63072
 31
0.0
  0
LINE
  5
16E
100
AcDbEntity
  8
2
370
    50
100
AcDbLine
 10
-348.666414
 20
-144.63072
 30
0.0
 11
-344.366414
 21
-144.63072
 31
0.0
  0
LINE
  5
16F
100
AcDbEntity
  8
2
370
    50
100
AcDbLine
 10
-336.366414
 20
-144.63072
 30
0.0
 11
-332.066414
 21
-144.63072
 31
0.0
  0
ARC
  5
170
100
AcDbEntity
  8
2
370
    50
100
AcDbCircle
 10
-343.366414
 20
-136.63072
 30
0.0
 40
1.0
100
AcDbArc
 50
90.0
 51
180.0
  0
ARC
  5
171
100
AcDbEntity
  8
2
370
    50
100
AcDbCircle
 10
-337.366414
 20
-136.63072
 30
0.0
 40
1.0
100
AcDbArc
 50
0.0
 51
90.0
  0
ARC
  5
172
100
AcDbEntity
  8
2
370
    50
100
AcDbCircle
 10
-337.366414
 20
-146.63072
 30
0.0
 40
1.0
100
AcDbArc
 50
270.0
 51
0.0
  0
ARC
  5
173
100
AcDbEntity
  8
2
370
    50
100
AcDbCircle
 10
-343.366414
 20
-146.63072
 30
0.0
 40
1.0
100
AcDbArc
 50
180.0
 51
270.0
  0
LINE
  5
174
100
AcDbEntity
  8
2
370
    50
100
AcDbLine
 10
-332.066414
 20
-135.63072
 30
0.0
 11
-332.066414
 21
-138.63072
 31
0.0
  0
LINE
  5
175
100
AcDbEntity
  8
2
370
    50
100
AcDbLine
 10
-348.666414
 20
-135.63072
 30
0.0
 11
-348.666414
 21
-138.63072
 31
0.0
  0
LINE
  5
176
100
AcDbEntity
  8
2
370
    50
100
AcDbLine
 10
-348.666414
 20
-144.63072
 30
0.0
 11
-348.666414
 21
-147.63072
 31
0.0
  0
LINE
  5
177
100
AcDbEntity
  8
2
370
    50
100
AcDbLine
 10
-332.066414
 20
-144.63072
 30
0.0
 11
-332.066414
 21
-147.63072
 31
0.0
  0
LINE
  5
178
100
AcDbEntity
  8
2
370
    50
100
AcDbLine
 10
-332.866414
 20
-139.03072
 30
0.0
 11
-332.866414
 21
-138.63072
 31
0.0
  0
LINE
  5
179
100
AcDbEntity
  8
2
370
    50
100
AcDbLine
 10
-347.866414
 20
-139.03072
 30
0.0
 11
-347.866414
 21
-138.63072
 31
0.0
  0
LINE
  5
17A
100
AcDbEntity
  8
2
370
    25
100
AcDbLine
 10
-335.366414
 20
-147.331303
 30
0.0
 11
-335.366414
 21
-145.026081
 31
0.0
  0
LINE
  5
17B
100
AcDbEntity
  8
2
370
    25
100
AcDbLine
 10
-335.366414
 20
-138.369534
 30
0.0
 11
-335.366414
 21
-135.937328
 31
0.0
  0
LINE
  5
17C
100
AcDbEntity
  8
2
370
    25
100
AcDbLine
 10
-345.366414
 20
-147.331303
 30
0.0
 11
-345.366414
 21
-145.026081
 31
0.0
  0
LINE
  5
17D
100
AcDbEntity
  8
2
370
    25
100
AcDbLine
 10
-345.366414
 20
-138.326855
 30
0.0
 11
-345.366414
 21
-135.857807
 31
0.0
  0
LINE
  5
17E
100
AcDbEntity
  8
2
370
    50
100
AcDbLine
 10
-331.566414
 20
-146.63072
 30
0.0
 11
-331.566414
 21
-144.03072
 31
0.0
  0
LINE
  5
17F
100
AcDbEntity
  8
2
370
    50
100
AcDbLine
 10
-331.566414
 20
-139.13072
 30
0.0
 11
-331.566414
 21
-134.63072
 31
0.0
  0
LINE
  5
180
100
AcDbEntity
  8
2
370
    50
100
AcDbLine
 10
-349.166414
 20
-146.63072
 30
0.0
 11
-349.166414
 21
-144.03072
 31
0.0
  0
LINE
  5
181
100
AcDbEntity
  8
2
370
    50
100
AcDbLine
 10
-349.166414
 20
-139.13072
 30
0.0
 11
-349.166414
 21
-134.63072
 31
0.0
  0
ARC
  5
182
100
AcDbEntity
  8
2
370
    50
100
AcDbCircle
 10
-332.566414
 20
-134.63072
 30
0.0
 40
1.0
100
AcDbArc
 50
0.0
 51
90.0
  0
ARC
  5
183
100
AcDbEntity
  8
2
370
    50
100
AcDbCircle
 10
-348.166414
 20
-134.63072
 30
0.0
 40
1.0
100
AcDbArc
 50
90.0
 51
180.0
  0
ARC
  5
184
100
AcDbEntity
  8
2
370
    50
100
AcDbCircle
 10
-330.566414
 20
-146.63072
 30
0.0
 40
1.0
100
AcDbArc
 50
180.0
 51
270.0
  0
ARC
  5
185
100
AcDbEntity
  8
2
370
    50
100
AcDbCircle
 10
-350.166414
 20
-146.63072
 30
0.0
 40
1.0
100
AcDbArc
 50
270.0
 51
360.0
  0
LINE
  5
186
100
AcDbEntity
  8
2
370
    50
100
AcDbLine
 10
-347.866414
 20
-134.33072
 30
0.0
 11
-347.866414
 21
-135.630098
 31
0.0
  0
ARC
  5
187
100
AcDbEntity
  8
2
370
    50
100
AcDbCircle
 10
-348.166414
 20
-134.63072
 30
0.0
 40
1.0
100
AcDbArc
 50
90.0
 51
180.0
  0
LINE
  5
188
100
AcDbEntity
  8
2
370
    50
100
AcDbLine
 10
-347.866414
 20
-134.33072
 30
0.0
 11
-347.366414
 21
-133.83072
 31
0.0
  0
LINE
  5
189
100
AcDbEntity
  8
2
370
    50
100
AcDbLine
 10
-349.366414
 20
-142.03072
 30
0.0
 11
-349.366414
 21
-143.83072
 31
0.0
  0
LINE
  5
18A
100
AcDbEntity
  8
2
370
    50
100
AcDbLine
 10
-331.366414
 20
-142.03072
 30
0.0
 11
-331.366414
 21
-143.83072
 31
0.0
  0
LINE
  5
18B
100
AcDbEntity
  8
2
370
    50
100
AcDbLine
 10
-350.366414
 20
-149.03072
 30
0.0
 11
-350.366414
 21
-176.53072
 31
0.0
  0
LINE
  5
18C
100
AcDbEntity
  8
2
370
    50
100
AcDbLine
 10
-330.366414
 20
-149.03072
 30
0.0
 11
-330.366414
 21
-176.53072
 31
0.0
  0
LINE
  5
18D
100
AcDbEntity
  8
2
370
    50
100
AcDbLine
 10
-331.366414
 20
-148.03072
 30
0.0
 11
-330.366414
 21
-149.03072
 31
0.0
  0
LINE
  5
18E
100
AcDbEntity
  8
2
370
    50
100
AcDbLine
 10
-349.366414
 20
-148.03072
 30
0.0
 11
-350.366414
 21
-149.03072
 31
0.0
  0
LINE
  5
18F
100
AcDbEntity
  8
2
370
    50
100
AcDbLine
 10
-349.366414
 20
-148.03072
 30
0.0
 11
-331.366414
 21
-148.03072
 31
0.0
  0
LINE
  5
190
100
AcDbEntity
  8
2
370
    50
100
AcDbLine
 10
-352.366414
 20
-176.53072
 30
0.0
 11
-328.366414
 21
-176.53072
 31
0.0
  0
LINE
  5
191
100
AcDbEntity
  8
2
370
    50
100
AcDbLine
 10
-353.366414
 20
-177.53072
 30
0.0
 11
-353.366414
 21
-186.53072
 31
0.0
  0
LINE
  5
192
100
AcDbEntity
  8
2
370
    50
100
AcDbLine
 10
-352.366414
 20
-176.53072
 30
0.0
 11
-353.366414
 21
-177.53072
 31
0.0
  0
LINE
  5
193
100
AcDbEntity
  8
2
370
    50
100
AcDbLine
 10
-352.366414
 20
-187.53072
 30
0.0
 11
-353.366414
 21
-186.53072
 31
0.0
  0
LINE
  5
194
100
AcDbEntity
  8
2
370
    50
100
AcDbLine
 10
-349.166414
 20
-141.83072
 30
0.0
 11
-349.366414
 21
-142.03072
 31
0.0
  0
LINE
  5
195
100
AcDbEntity
  8
2
370
    50
100
AcDbLine
 10
-349.366414
 20
-143.83072
 30
0.0
 11
-349.166414
 21
-144.03072
 31
0.0
  0
LINE
  5
196
100
AcDbEntity
  8
2
370
    50
100
AcDbLine
 10
-331.566414
 20
-141.83072
 30
0.0
 11
-331.366414
 21
-142.03072
 31
0.0
  0
LINE
  5
197
100
AcDbEntity
  8
2
370
    50
100
AcDbLine
 10
-331.366414
 20
-143.83072
 30
0.0
 11
-331.566414
 21
-144.03072
 31
0.0
  0
LINE
  5
198
100
AcDbEntity
  8
2
370
    50
100
AcDbLine
 10
-327.366414
 20
-177.53072
 30
0.0
 11
-327.366414
 21
-186.53072
 31
0.0
  0
LINE
  5
199
100
AcDbEntity
  8
2
370
    50
100
AcDbLine
 10
-328.366414
 20
-176.53072
 30
0.0
 11
-327.366414
 21
-177.53072
 31
0.0
  0
LINE
  5
19A
100
AcDbEntity
  8
2
370
    50
100
AcDbLine
 10
-328.366414
 20
-187.53072
 30
0.0
 11
-327.366414
 21
-186.53072
 31
0.0
  0
LINE
  5
19B
100
AcDbEntity
  8
2
370
    50
100
AcDbLine
 10
-352.366414
 20
-187.53072
 30
0.0
 11
-328.366414
 21
-187.53072
 31
0.0
  0
LINE
  5
19C
100
AcDbEntity
  8
2
370
    50
100
AcDbLine
 10
-330.366414
 20
-149.03072
 30
0.0
 11
-350.366414
 21
-149.03072
 31
0.0
  0
LINE
  5
19D
100
AcDbEntity
  8
2
370
    50
100
AcDbLine
 10
-333.438024
 20
-186.53072
 30
0.0
 11
-333.438024
 21
-177.53072
 31
0.0
  0
LINE
  5
19E
100
AcDbEntity
  8
2
370
    50
100
AcDbLine
 10
-347.294805
 20
-186.53072
 30
0.0
 11
-347.294805
 21
-177.53072
 31
0.0
  0
ARC
  5
19F
100
AcDbEntity
  8
2
370
    50
100
AcDbCircle
 10
-340.366414
 20
-201.032016
 30
0.0
 40
24.501296
100
AcDbArc
 50
73.574016
 51
106.425984
  0
ARC
  5
1A0
100
AcDbEntity
  8
2
370
    50
100
AcDbCircle
 10
-340.366414
 20
-163.029424
 30
0.0
 40
24.501296
100
AcDbArc
 50
253.574016
 51
286.425984
  0
ARC
  5
1A1
100
AcDbEntity
  8
2
370
    50
100
AcDbCircle
 10
-330.402219
 20
-182.422664
 30
0.0
 40
5.108056
100
AcDbArc
 50
233.536034
 51
306.463966
  0
ARC
  5
1A2
100
AcDbEntity
  8
2
370
    50
100
AcDbCircle
 10
-350.330609
 20
-182.422664
 30
0.0
 40
5.108056
100
AcDbArc
 50
233.536034
 51
306.463966
  0
ARC
  5
1A3
100
AcDbEntity
  8
2
370
    50
100
AcDbCircle
 10
-350.330609
 20
-181.638775
 30
0.0
 40
5.108056
100
AcDbArc
 50
53.536034
 51
126.463966
  0
ARC
  5
1A4
100
AcDbEntity
  8
2
370
    50
100
AcDbCircle
 10
-330.402219
 20
-181.638775
 30
0.0
 40
5.108056
100
AcDbArc
 50
53.536034
 51
126.463966
  0
LINE
  5
1A5
100
AcDbEntity
  8
2
370
    50
100
AcDbLine
 10
-332.866414
 20
-148.03072
 30
0.0
 11
-332.866414
 21
-147.63072
 31
0.0
  0
LINE
  5
1A6
100
AcDbEntity
  8
2
370
    50
100
AcDbLine
 10
-332.866414
 20
-144.63072
 30
0.0
 11
-332.866414
 21
-144.03072
 31
0.0
  0
LINE
  5
1A7
100
AcDbEntity
  8
2
370
    50
100
AcDbLine
 10
-347.866414
 20
-148.03072
 30
0.0
 11
-347.866414
 21
-147.63072
 31
0.0
  0
LINE
  5
1A8
100
AcDbEntity
  8
2
370
    50
100
AcDbLine
 10
-347.866414
 20
-144.63072
 30
0.0
 11
-347.866414
 21
-144.03072
 31
0.0
  0
LINE
  5
1A9
100
AcDbEntity
  8
2
370
    50
100
AcDbLine
 10
-349.166414
 20
-144.03072
 30
0.0
 11
-344.366414
 21
-144.03072
 31
0.0
  0
LINE
  5
1AA
100
AcDbEntity
  8
2
370
    50
100
AcDbLine
 10
-336.366414
 20
-144.03072
 30
0.0
 11
-331.566414
 21
-144.03072
 31
0.0
  0
LINE
  5
1AB
100
AcDbEntity
  8
2
370
    50
100
AcDbLine
 10
-349.366414
 20
-143.83072
 30
0.0
 11
-344.366414
 21
-143.83072
 31
0.0
  0
LINE
  5
1AC
100
AcDbEntity
  8
2
370
    50
100
AcDbLine
 10
-336.366414
 20
-143.83072
 30
0.0
 11
-331.366414
 21
-143.83072
 31
0.0
  0
LINE
  5
1AD
100
AcDbEntity
  8
2
370
    50
100
AcDbLine
 10
-349.366414
 20
-142.03072
 30
0.0
 11
-344.366414
 21
-142.03072
 31
0.0
  0
LINE
  5
1AE
100
AcDbEntity
  8
2
370
    50
100
AcDbLine
 10
-336.366414
 20
-142.03072
 30
0.0
 11
-331.366414
 21
-142.03072
 31
0.0
  0
LINE
  5
1AF
100
AcDbEntity
  8
2
370
    50
100
AcDbLine
 10
-349.166414
 20
-141.83072
 30
0.0
 11
-344.366414
 21
-141.83072
 31
0.0
  0
LINE
  5
1B0
100
AcDbEntity
  8
2
370
    50
100
AcDbLine
 10
-336.366414
 20
-141.83072
 30
0.0
 11
-331.566414
 21
-141.83072
 31
0.0
  0
LINE
  5
1B1
100
AcDbEntity
  8
2
370
    25
100
AcDbLine
 10
-346.866275
 20
-147.630098
 30
0.0
 11
-346.866275
 21
-144.630098
 31
0.0
  0
LINE
  5
1B2
100
AcDbEntity
  8
2
370
    25
100
AcDbLine
 10
-333.866554
 20
-138.63072
 30
0.0
 11
-333.866554
 21
-135.63072
 31
0.0
  0
LINE
  5
1B3
100
AcDbEntity
  8
2
370
    25
100
AcDbLine
 10
-346.866275
 20
-138.63072
 30
0.0
 11
-346.866275
 21
-135.63072
 31
0.0
  0
LINE
  5
1B4
100
AcDbEntity
  8
2
370
    50
100
AcDbLine
 10
-191.278259
 20
-116.83072
 30
0.0
 11
-178.278259
 21
-116.83072
 31
0.0
  0
LINE
  5
1B5
100
AcDbEntity
  8
2
370
    50
100
AcDbLine
 10
-189.359696
 20
-130.83072
 30
0.0
 11
-190.778259
 21
-130.83072
 31
0.0
  0
LINE
  5
1B6
100
AcDbEntity
  8
2
370
    50
100
AcDbLine
 10
-189.359696
 20
-133.33072
 30
0.0
 11
-190.778259
 21
-133.33072
 31
0.0
  0
ARC
  5
1B7
100
AcDbEntity
  8
2
370
    50
100
AcDbCircle
 10
-190.578259
 20
-133.63072
 30
0.0
 40
0.2
100
AcDbArc
 50
180.0
 51
270.0
  0
LINE
  5
1B8
100
AcDbEntity
  8
2
370
    50
100
AcDbLine
 10
-185.278259
 20
-133.33072
 30
0.0
 11
-188.652589
 21
-133.33072
 31
0.0
  0
LINE
  5
1B9
100
AcDbEntity
  8
2
370
    50
100
AcDbLine
 10
-185.278259
 20
-130.83072
 30
0.0
 11
-188.652589
 21
-130.83072
 31
0.0
  0
LINE
  5
1BA
100
AcDbEntity
  8
2
370
    50
100
AcDbLine
 10
-180.903929
 20
-133.33072
 30
0.0
 11
-184.278259
 21
-133.33072
 31
0.0
  0
LINE
  5
1BB
100
AcDbEntity
  8
2
370
    50
100
AcDbLine
 10
-180.903929
 20
-130.83072
 30
0.0
 11
-184.278259
 21
-130.83072
 31
0.0
  0
LINE
  5
1BC
100
AcDbEntity
  8
2
370
    50
100
AcDbLine
 10
-178.778259
 20
-133.33072
 30
0.0
 11
-180.196822
 21
-133.33072
 31
0.0
  0
LINE
  5
1BD
100
AcDbEntity
  8
2
370
    50
100
AcDbLine
 10
-178.778259
 20
-130.83072
 30
0.0
 11
-180.196822
 21
-130.83072
 31
0.0
  0
ARC
  5
1BE
100
AcDbEntity
  8
2
370
    50
100
AcDbCircle
 10
-178.978259
 20
-133.63072
 30
0.0
 40
0.2
100
AcDbArc
 50
270.0
 51
360.0
  0
LINE
  5
1BF
100
AcDbEntity
  8
2
370
    50
100
AcDbLine
 10
-178.778259
 20
-130.83072
 30
0.0
 11
-178.778259
 21
-133.63072
 31
0.0
  0
LINE
  5
1C0
100
AcDbEntity
  8
2
370
    50
100
AcDbLine
 10
-178.799129
 20
-130.83072
 30
0.0
 11
-178.799129
 21
-133.33072
 31
0.0
  0
ARC
  5
1C1
100
AcDbEntity
  8
2
370
    50
100
AcDbCircle
 10
-180.778259
 20
-129.33072
 30
0.0
 40
2.5
100
AcDbArc
 50
323.130102
 51
360.0
  0
LINE
  5
1C2
100
AcDbEntity
  8
2
370
    50
100
AcDbLine
 10
-180.196822
 20
-130.83072
 30
0.0
 11
-180.196822
 21
-133.33072
 31
0.0
  0
LINE
  5
1C3
100
AcDbEntity
  8
2
370
    50
100
AcDbLine
 10
-180.903929
 20
-130.83072
 30
0.0
 11
-180.903929
 21
-133.33072
 31
0.0
  0
LINE
  5
1C4
100
AcDbEntity
  8
2
370
    50
100
AcDbLine
 10
-184.278259
 20
-130.83072
 30
0.0
 11
-184.278259
 21
-133.33072
 31
0.0
  0
LINE
  5
1C5
100
AcDbEntity
  8
2
370
    50
100
AcDbLine
 10
-185.278259
 20
-130.83072
 30
0.0
 11
-185.278259
 21
-133.33072
 31
0.0
  0
LINE
  5
1C6
100
AcDbEntity
  8
2
370
    50
100
AcDbLine
 10
-189.359696
 20
-130.83072
 30
0.0
 11
-189.359696
 21
-133.33072
 31
0.0
  0
LINE
  5
1C7
100
AcDbEntity
  8
2
370
    50
100
AcDbLine
 10
-188.652589
 20
-130.83072
 30
0.0
 11
-188.652589
 21
-133.33072
 31
0.0
  0
LINE
  5
1C8
100
AcDbEntity
  8
2
370
    50
100
AcDbLine
 10
-190.778259
 20
-130.83072
 30
0.0
 11
-190.778259
 21
-133.63072
 31
0.0
  0
LINE
  5
1C9
100
AcDbEntity
  8
2
370
    50
100
AcDbLine
 10
-190.757389
 20
-130.83072
 30
0.0
 11
-190.757389
 21
-133.33072
 31
0.0
  0
ARC
  5
1CA
100
AcDbEntity
  8
2
370
    50
100
AcDbCircle
 10
-188.778259
 20
-129.33072
 30
0.0
 40
2.5
100
AcDbArc
 50
180.0
 51
216.869898
  0
LINE
  5
1CB
100
AcDbEntity
  8
2
370
    50
100
AcDbLine
 10
-191.278259
 20
-116.83072
 30
0.0
 11
-191.278259
 21
-129.33072
 31
0.0
  0
LINE
  5
1CC
100
AcDbEntity
  8
2
370
    25
100
AcDbLine
 10
-178.297518
 20
-116.83072
 30
0.0
 11
-178.297518
 21
-129.33072
 31
0.0
  0
LINE
  5
1CD
100
AcDbEntity
  8
2
370
    50
100
AcDbLine
 10
-178.278259
 20
-116.83072
 30
0.0
 11
-178.278259
 21
-129.33072
 31
0.0
  0
LINE
  5
1CE
100
AcDbEntity
  8
2
370
    50
100
AcDbLine
 10
-177.778259
 20
-133.83072
 30
0.0
 11
-191.778259
 21
-133.83072
 31
0.0
  0
LINE
  5
1CF
100
AcDbEntity
  8
2
370
    50
100
AcDbLine
 10
-177.278259
 20
-134.33072
 30
0.0
 11
-177.778259
 21
-133.83072
 31
0.0
  0
LINE
  5
1D0
100
AcDbEntity
  8
2
370
    50
100
AcDbLine
 10
-190.528259
 20
-116.83072
 30
0.0
 11
-190.528259
 21
-96.338862
 31
0.0
  0
LINE
  5
1D1
100
AcDbEntity
  8
2
370
    50
100
AcDbLine
 10
-179.028259
 20
-116.83072
 30
0.0
 11
-179.028259
 21
-96.486921
 31
0.0
  0
LINE
  5
1D2
100
AcDbEntity
  8
2
370
    25
100
AcDbLine
 10
-178.278399
 20
-147.630098
 30
0.0
 11
-178.278399
 21
-144.630098
 31
0.0
  0
LINE
  5
1D3
100
AcDbEntity
  8
2
370
    50
100
AcDbLine
 10
-175.878259
 20
-139.231355
 30
0.0
 11
-175.878259
 21
-141.631355
 31
0.0
  0
LINE
  5
1D4
100
AcDbEntity
  8
2
370
    50
100
AcDbLine
 10
-176.078259
 20
-139.031355
 30
0.0
 11
-175.878259
 21
-139.231355
 31
0.0
  0
LINE
  5
1D5
100
AcDbEntity
  8
2
370
    50
100
AcDbLine
 10
-176.078259
 20
-141.831355
 30
0.0
 11
-175.878259
 21
-141.631355
 31
0.0
  0
LINE
  5
1D6
100
AcDbEntity
  8
2
370
    50
100
AcDbLine
 10
-177.278259
 20
-139.031355
 30
0.0
 11
-177.278259
 21
-138.630098
 31
0.0
  0
LINE
  5
1D7
100
AcDbEntity
  8
2
370
    50
100
AcDbLine
 10
-177.278259
 20
-134.33072
 30
0.0
 11
-177.278259
 21
-135.630098
 31
0.0
  0
LINE
  5
1D8
100
AcDbEntity
  8
2
370
    50
100
AcDbLine
 10
-193.678259
 20
-139.23072
 30
0.0
 11
-193.678259
 21
-141.63072
 31
0.0
  0
LINE
  5
1D9
100
AcDbEntity
  8
2
370
    50
100
AcDbLine
 10
-175.878259
 20
-139.23072
 30
0.0
 11
-175.878259
 21
-141.63072
 31
0.0
  0
LINE
  5
1DA
100
AcDbEntity
  8
2
370
    50
100
AcDbLine
 10
-176.078259
 20
-139.03072
 30
0.0
 11
-175.878259
 21
-139.23072
 31
0.0
  0
LINE
  5
1DB
100
AcDbEntity
  8
2
370
    50
100
AcDbLine
 10
-193.478259
 20
-139.03072
 30
0.0
 11
-193.678259
 21
-139.23072
 31
0.0
  0
LINE
  5
1DC
100
AcDbEntity
  8
2
370
    50
100
AcDbLine
 10
-193.478259
 20
-141.83072
 30
0.0
 11
-193.678259
 21
-141.63072
 31
0.0
  0
LINE
  5
1DD
100
AcDbEntity
  8
2
370
    50
100
AcDbLine
 10
-193.778259
 20
-147.63072
 30
0.0
 11
-175.778259
 21
-147.63072
 31
0.0
  0
LINE
  5
1DE
100
AcDbEntity
  8
2
370
    50
100
AcDbLine
 10
-193.078259
 20
-135.63072
 30
0.0
 11
-176.478259
 21
-135.63072
 31
0.0
  0
LINE
  5
1DF
100
AcDbEntity
  8
2
370
    50
100
AcDbLine
 10
-180.778259
 20
-136.63072
 30
0.0
 11
-180.778259
 21
-146.63072
 31
0.0
  0
LINE
  5
1E0
100
AcDbEntity
  8
2
370
    50
100
AcDbLine
 10
-188.778259
 20
-136.63072
 30
0.0
 11
-188.778259
 21
-146.63072
 31
0.0
  0
ARC
  5
1E1
100
AcDbEntity
  8
2
370
    50
100
AcDbCircle
 10
-171.278259
 20
-134.63072
 30
0.0
 40
1.0
100
AcDbArc
 50
0.0
 51
90.0
  0
ARC
  5
1E2
100
AcDbEntity
  8
2
370
    50
100
AcDbCircle
 10
-171.278259
 20
-146.63072
 30
0.0
 40
1.0
100
AcDbArc
 50
270.0
 51
360.0
  0
LINE
  5
1E3
100
AcDbEntity
  8
2
370
    50
100
AcDbLine
 10
-171.278259
 20
-133.63072
 30
0.0
 11
-178.778259
 21
-133.63072
 31
0.0
  0
LINE
  5
1E4
100
AcDbEntity
  8
2
370
    50
100
AcDbLine
 10
-190.778259
 20
-133.63072
 30
0.0
 11
-198.278259
 21
-133.63072
 31
0.0
  0
LINE
  5
1E5
100
AcDbEntity
  8
2
370
    50
100
AcDbLine
 10
-171.278259
 20
-147.63072
 30
0.0
 11
-177.278259
 21
-147.63072
 31
0.0
  0
LINE
  5
1E6
100
AcDbEntity
  8
2
370
    50
100
AcDbLine
 10
-193.078259
 20
-147.63072
 30
0.0
 11
-198.278259
 21
-147.63072
 31
0.0
  0
LINE
  5
1E7
100
AcDbEntity
  8
2
370
    50
100
AcDbLine
 10
-193.078259
 20
-138.63072
 30
0.0
 11
-188.778259
 21
-138.63072
 31
0.0
  0
LINE
  5
1E8
100
AcDbEntity
  8
2
370
    50
100
AcDbLine
 10
-180.778259
 20
-138.63072
 30
0.0
 11
-176.478259
 21
-138.63072
 31
0.0
  0
LINE
  5
1E9
100
AcDbEntity
  8
2
370
    50
100
AcDbLine
 10
-193.478259
 20
-139.03072
 30
0.0
 11
-188.778259
 21
-139.03072
 31
0.0
  0
LINE
  5
1EA
100
AcDbEntity
  8
2
370
    50
100
AcDbLine
 10
-180.778259
 20
-139.03072
 30
0.0
 11
-176.078259
 21
-139.03072
 31
0.0
  0
LINE
  5
1EB
100
AcDbEntity
  8
2
370
    50
100
AcDbLine
 10
-193.678259
 20
-139.23072
 30
0.0
 11
-188.778259
 21
-139.23072
 31
0.0
  0
LINE
  5
1EC
100
AcDbEntity
  8
2
370
    50
100
AcDbLine
 10
-180.778259
 20
-139.23072
 30
0.0
 11
-175.878259
 21
-139.23072
 31
0.0
  0
LINE
  5
1ED
100
AcDbEntity
  8
2
370
    50
100
AcDbLine
 10
-193.678259
 20
-141.63072
 30
0.0
 11
-188.778259
 21
-141.63072
 31
0.0
  0
LINE
  5
1EE
100
AcDbEntity
  8
2
370
    50
100
AcDbLine
 10
-180.778259
 20
-141.63072
 30
0.0
 11
-175.878259
 21
-141.63072
 31
0.0
  0
LINE
  5
1EF
100
AcDbEntity
  8
2
370
    50
100
AcDbLine
 10
-193.078259
 20
-144.63072
 30
0.0
 11
-188.778259
 21
-144.63072
 31
0.0
  0
LINE
  5
1F0
100
AcDbEntity
  8
2
370
    50
100
AcDbLine
 10
-180.778259
 20
-144.63072
 30
0.0
 11
-176.478259
 21
-144.63072
 31
0.0
  0
ARC
  5
1F1
100
AcDbEntity
  8
2
370
    50
100
AcDbCircle
 10
-187.778259
 20
-136.63072
 30
0.0
 40
1.0
100
AcDbArc
 50
90.0
 51
180.0
  0
ARC
  5
1F2
100
AcDbEntity
  8
2
370
    50
100
AcDbCircle
 10
-181.778259
 20
-136.63072
 30
0.0
 40
1.0
100
AcDbArc
 50
0.0
 51
90.0
  0
ARC
  5
1F3
100
AcDbEntity
  8
2
370
    50
100
AcDbCircle
 10
-181.778259
 20
-146.63072
 30
0.0
 40
1.0
100
AcDbArc
 50
270.0
 51
0.0
  0
ARC
  5
1F4
100
AcDbEntity
  8
2
370
    50
100
AcDbCircle
 10
-187.778259
 20
-146.63072
 30
0.0
 40
1.0
100
AcDbArc
 50
180.0
 51
270.0
  0
LINE
  5
1F5
100
AcDbEntity
  8
2
370
    50
100
AcDbLine
 10
-176.478259
 20
-135.63072
 30
0.0
 11
-176.478259
 21
-138.63072
 31
0.0
  0
LINE
  5
1F6
100
AcDbEntity
  8
2
370
    50
100
AcDbLine
 10
-193.078259
 20
-135.63072
 30
0.0
 11
-193.078259
 21
-138.63072
 31
0.0
  0
LINE
  5
1F7
100
AcDbEntity
  8
2
370
    50
100
AcDbLine
 10
-193.078259
 20
-144.63072
 30
0.0
 11
-193.078259
 21
-147.63072
 31
0.0
  0
LINE
  5
1F8
100
AcDbEntity
  8
2
370
    50
100
AcDbLine
 10
-176.478259
 20
-144.63072
 30
0.0
 11
-176.478259
 21
-147.63072
 31
0.0
  0
LINE
  5
1F9
100
AcDbEntity
  8
2
370
    50
100
AcDbLine
 10
-177.278259
 20
-139.03072
 30
0.0
 11
-177.278259
 21
-138.63072
 31
0.0
  0
LINE
  5
1FA
100
AcDbEntity
  8
2
370
    50
100
AcDbLine
 10
-192.278259
 20
-139.03072
 30
0.0
 11
-192.278259
 21
-138.63072
 31
0.0
  0
LINE
  5
1FB
100
AcDbEntity
  8
2
370
    25
100
AcDbLine
 10
-179.778259
 20
-147.331303
 30
0.0
 11
-179.778259
 21
-145.026081
 31
0.0
  0
LINE
  5
1FC
100
AcDbEntity
  8
2
370
    25
100
AcDbLine
 10
-179.778259
 20
-138.369534
 30
0.0
 11
-179.778259
 21
-135.937328
 31
0.0
  0
LINE
  5
1FD
100
AcDbEntity
  8
2
370
    25
100
AcDbLine
 10
-189.778259
 20
-147.331303
 30
0.0
 11
-189.778259
 21
-145.026081
 31
0.0
  0
LINE
  5
1FE
100
AcDbEntity
  8
2
370
    25
100
AcDbLine
 10
-189.778259
 20
-138.326855
 30
0.0
 11
-189.778259
 21
-135.857807
 31
0.0
  0
LINE
  5
1FF
100
AcDbEntity
  8
2
370
    50
100
AcDbLine
 10
-175.978259
 20
-146.63072
 30
0.0
 11
-175.978259
 21
-144.03072
 31
0.0
  0
LINE
  5
200
100
AcDbEntity
  8
2
370
    50
100
AcDbLine
 10
-175.978259
 20
-139.13072
 30
0.0
 11
-175.978259
 21
-134.63072
 31
0.0
  0
LINE
  5
201
100
AcDbEntity
  8
2
370
    50
100
AcDbLine
 10
-193.578259
 20
-146.63072
 30
0.0
 11
-193.578259
 21
-144.03072
 31
0.0
  0
LINE
  5
202
100
AcDbEntity
  8
2
370
    50
100
AcDbLine
 10
-193.578259
 20
-139.13072
 30
0.0
 11
-193.578259
 21
-134.63072
 31
0.0
  0
ARC
  5
203
100
AcDbEntity
  8
2
370
    50
100
AcDbCircle
 10
-176.978259
 20
-134.63072
 30
0.0
 40
1.0
100
AcDbArc
 50
0.0
 51
90.0
  0
ARC
  5
204
100
AcDbEntity
  8
2
370
    50
100
AcDbCircle
 10
-192.578259
 20
-134.63072
 30
0.0
 40
1.0
100
AcDbArc
 50
90.0
 51
180.0
  0
ARC
  5
205
100
AcDbEntity
  8
2
370
    50
100
AcDbCircle
 10
-174.978259
 20
-146.63072
 30
0.0
 40
1.0
100
AcDbArc
 50
180.0
 51
270.0
  0
ARC
  5
206
100
AcDbEntity
  8
2
370
    50
100
AcDbCircle
 10
-194.578259
 20
-146.63072
 30
0.0
 40
1.0
100
AcDbArc
 50
270.0
 51
360.0
  0
LINE
  5
207
100
AcDbEntity
  8
2
370
    50
100
AcDbLine
 10
-192.278259
 20
-134.33072
 30
0.0
 11
-192.278259
 21
-135.630098
 31
0.0
  0
ARC
  5
208
100
AcDbEntity
  8
2
370
    50
100
AcDbCircle
 10
-192.578259
 20
-134.63072
 30
0.0
 40
1.0
100
AcDbArc
 50
90.0
 51
180.0
  0
LINE
  5
209
100
AcDbEntity
  8
2
370
    50
100
AcDbLine
 10
-192.278259
 20
-134.33072
 30
0.0
 11
-191.778259
 21
-133.83072
 31
0.0
  0
LINE
  5
20A
100
AcDbEntity
  8
2
370
    50
100
AcDbLine
 10
-193.778259
 20
-142.03072
 30
0.0
 11
-193.778259
 21
-143.83072
 31
0.0
  0
LINE
  5
20B
100
AcDbEntity
  8
2
370
    50
100
AcDbLine
 10
-175.778259
 20
-142.03072
 30
0.0
 11
-175.778259
 21
-143.83072
 31
0.0
  0
LINE
  5
20C
100
AcDbEntity
  8
2
370
    50
100
AcDbLine
 10
-174.778259
 20
-149.03072
 30
0.0
 11
-174.778259
 21
-176.53072
 31
0.0
  0
LINE
  5
20D
100
AcDbEntity
  8
2
370
    50
100
AcDbLine
 10
-175.778259
 20
-148.03072
 30
0.0
 11
-174.778259
 21
-149.03072
 31
0.0
  0
LINE
  5
20E
100
AcDbEntity
  8
2
370
    50
100
AcDbLine
 10
-193.778259
 20
-148.03072
 30
0.0
 11
-194.778259
 21
-149.03072
 31
0.0
  0
LINE
  5
20F
100
AcDbEntity
  8
2
370
    50
100
AcDbLine
 10
-193.778259
 20
-148.03072
 30
0.0
 11
-175.778259
 21
-148.03072
 31
0.0
  0
LINE
  5
210
100
AcDbEntity
  8
2
370
    50
100
AcDbLine
 10
-196.778259
 20
-176.53072
 30
0.0
 11
-172.778259
 21
-176.53072
 31
0.0
  0
LINE
  5
211
100
AcDbEntity
  8
2
370
    50
100
AcDbLine
 10
-193.578259
 20
-141.83072
 30
0.0
 11
-193.778259
 21
-142.03072
 31
0.0
  0
LINE
  5
212
100
AcDbEntity
  8
2
370
    50
100
AcDbLine
 10
-193.778259
 20
-143.83072
 30
0.0
 11
-193.578259
 21
-144.03072
 31
0.0
  0
LINE
  5
213
100
AcDbEntity
  8
2
370
    50
100
AcDbLine
 10
-175.978259
 20
-141.83072
 30
0.0
 11
-175.778259
 21
-142.03072
 31
0.0
  0
LINE
  5
214
100
AcDbEntity
  8
2
370
    50
100
AcDbLine
 10
-175.778259
 20
-143.83072
 30
0.0
 11
-175.978259
 21
-144.03072
 31
0.0
  0
LINE
  5
215
100
AcDbEntity
  8
2
370
    50
100
AcDbLine
 10
-171.778259
 20
-177.53072
 30
0.0
 11
-171.778259
 21
-186.53072
 31
0.0
  0
LINE
  5
216
100
AcDbEntity
  8
2
370
    50
100
AcDbLine
 10
-172.778259
 20
-176.53072
 30
0.0
 11
-171.778259
 21
-177.53072
 31
0.0
  0
LINE
  5
217
100
AcDbEntity
  8
2
370
    50
100
AcDbLine
 10
-172.778259
 20
-187.53072
 30
0.0
 11
-171.778259
 21
-186.53072
 31
0.0
  0
LINE
  5
218
100
AcDbEntity
  8
2
370
    50
100
AcDbLine
 10
-196.778259
 20
-187.53072
 30
0.0
 11
-172.778259
 21
-187.53072
 31
0.0
  0
LINE
  5
219
100
AcDbEntity
  8
2
370
    50
100
AcDbLine
 10
-174.778259
 20
-149.03072
 30
0.0
 11
-194.778259
 21
-149.03072
 31
0.0
  0
LINE
  5
21A
100
AcDbEntity
  8
2
370
    50
100
AcDbLine
 10
-177.849869
 20
-186.53072
 30
0.0
 11
-177.849869
 21
-177.53072
 31
0.0
  0
LINE
  5
21B
100
AcDbEntity
  8
2
370
    50
100
AcDbLine
 10
-191.706649
 20
-186.53072
 30
0.0
 11
-191.706649
 21
-177.53072
 31
0.0
  0
ARC
  5
21C
100
AcDbEntity
  8
2
370
    50
100
AcDbCircle
 10
-184.778259
 20
-201.032016
 30
0.0
 40
24.501296
100
AcDbArc
 50
73.574016
 51
106.425984
  0
ARC
  5
21D
100
AcDbEntity
  8
2
370
    50
100
AcDbCircle
 10
-184.778259
 20
-163.029424
 30
0.0
 40
24.501296
100
AcDbArc
 50
253.574016
 51
286.425984
  0
ARC
  5
21E
100
AcDbEntity
  8
2
370
    50
100
AcDbCircle
 10
-174.814064
 20
-182.422664
 30
0.0
 40
5.108056
100
AcDbArc
 50
233.536034
 51
306.463966
  0
ARC
  5
21F
100
AcDbEntity
  8
2
370
    50
100
AcDbCircle
 10
-194.742454
 20
-182.422664
 30
0.0
 40
5.108056
100
AcDbArc
 50
233.536034
 51
306.463966
  0
ARC
  5
220
100
AcDbEntity
  8
2
370
    50
100
AcDbCircle
 10
-194.742454
 20
-181.638775
 30
0.0
 40
5.108056
100
AcDbArc
 50
53.536034
 51
126.463966
  0
ARC
  5
221
100
AcDbEntity
  8
2
370
    50
100
AcDbCircle
 10
-174.814064
 20
-181.638775
 30
0.0
 40
5.108056
100
AcDbArc
 50
53.536034
 51
126.463966
  0
LINE
  5
222
100
AcDbEntity
  8
2
370
    50
100
AcDbLine
 10
-177.278259
 20
-148.03072
 30
0.0
 11
-177.278259
 21
-147.63072
 31
0.0
  0
LINE
  5
223
100
AcDbEntity
  8
2
370
    50
100
AcDbLine
 10
-177.278259
 20
-144.63072
 30
0.0
 11
-177.278259
 21
-144.03072
 31
0.0
  0
LINE
  5
224
100
AcDbEntity
  8
2
370
    50
100
AcDbLine
 10
-192.278259
 20
-148.03072
 30
0.0
 11
-192.278259
 21
-147.63072
 31
0.0
  0
LINE
  5
225
100
AcDbEntity
  8
2
370
    50
100
AcDbLine
 10
-192.278259
 20
-144.63072
 30
0.0
 11
-192.278259
 21
-144.03072
 31
0.0
  0
LINE
  5
226
100
AcDbEntity
  8
2
370
    50
100
AcDbLine
 10
-193.578259
 20
-144.03072
 30
0.0
 11
-188.778259
 21
-144.03072
 31
0.0
  0
LINE
  5
227
100
AcDbEntity
  8
2
370
    50
100
AcDbLine
 10
-180.778259
 20
-144.03072
 30
0.0
 11
-175.978259
 21
-144.03072
 31
0.0
  0
LINE
  5
228
100
AcDbEntity
  8
2
370
    50
100
AcDbLine
 10
-193.778259
 20
-143.83072
 30
0.0
 11
-188.778259
 21
-143.83072
 31
0.0
  0
LINE
  5
229
100
AcDbEntity
  8
2
370
    50
100
AcDbLine
 10
-180.778259
 20
-143.83072
 30
0.0
 11
-175.778259
 21
-143.83072
 31
0.0
  0
LINE
  5
22A
100
AcDbEntity
  8
2
370
    50
100
AcDbLine
 10
-193.778259
 20
-142.03072
 30
0.0
 11
-188.778259
 21
-142.03072
 31
0.0
  0
LINE
  5
22B
100
AcDbEntity
  8
2
370
    50
100
AcDbLine
 10
-180.778259
 20
-142.03072
 30
0.0
 11
-175.778259
 21
-142.03072
 31
0.0
  0
LINE
  5
22C
100
AcDbEntity
  8
2
370
    50
100
AcDbLine
 10
-193.578259
 20
-141.83072
 30
0.0
 11
-188.778259
 21
-141.83072
 31
0.0
  0
LINE
  5
22D
100
AcDbEntity
  8
2
370
    50
100
AcDbLine
 10
-180.778259
 20
-141.83072
 30
0.0
 11
-175.978259
 21
-141.83072
 31
0.0
  0
LINE
  5
22E
100
AcDbEntity
  8
2
370
    25
100
AcDbLine
 10
-191.278119
 20
-147.630098
 30
0.0
 11
-191.278119
 21
-144.630098
 31
0.0
  0
LINE
  5
22F
100
AcDbEntity
  8
2
370
    25
100
AcDbLine
 10
-178.278399
 20
-138.63072
 30
0.0
 11
-178.278399
 21
-135.63072
 31
0.0
  0
LINE
  5
230
100
AcDbEntity
  8
2
370
    25
100
AcDbLine
 10
-191.278119
 20
-138.63072
 30
0.0
 11
-191.278119
 21
-135.63072
 31
0.0
  0
LINE
  5
231
100
AcDbEntity
  8
2
370
    50
100
AcDbLine
 10
-199.278259
 20
-134.63072
 30
0.0
 11
-199.278259
 21
-146.63072
 31
0.0
  0
ARC
  5
232
100
AcDbEntity
  8
2
370
    50
100
AcDbCircle
 10
-198.278259
 20
-134.63072
 30
0.0
 40
1.0
100
AcDbArc
 50
90.0
 51
180.0
  0
ARC
  5
233
100
AcDbEntity
  8
2
370
    50
100
AcDbCircle
 10
-198.278259
 20
-146.63072
 30
0.0
 40
1.0
100
AcDbArc
 50
180.0
 51
270.0
  0
LINE
  5
234
100
AcDbEntity
  8
2
370
    50
100
AcDbLine
 10
-194.778259
 20
-149.03072
 30
0.0
 11
-194.778259
 21
-176.53072
 31
0.0
  0
LINE
  5
235
100
AcDbEntity
  8
2
370
    50
100
AcDbLine
 10
-197.778259
 20
-177.53072
 30
0.0
 11
-197.778259
 21
-186.53072
 31
0.0
  0
LINE
  5
236
100
AcDbEntity
  8
2
370
    50
100
AcDbLine
 10
-196.778259
 20
-176.53072
 30
0.0
 11
-197.778259
 21
-177.53072
 31
0.0
  0
LINE
  5
237
100
AcDbEntity
  8
2
370
    50
100
AcDbLine
 10
-196.778259
 20
-187.53072
 30
0.0
 11
-197.778259
 21
-186.53072
 31
0.0
  0
LINE
  5
238
100
AcDbEntity
  8
2
370
    25
  6
CENTER
100
AcDbLine
 10
-184.778259
 20
-86.828606
 30
0.0
 11
-184.778259
 21
-106.907784
 31
0.0
  0
ARC
  5
239
100
AcDbEntity
  8
2
370
    50
100
AcDbCircle
 10
-187.653259
 20
-92.486073
 30
0.0
 40
4.791667
100
AcDbArc
 50
233.130102
 51
306.869898
  0
ARC
  5
23A
100
AcDbEntity
  8
2
370
    50
100
AcDbCircle
 10
-181.903259
 20
-100.15274
 30
0.0
 40
4.791667
100
AcDbArc
 50
53.130102
 51
126.869898
  0
ARC
  5
23B
100
AcDbEntity
  8
2
370
    50
100
AcDbCircle
 10
-187.653259
 20
-100.15274
 30
0.0
 40
4.791667
100
AcDbArc
 50
53.130102
 51
126.869898
  0
ARC
  5
23C
100
AcDbEntity
  8
2
370
    50
100
AcDbCircle
 10
-343.241414
 20
-92.601086
 30
0.0
 40
4.791667
100
AcDbArc
 50
233.130102
 51
306.869898
  0
ARC
  5
23D
100
AcDbEntity
  8
2
370
    50
100
AcDbCircle
 10
-337.491414
 20
-100.267753
 30
0.0
 40
4.791667
100
AcDbArc
 50
53.130102
 51
126.869898
  0
ARC
  5
23E
100
AcDbEntity
  8
2
370
    50
100
AcDbCircle
 10
-343.241414
 20
-100.267753
 30
0.0
 40
4.791667
100
AcDbArc
 50
53.130102
 51
126.869898
  0
LINE
  5
23F
100
AcDbEntity
  8
2
370
    50
100
AcDbLine
 10
-245.072337
 20
-53.131202
 30
0.0
 11
-245.072337
 21
-41.930941
 31
0.0
  0
LINE
  5
240
100
AcDbEntity
  8
2
370
    50
100
AcDbLine
 10
-245.072337
 20
-27.930941
 30
0.0
 11
-245.072337
 21
-14.931202
 31
0.0
  0
LINE
  5
241
100
AcDbEntity
  8
2
370
    25
100
AcDbLine
 10
-245.872337
 20
-53.931202
 30
0.0
 11
-245.872337
 21
-41.930941
 31
0.0
  0
LINE
  5
242
100
AcDbEntity
  8
2
370
    25
100
AcDbLine
 10
-245.872337
 20
-27.930941
 30
0.0
 11
-245.872337
 21
-14.931202
 31
0.0
  0
LINE
  5
243
100
AcDbEntity
  8
2
370
    50
100
AcDbLine
 10
-280.072337
 20
-53.131202
 30
0.0
 11
-280.072337
 21
-41.930941
 31
0.0
  0
LINE
  5
244
100
AcDbEntity
  8
2
370
    50
100
AcDbLine
 10
-280.072337
 20
-27.930941
 30
0.0
 11
-280.072337
 21
-14.931202
 31
0.0
  0
LINE
  5
245
100
AcDbEntity
  8
2
370
    25
100
AcDbLine
 10
-279.272337
 20
-53.931202
 30
0.0
 11
-279.272337
 21
-41.930941
 31
0.0
  0
LINE
  5
246
100
AcDbEntity
  8
2
370
    25
100
AcDbLine
 10
-279.272337
 20
-27.930941
 30
0.0
 11
-279.272337
 21
-14.931202
 31
0.0
  0
LINE
  5
247
100
AcDbEntity
  8
2
370
    50
100
AcDbLine
 10
-236.572337
 20
-29.930941
 30
0.0
 11
-288.572337
 21
-29.930941
 31
0.0
  0
LINE
  5
248
100
AcDbEntity
  8
2
370
    50
100
AcDbLine
 10
-239.572337
 20
-41.930941
 30
0.0
 11
-285.572337
 21
-41.930941
 31
0.0
  0
LINE
  5
249
100
AcDbEntity
  8
2
370
    50
100
AcDbLine
 10
-288.572337
 20
-31.930941
 30
0.0
 11
-288.572337
 21
-29.930941
 31
0.0
  0
LINE
  5
24A
100
AcDbEntity
  8
2
370
    50
100
AcDbLine
 10
-236.572337
 20
-31.930941
 30
0.0
 11
-236.572337
 21
-29.930941
 31
0.0
  0
LINE
  5
24B
100
AcDbEntity
  8
2
370
    50
100
AcDbLine
 10
-285.572337
 20
-41.930941
 30
0.0
 11
-285.572337
 21
-33.930941
 31
0.0
  0
LINE
  5
24C
100
AcDbEntity
  8
2
370
    50
100
AcDbLine
 10
-239.572337
 20
-41.930941
 30
0.0
 11
-239.572337
 21
-33.930941
 31
0.0
  0
LINE
  5
24D
100
AcDbEntity
  8
2
370
    50
100
AcDbLine
 10
-237.572337
 20
-32.930941
 30
0.0
 11
-287.572337
 21
-32.930941
 31
0.0
  0
LINE
  5
24E
100
AcDbEntity
  8
2
370
    50
100
AcDbLine
 10
-284.572337
 20
-40.838941
 30
0.0
 11
-284.572337
 21
-32.930941
 31
0.0
  0
LINE
  5
24F
100
AcDbEntity
  8
2
370
    50
100
AcDbLine
 10
-240.572337
 20
-40.838941
 30
0.0
 11
-240.572337
 21
-32.930941
 31
0.0
  0
LINE
  5
250
100
AcDbEntity
  8
2
370
    50
100
AcDbLine
 10
-261.572337
 20
-40.838941
 30
0.0
 11
-261.572337
 21
-32.930941
 31
0.0
  0
LINE
  5
251
100
AcDbEntity
  8
2
370
    50
100
AcDbLine
 10
-263.572337
 20
-40.838941
 30
0.0
 11
-263.572337
 21
-32.930941
 31
0.0
  0
LINE
  5
252
100
AcDbEntity
  8
2
370
    50
100
AcDbLine
 10
-284.572337
 20
-40.838941
 30
0.0
 11
-285.572337
 21
-40.838941
 31
0.0
  0
LINE
  5
253
100
AcDbEntity
  8
2
370
    50
100
AcDbLine
 10
-239.572337
 20
-40.838941
 30
0.0
 11
-240.572337
 21
-40.838941
 31
0.0
  0
LINE
  5
254
100
AcDbEntity
  8
2
370
    50
100
AcDbLine
 10
-261.572337
 20
-40.838941
 30
0.0
 11
-263.572337
 21
-40.838941
 31
0.0
  0
ARC
  5
255
100
AcDbEntity
  8
2
370
    50
100
AcDbCircle
 10
-274.072337
 20
9.095828
 30
0.0
 40
51.026769
100
AcDbArc
 50
258.125168
 51
281.874832
  0
ARC
  5
256
100
AcDbEntity
  8
2
370
    50
100
AcDbCircle
 10
-251.072337
 20
9.095828
 30
0.0
 40
51.026769
100
AcDbArc
 50
258.125168
 51
281.874832
  0
ARC
  5
257
100
AcDbEntity
  8
2
370
    50
100
AcDbCircle
 10
-286.572337
 20
-33.930941
 30
0.0
 40
1.0
100
AcDbArc
 50
0.0
 51
90.0
  0
ARC
  5
258
100
AcDbEntity
  8
2
370
    50
100
AcDbCircle
 10
-238.572337
 20
-33.930941
 30
0.0
 40
1.0
100
AcDbArc
 50
90.0
 51
180.0
  0
ARC
  5
259
100
AcDbEntity
  8
2
370
    50
100
AcDbCircle
 10
-287.572337
 20
-31.930941
 30
0.0
 40
1.0
100
AcDbArc
 50
180.0
 51
270.0
  0
ARC
  5
25A
100
AcDbEntity
  8
2
370
    50
100
AcDbCircle
 10
-237.572337
 20
-31.930941
 30
0.0
 40
1.0
100
AcDbArc
 50
270.0
 51
360.0
  0
LINE
  5
25B
100
AcDbEntity
  8
2
370
    50
100
AcDbLine
 10
-287.572337
 20
-29.430941
 30
0.0
 11
-237.572337
 21
-29.430941
 31
0.0
  0
LINE
  5
25C
100
AcDbEntity
  8
2
370
    50
100
AcDbLine
 10
-287.572337
 20
-27.930941
 30
0.0
 11
-287.572337
 21
-29.930941
 31
0.0
  0
LINE
  5
25D
100
AcDbEntity
  8
2
370
    50
100
AcDbLine
 10
-237.572337
 20
-27.930941
 30
0.0
 11
-237.572337
 21
-29.930941
 31
0.0
  0
LINE
  5
25E
100
AcDbEntity
  8
2
370
    50
100
AcDbLine
 10
-287.572337
 20
-27.930941
 30
0.0
 11
-237.572337
 21
-27.930941
 31
0.0
  0
LINE
  5
25F
100
AcDbEntity
  8
2
370
    50
100
AcDbLine
 10
-279.272337
 20
-53.931202
 30
0.0
 11
-280.072337
 21
-53.131202
 31
0.0
  0
LINE
  5
260
100
AcDbEntity
  8
2
370
    50
100
AcDbLine
 10
-245.872337
 20
-53.931202
 30
0.0
 11
-245.072337
 21
-53.131202
 31
0.0
  0
LINE
  5
261
100
AcDbEntity
  8
2
370
    50
100
AcDbLine
 10
-279.272337
 20
-53.931202
 30
0.0
 11
-245.872337
 21
-53.931202
 31
0.0
  0
LINE
  5
262
100
AcDbEntity
  8
2
370
    50
100
AcDbLine
 10
-280.072337
 20
-53.131202
 30
0.0
 11
-245.072337
 21
-53.131202
 31
0.0
  0
ARC
  5
263
100
AcDbEntity
  8
2
370
    50
100
AcDbCircle
 10
-259.335476
 20
-56.565363
 30
0.0
 40
2.634161
100
AcDbArc
 50
62.924933
 51
117.075067
  0
LINE
  5
264
100
AcDbEntity
  8
2
370
    50
100
AcDbLine
 10
-258.136518
 20
-54.219877
 30
0.0
 11
-256.970252
 21
-54.219877
 31
0.0
  0
ARC
  5
265
100
AcDbEntity
  8
2
370
    50
100
AcDbCircle
 10
-254.572337
 20
-64.034832
 30
0.0
 40
10.10363
100
AcDbArc
 50
76.270867
 51
90.0
  0
LINE
  5
266
100
AcDbEntity
  8
2
370
    50
100
AcDbLine
 10
-251.008155
 20
-54.219877
 30
0.0
 11
-252.174421
 21
-54.219877
 31
0.0
  0
ARC
  5
267
100
AcDbEntity
  8
2
370
    50
100
AcDbCircle
 10
-249.809197
 20
-56.565363
 30
0.0
 40
2.634161
100
AcDbArc
 50
62.924933
 51
117.075067
  0
ARC
  5
268
100
AcDbEntity
  8
2
370
    50
100
AcDbCircle
 10
-254.572337
 20
-64.034832
 30
0.0
 40
10.10363
100
AcDbArc
 50
90.0
 51
103.729133
  0
LINE
  5
269
100
AcDbEntity
  8
2
370
    50
100
AcDbLine
 10
-248.572337
 20
-54.219877
 30
0.0
 11
-248.610239
 21
-54.219877
 31
0.0
  0
LINE
  5
26A
100
AcDbEntity
  8
2
370
    50
100
AcDbLine
 10
-249.072337
 20
-53.931202
 30
0.0
 11
-248.572337
 21
-54.219877
 31
0.0
  0
LINE
  5
26B
100
AcDbEntity
  8
2
370
    50
100
AcDbLine
 10
-260.534434
 20
-54.219877
 30
0.0
 11
-260.572337
 21
-54.219877
 31
0.0
  0
LINE
  5
26C
100
AcDbEntity
  8
2
370
    50
100
AcDbLine
 10
-260.572337
 20
-54.219877
 30
0.0
 11
-260.072337
 21
-53.931202
 31
0.0
  0
LINE
  5
26D
100
AcDbEntity
  8
2
370
    50
100
AcDbLine
 10
-267.008155
 20
-54.219877
 30
0.0
 11
-268.174421
 21
-54.219877
 31
0.0
  0
ARC
  5
26E
100
AcDbEntity
  8
2
370
    50
100
AcDbCircle
 10
-270.572337
 20
-64.034832
 30
0.0
 40
10.10363
100
AcDbArc
 50
76.270867
 51
90.0
  0
ARC
  5
26F
100
AcDbEntity
  8
2
370
    50
100
AcDbCircle
 10
-270.572337
 20
-64.034832
 30
0.0
 40
10.10363
100
AcDbArc
 50
90.0
 51
103.729133
  0
LINE
  5
270
100
AcDbEntity
  8
2
370
    50
100
AcDbLine
 10
-274.136518
 20
-54.219877
 30
0.0
 11
-272.970252
 21
-54.219877
 31
0.0
  0
LINE
  5
271
100
AcDbEntity
  8
2
370
    50
100
AcDbLine
 10
-276.572337
 20
-54.219877
 30
0.0
 11
-276.072337
 21
-53.931202
 31
0.0
  0
ARC
  5
272
100
AcDbEntity
  8
2
370
    50
100
AcDbCircle
 10
-275.335476
 20
-56.565363
 30
0.0
 40
2.634161
100
AcDbArc
 50
62.924933
 51
117.075067
  0
ARC
  5
273
100
AcDbEntity
  8
2
370
    50
100
AcDbCircle
 10
-265.809197
 20
-56.565363
 30
0.0
 40
2.634161
100
AcDbArc
 50
62.924933
 51
117.075067
  0
LINE
  5
274
100
AcDbEntity
  8
2
370
    50
100
AcDbLine
 10
-264.772337
 20
-53.931202
 30
0.0
 11
-276.372337
 21
-53.931202
 31
0.0
  0
LINE
  5
275
100
AcDbEntity
  8
2
370
    50
100
AcDbLine
 10
-265.072337
 20
-53.931202
 30
0.0
 11
-264.572337
 21
-54.219877
 31
0.0
  0
LINE
  5
276
100
AcDbEntity
  8
2
370
    50
100
AcDbLine
 10
-264.572337
 20
-54.219877
 30
0.0
 11
-264.610239
 21
-54.219877
 31
0.0
  0
LINE
  5
277
100
AcDbEntity
  8
2
370
    50
100
AcDbLine
 10
-276.534434
 20
-54.219877
 30
0.0
 11
-276.572337
 21
-54.219877
 31
0.0
  0
LINE
  5
278
100
AcDbEntity
  8
2
370
    50
100
AcDbLine
 10
-250.572337
 20
182.874859
 30
0.0
 11
-262.572337
 21
182.874859
 31
0.0
  0
LINE
  5
279
100
AcDbEntity
  8
2
370
    50
100
AcDbLine
 10
-250.572337
 20
170.474859
 30
0.0
 11
-262.572337
 21
170.474859
 31
0.0
  0
ARC
  5
27A
100
AcDbEntity
  8
2
370
    50
100
AcDbCircle
 10
-250.572337
 20
176.674859
 30
0.0
 40
6.2
100
AcDbArc
 50
270.0
 51
90.0
  0
LINE
  5
27B
100
AcDbEntity
  8
2
370
    50
100
AcDbLine
 10
-289.572337
 20
173.966384
 30
0.0
 11
-289.572337
 21
151.315146
 31
0.0
  0
LINE
  5
27C
100
AcDbEntity
  8
2
370
    50
100
AcDbLine
 10
-235.572337
 20
151.315146
 30
0.0
 11
-235.572337
 21
173.966466
 31
0.0
  0
ARC
  5
27D
100
AcDbEntity
  8
2
370
    50
100
AcDbCircle
 10
-262.572075
 20
65.288
 30
0.0
 40
120.0
100
AcDbArc
 50
81.109703
 51
98.890573
  0
ARC
  5
27E
100
AcDbEntity
  8
2
370
    50
100
AcDbCircle
 10
-279.572337
 20
173.966384
 30
0.0
 40
10.0
100
AcDbArc
 50
98.890573
 51
180.0
  0
ARC
  5
27F
100
AcDbEntity
  8
2
370
    50
100
AcDbCircle
 10
-245.572337
 20
173.966466
 30
0.0
 40
10.0
100
AcDbArc
 50
0.0
 51
81.109703
  0
LINE
  5
280
100
AcDbEntity
  8
2
370
    50
100
AcDbLine
 10
-235.572337
 20
150.827961
 30
0.0
 11
-235.572337
 21
141.571445
 31
0.0
  0
LINE
  5
281
100
AcDbEntity
  8
2
370
    50
100
AcDbLine
 10
-289.572337
 20
150.827961
 30
0.0
 11
-289.572337
 21
141.571445
 31
0.0
  0
LINE
  5
282
100
AcDbEntity
  8
2
370
    50
100
AcDbLine
 10
-274.572337
 20
182.874859
 30
0.0
 11
-262.572337
 21
182.874859
 31
0.0
  0
LINE
  5
283
100
AcDbEntity
  8
2
370
    50
100
AcDbLine
 10
-274.572337
 20
170.474859
 30
0.0
 11
-262.572337
 21
170.474859
 31
0.0
  0
ARC
  5
284
100
AcDbEntity
  8
2
370
    50
100
AcDbCircle
 10
-274.572337
 20
176.674859
 30
0.0
 40
6.2
100
AcDbArc
 50
90.0
 51
270.0
  0
ARC
  5
285
100
AcDbEntity
  8
2
370
    50
100
AcDbCircle
 10
-250.572384
 20
176.674859
 30
0.0
 40
6.0
100
AcDbArc
 50
270.0
 51
90.0
  0
ARC
  5
286
100
AcDbEntity
  8
2
370
    50
100
AcDbCircle
 10
-274.572384
 20
176.674859
 30
0.0
 40
6.0
100
AcDbArc
 50
90.0
 51
270.0
  0
ELLIPSE
  5
287
100
AcDbEntity
  8
2
370
    50
100
AcDbEllipse
 10
-256.250991
 20
176.674859
 30
0.0
 11
8.5099999999999998
 21
0.0
 31
0.0
210
0.0
220
0.0
230
1.0
 40
0.705053
 41
4.7123889999999999
 42
1.5707960000000001
  0
ELLIPSE
  5
288
100
AcDbEntity
  8
2
370
    50
100
AcDbEllipse
 10
-268.893776
 20
176.674859
 30
0.0
 11
-8.5099999999999998
 21
0.0
 31
0.0
210
0.0
220
0.0
230
1.0
 40
0.705053
 41
4.7123889999999999
 42
1.5707960000000001
  0
LINE
  5
289
100
AcDbEntity
  8
2
370
    50
100
AcDbLine
 10
-274.572384
 20
182.674859
 30
0.0
 11
-250.572384
 21
182.674859
 31
0.0
  0
LINE
  5
28A
100
AcDbEntity
  8
2
370
    50
100
AcDbLine
 10
-274.572384
 20
170.674859
 30
0.0
 11
-250.572384
 21
170.674859
 31
0.0
  0
ELLIPSE
  5
28B
100
AcDbEntity
  8
2
370
    50
100
AcDbEllipse
 10
-262.572337
 20
150.827961
 30
0.0
 11
27.0
 21
0.0
 31
0.0
210
0.0
220
0.0
230
1.0
 40
0.224951
 41
0.0
 42
3.1415929999999999
  0
ELLIPSE
  5
28C
100
AcDbEntity
  8
2
370
    25
100
AcDbEllipse
 10
-262.572337
 20
141.571445
 30
0.0
 11
27.0
 21
0.0
 31
0.0
210
0.0
220
0.0
230
1.0
 40
0.224951
 41
0.0
 42
3.1415929999999999
  0
LINE
  5
28D
100
AcDbEntity
  8
2
370
    50
100
AcDbLine
 10
-235.572337
 20
141.571445
 30
0.0
 11
-238.572337
 21
127.637949
 31
0.0
  0
LINE
  5
28E
100
AcDbEntity
  8
2
370
    50
100
AcDbLine
 10
-289.572337
 20
141.571445
 30
0.0
 11
-286.572337
 21
127.637949
 31
0.0
  0
ELLIPSE
  5
28F
100
AcDbEntity
  8
2
370
    50
100
AcDbEllipse
 10
-262.572337
 20
127.637949
 30
0.0
 11
24.0
 21
0.0
 31
0.0
210
0.0
220
0.0
230
1.0
 40
0.22458
 41
0.0
 42
6.2831849999999996
  0
ELLIPSE
  5
290
100
AcDbEntity
  8
2
370
    50
100
AcDbEllipse
 10
-262.572337
 20
127.637949
 30
0.0
 11
9.5999999999999996
 21
0.0
 31
0.0
210
0.0
220
0.0
230
1.0
 40
0.225353
 41
0.0
 42
6.2831849999999996
  0
LINE
  5
291
100
AcDbEntity
  8
2
370
    50
100
AcDbLine
 10
-289.272337
 20
151.730852
 30
0.0
 11
-289.272337
 21
152.218037
 31
0.0
  0
LINE
  5
292
100
AcDbEntity
  8
2
370
    50
100
AcDbLine
 10
-235.872337
 20
151.730852
 30
0.0
 11
-235.872337
 21
152.218037
 31
0.0
  0
ELLIPSE
  5
293
100
AcDbEntity
  8
2
370
    50
100
AcDbEllipse
 10
-262.572337
 20
151.315146
 30
0.0
 11
27.0
 21
0.0
 31
0.0
210
0.0
220
0.0
230
1.0
 40
0.224951
 41
0.0
 42
3.1817099999999998
  0
LINE
  5
294
100
AcDbEntity
  8
2
370
    25
  6
CENTER
100
AcDbLine
 10
88.391261
 20
-1.948548
 30
0.0
 11
88.391261
 21
-48.373345
 31
0.0
  0
LINE
  5
295
100
AcDbEntity
  8
2
370
    50
100
AcDbLine
 10
61.891261
 20
0.768798
 30
0.0
 11
61.891261
 21
-11.631202
 31
0.0
  0
LINE
  5
296
100
AcDbEntity
  8
2
370
    50
100
AcDbLine
 10
114.891261
 20
0.768798
 30
0.0
 11
114.891261
 21
-11.630774
 31
0.0
  0
LINE
  5
297
100
AcDbEntity
  8
2
370
    50
100
AcDbLine
 10
66.391261
 20
37.569226
 30
0.0
 11
66.391261
 21
37.069918
 31
0.0
  0
LINE
  5
298
100
AcDbEntity
  8
2
370
    50
100
AcDbLine
 10
110.391261
 20
37.569226
 30
0.0
 11
110.391261
 21
37.069918
 31
0.0
  0
LINE
  5
299
100
AcDbEntity
  8
2
370
    50
100
AcDbLine
 10
62.191261
 20
1.068798
 30
0.0
 11
68.891261
 21
1.068798
 31
0.0
  0
LINE
  5
29A
100
AcDbEntity
  8
2
370
    50
100
AcDbLine
 10
107.891261
 20
1.068798
 30
0.0
 11
114.591261
 21
1.068798
 31
0.0
  0
LINE
  5
29B
100
AcDbEntity
  8
2
370
    50
100
AcDbLine
 10
62.191261
 20
1.068798
 30
0.0
 11
61.891261
 21
0.768798
 31
0.0
  0
LINE
  5
29C
100
AcDbEntity
  8
2
370
    50
100
AcDbLine
 10
114.891261
 20
0.768798
 30
0.0
 11
114.591261
 21
1.068798
 31
0.0
  0
LINE
  5
29D
100
AcDbEntity
  8
2
370
    50
100
AcDbLine
 10
71.684261
 20
-53.931202
 30
0.0
 11
105.098261
 21
-53.931202
 31
0.0
  0
LINE
  5
29E
100
AcDbEntity
  8
2
370
    50
100
AcDbLine
 10
105.098261
 20
-53.931202
 30
0.0
 11
105.891261
 21
-53.138202
 31
0.0
  0
LINE
  5
29F
100
AcDbEntity
  8
2
370
    50
100
AcDbLine
 10
71.684261
 20
-53.931202
 30
0.0
 11
70.891261
 21
-53.138202
 31
0.0
  0
LINE
  5
2A0
100
AcDbEntity
  8
2
370
    50
100
AcDbLine
 10
62.191261
 20
37.569226
 30
0.0
 11
88.391261
 21
37.569226
 31
0.0
  0
LINE
  5
2A1
100
AcDbEntity
  8
2
370
    50
100
AcDbLine
 10
114.591261
 20
37.569226
 30
0.0
 11
88.391261
 21
37.569226
 31
0.0
  0
LINE
  5
2A2
100
AcDbEntity
  8
2
370
    50
100
AcDbLine
 10
114.891261
 20
37.869226
 30
0.0
 11
114.891261
 21
78.461406
 31
0.0
  0
LINE
  5
2A3
100
AcDbEntity
  8
2
370
    50
100
AcDbLine
 10
61.891261
 20
37.869226
 30
0.0
 11
61.891261
 21
78.461406
 31
0.0
  0
LINE
  5
2A4
100
AcDbEntity
  8
2
370
    50
100
AcDbLine
 10
107.891261
 20
1.069226
 30
0.0
 11
114.891261
 21
1.069226
 31
0.0
  0
LINE
  5
2A5
100
AcDbEntity
  8
2
370
    50
100
AcDbLine
 10
61.89125
 20
1.069226
 30
0.0
 11
107.891261
 21
1.069226
 31
0.0
  0
LINE
  5
2A6
100
AcDbEntity
  8
2
370
    50
100
AcDbLine
 10
112.391261
 20
80.280556
 30
0.0
 11
112.391261
 21
79.237864
 31
0.0
  0
LINE
  5
2A7
100
AcDbEntity
  8
2
370
    50
100
AcDbLine
 10
64.391261
 20
80.092442
 30
0.0
 11
64.391261
 21
79.237864
 31
0.0
  0
LINE
  5
2A8
100
AcDbEntity
  8
2
370
    50
100
AcDbLine
 10
114.891261
 20
0.769226
 30
0.0
 11
114.591261
 21
1.069226
 31
0.0
  0
LINE
  5
2A9
100
AcDbEntity
  8
2
370
    50
100
AcDbLine
 10
61.891261
 20
0.769226
 30
0.0
 11
62.191261
 21
1.069226
 31
0.0
  0
LINE
  5
2AA
100
AcDbEntity
  8
2
370
    50
100
AcDbLine
 10
114.591261
 20
37.569226
 30
0.0
 11
114.891261
 21
37.869226
 31
0.0
  0
LINE
  5
2AB
100
AcDbEntity
  8
2
370
    50
100
AcDbLine
 10
62.191261
 20
37.569226
 30
0.0
 11
61.891261
 21
37.869226
 31
0.0
  0
LINE
  5
2AC
100
AcDbEntity
  8
2
370
    50
100
AcDbLine
 10
61.891261
 20
1.069226
 30
0.0
 11
61.891261
 21
2.069226
 31
0.0
  0
LINE
  5
2AD
100
AcDbEntity
  8
2
370
    50
100
AcDbLine
 10
114.890618
 20
37.069918
 30
0.0
 11
114.890618
 21
2.069918
 31
0.0
  0
LINE
  5
2AE
100
AcDbEntity
  8
2
370
    50
100
AcDbLine
 10
114.890618
 20
2.069918
 30
0.0
 11
107.891261
 21
2.069918
 31
0.0
  0
LINE
  5
2AF
100
AcDbEntity
  8
2
370
    50
100
AcDbLine
 10
61.891261
 20
2.069918
 30
0.0
 11
68.891261
 21
2.069918
 31
0.0
  0
LINE
  5
2B0
100
AcDbEntity
  8
2
370
    50
100
AcDbLine
 10
68.891261
 20
2.069918
 30
0.0
 11
114.890618
 21
2.069918
 31
0.0
  0
LINE
  5
2B1
100
AcDbEntity
  8
2
370
    50
100
AcDbLine
 10
114.891261
 20
1.069226
 30
0.0
 11
114.891261
 21
2.069226
 31
0.0
  0
LINE
  5
2B2
100
AcDbEntity
  8
2
370
    50
100
AcDbLine
 10
61.890618
 20
37.069918
 30
0.0
 11
88.391261
 21
37.069918
 31
0.0
  0
LINE
  5
2B3
100
AcDbEntity
  8
2
370
    50
100
AcDbLine
 10
88.391261
 20
37.069918
 30
0.0
 11
114.890618
 21
37.069918
 31
0.0
  0
ARC
  5
2B4
100
AcDbEntity
  8
2
370
    50
100
AcDbCircle
 10
62.091261
 20
78.461406
 30
0.0
 40
0.2
100
AcDbArc
 50
100.0
 51
180.0
  0
LINE
  5
2B5
100
AcDbEntity
  8
2
370
    50
100
AcDbLine
 10
62.056532
 20
78.658368
 30
0.0
 11
64.225991
 21
79.040902
 31
0.0
  0
ARC
  5
2B6
100
AcDbEntity
  8
2
370
    50
100
AcDbCircle
 10
64.191261
 20
79.237864
 30
0.0
 40
0.2
100
AcDbArc
 50
280.0
 51
360.0
  0
ARC
  5
2B7
100
AcDbEntity
  8
2
370
    50
100
AcDbCircle
 10
114.691261
 20
78.461406
 30
0.0
 40
0.2
100
AcDbArc
 50
0.0
 51
80.0
  0
LINE
  5
2B8
100
AcDbEntity
  8
2
370
    50
100
AcDbLine
 10
114.725991
 20
78.658368
 30
0.0
 11
112.556532
 21
79.040902
 31
0.0
  0
ARC
  5
2B9
100
AcDbEntity
  8
2
370
    50
100
AcDbCircle
 10
112.591261
 20
79.237864
 30
0.0
 40
0.2
100
AcDbArc
 50
180.0
 51
260.0
  0
LINE
  5
2BA
100
AcDbEntity
  8
2
370
    50
100
AcDbLine
 10
62.391261
 20
-11.931202
 30
0.0
 11
62.391261
 21
-14.931202
 31
0.0
  0
LINE
  5
2BB
100
AcDbEntity
  8
2
370
    50
100
AcDbLine
 10
114.391261
 20
-11.931202
 30
0.0
 11
114.391261
 21
-14.931202
 31
0.0
  0
LINE
  5
2BC
100
AcDbEntity
  8
2
370
    50
100
AcDbLine
 10
62.191261
 20
-11.931202
 30
0.0
 11
114.590833
 21
-11.931202
 31
0.0
  0
LINE
  5
2BD
100
AcDbEntity
  8
2
370
    50
100
AcDbLine
 10
82.391261
 20
-59.542527
 30
0.0
 11
82.391261
 21
-54.219877
 31
0.0
  0
LINE
  5
2BE
100
AcDbEntity
  8
2
370
    50
100
AcDbLine
 10
94.391261
 20
-59.542527
 30
0.0
 11
94.391261
 21
-54.219877
 31
0.0
  0
LINE
  5
2BF
100
AcDbEntity
  8
2
370
    50
100
AcDbLine
 10
94.191261
 20
-59.831202
 30
0.0
 11
82.591261
 21
-59.831202
 31
0.0
  0
LINE
  5
2C0
100
AcDbEntity
  8
2
370
    50
100
AcDbLine
 10
90.789177
 20
-54.219877
 30
0.0
 11
90.789177
 21
-59.542527
 31
0.0
  0
LINE
  5
2C1
100
AcDbEntity
  8
2
370
    50
100
AcDbLine
 10
91.955443
 20
-54.219877
 30
0.0
 11
91.955443
 21
-59.542527
 31
0.0
  0
LINE
  5
2C2
100
AcDbEntity
  8
2
370
    50
100
AcDbLine
 10
94.353359
 20
-54.219877
 30
0.0
 11
94.353359
 21
-59.542527
 31
0.0
  0
LINE
  5
2C3
100
AcDbEntity
  8
2
370
    50
100
AcDbLine
 10
93.891261
 20
-59.831202
 30
0.0
 11
94.391261
 21
-59.542527
 31
0.0
  0
LINE
  5
2C4
100
AcDbEntity
  8
2
370
    50
100
AcDbLine
 10
91.955443
 20
-59.542527
 30
0.0
 11
90.789177
 21
-59.542527
 31
0.0
  0
LINE
  5
2C5
100
AcDbEntity
  8
2
370
    50
100
AcDbLine
 10
82.391261
 20
-59.542527
 30
0.0
 11
82.891261
 21
-59.831202
 31
0.0
  0
LINE
  5
2C6
100
AcDbEntity
  8
2
370
    50
100
AcDbLine
 10
82.391261
 20
-54.219877
 30
0.0
 11
82.891261
 21
-53.931202
 31
0.0
  0
ARC
  5
2C7
100
AcDbEntity
  8
2
370
    50
100
AcDbCircle
 10
88.391261
 20
-49.727573
 30
0.0
 40
10.10363
100
AcDbArc
 50
270.0
 51
283.729133
  0
ARC
  5
2C8
100
AcDbEntity
  8
2
370
    50
100
AcDbCircle
 10
88.391261
 20
-64.034832
 30
0.0
 40
10.10363
100
AcDbArc
 50
76.270867
 51
90.0
  0
LINE
  5
2C9
100
AcDbEntity
  8
2
370
    50
100
AcDbLine
 10
91.955443
 20
-54.219877
 30
0.0
 11
90.789177
 21
-54.219877
 31
0.0
  0
LINE
  5
2CA
100
AcDbEntity
  8
2
370
    50
100
AcDbLine
 10
94.391261
 20
-59.542527
 30
0.0
 11
94.353359
 21
-59.542527
 31
0.0
  0
ARC
  5
2CB
100
AcDbEntity
  8
2
370
    50
100
AcDbCircle
 10
93.154401
 20
-57.197042
 30
0.0
 40
2.634161
100
AcDbArc
 50
242.924933
 51
297.075067
  0
ARC
  5
2CC
100
AcDbEntity
  8
2
370
    50
100
AcDbCircle
 10
93.154401
 20
-56.565363
 30
0.0
 40
2.634161
100
AcDbArc
 50
62.924933
 51
117.075067
  0
LINE
  5
2CD
100
AcDbEntity
  8
2
370
    50
100
AcDbLine
 10
93.891261
 20
-53.931202
 30
0.0
 11
94.391261
 21
-54.219877
 31
0.0
  0
LINE
  5
2CE
100
AcDbEntity
  8
2
370
    50
100
AcDbLine
 10
81.891261
 20
-76.831202
 30
0.0
 11
94.891261
 21
-76.831202
 31
0.0
  0
LINE
  5
2CF
100
AcDbEntity
  8
2
370
    50
100
AcDbLine
 10
81.891261
 20
-76.831202
 30
0.0
 11
81.891261
 21
-64.331202
 31
0.0
  0
LINE
  5
2D0
100
AcDbEntity
  8
2
370
    50
100
AcDbLine
 10
94.891261
 20
-76.831202
 30
0.0
 11
94.891261
 21
-64.331202
 31
0.0
  0
LINE
  5
2D1
100
AcDbEntity
  8
2
370
    50
100
AcDbLine
 10
84.516931
 20
-62.831202
 30
0.0
 11
84.516931
 21
-60.331202
 31
0.0
  0
LINE
  5
2D2
100
AcDbEntity
  8
2
370
    50
100
AcDbLine
 10
83.809824
 20
-62.831202
 30
0.0
 11
83.809824
 21
-60.331202
 31
0.0
  0
LINE
  5
2D3
100
AcDbEntity
  8
2
370
    50
100
AcDbLine
 10
82.412131
 20
-62.831202
 30
0.0
 11
82.412131
 21
-60.331202
 31
0.0
  0
LINE
  5
2D4
100
AcDbEntity
  8
2
370
    50
100
AcDbLine
 10
82.391261
 20
-62.831202
 30
0.0
 11
82.391261
 21
-60.031202
 31
0.0
  0
LINE
  5
2D5
100
AcDbEntity
  8
2
370
    50
100
AcDbLine
 10
87.891261
 20
-62.831202
 30
0.0
 11
87.891261
 21
-60.331202
 31
0.0
  0
LINE
  5
2D6
100
AcDbEntity
  8
2
370
    50
100
AcDbLine
 10
88.891261
 20
-62.831202
 30
0.0
 11
88.891261
 21
-60.331202
 31
0.0
  0
LINE
  5
2D7
100
AcDbEntity
  8
2
370
    50
100
AcDbLine
 10
92.265592
 20
-62.831202
 30
0.0
 11
92.265592
 21
-60.331202
 31
0.0
  0
LINE
  5
2D8
100
AcDbEntity
  8
2
370
    50
100
AcDbLine
 10
92.972698
 20
-62.831202
 30
0.0
 11
92.972698
 21
-60.331202
 31
0.0
  0
LINE
  5
2D9
100
AcDbEntity
  8
2
370
    50
100
AcDbLine
 10
94.391261
 20
-62.831202
 30
0.0
 11
94.391261
 21
-60.031202
 31
0.0
  0
LINE
  5
2DA
100
AcDbEntity
  8
2
370
    50
100
AcDbLine
 10
94.370392
 20
-62.831202
 30
0.0
 11
94.370392
 21
-60.331202
 31
0.0
  0
LINE
  5
2DB
100
AcDbEntity
  8
2
370
    50
100
AcDbLine
 10
83.809824
 20
-60.331202
 30
0.0
 11
82.391261
 21
-60.331202
 31
0.0
  0
LINE
  5
2DC
100
AcDbEntity
  8
2
370
    50
100
AcDbLine
 10
87.891261
 20
-60.331202
 30
0.0
 11
84.516931
 21
-60.331202
 31
0.0
  0
LINE
  5
2DD
100
AcDbEntity
  8
2
370
    50
100
AcDbLine
 10
94.391261
 20
-60.331202
 30
0.0
 11
92.972698
 21
-60.331202
 31
0.0
  0
LINE
  5
2DE
100
AcDbEntity
  8
2
370
    50
100
AcDbLine
 10
92.265592
 20
-60.331202
 30
0.0
 11
88.891261
 21
-60.331202
 31
0.0
  0
LINE
  5
2DF
100
AcDbEntity
  8
2
370
    50
100
AcDbLine
 10
83.809824
 20
-62.831202
 30
0.0
 11
82.391261
 21
-62.831202
 31
0.0
  0
LINE
  5
2E0
100
AcDbEntity
  8
2
370
    50
100
AcDbLine
 10
87.891261
 20
-62.831202
 30
0.0
 11
84.516931
 21
-62.831202
 31
0.0
  0
LINE
  5
2E1
100
AcDbEntity
  8
2
370
    50
100
AcDbLine
 10
94.391261
 20
-62.831202
 30
0.0
 11
92.972698
 21
-62.831202
 31
0.0
  0
LINE
  5
2E2
100
AcDbEntity
  8
2
370
    50
100
AcDbLine
 10
92.265592
 20
-62.831202
 30
0.0
 11
88.891261
 21
-62.831202
 31
0.0
  0
ARC
  5
2E3
100
AcDbEntity
  8
2
370
    50
100
AcDbCircle
 10
94.191261
 20
-60.031202
 30
0.0
 40
0.2
100
AcDbArc
 50
0.0
 51
90.0
  0
ARC
  5
2E4
100
AcDbEntity
  8
2
370
    50
100
AcDbCircle
 10
82.591261
 20
-60.031202
 30
0.0
 40
0.2
100
AcDbArc
 50
90.0
 51
180.0
  0
ARC
  5
2E5
100
AcDbEntity
  8
2
370
    50
100
AcDbCircle
 10
84.391261
 20
-64.331202
 30
0.0
 40
2.5
100
AcDbArc
 50
143.130102
 51
180.0
  0
ARC
  5
2E6
100
AcDbEntity
  8
2
370
    50
100
AcDbCircle
 10
92.391261
 20
-64.331202
 30
0.0
 40
2.5
100
AcDbArc
 50
0.0
 51
36.869898
  0
LINE
  5
2E7
100
AcDbEntity
  8
2
370
    25
100
AcDbLine
 10
81.910521
 20
-76.831202
 30
0.0
 11
81.910521
 21
-64.331202
 31
0.0
  0
LINE
  5
2E8
100
AcDbEntity
  8
2
370
    25
100
AcDbLine
 10
83.455132
 20
-76.831202
 30
0.0
 11
83.455132
 21
-64.331202
 31
0.0
  0
LINE
  5
2E9
100
AcDbEntity
  8
2
370
    25
100
AcDbLine
 10
84.162239
 20
-76.831202
 30
0.0
 11
84.162239
 21
-64.331202
 31
0.0
  0
LINE
  5
2EA
100
AcDbEntity
  8
2
370
    25
100
AcDbLine
 10
87.891261
 20
-76.831202
 30
0.0
 11
87.891261
 21
-64.331202
 31
0.0
  0
LINE
  5
2EB
100
AcDbEntity
  8
2
370
    25
100
AcDbLine
 10
88.891261
 20
-76.831202
 30
0.0
 11
88.891261
 21
-64.331202
 31
0.0
  0
LINE
  5
2EC
100
AcDbEntity
  8
2
370
    25
100
AcDbLine
 10
92.620284
 20
-76.831202
 30
0.0
 11
92.620284
 21
-64.331202
 31
0.0
  0
LINE
  5
2ED
100
AcDbEntity
  8
2
370
    25
100
AcDbLine
 10
93.32739
 20
-76.831202
 30
0.0
 11
93.32739
 21
-64.331202
 31
0.0
  0
LINE
  5
2EE
100
AcDbEntity
  8
2
370
    25
100
AcDbLine
 10
94.872002
 20
-76.831202
 30
0.0
 11
94.872002
 21
-64.331202
 31
0.0
  0
ARC
  5
2EF
100
AcDbEntity
  8
2
370
    50
100
AcDbCircle
 10
88.391261
 20
-49.727573
 30
0.0
 40
10.10363
100
AcDbArc
 50
256.270867
 51
270.0
  0
LINE
  5
2F0
100
AcDbEntity
  8
2
370
    50
100
AcDbLine
 10
84.827079
 20
-59.542527
 30
0.0
 11
85.993345
 21
-59.542527
 31
0.0
  0
LINE
  5
2F1
100
AcDbEntity
  8
2
370
    50
100
AcDbLine
 10
85.993346
 20
-54.219877
 30
0.0
 11
85.993345
 21
-59.542527
 31
0.0
  0
LINE
  5
2F2
100
AcDbEntity
  8
2
370
    50
100
AcDbLine
 10
84.827079
 20
-54.219877
 30
0.0
 11
84.827079
 21
-59.542527
 31
0.0
  0
ARC
  5
2F3
100
AcDbEntity
  8
2
370
    50
100
AcDbCircle
 10
83.628122
 20
-57.197042
 30
0.0
 40
2.634161
100
AcDbArc
 50
242.924933
 51
297.075067
  0
LINE
  5
2F4
100
AcDbEntity
  8
2
370
    50
100
AcDbLine
 10
82.641261
 20
-98.831202
 30
0.0
 11
82.641261
 21
-76.831202
 31
0.0
  0
LINE
  5
2F5
100
AcDbEntity
  8
2
370
    50
100
AcDbLine
 10
94.141261
 20
-98.831202
 30
0.0
 11
94.141261
 21
-76.831202
 31
0.0
  0
LINE
  5
2F6
100
AcDbEntity
  8
2
370
    50
100
AcDbLine
 10
82.429164
 20
-57.12824
 30
0.0
 11
82.429164
 21
-59.542527
 31
0.0
  0
LINE
  5
2F7
100
AcDbEntity
  8
2
370
    50
100
AcDbLine
 10
82.429164
 20
-59.542527
 30
0.0
 11
82.391261
 21
-59.542527
 31
0.0
  0
ARC
  5
2F8
100
AcDbEntity
  8
2
370
    50
100
AcDbCircle
 10
85.516261
 20
-94.997869
 30
0.0
 40
4.791667
100
AcDbArc
 50
233.130102
 51
306.869898
  0
ARC
  5
2F9
100
AcDbEntity
  8
2
370
    50
100
AcDbCircle
 10
91.266261
 20
-102.664536
 30
0.0
 40
4.791667
100
AcDbArc
 50
53.130102
 51
126.869898
  0
ARC
  5
2FA
100
AcDbEntity
  8
2
370
    50
100
AcDbCircle
 10
91.266261
 20
-94.997869
 30
0.0
 40
4.791667
100
AcDbArc
 50
233.130102
 51
306.869898
  0
LINE
  5
2FB
100
AcDbEntity
  8
2
370
    50
100
AcDbLine
 10
81.891261
 20
-121.878744
 30
0.0
 11
94.891261
 21
-121.878744
 31
0.0
  0
LINE
  5
2FC
100
AcDbEntity
  8
2
370
    50
100
AcDbLine
 10
82.641261
 20
-121.878744
 30
0.0
 11
82.641261
 21
-101.979262
 31
0.0
  0
LINE
  5
2FD
100
AcDbEntity
  8
2
370
    50
100
AcDbLine
 10
94.141261
 20
-121.878744
 30
0.0
 11
94.141261
 21
-101.831202
 31
0.0
  0
LINE
  5
2FE
100
AcDbEntity
  8
2
370
    25
100
AcDbLine
 10
92.457125
 20
-113.195178
 30
0.0
 11
84.325397
 21
-105.063451
 31
0.0
  0
LINE
  5
2FF
100
AcDbEntity
  8
2
370
    25
100
AcDbLine
 10
92.457125
 20
-105.063451
 30
0.0
 11
84.325397
 21
-113.195178
 31
0.0
  0
LINE
  5
300
100
AcDbEntity
  8
2
370
    25
100
AcDbLine
 10
91.688059
 20
-113.840326
 30
0.0
 11
83.68025
 21
-105.832517
 31
0.0
  0
LINE
  5
301
100
AcDbEntity
  8
2
370
    25
100
AcDbLine
 10
90.789035
 20
-114.355516
 30
0.0
 11
83.16506
 21
-106.73154
 31
0.0
  0
LINE
  5
302
100
AcDbEntity
  8
2
370
    25
100
AcDbLine
 10
89.73855
 20
-114.719244
 30
0.0
 11
82.801332
 21
-107.782026
 31
0.0
  0
LINE
  5
303
100
AcDbEntity
  8
2
370
    25
100
AcDbLine
 10
88.483664
 20
-114.878572
 30
0.0
 11
82.642004
 21
-109.036911
 31
0.0
  0
LINE
  5
304
100
AcDbEntity
  8
2
370
    25
100
AcDbLine
 10
86.863525
 20
-114.672646
 30
0.0
 11
82.84793
 21
-110.657051
 31
0.0
  0
LINE
  5
305
100
AcDbEntity
  8
2
370
    25
100
AcDbLine
 10
93.102272
 20
-112.426112
 30
0.0
 11
85.094464
 21
-104.418303
 31
0.0
  0
LINE
  5
306
100
AcDbEntity
  8
2
370
    25
100
AcDbLine
 10
93.617462
 20
-111.527089
 30
0.0
 11
85.993487
 21
-103.903113
 31
0.0
  0
LINE
  5
307
100
AcDbEntity
  8
2
370
    25
100
AcDbLine
 10
93.981191
 20
-110.476603
 30
0.0
 11
87.043972
 21
-103.539385
 31
0.0
  0
LINE
  5
308
100
AcDbEntity
  8
2
370
    25
100
AcDbLine
 10
94.140519
 20
-109.221718
 30
0.0
 11
88.298858
 21
-103.380057
 31
0.0
  0
LINE
  5
309
100
AcDbEntity
  8
2
370
    25
100
AcDbLine
 10
93.934592
 20
-107.601578
 30
0.0
 11
89.918998
 21
-103.585983
 31
0.0
  0
LINE
  5
30A
100
AcDbEntity
  8
2
370
    25
100
AcDbLine
 10
91.688059
 20
-104.418303
 30
0.0
 11
83.68025
 21
-112.426112
 31
0.0
  0
LINE
  5
30B
100
AcDbEntity
  8
2
370
    25
100
AcDbLine
 10
90.789035
 20
-103.903113
 30
0.0
 11
83.16506
 21
-111.527089
 31
0.0
  0
LINE
  5
30C
100
AcDbEntity
  8
2
370
    25
100
AcDbLine
 10
89.73855
 20
-103.539385
 30
0.0
 11
82.801332
 21
-110.476603
 31
0.0
  0
LINE
  5
30D
100
AcDbEntity
  8
2
370
    25
100
AcDbLine
 10
88.483664
 20
-103.380057
 30
0.0
 11
82.642004
 21
-109.221718
 31
0.0
  0
LINE
  5
30E
100
AcDbEntity
  8
2
370
    25
100
AcDbLine
 10
86.863525
 20
-103.585983
 30
0.0
 11
82.84793
 21
-107.601578
 31
0.0
  0
LINE
  5
30F
100
AcDbEntity
  8
2
370
    25
100
AcDbLine
 10
93.102272
 20
-105.832517
 30
0.0
 11
85.094464
 21
-113.840326
 31
0.0
  0
LINE
  5
310
100
AcDbEntity
  8
2
370
    25
100
AcDbLine
 10
93.617462
 20
-106.73154
 30
0.0
 11
85.993487
 21
-114.355516
 31
0.0
  0
LINE
  5
311
100
AcDbEntity
  8
2
370
    25
100
AcDbLine
 10
93.981191
 20
-107.782026
 30
0.0
 11
87.043972
 21
-114.719244
 31
0.0
  0
LINE
  5
312
100
AcDbEntity
  8
2
370
    25
100
AcDbLine
 10
94.140519
 20
-109.036911
 30
0.0
 11
88.298858
 21
-114.878572
 31
0.0
  0
LINE
  5
313
100
AcDbEntity
  8
2
370
    25
100
AcDbLine
 10
93.934592
 20
-110.657051
 30
0.0
 11
89.918998
 21
-114.672646
 31
0.0
  0
ARC
  5
314
100
AcDbEntity
  8
2
370
    50
100
AcDbCircle
 10
85.516261
 20
-98.060802
 30
0.0
 40
4.791667
100
AcDbArc
 50
233.130102
 51
306.869898
  0
ARC
  5
315
100
AcDbEntity
  8
2
370
    50
100
AcDbCircle
 10
91.266261
 20
-105.727469
 30
0.0
 40
4.791667
100
AcDbArc
 50
53.130102
 51
126.869898
  0
ARC
  5
316
100
AcDbEntity
  8
2
370
    50
100
AcDbCircle
 10
85.516261
 20
-105.727469
 30
0.0
 40
4.791667
100
AcDbArc
 50
53.130102
 51
126.869898
  0
ARC
  5
317
100
AcDbEntity
  8
2
370
    50
100
AcDbCircle
 10
64.191261
 20
79.237864
 30
0.0
 40
0.2
100
AcDbArc
 50
280.0
 51
360.0
  0
ARC
  5
318
100
AcDbEntity
  8
2
370
    50
100
AcDbCircle
 10
62.205182
 20
80.392442
 30
0.0
 40
0.3
100
AcDbArc
 50
177.420853
 51
270.0
  0
LINE
  5
319
100
AcDbEntity
  8
2
370
    50
100
AcDbLine
 10
61.891261
 20
78.461406
 30
0.0
 11
114.891261
 21
78.461406
 31
0.0
  0
LINE
  5
31A
100
AcDbEntity
  8
2
370
    25
100
AcDbLine
 10
66.048476
 20
79.040902
 30
0.0
 11
110.782309
 21
79.040902
 31
0.0
  0
LINE
  5
31B
100
AcDbEntity
  8
2
370
    50
100
AcDbLine
 10
112.391261
 20
85.668798
 30
0.0
 11
112.391261
 21
79.237864
 31
0.0
  0
ARC
  5
31C
100
AcDbEntity
  8
2
370
    50
100
AcDbCircle
 10
88.391261
 20
85.668798
 30
0.0
 40
24.0
100
AcDbArc
 50
0.0
 51
10.309863
  0
LINE
  5
31D
100
AcDbEntity
  8
2
370
    50
100
AcDbLine
 10
-141.611524
 20
145.137435
 30
0.0
 11
-194.763411
 21
157.408515
 31
0.0
  0
LINE
  5
31E
100
AcDbEntity
  8
2
370
    50
100
AcDbLine
 10
-188.91183
 20
182.433587
 30
0.0
 11
-183.62764
 21
181.213636
 31
0.0
  0
ELLIPSE
  5
31F
100
AcDbEntity
  8
2
370
    50
100
AcDbEllipse
 10
-186.107945
 20
175.62928
 30
0.0
 11
1.3946970000000001
 21
6.0410940000000002
 31
0.0
210
0.0
220
0.0
230
1.0
 40
0.741452
 41
3.3962810000000001
 42
6.0279699999999998
  0
LINE
  5
320
100
AcDbEntity
  8
2
370
    50
100
AcDbLine
 10
-193.606901
 20
171.202726
 30
0.0
 11
-186.329151
 21
169.522525
 31
0.0
  0
LINE
  5
321
100
AcDbEntity
  8
2
370
    25
100
AcDbLine
 10
-137.868665
 20
164.805264
 30
0.0
 11
-140.62325
 21
149.50062
 31
0.0
  0
LINE
  5
322
100
AcDbEntity
  8
2
370
    50
100
AcDbLine
 10
-194.608384
 20
156.859573
 30
0.0
 11
-141.992401
 21
144.712216
 31
0.0
  0
LINE
  5
323
100
AcDbEntity
  8
2
370
    25
100
AcDbLine
 10
-196.745426
 20
147.603059
 30
0.0
 11
-144.129429
 21
135.455698
 31
0.0
  0
LINE
  5
324
100
AcDbEntity
  8
2
370
    25
  6
CENTER
100
AcDbLine
 10
-172.667852
 20
131.866377
 30
0.0
 11
-176.357049
 21
115.88671
 31
0.0
  0
ARC
  5
325
100
AcDbEntity
  8
2
370
    50
100
AcDbCircle
 10
-272.648504
 20
175.433678
 30
0.0
 40
18.0
100
AcDbArc
 50
101.173022
 51
183.96769
  0
ARC
  5
326
100
AcDbEntity
  8
2
370
    50
100
AcDbCircle
 10
-252.496169
 20
175.433678
 30
0.0
 40
18.0
100
AcDbArc
 50
356.03231
 51
78.826978
  0
ARC
  5
327
100
AcDbEntity
  8
2
370
    50
100
AcDbCircle
 10
-262.572337
 20
124.41926
 30
0.0
 40
70.0
100
AcDbArc
 50
78.826978
 51
101.173022
  0
ARC
  5
328
100
AcDbEntity
  8
2
370
    25
100
AcDbCircle
 10
-272.339488
 20
170.978441
 30
0.0
 40
18.0
100
AcDbArc
 50
100.826163
 51
150.335198
  0
ARC
  5
329
100
AcDbEntity
  8
2
370
    25
100
AcDbCircle
 10
-262.572337
 20
119.903958
 30
0.0
 40
70.0
100
AcDbArc
 50
78.934981
 51
100.826163
  0
ARC
  5
32A
100
AcDbEntity
  8
2
370
    25
100
AcDbCircle
 10
-252.805185
 20
170.978441
 30
0.0
 40
18.0
100
AcDbArc
 50
29.664802
 51
79.173837
  0
ARC
  5
32B
100
AcDbEntity
  8
2
370
    25
100
AcDbCircle
 10
-247.777962
 20
182.587793
 30
0.0
 40
2.931315
100
AcDbArc
 50
29.41548
 51
77.256579
  0
ARC
  5
32C
100
AcDbEntity
  8
2
370
    25
100
AcDbCircle
 10
-277.366712
 20
182.587793
 30
0.0
 40
2.931315
100
AcDbArc
 50
102.743421
 51
150.586387
  0
ARC
  5
32D
100
AcDbEntity
  8
2
370
    50
100
AcDbCircle
 10
1259.882266
 20
44.94365
 30
0.0
 40
1500.0
100
AcDbArc
 50
175.057093
 51
175.53843
  0
ARC
  5
32E
100
AcDbEntity
  8
2
370
    50
100
AcDbCircle
 10
-1785.026939
 20
44.94365
 30
0.0
 40
1500.0
100
AcDbArc
 50
4.46157
 51
4.942907
  0
LINE
  5
32F
100
AcDbEntity
  8
2
370
    50
100
AcDbLine
 10
-287.583118
 20
112.790222
 30
0.0
 11
-289.072337
 21
82.291687
 31
0.0
  0
ARC
  5
330
100
AcDbEntity
  8
2
370
    50
100
AcDbCircle
 10
-487.345114
 20
122.544438
 30
0.0
 40
200.0
100
AcDbArc
 50
357.204514
 51
2.808057
  0
ARC
  5
331
100
AcDbEntity
  8
2
370
    50
100
AcDbCircle
 10
-37.799559
 20
122.544438
 30
0.0
 40
200.0
100
AcDbArc
 50
177.191943
 51
182.795486
  0
LINE
  5
332
100
AcDbEntity
  8
2
370
    50
100
AcDbLine
 10
-236.072337
 20
82.291687
 30
0.0
 11
-237.561555
 21
112.790222
 31
0.0
  0
ARC
  5
333
100
AcDbEntity
  8
2
370
    25
100
AcDbCircle
 10
-262.572337
 20
117.171167
 30
0.0
 40
70.0
100
AcDbArc
 50
77.256579
 51
102.743421
  0
LINE
  5
334
100
AcDbEntity
  8
2
370
    50
100
AcDbLine
 10
62.391261
 20
-14.930774
 30
0.0
 11
114.391261
 21
-14.930774
 31
0.0
  0
LINE
  5
335
100
AcDbEntity
  8
2
370
    50
100
AcDbLine
 10
114.591261
 20
-11.930774
 30
0.0
 11
114.891261
 21
-11.630774
 31
0.0
  0
LINE
  5
336
100
AcDbEntity
  8
2
370
    50
100
AcDbLine
 10
62.191261
 20
-11.931202
 30
0.0
 11
61.891261
 21
-11.631202
 31
0.0
  0
LINE
  5
337
100
AcDbEntity
  8
2
370
    50
100
AcDbLine
 10
70.891261
 20
-53.130774
 30
0.0
 11
70.891261
 21
-43.380054
 31
0.0
  0
LINE
  5
338
100
AcDbEntity
  8
2
370
    50
100
AcDbLine
 10
71.691261
 20
-27.930774
 30
0.0
 11
71.691261
 21
-26.379906
 31
0.0
  0
LINE
  5
339
100
AcDbEntity
  8
2
370
    25
100
AcDbLine
 10
71.691261
 20
-16.530774
 30
0.0
 11
71.691261
 21
-27.930774
 31
0.0
  0
LINE
  5
33A
100
AcDbEntity
  8
2
370
    25
100
AcDbLine
 10
71.691261
 20
-43.380054
 30
0.0
 11
71.691261
 21
-53.930774
 31
0.0
  0
LINE
  5
33B
100
AcDbEntity
  8
2
370
    50
100
AcDbLine
 10
105.891261
 20
-53.130774
 30
0.0
 11
105.891261
 21
-43.380054
 31
0.0
  0
LINE
  5
33C
100
AcDbEntity
  8
2
370
    50
100
AcDbLine
 10
115.979261
 20
-29.586054
 30
0.0
 11
115.979261
 21
-27.930774
 31
0.0
  0
LINE
  5
33D
100
AcDbEntity
  8
2
370
    50
100
AcDbLine
 10
60.803261
 20
-29.586054
 30
0.0
 11
60.803261
 21
-27.930774
 31
0.0
  0
LINE
  5
33E
100
AcDbEntity
  8
2
370
    50
100
AcDbLine
 10
115.979261
 20
-29.586054
 30
0.0
 11
60.803261
 21
-29.586054
 31
0.0
  0
LINE
  5
33F
100
AcDbEntity
  8
2
370
    50
100
AcDbLine
 10
115.979261
 20
-29.586054
 30
0.0
 11
106.047581
 21
-29.586054
 31
0.0
  0
LINE
  5
340
100
AcDbEntity
  8
2
370
    50
100
AcDbLine
 10
60.803261
 20
-27.930774
 30
0.0
 11
115.979261
 21
-27.930774
 31
0.0
  0
LINE
  5
341
100
AcDbEntity
  8
2
370
    50
100
AcDbLine
 10
59.699741
 20
-42.175108
 30
0.0
 11
59.699741
 21
-30.137814
 31
0.0
  0
LINE
  5
342
100
AcDbEntity
  8
2
370
    50
100
AcDbLine
 10
117.082781
 20
-30.137814
 30
0.0
 11
59.699741
 21
-30.137814
 31
0.0
  0
LINE
  5
343
100
AcDbEntity
  8
2
370
    50
100
AcDbLine
 10
63.010301
 20
-43.380054
 30
0.0
 11
59.699741
 21
-42.175108
 31
0.0
  0
ARC
  5
344
100
AcDbEntity
  8
2
370
    50
100
AcDbCircle
 10
66.40009
 20
-24.148238
 30
0.0
 40
19.231816
100
AcDbArc
 50
249.610566
 51
290.389434
  0
LINE
  5
345
100
AcDbEntity
  8
2
370
    50
100
AcDbLine
 10
73.10044
 20
-32.344854
 30
0.0
 11
59.699741
 21
-32.344854
 31
0.0
  0
LINE
  5
346
100
AcDbEntity
  8
2
370
    50
100
AcDbLine
 10
60.803261
 20
-30.137814
 30
0.0
 11
60.803261
 21
-27.930774
 31
0.0
  0
LINE
  5
347
100
AcDbEntity
  8
2
370
    50
100
AcDbLine
 10
113.772221
 20
-43.380054
 30
0.0
 11
63.010301
 21
-43.380054
 31
0.0
  0
LINE
  5
348
100
AcDbEntity
  8
2
370
    50
100
AcDbLine
 10
75.011792
 20
-42.175108
 30
0.0
 11
75.011792
 21
-32.344854
 31
0.0
  0
LINE
  5
349
100
AcDbEntity
  8
2
370
    50
100
AcDbLine
 10
73.10044
 20
-42.175108
 30
0.0
 11
73.10044
 21
-32.344854
 31
0.0
  0
LINE
  5
34A
100
AcDbEntity
  8
2
370
    50
100
AcDbLine
 10
101.77073
 20
-42.175108
 30
0.0
 11
101.77073
 21
-32.344854
 31
0.0
  0
LINE
  5
34B
100
AcDbEntity
  8
2
370
    50
100
AcDbLine
 10
103.682083
 20
-42.175108
 30
0.0
 11
103.682083
 21
-32.344854
 31
0.0
  0
LINE
  5
34C
100
AcDbEntity
  8
2
370
    50
100
AcDbLine
 10
73.10044
 20
-32.344854
 30
0.0
 11
59.699741
 21
-32.344854
 31
0.0
  0
LINE
  5
34D
100
AcDbEntity
  8
2
370
    50
100
AcDbLine
 10
117.082781
 20
-32.344854
 30
0.0
 11
103.682083
 21
-32.344854
 31
0.0
  0
LINE
  5
34E
100
AcDbEntity
  8
2
370
    50
100
AcDbLine
 10
101.77073
 20
-32.344854
 30
0.0
 11
75.011792
 21
-32.344854
 31
0.0
  0
LINE
  5
34F
100
AcDbEntity
  8
2
370
    50
100
AcDbLine
 10
75.011792
 20
-42.175108
 30
0.0
 11
73.10044
 21
-42.175108
 31
0.0
  0
ARC
  5
350
100
AcDbEntity
  8
2
370
    50
100
AcDbCircle
 10
88.391261
 20
31.503878
 30
0.0
 40
74.883932
100
AcDbArc
 50
259.707733
 51
280.292267
  0
LINE
  5
351
100
AcDbEntity
  8
2
370
    50
100
AcDbLine
 10
103.682083
 20
-42.175108
 30
0.0
 11
101.77073
 21
-42.175108
 31
0.0
  0
ARC
  5
352
100
AcDbEntity
  8
2
370
    50
100
AcDbCircle
 10
110.382432
 20
-24.148238
 30
0.0
 40
19.231816
100
AcDbArc
 50
249.610566
 51
290.389434
  0
LINE
  5
353
100
AcDbEntity
  8
2
370
    50
100
AcDbLine
 10
113.772221
 20
-43.380054
 30
0.0
 11
117.082781
 21
-42.175108
 31
0.0
  0
LINE
  5
354
100
AcDbEntity
  8
2
370
    50
100
AcDbLine
 10
117.082781
 20
-42.175108
 30
0.0
 11
117.082781
 21
-30.137814
 31
0.0
  0
LINE
  5
355
100
AcDbEntity
  8
2
370
    50
100
AcDbLine
 10
115.979261
 20
-30.137814
 30
0.0
 11
115.979261
 21
-27.930774
 31
0.0
  0
LINE
  5
356
100
AcDbEntity
  8
2
370
    50
100
AcDbLine
 10
70.891261
 20
-53.130774
 30
0.0
 11
70.891261
 21
-43.380054
 31
0.0
  0
LINE
  5
357
100
AcDbEntity
  8
2
370
    50
100
AcDbLine
 10
71.691261
 20
-27.930774
 30
0.0
 11
71.691261
 21
-26.379906
 31
0.0
  0
LINE
  5
358
100
AcDbEntity
  8
2
370
    25
100
AcDbLine
 10
71.691261
 20
-16.530774
 30
0.0
 11
71.691261
 21
-27.930774
 31
0.0
  0
LINE
  5
359
100
AcDbEntity
  8
2
370
    25
100
AcDbLine
 10
71.691261
 20
-43.380054
 30
0.0
 11
71.691261
 21
-53.930774
 31
0.0
  0
LINE
  5
35A
100
AcDbEntity
  8
2
370
    50
100
AcDbLine
 10
105.891261
 20
-53.130774
 30
0.0
 11
105.891261
 21
-43.380054
 31
0.0
  0
LINE
  5
35B
100
AcDbEntity
  8
2
370
    50
100
AcDbLine
 10
70.891261
 20
-53.138202
 30
0.0
 11
70.891261
 21
-43.380054
 31
0.0
  0
LINE
  5
35C
100
AcDbEntity
  8
2
370
    50
100
AcDbLine
 10
70.891261
 20
-27.930774
 30
0.0
 11
70.891261
 21
-14.931202
 31
0.0
  0
LINE
  5
35D
100
AcDbEntity
  8
2
370
    25
100
AcDbLine
 10
71.684261
 20
-53.931202
 30
0.0
 11
71.684261
 21
-43.380054
 31
0.0
  0
LINE
  5
35E
100
AcDbEntity
  8
2
370
    25
100
AcDbLine
 10
71.684261
 20
-27.930774
 30
0.0
 11
71.684261
 21
-14.931202
 31
0.0
  0
LINE
  5
35F
100
AcDbEntity
  8
2
370
    25
100
AcDbLine
 10
105.098261
 20
-53.931202
 30
0.0
 11
105.098261
 21
-43.380054
 31
0.0
  0
LINE
  5
360
100
AcDbEntity
  8
2
370
    25
100
AcDbLine
 10
105.098261
 20
-27.930774
 30
0.0
 11
105.098261
 21
-14.931202
 31
0.0
  0
LINE
  5
361
100
AcDbEntity
  8
2
370
    50
100
AcDbLine
 10
105.891261
 20
-53.138202
 30
0.0
 11
105.891261
 21
-43.380054
 31
0.0
  0
LINE
  5
362
100
AcDbEntity
  8
2
370
    50
100
AcDbLine
 10
105.891261
 20
-27.930774
 30
0.0
 11
105.891261
 21
-14.931202
 31
0.0
  0
LINE
  5
363
100
AcDbEntity
  8
2
370
    50
100
AcDbLine
 10
81.89126
 20
-121.879201
 30
0.0
 11
94.89126
 21
-121.879201
 31
0.0
  0
LINE
  5
364
100
AcDbEntity
  8
2
370
    50
100
AcDbLine
 10
83.809823
 20
-135.879201
 30
0.0
 11
82.39126
 21
-135.879201
 31
0.0
  0
LINE
  5
365
100
AcDbEntity
  8
2
370
    50
100
AcDbLine
 10
83.809823
 20
-138.379201
 30
0.0
 11
82.39126
 21
-138.379201
 31
0.0
  0
ARC
  5
366
100
AcDbEntity
  8
2
370
    50
100
AcDbCircle
 10
82.59126
 20
-138.679201
 30
0.0
 40
0.2
100
AcDbArc
 50
180.0
 51
270.0
  0
LINE
  5
367
100
AcDbEntity
  8
2
370
    50
100
AcDbLine
 10
87.89126
 20
-138.379201
 30
0.0
 11
84.51693
 21
-138.379201
 31
0.0
  0
LINE
  5
368
100
AcDbEntity
  8
2
370
    50
100
AcDbLine
 10
87.89126
 20
-135.879201
 30
0.0
 11
84.51693
 21
-135.879201
 31
0.0
  0
LINE
  5
369
100
AcDbEntity
  8
2
370
    50
100
AcDbLine
 10
92.265591
 20
-138.379201
 30
0.0
 11
88.89126
 21
-138.379201
 31
0.0
  0
LINE
  5
36A
100
AcDbEntity
  8
2
370
    50
100
AcDbLine
 10
92.265591
 20
-135.879201
 30
0.0
 11
88.89126
 21
-135.879201
 31
0.0
  0
LINE
  5
36B
100
AcDbEntity
  8
2
370
    50
100
AcDbLine
 10
94.39126
 20
-138.379201
 30
0.0
 11
92.972697
 21
-138.379201
 31
0.0
  0
LINE
  5
36C
100
AcDbEntity
  8
2
370
    50
100
AcDbLine
 10
94.39126
 20
-135.879201
 30
0.0
 11
92.972697
 21
-135.879201
 31
0.0
  0
ARC
  5
36D
100
AcDbEntity
  8
2
370
    50
100
AcDbCircle
 10
94.19126
 20
-138.679201
 30
0.0
 40
0.2
100
AcDbArc
 50
270.0
 51
360.0
  0
LINE
  5
36E
100
AcDbEntity
  8
2
370
    50
100
AcDbLine
 10
94.39126
 20
-135.879201
 30
0.0
 11
94.39126
 21
-138.679201
 31
0.0
  0
LINE
  5
36F
100
AcDbEntity
  8
2
370
    50
100
AcDbLine
 10
94.370391
 20
-135.879201
 30
0.0
 11
94.370391
 21
-138.379201
 31
0.0
  0
ARC
  5
370
100
AcDbEntity
  8
2
370
    50
100
AcDbCircle
 10
92.39126
 20
-134.379201
 30
0.0
 40
2.5
100
AcDbArc
 50
323.130102
 51
360.0
  0
LINE
  5
371
100
AcDbEntity
  8
2
370
    50
100
AcDbLine
 10
92.972697
 20
-135.879201
 30
0.0
 11
92.972697
 21
-138.379201
 31
0.0
  0
LINE
  5
372
100
AcDbEntity
  8
2
370
    50
100
AcDbLine
 10
92.265591
 20
-135.879201
 30
0.0
 11
92.265591
 21
-138.379201
 31
0.0
  0
LINE
  5
373
100
AcDbEntity
  8
2
370
    50
100
AcDbLine
 10
88.89126
 20
-135.879201
 30
0.0
 11
88.89126
 21
-138.379201
 31
0.0
  0
LINE
  5
374
100
AcDbEntity
  8
2
370
    50
100
AcDbLine
 10
87.89126
 20
-135.879201
 30
0.0
 11
87.89126
 21
-138.379201
 31
0.0
  0
LINE
  5
375
100
AcDbEntity
  8
2
370
    50
100
AcDbLine
 10
83.809823
 20
-135.879201
 30
0.0
 11
83.809823
 21
-138.379201
 31
0.0
  0
LINE
  5
376
100
AcDbEntity
  8
2
370
    50
100
AcDbLine
 10
84.51693
 20
-135.879201
 30
0.0
 11
84.51693
 21
-138.379201
 31
0.0
  0
LINE
  5
377
100
AcDbEntity
  8
2
370
    50
100
AcDbLine
 10
82.39126
 20
-135.879201
 30
0.0
 11
82.39126
 21
-138.679201
 31
0.0
  0
LINE
  5
378
100
AcDbEntity
  8
2
370
    50
100
AcDbLine
 10
82.41213
 20
-135.879201
 30
0.0
 11
82.41213
 21
-138.379201
 31
0.0
  0
ARC
  5
379
100
AcDbEntity
  8
2
370
    50
100
AcDbCircle
 10
84.39126
 20
-134.379201
 30
0.0
 40
2.5
100
AcDbArc
 50
180.0
 51
216.869898
  0
LINE
  5
37A
100
AcDbEntity
  8
2
370
    50
100
AcDbLine
 10
81.89126
 20
-121.879201
 30
0.0
 11
81.89126
 21
-134.379201
 31
0.0
  0
LINE
  5
37B
100
AcDbEntity
  8
2
370
    25
100
AcDbLine
 10
94.872001
 20
-121.879201
 30
0.0
 11
94.872001
 21
-134.379201
 31
0.0
  0
LINE
  5
37C
100
AcDbEntity
  8
2
370
    50
100
AcDbLine
 10
94.89126
 20
-121.879201
 30
0.0
 11
94.89126
 21
-134.379201
 31
0.0
  0
LINE
  5
37D
100
AcDbEntity
  8
2
370
    50
100
AcDbLine
 10
82.64126
 20
-121.879201
 30
0.0
 11
82.64126
 21
-101.979719
 31
0.0
  0
LINE
  5
37E
100
AcDbEntity
  8
2
370
    50
100
AcDbLine
 10
94.14126
 20
-121.879201
 30
0.0
 11
94.14126
 21
-101.831659
 31
0.0
  0
LINE
  5
37F
100
AcDbEntity
  8
2
370
    25
100
AcDbLine
 10
88.89126
 20
-134.379201
 30
0.0
 11
88.89126
 21
-121.879201
 31
0.0
  0
LINE
  5
380
100
AcDbEntity
  8
2
370
    25
100
AcDbLine
 10
87.89126
 20
-134.379201
 30
0.0
 11
87.89126
 21
-121.879201
 31
0.0
  0
LINE
  5
381
100
AcDbEntity
  8
2
370
    25
100
AcDbLine
 10
84.162238
 20
-134.379201
 30
0.0
 11
84.162238
 21
-121.879201
 31
0.0
  0
LINE
  5
382
100
AcDbEntity
  8
2
370
    25
100
AcDbLine
 10
83.455131
 20
-134.379201
 30
0.0
 11
83.455131
 21
-121.879201
 31
0.0
  0
LINE
  5
383
100
AcDbEntity
  8
2
370
    25
100
AcDbLine
 10
92.620283
 20
-134.379201
 30
0.0
 11
92.620283
 21
-121.879201
 31
0.0
  0
LINE
  5
384
100
AcDbEntity
  8
2
370
    25
100
AcDbLine
 10
93.327389
 20
-134.379201
 30
0.0
 11
93.327389
 21
-121.879201
 31
0.0
  0
LINE
  5
385
100
AcDbEntity
  8
2
370
    50
100
AcDbLine
 10
83.809823
 20
-138.379201
 30
0.0
 11
82.39126
 21
-138.379201
 31
0.0
  0
ARC
  5
386
100
AcDbEntity
  8
2
370
    50
100
AcDbCircle
 10
82.59126
 20
-138.679201
 30
0.0
 40
0.2
100
AcDbArc
 50
180.0
 51
270.0
  0
LINE
  5
387
100
AcDbEntity
  8
2
370
    50
100
AcDbLine
 10
87.89126
 20
-138.379201
 30
0.0
 11
84.51693
 21
-138.379201
 31
0.0
  0
LINE
  5
388
100
AcDbEntity
  8
2
370
    50
100
AcDbLine
 10
92.265591
 20
-138.379201
 30
0.0
 11
88.89126
 21
-138.379201
 31
0.0
  0
LINE
  5
389
100
AcDbEntity
  8
2
370
    50
100
AcDbLine
 10
94.39126
 20
-138.379201
 30
0.0
 11
92.972697
 21
-138.379201
 31
0.0
  0
ARC
  5
38A
100
AcDbEntity
  8
2
370
    50
100
AcDbCircle
 10
94.19126
 20
-138.679201
 30
0.0
 40
0.2
100
AcDbArc
 50
270.0
 51
360.0
  0
LINE
  5
38B
100
AcDbEntity
  8
2
370
    50
100
AcDbLine
 10
94.39126
 20
-135.879201
 30
0.0
 11
94.39126
 21
-138.679201
 31
0.0
  0
LINE
  5
38C
100
AcDbEntity
  8
2
370
    50
100
AcDbLine
 10
94.370391
 20
-135.879201
 30
0.0
 11
94.370391
 21
-138.379201
 31
0.0
  0
LINE
  5
38D
100
AcDbEntity
  8
2
370
    50
100
AcDbLine
 10
92.972697
 20
-135.879201
 30
0.0
 11
92.972697
 21
-138.379201
 31
0.0
  0
LINE
  5
38E
100
AcDbEntity
  8
2
370
    50
100
AcDbLine
 10
92.265591
 20
-135.879201
 30
0.0
 11
92.265591
 21
-138.379201
 31
0.0
  0
LINE
  5
38F
100
AcDbEntity
  8
2
370
    50
100
AcDbLine
 10
88.89126
 20
-135.879201
 30
0.0
 11
88.89126
 21
-138.379201
 31
0.0
  0
LINE
  5
390
100
AcDbEntity
  8
2
370
    50
100
AcDbLine
 10
87.89126
 20
-135.879201
 30
0.0
 11
87.89126
 21
-138.379201
 31
0.0
  0
LINE
  5
391
100
AcDbEntity
  8
2
370
    50
100
AcDbLine
 10
83.809823
 20
-135.879201
 30
0.0
 11
83.809823
 21
-138.379201
 31
0.0
  0
LINE
  5
392
100
AcDbEntity
  8
2
370
    50
100
AcDbLine
 10
84.51693
 20
-135.879201
 30
0.0
 11
84.51693
 21
-138.379201
 31
0.0
  0
LINE
  5
393
100
AcDbEntity
  8
2
370
    50
100
AcDbLine
 10
82.39126
 20
-135.879201
 30
0.0
 11
82.39126
 21
-138.679201
 31
0.0
  0
LINE
  5
394
100
AcDbEntity
  8
2
370
    50
100
AcDbLine
 10
82.41213
 20
-135.879201
 30
0.0
 11
82.41213
 21
-138.379201
 31
0.0
  0
LINE
  5
395
100
AcDbEntity
  8
2
370
    50
100
AcDbLine
 10
79.39126
 20
-153.079201
 30
0.0
 11
78.39126
 21
-154.079201
 31
0.0
  0
LINE
  5
396
100
AcDbEntity
  8
2
370
    50
100
AcDbLine
 10
114.891261
 20
-11.630774
 30
0.0
 11
61.891261
 21
-11.631202
 31
0.0
  0
LINE
  5
397
100
AcDbEntity
  8
2
370
    50
100
AcDbLine
 10
-236.072337
 20
0.768798
 30
0.0
 11
-236.072337
 21
-11.631202
 31
0.0
  0
LINE
  5
398
100
AcDbEntity
  8
2
370
    50
100
AcDbLine
 10
-289.072337
 20
0.768798
 30
0.0
 11
-289.072337
 21
-11.631202
 31
0.0
  0
LINE
  5
399
100
AcDbEntity
  8
2
370
    50
100
AcDbLine
 10
-170.278259
 20
-134.63072
 30
0.0
 11
-170.278259
 21
-146.63072
 31
0.0
  0
LINE
  5
39A
100
AcDbEntity
  8
2
370
    50
100
AcDbLine
 10
79.390706
 20
-147.079909
 30
0.0
 11
79.390706
 21
-148.879909
 31
0.0
  0
LINE
  5
39B
100
AcDbEntity
  8
2
370
    50
100
AcDbLine
 10
97.390706
 20
-147.079909
 30
0.0
 11
97.390706
 21
-148.879909
 31
0.0
  0
LINE
  5
39C
100
AcDbEntity
  8
2
370
    50
100
AcDbLine
 10
78.390706
 20
-154.079909
 30
0.0
 11
78.390706
 21
-181.579909
 31
0.0
  0
LINE
  5
39D
100
AcDbEntity
  8
2
370
    50
100
AcDbLine
 10
98.390706
 20
-154.079909
 30
0.0
 11
98.390706
 21
-181.579909
 31
0.0
  0
LINE
  5
39E
100
AcDbEntity
  8
2
370
    50
100
AcDbLine
 10
97.390706
 20
-153.079909
 30
0.0
 11
98.390706
 21
-154.079909
 31
0.0
  0
LINE
  5
39F
100
AcDbEntity
  8
2
370
    50
100
AcDbLine
 10
79.390706
 20
-153.079909
 30
0.0
 11
78.390706
 21
-154.079909
 31
0.0
  0
LINE
  5
3A0
100
AcDbEntity
  8
2
370
    50
100
AcDbLine
 10
79.590706
 20
-149.079909
 30
0.0
 11
97.190706
 21
-149.079909
 31
0.0
  0
LINE
  5
3A1
100
AcDbEntity
  8
2
370
    50
100
AcDbLine
 10
79.390706
 20
-153.079909
 30
0.0
 11
97.390706
 21
-153.079909
 31
0.0
  0
LINE
  5
3A2
100
AcDbEntity
  8
2
370
    50
100
AcDbLine
 10
76.390706
 20
-181.579909
 30
0.0
 11
100.390706
 21
-181.579909
 31
0.0
  0
LINE
  5
3A3
100
AcDbEntity
  8
2
370
    50
100
AcDbLine
 10
79.590706
 20
-146.879909
 30
0.0
 11
79.390706
 21
-147.079909
 31
0.0
  0
LINE
  5
3A4
100
AcDbEntity
  8
2
370
    50
100
AcDbLine
 10
79.390706
 20
-148.879909
 30
0.0
 11
79.590706
 21
-149.079909
 31
0.0
  0
LINE
  5
3A5
100
AcDbEntity
  8
2
370
    50
100
AcDbLine
 10
97.190706
 20
-146.879909
 30
0.0
 11
97.390706
 21
-147.079909
 31
0.0
  0
LINE
  5
3A6
100
AcDbEntity
  8
2
370
    50
100
AcDbLine
 10
97.390706
 20
-148.879909
 30
0.0
 11
97.190706
 21
-149.079909
 31
0.0
  0
LINE
  5
3A7
100
AcDbEntity
  8
2
370
    50
100
AcDbLine
 10
76.390706
 20
-192.579909
 30
0.0
 11
100.390706
 21
-192.579909
 31
0.0
  0
LINE
  5
3A8
100
AcDbEntity
  8
2
370
    50
100
AcDbLine
 10
100.390706
 20
-192.579909
 30
0.0
 11
100.390706
 21
-181.579909
 31
0.0
  0
LINE
  5
3A9
100
AcDbEntity
  8
2
370
    50
100
AcDbLine
 10
76.390706
 20
-192.579909
 30
0.0
 11
76.390706
 21
-181.579909
 31
0.0
  0
LINE
  5
3AA
100
AcDbEntity
  8
2
370
    50
100
AcDbLine
 10
79.490706
 20
-146.879909
 30
0.0
 11
79.490706
 21
-144.079909
 31
0.0
  0
LINE
  5
3AB
100
AcDbEntity
  8
2
370
    50
100
AcDbLine
 10
97.290706
 20
-146.879909
 30
0.0
 11
97.290706
 21
-144.079909
 31
0.0
  0
LINE
  5
3AC
100
AcDbEntity
  8
2
370
    50
100
AcDbLine
 10
97.290706
 20
-146.879909
 30
0.0
 11
79.490706
 21
-146.879909
 31
0.0
  0
LINE
  5
3AD
100
AcDbEntity
  8
2
370
    50
100
AcDbLine
 10
97.290706
 20
-144.079909
 30
0.0
 11
79.490706
 21
-144.079909
 31
0.0
  0
LINE
  5
3AE
100
AcDbEntity
  8
2
370
    50
100
AcDbLine
 10
73.891159
 20
-152.179909
 30
0.0
 11
73.891159
 21
-141.179909
 31
0.0
  0
LINE
  5
3AF
100
AcDbEntity
  8
2
370
    50
100
AcDbLine
 10
77.391159
 20
-144.679909
 30
0.0
 11
77.391159
 21
-148.679909
 31
0.0
  0
LINE
  5
3B0
100
AcDbEntity
  8
2
370
    50
100
AcDbLine
 10
103.891159
 20
-151.679909
 30
0.0
 11
103.891159
 21
-139.679909
 31
0.0
  0
ARC
  5
3B1
100
AcDbEntity
  8
2
370
    50
100
AcDbCircle
 10
78.391159
 20
-144.679909
 30
0.0
 40
1.0
100
AcDbArc
 50
90.0
 51
180.0
  0
ARC
  5
3B2
100
AcDbEntity
  8
2
370
    50
100
AcDbCircle
 10
78.391159
 20
-148.679909
 30
0.0
 40
1.0
100
AcDbArc
 50
180.0
 51
270.0
  0
ARC
  5
3B3
100
AcDbEntity
  8
2
370
    50
100
AcDbCircle
 10
102.891159
 20
-139.679909
 30
0.0
 40
1.0
100
AcDbArc
 50
0.0
 51
90.0
  0
ARC
  5
3B4
100
AcDbEntity
  8
2
370
    50
100
AcDbCircle
 10
102.891159
 20
-151.679909
 30
0.0
 40
1.0
100
AcDbArc
 50
270.0
 51
360.0
  0
ARC
  5
3B5
100
AcDbEntity
  8
2
370
    50
100
AcDbCircle
 10
74.391159
 20
-141.179909
 30
0.0
 40
0.5
100
AcDbArc
 50
90.0
 51
180.0
  0
ARC
  5
3B6
100
AcDbEntity
  8
2
370
    50
100
AcDbCircle
 10
74.391159
 20
-152.179909
 30
0.0
 40
0.5
100
AcDbArc
 50
180.0
 51
270.0
  0
LINE
  5
3B7
100
AcDbEntity
  8
2
370
    50
100
AcDbLine
 10
102.891159
 20
-152.679909
 30
0.0
 11
95.890706
 21
-152.679909
 31
0.0
  0
LINE
  5
3B8
100
AcDbEntity
  8
2
370
    50
100
AcDbLine
 10
97.891159
 20
-140.679909
 30
0.0
 11
74.391159
 21
-140.679909
 31
0.0
  0
LINE
  5
3B9
100
AcDbEntity
  8
2
370
    50
100
AcDbLine
 10
97.333647
 20
-152.679909
 30
0.0
 11
74.391159
 21
-152.679909
 31
0.0
  0
LINE
  5
3BA
100
AcDbEntity
  8
2
370
    50
100
AcDbLine
 10
97.891159
 20
-143.679909
 30
0.0
 11
78.391159
 21
-143.679909
 31
0.0
  0
LINE
  5
3BB
100
AcDbEntity
  8
2
370
    50
100
AcDbLine
 10
97.891159
 20
-149.679909
 30
0.0
 11
78.391159
 21
-149.679909
 31
0.0
  0
LINE
  5
3BC
100
AcDbEntity
  8
2
370
    50
100
AcDbLine
 10
88.390706
 20
-146.879909
 30
0.0
 11
97.190706
 21
-146.879909
 31
0.0
  0
LINE
  5
3BD
100
AcDbEntity
  8
2
370
    50
100
AcDbLine
 10
97.891159
 20
-151.679909
 30
0.0
 11
97.891159
 21
-139.679909
 31
0.0
  0
ARC
  5
3BE
100
AcDbEntity
  8
2
370
    50
100
AcDbCircle
 10
98.891159
 20
-151.679909
 30
0.0
 40
1.0
100
AcDbArc
 50
180.0
 51
270.0
  0
ARC
  5
3BF
100
AcDbEntity
  8
2
370
    50
100
AcDbCircle
 10
98.891159
 20
-139.679909
 30
0.0
 40
1.0
100
AcDbArc
 50
90.0
 51
180.0
  0
LINE
  5
3C0
100
AcDbEntity
  8
2
370
    25
100
AcDbLine
 10
96.890706
 20
-152.679909
 30
0.0
 11
96.890706
 21
-149.679909
 31
0.0
  0
LINE
  5
3C1
100
AcDbEntity
  8
2
370
    25
100
AcDbLine
 10
96.890706
 20
-143.679909
 30
0.0
 11
96.890706
 21
-140.679909
 31
0.0
  0
LINE
  5
3C2
100
AcDbEntity
  8
2
370
    25
100
AcDbLine
 10
79.890706
 20
-152.679909
 30
0.0
 11
79.890706
 21
-149.679909
 31
0.0
  0
LINE
  5
3C3
100
AcDbEntity
  8
2
370
    25
100
AcDbLine
 10
79.890706
 20
-143.679909
 30
0.0
 11
79.890706
 21
-140.679909
 31
0.0
  0
LINE
  5
3C4
100
AcDbEntity
  8
2
370
    50
100
AcDbLine
 10
95.890706
 20
-144.079909
 30
0.0
 11
95.890706
 21
-143.679909
 31
0.0
  0
LINE
  5
3C5
100
AcDbEntity
  8
2
370
    50
100
AcDbLine
 10
95.890706
 20
-140.679909
 30
0.0
 11
95.890706
 21
-139.379909
 31
0.0
  0
LINE
  5
3C6
100
AcDbEntity
  8
2
370
    50
100
AcDbLine
 10
80.890706
 20
-144.079909
 30
0.0
 11
80.890706
 21
-143.679909
 31
0.0
  0
LINE
  5
3C7
100
AcDbEntity
  8
2
370
    50
100
AcDbLine
 10
80.890706
 20
-140.679909
 30
0.0
 11
80.890706
 21
-139.379909
 31
0.0
  0
LINE
  5
3C8
100
AcDbEntity
  8
2
370
    50
100
AcDbLine
 10
80.890706
 20
-153.079909
 30
0.0
 11
80.890706
 21
-152.679909
 31
0.0
  0
LINE
  5
3C9
100
AcDbEntity
  8
2
370
    50
100
AcDbLine
 10
80.890706
 20
-149.679909
 30
0.0
 11
80.890706
 21
-149.079909
 31
0.0
  0
LINE
  5
3CA
100
AcDbEntity
  8
2
370
    50
100
AcDbLine
 10
95.890706
 20
-153.079909
 30
0.0
 11
95.890706
 21
-152.679909
 31
0.0
  0
LINE
  5
3CB
100
AcDbEntity
  8
2
370
    50
100
AcDbLine
 10
95.890706
 20
-149.679909
 30
0.0
 11
95.890706
 21
-149.079909
 31
0.0
  0
LINE
  5
3CC
100
AcDbEntity
  8
2
370
    50
100
AcDbLine
 10
98.390706
 20
-154.079909
 30
0.0
 11
78.390706
 21
-154.079909
 31
0.0
  0
LINE
  5
3CD
100
AcDbEntity
  8
2
370
    50
100
AcDbLine
 10
97.390706
 20
-147.079909
 30
0.0
 11
79.390706
 21
-147.079909
 31
0.0
  0
LINE
  5
3CE
100
AcDbEntity
  8
2
370
    50
100
AcDbLine
 10
79.390706
 20
-148.879909
 30
0.0
 11
97.390706
 21
-148.879909
 31
0.0
  0
ARC
  5
3CF
100
AcDbEntity
  8
2
370
    50
100
AcDbCircle
 10
94.390706
 20
-200.082065
 30
0.0
 40
18.502157
100
AcDbArc
 50
71.077645
 51
108.922355
  0
ARC
  5
3D0
100
AcDbEntity
  8
2
370
    50
100
AcDbCircle
 10
82.390706
 20
-200.082065
 30
0.0
 40
18.502157
100
AcDbArc
 50
71.077645
 51
108.922355
  0
ARC
  5
3D1
100
AcDbEntity
  8
2
370
    50
100
AcDbCircle
 10
94.390706
 20
-174.077752
 30
0.0
 40
18.502157
100
AcDbArc
 50
251.077645
 51
288.922355
  0
ARC
  5
3D2
100
AcDbEntity
  8
2
370
    50
100
AcDbCircle
 10
82.390706
 20
-174.077752
 30
0.0
 40
18.502157
100
AcDbArc
 50
251.077645
 51
288.922355
  0
LINE
  5
3D3
100
AcDbEntity
  8
2
370
    50
100
AcDbLine
 10
88.390706
 20
-182.579786
 30
0.0
 11
88.390706
 21
-191.580032
 31
0.0
  0
LINE
  5
3D4
100
AcDbEntity
  8
2
370
    50
100
AcDbLine
 10
102.891159
 20
-138.679909
 30
0.0
 11
98.891159
 21
-138.679909
 31
0.0
  0
ARC
  5
3D5
100
AcDbEntity
  8
2
370
    50
100
AcDbCircle
 10
94.190706
 20
-138.679909
 30
0.0
 40
0.2
100
AcDbArc
 50
270.0
 51
360.0
  0
LINE
  5
3D6
100
AcDbEntity
  8
2
370
    50
100
AcDbLine
 10
95.390706
 20
-138.879909
 30
0.0
 11
81.390706
 21
-138.879909
 31
0.0
  0
LINE
  5
3D7
100
AcDbEntity
  8
2
370
    50
100
AcDbLine
 10
95.890706
 20
-139.379909
 30
0.0
 11
95.390706
 21
-138.879909
 31
0.0
  0
LINE
  5
3D8
100
AcDbEntity
  8
2
370
    50
100
AcDbLine
 10
81.390706
 20
-138.879909
 30
0.0
 11
80.890706
 21
-139.379909
 31
0.0
  0
LINE
  5
3D9
100
AcDbEntity
  8
2
370
    50
100
AcDbLine
 10
84.827079
 20
-54.219877
 30
0.0
 11
85.993345
 21
-54.219877
 31
0.0
  0
ARC
  5
3DA
100
AcDbEntity
  8
2
370
    50
100
AcDbCircle
 10
88.391261
 20
-64.034832
 30
0.0
 40
10.10363
100
AcDbArc
 50
90.0
 51
103.729133
  0
ARC
  5
3DB
100
AcDbEntity
  8
2
370
    50
100
AcDbCircle
 10
83.628122
 20
-56.565363
 30
0.0
 40
2.634161
100
AcDbArc
 50
62.924933
 51
117.075067
  0
LINE
  5
3DC
100
AcDbEntity
  8
2
370
    50
100
AcDbLine
 10
61.890618
 20
37.069918
 30
0.0
 11
61.890618
 21
2.069918
 31
0.0
  0
LINE
  5
3DD
100
AcDbEntity
  8
2
370
    50
100
AcDbLine
 10
-125.781364
 20
130.612985
 30
0.0
 11
61.890618
 21
4.026635
 31
0.0
  0
LINE
  5
3DE
100
AcDbEntity
  8
2
370
    50
100
AcDbLine
 10
-125.795246
 20
130.609914
 30
0.0
 11
-125.512055
 21
130.672578
 31
0.0
  0
LINE
  5
3DF
100
AcDbEntity
  8
2
370
    25
100
AcDbLine
 10
105.891261
 20
-53.130774
 30
0.0
 11
70.891261
 21
-53.130774
 31
0.0
  0
LINE
  5
3E0
100
AcDbEntity
  8
2
370
    25
  6
CENTER
100
AcDbLine
 10
-254.572336
 20
-46.530612
 30
0.0
 11
-254.572336
 21
-62.502525
 31
0.0
  0
LINE
  5
3E1
100
AcDbEntity
  8
2
370
    25
  6
CENTER
100
AcDbLine
 10
-340.365788
 20
-86.828606
 30
0.0
 11
-340.365788
 21
-106.907784
 31
0.0
  0
LINE
  5
3E2
100
AcDbEntity
  8
2
370
    50
100
AcDbLine
 10
-29.649321
 20
149.668731
 30
0.0
 11
-29.272287
 21
151.07584
 31
0.0
  0
ARC
  5
3E3
100
AcDbEntity
  8
2
370
    50
100
AcDbCircle
 10
-27.234506
 20
149.021683
 30
0.0
 40
2.5
100
AcDbArc
 50
165.0
 51
259.944087
  0
ARC
  5
3E4
100
AcDbEntity
  8
2
370
    50
100
AcDbCircle
 10
-302.293729
 20
-186.583458
 30
0.0
 40
500.0
100
AcDbArc
 50
43.069181
 51
48.450142
  0
ARC
  5
3E5
100
AcDbEntity
  8
2
370
    50
100
AcDbCircle
 10
-12.318878
 20
97.231819
 30
0.0
 40
110.0
100
AcDbArc
 50
65.299884
 51
71.319359
  0
LINE
  5
3E6
100
AcDbEntity
  8
2
370
    50
100
AcDbLine
 10
19.314769
 20
199.806255
 30
0.0
 11
20.344844
 21
200.836331
 31
0.0
  0
ARC
  5
3E7
100
AcDbEntity
  8
2
370
    50
100
AcDbCircle
 10
-302.293729
 20
-186.583458
 30
0.0
 40
500.0
100
AcDbArc
 50
48.450142
 51
49.944087
  0
ARC
  5
3E8
100
AcDbEntity
  8
2
370
    50
100
AcDbCircle
 10
48.612139
 20
202.844034
 30
0.0
 40
16.0
100
AcDbArc
 50
200.771799
 51
228.85705
  0
ARC
  5
3E9
100
AcDbEntity
  8
2
370
    50
100
AcDbCircle
 10
-290.884875
 20
-185.740291
 30
0.0
 40
500.0
100
AcDbArc
 50
43.875171
 51
48.85705
  0
ARC
  5
3EA
100
AcDbEntity
  8
2
370
    50
100
AcDbCircle
 10
22.112611
 20
199.068564
 30
0.0
 40
2.5
100
AcDbArc
 50
71.319359
 51
135.0
  0
ARC
  5
3EB
100
AcDbEntity
  8
2
370
    50
100
AcDbCircle
 10
21.082536
 20
198.038488
 30
0.0
 40
2.5
100
AcDbArc
 50
135.0
 51
229.944087
  0
DIMENSION
  5
3EC
100
AcDbEntity
  8
2
370
    25
100
AcDbDimension
  2
*D0
 10
-11.092798
 20
143.396757
 30
0.0
 11
-170.334665
 21
255.720438
 31
0.0
 70
     2
 71
     0
 72
     0
 41
0.0
 42
0.0
  3
Standard
100
AcDb2LineAngularDimension
 13
48.604159
 23
170.977647
 33
0.0
 14
106.558913
 24
120.947352
 34
0.0
 15
106.558913
 25
120.947352
 35
0.0
 16
-31.662802
 26
187.774927
 36
0.0
1001
ACAD
1000
DSTYLE
1002
{
1070
   275
1070
     0
1070
   179
1070
     2
1002
}
  0
POINT
  5
3ED
100
AcDbEntity
  8
2
370
    50
100
AcDbPoint
 10
88.390618
 20
83.369258
 30
0.0
  0
POINT
  5
3EE
100
AcDbEntity
  8
2
370
    50
100
AcDbPoint
 10
60.656981
 20
80.897495
 30
0.0
  0
ARC
  5
3EF
100
AcDbEntity
  8
2
370
    50
100
AcDbCircle
 10
-114.975594
 20
-345.758825
 30
0.0
 40
500.0
100
AcDbArc
 50
70.266103
 51
78.450142
  0
LINE
  5
3F0
100
AcDbEntity
  8
2
370
    50
100
AcDbLine
 10
87.152945
 20
80.435006
 30
0.0
 11
60.951746
 21
80.89235
 31
0.0
  0
LINE
  5
3F1
100
AcDbEntity
  8
2
370
    50
100
AcDbLine
 10
89.03059
 20
80.799983
 30
0.0
 11
113.153305
 21
91.039468
 31
0.0
  0
ARC
  5
3F2
100
AcDbEntity
  8
2
370
    50
100
AcDbCircle
 10
110.341566
 20
109.223276
 30
0.0
 40
2.5
100
AcDbArc
 50
1.579148
 51
53.184173
  0
ARC
  5
3F3
100
AcDbEntity
  8
2
370
    50
100
AcDbCircle
 10
73.524827
 20
127.237779
 30
0.0
 40
3.0
100
AcDbArc
 50
69.470338
 51
97.744647
  0
ARC
  5
3F4
100
AcDbEntity
  8
2
370
    50
100
AcDbCircle
 10
87.233226
 20
85.034305
 30
0.0
 40
4.6
100
AcDbArc
 50
269.0
 51
293.0
  0
LINE
  5
3F5
100
AcDbEntity
  8
2
370
    25
  6
DOT
100
AcDbLine
 10
112.840616
 20
109.29217
 30
0.0
 11
112.807543
 21
110.491849
 31
0.0
  0
LINE
  5
3F6
100
AcDbEntity
  8
2
370
    50
100
AcDbLine
 10
113.335971
 20
91.323887
 30
0.0
 11
112.840616
 21
109.29217
 31
0.0
  0
ARC
  5
3F7
100
AcDbEntity
  8
2
370
    50
100
AcDbCircle
 10
-5.757645
 20
45.01984
 30
0.0
 40
110.0
100
AcDbArc
 50
95.299884
 51
101.319359
  0
ARC
  5
3F8
100
AcDbEntity
  8
2
370
    50
100
AcDbCircle
 10
-114.975594
 20
-345.758825
 30
0.0
 40
500.0
100
AcDbArc
 50
78.450142
 51
79.944087
  0
ARC
  5
3F9
100
AcDbEntity
  8
2
370
    25
  6
DOT
100
AcDbCircle
 10
45.922753
 20
23.162445
 30
0.0
 40
110.0
100
AcDbArc
 50
52.551827
 51
53.184173
  0
ARC
  5
3FA
100
AcDbEntity
  8
2
370
    50
100
AcDbCircle
 10
45.922753
 20
23.162445
 30
0.0
 40
110.0
100
AcDbArc
 50
53.184173
 51
67.905627
  0
ARC
  5
3FB
100
AcDbEntity
  8
2
370
    50
100
AcDbCircle
 10
-5.795944
 20
166.94821
 30
0.0
 40
16.0
100
AcDbArc
 50
230.771799
 51
258.85705
  0
ARC
  5
3FC
100
AcDbEntity
  8
2
370
    25
  6
DOT
100
AcDbCircle
 10
-105.51682
 20
-339.324194
 30
0.0
 40
500.0
100
AcDbArc
 50
64.109749
 51
64.168261
  0
LINE
  5
3FD
100
AcDbEntity
  8
2
370
    50
100
AcDbLine
 10
68.174071
 20
129.537699
 30
0.0
 11
73.120552
 21
130.210415
 31
0.0
  0
ARC
  5
3FE
100
AcDbEntity
  8
2
370
    50
100
AcDbCircle
 10
-105.51682
 20
-339.324194
 30
0.0
 40
500.0
100
AcDbArc
 50
69.672743
 51
78.85705
  0
ARC
  5
3FF
100
AcDbEntity
  8
2
370
    50
100
AcDbCircle
 10
-100.769223
 20
-338.198129
 30
0.0
 40
500.0
100
AcDbArc
 50
67.905627
 51
69.470338
  0
LINE
  5
400
100
AcDbEntity
  8
2
370
    50
100
AcDbLine
 10
87.153328
 20
80.434999
 30
0.0
 11
76.886231
 21
103.495277
 31
0.0
  0
ARC
  5
401
100
AcDbEntity
  8
2
370
    50
100
AcDbCircle
 10
40.344413
 20
87.225811
 30
0.0
 40
40.0
100
AcDbArc
 50
24.0
 51
70.266103
  0
LINE
  5
402
100
AcDbEntity
  8
2
370
    50
100
AcDbLine
 10
60.656981
 20
81.192304
 30
0.0
 11
60.656981
 21
111.867852
 31
0.0
  0
ARC
  5
403
100
AcDbEntity
  8
2
370
    50
100
AcDbCircle
 10
45.656981
 20
111.867852
 30
0.0
 40
15.0
100
AcDbArc
 50
0.0
 51
70.658301
  0
ARC
  5
404
100
AcDbEntity
  8
2
370
    50
100
AcDbCircle
 10
60.956981
 20
81.192304
 30
0.0
 40
0.3
100
AcDbArc
 50
180.0
 51
269.0
  0
ARC
  5
405
100
AcDbEntity
  8
2
370
    25
100
AcDbCircle
 10
-98.800505
 20
-342.522537
 30
0.0
 40
500.0
100
AcDbArc
 50
65.019107
 51
81.885572
  0
ARC
  5
406
100
AcDbEntity
  8
2
370
    50
100
AcDbCircle
 10
-334.615162
 20
-115.33072
 30
0.0
 40
1.0
100
AcDbArc
 50
270.0
 51
90.0
  0
ARC
  5
407
100
AcDbEntity
  8
2
370
    50
100
AcDbCircle
 10
-346.115162
 20
-114.33072
 30
0.0
 40
0.5
100
AcDbArc
 50
90.0
 51
270.0
  0
ARC
  5
408
100
AcDbEntity
  8
2
370
    50
100
AcDbCircle
 10
-346.115162
 20
-116.33072
 30
0.0
 40
0.5
100
AcDbArc
 50
90.0
 51
270.0
  0
LINE
  5
409
100
AcDbEntity
  8
2
370
    50
100
AcDbLine
 10
-267.322337
 20
180.099315
 30
0.0
 11
-267.322337
 21
178.999315
 31
0.0
  0
LINE
  5
40A
100
AcDbEntity
  8
2
370
    50
100
AcDbLine
 10
-271.822337
 20
180.099315
 30
0.0
 11
-271.822337
 21
178.999315
 31
0.0
  0
LINE
  5
40B
100
AcDbEntity
  8
2
370
    50
100
AcDbLine
 10
-267.722337
 20
180.299315
 30
0.0
 11
-271.422337
 21
180.299315
 31
0.0
  0
LINE
  5
40C
100
AcDbEntity
  8
2
370
    50
100
AcDbLine
 10
-267.722337
 20
178.799315
 30
0.0
 11
-271.422337
 21
178.799315
 31
0.0
  0
ARC
  5
40D
100
AcDbEntity
  8
2
370
    50
100
AcDbCircle
 10
-267.722337
 20
179.799315
 30
0.0
 40
0.5
100
AcDbArc
 50
36.869898
 51
90.0
  0
ARC
  5
40E
100
AcDbEntity
  8
2
370
    50
100
AcDbCircle
 10
-271.422337
 20
179.799315
 30
0.0
 40
0.5
100
AcDbArc
 50
90.0
 51
143.130102
  0
ARC
  5
40F
100
AcDbEntity
  8
2
370
    50
100
AcDbCircle
 10
-267.722337
 20
179.299315
 30
0.0
 40
0.5
100
AcDbArc
 50
270.0
 51
323.130102
  0
ARC
  5
410
100
AcDbEntity
  8
2
370
    50
100
AcDbCircle
 10
-271.422337
 20
179.299315
 30
0.0
 40
0.5
100
AcDbArc
 50
216.869898
 51
270.0
  0
ARC
  5
411
100
AcDbEntity
  8
2
370
    50
100
AcDbCircle
 10
-269.572337
 20
176.799315
 30
0.0
 40
0.5
100
AcDbArc
 50
0.0
 51
180.0
  0
ARC
  5
412
100
AcDbEntity
  8
2
370
    50
100
AcDbCircle
 10
-269.572337
 20
173.799315
 30
0.0
 40
0.5
100
AcDbArc
 50
180.0
 51
360.0
  0
ARC
  5
413
100
AcDbEntity
  8
2
370
    50
100
AcDbCircle
 10
-267.268489
 20
173.799315
 30
0.0
 40
0.5
100
AcDbArc
 50
195.0
 51
15.0
  0
ARC
  5
414
100
AcDbEntity
  8
2
370
    50
100
AcDbCircle
 10
-271.876184
 20
173.799315
 30
0.0
 40
0.5
100
AcDbArc
 50
165.0
 51
345.0
  0
ARC
  5
415
100
AcDbEntity
  8
2
370
    50
100
AcDbCircle
 10
-268.072337
 20
176.799315
 30
0.0
 40
0.5
100
AcDbArc
 50
15.0
 51
195.0
  0
ARC
  5
416
100
AcDbEntity
  8
2
370
    50
100
AcDbCircle
 10
-271.072337
 20
176.799315
 30
0.0
 40
0.5
100
AcDbArc
 50
345.0
 51
165.0
  0
ARC
  5
417
100
AcDbEntity
  8
2
370
    50
100
AcDbCircle
 10
-269.572337
 20
174.299315
 30
0.0
 40
0.5
100
AcDbArc
 50
0.0
 51
180.0
  0
ARC
  5
418
100
AcDbEntity
  8
2
370
    50
100
AcDbCircle
 10
-269.572337
 20
176.299315
 30
0.0
 40
0.5
100
AcDbArc
 50
180.0
 51
360.0
  0
ARC
  5
419
100
AcDbEntity
  8
2
370
    50
100
AcDbCircle
 10
-271.201746
 20
176.316352
 30
0.0
 40
0.5
100
AcDbArc
 50
165.0
 51
345.0
  0
ARC
  5
41A
100
AcDbEntity
  8
2
370
    50
100
AcDbCircle
 10
-271.746775
 20
174.282278
 30
0.0
 40
0.5
100
AcDbArc
 50
345.0
 51
165.0
  0
ARC
  5
41B
100
AcDbEntity
  8
2
370
    50
100
AcDbCircle
 10
-267.397899
 20
174.282278
 30
0.0
 40
0.5
100
AcDbArc
 50
15.0
 51
195.0
  0
ARC
  5
41C
100
AcDbEntity
  8
2
370
    50
100
AcDbCircle
 10
-267.942927
 20
176.316352
 30
0.0
 40
0.5
100
AcDbArc
 50
195.0
 51
15.0
  0
LINE
  5
41D
100
AcDbEntity
  8
2
370
    50
100
AcDbLine
 10
-272.359147
 20
173.928724
 30
0.0
 11
-272.229738
 21
174.411687
 31
0.0
  0
LINE
  5
41E
100
AcDbEntity
  8
2
370
    50
100
AcDbLine
 10
-271.684709
 20
176.445762
 30
0.0
 11
-271.5553
 21
176.928724
 31
0.0
  0
LINE
  5
41F
100
AcDbEntity
  8
2
370
    50
100
AcDbLine
 10
-271.393221
 20
173.669905
 30
0.0
 11
-271.263812
 21
174.152868
 31
0.0
  0
LINE
  5
420
100
AcDbEntity
  8
2
370
    50
100
AcDbLine
 10
-270.718783
 20
176.186943
 30
0.0
 11
-270.589374
 21
176.669905
 31
0.0
  0
LINE
  5
421
100
AcDbEntity
  8
2
370
    50
100
AcDbLine
 10
-270.072337
 20
173.799315
 30
0.0
 11
-270.072337
 21
174.299315
 31
0.0
  0
LINE
  5
422
100
AcDbEntity
  8
2
370
    50
100
AcDbLine
 10
-270.072337
 20
176.299315
 30
0.0
 11
-270.072337
 21
176.799315
 31
0.0
  0
LINE
  5
423
100
AcDbEntity
  8
2
370
    50
100
AcDbLine
 10
-269.072337
 20
173.799315
 30
0.0
 11
-269.072337
 21
174.299315
 31
0.0
  0
LINE
  5
424
100
AcDbEntity
  8
2
370
    50
100
AcDbLine
 10
-269.072337
 20
176.299315
 30
0.0
 11
-269.072337
 21
176.799315
 31
0.0
  0
LINE
  5
425
100
AcDbEntity
  8
2
370
    50
100
AcDbLine
 10
-268.5553
 20
176.669905
 30
0.0
 11
-268.42589
 21
176.186943
 31
0.0
  0
LINE
  5
426
100
AcDbEntity
  8
2
370
    50
100
AcDbLine
 10
-267.880861
 20
174.152868
 30
0.0
 11
-267.751452
 21
173.669905
 31
0.0
  0
LINE
  5
427
100
AcDbEntity
  8
2
370
    50
100
AcDbLine
 10
-267.589374
 20
176.928724
 30
0.0
 11
-267.459964
 21
176.445762
 31
0.0
  0
LINE
  5
428
100
AcDbEntity
  8
2
370
    50
100
AcDbLine
 10
-266.914936
 20
174.411687
 30
0.0
 11
-266.785526
 21
173.928724
 31
0.0
  0
LINE
  5
429
100
AcDbEntity
  8
2
370
    50
100
AcDbLine
 10
-257.822337
 20
180.099315
 30
0.0
 11
-257.822337
 21
178.999315
 31
0.0
  0
LINE
  5
42A
100
AcDbEntity
  8
2
370
    50
100
AcDbLine
 10
-253.322337
 20
180.099315
 30
0.0
 11
-253.322337
 21
178.999315
 31
0.0
  0
LINE
  5
42B
100
AcDbEntity
  8
2
370
    50
100
AcDbLine
 10
-253.722337
 20
180.299315
 30
0.0
 11
-257.422337
 21
180.299315
 31
0.0
  0
LINE
  5
42C
100
AcDbEntity
  8
2
370
    50
100
AcDbLine
 10
-253.722337
 20
178.799315
 30
0.0
 11
-257.422337
 21
178.799315
 31
0.0
  0
LINE
  5
42D
100
AcDbEntity
  8
2
370
    50
100
AcDbLine
 10
-255.322337
 20
176.799315
 30
0.0
 11
-255.322337
 21
173.799315
 31
0.0
  0
LINE
  5
42E
100
AcDbEntity
  8
2
370
    50
100
AcDbLine
 10
-255.822337
 20
176.799315
 30
0.0
 11
-255.822337
 21
173.799315
 31
0.0
  0
LINE
  5
42F
100
AcDbEntity
  8
2
370
    50
100
AcDbLine
 10
-254.322337
 20
176.799315
 30
0.0
 11
-254.322337
 21
173.799315
 31
0.0
  0
LINE
  5
430
100
AcDbEntity
  8
2
370
    50
100
AcDbLine
 10
-256.822337
 20
176.799315
 30
0.0
 11
-256.822337
 21
173.799315
 31
0.0
  0
ARC
  5
431
100
AcDbEntity
  8
2
370
    50
100
AcDbCircle
 10
-254.822337
 20
176.799315
 30
0.0
 40
0.5
100
AcDbArc
 50
0.0
 51
180.0
  0
ARC
  5
432
100
AcDbEntity
  8
2
370
    50
100
AcDbCircle
 10
-256.322337
 20
176.799315
 30
0.0
 40
0.5
100
AcDbArc
 50
0.0
 51
180.0
  0
ARC
  5
433
100
AcDbEntity
  8
2
370
    50
100
AcDbCircle
 10
-256.322337
 20
173.799315
 30
0.0
 40
0.5
100
AcDbArc
 50
180.0
 51
360.0
  0
ARC
  5
434
100
AcDbEntity
  8
2
370
    50
100
AcDbCircle
 10
-254.822337
 20
173.799315
 30
0.0
 40
0.5
100
AcDbArc
 50
180.0
 51
360.0
  0
ARC
  5
435
100
AcDbEntity
  8
2
370
    50
100
AcDbCircle
 10
-257.422337
 20
179.299315
 30
0.0
 40
0.5
100
AcDbArc
 50
216.869898
 51
270.0
  0
ARC
  5
436
100
AcDbEntity
  8
2
370
    50
100
AcDbCircle
 10
-257.422337
 20
179.799315
 30
0.0
 40
0.5
100
AcDbArc
 50
90.0
 51
143.130102
  0
ARC
  5
437
100
AcDbEntity
  8
2
370
    50
100
AcDbCircle
 10
-253.722337
 20
179.799315
 30
0.0
 40
0.5
100
AcDbArc
 50
36.869898
 51
90.0
  0
ARC
  5
438
100
AcDbEntity
  8
2
370
    50
100
AcDbCircle
 10
-253.722337
 20
179.299315
 30
0.0
 40
0.5
100
AcDbArc
 50
270.0
 51
323.130102
  0
LINE
  5
439
100
AcDbEntity
  8
2
370
    25
100
AcDbLine
 10
-271.072337
 20
178.799315
 30
0.0
 11
-269.572337
 21
180.299315
 31
0.0
  0
LINE
  5
43A
100
AcDbEntity
  8
2
370
    25
100
AcDbLine
 10
-270.223808
 20
178.799315
 30
0.0
 11
-268.723808
 21
180.299315
 31
0.0
  0
LINE
  5
43B
100
AcDbEntity
  8
2
370
    25
100
AcDbLine
 10
-269.37528
 20
178.799315
 30
0.0
 11
-267.87528
 21
180.299315
 31
0.0
  0
LINE
  5
43C
100
AcDbEntity
  8
2
370
    25
100
AcDbLine
 10
-268.526752
 20
178.799315
 30
0.0
 11
-267.322337
 21
180.003731
 31
0.0
  0
LINE
  5
43D
100
AcDbEntity
  8
2
370
    25
100
AcDbLine
 10
-267.67608
 20
178.801459
 30
0.0
 11
-267.322337
 21
179.155202
 31
0.0
  0
LINE
  5
43E
100
AcDbEntity
  8
2
370
    25
100
AcDbLine
 10
-271.775153
 20
178.945026
 30
0.0
 11
-270.420865
 21
180.299315
 31
0.0
  0
LINE
  5
43F
100
AcDbEntity
  8
2
370
    25
100
AcDbLine
 10
-271.822337
 20
179.746371
 30
0.0
 11
-271.269393
 21
180.299315
 31
0.0
  0
LINE
  5
440
100
AcDbEntity
  8
2
370
    25
100
AcDbLine
 10
-271.650034
 20
176.575171
 30
0.0
 11
-270.942927
 21
177.282278
 31
0.0
  0
LINE
  5
441
100
AcDbEntity
  8
2
370
    25
100
AcDbLine
 10
-271.477446
 20
175.899231
 30
0.0
 11
-270.572362
 21
176.804315
 31
0.0
  0
HATCH
  5
442
100
AcDbEntity
  8
2
370
    25
100
AcDbHatch
 10
0.0
 20
0.0
 30
0.0
210
0.0
220
0.0
230
1.0
  2
_U
 70
     0
 71
     1
 91
        1
 92
        1
 93
        4
 72
     2
 10
-271.74677500000001
 20
174.28227799999999
 40
0.5
 50
345.0
 51
165.0
 73
     1
 72
     1
 10
-272.229738
 20
174.411687
 11
-272.35914700000001
 21
173.92872399999999
 72
     2
 10
-271.87618400000002
 20
173.79931500000001
 40
0.5
 50
165.0
 51
345.0
 73
     1
 72
     1
 10
-271.39322099999998
 20
173.669905
 11
-271.26381199999997
 21
174.15286800000001
 97
        4
330
0
330
0
330
0
330
0
 75
     0
 76
     0
 52
45.0
 41
1.0
 77
     0
 78
     1
 53
45.0
 43
0.0
 44
0.0
 45
-0.424264
 46
0.424264
 79
     0
 98
        1
 10
0.0
 20
0.0
  0
LINE
  5
443
100
AcDbEntity
  8
2
370
    25
100
AcDbLine
 10
-270.072337
 20
174.299315
 30
0.0
 11
-269.572337
 21
174.799315
 31
0.0
  0
LINE
  5
444
100
AcDbEntity
  8
2
370
    25
100
AcDbLine
 10
-269.993419
 20
173.529705
 30
0.0
 11
-269.090449
 21
174.432674
 31
0.0
  0
LINE
  5
445
100
AcDbEntity
  8
2
370
    25
100
AcDbLine
 10
-269.283207
 20
173.391389
 30
0.0
 11
-269.16441
 21
173.510185
 31
0.0
  0
HATCH
  5
446
100
AcDbEntity
  8
2
370
    25
100
AcDbHatch
 10
0.0
 20
0.0
 30
0.0
210
0.0
220
0.0
230
1.0
  2
_U
 70
     0
 71
     1
 91
        1
 92
        1
 93
        4
 72
     2
 10
-269.572337
 20
176.29931500000001
 40
0.5
 50
180.0
 51
0.0
 73
     1
 72
     1
 10
-269.072337
 20
176.29931500000001
 11
-269.072337
 21
176.79931500000001
 72
     2
 10
-269.572337
 20
176.79931500000001
 40
0.5
 50
0.0
 51
180.0
 73
     1
 72
     1
 10
-270.072337
 20
176.79931500000001
 11
-270.072337
 21
176.29931500000001
 97
        4
330
0
330
0
330
0
330
0
 75
     0
 76
     0
 52
45.0
 41
1.0
 77
     0
 78
     1
 53
45.0
 43
0.0
 44
0.0
 45
-0.424264
 46
0.424264
 79
     0
 98
        1
 10
0.0
 20
0.0
  0
HATCH
  5
447
100
AcDbEntity
  8
2
370
    25
100
AcDbHatch
 10
0.0
 20
0.0
 30
0.0
210
0.0
220
0.0
230
1.0
  2
_U
 70
     0
 71
     1
 91
        1
 92
        1
 93
        4
 72
     2
 10
-267.942927
 20
176.31635199999999
 40
0.5
 50
195.0
 51
15.0
 73
     1
 72
     1
 10
-267.45996400000001
 20
176.445762
 11
-267.58937400000002
 21
176.92872399999999
 72
     2
 10
-268.072337
 20
176.79931500000001
 40
0.5
 50
15.0
 51
195.0
 73
     1
 72
     1
 10
-268.55529999999999
 20
176.669905
 11
-268.42588999999998
 21
176.18694300000001
 97
        4
330
0
330
0
330
0
330
0
 75
     0
 76
     0
 52
45.0
 41
1.0
 77
     0
 78
     1
 53
45.0
 43
0.0
 44
0.0
 45
-0.424264
 46
0.424264
 79
     0
 98
        1
 10
0.0
 20
0.0
  0
LINE
  5
448
100
AcDbEntity
  8
2
370
    25
100
AcDbLine
 10
-267.880861
 20
174.411687
 30
0.0
 11
-267.527308
 21
174.765241
 31
0.0
  0
LINE
  5
449
100
AcDbEntity
  8
2
370
    25
100
AcDbLine
 10
-267.756241
 20
173.687779
 30
0.0
 11
-266.946568
 21
174.497453
 31
0.0
  0
LINE
  5
44A
100
AcDbEntity
  8
2
370
    25
100
AcDbLine
 10
-267.29545
 20
173.300042
 30
0.0
 11
-266.769216
 21
173.826276
 31
0.0
  0
LINE
  5
44B
100
AcDbEntity
  8
2
370
    25
100
AcDbLine
 10
-255.822337
 20
176.299315
 30
0.0
 11
-256.822337
 21
175.299315
 31
0.0
  0
LINE
  5
44C
100
AcDbEntity
  8
2
370
    25
100
AcDbLine
 10
-255.822337
 20
175.450787
 30
0.0
 11
-256.822337
 21
174.450787
 31
0.0
  0
LINE
  5
44D
100
AcDbEntity
  8
2
370
    25
100
AcDbLine
 10
-256.793271
 20
173.631324
 30
0.0
 11
-255.822337
 21
174.602259
 31
0.0
  0
LINE
  5
44E
100
AcDbEntity
  8
2
370
    25
100
AcDbLine
 10
-256.274454
 20
173.301613
 30
0.0
 11
-255.824635
 21
173.751433
 31
0.0
  0
LINE
  5
44F
100
AcDbEntity
  8
2
370
    25
100
AcDbLine
 10
-255.901254
 20
177.068925
 30
0.0
 11
-256.822337
 21
176.147843
 31
0.0
  0
LINE
  5
450
100
AcDbEntity
  8
2
370
    25
100
AcDbLine
 10
-256.730263
 20
177.088445
 30
0.0
 11
-256.611467
 21
177.207241
 31
0.0
  0
LINE
  5
451
100
AcDbEntity
  8
2
370
    25
100
AcDbLine
 10
-254.322337
 20
176.299315
 30
0.0
 11
-255.322337
 21
175.299315
 31
0.0
  0
LINE
  5
452
100
AcDbEntity
  8
2
370
    25
100
AcDbLine
 10
-254.322337
 20
175.450787
 30
0.0
 11
-255.322337
 21
174.450787
 31
0.0
  0
LINE
  5
453
100
AcDbEntity
  8
2
370
    25
100
AcDbLine
 10
-255.293271
 20
173.631324
 30
0.0
 11
-254.322337
 21
174.602259
 31
0.0
  0
LINE
  5
454
100
AcDbEntity
  8
2
370
    25
100
AcDbLine
 10
-254.774454
 20
173.301613
 30
0.0
 11
-254.324635
 21
173.751433
 31
0.0
  0
LINE
  5
455
100
AcDbEntity
  8
2
370
    25
100
AcDbLine
 10
-254.401254
 20
177.068925
 30
0.0
 11
-255.322337
 21
176.147843
 31
0.0
  0
LINE
  5
456
100
AcDbEntity
  8
2
370
    25
100
AcDbLine
 10
-255.230263
 20
177.088445
 30
0.0
 11
-255.111467
 21
177.207241
 31
0.0
  0
HATCH
  5
457
100
AcDbEntity
  8
2
370
    25
100
AcDbHatch
 10
0.0
 20
0.0
 30
0.0
210
0.0
220
0.0
230
1.0
  2
_U
 70
     0
 71
     1
 91
        1
 92
        1
 93
        8
 72
     1
 10
-257.42233700000003
 20
178.79931500000001
 11
-253.72233700000001
 21
178.79931500000001
 72
     2
 10
-253.72233700000001
 20
179.29931500000001
 40
0.5
 50
270.0
 51
323.130102
 73
     1
 72
     1
 10
-253.322337
 20
178.999315
 11
-253.322337
 21
180.09931499999999
 72
     2
 10
-253.72233700000001
 20
179.79931500000001
 40
0.5
 50
36.869898
 51
90.0
 73
     1
 72
     1
 10
-253.72233700000001
 20
180.29931500000001
 11
-257.42233700000003
 21
180.29931500000001
 72
     2
 10
-257.42233700000003
 20
179.79931500000001
 40
0.5
 50
90.0
 51
143.130102
 73
     1
 72
     1
 10
-257.822337
 20
180.09931499999999
 11
-257.822337
 21
178.999315
 72
     2
 10
-257.42233700000003
 20
179.29931500000001
 40
0.5
 50
216.869898
 51
270.0
 73
     1
 97
        8
330
0
330
0
330
0
330
0
330
0
330
0
330
0
330
0
 75
     0
 76
     0
 52
45.0
 41
1.0
 77
     0
 78
     1
 53
45.0
 43
0.0
 44
0.0
 45
-0.424264
 46
0.424264
 79
     0
 98
        1
 10
0.0
 20
0.0
  0
LINE
  5
458
100
AcDbEntity
  8
2
370
    50
100
AcDbLine
 10
94.432298
 20
287.504486
 30
0.0
 11
69.20635
 21
287.504486
 31
0.0
  0
LINE
  5
459
100
AcDbEntity
  8
2
370
    50
100
AcDbLine
 10
94.432298
 20
234.504486
 30
0.0
 11
72.129158
 21
234.504486
 31
0.0
  0
ARC
  5
45A
100
AcDbEntity
  8
2
370
    50
100
AcDbCircle
 10
-14.43729
 20
272.004486
 30
0.0
 40
18.0
100
AcDbArc
 50
90.0
 51
167.787475
  0
ARC
  5
45B
100
AcDbEntity
  8
2
370
    50
100
AcDbCircle
 10
-14.43729
 20
250.004486
 30
0.0
 40
18.0
100
AcDbArc
 50
192.212525
 51
270.0
  0
ARC
  5
45C
100
AcDbEntity
  8
2
370
    50
100
AcDbCircle
 10
36.385933
 20
261.004486
 30
0.0
 40
50.0
100
AcDbArc
 50
165.571633
 51
194.428367
  0
ARC
  5
45D
100
AcDbEntity
  8
2
370
    25
100
AcDbCircle
 10
36.385933
 20
261.004486
 30
0.0
 40
58.0
100
AcDbArc
 50
164.897285
 51
195.102715
  0
ARC
  5
45E
100
AcDbEntity
  8
2
370
    50
100
AcDbCircle
 10
102.818742
 20
1785.414471
 30
0.0
 40
1500.0
100
AcDbArc
 50
265.516575
 51
269.460053
  0
ARC
  5
45F
100
AcDbEntity
  8
2
370
    50
100
AcDbCircle
 10
102.818742
 20
-1263.405499
 30
0.0
 40
1500.0
100
AcDbArc
 50
90.539947
 51
94.483425
  0
LINE
  5
460
100
AcDbEntity
  8
2
370
    50
100
AcDbLine
 10
76.385933
 20
271.004486
 30
0.0
 11
60.657625
 21
271.004486
 31
0.0
  0
LINE
  5
461
100
AcDbEntity
  8
2
370
    50
100
AcDbLine
 10
76.385933
 20
251.004486
 30
0.0
 11
60.657625
 21
251.004486
 31
0.0
  0
ARC
  5
462
100
AcDbEntity
  8
2
370
    50
100
AcDbCircle
 10
76.385933
 20
261.004486
 30
0.0
 40
10.0
100
AcDbArc
 50
270.0
 51
90.0
  0
ARC
  5
463
100
AcDbEntity
  8
2
370
    50
100
AcDbCircle
 10
72.129158
 20
1787.504486
 30
0.0
 40
1500.0
100
AcDbArc
 50
266.691567
 51
270.0
  0
ARC
  5
464
100
AcDbEntity
  8
2
370
    50
100
AcDbCircle
 10
72.129158
 20
-1265.495514
 30
0.0
 40
1500.0
100
AcDbArc
 50
90.0
 51
93.308433
  0
ARC
  5
465
100
AcDbEntity
  8
2
370
    25
100
AcDbCircle
 10
-11.887082
 20
274.031999
 30
0.0
 40
8.0
100
AcDbArc
 50
85.660139
 51
164.897285
  0
ARC
  5
466
100
AcDbEntity
  8
2
370
    25
100
AcDbCircle
 10
102.832353
 20
1785.685217
 30
0.0
 40
1508.0
100
AcDbArc
 50
265.660139
 51
268.573999
  0
ARC
  5
467
100
AcDbEntity
  8
2
370
    25
100
AcDbCircle
 10
102.832353
 20
-1263.676245
 30
0.0
 40
1508.0
100
AcDbArc
 50
91.426001
 51
94.339861
  0
ARC
  5
468
100
AcDbEntity
  8
2
370
    25
100
AcDbCircle
 10
-11.887082
 20
247.976973
 30
0.0
 40
8.0
100
AcDbArc
 50
195.102715
 51
274.339861
  0
ARC
  5
469
100
AcDbEntity
  8
2
370
    50
100
AcDbCircle
 10
102.832353
 20
1785.685217
 30
0.0
 40
1510.0
100
AcDbArc
 50
265.953407
 51
268.252294
  0
ARC
  5
46A
100
AcDbEntity
  8
2
370
    50
100
AcDbCircle
 10
102.832353
 20
-1263.676245
 30
0.0
 40
1510.0
100
AcDbArc
 50
91.747706
 51
94.046593
  0
ARC
  5
46B
100
AcDbEntity
  8
2
370
    50
100
AcDbCircle
 10
-4.289384
 20
271.469601
 30
0.0
 40
8.0
100
AcDbArc
 50
85.953407
 51
165.571633
  0
ARC
  5
46C
100
AcDbEntity
  8
2
370
    50
100
AcDbCircle
 10
-4.289384
 20
250.539371
 30
0.0
 40
8.0
100
AcDbArc
 50
194.428367
 51
274.046593
  0
ELLIPSE
  5
46D
100
AcDbEntity
  8
2
370
    50
100
AcDbEllipse
 10
89.748647
 20
261.004486
 30
0.0
 11
0.0
 21
24.5
 31
0.0
210
0.0
220
0.0
230
1.0
 40
0.995093
 41
3.0978750000000002
 42
0.043718
  0
ELLIPSE
  5
46E
100
AcDbEntity
  8
2
370
    50
100
AcDbEllipse
 10
94.432298
 20
261.004486
 30
0.0
 11
0.0
 21
26.5
 31
0.0
210
0.0
220
0.0
230
1.0
 40
0.951923
 41
3.1415929999999999
 42
0.0
  0
ARC
  5
46F
100
AcDbEntity
  8
2
370
    50
100
AcDbCircle
 10
36.385933
 20
261.004486
 30
0.0
 40
70.0
100
AcDbArc
 50
167.787475
 51
192.212525
  0
LINE
  5
470
100
AcDbEntity
  8
2
370
    50
100
AcDbLine
 10
60.657625
 20
249.619461
 30
0.0
 11
60.657625
 21
272.389511
 31
0.0
  0
ARC
  5
471
100
AcDbEntity
  8
2
370
    25
100
AcDbCircle
 10
65.20495
 20
274.153485
 30
0.0
 40
4.0
100
AcDbArc
 50
16.609532
 51
88.573999
  0
ARC
  5
472
100
AcDbEntity
  8
2
370
    25
100
AcDbCircle
 10
65.20495
 20
247.855487
 30
0.0
 40
4.0
100
AcDbArc
 50
271.426001
 51
343.390468
  0
ARC
  5
473
100
AcDbEntity
  8
2
370
    25
100
AcDbCircle
 10
21.124299
 20
261.004486
 30
0.0
 40
50.0
100
AcDbArc
 50
343.390468
 51
348.463041
  0
ARC
  5
474
100
AcDbEntity
  8
2
370
    25
100
AcDbCircle
 10
21.124299
 20
261.004486
 30
0.0
 40
50.0
100
AcDbArc
 50
11.536959
 51
16.609532
  0
ARC
  5
475
100
AcDbEntity
  8
2
370
    50
100
AcDbCircle
 10
56.657625
 20
272.389511
 30
0.0
 40
4.0
100
AcDbArc
 50
360.0
 51
88.252294
  0
ARC
  5
476
100
AcDbEntity
  8
2
370
    50
100
AcDbCircle
 10
56.657625
 20
249.619461
 30
0.0
 40
4.0
100
AcDbArc
 50
271.747706
 51
0.0
  0
LINE
  5
477
100
AcDbEntity
  8
2
370
    50
100
AcDbLine
 10
86.385933
 20
261.004486
 30
0.0
 11
60.657625
 21
261.004486
 31
0.0
  0
LINE
  5
478
100
AcDbEntity
  8
2
370
    50
100
AcDbLine
 10
-110.092809
 20
273.504486
 30
0.0
 11
-32.488954
 21
273.504486
 31
0.0
  0
LINE
  5
479
100
AcDbEntity
  8
2
370
    50
100
AcDbLine
 10
-12.026259
 20
273.504486
 30
0.0
 11
60.499087
 21
273.504486
 31
0.0
  0
LINE
  5
47A
100
AcDbEntity
  8
2
370
    50
100
AcDbLine
 10
-110.092809
 20
248.504486
 30
0.0
 11
-32.488954
 21
248.504486
 31
0.0
  0
LINE
  5
47B
100
AcDbEntity
  8
2
370
    50
100
AcDbLine
 10
-12.026359
 20
248.504486
 30
0.0
 11
60.499087
 21
248.504486
 31
0.0
  0
LINE
  5
47C
100
AcDbEntity
  8
2
370
    50
100
AcDbLine
 10
-122.134206
 20
275.540486
 30
0.0
 11
-118.818068
 21
275.540486
 31
0.0
  0
LINE
  5
47D
100
AcDbEntity
  8
2
370
    50
100
AcDbLine
 10
-122.134206
 20
246.468486
 30
0.0
 11
-118.818068
 21
246.468486
 31
0.0
  0
LINE
  5
47E
100
AcDbEntity
  8
2
370
    50
100
AcDbLine
 10
-118.818068
 20
275.540486
 30
0.0
 11
-112.929972
 21
274.799147
 31
0.0
  0
LINE
  5
47F
100
AcDbEntity
  8
2
370
    50
100
AcDbLine
 10
-118.818068
 20
246.468486
 30
0.0
 11
-112.929972
 21
247.209825
 31
0.0
  0
ELLIPSE
  5
480
100
AcDbEntity
  8
2
370
    50
100
AcDbEllipse
 10
-118.818068
 20
261.004486
 30
0.0
 11
0.0
 21
14.536
 31
0.0
210
0.0
220
0.0
230
1.0
 40
0.559204
 41
3.2821739999999999
 42
6.1426040000000004
  0
ELLIPSE
  5
481
100
AcDbEntity
  8
2
370
    50
100
AcDbEllipse
 10
-113.507978
 20
261.004486
 30
0.0
 11
0.0
 21
13.831
 31
0.0
210
0.0
220
0.0
230
1.0
 40
0.576885
 41
3.2140979999999999
 42
6.21068
  0
LINE
  5
482
100
AcDbEntity
  8
2
370
    50
100
AcDbLine
 10
-132.068486
 20
274.221749
 30
0.0
 11
-122.755289
 21
275.497993
 31
0.0
  0
LINE
  5
483
100
AcDbEntity
  8
2
370
    50
100
AcDbLine
 10
-132.068486
 20
247.787224
 30
0.0
 11
-122.755289
 21
246.510979
 31
0.0
  0
ELLIPSE
  5
484
100
AcDbEntity
  8
2
370
    50
100
AcDbEllipse
 10
-122.134206
 20
261.004486
 30
0.0
 11
0.0
 21
14.536
 31
0.0
210
0.0
220
0.0
230
1.0
 40
0.559204
 41
3.0651109999999999
 42
0.076482
  0
LINE
  5
485
100
AcDbEntity
  8
2
370
    50
100
AcDbLine
 10
-168.187485
 20
288.004486
 30
0.0
 11
-160.988993
 21
288.004486
 31
0.0
  0
LINE
  5
486
100
AcDbEntity
  8
2
370
    50
100
AcDbLine
 10
-168.187485
 20
234.004486
 30
0.0
 11
-160.988993
 21
234.004486
 31
0.0
  0
LINE
  5
487
100
AcDbEntity
  8
2
370
    50
100
AcDbLine
 10
-131.502295
 20
274.260486
 30
0.0
 11
-136.398756
 21
274.260486
 31
0.0
  0
LINE
  5
488
100
AcDbEntity
  8
2
370
    50
100
AcDbLine
 10
-131.502295
 20
247.748486
 30
0.0
 11
-136.398756
 21
247.748486
 31
0.0
  0
ELLIPSE
  5
489
100
AcDbEntity
  8
2
370
    50
100
AcDbEllipse
 10
-131.502295
 20
261.004486
 30
0.0
 11
0.0
 21
13.256
 31
0.0
210
0.0
220
0.0
230
1.0
 40
0.559104
 41
3.1415929999999999
 42
0.0
  0
ELLIPSE
  5
48A
100
AcDbEntity
  8
2
370
    50
100
AcDbEllipse
 10
-162.406006
 20
261.004486
 30
0.0
 11
0.0
 21
27.0
 31
0.0
210
0.0
220
0.0
230
1.0
 40
0.97437
 41
1.110242
 42
2.0313500000000002
  0
POINT
  5
48B
100
AcDbEntity
  8
2
370
    50
100
AcDbPoint
 10
-162.406006
 20
261.004486
 30
0.0
  0
ELLIPSE
  5
48C
100
AcDbEntity
  8
2
370
    50
100
AcDbEllipse
 10
-187.344878
 20
273.004486
 30
0.0
 11
4.1341049999999999
 21
6.2000019999999996
 31
0.0
210
0.0
220
0.0
230
1.0
 40
0.153184
 41
4.8141780000000001
 42
0.464624
  0
ELLIPSE
  5
48D
100
AcDbEntity
  8
2
370
    50
100
AcDbEllipse
 10
-187.344878
 20
249.004486
 30
0.0
 11
-4.1341049999999999
 21
6.2000019999999996
 31
0.0
210
0.0
220
0.0
230
1.0
 40
0.153184
 41
2.733927
 42
4.6105999999999998
  0
POINT
  5
48E
100
AcDbEntity
  8
2
370
    50
100
AcDbPoint
 10
-182.224201
 20
261.004486
 30
0.0
  0
ARC
  5
48F
100
AcDbEntity
  8
2
370
    50
100
AcDbCircle
 10
-181.967997
 20
260.954685
 30
0.0
 40
18.0
100
AcDbArc
 50
224.481892
 51
266.35865
  0
ARC
  5
490
100
AcDbEntity
  8
2
370
    50
100
AcDbCircle
 10
-181.967997
 20
260.954685
 30
0.0
 40
18.0
100
AcDbArc
 50
93.615804
 51
113.518108
  0
ELLIPSE
  5
491
100
AcDbEntity
  8
2
370
    50
100
AcDbEllipse
 10
-191.980645
 20
262.900675
 30
0.0
 11
2.829888
 21
14.558513
 31
0.0
210
0.0
220
0.0
230
1.0
 40
0.090992
 41
0.0
 42
6.2831849999999996
  0
POINT
  5
492
100
AcDbEntity
  8
2
370
    50
100
AcDbPoint
 10
-182.224201
 20
261.004486
 30
0.0
  0
ELLIPSE
  5
493
100
AcDbEntity
  8
2
370
    50
100
AcDbEllipse
 10
-168.187485
 20
261.004486
 30
0.0
 11
27.000154999999999
 21
0.0
 31
0.0
210
0.0
220
0.0
230
1.0
 40
0.999994
 41
1.5707960000000001
 42
3.350177
  0
ELLIPSE
  5
494
100
AcDbEntity
  8
2
370
    50
100
AcDbEllipse
 10
-168.187485
 20
261.004486
 30
0.0
 11
27.000154999999999
 21
0.0
 31
0.0
210
0.0
220
0.0
230
1.0
 40
0.999994
 41
3.7896369999999999
 42
4.7123889999999999
  0
ELLIPSE
  5
495
100
AcDbEntity
  8
2
370
    50
100
AcDbEllipse
 10
-170.436995
 20
261.004486
 30
0.0
 11
27.000154999999999
 21
0.0
 31
0.0
210
0.0
220
0.0
230
1.0
 40
0.999994
 41
1.5707960000000001
 42
3.5603859999999998
  0
ELLIPSE
  5
496
100
AcDbEntity
  8
2
370
    50
100
AcDbEllipse
 10
-170.436995
 20
261.004486
 30
0.0
 11
27.000154999999999
 21
0.0
 31
0.0
210
0.0
220
0.0
230
1.0
 40
0.999994
 41
3.673629
 42
4.7123889999999999
  0
ELLIPSE
  5
497
100
AcDbEntity
  8
2
370
    25
100
AcDbEllipse
 10
-160.988993
 20
261.004486
 30
0.0
 11
27.000154999999999
 21
0.0
 31
0.0
210
0.0
220
0.0
230
1.0
 40
0.999994
 41
5.9702169999999999
 42
0.309102
  0
ARC
  5
498
100
AcDbEntity
  8
2
370
    50
100
AcDbCircle
 10
-136.398756
 20
276.260486
 30
0.0
 40
2.0
100
AcDbArc
 50
225.600847
 51
270.0
  0
ARC
  5
499
100
AcDbEntity
  8
2
370
    50
100
AcDbCircle
 10
-136.398756
 20
245.748486
 30
0.0
 40
2.0
100
AcDbArc
 50
90.0
 51
134.399153
  0
ELLIPSE
  5
49A
100
AcDbEntity
  8
2
370
    50
100
AcDbEllipse
 10
-160.988993
 20
261.004486
 30
0.0
 11
27.000154999999999
 21
0.0
 31
0.0
210
0.0
220
0.0
230
1.0
 40
0.999994
 41
0.537642
 42
1.5707960000000001
  0
ELLIPSE
  5
49B
100
AcDbEntity
  8
2
370
    50
100
AcDbEllipse
 10
-160.988993
 20
261.004486
 30
0.0
 11
27.000154999999999
 21
0.0
 31
0.0
210
0.0
220
0.0
230
1.0
 40
0.999994
 41
4.7123889999999999
 42
5.7455429999999996
  0
ELLIPSE
  5
49C
100
AcDbEntity
  8
2
370
    25
100
AcDbEllipse
 10
-160.988993
 20
261.004486
 30
0.0
 11
27.000154999999999
 21
0.0
 31
0.0
210
0.0
220
0.0
230
1.0
 40
0.999994
 41
1.847029
 42
4.4052280000000001
  0
LINE
  5
49D
100
AcDbEntity
  8
2
370
    25
100
AcDbLine
 10
-336.30055
 20
-107.554778
 30
0.0
 11
-344.432278
 21
-99.42305
 31
0.0
  0
LINE
  5
49E
100
AcDbEntity
  8
2
370
    25
100
AcDbLine
 10
-336.30055
 20
-99.42305
 30
0.0
 11
-344.432278
 21
-107.554778
 31
0.0
  0
LINE
  5
49F
100
AcDbEntity
  8
2
370
    25
100
AcDbLine
 10
-337.069617
 20
-108.199925
 30
0.0
 11
-345.077425
 21
-100.192116
 31
0.0
  0
LINE
  5
4A0
100
AcDbEntity
  8
2
370
    25
100
AcDbLine
 10
-337.96864
 20
-108.715115
 30
0.0
 11
-345.592615
 21
-101.09114
 31
0.0
  0
LINE
  5
4A1
100
AcDbEntity
  8
2
370
    25
100
AcDbLine
 10
-339.019125
 20
-109.078843
 30
0.0
 11
-345.956344
 21
-102.141625
 31
0.0
  0
LINE
  5
4A2
100
AcDbEntity
  8
2
370
    25
100
AcDbLine
 10
-340.274011
 20
-109.238171
 30
0.0
 11
-346.115672
 21
-103.396511
 31
0.0
  0
LINE
  5
4A3
100
AcDbEntity
  8
2
370
    25
100
AcDbLine
 10
-341.894151
 20
-109.032245
 30
0.0
 11
-345.909745
 21
-105.01665
 31
0.0
  0
LINE
  5
4A4
100
AcDbEntity
  8
2
370
    25
100
AcDbLine
 10
-335.655403
 20
-106.785711
 30
0.0
 11
-343.663212
 21
-98.777903
 31
0.0
  0
LINE
  5
4A5
100
AcDbEntity
  8
2
370
    25
100
AcDbLine
 10
-335.140213
 20
-105.886688
 30
0.0
 11
-342.764188
 21
-98.262713
 31
0.0
  0
LINE
  5
4A6
100
AcDbEntity
  8
2
370
    25
100
AcDbLine
 10
-334.776485
 20
-104.836203
 30
0.0
 11
-341.713703
 21
-97.898984
 31
0.0
  0
LINE
  5
4A7
100
AcDbEntity
  8
2
370
    25
100
AcDbLine
 10
-334.617157
 20
-103.581317
 30
0.0
 11
-340.458817
 21
-97.739656
 31
0.0
  0
LINE
  5
4A8
100
AcDbEntity
  8
2
370
    25
100
AcDbLine
 10
-334.823083
 20
-101.961177
 30
0.0
 11
-338.838678
 21
-97.945583
 31
0.0
  0
LINE
  5
4A9
100
AcDbEntity
  8
2
370
    25
100
AcDbLine
 10
-337.069617
 20
-98.777903
 30
0.0
 11
-345.077425
 21
-106.785711
 31
0.0
  0
LINE
  5
4AA
100
AcDbEntity
  8
2
370
    25
100
AcDbLine
 10
-337.96864
 20
-98.262713
 30
0.0
 11
-345.592615
 21
-105.886688
 31
0.0
  0
LINE
  5
4AB
100
AcDbEntity
  8
2
370
    25
100
AcDbLine
 10
-339.019125
 20
-97.898984
 30
0.0
 11
-345.956344
 21
-104.836203
 31
0.0
  0
LINE
  5
4AC
100
AcDbEntity
  8
2
370
    25
100
AcDbLine
 10
-340.274011
 20
-97.739656
 30
0.0
 11
-346.115672
 21
-103.581317
 31
0.0
  0
LINE
  5
4AD
100
AcDbEntity
  8
2
370
    25
100
AcDbLine
 10
-341.894151
 20
-97.945583
 30
0.0
 11
-345.909745
 21
-101.961177
 31
0.0
  0
LINE
  5
4AE
100
AcDbEntity
  8
2
370
    25
100
AcDbLine
 10
-335.655403
 20
-100.192116
 30
0.0
 11
-343.663212
 21
-108.199925
 31
0.0
  0
LINE
  5
4AF
100
AcDbEntity
  8
2
370
    25
100
AcDbLine
 10
-335.140213
 20
-101.09114
 30
0.0
 11
-342.764188
 21
-108.715115
 31
0.0
  0
LINE
  5
4B0
100
AcDbEntity
  8
2
370
    25
100
AcDbLine
 10
-334.776485
 20
-102.141625
 30
0.0
 11
-341.713703
 21
-109.078843
 31
0.0
  0
LINE
  5
4B1
100
AcDbEntity
  8
2
370
    25
100
AcDbLine
 10
-334.617157
 20
-103.396511
 30
0.0
 11
-340.458817
 21
-109.238171
 31
0.0
  0
LINE
  5
4B2
100
AcDbEntity
  8
2
370
    25
100
AcDbLine
 10
-334.823083
 20
-105.01665
 30
0.0
 11
-338.838678
 21
-109.032245
 31
0.0
  0
LINE
  5
4B3
100
AcDbEntity
  8
2
370
    25
100
AcDbLine
 10
-180.712395
 20
-107.554778
 30
0.0
 11
-188.844123
 21
-99.42305
 31
0.0
  0
LINE
  5
4B4
100
AcDbEntity
  8
2
370
    25
100
AcDbLine
 10
-180.712395
 20
-99.42305
 30
0.0
 11
-188.844123
 21
-107.554778
 31
0.0
  0
LINE
  5
4B5
100
AcDbEntity
  8
2
370
    25
100
AcDbLine
 10
-181.481461
 20
-108.199925
 30
0.0
 11
-189.48927
 21
-100.192116
 31
0.0
  0
LINE
  5
4B6
100
AcDbEntity
  8
2
370
    25
100
AcDbLine
 10
-182.380485
 20
-108.715115
 30
0.0
 11
-190.00446
 21
-101.09114
 31
0.0
  0
LINE
  5
4B7
100
AcDbEntity
  8
2
370
    25
100
AcDbLine
 10
-183.43097
 20
-109.078843
 30
0.0
 11
-190.368189
 21
-102.141625
 31
0.0
  0
LINE
  5
4B8
100
AcDbEntity
  8
2
370
    25
100
AcDbLine
 10
-184.685856
 20
-109.238171
 30
0.0
 11
-190.527516
 21
-103.396511
 31
0.0
  0
LINE
  5
4B9
100
AcDbEntity
  8
2
370
    25
100
AcDbLine
 10
-186.305996
 20
-109.032245
 30
0.0
 11
-190.32159
 21
-105.01665
 31
0.0
  0
LINE
  5
4BA
100
AcDbEntity
  8
2
370
    25
100
AcDbLine
 10
-180.067248
 20
-106.785711
 30
0.0
 11
-188.075057
 21
-98.777903
 31
0.0
  0
LINE
  5
4BB
100
AcDbEntity
  8
2
370
    25
100
AcDbLine
 10
-179.552058
 20
-105.886688
 30
0.0
 11
-187.176033
 21
-98.262713
 31
0.0
  0
LINE
  5
4BC
100
AcDbEntity
  8
2
370
    25
100
AcDbLine
 10
-179.188329
 20
-104.836203
 30
0.0
 11
-186.125548
 21
-97.898984
 31
0.0
  0
LINE
  5
4BD
100
AcDbEntity
  8
2
370
    25
100
AcDbLine
 10
-179.029001
 20
-103.581317
 30
0.0
 11
-184.870662
 21
-97.739656
 31
0.0
  0
LINE
  5
4BE
100
AcDbEntity
  8
2
370
    25
100
AcDbLine
 10
-179.234928
 20
-101.961177
 30
0.0
 11
-183.250522
 21
-97.945583
 31
0.0
  0
LINE
  5
4BF
100
AcDbEntity
  8
2
370
    25
100
AcDbLine
 10
-181.481461
 20
-98.777903
 30
0.0
 11
-189.48927
 21
-106.785711
 31
0.0
  0
LINE
  5
4C0
100
AcDbEntity
  8
2
370
    25
100
AcDbLine
 10
-182.380485
 20
-98.262713
 30
0.0
 11
-190.00446
 21
-105.886688
 31
0.0
  0
LINE
  5
4C1
100
AcDbEntity
  8
2
370
    25
100
AcDbLine
 10
-183.43097
 20
-97.898984
 30
0.0
 11
-190.368189
 21
-104.836203
 31
0.0
  0
LINE
  5
4C2
100
AcDbEntity
  8
2
370
    25
100
AcDbLine
 10
-184.685856
 20
-97.739656
 30
0.0
 11
-190.527516
 21
-103.581317
 31
0.0
  0
LINE
  5
4C3
100
AcDbEntity
  8
2
370
    25
100
AcDbLine
 10
-186.305996
 20
-97.945583
 30
0.0
 11
-190.32159
 21
-101.961177
 31
0.0
  0
LINE
  5
4C4
100
AcDbEntity
  8
2
370
    25
100
AcDbLine
 10
-180.067248
 20
-100.192116
 30
0.0
 11
-188.075057
 21
-108.199925
 31
0.0
  0
LINE
  5
4C5
100
AcDbEntity
  8
2
370
    25
100
AcDbLine
 10
-179.552058
 20
-101.09114
 30
0.0
 11
-187.176033
 21
-108.715115
 31
0.0
  0
LINE
  5
4C6
100
AcDbEntity
  8
2
370
    25
100
AcDbLine
 10
-179.188329
 20
-102.141625
 30
0.0
 11
-186.125548
 21
-109.078843
 31
0.0
  0
LINE
  5
4C7
100
AcDbEntity
  8
2
370
    25
100
AcDbLine
 10
-179.029001
 20
-103.396511
 30
0.0
 11
-184.870662
 21
-109.238171
 31
0.0
  0
LINE
  5
4C8
100
AcDbEntity
  8
2
370
    25
100
AcDbLine
 10
-179.234928
 20
-105.01665
 30
0.0
 11
-183.250522
 21
-109.032245
 31
0.0
  0
LINE
  5
4C9
100
AcDbEntity
  8
2
370
    25
100
AcDbLine
 10
-335.430285
 20
-129.330718
 30
0.0
 11
-335.430285
 21
-128.080718
 31
0.0
  0
LINE
  5
4CA
100
AcDbEntity
  8
2
370
    25
100
AcDbLine
 10
-335.430285
 20
-118.080718
 30
0.0
 11
-335.430285
 21
-116.830718
 31
0.0
  0
LINE
  5
4CB
100
AcDbEntity
  8
2
370
    25
100
AcDbLine
 10
-336.137392
 20
-129.330718
 30
0.0
 11
-336.137392
 21
-128.080718
 31
0.0
  0
LINE
  5
4CC
100
AcDbEntity
  8
2
370
    25
100
AcDbLine
 10
-336.137392
 20
-118.080718
 30
0.0
 11
-336.137392
 21
-116.830718
 31
0.0
  0
LINE
  5
4CD
100
AcDbEntity
  8
2
370
    25
100
AcDbLine
 10
-339.866414
 20
-129.330718
 30
0.0
 11
-339.866414
 21
-128.080718
 31
0.0
  0
LINE
  5
4CE
100
AcDbEntity
  8
2
370
    25
100
AcDbLine
 10
-339.866414
 20
-118.080718
 30
0.0
 11
-339.866414
 21
-116.830718
 31
0.0
  0
LINE
  5
4CF
100
AcDbEntity
  8
2
370
    25
100
AcDbLine
 10
-340.866414
 20
-129.330718
 30
0.0
 11
-340.866414
 21
-128.080718
 31
0.0
  0
LINE
  5
4D0
100
AcDbEntity
  8
2
370
    25
100
AcDbLine
 10
-340.866414
 20
-118.080718
 30
0.0
 11
-340.866414
 21
-116.830718
 31
0.0
  0
LINE
  5
4D1
100
AcDbEntity
  8
2
370
    25
100
AcDbLine
 10
-344.595437
 20
-129.330718
 30
0.0
 11
-344.595437
 21
-128.080718
 31
0.0
  0
LINE
  5
4D2
100
AcDbEntity
  8
2
370
    25
100
AcDbLine
 10
-344.595437
 20
-118.080718
 30
0.0
 11
-344.595437
 21
-116.830718
 31
0.0
  0
LINE
  5
4D3
100
AcDbEntity
  8
2
370
    25
100
AcDbLine
 10
-345.302543
 20
-129.330718
 30
0.0
 11
-345.302543
 21
-128.080718
 31
0.0
  0
LINE
  5
4D4
100
AcDbEntity
  8
2
370
    25
100
AcDbLine
 10
-345.302543
 20
-118.080718
 30
0.0
 11
-345.302543
 21
-116.830718
 31
0.0
  0
LINE
  5
4D5
100
AcDbEntity
  8
2
370
    25
100
AcDbLine
 10
-179.84213
 20
-129.33072
 30
0.0
 11
-179.84213
 21
-128.08072
 31
0.0
  0
LINE
  5
4D6
100
AcDbEntity
  8
2
370
    25
100
AcDbLine
 10
-179.84213
 20
-118.08072
 30
0.0
 11
-179.84213
 21
-116.83072
 31
0.0
  0
LINE
  5
4D7
100
AcDbEntity
  8
2
370
    25
100
AcDbLine
 10
-180.549237
 20
-129.33072
 30
0.0
 11
-180.549237
 21
-128.08072
 31
0.0
  0
LINE
  5
4D8
100
AcDbEntity
  8
2
370
    25
100
AcDbLine
 10
-180.549237
 20
-118.08072
 30
0.0
 11
-180.549237
 21
-116.83072
 31
0.0
  0
LINE
  5
4D9
100
AcDbEntity
  8
2
370
    25
100
AcDbLine
 10
-184.278259
 20
-129.33072
 30
0.0
 11
-184.278259
 21
-128.08072
 31
0.0
  0
LINE
  5
4DA
100
AcDbEntity
  8
2
370
    25
100
AcDbLine
 10
-184.278259
 20
-118.08072
 30
0.0
 11
-184.278259
 21
-116.83072
 31
0.0
  0
LINE
  5
4DB
100
AcDbEntity
  8
2
370
    25
100
AcDbLine
 10
-185.278259
 20
-129.33072
 30
0.0
 11
-185.278259
 21
-128.08072
 31
0.0
  0
LINE
  5
4DC
100
AcDbEntity
  8
2
370
    25
100
AcDbLine
 10
-185.278259
 20
-118.08072
 30
0.0
 11
-185.278259
 21
-116.83072
 31
0.0
  0
LINE
  5
4DD
100
AcDbEntity
  8
2
370
    25
100
AcDbLine
 10
-189.007281
 20
-129.33072
 30
0.0
 11
-189.007281
 21
-128.08072
 31
0.0
  0
LINE
  5
4DE
100
AcDbEntity
  8
2
370
    25
100
AcDbLine
 10
-189.007281
 20
-118.08072
 30
0.0
 11
-189.007281
 21
-116.83072
 31
0.0
  0
LINE
  5
4DF
100
AcDbEntity
  8
2
370
    25
100
AcDbLine
 10
-189.714388
 20
-129.33072
 30
0.0
 11
-189.714388
 21
-128.08072
 31
0.0
  0
LINE
  5
4E0
100
AcDbEntity
  8
2
370
    25
100
AcDbLine
 10
-189.714388
 20
-118.08072
 30
0.0
 11
-189.714388
 21
-116.83072
 31
0.0
  0
ARC
  5
4E1
100
AcDbEntity
  8
2
370
    50
100
AcDbCircle
 10
-26.857473
 20
150.428793
 30
0.0
 40
2.5
100
AcDbArc
 50
101.319359
 51
165.0
  0
LWPOLYLINE
  5
4E2
100
AcDbEntity
  8
3
370
    25
100
AcDbPolyline
 90
        3
 70
     0
 10
-240.551224
 20
-39.406313
 10
-211.141052
 20
-69.768633
 10
-182.747034
 20
-69.768633
  0
LINE
  5
4E7
100
AcDbEntity
  8
3
370
    25
100
AcDbLine
 10
-237.863034
 20
-42.181532
 30
0.0
 11
-237.119417
 21
-41.461234
 31
0.0
  0
LINE
  5
4E8
100
AcDbEntity
  8
3
370
    25
100
AcDbLine
 10
-237.119417
 20
-41.461234
 30
0.0
 11
-240.551224
 21
-39.406313
 31
0.0
  0
LINE
  5
4E9
100
AcDbEntity
  8
3
370
    25
100
AcDbLine
 10
-240.551224
 20
-39.406313
 30
0.0
 11
-238.606652
 21
-42.901831
 31
0.0
  0
LINE
  5
4EA
100
AcDbEntity
  8
3
370
    25
100
AcDbLine
 10
-238.606652
 20
-42.901831
 30
0.0
 11
-237.863034
 21
-42.181532
 31
0.0
  0
TEXT
  5
4EB
100
AcDbEntity
  8
3
370
    50
100
AcDbText
 10
-211.774525
 20
-68.575182
 30
0.0
 40
6.0
  1
４６六角
 72
     5
 11
-188.974525
 21
-68.575182
 31
0.0
100
AcDbText
  0
TEXT
  5
4EC
100
AcDbEntity
  8
3
370
    50
100
AcDbText
 10
-187.352411
 20
-45.82689
 30
0.0
 40
6.0
  1
Ｗ３５　山１６
 72
     5
 11
-146.552411
 21
-45.82689
 31
0.0
100
AcDbText
  0
DIMENSION
  5
4ED
100
AcDbEntity
  8
3
370
    25
100
AcDbDimension
  2
*D1
 10
-173.653795
 20
127.592472
 30
0.0
 11
-167.661217
 21
96.509613
 31
0.0
 70
     2
 71
     0
 72
     0
 41
0.0
 42
0.0
  3
Standard
100
AcDb2LineAngularDimension
 13
-173.654541
 23
127.592557
 33
0.0
 14
-173.653795
 24
127.595787
 34
0.0
 15
-173.653795
 25
127.595787
 35
0.0
 16
-177.406007
 26
94.663044
 36
0.0
1001
ACAD
1000
DSTYLE
1002
{
1070
   275
1070
     0
1070
   179
1070
     2
1002
}
  0
DIMENSION
  5
4EE
100
AcDbEntity
  8
3
370
    25
100
AcDbDimension
  2
*D2
 10
-197.031717
 20
127.595787
 30
0.0
 11
-207.031717
 21
51.832292
 31
0.0
 71
     0
 72
     0
 41
0.0
 42
0.0
  3
Standard
100
AcDbAlignedDimension
 13
62.191261
 23
-11.931202
 33
0.0
 14
-173.653795
 24
127.595787
 34
0.0
 50
90.0
100
AcDbRotatedDimension
  0
TEXT
  5
4EF
100
AcDbEntity
  8
3
370
    50
100
AcDbText
 10
7.807367
 20
-105.391034
 30
0.0
 40
6.0
  1
（金具先端マデ）
 50
90.0
 72
     5
 11
7.807367
 21
-58.591034
 31
0.0
100
AcDbText
  0
TEXT
  5
4F0
100
AcDbEntity
  8
3
370
    50
100
AcDbText
 10
-2.785353
 20
-97.330654
 30
0.0
 40
6.0
  1
（湯、水　同様）
 50
90.0
 72
     5
 11
-2.785353
 21
-50.530654
 31
0.0
100
AcDbText
  0
TEXT
  5
4F1
100
AcDbEntity
  8
3
370
    50
100
AcDbText
 10
-2.785353
 20
-118.330654
 30
0.0
 40
6.0
  1
397
 50
90.0
 41
2.0
 72
     5
 11
-2.785353
 21
-102.730654
 31
0.0
100
AcDbText
  0
DIMENSION
  5
4F2
100
AcDbEntity
  8
3
370
    25
100
AcDbDimension
  2
*D3
 10
88.391261
 20
-24.196709
 30
0.0
 11
-45.631267
 21
-20.196709
 31
0.0
 71
     0
 72
     0
 41
0.0
 42
0.0
  3
Standard
100
AcDbAlignedDimension
 13
-173.653795
 23
127.595787
 33
0.0
 14
88.391261
 24
-22.931202
 34
0.0
100
AcDbRotatedDimension
  0
LWPOLYLINE
  5
4F3
100
AcDbEntity
  8
3
370
    25
100
AcDbPolyline
 90
        3
 70
     0
 10
-245.072337
 20
-20.491148
 10
-200.171426
 20
-47.699309
 10
-130.168283
 20
-47.699309
  0
LINE
  5
4F8
100
AcDbEntity
  8
3
370
    25
100
AcDbLine
 10
-241.767959
 20
-22.493469
 30
0.0
 11
-241.231438
 21
-21.608063
 31
0.0
  0
LINE
  5
4F9
100
AcDbEntity
  8
3
370
    25
100
AcDbLine
 10
-241.231438
 20
-21.608063
 30
0.0
 11
-245.072337
 21
-20.491148
 31
0.0
  0
LINE
  5
4FA
100
AcDbEntity
  8
3
370
    25
100
AcDbLine
 10
-245.072337
 20
-20.491148
 30
0.0
 11
-242.304479
 21
-23.378874
 31
0.0
  0
LINE
  5
4FB
100
AcDbEntity
  8
3
370
    25
100
AcDbLine
 10
-242.304479
 20
-23.378874
 30
0.0
 11
-241.767959
 21
-22.493469
 31
0.0
  0
DIMENSION
  5
4FC
100
AcDbEntity
  8
3
370
    25
100
AcDbDimension
  2
*D4
 10
-211.896509
 20
185.245837
 30
0.0
 11
-221.896509
 21
83.657318
 31
0.0
 71
     0
 72
     0
 41
0.0
 42
0.0
  3
Standard
100
AcDbAlignedDimension
 13
62.191261
 23
-11.931202
 33
0.0
 14
-180.100084
 24
185.245837
 34
0.0
 50
90.0
100
AcDbRotatedDimension
  0
TEXT
  5
4FD
100
AcDbEntity
  8
3
370
    50
100
AcDbText
 10
-316.591867
 20
-70.930941
 30
0.0
 40
6.0
  1
ＭＡＸ３０
 50
90.0
 72
     5
 11
-316.591867
 21
-42.130941
 31
0.0
100
AcDbText
  0
DIMENSION
  5
4FE
100
AcDbEntity
  8
3
370
    25
100
AcDbDimension
  2
*D5
 10
-315.591867
 20
-11.931202
 30
0.0
 11
-318.091867
 21
-49.430941
 31
0.0
 71
     0
 72
     0
 41
0.0
 42
0.0
  3
Standard
100
AcDbAlignedDimension
 13
-287.572337
 23
-27.930941
 33
0.0
 14
-288.772337
 24
-11.931202
 34
0.0
 50
90.0
100
AcDbRotatedDimension
  0
TEXT
  5
4FF
100
AcDbEntity
  8
3
370
    50
100
AcDbText
 10
-30.149219
 20
159.502189
 30
0.0
 40
6.0
  1
止水
 72
     5
 11
-19.349219
 21
159.502189
 31
0.0
100
AcDbText
  0
TEXT
  5
500
100
AcDbEntity
  8
3
370
    50
100
AcDbText
 10
-35.58029
 20
179.672256
 30
0.0
 40
6.0
  1
３０゜
 50
64.197115
 72
     5
 11
-28.267646
 21
194.797243
 31
0.0
100
AcDbText
  0
TEXT
  5
501
100
AcDbEntity
  8
3
370
    50
100
AcDbText
 10
17.229358
 20
210.414183
 30
0.0
 40
6.0
  1
吐水
 72
     5
 11
28.029358
 21
210.414183
 31
0.0
100
AcDbText
  0
DIMENSION
  5
502
100
AcDbEntity
  8
3
370
    25
100
AcDbDimension
  2
*D6
 10
236.874988
 20
201.568564
 30
0.0
 11
226.874988
 21
90.318898
 31
0.0
 71
     0
 72
     0
 41
0.0
 42
0.0
  3
Standard
100
AcDbAlignedDimension
 13
114.590189
 23
-11.930768
 33
0.0
 14
22.112611
 24
201.568564
 34
0.0
 50
90.0
100
AcDbRotatedDimension
  0
DIMENSION
  5
503
100
AcDbEntity
  8
3
370
    25
100
AcDbDimension
  2
*D7
 10
217.077655
 20
154.549578
 30
0.0
 11
214.577655
 21
71.309405
 31
0.0
 71
     0
 72
     0
 41
0.0
 42
0.0
  3
Standard
100
AcDbAlignedDimension
 13
114.590189
 23
-11.930768
 33
0.0
 14
-15.918188
 24
154.549578
 34
0.0
 50
90.0
100
AcDbRotatedDimension
  0
TEXT
  5
504
100
AcDbEntity
  8
3
370
    50
100
AcDbText
 10
216.355307
 20
64.381481
 30
0.0
 40
6.0
  1
１６６
 50
90.0
 72
     5
 11
216.355307
 21
81.181481
 31
0.0
100
AcDbText
  0
LWPOLYLINE
  5
505
100
AcDbEntity
  8
3
370
    25
100
AcDbPolyline
 90
        2
 70
     0
 10
-339.584651
 20
-161.692376
 10
-364.254184
 20
-156.543862
  0
LINE
  5
509
100
AcDbEntity
  8
3
370
    25
100
AcDbLine
 10
-343.366865
 20
-160.90303
 30
0.0
 11
-343.578369
 21
-161.916471
 31
0.0
  0
LINE
  5
50A
100
AcDbEntity
  8
3
370
    25
100
AcDbLine
 10
-343.578369
 20
-161.916471
 30
0.0
 11
-339.584651
 21
-161.692376
 31
0.0
  0
LINE
  5
50B
100
AcDbEntity
  8
3
370
    25
100
AcDbLine
 10
-339.584651
 20
-161.692376
 30
0.0
 11
-343.15536
 21
-159.889589
 31
0.0
  0
LINE
  5
50C
100
AcDbEntity
  8
3
370
    25
100
AcDbLine
 10
-343.15536
 20
-159.889589
 30
0.0
 11
-343.366865
 21
-160.90303
 31
0.0
  0
TEXT
  5
50D
100
AcDbEntity
  8
3
370
    50
100
AcDbText
 10
-401.318996
 20
-159.431099
 30
0.0
 40
6.0
  1
逆止弁内蔵
 72
     5
 11
-372.518996
 21
-159.431099
 31
0.0
100
AcDbText
  0
TEXT
  5
50E
100
AcDbEntity
  8
3
370
    50
100
AcDbText
 10
-160.025677
 20
-159.431099
 30
0.0
 40
6.0
  1
逆止弁内蔵
 72
     5
 11
-131.225677
 21
-159.431099
 31
0.0
100
AcDbText
  0
LWPOLYLINE
  5
50F
100
AcDbEntity
  8
3
370
    25
100
AcDbPolyline
 90
        2
 70
     0
 10
-186.760022
 20
-161.692376
 10
-162.090489
 20
-156.543862
  0
LINE
  5
513
100
AcDbEntity
  8
3
370
    25
100
AcDbLine
 10
-182.977808
 20
-160.90303
 30
0.0
 11
-183.189313
 21
-159.889589
 31
0.0
  0
LINE
  5
514
100
AcDbEntity
  8
3
370
    25
100
AcDbLine
 10
-183.189313
 20
-159.889589
 30
0.0
 11
-186.760022
 21
-161.692376
 31
0.0
  0
LINE
  5
515
100
AcDbEntity
  8
3
370
    25
100
AcDbLine
 10
-186.760022
 20
-161.692376
 30
0.0
 11
-182.766304
 21
-161.916471
 31
0.0
  0
LINE
  5
516
100
AcDbEntity
  8
3
370
    25
100
AcDbLine
 10
-182.766304
 20
-161.916471
 30
0.0
 11
-182.977808
 21
-160.90303
 31
0.0
  0
TEXT
  5
517
100
AcDbEntity
  8
3
370
    50
100
AcDbText
 10
106.098395
 20
-194.969399
 30
0.0
 40
6.0
  1
Ｇ１／２
 72
     5
 11
128.898395
 21
-194.969399
 31
0.0
100
AcDbText
  0
TEXT
  5
518
100
AcDbEntity
  8
3
370
    50
100
AcDbText
 10
34.430312
 20
-191.345377
 30
0.0
 40
6.0
  1
２４六角
 72
     5
 11
57.230312
 21
-191.345377
 31
0.0
100
AcDbText
  0
LWPOLYLINE
  5
519
100
AcDbEntity
  8
3
370
    25
100
AcDbPolyline
 90
        3
 70
     0
 10
76.390706
 20
-186.393762
 10
62.610411
 20
-192.83941
 10
33.043128
 20
-192.83941
  0
LINE
  5
51E
100
AcDbEntity
  8
3
370
    25
100
AcDbLine
 10
72.890929
 20
-188.030761
 30
0.0
 11
73.329562
 21
-188.968524
 31
0.0
  0
LINE
  5
51F
100
AcDbEntity
  8
3
370
    25
100
AcDbLine
 10
73.329562
 20
-188.968524
 30
0.0
 11
76.390706
 21
-186.393762
 31
0.0
  0
LINE
  5
520
100
AcDbEntity
  8
3
370
    25
100
AcDbLine
 10
76.390706
 20
-186.393762
 30
0.0
 11
72.452296
 21
-187.092999
 31
0.0
  0
LINE
  5
521
100
AcDbEntity
  8
3
370
    25
100
AcDbLine
 10
72.452296
 20
-187.092999
 30
0.0
 11
72.890929
 21
-188.030761
 31
0.0
  0
TEXT
  5
522
100
AcDbEntity
  8
3
370
    50
100
AcDbText
 10
-234.350747
 20
204.100334
 30
0.0
 40
6.0
  1
整流吐水の表示
 72
     5
 11
-193.550747
 21
204.100334
 31
0.0
100
AcDbText
  0
TEXT
  5
523
100
AcDbEntity
  8
3
370
    50
100
AcDbText
 10
-346.363107
 20
203.895652
 30
0.0
 40
6.0
  1
シャワー吐水の表示
 72
     5
 11
-293.563107
 21
203.895652
 31
0.0
100
AcDbText
  0
LWPOLYLINE
  5
524
100
AcDbEntity
  8
3
370
    25
100
AcDbPolyline
 90
        2
 70
     0
 10
-252.139252
 20
177.160762
 10
-233.351914
 20
203.648371
  0
LINE
  5
528
100
AcDbEntity
  8
3
370
    25
100
AcDbLine
 10
-249.903962
 20
180.312219
 30
0.0
 11
-250.748392
 21
180.911163
 31
0.0
  0
LINE
  5
529
100
AcDbEntity
  8
3
370
    25
100
AcDbLine
 10
-250.748392
 20
180.911163
 30
0.0
 11
-252.139252
 21
177.160762
 31
0.0
  0
LINE
  5
52A
100
AcDbEntity
  8
3
370
    25
100
AcDbLine
 10
-252.139252
 20
177.160762
 30
0.0
 11
-249.059532
 21
179.713275
 31
0.0
  0
LINE
  5
52B
100
AcDbEntity
  8
3
370
    25
100
AcDbLine
 10
-249.059532
 20
179.713275
 30
0.0
 11
-249.903962
 21
180.312219
 31
0.0
  0
LWPOLYLINE
  5
52C
100
AcDbEntity
  8
3
370
    25
100
AcDbPolyline
 90
        2
 70
     0
 10
-272.980103
 20
177.160762
 10
-291.767441
 20
203.648371
  0
LINE
  5
530
100
AcDbEntity
  8
3
370
    25
100
AcDbLine
 10
-275.215393
 20
180.312219
 30
0.0
 11
-276.059823
 21
179.713275
 31
0.0
  0
LINE
  5
531
100
AcDbEntity
  8
3
370
    25
100
AcDbLine
 10
-276.059823
 20
179.713275
 30
0.0
 11
-272.980103
 21
177.160762
 31
0.0
  0
LINE
  5
532
100
AcDbEntity
  8
3
370
    25
100
AcDbLine
 10
-272.980103
 20
177.160762
 30
0.0
 11
-274.370963
 21
180.911163
 31
0.0
  0
LINE
  5
533
100
AcDbEntity
  8
3
370
    25
100
AcDbLine
 10
-274.370963
 20
180.911163
 30
0.0
 11
-275.215393
 21
180.312219
 31
0.0
  0
DIMENSION
  5
534
100
AcDbEntity
  8
3
370
    25
100
AcDbDimension
  2
*D8
 10
-289.072337
 20
-6.047337
 30
0.0
 11
-305.072337
 21
-2.047337
 31
0.0
 70
     1
 71
     0
 72
     0
 41
0.0
 42
0.0
  3
Standard
100
AcDbAlignedDimension
 13
-236.072337
 23
-6.047337
 33
0.0
 14
-289.072337
 24
-6.047337
 34
0.0
  0
TEXT
  5
535
100
AcDbEntity
  8
3
370
    50
100
AcDbText
 10
99.372962
 20
228.66822
 30
0.0
 40
6.0
  1
赤色
 72
     5
 11
110.172962
 21
228.66822
 31
0.0
100
AcDbText
  0
TEXT
  5
536
100
AcDbEntity
  8
3
370
    50
100
AcDbText
 10
92.145239
 20
222.713493
 30
0.0
 40
6.0
  1
（湯表示）
 72
     5
 11
120.945239
 21
222.713493
 31
0.0
100
AcDbText
  0
TEXT
  5
537
100
AcDbEntity
  8
3
370
    50
100
AcDbText
 10
93.779074
 20
212.479759
 30
0.0
 40
6.0
  1
青色
 72
     5
 11
104.579074
 21
212.479759
 31
0.0
100
AcDbText
  0
TEXT
  5
538
100
AcDbEntity
  8
3
370
    50
100
AcDbText
 10
84.969428
 20
206.269676
 30
0.0
 40
6.0
  1
（湯表示）
 72
     5
 11
113.769428
 21
206.269676
 31
0.0
100
AcDbText
  0
LWPOLYLINE
  5
539
100
AcDbEntity
  8
3
370
    25
100
AcDbPolyline
 90
        3
 70
     0
 10
74.044959
 20
265.288551
 10
93.276251
 20
231.819511
 10
97.450873
 20
231.819511
  0
LINE
  5
53E
100
AcDbEntity
  8
3
370
    25
100
AcDbLine
 10
75.969895
 20
261.938502
 30
0.0
 11
76.867538
 21
262.454287
 31
0.0
  0
LINE
  5
53F
100
AcDbEntity
  8
3
370
    25
100
AcDbLine
 10
76.867538
 20
262.454287
 30
0.0
 11
74.044959
 21
265.288551
 31
0.0
  0
LINE
  5
540
100
AcDbEntity
  8
3
370
    25
100
AcDbLine
 10
74.044959
 20
265.288551
 30
0.0
 11
75.072252
 21
261.422717
 31
0.0
  0
LINE
  5
541
100
AcDbEntity
  8
3
370
    25
100
AcDbLine
 10
75.072252
 20
261.422717
 30
0.0
 11
75.969895
 21
261.938502
 31
0.0
  0
LWPOLYLINE
  5
542
100
AcDbEntity
  8
3
370
    25
100
AcDbPolyline
 90
        3
 70
     0
 10
67.593413
 20
254.092933
 10
83.875983
 20
215.326057
 10
91.691825
 20
215.326057
  0
LINE
  5
547
100
AcDbEntity
  8
3
370
    25
100
AcDbLine
 10
69.089602
 20
250.530684
 30
0.0
 11
70.044104
 21
250.931586
 31
0.0
  0
LINE
  5
548
100
AcDbEntity
  8
3
370
    25
100
AcDbLine
 10
70.044104
 20
250.931586
 30
0.0
 11
67.593413
 21
254.092933
 31
0.0
  0
LINE
  5
549
100
AcDbEntity
  8
3
370
    25
100
AcDbLine
 10
67.593413
 20
254.092933
 30
0.0
 11
68.1351
 21
250.129781
 31
0.0
  0
LINE
  5
54A
100
AcDbEntity
  8
3
370
    25
100
AcDbLine
 10
68.1351
 20
250.129781
 30
0.0
 11
69.089602
 21
250.530684
 31
0.0
  0
DIMENSION
  5
54B
100
AcDbEntity
  8
3
370
    25
100
AcDbDimension
  2
*D9
 10
-1.785353
 20
-11.930659
 30
0.0
 11
-4.285353
 21
-85.630654
 31
0.0
 71
     0
 72
     0
 41
0.0
 42
0.0
  3
Standard
100
AcDbAlignedDimension
 13
84.39126
 23
-159.330648
 33
0.0
 14
62.19126
 24
-11.930659
 34
0.0
 50
90.0
100
AcDbRotatedDimension
  0
LWPOLYLINE
  5
54C
100
AcDbEntity
  8
3
370
    25
100
AcDbPolyline
 90
        3
 70
     0
 10
94.049094
 20
-192.579909
 10
103.453436
 20
-196.386818
 10
131.353659
 20
-196.386818
  0
LINE
  5
551
100
AcDbEntity
  8
3
370
    25
100
AcDbLine
 10
97.63049
 20
-194.02967
 30
0.0
 11
98.018952
 21
-193.070038
 31
0.0
  0
LINE
  5
552
100
AcDbEntity
  8
3
370
    25
100
AcDbLine
 10
98.018952
 20
-193.070038
 30
0.0
 11
94.049094
 21
-192.579909
 31
0.0
  0
LINE
  5
553
100
AcDbEntity
  8
3
370
    25
100
AcDbLine
 10
94.049094
 20
-192.579909
 30
0.0
 11
97.242027
 21
-194.989302
 31
0.0
  0
LINE
  5
554
100
AcDbEntity
  8
3
370
    25
100
AcDbLine
 10
97.242027
 20
-194.989302
 30
0.0
 11
97.63049
 21
-194.02967
 31
0.0
  0
TEXT
  5
555
100
AcDbEntity
  8
3
370
    50
100
AcDbText
 10
-189.570672
 20
-55.250641
 30
0.0
 40
6.0
  1
取付穴φ３７±１
 72
     5
 11
-142.770672
 21
-55.250641
 31
0.0
100
AcDbText
  0
ENDSEC
  0
SECTION
  2
OBJECTS
  0
DICTIONARY
  5
5C7
100
AcDbDictionary
280
     0
281
     1
  3
ACAD_GROUP
350
5C8
  3
ACAD_MLINESTYLE
350
5C9
  0
DICTIONARY
  5
5C8
102
{ACAD_REACTORS
330
5C7
102
}
100
AcDbDictionary
280
     0
281
     1
  0
DICTIONARY
  5
5C9
102
{ACAD_REACTORS
330
5C7
102
}
100
AcDbDictionary
280
     0
281
     1
  3
Standard
350
5CA
  0
MLINESTYLE
  5
5CA
102
{ACAD_REACTORS
330
5C9
102
}
100
AcDbMlineStyle
  2
Standard
 70
     0
  3

 62
     0
 51
90.0
 52
90.0
 71
     2
 49
0.5
 62
   256
  6
ByLayer
 49
-0.5
 62
   256
  6
ByLayer
  0
ENDSEC
  0
EOF
