  0
SECTION
  2
HEADER
  9
$ACADVER
  1
AC1015
  9
$ACADMAINTVER
 70
     6
  9
$DWGCODEPAGE
  3
ANSI_932
  9
$INSBASE
 10
0.0
 20
0.0
 30
0.0
  9
$EXTMIN
 10
-420.0
 20
-297.0
 30
1.000000E+20
  9
$EXTMAX
 10
420.0
 20
297.0
 30
-1.000000E+20
  9
$LIMMIN
 10
-420.0
 20
-297.0
  9
$LIMMAX
 10
420.0
 20
297.0
  9
$ORTHOMODE
 70
     0
  9
$REGENMODE
 70
     1
  9
$FILLMODE
 70
     1
  9
$QTEXTMODE
 70
     0
  9
$MIRRTEXT
 70
     1
  9
$LTSCALE
 40
1.0
  9
$ATTMODE
 70
     1
  9
$TEXTSIZE
 40
0.2
  9
$TRACEWID
 40
0.05
  9
$TEXTSTYLE
  7
STANDARD
  9
$CLAYER
  8
0
  9
$CELTYPE
  6
CONTINUOUS
  9
$CECOLOR
 62
   256
  9
$CELTSCALE
 40
1.0
  9
$DISPSILH
 70
     0
  9
$DIMSCALE
 40
2.0
  9
$DIMASZ
 40
2.0
  9
$DIMEXO
 40
1.0
  9
$DIMDLI
 40
0.38
  9
$DIMRND
 40
0.0
  9
$DIMDLE
 40
0.0
  9
$DIMEXE
 40
2.0
  9
$DIMTP
 40
0.0
  9
$DIMTM
 40
0.0
  9
$DIMTXT
 40
3.5
  9
$DIMCEN
 40
0.09
  9
$DIMTSZ
 40
0.0
  9
$DIMTOL
 70
     0
  9
$DIMLIM
 70
     0
  9
$DIMTIH
 70
     0
  9
$DIMTOH
 70
     0
  9
$DIMSE1
 70
     0
  9
$DIMSE2
 70
     0
  9
$DIMTAD
 70
     1
  9
$DIMZIN
 70
     0
  9
$DIMBLK
  1

  9
$DIMASO
 70
     1
  9
$DIMSHO
 70
     1
  9
$DIMPOST
  1

  9
$DIMAPOST
  1

  9
$DIMALT
 70
     0
  9
$DIMALTD
 70
     2
  9
$DIMALTF
 40
25.4
  9
$DIMLFAC
 40
1.0
  9
$DIMTOFL
 70
     0
  9
$DIMTVP
 40
0.0
  9
$DIMTIX
 70
     0
  9
$DIMSOXD
 70
     0
  9
$DIMSAH
 70
     0
  9
$DIMBLK1
  1

  9
$DIMBLK2
  1

  9
$DIMSTYLE
  2
Standard
  9
$DIMCLRD
 70
     0
  9
$DIMCLRE
 70
     0
  9
$DIMCLRT
 70
     0
  9
$DIMTFAC
 40
1.0
  9
$DIMGAP
 40
0.5
  9
$DIMJUST
 70
     0
  9
$DIMSD1
 70
     0
  9
$DIMSD2
 70
     0
  9
$DIMTOLJ
 70
     1
  9
$DIMTZIN
 70
     0
  9
$DIMALTZ
 70
     0
  9
$DIMALTTZ
 70
     0
  9
$DIMUPT
 70
     0
  9
$DIMDEC
 70
     3
  9
$DIMTDEC
 70
     4
  9
$DIMALTU
 70
     2
  9
$DIMALTTD
 70
     2
  9
$DIMTXSTY
  7
STANDARD
  9
$DIMAUNIT
 70
     0
  9
$DIMADEC
 70
     2
  9
$DIMALTRND
 40
0.0
  9
$DIMAZIN
 70
     0
  9
$DIMDSEP
 70
     0
  9
$DIMATFIT
 70
     3
  9
$DIMFRAC
 70
     0
  9
$DIMLDRBLK
  1

  9
$DIMLUNIT
 70
     2
  9
$DIMLWD
 70
     0
  9
$DIMLWE
 70
     0
  9
$DIMTMOVE
 70
     0
  9
$LUNITS
 70
     2
  9
$LUPREC
 70
     4
  9
$SKETCHINC
 40
0.1
  9
$FILLETRAD
 40
0.0
  9
$AUNITS
 70
     0
  9
$AUPREC
 70
     0
  9
$MENU
  1
acad
  9
$ELEVATION
 40
0.0
  9
$PELEVATION
 40
0.0
  9
$THICKNESS
 40
0.0
  9
$LIMCHECK
 70
     0
  9
$CHAMFERA
 40
0.0
  9
$CHAMFERB
 40
0.0
  9
$CHAMFERC
 40
0.0
  9
$CHAMFERD
 40
0.0
  9
$SKPOLY
 70
     0
  9
$TDCREATE
 40
2459501.000000000
  9
$TDUCREATE
 40
0.000000000
  9
$TDUPDATE
 40
0.000000000
  9
$TDUUPDATE
 40
2447892.625000000
  9
$TDINDWG
 40
0.0000000000
  9
$TDUSRTIMER
 40
0.0000000000
  9
$USRTIMER
 70
     1
  9
$ANGBASE
 50
0.0
  9
$ANGDIR
 70
     0
  9
$PDMODE
 70
     0
  9
$PDSIZE
 40
0.0
  9
$PLINEWID
 40
0.0
  9
$SPLFRAME
 70
     0
  9
$SPLINETYPE
 70
     6
  9
$SPLINESEGS
 70
     8
  9
$HANDSEED
  5
4E1
  9
$SURFTAB1
 70
     6
  9
$SURFTAB2
 70
     6
  9
$SURFTYPE
 70
     6
  9
$SURFU
 70
     6
  9
$SURFV
 70
     6
  9
$UCSBASE
  2

  9
$UCSNAME
  2

  9
$UCSORG
 10
0.0
 20
0.0
 30
0.0
  9
$UCSXDIR
 10
1.0
 20
0.0
 30
0.0
  9
$UCSYDIR
 10
0.0
 20
1.0
 30
0.0
  9
$UCSORTHOREF
  2

  9
$UCSORTHOVIEW
 70
     0
  9
$UCSORGTOP
 10
0.0
 20
0.0
 30
0.0
  9
$UCSORGBOTTOM
 10
0.0
 20
0.0
 30
0.0
  9
$UCSORGLEFT
 10
0.0
 20
0.0
 30
0.0
  9
$UCSORGRIGHT
 10
0.0
 20
0.0
 30
0.0
  9
$UCSORGFRONT
 10
0.0
 20
0.0
 30
0.0
  9
$UCSORGBACK
 10
0.0
 20
0.0
 30
0.0
  9
$PUCSBASE
  2

  9
$PUCSNAME
  2

  9
$PUCSORG
 10
0.0
 20
0.0
 30
0.0
  9
$PUCSXDIR
 10
1.0
 20
0.0
 30
0.0
  9
$PUCSYDIR
 10
0.0
 20
1.0
 30
0.0
  9
$PUCSORTHOREF
  2

  9
$PUCSORTHOVIEW
 70
     0
  9
$PUCSORGTOP
 10
0.0
 20
0.0
 30
0.0
  9
$PUCSORGBOTTOM
 10
0.0
 20
0.0
 30
0.0
  9
$PUCSORGLEFT
 10
0.0
 20
0.0
 30
0.0
  9
$PUCSORGRIGHT
 10
0.0
 20
0.0
 30
0.0
  9
$PUCSORGFRONT
 10
0.0
 20
0.0
 30
0.0
  9
$PUCSORGBACK
 10
0.0
 20
0.0
 30
0.0
  9
$USERI1
 70
     0
  9
$USERI2
 70
     0
  9
$USERI3
 70
     0
  9
$USERI4
 70
     0
  9
$USERI5
 70
     0
  9
$USERR1
 40
0.0
  9
$USERR2
 40
0.0
  9
$USERR3
 40
0.0
  9
$USERR4
 40
0.0
  9
$USERR5
 40
0.0
  9
$WORLDVIEW
 70
     1
  9
$SHADEDGE
 70
     3
  9
$SHADEDIF
 70
    70
  9
$TILEMODE
 70
     1
  9
$MAXACTVP
 70
    16
  9
$PINSBASE
 10
0.0
 20
0.0
 30
0.0
  9
$PLIMCHECK
 70
     0
  9
$PEXTMIN
 10
1.000000E+20
 20
1.000000E+20
 30
1.000000E+20
  9
$PEXTMAX
 10
-1.000000E+20
 20
-1.000000E+20
 30
-1.000000E+20
  9
$PLIMMIN
 10
0.0
 20
0.0
  9
$PLIMMAX
 10
12.0
 20
9.0
  9
$UNITMODE
 70
     0
  9
$VISRETAIN
 70
     0
  9
$PLINEGEN
 70
     1
  9
$PSLTSCALE
 70
     0
  9
$TREEDEPTH
 70
  3020
  9
$CMLSTYLE
  2
Standard
  9
$CMLJUST
 70
     0
  9
$CMLSCALE
 40
1.0
  9
$PROXYGRAPHICS
 70
     0
  9
$MEASUREMENT
 70
     0
  9
$CELWEIGHT
370
     0
  9
$ENDCAPS
280
     0
  9
$JOINSTYLE
280
     0
  9
$LWDISPLAY
290
     0
  9
$INSUNITS
 70
     0
  9
$HYPERLINKBASE
  1

  9
$STYLESHEET
  1

  9
$XEDIT
290
     1
  9
$CEPSNTYPE
380
     0
  9
$PSTYLEMODE
290
     1
  9
$FINGERPRINTGUID
  2

  9
$VERSIONGUID
  2

  9
$EXTNAMES
290
     1
  9
$PSVPSCALE
 40
0.0
  0
ENDSEC
  0
SECTION
  2
CLASSES
  0
CLASS
  1
LWPOLYLINE
  2
AcDbPolyline
  3
AutoCAD 2000
 90
        0
280
     0
281
     1
  0
CLASS
  1
IMAGE
  2
AcDbRasterImage
  3
ISM
 90
      127
280
     0
281
     1
  0
CLASS
  1
OLE2FRAME
  2
AcDbOle2Frame
  3
AutoCAD 2000
 90
        0
280
     0
281
     1
  0
CLASS
  1
HATCH
  2
AcDbHatch
  3
AutoCAD 2000
 90
        0
280
     0
281
     1
  0
CLASS
  1
DICTIONARYVAR
  2
AcDbDictionaryVar
  3
AutoCAD 2000
 90
        0
280
     0
281
     0
  0
CLASS
  1
RASTERVARIABLES
  2
AcDbRasterVariables
  3
ISM
 90
        0
280
     0
281
     0
  0
CLASS
  1
IMAGEDEF
  2
AcDbRasterImageDef
  3
ISM
 90
        0
280
     0
281
     0
  0
CLASS
  1
IMAGEDEF_REACTOR
  2
AcDbRasterImageDefReactor
  3
ISM
 90
        1
280
     0
281
     0
  0
CLASS
  1
IDBUFFER
  2
AcDbIdBuffer
  3
AutoCAD 2000
 90
        0
280
     0
281
     0
  0
CLASS
  1
SPATIAL_FILTER
  2
AcDbSpatialFilter
  3
AutoCAD 2000
 90
        0
280
     0
281
     0
  0
CLASS
  1
XRECORD
  2
AcDbXrecord
  3
AutoCAD 2000
 90
        0
280
     0
281
     0
  0
CLASS
  1
SORTENTSTABLE
  2
AcDbSortentsTable
  3
AutoCAD 2000
 90
        0
280
     0
281
     0
  0
CLASS
  1
LAYER_INDEX
  2
AcDbLayerIndex
  3
AutoCAD 2000
 90
        0
280
     0
281
     0
  0
CLASS
  1
SPATIAL_INDEX
  2
AcDbSpatialIndex
  3
AutoCAD 2000
 90
        0
280
     0
281
     0
  0
CLASS
  1
OBJECT_PTR
  2
CAseDLPNTableRecord
  3
"ASE-LPNTableRecord"
 90
        1
280
     0
281
     0
  0
CLASS
  1
LAYOUT
  2
AcDbLayout
  3
AutoCAD 2000
 90
        0
280
     0
281
     0
  0
CLASS
  1
PLOTSETTINGS
  2
AcDbPlotSettings
  3
AutoCAD 2000
 90
        0
280
     0
281
     0
  0
CLASS
  1
ACDBDICTIONARYWDFLT
  2
AcDbDictionaryWithDefault
  3
AutoCAD 2000
 90
        0
280
     0
281
     0
  0
CLASS
  1
ACDBPLACEHOLDER
  2
AcDbPlaceHolder
  3
AutoCAD 2000
 90
        0
280
     0
281
     0
  0
CLASS
  1
VBA_PROJECT
  2
AcDbVbaProject
  3
acadvba
 90
        0
280
     0
281
     0
  0
CLASS
  1
WIPEOUT
  2
AcDbWipeout
  3
WipeOut|AutoCAD Express Tool|expresstools@autodesk.com
 90
      127
280
     0
281
     1
  0
CLASS
  1
WIPEOUTVARIABLES
  2
AcDbWipeoutVariables
  3
WipeOut|AutoCAD Express Tool|expresstools@autodesk.com
 90
        0
280
     0
281
     0
  0
CLASS
  1
RTEXT
  2
RText
  3
RText|AutoCAD Express Tool|expresstools@autodesk.com
 90
        0
280
     0
281
     1
  0
CLASS
  1
ARCALIGNEDTEXT
  2
AcDbArcAlignedText
  3
ATEXT|AutoCAD Express Tool|expresstools@autodesk.com
 90
        0
280
     0
281
     1
  0
ENDSEC
  0
SECTION
  2
TABLES
  0
TABLE
  2
VPORT
  5
6
100
AcDbSymbolTable
 70
     1
  0
VPORT
  5
19
100
AcDbSymbolTableRecord
100
AcDbViewportTableRecord
  2
*ACTIVE
 70
     0
 10
0.0
 20
0.0
 11
1.0
 21
1.0
 12
0.0
 22
0.0
 13
0.0
 23
0.0
 14
1.0
 24
1.0
 15
0.0
 25
0.0
 16
0.0
 26
0.0
 36
1.0
 17
0.0
 27
0.0
 37
0.0
 40
594.0
 41
1.414141
 42
50.0
 43
0.0
 44
0.0
 50
0.0
 51
0.0
 71
     0
 72
   500
 73
     1
 74
     1
 75
     0
 76
     0
 77
     0
 78
     0
281
     0
 65
     0
110
0.0
120
0.0
130
0.0
111
1.0
121
0.0
131
0.0
112
0.0
122
1.0
132
0.0
345
0
346
0
 79
     0
146
0.0
  0
ENDTAB
  0
TABLE
  2
LTYPE
  5
3
100
AcDbSymbolTable
 70
     9
  0
LTYPE
  5
C
100
AcDbSymbolTableRecord
100
AcDbLinetypeTableRecord
  2
ByBlock
 70
    64
  3

 72
    65
 73
     0
 40
0.0
  0
LTYPE
  5
D
100
AcDbSymbolTableRecord
100
AcDbLinetypeTableRecord
  2
ByLayer
 70
    64
  3

 72
    65
 73
     0
 40
0.0
  0
LTYPE
  5
E
100
AcDbSymbolTableRecord
100
AcDbLinetypeTableRecord
  2
CONTINUOUS
 70
     0
  3
Solid line
 72
    65
 73
     0
 40
0.0
  0
LTYPE
  5
F
100
AcDbSymbolTableRecord
100
AcDbLinetypeTableRecord
  2
DASHED
 70
     0
  3
__ __ __ __ __ __ __ __ __ __ __ __ __ __ __
 72
    65
 73
     2
 40
2.0
 49
1.2
 74
     0
 49
-0.8
 74
     0
  0
LTYPE
  5
10
100
AcDbSymbolTableRecord
100
AcDbLinetypeTableRecord
  2
CENTER
 70
     0
  3
____ _ ____ _ ____ _ ____ _ ____ _ ____ _ ____
 72
    65
 73
     4
 40
12.0
 49
9.0
 74
     0
 49
-1.0
 74
     0
 49
1.0
 74
     0
 49
-1.0
 74
     0
  0
LTYPE
  5
11
100
AcDbSymbolTableRecord
100
AcDbLinetypeTableRecord
  2
HIDDEN
 70
     0
  3
_ _ _ _ _ _ _ _ _ _ _ _ _ _ _ _ _ _ _ _ _ _ _
 72
    65
 73
     2
 40
3.2
 49
2.4
 74
     0
 49
-0.8
 74
     0
  0
LTYPE
  5
12
100
AcDbSymbolTableRecord
100
AcDbLinetypeTableRecord
  2
PHANTOM
 70
     0
  3
_____ _ _ _____ _ _ _____ _ _ _____ _ _ _____
 72
    65
 73
     6
 40
13.5
 49
9.0
 74
     0
 49
-1.0
 74
     0
 49
1.0
 74
     0
 49
-0.5
 74
     0
 49
1.0
 74
     0
 49
-1.0
 74
     0
  0
LTYPE
  5
13
100
AcDbSymbolTableRecord
100
AcDbLinetypeTableRecord
  2
DOT
 70
     0
  3
...............................................
 72
    65
 73
     2
 40
1.0
 49
0.5
 74
     0
 49
-0.5
 74
     0
  0
LTYPE
  5
14
100
AcDbSymbolTableRecord
100
AcDbLinetypeTableRecord
  2
DASHDOT
 70
     0
  3
__ . __ . __ . __ . __ . __ . __ . __ . __ . __
 72
    65
 73
     4
 40
8.0
 49
5.0
 74
     0
 49
-1.0
 74
     0
 49
1.0
 74
     0
 49
-1.0
 74
     0
  0
ENDTAB
  0
TABLE
  2
LAYER
  5
1
100
AcDbSymbolTable
 70
     4
  0
LAYER
  5
15
100
AcDbSymbolTableRecord
100
AcDbLayerTableRecord
  2
0
 70
     0
 62
   225
  6
CONTINUOUS
290
     1
370
    -3
390
0
  0
LAYER
  5
16
100
AcDbSymbolTableRecord
100
AcDbLayerTableRecord
  2
1
 70
     0
 62
     2
  6
CONTINUOUS
290
     1
370
    -3
390
0
  0
LAYER
  5
17
100
AcDbSymbolTableRecord
100
AcDbLayerTableRecord
  2
2
 70
     0
 62
     3
  6
CONTINUOUS
290
     1
370
    -3
390
0
  0
LAYER
  5
18
100
AcDbSymbolTableRecord
100
AcDbLayerTableRecord
  2
3
 70
     0
 62
     4
  6
CONTINUOUS
290
     1
370
    -3
390
0
  0
ENDTAB
  0
TABLE
  2
STYLE
  5
2
100
AcDbSymbolTable
 70
     1
  0
STYLE
  5
1B
100
AcDbSymbolTableRecord
100
AcDbTextStyleTableRecord
  2
STANDARD
 70
    64
 40
0.0
 41
1.0
 50
0.0
 71
     0
 42
1.0
  3
txt
  4
BIGFONT
  0
ENDTAB
  0
TABLE
  2
VIEW
  5
4
100
AcDbSymbolTable
 70
     0
  0
ENDTAB
  0
TABLE
  2
UCS
  5
5
100
AcDbSymbolTable
 70
     0
  0
ENDTAB
  0
TABLE
  2
APPID
  5
7
100
AcDbSymbolTable
 70
     1
  0
APPID
  5
1A
100
AcDbSymbolTableRecord
100
AcDbRegAppTableRecord
  2
ACAD
 70
     0
  0
ENDTAB
  0
TABLE
  2
DIMSTYLE
  5
8
100
AcDbSymbolTable
 70
     1
100
AcDbDimStyleTable
 71
     0
  0
DIMSTYLE
105
2C
100
AcDbSymbolTableRecord
100
AcDbDimStyleTableRecord
  2
Standard
 70
     0
  3

  4

 40
2.0
 41
2.0
 42
1.0
 43
0.38
 44
2.0
 45
0.0
 46
0.0
 47
0.0
 48
0.0
 71
     0
 72
     0
 73
     0
 74
     0
 75
     0
 76
     0
 77
     1
 78
     0
 79
     0
140
3.5
141
0.09
142
0.0
143
25.4
144
1.0
145
0.0
146
1.0
147
0.5
148
0.0
170
     0
171
     2
172
     0
173
     0
174
     0
175
     0
176
     0
177
     0
178
     0
179
     0
271
     3
272
     4
273
     2
274
     2
275
     0
276
     0
277
     2
278
    46
279
     0
280
     0
281
     0
282
     0
283
     1
284
     0
285
     0
286
     0
288
     0
289
     3
340
1B
341
0
342
0
343
0
344
0
371
    -2
372
    -2
  0
ENDTAB
  0
TABLE
  2
BLOCK_RECORD
  5
27
100
AcDbSymbolTable
 70
     9
  0
BLOCK_RECORD
  5
25
100
AcDbSymbolTableRecord
100
AcDbBlockTableRecord
  2
*Model_Space
340
0
  0
BLOCK_RECORD
  5
26
100
AcDbSymbolTableRecord
100
AcDbBlockTableRecord
  2
*Paper_Space
340
0
  0
BLOCK_RECORD
  5
1C
100
AcDbSymbolTableRecord
100
AcDbBlockTableRecord
  2
*D0
340
0
  0
BLOCK_RECORD
  5
1D
100
AcDbSymbolTableRecord
100
AcDbBlockTableRecord
  2
*D1
340
0
  0
BLOCK_RECORD
  5
1E
100
AcDbSymbolTableRecord
100
AcDbBlockTableRecord
  2
*D2
340
0
  0
BLOCK_RECORD
  5
1F
100
AcDbSymbolTableRecord
100
AcDbBlockTableRecord
  2
*D3
340
0
  0
BLOCK_RECORD
  5
20
100
AcDbSymbolTableRecord
100
AcDbBlockTableRecord
  2
*D4
340
0
  0
BLOCK_RECORD
  5
21
100
AcDbSymbolTableRecord
100
AcDbBlockTableRecord
  2
*D5
340
0
  0
BLOCK_RECORD
  5
22
100
AcDbSymbolTableRecord
100
AcDbBlockTableRecord
  2
*D6
340
0
  0
BLOCK_RECORD
  5
23
100
AcDbSymbolTableRecord
100
AcDbBlockTableRecord
  2
*D7
340
0
  0
BLOCK_RECORD
  5
24
100
AcDbSymbolTableRecord
100
AcDbBlockTableRecord
  2
*D8
340
0
  0
ENDTAB
  0
ENDSEC
  0
SECTION
  2
BLOCKS
  0
BLOCK
  5
28
100
AcDbEntity
  8
0
390
0
100
AcDbBlockBegin
  2
*Model_Space
 70
     0
 10
0.0
 20
0.0
 30
0.0
  3
*Model_Space
  1

  0
ENDBLK
  5
29
100
AcDbEntity
  8
0
390
0
100
AcDbBlockEnd
  0
BLOCK
  5
2A
100
AcDbEntity
 67
     1
  8
0
390
0
100
AcDbBlockBegin
  2
*Paper_Space
 70
     0
 10
0.0
 20
0.0
 30
0.0
  3
*Paper_Space
  1

  0
ENDBLK
  5
2B
100
AcDbEntity
 67
     1
  8
0
390
0
100
AcDbBlockEnd
  0
BLOCK
  5
473
100
AcDbEntity
  8
2
100
AcDbBlockBegin
  2
*D0
 70
     1
 10
0.0
 20
0.0
 30
0.0
  3
*D0
  1

  0
LINE
  5
474
100
AcDbEntity
  8
2
370
    25
100
AcDbLine
 10
80.988221
 20
10.824621
 30
0.0
 11
-178.234757
 21
10.824621
 31
0.0
  0
LINE
  5
475
100
AcDbEntity
  8
2
370
    25
100
AcDbLine
 10
-176.234757
 20
10.824621
 30
0.0
 11
-175.199481
 21
14.688324
 31
0.0
  0
LINE
  5
476
100
AcDbEntity
  8
2
370
    25
100
AcDbLine
 10
-176.234757
 20
10.824621
 30
0.0
 11
-177.270034
 21
14.688324
 31
0.0
  0
LINE
  5
477
100
AcDbEntity
  8
2
370
    25
100
AcDbLine
 10
-175.199481
 20
14.688324
 30
0.0
 11
-177.270034
 21
14.688324
 31
0.0
  0
LINE
  5
478
100
AcDbEntity
  8
2
370
    25
100
AcDbLine
 10
-176.234757
 20
10.824621
 30
0.0
 11
-176.234757
 21
150.35161
 31
0.0
  0
LINE
  5
479
100
AcDbEntity
  8
2
370
    25
100
AcDbLine
 10
-176.234757
 20
150.35161
 30
0.0
 11
-177.270034
 21
146.487907
 31
0.0
  0
LINE
  5
47A
100
AcDbEntity
  8
2
370
    25
100
AcDbLine
 10
-176.234757
 20
150.35161
 30
0.0
 11
-175.199481
 21
146.487907
 31
0.0
  0
LINE
  5
47B
100
AcDbEntity
  8
2
370
    25
100
AcDbLine
 10
-177.270034
 20
146.487907
 30
0.0
 11
-175.199481
 21
146.487907
 31
0.0
  0
LINE
  5
47C
100
AcDbEntity
  8
2
370
    25
100
AcDbLine
 10
-154.856836
 20
150.35161
 30
0.0
 11
-178.234757
 21
150.35161
 31
0.0
  0
ENDBLK
  5
47D
100
AcDbEntity
  8
2
100
AcDbBlockEnd
  0
BLOCK
  5
47E
100
AcDbEntity
  8
3
100
AcDbBlockBegin
  2
*D1
 70
     1
 10
0.0
 20
0.0
 30
0.0
  3
*D1
  1

  0
TEXT
  5
47F
100
AcDbEntity
  8
3
370
    25
100
AcDbText
 10
-168.418707
 20
119.770877
 30
0.0
 40
8.0
  1
13%%d
 50
353.5
 41
2.0
 72
     5
 11
-147.752412
 21
117.416251
 31
0.0
100
AcDbText
  0
LINE
  5
480
100
AcDbEntity
  8
3
370
    25
100
AcDbLine
 10
-156.009992
 20
136.693793
 30
0.0
 11
-160.762923
 21
116.106586
 31
0.0
  0
LINE
  5
481
100
AcDbEntity
  8
3
370
    25
100
AcDbLine
 10
-152.856836
 20
134.750848
 30
0.0
 11
-152.856836
 21
115.205801
 31
0.0
  0
LINE
  5
482
100
AcDbEntity
  8
3
370
    25
100
AcDbLine
 10
-160.313021
 20
118.055326
 30
0.0
 11
-163.729358
 21
120.135865
 31
0.0
  0
LINE
  5
483
100
AcDbEntity
  8
3
370
    25
100
AcDbLine
 10
-160.313021
 20
118.055326
 30
0.0
 11
-164.311925
 21
118.148957
 31
0.0
  0
LINE
  5
484
100
AcDbEntity
  8
3
370
    25
100
AcDbLine
 10
-163.729358
 20
120.135865
 30
0.0
 11
-164.311925
 21
118.148957
 31
0.0
  0
LINE
  5
485
100
AcDbEntity
  8
3
370
    25
100
AcDbLine
 10
-152.856836
 20
117.205801
 30
0.0
 11
-148.939361
 21
116.397475
 31
0.0
  0
LINE
  5
486
100
AcDbEntity
  8
3
370
    25
100
AcDbLine
 10
-152.856836
 20
117.205801
 30
0.0
 11
-149.06004
 21
118.464507
 31
0.0
  0
LINE
  5
487
100
AcDbEntity
  8
3
370
    25
100
AcDbLine
 10
-148.939361
 20
116.397475
 30
0.0
 11
-149.06004
 21
118.464507
 31
0.0
  0
ARC
  5
488
100
AcDbEntity
  8
3
370
    25
100
AcDbCircle
 10
-152.856836
 20
150.35161
 30
0.0
 40
33.145809
100
AcDbArc
 50
240.211581
 51
286.788419
  0
ENDBLK
  5
489
100
AcDbEntity
  8
3
100
AcDbBlockEnd
  0
BLOCK
  5
48A
100
AcDbEntity
  8
3
100
AcDbBlockBegin
  2
*D2
 70
     1
 10
0.0
 20
0.0
 30
0.0
  3
*D2
  1

  0
TEXT
  5
48B
100
AcDbEntity
  8
3
370
    25
100
AcDbText
 10
169.043334
 20
80.988665
 30
0.0
 40
8.0
  1
１６４
 50
90.0
 72
     5
 11
169.043334
 21
103.388665
 31
0.0
100
AcDbText
  0
LINE
  5
48C
100
AcDbEntity
  8
3
370
    25
100
AcDbLine
 10
137.188221
 20
10.824621
 30
0.0
 11
172.043334
 21
10.824621
 31
0.0
  0
LINE
  5
48D
100
AcDbEntity
  8
3
370
    25
100
AcDbLine
 10
170.043334
 20
10.824621
 30
0.0
 11
171.07861
 21
14.688324
 31
0.0
  0
LINE
  5
48E
100
AcDbEntity
  8
3
370
    25
100
AcDbLine
 10
170.043334
 20
10.824621
 30
0.0
 11
169.008058
 21
14.688324
 31
0.0
  0
LINE
  5
48F
100
AcDbEntity
  8
3
370
    25
100
AcDbLine
 10
171.07861
 20
14.688324
 30
0.0
 11
169.008058
 21
14.688324
 31
0.0
  0
LINE
  5
490
100
AcDbEntity
  8
3
370
    25
100
AcDbLine
 10
170.043334
 20
10.824621
 30
0.0
 11
170.043334
 21
175.152709
 31
0.0
  0
LINE
  5
491
100
AcDbEntity
  8
3
370
    25
100
AcDbLine
 10
170.043334
 20
175.152709
 30
0.0
 11
169.008058
 21
171.289006
 31
0.0
  0
LINE
  5
492
100
AcDbEntity
  8
3
370
    25
100
AcDbLine
 10
170.043334
 20
175.152709
 30
0.0
 11
171.07861
 21
171.289006
 31
0.0
  0
LINE
  5
493
100
AcDbEntity
  8
3
370
    25
100
AcDbLine
 10
169.008058
 20
171.289006
 30
0.0
 11
171.07861
 21
171.289006
 31
0.0
  0
LINE
  5
494
100
AcDbEntity
  8
3
370
    25
100
AcDbLine
 10
6.839411
 20
175.152709
 30
0.0
 11
172.043334
 21
175.152709
 31
0.0
  0
ENDBLK
  5
495
100
AcDbEntity
  8
3
100
AcDbBlockEnd
  0
BLOCK
  5
496
100
AcDbEntity
  8
3
100
AcDbBlockBegin
  2
*D3
 70
     1
 10
0.0
 20
0.0
 30
0.0
  3
*D3
  1

  0
TEXT
  5
497
100
AcDbEntity
  8
3
370
    25
100
AcDbText
 10
194.824492
 20
100.893923
 30
0.0
 40
8.0
  1
２０４
 50
90.0
 72
     5
 11
194.824492
 21
123.293923
 31
0.0
100
AcDbText
  0
LINE
  5
498
100
AcDbEntity
  8
3
370
    25
100
AcDbLine
 10
137.188221
 20
10.824621
 30
0.0
 11
197.824492
 21
10.824621
 31
0.0
  0
LINE
  5
499
100
AcDbEntity
  8
3
370
    25
100
AcDbLine
 10
195.824492
 20
10.824621
 30
0.0
 11
196.859769
 21
14.688324
 31
0.0
  0
LINE
  5
49A
100
AcDbEntity
  8
3
370
    25
100
AcDbLine
 10
195.824492
 20
10.824621
 30
0.0
 11
194.789216
 21
14.688324
 31
0.0
  0
LINE
  5
49B
100
AcDbEntity
  8
3
370
    25
100
AcDbLine
 10
196.859769
 20
14.688324
 30
0.0
 11
194.789216
 21
14.688324
 31
0.0
  0
LINE
  5
49C
100
AcDbEntity
  8
3
370
    25
100
AcDbLine
 10
195.824492
 20
10.824621
 30
0.0
 11
195.824492
 21
214.963225
 31
0.0
  0
LINE
  5
49D
100
AcDbEntity
  8
3
370
    25
100
AcDbLine
 10
195.824492
 20
214.963225
 30
0.0
 11
194.789216
 21
211.099522
 31
0.0
  0
LINE
  5
49E
100
AcDbEntity
  8
3
370
    25
100
AcDbLine
 10
195.824492
 20
214.963225
 30
0.0
 11
196.859769
 21
211.099522
 31
0.0
  0
LINE
  5
49F
100
AcDbEntity
  8
3
370
    25
100
AcDbLine
 10
194.789216
 20
211.099522
 30
0.0
 11
196.859769
 21
211.099522
 31
0.0
  0
LINE
  5
4A0
100
AcDbEntity
  8
3
370
    25
100
AcDbLine
 10
30.630581
 20
214.963225
 30
0.0
 11
197.824492
 21
214.963225
 31
0.0
  0
ENDBLK
  5
4A1
100
AcDbEntity
  8
3
100
AcDbBlockEnd
  0
BLOCK
  5
4A2
100
AcDbEntity
  8
3
100
AcDbBlockBegin
  2
*D4
 70
     1
 10
0.0
 20
0.0
 30
0.0
  3
*D4
  1

  0
LINE
  5
4A3
100
AcDbEntity
  8
3
370
    25
100
AcDbLine
 10
103.18822
 20
-161.574825
 30
0.0
 11
17.011606
 21
-161.574825
 31
0.0
  0
LINE
  5
4A4
100
AcDbEntity
  8
3
370
    25
100
AcDbLine
 10
19.011606
 20
-161.574825
 30
0.0
 11
20.046882
 21
-157.711121
 31
0.0
  0
LINE
  5
4A5
100
AcDbEntity
  8
3
370
    25
100
AcDbLine
 10
19.011606
 20
-161.574825
 30
0.0
 11
17.97633
 21
-157.711121
 31
0.0
  0
LINE
  5
4A6
100
AcDbEntity
  8
3
370
    25
100
AcDbLine
 10
20.046882
 20
-157.711121
 30
0.0
 11
17.97633
 21
-157.711121
 31
0.0
  0
LINE
  5
4A7
100
AcDbEntity
  8
3
370
    25
100
AcDbLine
 10
19.011606
 20
-161.574825
 30
0.0
 11
19.011606
 21
10.825164
 31
0.0
  0
LINE
  5
4A8
100
AcDbEntity
  8
3
370
    25
100
AcDbLine
 10
19.011606
 20
10.825164
 30
0.0
 11
17.97633
 21
6.961461
 31
0.0
  0
LINE
  5
4A9
100
AcDbEntity
  8
3
370
    25
100
AcDbLine
 10
19.011606
 20
10.825164
 30
0.0
 11
20.046882
 21
6.961461
 31
0.0
  0
LINE
  5
4AA
100
AcDbEntity
  8
3
370
    25
100
AcDbLine
 10
17.97633
 20
6.961461
 30
0.0
 11
20.046882
 21
6.961461
 31
0.0
  0
LINE
  5
4AB
100
AcDbEntity
  8
3
370
    25
100
AcDbLine
 10
80.98822
 20
10.825164
 30
0.0
 11
17.011606
 21
10.825164
 31
0.0
  0
ENDBLK
  5
4AC
100
AcDbEntity
  8
3
100
AcDbBlockEnd
  0
BLOCK
  5
4AD
100
AcDbEntity
  8
3
100
AcDbBlockBegin
  2
*D5
 70
     1
 10
0.0
 20
0.0
 30
0.0
  3
*D5
  1

  0
TEXT
  5
4AE
100
AcDbEntity
  8
3
370
    25
100
AcDbText
 10
-33.834308
 20
-0.440885
 30
0.0
 40
8.0
  1
２６２
 72
     5
 11
-11.434308
 21
-0.440885
 31
0.0
100
AcDbText
  0
LINE
  5
4AF
100
AcDbEntity
  8
3
370
    25
100
AcDbLine
 10
-152.856836
 20
148.35161
 30
0.0
 11
-152.856836
 21
-3.440885
 31
0.0
  0
LINE
  5
4B0
100
AcDbEntity
  8
3
370
    25
100
AcDbLine
 10
-152.856836
 20
-1.440885
 30
0.0
 11
-148.993133
 21
-2.476162
 31
0.0
  0
LINE
  5
4B1
100
AcDbEntity
  8
3
370
    25
100
AcDbLine
 10
-152.856836
 20
-1.440885
 30
0.0
 11
-148.993133
 21
-0.405609
 31
0.0
  0
LINE
  5
4B2
100
AcDbEntity
  8
3
370
    25
100
AcDbLine
 10
-148.993133
 20
-2.476162
 30
0.0
 11
-148.993133
 21
-0.405609
 31
0.0
  0
LINE
  5
4B3
100
AcDbEntity
  8
3
370
    25
100
AcDbLine
 10
-152.856836
 20
-1.440885
 30
0.0
 11
109.188221
 21
-1.440885
 31
0.0
  0
LINE
  5
4B4
100
AcDbEntity
  8
3
370
    25
100
AcDbLine
 10
109.188221
 20
-1.440885
 30
0.0
 11
105.324517
 21
-0.405609
 31
0.0
  0
LINE
  5
4B5
100
AcDbEntity
  8
3
370
    25
100
AcDbLine
 10
109.188221
 20
-1.440885
 30
0.0
 11
105.324517
 21
-2.476162
 31
0.0
  0
LINE
  5
4B6
100
AcDbEntity
  8
3
370
    25
100
AcDbLine
 10
105.324517
 20
-0.405609
 30
0.0
 11
105.324517
 21
-2.476162
 31
0.0
  0
ENDBLK
  5
4B7
100
AcDbEntity
  8
3
100
AcDbBlockEnd
  0
BLOCK
  5
4B8
100
AcDbEntity
  8
3
100
AcDbBlockBegin
  2
*D6
 70
     1
 10
0.0
 20
0.0
 30
0.0
  3
*D6
  1

  0
TEXT
  5
4B9
100
AcDbEntity
  8
3
370
    25
100
AcDbText
 10
-42.431606
 20
197.787761
 30
0.0
 40
8.0
  1
２４゜
 50
68.228225
 72
     5
 11
-34.123213
 21
218.589939
 31
0.0
100
AcDbText
  0
LINE
  5
4BA
100
AcDbEntity
  8
3
370
    25
100
AcDbLine
 10
24.45546
 20
210.575525
 30
0.0
 11
-21.910754
 21
241.581934
 31
0.0
  0
LINE
  5
4BB
100
AcDbEntity
  8
3
370
    25
100
AcDbLine
 10
-9.27944
 20
167.383942
 30
0.0
 11
-48.825254
 21
174.19463
 31
0.0
  0
LINE
  5
4BC
100
AcDbEntity
  8
3
370
    25
100
AcDbLine
 10
-20.248237
 20
240.470161
 30
0.0
 11
-23.226887
 21
237.800396
 31
0.0
  0
LINE
  5
4BD
100
AcDbEntity
  8
3
370
    25
100
AcDbLine
 10
-20.248237
 20
240.470161
 30
0.0
 11
-21.492941
 21
236.668752
 31
0.0
  0
LINE
  5
4BE
100
AcDbEntity
  8
3
370
    25
100
AcDbLine
 10
-23.226887
 20
237.800396
 30
0.0
 11
-21.492941
 21
236.668752
 31
0.0
  0
LINE
  5
4BF
100
AcDbEntity
  8
3
370
    25
100
AcDbLine
 10
-46.854271
 20
173.855182
 30
0.0
 11
-45.137683
 21
177.46812
 31
0.0
  0
LINE
  5
4C0
100
AcDbEntity
  8
3
370
    25
100
AcDbLine
 10
-46.854271
 20
173.855182
 30
0.0
 11
-47.174131
 21
177.842372
 31
0.0
  0
LINE
  5
4C1
100
AcDbEntity
  8
3
370
    25
100
AcDbLine
 10
-45.137683
 20
177.46812
 30
0.0
 11
-47.174131
 21
177.842372
 31
0.0
  0
ARC
  5
4C2
100
AcDbEntity
  8
3
370
    25
100
AcDbCircle
 10
123.148166
 20
144.576899
 30
0.0
 40
172.505206
100
AcDbArc
 50
146.228225
 51
170.228225
  0
ENDBLK
  5
4C3
100
AcDbEntity
  8
3
100
AcDbBlockEnd
  0
BLOCK
  5
4C4
100
AcDbEntity
  8
3
100
AcDbBlockBegin
  2
*D7
 70
     1
 10
0.0
 20
0.0
 30
0.0
  3
*D7
  1

  0
TEXT
  5
4C5
100
AcDbEntity
  8
3
370
    25
100
AcDbText
 10
-201.139146
 20
97.413141
 30
0.0
 40
8.0
  1
１９７
 50
90.0
 72
     5
 11
-201.139146
 21
119.813141
 31
0.0
100
AcDbText
  0
LINE
  5
4C6
100
AcDbEntity
  8
3
370
    25
100
AcDbLine
 10
80.988221
 20
10.824621
 30
0.0
 11
-202.139146
 21
10.824621
 31
0.0
  0
LINE
  5
4C7
100
AcDbEntity
  8
3
370
    25
100
AcDbLine
 10
-200.139146
 20
10.824621
 30
0.0
 11
-199.10387
 21
14.688324
 31
0.0
  0
LINE
  5
4C8
100
AcDbEntity
  8
3
370
    25
100
AcDbLine
 10
-200.139146
 20
10.824621
 30
0.0
 11
-201.174422
 21
14.688324
 31
0.0
  0
LINE
  5
4C9
100
AcDbEntity
  8
3
370
    25
100
AcDbLine
 10
-199.10387
 20
14.688324
 30
0.0
 11
-201.174422
 21
14.688324
 31
0.0
  0
LINE
  5
4CA
100
AcDbEntity
  8
3
370
    25
100
AcDbLine
 10
-200.139146
 20
10.824621
 30
0.0
 11
-200.139146
 21
208.001661
 31
0.0
  0
LINE
  5
4CB
100
AcDbEntity
  8
3
370
    25
100
AcDbLine
 10
-200.139146
 20
208.001661
 30
0.0
 11
-201.174422
 21
204.137957
 31
0.0
  0
LINE
  5
4CC
100
AcDbEntity
  8
3
370
    25
100
AcDbLine
 10
-200.139146
 20
208.001661
 30
0.0
 11
-199.10387
 21
204.137957
 31
0.0
  0
LINE
  5
4CD
100
AcDbEntity
  8
3
370
    25
100
AcDbLine
 10
-201.174422
 20
204.137957
 30
0.0
 11
-199.10387
 21
204.137957
 31
0.0
  0
LINE
  5
4CE
100
AcDbEntity
  8
3
370
    25
100
AcDbLine
 10
-161.303125
 20
208.001661
 30
0.0
 11
-202.139146
 21
208.001661
 31
0.0
  0
ENDBLK
  5
4CF
100
AcDbEntity
  8
3
100
AcDbBlockEnd
  0
BLOCK
  5
4D0
100
AcDbEntity
  8
3
100
AcDbBlockBegin
  2
*D8
 70
     1
 10
0.0
 20
0.0
 30
0.0
  3
*D8
  1

  0
TEXT
  5
4D1
100
AcDbEntity
  8
3
370
    25
100
AcDbText
 10
-306.794908
 20
98.934222
 30
0.0
 40
7.0
  1
１９７
 50
90.0
 72
     5
 11
-306.794908
 21
118.534222
 31
0.0
100
AcDbText
  0
LINE
  5
4D2
100
AcDbEntity
  8
3
370
    25
100
AcDbLine
 10
-280.975377
 20
10.824621
 30
0.0
 11
-307.794908
 21
10.824621
 31
0.0
  0
LINE
  5
4D3
100
AcDbEntity
  8
3
370
    25
100
AcDbLine
 10
-305.794908
 20
10.824621
 30
0.0
 11
-304.759631
 21
14.688324
 31
0.0
  0
LINE
  5
4D4
100
AcDbEntity
  8
3
370
    25
100
AcDbLine
 10
-305.794908
 20
10.824621
 30
0.0
 11
-306.830184
 21
14.688324
 31
0.0
  0
LINE
  5
4D5
100
AcDbEntity
  8
3
370
    25
100
AcDbLine
 10
-304.759631
 20
14.688324
 30
0.0
 11
-306.830184
 21
14.688324
 31
0.0
  0
LINE
  5
4D6
100
AcDbEntity
  8
3
370
    25
100
AcDbLine
 10
-305.794908
 20
10.824621
 30
0.0
 11
-305.794908
 21
208.043823
 31
0.0
  0
LINE
  5
4D7
100
AcDbEntity
  8
3
370
    25
100
AcDbLine
 10
-305.794908
 20
208.043823
 30
0.0
 11
-306.830184
 21
204.18012
 31
0.0
  0
LINE
  5
4D8
100
AcDbEntity
  8
3
370
    25
100
AcDbLine
 10
-305.794908
 20
208.043823
 30
0.0
 11
-304.759631
 21
204.18012
 31
0.0
  0
LINE
  5
4D9
100
AcDbEntity
  8
3
370
    25
100
AcDbLine
 10
-306.830184
 20
204.18012
 30
0.0
 11
-304.759631
 21
204.18012
 31
0.0
  0
LINE
  5
4DA
100
AcDbEntity
  8
3
370
    25
100
AcDbLine
 10
-254.775116
 20
208.043823
 30
0.0
 11
-307.794908
 21
208.043823
 31
0.0
  0
ENDBLK
  5
4DB
100
AcDbEntity
  8
3
100
AcDbBlockEnd
  0
ENDSEC
  0
SECTION
  2
ENTITIES
  0
LINE
  5
2D
100
AcDbEntity
  8
1
370
   100
100
AcDbLine
 10
-406.712054
 20
283.891548
 30
0.0
 11
361.291901
 21
283.891548
 31
0.0
  0
LINE
  5
2E
100
AcDbEntity
  8
1
370
   100
100
AcDbLine
 10
-406.712054
 20
283.891548
 30
0.0
 11
-406.712054
 21
-269.1091
 31
0.0
  0
LINE
  5
2F
100
AcDbEntity
  8
1
370
   100
100
AcDbLine
 10
-406.712054
 20
-269.1091
 30
0.0
 11
361.291901
 21
-269.1091
 31
0.0
  0
LINE
  5
30
100
AcDbEntity
  8
1
370
   100
100
AcDbLine
 10
361.291901
 20
-269.1091
 30
0.0
 11
361.291901
 21
283.891548
 31
0.0
  0
TEXT
  5
31
100
AcDbEntity
  8
1
370
    50
100
AcDbText
 10
325.937958
 20
-217.390076
 30
0.0
 40
6.0
  1
設計
 72
     5
 11
336.737958
 21
-217.390076
 31
0.0
100
AcDbText
  0
TEXT
  5
32
100
AcDbEntity
  8
1
370
    50
100
AcDbText
 10
345.436993
 20
-217.236877
 30
0.0
 40
6.0
  1
製図
 72
     5
 11
356.236993
 21
-217.236877
 31
0.0
100
AcDbText
  0
TEXT
  5
33
100
AcDbEntity
  8
1
370
    50
100
AcDbText
 10
285.31526
 20
-217.390076
 30
0.0
 40
6.0
  1
承認
 72
     5
 11
296.11526
 21
-217.390076
 31
0.0
100
AcDbText
  0
TEXT
  5
34
100
AcDbEntity
  8
1
370
    50
100
AcDbText
 10
305.299194
 20
-217.335239
 30
0.0
 40
6.0
  1
検図
 72
     5
 11
316.099194
 21
-217.335239
 31
0.0
100
AcDbText
  0
LINE
  5
35
100
AcDbEntity
  8
1
370
    25
100
AcDbLine
 10
251.291901
 20
-219.1091
 30
0.0
 11
361.291901
 21
-219.1091
 31
0.0
  0
LINE
  5
36
100
AcDbEntity
  8
1
370
    25
100
AcDbLine
 10
308.791901
 20
-237.1091
 30
0.0
 11
308.791901
 21
-251.1091
 31
0.0
  0
TEXT
  5
37
100
AcDbEntity
  8
1
370
    50
100
AcDbText
 10
285.861105
 20
-247.149747
 30
0.0
 40
6.0
  1
日　付
 72
     5
 11
302.661105
 21
-247.149747
 31
0.0
100
AcDbText
  0
LINE
  5
38
100
AcDbEntity
  8
1
370
    50
100
AcDbLine
 10
7.291901
 20
-251.1091
 30
0.0
 11
361.291901
 21
-251.1091
 31
0.0
  0
TEXT
  5
39
100
AcDbEntity
  8
1
370
    50
100
AcDbText
 10
254.084526
 20
-247.459625
 30
0.0
 40
6.0
  1
第三角法
 72
     5
 11
276.884526
 21
-247.459625
 31
0.0
100
AcDbText
  0
TEXT
  5
3A
100
AcDbEntity
  8
1
370
    50
100
AcDbText
 10
257.396935
 20
-217.135239
 30
0.0
 40
6.0
  1
尺　度
 72
     5
 11
274.196935
 21
-217.135239
 31
0.0
100
AcDbText
  0
LINE
  5
3B
100
AcDbEntity
  8
1
370
   100
100
AcDbLine
 10
7.291901
 20
-209.1091
 30
0.0
 11
361.291901
 21
-209.1091
 31
0.0
  0
LINE
  5
3C
100
AcDbEntity
  8
1
370
    50
100
AcDbLine
 10
178.291901
 20
-209.1091
 30
0.0
 11
178.291901
 21
-269.1091
 31
0.0
  0
LINE
  5
3D
100
AcDbEntity
  8
1
370
    25
100
AcDbLine
 10
341.291901
 20
-237.1091
 30
0.0
 11
341.291901
 21
-209.1091
 31
0.0
  0
LINE
  5
3E
100
AcDbEntity
  8
1
370
    25
100
AcDbLine
 10
321.291901
 20
-237.1091
 30
0.0
 11
321.291901
 21
-209.1091
 31
0.0
  0
LINE
  5
3F
100
AcDbEntity
  8
1
370
    25
100
AcDbLine
 10
301.291901
 20
-237.1091
 30
0.0
 11
301.291901
 21
-209.1091
 31
0.0
  0
LINE
  5
40
100
AcDbEntity
  8
1
370
    50
100
AcDbLine
 10
251.291901
 20
-269.1091
 30
0.0
 11
251.291901
 21
-209.1091
 31
0.0
  0
LINE
  5
41
100
AcDbEntity
  8
1
370
    50
100
AcDbLine
 10
156.291901
 20
-209.1091
 30
0.0
 11
156.291901
 21
-269.1091
 31
0.0
  0
LINE
  5
42
100
AcDbEntity
  8
1
370
    50
100
AcDbLine
 10
29.291901
 20
-209.1091
 30
0.0
 11
29.291901
 21
-251.1091
 31
0.0
  0
LINE
  5
43
100
AcDbEntity
  8
1
370
    50
100
AcDbLine
 10
251.291901
 20
-237.1091
 30
0.0
 11
361.291901
 21
-237.1091
 31
0.0
  0
TEXT
  5
44
100
AcDbEntity
  8
1
370
    50
100
AcDbText
 10
253.410645
 20
-263.018158
 30
0.0
 40
6.0
  1
コードＮｏ
 41
0.9
 72
     5
 11
279.330645
 21
-263.018158
 31
0.0
100
AcDbText
  0
TEXT
  5
45
100
AcDbEntity
  8
1
370
   100
100
AcDbText
 10
19.196289
 20
-264.012878
 30
0.0
 40
8.0
  1
ミズタニバルブ工業株式会社
 41
1.2
 72
     5
 11
142.076289
 21
-264.012878
 31
0.0
100
AcDbText
  0
LINE
  5
46
100
AcDbEntity
  8
1
370
    50
100
AcDbLine
 10
7.291901
 20
-230.1091
 30
0.0
 11
251.291901
 21
-230.1091
 31
0.0
  0
LINE
  5
47
100
AcDbEntity
  8
1
370
    50
100
AcDbLine
 10
81.791901
 20
-230.1091
 30
0.0
 11
81.791901
 21
-251.1091
 31
0.0
  0
LINE
  5
48
100
AcDbEntity
  8
1
370
    50
100
AcDbLine
 10
103.791901
 20
-230.1091
 30
0.0
 11
103.791901
 21
-251.1091
 31
0.0
  0
LINE
  5
49
100
AcDbEntity
  8
1
370
    50
100
AcDbLine
 10
281.291901
 20
-269.1091
 30
0.0
 11
281.291901
 21
-209.1091
 31
0.0
  0
TEXT
  5
4A
100
AcDbEntity
  8
1
370
    50
100
AcDbText
 10
311.407646
 20
-247.237512
 30
0.0
 40
6.0
  1
　　・　　・
 72
     5
 11
346.207646
 21
-247.237512
 31
0.0
100
AcDbText
  0
LINE
  5
4B
100
AcDbEntity
  8
1
370
   100
100
AcDbLine
 10
7.291901
 20
-209.1091
 30
0.0
 11
7.291901
 21
-269.1091
 31
0.0
  0
TEXT
  5
4C
100
AcDbEntity
  8
1
370
    50
100
AcDbText
 10
257.142097
 20
-231.150711
 30
0.0
 40
6.0
  1
　／ 
 72
     5
 11
267.942097
 21
-231.150711
 31
0.0
100
AcDbText
  0
TEXT
  5
4D
100
AcDbEntity
  8
1
370
    50
100
AcDbText
 10
160.213638
 20
-263.162128
 30
0.0
 40
6.0
  1
備 考 
 72
     5
 11
174.013638
 21
-263.162128
 31
0.0
100
AcDbText
  0
TEXT
  5
4E
100
AcDbEntity
  8
1
370
    50
100
AcDbText
 10
159.822049
 20
-222.029059
 30
0.0
 40
6.0
  1
仕 上
 72
     5
 11
173.622049
 21
-222.029059
 31
0.0
100
AcDbText
  0
TEXT
  5
4F
100
AcDbEntity
  8
1
370
    50
100
AcDbText
 10
159.756691
 20
-240.028885
 30
0.0
 40
6.0
  1
表 面
 72
     5
 11
173.556691
 21
-240.028885
 31
0.0
100
AcDbText
  0
TEXT
  5
50
100
AcDbEntity
  8
1
370
    50
100
AcDbText
 10
159.756691
 20
-247.028885
 30
0.0
 40
6.0
  1
処 理
 72
     5
 11
173.556691
 21
-247.028885
 31
0.0
100
AcDbText
  0
TEXT
  5
51
100
AcDbEntity
  8
1
370
    50
100
AcDbText
 10
11.102866
 20
-222.830618
 30
0.0
 40
6.0
  1
品 名
 72
     5
 11
24.902866
 21
-222.830618
 31
0.0
100
AcDbText
  0
TEXT
  5
52
100
AcDbEntity
  8
1
370
    50
100
AcDbText
 10
10.707281
 20
-243.599753
 30
0.0
 40
6.0
  1
材 質
 72
     5
 11
24.507281
 21
-243.599753
 31
0.0
100
AcDbText
  0
TEXT
  5
53
100
AcDbEntity
  8
1
370
    50
100
AcDbText
 10
85.207281
 20
-243.599753
 30
0.0
 40
6.0
  1
規 格
 72
     5
 11
99.007281
 21
-243.599753
 31
0.0
100
AcDbText
  0
TEXT
  5
54
100
AcDbEntity
  8
2
370
    50
100
AcDbText
 10
256.848802
 20
-226.962827
 30
0.0
 40
8.0
  1
１
 72
     5
 11
263.248802
 21
-226.962827
 31
0.0
100
AcDbText
  0
TEXT
  5
55
100
AcDbEntity
  8
2
370
    50
100
AcDbText
 10
266.516404
 20
-236.194837
 30
0.0
 40
8.0
  1
２
 72
     5
 11
272.916404
 21
-236.194837
 31
0.0
100
AcDbText
  0
TEXT
  5
56
100
AcDbEntity
  8
2
370
    50
100
AcDbText
 10
311.196244
 20
-247.501813
 30
0.0
 40
6.4
  1
００．１１．２２
 72
     5
 11
361.116245
 21
-247.501813
 31
0.0
100
AcDbText
  0
TEXT
  5
57
100
AcDbEntity
  8
2
370
    50
100
AcDbText
 10
30.849671
 20
-215.029004
 30
0.0
 40
6.0
  1
台付きシングルレバ－
 72
     5
 11
89.649671
 21
-215.029004
 31
0.0
100
AcDbText
  0
TEXT
  5
58
100
AcDbEntity
  8
2
370
    50
100
AcDbText
 10
98.268296
 20
-216.593503
 30
0.0
 40
6.0
  1
湯水混合水栓
 72
     5
 11
133.068296
 21
-216.593503
 31
0.0
100
AcDbText
  0
TEXT
  5
59
100
AcDbEntity
  8
2
370
    50
100
AcDbText
 10
35.248979
 20
-226.219266
 30
0.0
 40
8.0
  1
ＭＫＺ６００ＭＧ
 72
     5
 11
97.648979
 21
-226.219266
 31
0.0
100
AcDbText
  0
TEXT
  5
5A
100
AcDbEntity
  8
2
370
    50
100
AcDbText
 10
294.364858
 20
-265.102933
 30
0.0
 40
8.0
  1
１１００３０
 72
     5
 11
340.764858
 21
-265.102933
 31
0.0
100
AcDbText
  0
LINE
  5
5B
100
AcDbEntity
  8
2
370
    50
100
AcDbLine
 10
-226.575377
 20
10.824621
 30
0.0
 11
-278.975377
 21
10.824621
 31
0.0
  0
LINE
  5
5C
100
AcDbEntity
  8
2
370
    50
100
AcDbLine
 10
-240.275377
 20
145.792615
 30
0.0
 11
-240.275377
 21
38.757345
 31
0.0
  0
LINE
  5
5D
100
AcDbEntity
  8
2
370
    50
100
AcDbLine
 10
-265.275377
 20
132.741314
 30
0.0
 11
-265.275377
 21
132.461766
 31
0.0
  0
LINE
  5
5E
100
AcDbEntity
  8
2
370
    50
100
AcDbLine
 10
-265.275377
 20
145.792615
 30
0.0
 11
-265.275377
 21
38.757345
 31
0.0
  0
LINE
  5
5F
100
AcDbEntity
  8
2
370
    50
100
AcDbLine
 10
-228.775377
 20
108.353033
 30
0.0
 11
-228.775377
 21
102.933258
 31
0.0
  0
LINE
  5
60
100
AcDbEntity
  8
2
370
    50
100
AcDbLine
 10
-276.775377
 20
108.353033
 30
0.0
 11
-276.775377
 21
102.933258
 31
0.0
  0
LINE
  5
61
100
AcDbEntity
  8
2
370
    50
100
AcDbLine
 10
-279.110107
 20
102.353762
 30
0.0
 11
-276.940648
 21
102.736297
 31
0.0
  0
ARC
  5
62
100
AcDbEntity
  8
2
370
    50
100
AcDbCircle
 10
-276.975377
 20
102.933258
 30
0.0
 40
0.2
100
AcDbArc
 50
280.0
 51
360.0
  0
ARC
  5
63
100
AcDbEntity
  8
2
370
    50
100
AcDbCircle
 10
-279.075377
 20
102.156801
 30
0.0
 40
0.2
100
AcDbArc
 50
100.0
 51
180.0
  0
LINE
  5
64
100
AcDbEntity
  8
2
370
    50
100
AcDbLine
 10
-226.440648
 20
102.353762
 30
0.0
 11
-228.610107
 21
102.736297
 31
0.0
  0
ARC
  5
65
100
AcDbEntity
  8
2
370
    50
100
AcDbCircle
 10
-226.475377
 20
102.156801
 30
0.0
 40
0.2
100
AcDbArc
 50
360.0
 51
80.0
  0
ARC
  5
66
100
AcDbEntity
  8
2
370
    50
100
AcDbCircle
 10
-228.575377
 20
102.933258
 30
0.0
 40
0.2
100
AcDbArc
 50
180.0
 51
260.0
  0
LINE
  5
67
100
AcDbEntity
  8
2
370
    50
100
AcDbLine
 10
-278.975377
 20
60.324621
 30
0.0
 11
-265.275377
 21
60.324621
 31
0.0
  0
LINE
  5
68
100
AcDbEntity
  8
2
370
    50
100
AcDbLine
 10
-240.275377
 20
60.324621
 30
0.0
 11
-226.575377
 21
60.324621
 31
0.0
  0
LINE
  5
69
100
AcDbEntity
  8
2
370
    50
100
AcDbLine
 10
-278.975377
 20
59.824621
 30
0.0
 11
-265.275377
 21
59.824621
 31
0.0
  0
LINE
  5
6A
100
AcDbEntity
  8
2
370
    50
100
AcDbLine
 10
-240.275377
 20
59.824621
 30
0.0
 11
-226.575377
 21
59.824621
 31
0.0
  0
LINE
  5
6B
100
AcDbEntity
  8
2
370
    25
100
AcDbLine
 10
-275.741289
 20
102.765438
 30
0.0
 11
-265.275377
 21
102.765438
 31
0.0
  0
LINE
  5
6C
100
AcDbEntity
  8
2
370
    25
100
AcDbLine
 10
-240.275377
 20
102.765438
 30
0.0
 11
-229.903116
 21
102.765438
 31
0.0
  0
LINE
  5
6D
100
AcDbEntity
  8
2
370
    25
100
AcDbLine
 10
-276.775377
 20
102.324621
 30
0.0
 11
-265.275377
 21
102.324621
 31
0.0
  0
LINE
  5
6E
100
AcDbEntity
  8
2
370
    25
100
AcDbLine
 10
-240.275377
 20
102.324621
 30
0.0
 11
-228.775377
 21
102.324621
 31
0.0
  0
LINE
  5
6F
100
AcDbEntity
  8
2
370
    50
100
AcDbLine
 10
-226.275377
 20
11.124621
 30
0.0
 11
-226.575377
 21
10.824621
 31
0.0
  0
LINE
  5
70
100
AcDbEntity
  8
2
370
    50
100
AcDbLine
 10
-279.275377
 20
11.124621
 30
0.0
 11
-278.975377
 21
10.824621
 31
0.0
  0
LINE
  5
71
100
AcDbEntity
  8
2
370
    50
100
AcDbLine
 10
-226.575377
 20
23.824621
 30
0.0
 11
-226.275377
 21
23.524621
 31
0.0
  0
LINE
  5
72
100
AcDbEntity
  8
2
370
    50
100
AcDbLine
 10
-278.975377
 20
23.824621
 30
0.0
 11
-279.275377
 21
23.524621
 31
0.0
  0
LINE
  5
73
100
AcDbEntity
  8
2
370
    50
100
AcDbLine
 10
-226.575377
 20
24.824621
 30
0.0
 11
-226.275377
 21
25.124621
 31
0.0
  0
LINE
  5
74
100
AcDbEntity
  8
2
370
    50
100
AcDbLine
 10
-278.975377
 20
24.824621
 30
0.0
 11
-279.275377
 21
25.124621
 31
0.0
  0
LINE
  5
75
100
AcDbEntity
  8
2
370
    50
100
AcDbLine
 10
-226.575377
 20
59.824621
 30
0.0
 11
-226.275377
 21
59.524621
 31
0.0
  0
LINE
  5
76
100
AcDbEntity
  8
2
370
    50
100
AcDbLine
 10
-278.975377
 20
59.824621
 30
0.0
 11
-279.275377
 21
59.524621
 31
0.0
  0
LINE
  5
77
100
AcDbEntity
  8
2
370
    50
100
AcDbLine
 10
-226.575377
 20
60.324621
 30
0.0
 11
-226.275377
 21
60.624621
 31
0.0
  0
LINE
  5
78
100
AcDbEntity
  8
2
370
    50
100
AcDbLine
 10
-278.975377
 20
60.324621
 30
0.0
 11
-279.275377
 21
60.624621
 31
0.0
  0
LINE
  5
79
100
AcDbEntity
  8
2
370
    50
100
AcDbLine
 10
-226.275377
 20
60.624621
 30
0.0
 11
-226.275377
 21
102.156801
 31
0.0
  0
LINE
  5
7A
100
AcDbEntity
  8
2
370
    50
100
AcDbLine
 10
-279.275377
 20
60.624621
 30
0.0
 11
-279.275377
 21
102.156801
 31
0.0
  0
LINE
  5
7B
100
AcDbEntity
  8
2
370
    50
100
AcDbLine
 10
-279.275377
 20
60.624621
 30
0.0
 11
-265.275377
 21
60.624621
 31
0.0
  0
LINE
  5
7C
100
AcDbEntity
  8
2
370
    50
100
AcDbLine
 10
-240.275377
 20
60.624621
 30
0.0
 11
-226.275377
 21
60.624621
 31
0.0
  0
LINE
  5
7D
100
AcDbEntity
  8
2
370
    50
100
AcDbLine
 10
-226.275377
 20
11.124621
 30
0.0
 11
-279.275377
 21
11.124621
 31
0.0
  0
LINE
  5
7E
100
AcDbEntity
  8
2
370
    50
100
AcDbLine
 10
-226.275377
 20
25.124621
 30
0.0
 11
-226.275377
 21
59.524621
 31
0.0
  0
LINE
  5
7F
100
AcDbEntity
  8
2
370
    50
100
AcDbLine
 10
-226.275377
 20
23.824621
 30
0.0
 11
-226.275377
 21
24.824621
 31
0.0
  0
LINE
  5
80
100
AcDbEntity
  8
2
370
    50
100
AcDbLine
 10
-279.275377
 20
25.124621
 30
0.0
 11
-279.275377
 21
59.524621
 31
0.0
  0
LINE
  5
81
100
AcDbEntity
  8
2
370
    50
100
AcDbLine
 10
-279.275377
 20
23.824621
 30
0.0
 11
-279.275377
 21
24.824621
 31
0.0
  0
LINE
  5
82
100
AcDbEntity
  8
2
370
    50
100
AcDbLine
 10
-279.275377
 20
59.524621
 30
0.0
 11
-265.275377
 21
59.524621
 31
0.0
  0
LINE
  5
83
100
AcDbEntity
  8
2
370
    50
100
AcDbLine
 10
-240.275377
 20
59.524621
 30
0.0
 11
-226.275377
 21
59.524621
 31
0.0
  0
LINE
  5
84
100
AcDbEntity
  8
2
370
    50
100
AcDbLine
 10
-279.275377
 20
102.890034
 30
0.0
 11
-276.775377
 21
102.890034
 31
0.0
  0
LINE
  5
85
100
AcDbEntity
  8
2
370
    50
100
AcDbLine
 10
-228.775377
 20
102.890034
 30
0.0
 11
-226.275377
 21
102.890034
 31
0.0
  0
ELLIPSE
  5
86
100
AcDbEntity
  8
2
370
    50
100
AcDbEllipse
 10
-252.775377
 20
102.890034
 30
0.0
 11
25.617999999999999
 21
0.0
 31
0.0
210
0.0
220
0.0
230
1.0
 40
0.609708
 41
0.0
 42
1.06107
  0
ELLIPSE
  5
87
100
AcDbEntity
  8
2
370
    50
100
AcDbEllipse
 10
-252.775377
 20
102.890034
 30
0.0
 11
25.617999999999999
 21
0.0
 31
0.0
210
0.0
220
0.0
230
1.0
 40
0.609708
 41
2.0805220000000002
 42
3.1415929999999999
  0
ELLIPSE
  5
88
100
AcDbEntity
  8
2
370
    50
100
AcDbEllipse
 10
-252.775377
 20
102.890034
 30
0.0
 11
26.5
 21
0.0
 31
0.0
210
0.0
220
0.0
230
1.0
 40
0.620451
 41
0.0
 42
1.0795809999999999
  0
ELLIPSE
  5
89
100
AcDbEntity
  8
2
370
    50
100
AcDbEllipse
 10
-252.775377
 20
102.890034
 30
0.0
 11
26.5
 21
0.0
 31
0.0
210
0.0
220
0.0
230
1.0
 40
0.620451
 41
2.0620120000000002
 42
3.1415929999999999
  0
LINE
  5
8A
100
AcDbEntity
  8
2
370
    50
100
AcDbLine
 10
-278.775377
 20
10.824621
 30
0.0
 11
-278.775377
 21
7.824621
 31
0.0
  0
LINE
  5
8B
100
AcDbEntity
  8
2
370
    50
100
AcDbLine
 10
-226.775377
 20
10.824621
 30
0.0
 11
-226.775377
 21
7.824621
 31
0.0
  0
LINE
  5
8C
100
AcDbEntity
  8
2
370
    50
100
AcDbLine
 10
-226.775377
 20
7.824621
 30
0.0
 11
-278.775377
 21
7.824621
 31
0.0
  0
ELLIPSE
  5
8D
100
AcDbEntity
  8
2
370
    50
100
AcDbEllipse
 10
-252.775377
 20
38.757345
 30
0.0
 11
12.5
 21
0.0
 31
0.0
210
0.0
220
0.0
230
1.0
 40
0.874618
 41
3.1415929999999999
 42
0.0
  0
LINE
  5
8E
100
AcDbEntity
  8
2
370
    50
100
AcDbLine
 10
-279.275377
 20
25.124621
 30
0.0
 11
-260.275377
 21
25.124621
 31
0.0
  0
LINE
  5
8F
100
AcDbEntity
  8
2
370
    50
100
AcDbLine
 10
-260.275377
 20
25.124621
 30
0.0
 11
-226.275377
 21
25.124621
 31
0.0
  0
LINE
  5
90
100
AcDbEntity
  8
2
370
    50
100
AcDbLine
 10
-279.275377
 20
24.824621
 30
0.0
 11
-245.275377
 21
24.824621
 31
0.0
  0
LINE
  5
91
100
AcDbEntity
  8
2
370
    50
100
AcDbLine
 10
-245.275377
 20
24.824621
 30
0.0
 11
-226.275377
 21
24.824621
 31
0.0
  0
LINE
  5
92
100
AcDbEntity
  8
2
370
    50
100
AcDbLine
 10
-279.275377
 20
23.824621
 30
0.0
 11
-245.275377
 21
23.824621
 31
0.0
  0
LINE
  5
93
100
AcDbEntity
  8
2
370
    50
100
AcDbLine
 10
-245.275377
 20
23.824621
 30
0.0
 11
-226.275377
 21
23.824621
 31
0.0
  0
LINE
  5
94
100
AcDbEntity
  8
2
370
    50
100
AcDbLine
 10
-279.275377
 20
23.524621
 30
0.0
 11
-260.275377
 21
23.524621
 31
0.0
  0
LINE
  5
95
100
AcDbEntity
  8
2
370
    50
100
AcDbLine
 10
-260.275377
 20
23.524621
 30
0.0
 11
-226.275377
 21
23.524621
 31
0.0
  0
LINE
  5
96
100
AcDbEntity
  8
2
370
    50
100
AcDbLine
 10
-270.275377
 20
7.824621
 30
0.0
 11
-270.275377
 21
5.824621
 31
0.0
  0
LINE
  5
97
100
AcDbEntity
  8
2
370
    50
100
AcDbLine
 10
-235.275377
 20
7.824621
 30
0.0
 11
-235.275377
 21
5.824621
 31
0.0
  0
LINE
  5
98
100
AcDbEntity
  8
2
370
    25
100
AcDbLine
 10
-236.075377
 20
7.824621
 30
0.0
 11
-236.075377
 21
5.824621
 31
0.0
  0
LINE
  5
99
100
AcDbEntity
  8
2
370
    25
100
AcDbLine
 10
-269.475377
 20
7.824621
 30
0.0
 11
-269.475377
 21
5.824621
 31
0.0
  0
LINE
  5
9A
100
AcDbEntity
  8
2
370
    25
  6
CENTER
100
AcDbLine
 10
-244.775377
 20
-113.866861
 30
0.0
 11
-204.9813
 21
-74.072783
 31
0.0
  0
LINE
  5
9B
100
AcDbEntity
  8
2
370
    25
  6
CENTER
100
AcDbLine
 10
-260.775377
 20
-72.232286
 30
0.0
 11
-260.775377
 21
-113.866861
 31
0.0
  0
LINE
  5
9C
100
AcDbEntity
  8
2
370
    50
100
AcDbLine
 10
-266.775377
 20
-36.786704
 30
0.0
 11
-266.775377
 21
-31.464054
 31
0.0
  0
LINE
  5
9D
100
AcDbEntity
  8
2
370
    50
100
AcDbLine
 10
-254.775377
 20
-36.786704
 30
0.0
 11
-254.775377
 21
-31.464054
 31
0.0
  0
LINE
  5
9E
100
AcDbEntity
  8
2
370
    50
100
AcDbLine
 10
-254.975377
 20
-37.075379
 30
0.0
 11
-266.575377
 21
-37.075379
 31
0.0
  0
LINE
  5
9F
100
AcDbEntity
  8
2
370
    50
100
AcDbLine
 10
-258.377461
 20
-31.464054
 30
0.0
 11
-258.377461
 21
-36.786704
 31
0.0
  0
LINE
  5
A0
100
AcDbEntity
  8
2
370
    50
100
AcDbLine
 10
-257.211195
 20
-31.464054
 30
0.0
 11
-257.211195
 21
-36.786704
 31
0.0
  0
LINE
  5
A1
100
AcDbEntity
  8
2
370
    50
100
AcDbLine
 10
-254.81328
 20
-31.464054
 30
0.0
 11
-254.81328
 21
-36.786704
 31
0.0
  0
LINE
  5
A2
100
AcDbEntity
  8
2
370
    50
100
AcDbLine
 10
-255.275377
 20
-37.075379
 30
0.0
 11
-254.775377
 21
-36.786704
 31
0.0
  0
LINE
  5
A3
100
AcDbEntity
  8
2
370
    50
100
AcDbLine
 10
-257.211195
 20
-36.786704
 30
0.0
 11
-258.377461
 21
-36.786704
 31
0.0
  0
LINE
  5
A4
100
AcDbEntity
  8
2
370
    50
100
AcDbLine
 10
-266.775377
 20
-36.786704
 30
0.0
 11
-266.275377
 21
-37.075379
 31
0.0
  0
ARC
  5
A5
100
AcDbEntity
  8
2
370
    50
100
AcDbCircle
 10
-260.775377
 20
-26.971749
 30
0.0
 40
10.10363
100
AcDbArc
 50
270.0
 51
283.729133
  0
LINE
  5
A6
100
AcDbEntity
  8
2
370
    50
100
AcDbLine
 10
-254.775377
 20
-36.786704
 30
0.0
 11
-254.81328
 21
-36.786704
 31
0.0
  0
ARC
  5
A7
100
AcDbEntity
  8
2
370
    50
100
AcDbCircle
 10
-256.012238
 20
-34.441219
 30
0.0
 40
2.634161
100
AcDbArc
 50
242.924933
 51
297.075067
  0
LINE
  5
A8
100
AcDbEntity
  8
2
370
    50
100
AcDbLine
 10
-267.275377
 20
-54.075379
 30
0.0
 11
-254.275377
 21
-54.075379
 31
0.0
  0
LINE
  5
A9
100
AcDbEntity
  8
2
370
    50
100
AcDbLine
 10
-267.275377
 20
-54.075379
 30
0.0
 11
-267.275377
 21
-41.575379
 31
0.0
  0
LINE
  5
AA
100
AcDbEntity
  8
2
370
    50
100
AcDbLine
 10
-264.649707
 20
-40.075379
 30
0.0
 11
-264.649707
 21
-37.575379
 31
0.0
  0
LINE
  5
AB
100
AcDbEntity
  8
2
370
    50
100
AcDbLine
 10
-265.356814
 20
-40.075379
 30
0.0
 11
-265.356814
 21
-37.575379
 31
0.0
  0
LINE
  5
AC
100
AcDbEntity
  8
2
370
    50
100
AcDbLine
 10
-266.754508
 20
-40.075379
 30
0.0
 11
-266.754508
 21
-37.575379
 31
0.0
  0
LINE
  5
AD
100
AcDbEntity
  8
2
370
    50
100
AcDbLine
 10
-266.775377
 20
-40.075379
 30
0.0
 11
-266.775377
 21
-37.275379
 31
0.0
  0
LINE
  5
AE
100
AcDbEntity
  8
2
370
    50
100
AcDbLine
 10
-261.275377
 20
-40.075379
 30
0.0
 11
-261.275377
 21
-37.575379
 31
0.0
  0
LINE
  5
AF
100
AcDbEntity
  8
2
370
    50
100
AcDbLine
 10
-260.275377
 20
-40.075379
 30
0.0
 11
-260.275377
 21
-37.575379
 31
0.0
  0
LINE
  5
B0
100
AcDbEntity
  8
2
370
    50
100
AcDbLine
 10
-256.901047
 20
-40.075379
 30
0.0
 11
-256.901047
 21
-37.575379
 31
0.0
  0
LINE
  5
B1
100
AcDbEntity
  8
2
370
    50
100
AcDbLine
 10
-256.19394
 20
-40.075379
 30
0.0
 11
-256.19394
 21
-37.575379
 31
0.0
  0
LINE
  5
B2
100
AcDbEntity
  8
2
370
    50
100
AcDbLine
 10
-254.775377
 20
-40.075379
 30
0.0
 11
-254.775377
 21
-37.275379
 31
0.0
  0
LINE
  5
B3
100
AcDbEntity
  8
2
370
    50
100
AcDbLine
 10
-254.796247
 20
-40.075379
 30
0.0
 11
-254.796247
 21
-37.575379
 31
0.0
  0
LINE
  5
B4
100
AcDbEntity
  8
2
370
    50
100
AcDbLine
 10
-265.356814
 20
-37.575379
 30
0.0
 11
-266.775377
 21
-37.575379
 31
0.0
  0
LINE
  5
B5
100
AcDbEntity
  8
2
370
    50
100
AcDbLine
 10
-261.275377
 20
-37.575379
 30
0.0
 11
-264.649707
 21
-37.575379
 31
0.0
  0
LINE
  5
B6
100
AcDbEntity
  8
2
370
    50
100
AcDbLine
 10
-254.775377
 20
-37.575379
 30
0.0
 11
-256.19394
 21
-37.575379
 31
0.0
  0
LINE
  5
B7
100
AcDbEntity
  8
2
370
    50
100
AcDbLine
 10
-256.901047
 20
-37.575379
 30
0.0
 11
-260.275377
 21
-37.575379
 31
0.0
  0
LINE
  5
B8
100
AcDbEntity
  8
2
370
    50
100
AcDbLine
 10
-265.356814
 20
-40.075379
 30
0.0
 11
-266.775377
 21
-40.075379
 31
0.0
  0
LINE
  5
B9
100
AcDbEntity
  8
2
370
    50
100
AcDbLine
 10
-261.275377
 20
-40.075379
 30
0.0
 11
-264.649707
 21
-40.075379
 31
0.0
  0
LINE
  5
BA
100
AcDbEntity
  8
2
370
    50
100
AcDbLine
 10
-254.775377
 20
-40.075379
 30
0.0
 11
-256.19394
 21
-40.075379
 31
0.0
  0
LINE
  5
BB
100
AcDbEntity
  8
2
370
    50
100
AcDbLine
 10
-256.901047
 20
-40.075379
 30
0.0
 11
-260.275377
 21
-40.075379
 31
0.0
  0
ARC
  5
BC
100
AcDbEntity
  8
2
370
    50
100
AcDbCircle
 10
-254.975377
 20
-37.275379
 30
0.0
 40
0.2
100
AcDbArc
 50
0.0
 51
90.0
  0
ARC
  5
BD
100
AcDbEntity
  8
2
370
    50
100
AcDbCircle
 10
-266.575377
 20
-37.275379
 30
0.0
 40
0.2
100
AcDbArc
 50
90.0
 51
180.0
  0
ARC
  5
BE
100
AcDbEntity
  8
2
370
    50
100
AcDbCircle
 10
-264.775377
 20
-41.575379
 30
0.0
 40
2.5
100
AcDbArc
 50
143.130102
 51
180.0
  0
ARC
  5
BF
100
AcDbEntity
  8
2
370
    50
100
AcDbCircle
 10
-256.775377
 20
-41.575379
 30
0.0
 40
2.5
100
AcDbArc
 50
0.0
 51
36.869898
  0
LINE
  5
C0
100
AcDbEntity
  8
2
370
    25
100
AcDbLine
 10
-267.256118
 20
-54.075379
 30
0.0
 11
-267.256118
 21
-41.575379
 31
0.0
  0
LINE
  5
C1
100
AcDbEntity
  8
2
370
    25
100
AcDbLine
 10
-265.711506
 20
-54.075379
 30
0.0
 11
-265.711506
 21
-41.575379
 31
0.0
  0
LINE
  5
C2
100
AcDbEntity
  8
2
370
    25
100
AcDbLine
 10
-265.0044
 20
-54.075379
 30
0.0
 11
-265.0044
 21
-41.575379
 31
0.0
  0
LINE
  5
C3
100
AcDbEntity
  8
2
370
    25
100
AcDbLine
 10
-261.275377
 20
-54.075379
 30
0.0
 11
-261.275377
 21
-41.575379
 31
0.0
  0
LINE
  5
C4
100
AcDbEntity
  8
2
370
    25
100
AcDbLine
 10
-260.275377
 20
-54.075379
 30
0.0
 11
-260.275377
 21
-41.575379
 31
0.0
  0
LINE
  5
C5
100
AcDbEntity
  8
2
370
    25
100
AcDbLine
 10
-256.546355
 20
-54.075379
 30
0.0
 11
-256.546355
 21
-41.575379
 31
0.0
  0
LINE
  5
C6
100
AcDbEntity
  8
2
370
    25
100
AcDbLine
 10
-255.839248
 20
-54.075379
 30
0.0
 11
-255.839248
 21
-41.575379
 31
0.0
  0
LINE
  5
C7
100
AcDbEntity
  8
2
370
    25
100
AcDbLine
 10
-254.294637
 20
-54.075379
 30
0.0
 11
-254.294637
 21
-41.575379
 31
0.0
  0
ARC
  5
C8
100
AcDbEntity
  8
2
370
    50
100
AcDbCircle
 10
-260.775377
 20
-26.971749
 30
0.0
 40
10.10363
100
AcDbArc
 50
256.270867
 51
270.0
  0
LINE
  5
C9
100
AcDbEntity
  8
2
370
    50
100
AcDbLine
 10
-264.339559
 20
-36.786704
 30
0.0
 11
-263.173293
 21
-36.786704
 31
0.0
  0
LINE
  5
CA
100
AcDbEntity
  8
2
370
    50
100
AcDbLine
 10
-263.173293
 20
-31.464054
 30
0.0
 11
-263.173293
 21
-36.786704
 31
0.0
  0
LINE
  5
CB
100
AcDbEntity
  8
2
370
    50
100
AcDbLine
 10
-264.33956
 20
-31.464054
 30
0.0
 11
-264.339559
 21
-36.786704
 31
0.0
  0
ARC
  5
CC
100
AcDbEntity
  8
2
370
    50
100
AcDbCircle
 10
-265.538517
 20
-34.441219
 30
0.0
 40
2.634161
100
AcDbArc
 50
242.924933
 51
297.075067
  0
LINE
  5
CD
100
AcDbEntity
  8
2
370
    50
100
AcDbLine
 10
-266.525377
 20
-84.075379
 30
0.0
 11
-266.525377
 21
-54.075379
 31
0.0
  0
LINE
  5
CE
100
AcDbEntity
  8
2
370
    50
100
AcDbLine
 10
-255.025377
 20
-84.075379
 30
0.0
 11
-255.025377
 21
-54.075379
 31
0.0
  0
LINE
  5
CF
100
AcDbEntity
  8
2
370
    50
100
AcDbLine
 10
-266.737475
 20
-31.464054
 30
0.0
 11
-266.737475
 21
-36.786704
 31
0.0
  0
LINE
  5
D0
100
AcDbEntity
  8
2
370
    50
100
AcDbLine
 10
-266.737475
 20
-36.786704
 30
0.0
 11
-266.775377
 21
-36.786704
 31
0.0
  0
ARC
  5
D1
100
AcDbEntity
  8
2
370
    50
100
AcDbCircle
 10
-263.650377
 20
-80.242046
 30
0.0
 40
4.791667
100
AcDbArc
 50
233.130102
 51
306.869898
  0
ARC
  5
D2
100
AcDbEntity
  8
2
370
    50
100
AcDbCircle
 10
-257.900377
 20
-87.908712
 30
0.0
 40
4.791667
100
AcDbArc
 50
53.130102
 51
126.869898
  0
ARC
  5
D3
100
AcDbEntity
  8
2
370
    50
100
AcDbCircle
 10
-257.900377
 20
-80.242046
 30
0.0
 40
4.791667
100
AcDbArc
 50
233.130102
 51
306.869898
  0
LINE
  5
D4
100
AcDbEntity
  8
2
370
    25
  6
CENTER
100
AcDbLine
 10
-244.775377
 20
-113.866861
 30
0.0
 11
-244.775377
 21
-72.232286
 31
0.0
  0
LINE
  5
D5
100
AcDbEntity
  8
2
370
    50
100
AcDbLine
 10
-250.775377
 20
-36.786704
 30
0.0
 11
-250.775377
 21
-31.464054
 31
0.0
  0
LINE
  5
D6
100
AcDbEntity
  8
2
370
    50
100
AcDbLine
 10
-238.775377
 20
-36.786704
 30
0.0
 11
-238.775377
 21
-31.464054
 31
0.0
  0
LINE
  5
D7
100
AcDbEntity
  8
2
370
    50
100
AcDbLine
 10
-238.975377
 20
-37.075379
 30
0.0
 11
-250.575377
 21
-37.075379
 31
0.0
  0
LINE
  5
D8
100
AcDbEntity
  8
2
370
    50
100
AcDbLine
 10
-242.377461
 20
-31.464054
 30
0.0
 11
-242.377461
 21
-36.786704
 31
0.0
  0
LINE
  5
D9
100
AcDbEntity
  8
2
370
    50
100
AcDbLine
 10
-241.211195
 20
-31.464054
 30
0.0
 11
-241.211195
 21
-36.786704
 31
0.0
  0
LINE
  5
DA
100
AcDbEntity
  8
2
370
    50
100
AcDbLine
 10
-238.81328
 20
-31.464054
 30
0.0
 11
-238.81328
 21
-36.786704
 31
0.0
  0
LINE
  5
DB
100
AcDbEntity
  8
2
370
    50
100
AcDbLine
 10
-239.275377
 20
-37.075379
 30
0.0
 11
-238.775377
 21
-36.786704
 31
0.0
  0
LINE
  5
DC
100
AcDbEntity
  8
2
370
    50
100
AcDbLine
 10
-241.211195
 20
-36.786704
 30
0.0
 11
-242.377461
 21
-36.786704
 31
0.0
  0
LINE
  5
DD
100
AcDbEntity
  8
2
370
    50
100
AcDbLine
 10
-250.775377
 20
-36.786704
 30
0.0
 11
-250.275377
 21
-37.075379
 31
0.0
  0
ARC
  5
DE
100
AcDbEntity
  8
2
370
    50
100
AcDbCircle
 10
-244.775377
 20
-26.971749
 30
0.0
 40
10.10363
100
AcDbArc
 50
270.0
 51
283.729133
  0
LINE
  5
DF
100
AcDbEntity
  8
2
370
    50
100
AcDbLine
 10
-238.775377
 20
-36.786704
 30
0.0
 11
-238.81328
 21
-36.786704
 31
0.0
  0
ARC
  5
E0
100
AcDbEntity
  8
2
370
    50
100
AcDbCircle
 10
-240.012238
 20
-34.441219
 30
0.0
 40
2.634161
100
AcDbArc
 50
242.924933
 51
297.075067
  0
LINE
  5
E1
100
AcDbEntity
  8
2
370
    50
100
AcDbLine
 10
-251.275377
 20
-54.075379
 30
0.0
 11
-238.275377
 21
-54.075379
 31
0.0
  0
LINE
  5
E2
100
AcDbEntity
  8
2
370
    50
100
AcDbLine
 10
-251.275377
 20
-54.075379
 30
0.0
 11
-251.275377
 21
-41.575379
 31
0.0
  0
LINE
  5
E3
100
AcDbEntity
  8
2
370
    50
100
AcDbLine
 10
-248.649707
 20
-40.075379
 30
0.0
 11
-248.649707
 21
-37.575379
 31
0.0
  0
LINE
  5
E4
100
AcDbEntity
  8
2
370
    50
100
AcDbLine
 10
-249.356814
 20
-40.075379
 30
0.0
 11
-249.356814
 21
-37.575379
 31
0.0
  0
LINE
  5
E5
100
AcDbEntity
  8
2
370
    50
100
AcDbLine
 10
-250.754508
 20
-40.075379
 30
0.0
 11
-250.754508
 21
-37.575379
 31
0.0
  0
LINE
  5
E6
100
AcDbEntity
  8
2
370
    50
100
AcDbLine
 10
-250.775377
 20
-40.075379
 30
0.0
 11
-250.775377
 21
-37.275379
 31
0.0
  0
LINE
  5
E7
100
AcDbEntity
  8
2
370
    50
100
AcDbLine
 10
-245.275377
 20
-40.075379
 30
0.0
 11
-245.275377
 21
-37.575379
 31
0.0
  0
LINE
  5
E8
100
AcDbEntity
  8
2
370
    50
100
AcDbLine
 10
-244.275377
 20
-40.075379
 30
0.0
 11
-244.275377
 21
-37.575379
 31
0.0
  0
LINE
  5
E9
100
AcDbEntity
  8
2
370
    50
100
AcDbLine
 10
-240.901047
 20
-40.075379
 30
0.0
 11
-240.901047
 21
-37.575379
 31
0.0
  0
LINE
  5
EA
100
AcDbEntity
  8
2
370
    50
100
AcDbLine
 10
-240.19394
 20
-40.075379
 30
0.0
 11
-240.19394
 21
-37.575379
 31
0.0
  0
LINE
  5
EB
100
AcDbEntity
  8
2
370
    50
100
AcDbLine
 10
-238.775377
 20
-40.075379
 30
0.0
 11
-238.775377
 21
-37.275379
 31
0.0
  0
LINE
  5
EC
100
AcDbEntity
  8
2
370
    50
100
AcDbLine
 10
-238.796247
 20
-40.075379
 30
0.0
 11
-238.796247
 21
-37.575379
 31
0.0
  0
LINE
  5
ED
100
AcDbEntity
  8
2
370
    50
100
AcDbLine
 10
-249.356814
 20
-37.575379
 30
0.0
 11
-250.775377
 21
-37.575379
 31
0.0
  0
LINE
  5
EE
100
AcDbEntity
  8
2
370
    50
100
AcDbLine
 10
-245.275377
 20
-37.575379
 30
0.0
 11
-248.649707
 21
-37.575379
 31
0.0
  0
LINE
  5
EF
100
AcDbEntity
  8
2
370
    50
100
AcDbLine
 10
-238.775377
 20
-37.575379
 30
0.0
 11
-240.19394
 21
-37.575379
 31
0.0
  0
LINE
  5
F0
100
AcDbEntity
  8
2
370
    50
100
AcDbLine
 10
-240.901047
 20
-37.575379
 30
0.0
 11
-244.275377
 21
-37.575379
 31
0.0
  0
LINE
  5
F1
100
AcDbEntity
  8
2
370
    50
100
AcDbLine
 10
-249.356814
 20
-40.075379
 30
0.0
 11
-250.775377
 21
-40.075379
 31
0.0
  0
LINE
  5
F2
100
AcDbEntity
  8
2
370
    50
100
AcDbLine
 10
-245.275377
 20
-40.075379
 30
0.0
 11
-248.649707
 21
-40.075379
 31
0.0
  0
LINE
  5
F3
100
AcDbEntity
  8
2
370
    50
100
AcDbLine
 10
-238.775377
 20
-40.075379
 30
0.0
 11
-240.19394
 21
-40.075379
 31
0.0
  0
LINE
  5
F4
100
AcDbEntity
  8
2
370
    50
100
AcDbLine
 10
-240.901047
 20
-40.075379
 30
0.0
 11
-244.275377
 21
-40.075379
 31
0.0
  0
ARC
  5
F5
100
AcDbEntity
  8
2
370
    50
100
AcDbCircle
 10
-238.975377
 20
-37.275379
 30
0.0
 40
0.2
100
AcDbArc
 50
0.0
 51
90.0
  0
ARC
  5
F6
100
AcDbEntity
  8
2
370
    50
100
AcDbCircle
 10
-250.575377
 20
-37.275379
 30
0.0
 40
0.2
100
AcDbArc
 50
90.0
 51
180.0
  0
ARC
  5
F7
100
AcDbEntity
  8
2
370
    50
100
AcDbCircle
 10
-248.775377
 20
-41.575379
 30
0.0
 40
2.5
100
AcDbArc
 50
143.130102
 51
180.0
  0
ARC
  5
F8
100
AcDbEntity
  8
2
370
    50
100
AcDbCircle
 10
-240.775377
 20
-41.575379
 30
0.0
 40
2.5
100
AcDbArc
 50
0.0
 51
36.869898
  0
LINE
  5
F9
100
AcDbEntity
  8
2
370
    25
100
AcDbLine
 10
-251.256118
 20
-54.075379
 30
0.0
 11
-251.256118
 21
-41.575379
 31
0.0
  0
LINE
  5
FA
100
AcDbEntity
  8
2
370
    25
100
AcDbLine
 10
-249.711506
 20
-54.075379
 30
0.0
 11
-249.711506
 21
-41.575379
 31
0.0
  0
LINE
  5
FB
100
AcDbEntity
  8
2
370
    25
100
AcDbLine
 10
-249.0044
 20
-54.075379
 30
0.0
 11
-249.0044
 21
-41.575379
 31
0.0
  0
LINE
  5
FC
100
AcDbEntity
  8
2
370
    25
100
AcDbLine
 10
-245.275377
 20
-54.075379
 30
0.0
 11
-245.275377
 21
-41.575379
 31
0.0
  0
LINE
  5
FD
100
AcDbEntity
  8
2
370
    25
100
AcDbLine
 10
-244.275377
 20
-54.075379
 30
0.0
 11
-244.275377
 21
-41.575379
 31
0.0
  0
LINE
  5
FE
100
AcDbEntity
  8
2
370
    25
100
AcDbLine
 10
-240.546355
 20
-54.075379
 30
0.0
 11
-240.546355
 21
-41.575379
 31
0.0
  0
LINE
  5
FF
100
AcDbEntity
  8
2
370
    25
100
AcDbLine
 10
-239.839248
 20
-54.075379
 30
0.0
 11
-239.839248
 21
-41.575379
 31
0.0
  0
LINE
  5
100
100
AcDbEntity
  8
2
370
    25
100
AcDbLine
 10
-238.294637
 20
-54.075379
 30
0.0
 11
-238.294637
 21
-41.575379
 31
0.0
  0
ARC
  5
101
100
AcDbEntity
  8
2
370
    50
100
AcDbCircle
 10
-244.775377
 20
-26.971749
 30
0.0
 40
10.10363
100
AcDbArc
 50
256.270867
 51
270.0
  0
LINE
  5
102
100
AcDbEntity
  8
2
370
    50
100
AcDbLine
 10
-248.339559
 20
-36.786704
 30
0.0
 11
-247.173293
 21
-36.786704
 31
0.0
  0
LINE
  5
103
100
AcDbEntity
  8
2
370
    50
100
AcDbLine
 10
-247.173293
 20
-31.464054
 30
0.0
 11
-247.173293
 21
-36.786704
 31
0.0
  0
LINE
  5
104
100
AcDbEntity
  8
2
370
    50
100
AcDbLine
 10
-248.33956
 20
-31.464054
 30
0.0
 11
-248.339559
 21
-36.786704
 31
0.0
  0
ARC
  5
105
100
AcDbEntity
  8
2
370
    50
100
AcDbCircle
 10
-249.538517
 20
-34.441219
 30
0.0
 40
2.634161
100
AcDbArc
 50
242.924933
 51
297.075067
  0
LINE
  5
106
100
AcDbEntity
  8
2
370
    50
100
AcDbLine
 10
-250.525377
 20
-84.075379
 30
0.0
 11
-250.525377
 21
-54.075379
 31
0.0
  0
LINE
  5
107
100
AcDbEntity
  8
2
370
    50
100
AcDbLine
 10
-239.025377
 20
-84.075379
 30
0.0
 11
-239.025377
 21
-54.075379
 31
0.0
  0
LINE
  5
108
100
AcDbEntity
  8
2
370
    50
100
AcDbLine
 10
-250.737475
 20
-31.464054
 30
0.0
 11
-250.737475
 21
-36.786704
 31
0.0
  0
LINE
  5
109
100
AcDbEntity
  8
2
370
    50
100
AcDbLine
 10
-250.737475
 20
-36.786704
 30
0.0
 11
-250.775377
 21
-36.786704
 31
0.0
  0
ARC
  5
10A
100
AcDbEntity
  8
2
370
    50
100
AcDbCircle
 10
-247.650377
 20
-80.242046
 30
0.0
 40
4.791667
100
AcDbArc
 50
233.130102
 51
306.869898
  0
ARC
  5
10B
100
AcDbEntity
  8
2
370
    50
100
AcDbCircle
 10
-241.900377
 20
-87.908712
 30
0.0
 40
4.791667
100
AcDbArc
 50
53.130102
 51
126.869898
  0
ARC
  5
10C
100
AcDbEntity
  8
2
370
    50
100
AcDbCircle
 10
-241.900377
 20
-80.242046
 30
0.0
 40
4.791667
100
AcDbArc
 50
233.130102
 51
306.869898
  0
LINE
  5
10D
100
AcDbEntity
  8
2
370
    50
100
AcDbLine
 10
-254.275377
 20
-41.575379
 30
0.0
 11
-254.275377
 21
-54.075379
 31
0.0
  0
LINE
  5
10E
100
AcDbEntity
  8
2
370
    25
  6
CENTER
100
AcDbLine
 10
-260.775377
 20
-113.866861
 30
0.0
 11
-300.568829
 21
-74.072783
 31
0.0
  0
LINE
  5
10F
100
AcDbEntity
  8
2
370
    50
100
AcDbLine
 10
-91.004582
 20
174.094748
 30
0.0
 11
82.687577
 21
56.937907
 31
0.0
  0
LINE
  5
110
100
AcDbEntity
  8
2
370
    50
100
AcDbLine
 10
-90.958842
 20
173.822885
 30
0.0
 11
-102.047388
 21
157.38344
 31
0.0
  0
LINE
  5
111
100
AcDbEntity
  8
2
370
    50
100
AcDbLine
 10
-102.030971
 20
157.40778
 30
0.0
 11
-104.715204
 21
153.42824
 31
0.0
  0
LINE
  5
112
100
AcDbEntity
  8
2
370
    50
100
AcDbLine
 10
-117.117823
 20
162.759122
 30
0.0
 11
-118.007218
 21
161.44054
 31
0.0
  0
LINE
  5
113
100
AcDbEntity
  8
2
370
    50
100
AcDbLine
 10
-117.281774
 20
162.514705
 30
0.0
 11
-103.137484
 21
183.484478
 31
0.0
  0
LINE
  5
114
100
AcDbEntity
  8
2
370
    50
100
AcDbLine
 10
-117.117306
 20
162.758539
 30
0.0
 11
-118.235692
 21
161.100463
 31
0.0
  0
LINE
  5
115
100
AcDbEntity
  8
2
370
    50
100
AcDbLine
 10
-173.698517
 20
180.102481
 30
0.0
 11
-170.616688
 21
193.451351
 31
0.0
  0
LINE
  5
116
100
AcDbEntity
  8
2
370
    50
  6
DASHED
100
AcDbLine
 10
-167.934814
 20
205.147841
 30
0.0
 11
-169.843605
 21
205.58852
 31
0.0
  0
ARC
  5
117
100
AcDbEntity
  8
2
370
    50
100
AcDbCircle
 10
-167.18616
 20
88.284489
 30
0.0
 40
120.0
100
AcDbArc
 50
68.109565
 51
85.890435
  0
LINE
  5
118
100
AcDbEntity
  8
2
370
    50
100
AcDbLine
 10
-121.402228
 20
163.236318
 30
0.0
 11
-118.235692
 21
161.100463
 31
0.0
  0
LINE
  5
119
100
AcDbEntity
  8
2
370
    50
100
AcDbLine
 10
-116.391344
 20
192.424319
 30
0.0
 11
-103.137484
 21
183.484478
 31
0.0
  0
LINE
  5
11A
100
AcDbEntity
  8
2
370
    50
100
AcDbLine
 10
-121.402228
 20
163.236318
 30
0.0
 11
-120.396746
 21
167.591537
 31
0.0
  0
ARC
  5
11B
100
AcDbEntity
  8
2
370
    50
100
AcDbCircle
 10
-120.59162
 20
167.636527
 30
0.0
 40
0.2
100
AcDbArc
 50
347.0
 51
77.0
  0
ARC
  5
11C
100
AcDbEntity
  8
2
370
    50
100
AcDbCircle
 10
-126.174543
 20
190.353325
 30
0.0
 40
10.0
100
AcDbArc
 50
11.952425
 51
68.109565
  0
ARC
  5
11D
100
AcDbEntity
  8
2
370
    50
100
AcDbCircle
 10
-159.303125
 20
198.001661
 30
0.0
 40
10.0
100
AcDbArc
 50
85.890435
 51
136.85887
  0
LINE
  5
11E
100
AcDbEntity
  8
2
370
    50
100
AcDbLine
 10
-169.11075
 20
204.393023
 30
0.0
 11
-171.36026
 21
194.649322
 31
0.0
  0
LINE
  5
11F
100
AcDbEntity
  8
2
370
    50
100
AcDbLine
 10
-171.042926
 20
204.839101
 30
0.0
 11
-173.292436
 21
195.0954
 31
0.0
  0
ARC
  5
120
100
AcDbEntity
  8
2
370
    25
  6
DASHED
100
AcDbCircle
 10
-170.068556
 20
204.61415
 30
0.0
 40
1.0
100
AcDbArc
 50
77.0
 51
167.0
  0
ARC
  5
121
100
AcDbEntity
  8
2
370
    25
  6
DASHED
100
AcDbCircle
 10
-172.318066
 20
194.870449
 30
0.0
 40
1.0
100
AcDbArc
 50
167.0
 51
257.0
  0
LINE
  5
122
100
AcDbEntity
  8
2
370
    50
100
AcDbLine
 10
-173.518682
 20
179.547811
 30
0.0
 11
-173.810993
 21
179.615296
 31
0.0
  0
LINE
  5
123
100
AcDbEntity
  8
2
370
    50
100
AcDbLine
 10
-173.518682
 20
179.547811
 30
0.0
 11
-173.406206
 21
180.034996
 31
0.0
  0
LINE
  5
124
100
AcDbEntity
  8
2
370
    50
100
AcDbLine
 10
-175.948034
 20
170.358782
 30
0.0
 11
-173.810993
 21
179.615296
 31
0.0
  0
LINE
  5
125
100
AcDbEntity
  8
2
370
    50
100
AcDbLine
 10
-123.332037
 20
158.211422
 30
0.0
 11
-121.195009
 21
167.467939
 31
0.0
  0
ARC
  5
126
100
AcDbEntity
  8
2
370
    50
100
AcDbCircle
 10
-174.175219
 20
157.325955
 30
0.0
 40
2.0
100
AcDbArc
 50
179.0
 51
257.0
  0
ARC
  5
127
100
AcDbEntity
  8
2
370
    50
100
AcDbCircle
 10
-130.638649
 20
147.274746
 30
0.0
 40
2.0
100
AcDbArc
 50
257.0
 51
335.0
  0
LINE
  5
128
100
AcDbEntity
  8
2
370
    50
100
AcDbLine
 10
-175.948034
 20
170.358782
 30
0.0
 11
-176.174914
 21
157.360859
 31
0.0
  0
LINE
  5
129
100
AcDbEntity
  8
2
370
    50
100
AcDbLine
 10
-123.332037
 20
158.211422
 30
0.0
 11
-128.826033
 21
146.429509
 31
0.0
  0
LINE
  5
12A
100
AcDbEntity
  8
2
370
    50
100
AcDbLine
 10
-131.088551
 20
145.326005
 30
0.0
 11
-174.625121
 21
155.377215
 31
0.0
  0
LINE
  5
12B
100
AcDbEntity
  8
2
370
    50
100
AcDbLine
 10
-117.844775
 20
161.681372
 30
0.0
 11
-117.528712
 21
162.149954
 31
0.0
  0
LINE
  5
12C
100
AcDbEntity
  8
2
370
    50
100
AcDbLine
 10
-118.123724
 20
161.266464
 30
0.0
 11
-104.998286
 21
153.365737
 31
0.0
  0
LINE
  5
12D
100
AcDbEntity
  8
2
370
    50
100
AcDbLine
 10
-103.249236
 20
183.318798
 30
0.0
 11
-91.006934
 21
174.108769
 31
0.0
  0
LINE
  5
12E
100
AcDbEntity
  8
2
370
    50
100
AcDbLine
 10
-91.006934
 20
174.108769
 30
0.0
 11
-90.95895
 21
173.822725
 31
0.0
  0
LINE
  5
12F
100
AcDbEntity
  8
2
370
    50
100
AcDbLine
 10
-307.069455
 20
-119.074897
 30
0.0
 11
-294.069455
 21
-119.074897
 31
0.0
  0
LINE
  5
130
100
AcDbEntity
  8
2
370
    50
100
AcDbLine
 10
-305.150892
 20
-133.074897
 30
0.0
 11
-306.569455
 21
-133.074897
 31
0.0
  0
LINE
  5
131
100
AcDbEntity
  8
2
370
    50
100
AcDbLine
 10
-305.150892
 20
-135.574897
 30
0.0
 11
-306.569455
 21
-135.574897
 31
0.0
  0
ARC
  5
132
100
AcDbEntity
  8
2
370
    50
100
AcDbCircle
 10
-306.369455
 20
-135.874897
 30
0.0
 40
0.2
100
AcDbArc
 50
180.0
 51
270.0
  0
LINE
  5
133
100
AcDbEntity
  8
2
370
    50
100
AcDbLine
 10
-301.069455
 20
-135.574897
 30
0.0
 11
-304.443785
 21
-135.574897
 31
0.0
  0
LINE
  5
134
100
AcDbEntity
  8
2
370
    50
100
AcDbLine
 10
-301.069455
 20
-133.074897
 30
0.0
 11
-304.443785
 21
-133.074897
 31
0.0
  0
LINE
  5
135
100
AcDbEntity
  8
2
370
    50
100
AcDbLine
 10
-296.695125
 20
-135.574897
 30
0.0
 11
-300.069455
 21
-135.574897
 31
0.0
  0
LINE
  5
136
100
AcDbEntity
  8
2
370
    50
100
AcDbLine
 10
-296.695125
 20
-133.074897
 30
0.0
 11
-300.069455
 21
-133.074897
 31
0.0
  0
LINE
  5
137
100
AcDbEntity
  8
2
370
    50
100
AcDbLine
 10
-294.569455
 20
-135.574897
 30
0.0
 11
-295.988018
 21
-135.574897
 31
0.0
  0
LINE
  5
138
100
AcDbEntity
  8
2
370
    50
100
AcDbLine
 10
-294.569455
 20
-133.074897
 30
0.0
 11
-295.988018
 21
-133.074897
 31
0.0
  0
ARC
  5
139
100
AcDbEntity
  8
2
370
    50
100
AcDbCircle
 10
-294.769455
 20
-135.874897
 30
0.0
 40
0.2
100
AcDbArc
 50
270.0
 51
360.0
  0
LINE
  5
13A
100
AcDbEntity
  8
2
370
    50
100
AcDbLine
 10
-294.569455
 20
-133.074897
 30
0.0
 11
-294.569455
 21
-135.874897
 31
0.0
  0
LINE
  5
13B
100
AcDbEntity
  8
2
370
    50
100
AcDbLine
 10
-294.590325
 20
-133.074897
 30
0.0
 11
-294.590325
 21
-135.574897
 31
0.0
  0
ARC
  5
13C
100
AcDbEntity
  8
2
370
    50
100
AcDbCircle
 10
-296.569455
 20
-131.574897
 30
0.0
 40
2.5
100
AcDbArc
 50
323.130102
 51
360.0
  0
LINE
  5
13D
100
AcDbEntity
  8
2
370
    50
100
AcDbLine
 10
-295.988018
 20
-133.074897
 30
0.0
 11
-295.988018
 21
-135.574897
 31
0.0
  0
LINE
  5
13E
100
AcDbEntity
  8
2
370
    50
100
AcDbLine
 10
-296.695125
 20
-133.074897
 30
0.0
 11
-296.695125
 21
-135.574897
 31
0.0
  0
LINE
  5
13F
100
AcDbEntity
  8
2
370
    50
100
AcDbLine
 10
-300.069455
 20
-133.074897
 30
0.0
 11
-300.069455
 21
-135.574897
 31
0.0
  0
LINE
  5
140
100
AcDbEntity
  8
2
370
    50
100
AcDbLine
 10
-301.069455
 20
-133.074897
 30
0.0
 11
-301.069455
 21
-135.574897
 31
0.0
  0
LINE
  5
141
100
AcDbEntity
  8
2
370
    50
100
AcDbLine
 10
-305.150892
 20
-133.074897
 30
0.0
 11
-305.150892
 21
-135.574897
 31
0.0
  0
LINE
  5
142
100
AcDbEntity
  8
2
370
    50
100
AcDbLine
 10
-304.443785
 20
-133.074897
 30
0.0
 11
-304.443785
 21
-135.574897
 31
0.0
  0
LINE
  5
143
100
AcDbEntity
  8
2
370
    50
100
AcDbLine
 10
-306.569455
 20
-133.074897
 30
0.0
 11
-306.569455
 21
-135.874897
 31
0.0
  0
LINE
  5
144
100
AcDbEntity
  8
2
370
    50
100
AcDbLine
 10
-306.548585
 20
-133.074897
 30
0.0
 11
-306.548585
 21
-135.574897
 31
0.0
  0
ARC
  5
145
100
AcDbEntity
  8
2
370
    50
100
AcDbCircle
 10
-304.569455
 20
-131.574897
 30
0.0
 40
2.5
100
AcDbArc
 50
180.0
 51
216.869898
  0
LINE
  5
146
100
AcDbEntity
  8
2
370
    50
100
AcDbLine
 10
-307.069455
 20
-119.074897
 30
0.0
 11
-307.069455
 21
-131.574897
 31
0.0
  0
LINE
  5
147
100
AcDbEntity
  8
2
370
    25
100
AcDbLine
 10
-294.088714
 20
-119.074897
 30
0.0
 11
-294.088714
 21
-131.574897
 31
0.0
  0
LINE
  5
148
100
AcDbEntity
  8
2
370
    50
100
AcDbLine
 10
-294.069455
 20
-119.074897
 30
0.0
 11
-294.069455
 21
-131.574897
 31
0.0
  0
LINE
  5
149
100
AcDbEntity
  8
2
370
    50
100
AcDbLine
 10
-293.569455
 20
-136.074897
 30
0.0
 11
-307.569455
 21
-136.074897
 31
0.0
  0
LINE
  5
14A
100
AcDbEntity
  8
2
370
    50
100
AcDbLine
 10
-293.069455
 20
-136.574897
 30
0.0
 11
-293.569455
 21
-136.074897
 31
0.0
  0
LINE
  5
14B
100
AcDbEntity
  8
2
370
    50
100
AcDbLine
 10
-306.319455
 20
-119.074897
 30
0.0
 11
-306.319455
 21
-83.583038
 31
0.0
  0
LINE
  5
14C
100
AcDbEntity
  8
2
370
    50
100
AcDbLine
 10
-294.819455
 20
-119.074897
 30
0.0
 11
-294.819455
 21
-83.731098
 31
0.0
  0
LINE
  5
14D
100
AcDbEntity
  8
2
370
    25
100
AcDbLine
 10
-294.069595
 20
-149.874275
 30
0.0
 11
-294.069595
 21
-146.874275
 31
0.0
  0
LINE
  5
14E
100
AcDbEntity
  8
2
370
    50
100
AcDbLine
 10
-291.669455
 20
-141.475532
 30
0.0
 11
-291.669455
 21
-143.875532
 31
0.0
  0
LINE
  5
14F
100
AcDbEntity
  8
2
370
    50
100
AcDbLine
 10
-291.869455
 20
-141.275532
 30
0.0
 11
-291.669455
 21
-141.475532
 31
0.0
  0
LINE
  5
150
100
AcDbEntity
  8
2
370
    50
100
AcDbLine
 10
-291.869455
 20
-144.075532
 30
0.0
 11
-291.669455
 21
-143.875532
 31
0.0
  0
LINE
  5
151
100
AcDbEntity
  8
2
370
    50
100
AcDbLine
 10
-293.069455
 20
-141.275532
 30
0.0
 11
-293.069455
 21
-140.874275
 31
0.0
  0
LINE
  5
152
100
AcDbEntity
  8
2
370
    50
100
AcDbLine
 10
-293.069455
 20
-136.574897
 30
0.0
 11
-293.069455
 21
-137.874275
 31
0.0
  0
LINE
  5
153
100
AcDbEntity
  8
2
370
    50
100
AcDbLine
 10
-309.469455
 20
-141.474897
 30
0.0
 11
-309.469455
 21
-143.874897
 31
0.0
  0
LINE
  5
154
100
AcDbEntity
  8
2
370
    50
100
AcDbLine
 10
-291.669455
 20
-141.474897
 30
0.0
 11
-291.669455
 21
-143.874897
 31
0.0
  0
LINE
  5
155
100
AcDbEntity
  8
2
370
    50
100
AcDbLine
 10
-291.869455
 20
-141.274897
 30
0.0
 11
-291.669455
 21
-141.474897
 31
0.0
  0
LINE
  5
156
100
AcDbEntity
  8
2
370
    50
100
AcDbLine
 10
-309.269455
 20
-141.274897
 30
0.0
 11
-309.469455
 21
-141.474897
 31
0.0
  0
LINE
  5
157
100
AcDbEntity
  8
2
370
    50
100
AcDbLine
 10
-309.269455
 20
-144.074897
 30
0.0
 11
-309.469455
 21
-143.874897
 31
0.0
  0
LINE
  5
158
100
AcDbEntity
  8
2
370
    50
100
AcDbLine
 10
-309.569455
 20
-149.874897
 30
0.0
 11
-291.569455
 21
-149.874897
 31
0.0
  0
LINE
  5
159
100
AcDbEntity
  8
2
370
    50
100
AcDbLine
 10
-308.869455
 20
-137.874897
 30
0.0
 11
-292.269455
 21
-137.874897
 31
0.0
  0
LINE
  5
15A
100
AcDbEntity
  8
2
370
    50
100
AcDbLine
 10
-296.569455
 20
-138.874897
 30
0.0
 11
-296.569455
 21
-148.874897
 31
0.0
  0
LINE
  5
15B
100
AcDbEntity
  8
2
370
    50
100
AcDbLine
 10
-304.569455
 20
-138.874897
 30
0.0
 11
-304.569455
 21
-148.874897
 31
0.0
  0
LINE
  5
15C
100
AcDbEntity
  8
2
370
    50
100
AcDbLine
 10
-286.069455
 20
-136.874897
 30
0.0
 11
-286.069455
 21
-148.874897
 31
0.0
  0
LINE
  5
15D
100
AcDbEntity
  8
2
370
    50
100
AcDbLine
 10
-315.069455
 20
-136.874897
 30
0.0
 11
-315.069455
 21
-148.874897
 31
0.0
  0
ARC
  5
15E
100
AcDbEntity
  8
2
370
    50
100
AcDbCircle
 10
-314.069455
 20
-136.874897
 30
0.0
 40
1.0
100
AcDbArc
 50
90.0
 51
180.0
  0
ARC
  5
15F
100
AcDbEntity
  8
2
370
    50
100
AcDbCircle
 10
-287.069455
 20
-136.874897
 30
0.0
 40
1.0
100
AcDbArc
 50
0.0
 51
90.0
  0
ARC
  5
160
100
AcDbEntity
  8
2
370
    50
100
AcDbCircle
 10
-287.069455
 20
-148.874897
 30
0.0
 40
1.0
100
AcDbArc
 50
270.0
 51
360.0
  0
ARC
  5
161
100
AcDbEntity
  8
2
370
    50
100
AcDbCircle
 10
-314.069455
 20
-148.874897
 30
0.0
 40
1.0
100
AcDbArc
 50
180.0
 51
270.0
  0
LINE
  5
162
100
AcDbEntity
  8
2
370
    50
100
AcDbLine
 10
-287.069455
 20
-135.874897
 30
0.0
 11
-294.569455
 21
-135.874897
 31
0.0
  0
LINE
  5
163
100
AcDbEntity
  8
2
370
    50
100
AcDbLine
 10
-306.569455
 20
-135.874897
 30
0.0
 11
-314.069455
 21
-135.874897
 31
0.0
  0
LINE
  5
164
100
AcDbEntity
  8
2
370
    50
100
AcDbLine
 10
-287.069455
 20
-149.874897
 30
0.0
 11
-293.069455
 21
-149.874897
 31
0.0
  0
LINE
  5
165
100
AcDbEntity
  8
2
370
    50
100
AcDbLine
 10
-308.869455
 20
-149.874897
 30
0.0
 11
-314.069455
 21
-149.874897
 31
0.0
  0
LINE
  5
166
100
AcDbEntity
  8
2
370
    50
100
AcDbLine
 10
-308.869455
 20
-140.874897
 30
0.0
 11
-304.569455
 21
-140.874897
 31
0.0
  0
LINE
  5
167
100
AcDbEntity
  8
2
370
    50
100
AcDbLine
 10
-296.569455
 20
-140.874897
 30
0.0
 11
-292.269455
 21
-140.874897
 31
0.0
  0
LINE
  5
168
100
AcDbEntity
  8
2
370
    50
100
AcDbLine
 10
-309.269455
 20
-141.274897
 30
0.0
 11
-304.569455
 21
-141.274897
 31
0.0
  0
LINE
  5
169
100
AcDbEntity
  8
2
370
    50
100
AcDbLine
 10
-296.569455
 20
-141.274897
 30
0.0
 11
-291.869455
 21
-141.274897
 31
0.0
  0
LINE
  5
16A
100
AcDbEntity
  8
2
370
    50
100
AcDbLine
 10
-309.469455
 20
-141.474897
 30
0.0
 11
-304.569455
 21
-141.474897
 31
0.0
  0
LINE
  5
16B
100
AcDbEntity
  8
2
370
    50
100
AcDbLine
 10
-296.569455
 20
-141.474897
 30
0.0
 11
-291.669455
 21
-141.474897
 31
0.0
  0
LINE
  5
16C
100
AcDbEntity
  8
2
370
    50
100
AcDbLine
 10
-309.469455
 20
-143.874897
 30
0.0
 11
-304.569455
 21
-143.874897
 31
0.0
  0
LINE
  5
16D
100
AcDbEntity
  8
2
370
    50
100
AcDbLine
 10
-296.569455
 20
-143.874897
 30
0.0
 11
-291.669455
 21
-143.874897
 31
0.0
  0
LINE
  5
16E
100
AcDbEntity
  8
2
370
    50
100
AcDbLine
 10
-308.869455
 20
-146.874897
 30
0.0
 11
-304.569455
 21
-146.874897
 31
0.0
  0
LINE
  5
16F
100
AcDbEntity
  8
2
370
    50
100
AcDbLine
 10
-296.569455
 20
-146.874897
 30
0.0
 11
-292.269455
 21
-146.874897
 31
0.0
  0
ARC
  5
170
100
AcDbEntity
  8
2
370
    50
100
AcDbCircle
 10
-303.569455
 20
-138.874897
 30
0.0
 40
1.0
100
AcDbArc
 50
90.0
 51
180.0
  0
ARC
  5
171
100
AcDbEntity
  8
2
370
    50
100
AcDbCircle
 10
-297.569455
 20
-138.874897
 30
0.0
 40
1.0
100
AcDbArc
 50
0.0
 51
90.0
  0
ARC
  5
172
100
AcDbEntity
  8
2
370
    50
100
AcDbCircle
 10
-297.569455
 20
-148.874897
 30
0.0
 40
1.0
100
AcDbArc
 50
270.0
 51
0.0
  0
ARC
  5
173
100
AcDbEntity
  8
2
370
    50
100
AcDbCircle
 10
-303.569455
 20
-148.874897
 30
0.0
 40
1.0
100
AcDbArc
 50
180.0
 51
270.0
  0
LINE
  5
174
100
AcDbEntity
  8
2
370
    50
100
AcDbLine
 10
-292.269455
 20
-137.874897
 30
0.0
 11
-292.269455
 21
-140.874897
 31
0.0
  0
LINE
  5
175
100
AcDbEntity
  8
2
370
    50
100
AcDbLine
 10
-308.869455
 20
-137.874897
 30
0.0
 11
-308.869455
 21
-140.874897
 31
0.0
  0
LINE
  5
176
100
AcDbEntity
  8
2
370
    50
100
AcDbLine
 10
-308.869455
 20
-146.874897
 30
0.0
 11
-308.869455
 21
-149.874897
 31
0.0
  0
LINE
  5
177
100
AcDbEntity
  8
2
370
    50
100
AcDbLine
 10
-292.269455
 20
-146.874897
 30
0.0
 11
-292.269455
 21
-149.874897
 31
0.0
  0
LINE
  5
178
100
AcDbEntity
  8
2
370
    50
100
AcDbLine
 10
-293.069455
 20
-141.274897
 30
0.0
 11
-293.069455
 21
-140.874897
 31
0.0
  0
LINE
  5
179
100
AcDbEntity
  8
2
370
    50
100
AcDbLine
 10
-308.069455
 20
-141.274897
 30
0.0
 11
-308.069455
 21
-140.874897
 31
0.0
  0
LINE
  5
17A
100
AcDbEntity
  8
2
370
    25
100
AcDbLine
 10
-295.569455
 20
-149.57548
 30
0.0
 11
-295.569455
 21
-147.270258
 31
0.0
  0
LINE
  5
17B
100
AcDbEntity
  8
2
370
    25
100
AcDbLine
 10
-295.569455
 20
-140.61371
 30
0.0
 11
-295.569455
 21
-138.181505
 31
0.0
  0
LINE
  5
17C
100
AcDbEntity
  8
2
370
    25
100
AcDbLine
 10
-305.569455
 20
-149.57548
 30
0.0
 11
-305.569455
 21
-147.270258
 31
0.0
  0
LINE
  5
17D
100
AcDbEntity
  8
2
370
    25
100
AcDbLine
 10
-305.569455
 20
-140.571032
 30
0.0
 11
-305.569455
 21
-138.101984
 31
0.0
  0
LINE
  5
17E
100
AcDbEntity
  8
2
370
    50
100
AcDbLine
 10
-291.769455
 20
-148.874897
 30
0.0
 11
-291.769455
 21
-146.274897
 31
0.0
  0
LINE
  5
17F
100
AcDbEntity
  8
2
370
    50
100
AcDbLine
 10
-291.769455
 20
-141.374897
 30
0.0
 11
-291.769455
 21
-136.874897
 31
0.0
  0
LINE
  5
180
100
AcDbEntity
  8
2
370
    50
100
AcDbLine
 10
-309.369455
 20
-148.874897
 30
0.0
 11
-309.369455
 21
-146.274897
 31
0.0
  0
LINE
  5
181
100
AcDbEntity
  8
2
370
    50
100
AcDbLine
 10
-309.369455
 20
-141.374897
 30
0.0
 11
-309.369455
 21
-136.874897
 31
0.0
  0
ARC
  5
182
100
AcDbEntity
  8
2
370
    50
100
AcDbCircle
 10
-292.769455
 20
-136.874897
 30
0.0
 40
1.0
100
AcDbArc
 50
0.0
 51
90.0
  0
ARC
  5
183
100
AcDbEntity
  8
2
370
    50
100
AcDbCircle
 10
-308.369455
 20
-136.874897
 30
0.0
 40
1.0
100
AcDbArc
 50
90.0
 51
180.0
  0
ARC
  5
184
100
AcDbEntity
  8
2
370
    50
100
AcDbCircle
 10
-290.769455
 20
-148.874897
 30
0.0
 40
1.0
100
AcDbArc
 50
180.0
 51
270.0
  0
ARC
  5
185
100
AcDbEntity
  8
2
370
    50
100
AcDbCircle
 10
-310.369455
 20
-148.874897
 30
0.0
 40
1.0
100
AcDbArc
 50
270.0
 51
360.0
  0
LINE
  5
186
100
AcDbEntity
  8
2
370
    50
100
AcDbLine
 10
-308.069455
 20
-136.574897
 30
0.0
 11
-308.069455
 21
-137.874275
 31
0.0
  0
ARC
  5
187
100
AcDbEntity
  8
2
370
    50
100
AcDbCircle
 10
-308.369455
 20
-136.874897
 30
0.0
 40
1.0
100
AcDbArc
 50
90.0
 51
180.0
  0
LINE
  5
188
100
AcDbEntity
  8
2
370
    50
100
AcDbLine
 10
-308.069455
 20
-136.574897
 30
0.0
 11
-307.569455
 21
-136.074897
 31
0.0
  0
LINE
  5
189
100
AcDbEntity
  8
2
370
    25
  6
CENTER
100
AcDbLine
 10
-300.569455
 20
-74.072157
 30
0.0
 11
-300.569455
 21
-194.774897
 31
0.0
  0
LINE
  5
18A
100
AcDbEntity
  8
2
370
    50
100
AcDbLine
 10
-309.569455
 20
-144.274897
 30
0.0
 11
-309.569455
 21
-146.074897
 31
0.0
  0
LINE
  5
18B
100
AcDbEntity
  8
2
370
    50
100
AcDbLine
 10
-291.569455
 20
-144.274897
 30
0.0
 11
-291.569455
 21
-146.074897
 31
0.0
  0
LINE
  5
18C
100
AcDbEntity
  8
2
370
    50
100
AcDbLine
 10
-310.569455
 20
-151.274897
 30
0.0
 11
-310.569455
 21
-178.774897
 31
0.0
  0
LINE
  5
18D
100
AcDbEntity
  8
2
370
    50
100
AcDbLine
 10
-290.569455
 20
-151.274897
 30
0.0
 11
-290.569455
 21
-178.774897
 31
0.0
  0
LINE
  5
18E
100
AcDbEntity
  8
2
370
    50
100
AcDbLine
 10
-291.569455
 20
-150.274897
 30
0.0
 11
-290.569455
 21
-151.274897
 31
0.0
  0
LINE
  5
18F
100
AcDbEntity
  8
2
370
    50
100
AcDbLine
 10
-309.569455
 20
-150.274897
 30
0.0
 11
-310.569455
 21
-151.274897
 31
0.0
  0
LINE
  5
190
100
AcDbEntity
  8
2
370
    50
100
AcDbLine
 10
-309.569455
 20
-150.274897
 30
0.0
 11
-291.569455
 21
-150.274897
 31
0.0
  0
LINE
  5
191
100
AcDbEntity
  8
2
370
    50
100
AcDbLine
 10
-312.569455
 20
-178.774897
 30
0.0
 11
-288.569455
 21
-178.774897
 31
0.0
  0
LINE
  5
192
100
AcDbEntity
  8
2
370
    50
100
AcDbLine
 10
-313.569455
 20
-179.774897
 30
0.0
 11
-313.569455
 21
-188.774897
 31
0.0
  0
LINE
  5
193
100
AcDbEntity
  8
2
370
    50
100
AcDbLine
 10
-312.569455
 20
-178.774897
 30
0.0
 11
-313.569455
 21
-179.774897
 31
0.0
  0
LINE
  5
194
100
AcDbEntity
  8
2
370
    50
100
AcDbLine
 10
-312.569455
 20
-189.774897
 30
0.0
 11
-313.569455
 21
-188.774897
 31
0.0
  0
LINE
  5
195
100
AcDbEntity
  8
2
370
    50
100
AcDbLine
 10
-309.369455
 20
-144.074897
 30
0.0
 11
-309.569455
 21
-144.274897
 31
0.0
  0
LINE
  5
196
100
AcDbEntity
  8
2
370
    50
100
AcDbLine
 10
-309.569455
 20
-146.074897
 30
0.0
 11
-309.369455
 21
-146.274897
 31
0.0
  0
LINE
  5
197
100
AcDbEntity
  8
2
370
    50
100
AcDbLine
 10
-291.769455
 20
-144.074897
 30
0.0
 11
-291.569455
 21
-144.274897
 31
0.0
  0
LINE
  5
198
100
AcDbEntity
  8
2
370
    50
100
AcDbLine
 10
-291.569455
 20
-146.074897
 30
0.0
 11
-291.769455
 21
-146.274897
 31
0.0
  0
LINE
  5
199
100
AcDbEntity
  8
2
370
    50
100
AcDbLine
 10
-287.569455
 20
-179.774897
 30
0.0
 11
-287.569455
 21
-188.774897
 31
0.0
  0
LINE
  5
19A
100
AcDbEntity
  8
2
370
    50
100
AcDbLine
 10
-288.569455
 20
-178.774897
 30
0.0
 11
-287.569455
 21
-179.774897
 31
0.0
  0
LINE
  5
19B
100
AcDbEntity
  8
2
370
    50
100
AcDbLine
 10
-288.569455
 20
-189.774897
 30
0.0
 11
-287.569455
 21
-188.774897
 31
0.0
  0
LINE
  5
19C
100
AcDbEntity
  8
2
370
    50
100
AcDbLine
 10
-312.569455
 20
-189.774897
 30
0.0
 11
-288.569455
 21
-189.774897
 31
0.0
  0
LINE
  5
19D
100
AcDbEntity
  8
2
370
    50
100
AcDbLine
 10
-290.569455
 20
-151.274897
 30
0.0
 11
-310.569455
 21
-151.274897
 31
0.0
  0
LINE
  5
19E
100
AcDbEntity
  8
2
370
    50
100
AcDbLine
 10
-293.641065
 20
-188.774897
 30
0.0
 11
-293.641065
 21
-179.774897
 31
0.0
  0
LINE
  5
19F
100
AcDbEntity
  8
2
370
    50
100
AcDbLine
 10
-307.497845
 20
-188.774897
 30
0.0
 11
-307.497845
 21
-179.774897
 31
0.0
  0
ARC
  5
1A0
100
AcDbEntity
  8
2
370
    50
100
AcDbCircle
 10
-300.569455
 20
-203.276193
 30
0.0
 40
24.501296
100
AcDbArc
 50
73.574016
 51
106.425984
  0
ARC
  5
1A1
100
AcDbEntity
  8
2
370
    50
100
AcDbCircle
 10
-300.569455
 20
-165.273601
 30
0.0
 40
24.501296
100
AcDbArc
 50
253.574016
 51
286.425984
  0
ARC
  5
1A2
100
AcDbEntity
  8
2
370
    50
100
AcDbCircle
 10
-290.60526
 20
-184.666841
 30
0.0
 40
5.108056
100
AcDbArc
 50
233.536034
 51
306.463966
  0
ARC
  5
1A3
100
AcDbEntity
  8
2
370
    50
100
AcDbCircle
 10
-310.53365
 20
-184.666841
 30
0.0
 40
5.108056
100
AcDbArc
 50
233.536034
 51
306.463966
  0
ARC
  5
1A4
100
AcDbEntity
  8
2
370
    50
100
AcDbCircle
 10
-310.53365
 20
-183.882952
 30
0.0
 40
5.108056
100
AcDbArc
 50
53.536034
 51
126.463966
  0
ARC
  5
1A5
100
AcDbEntity
  8
2
370
    50
100
AcDbCircle
 10
-290.60526
 20
-183.882952
 30
0.0
 40
5.108056
100
AcDbArc
 50
53.536034
 51
126.463966
  0
LINE
  5
1A6
100
AcDbEntity
  8
2
370
    50
100
AcDbLine
 10
-293.069455
 20
-150.274897
 30
0.0
 11
-293.069455
 21
-149.874897
 31
0.0
  0
LINE
  5
1A7
100
AcDbEntity
  8
2
370
    50
100
AcDbLine
 10
-293.069455
 20
-146.874897
 30
0.0
 11
-293.069455
 21
-146.274897
 31
0.0
  0
LINE
  5
1A8
100
AcDbEntity
  8
2
370
    50
100
AcDbLine
 10
-308.069455
 20
-150.274897
 30
0.0
 11
-308.069455
 21
-149.874897
 31
0.0
  0
LINE
  5
1A9
100
AcDbEntity
  8
2
370
    50
100
AcDbLine
 10
-308.069455
 20
-146.874897
 30
0.0
 11
-308.069455
 21
-146.274897
 31
0.0
  0
LINE
  5
1AA
100
AcDbEntity
  8
2
370
    50
100
AcDbLine
 10
-309.369455
 20
-146.274897
 30
0.0
 11
-304.569455
 21
-146.274897
 31
0.0
  0
LINE
  5
1AB
100
AcDbEntity
  8
2
370
    50
100
AcDbLine
 10
-296.569455
 20
-146.274897
 30
0.0
 11
-291.769455
 21
-146.274897
 31
0.0
  0
LINE
  5
1AC
100
AcDbEntity
  8
2
370
    50
100
AcDbLine
 10
-309.569455
 20
-146.074897
 30
0.0
 11
-304.569455
 21
-146.074897
 31
0.0
  0
LINE
  5
1AD
100
AcDbEntity
  8
2
370
    50
100
AcDbLine
 10
-296.569455
 20
-146.074897
 30
0.0
 11
-291.569455
 21
-146.074897
 31
0.0
  0
LINE
  5
1AE
100
AcDbEntity
  8
2
370
    50
100
AcDbLine
 10
-309.569455
 20
-144.274897
 30
0.0
 11
-304.569455
 21
-144.274897
 31
0.0
  0
LINE
  5
1AF
100
AcDbEntity
  8
2
370
    50
100
AcDbLine
 10
-296.569455
 20
-144.274897
 30
0.0
 11
-291.569455
 21
-144.274897
 31
0.0
  0
LINE
  5
1B0
100
AcDbEntity
  8
2
370
    50
100
AcDbLine
 10
-309.369455
 20
-144.074897
 30
0.0
 11
-304.569455
 21
-144.074897
 31
0.0
  0
LINE
  5
1B1
100
AcDbEntity
  8
2
370
    50
100
AcDbLine
 10
-296.569455
 20
-144.074897
 30
0.0
 11
-291.769455
 21
-144.074897
 31
0.0
  0
LINE
  5
1B2
100
AcDbEntity
  8
2
370
    25
100
AcDbLine
 10
-307.069315
 20
-149.874275
 30
0.0
 11
-307.069315
 21
-146.874275
 31
0.0
  0
LINE
  5
1B3
100
AcDbEntity
  8
2
370
    25
100
AcDbLine
 10
-294.069595
 20
-140.874897
 30
0.0
 11
-294.069595
 21
-137.874897
 31
0.0
  0
LINE
  5
1B4
100
AcDbEntity
  8
2
370
    25
100
AcDbLine
 10
-307.069315
 20
-140.874897
 30
0.0
 11
-307.069315
 21
-137.874897
 31
0.0
  0
LINE
  5
1B5
100
AcDbEntity
  8
2
370
    25
100
AcDbLine
 10
-296.503591
 20
-110.391331
 30
0.0
 11
-304.635319
 21
-102.259603
 31
0.0
  0
LINE
  5
1B6
100
AcDbEntity
  8
2
370
    25
100
AcDbLine
 10
-296.503591
 20
-102.259603
 30
0.0
 11
-304.635319
 21
-110.391331
 31
0.0
  0
LINE
  5
1B7
100
AcDbEntity
  8
2
370
    25
100
AcDbLine
 10
-297.272657
 20
-111.036479
 30
0.0
 11
-305.280466
 21
-103.02867
 31
0.0
  0
LINE
  5
1B8
100
AcDbEntity
  8
2
370
    25
100
AcDbLine
 10
-298.171681
 20
-111.551669
 30
0.0
 11
-305.795656
 21
-103.927693
 31
0.0
  0
LINE
  5
1B9
100
AcDbEntity
  8
2
370
    25
100
AcDbLine
 10
-299.222166
 20
-111.915397
 30
0.0
 11
-306.159384
 21
-104.978178
 31
0.0
  0
LINE
  5
1BA
100
AcDbEntity
  8
2
370
    25
100
AcDbLine
 10
-300.477052
 20
-112.074725
 30
0.0
 11
-306.318712
 21
-106.233064
 31
0.0
  0
LINE
  5
1BB
100
AcDbEntity
  8
2
370
    25
100
AcDbLine
 10
-302.097191
 20
-111.868799
 30
0.0
 11
-306.112786
 21
-107.853204
 31
0.0
  0
LINE
  5
1BC
100
AcDbEntity
  8
2
370
    25
100
AcDbLine
 10
-295.858444
 20
-109.622265
 30
0.0
 11
-303.866252
 21
-101.614456
 31
0.0
  0
LINE
  5
1BD
100
AcDbEntity
  8
2
370
    25
100
AcDbLine
 10
-295.343254
 20
-108.723241
 30
0.0
 11
-302.967229
 21
-101.099266
 31
0.0
  0
LINE
  5
1BE
100
AcDbEntity
  8
2
370
    25
100
AcDbLine
 10
-294.979525
 20
-107.672756
 30
0.0
 11
-301.916744
 21
-100.735538
 31
0.0
  0
LINE
  5
1BF
100
AcDbEntity
  8
2
370
    25
100
AcDbLine
 10
-294.820197
 20
-106.417871
 30
0.0
 11
-300.661858
 21
-100.57621
 31
0.0
  0
LINE
  5
1C0
100
AcDbEntity
  8
2
370
    25
100
AcDbLine
 10
-295.026124
 20
-104.797731
 30
0.0
 11
-299.041718
 21
-100.782136
 31
0.0
  0
LINE
  5
1C1
100
AcDbEntity
  8
2
370
    25
100
AcDbLine
 10
-297.272657
 20
-101.614456
 30
0.0
 11
-305.280466
 21
-109.622265
 31
0.0
  0
LINE
  5
1C2
100
AcDbEntity
  8
2
370
    25
100
AcDbLine
 10
-298.171681
 20
-101.099266
 30
0.0
 11
-305.795656
 21
-108.723241
 31
0.0
  0
LINE
  5
1C3
100
AcDbEntity
  8
2
370
    25
100
AcDbLine
 10
-299.222166
 20
-100.735538
 30
0.0
 11
-306.159384
 21
-107.672756
 31
0.0
  0
LINE
  5
1C4
100
AcDbEntity
  8
2
370
    25
100
AcDbLine
 10
-300.477052
 20
-100.57621
 30
0.0
 11
-306.318712
 21
-106.417871
 31
0.0
  0
LINE
  5
1C5
100
AcDbEntity
  8
2
370
    25
100
AcDbLine
 10
-302.097191
 20
-100.782136
 30
0.0
 11
-306.112786
 21
-104.797731
 31
0.0
  0
LINE
  5
1C6
100
AcDbEntity
  8
2
370
    25
100
AcDbLine
 10
-295.858444
 20
-103.02867
 30
0.0
 11
-303.866252
 21
-111.036479
 31
0.0
  0
LINE
  5
1C7
100
AcDbEntity
  8
2
370
    25
100
AcDbLine
 10
-295.343254
 20
-103.927693
 30
0.0
 11
-302.967229
 21
-111.551669
 31
0.0
  0
LINE
  5
1C8
100
AcDbEntity
  8
2
370
    25
100
AcDbLine
 10
-294.979525
 20
-104.978178
 30
0.0
 11
-301.916744
 21
-111.915397
 31
0.0
  0
LINE
  5
1C9
100
AcDbEntity
  8
2
370
    25
100
AcDbLine
 10
-294.820197
 20
-106.233064
 30
0.0
 11
-300.661858
 21
-112.074725
 31
0.0
  0
LINE
  5
1CA
100
AcDbEntity
  8
2
370
    25
100
AcDbLine
 10
-295.026124
 20
-107.853204
 30
0.0
 11
-299.041718
 21
-111.868799
 31
0.0
  0
LINE
  5
1CB
100
AcDbEntity
  8
2
370
    25
100
AcDbLine
 10
-305.505584
 20
-119.074897
 30
0.0
 11
-305.505584
 21
-131.574897
 31
0.0
  0
LINE
  5
1CC
100
AcDbEntity
  8
2
370
    25
100
AcDbLine
 10
-304.798477
 20
-119.074897
 30
0.0
 11
-304.798477
 21
-131.574897
 31
0.0
  0
LINE
  5
1CD
100
AcDbEntity
  8
2
370
    25
100
AcDbLine
 10
-301.069455
 20
-119.074897
 30
0.0
 11
-301.069455
 21
-131.574897
 31
0.0
  0
LINE
  5
1CE
100
AcDbEntity
  8
2
370
    25
100
AcDbLine
 10
-300.069455
 20
-119.074897
 30
0.0
 11
-300.069455
 21
-131.574897
 31
0.0
  0
LINE
  5
1CF
100
AcDbEntity
  8
2
370
    25
100
AcDbLine
 10
-296.340433
 20
-119.074897
 30
0.0
 11
-296.340433
 21
-131.574897
 31
0.0
  0
LINE
  5
1D0
100
AcDbEntity
  8
2
370
    25
100
AcDbLine
 10
-295.633326
 20
-119.074897
 30
0.0
 11
-295.633326
 21
-131.574897
 31
0.0
  0
LINE
  5
1D1
100
AcDbEntity
  8
2
370
    25
  6
CENTER
100
AcDbLine
 10
-300.569455
 20
-112.946318
 30
0.0
 11
-300.569455
 21
-122.086425
 31
0.0
  0
LINE
  5
1D2
100
AcDbEntity
  8
2
370
    50
100
AcDbLine
 10
-211.4813
 20
-119.074897
 30
0.0
 11
-198.4813
 21
-119.074897
 31
0.0
  0
LINE
  5
1D3
100
AcDbEntity
  8
2
370
    50
100
AcDbLine
 10
-209.562737
 20
-133.074897
 30
0.0
 11
-210.9813
 21
-133.074897
 31
0.0
  0
LINE
  5
1D4
100
AcDbEntity
  8
2
370
    50
100
AcDbLine
 10
-209.562737
 20
-135.574897
 30
0.0
 11
-210.9813
 21
-135.574897
 31
0.0
  0
ARC
  5
1D5
100
AcDbEntity
  8
2
370
    50
100
AcDbCircle
 10
-210.7813
 20
-135.874897
 30
0.0
 40
0.2
100
AcDbArc
 50
180.0
 51
270.0
  0
LINE
  5
1D6
100
AcDbEntity
  8
2
370
    50
100
AcDbLine
 10
-205.4813
 20
-135.574897
 30
0.0
 11
-208.85563
 21
-135.574897
 31
0.0
  0
LINE
  5
1D7
100
AcDbEntity
  8
2
370
    50
100
AcDbLine
 10
-205.4813
 20
-133.074897
 30
0.0
 11
-208.85563
 21
-133.074897
 31
0.0
  0
LINE
  5
1D8
100
AcDbEntity
  8
2
370
    50
100
AcDbLine
 10
-201.106969
 20
-135.574897
 30
0.0
 11
-204.4813
 21
-135.574897
 31
0.0
  0
LINE
  5
1D9
100
AcDbEntity
  8
2
370
    50
100
AcDbLine
 10
-201.106969
 20
-133.074897
 30
0.0
 11
-204.4813
 21
-133.074897
 31
0.0
  0
LINE
  5
1DA
100
AcDbEntity
  8
2
370
    50
100
AcDbLine
 10
-198.9813
 20
-135.574897
 30
0.0
 11
-200.399863
 21
-135.574897
 31
0.0
  0
LINE
  5
1DB
100
AcDbEntity
  8
2
370
    50
100
AcDbLine
 10
-198.9813
 20
-133.074897
 30
0.0
 11
-200.399863
 21
-133.074897
 31
0.0
  0
ARC
  5
1DC
100
AcDbEntity
  8
2
370
    50
100
AcDbCircle
 10
-199.1813
 20
-135.874897
 30
0.0
 40
0.2
100
AcDbArc
 50
270.0
 51
360.0
  0
LINE
  5
1DD
100
AcDbEntity
  8
2
370
    50
100
AcDbLine
 10
-198.9813
 20
-133.074897
 30
0.0
 11
-198.9813
 21
-135.874897
 31
0.0
  0
LINE
  5
1DE
100
AcDbEntity
  8
2
370
    50
100
AcDbLine
 10
-199.002169
 20
-133.074897
 30
0.0
 11
-199.002169
 21
-135.574897
 31
0.0
  0
ARC
  5
1DF
100
AcDbEntity
  8
2
370
    50
100
AcDbCircle
 10
-200.9813
 20
-131.574897
 30
0.0
 40
2.5
100
AcDbArc
 50
323.130102
 51
360.0
  0
LINE
  5
1E0
100
AcDbEntity
  8
2
370
    50
100
AcDbLine
 10
-200.399863
 20
-133.074897
 30
0.0
 11
-200.399863
 21
-135.574897
 31
0.0
  0
LINE
  5
1E1
100
AcDbEntity
  8
2
370
    50
100
AcDbLine
 10
-201.106969
 20
-133.074897
 30
0.0
 11
-201.106969
 21
-135.574897
 31
0.0
  0
LINE
  5
1E2
100
AcDbEntity
  8
2
370
    50
100
AcDbLine
 10
-204.4813
 20
-133.074897
 30
0.0
 11
-204.4813
 21
-135.574897
 31
0.0
  0
LINE
  5
1E3
100
AcDbEntity
  8
2
370
    50
100
AcDbLine
 10
-205.4813
 20
-133.074897
 30
0.0
 11
-205.4813
 21
-135.574897
 31
0.0
  0
LINE
  5
1E4
100
AcDbEntity
  8
2
370
    50
100
AcDbLine
 10
-209.562737
 20
-133.074897
 30
0.0
 11
-209.562737
 21
-135.574897
 31
0.0
  0
LINE
  5
1E5
100
AcDbEntity
  8
2
370
    50
100
AcDbLine
 10
-208.85563
 20
-133.074897
 30
0.0
 11
-208.85563
 21
-135.574897
 31
0.0
  0
LINE
  5
1E6
100
AcDbEntity
  8
2
370
    50
100
AcDbLine
 10
-210.9813
 20
-133.074897
 30
0.0
 11
-210.9813
 21
-135.874897
 31
0.0
  0
LINE
  5
1E7
100
AcDbEntity
  8
2
370
    50
100
AcDbLine
 10
-210.96043
 20
-133.074897
 30
0.0
 11
-210.96043
 21
-135.574897
 31
0.0
  0
ARC
  5
1E8
100
AcDbEntity
  8
2
370
    50
100
AcDbCircle
 10
-208.9813
 20
-131.574897
 30
0.0
 40
2.5
100
AcDbArc
 50
180.0
 51
216.869898
  0
LINE
  5
1E9
100
AcDbEntity
  8
2
370
    50
100
AcDbLine
 10
-211.4813
 20
-119.074897
 30
0.0
 11
-211.4813
 21
-131.574897
 31
0.0
  0
LINE
  5
1EA
100
AcDbEntity
  8
2
370
    25
100
AcDbLine
 10
-198.500559
 20
-119.074897
 30
0.0
 11
-198.500559
 21
-131.574897
 31
0.0
  0
LINE
  5
1EB
100
AcDbEntity
  8
2
370
    50
100
AcDbLine
 10
-198.4813
 20
-119.074897
 30
0.0
 11
-198.4813
 21
-131.574897
 31
0.0
  0
LINE
  5
1EC
100
AcDbEntity
  8
2
370
    50
100
AcDbLine
 10
-197.9813
 20
-136.074897
 30
0.0
 11
-211.9813
 21
-136.074897
 31
0.0
  0
LINE
  5
1ED
100
AcDbEntity
  8
2
370
    50
100
AcDbLine
 10
-197.4813
 20
-136.574897
 30
0.0
 11
-197.9813
 21
-136.074897
 31
0.0
  0
LINE
  5
1EE
100
AcDbEntity
  8
2
370
    50
100
AcDbLine
 10
-210.7313
 20
-119.074897
 30
0.0
 11
-210.7313
 21
-83.583038
 31
0.0
  0
LINE
  5
1EF
100
AcDbEntity
  8
2
370
    50
100
AcDbLine
 10
-199.2313
 20
-119.074897
 30
0.0
 11
-199.2313
 21
-83.731098
 31
0.0
  0
LINE
  5
1F0
100
AcDbEntity
  8
2
370
    25
100
AcDbLine
 10
-198.481439
 20
-149.874275
 30
0.0
 11
-198.481439
 21
-146.874275
 31
0.0
  0
LINE
  5
1F1
100
AcDbEntity
  8
2
370
    50
100
AcDbLine
 10
-196.0813
 20
-141.475532
 30
0.0
 11
-196.0813
 21
-143.875532
 31
0.0
  0
LINE
  5
1F2
100
AcDbEntity
  8
2
370
    50
100
AcDbLine
 10
-196.2813
 20
-141.275532
 30
0.0
 11
-196.0813
 21
-141.475532
 31
0.0
  0
LINE
  5
1F3
100
AcDbEntity
  8
2
370
    50
100
AcDbLine
 10
-196.2813
 20
-144.075532
 30
0.0
 11
-196.0813
 21
-143.875532
 31
0.0
  0
LINE
  5
1F4
100
AcDbEntity
  8
2
370
    50
100
AcDbLine
 10
-197.4813
 20
-141.275532
 30
0.0
 11
-197.4813
 21
-140.874275
 31
0.0
  0
LINE
  5
1F5
100
AcDbEntity
  8
2
370
    50
100
AcDbLine
 10
-197.4813
 20
-136.574897
 30
0.0
 11
-197.4813
 21
-137.874275
 31
0.0
  0
LINE
  5
1F6
100
AcDbEntity
  8
2
370
    50
100
AcDbLine
 10
-213.8813
 20
-141.474897
 30
0.0
 11
-213.8813
 21
-143.874897
 31
0.0
  0
LINE
  5
1F7
100
AcDbEntity
  8
2
370
    50
100
AcDbLine
 10
-196.0813
 20
-141.474897
 30
0.0
 11
-196.0813
 21
-143.874897
 31
0.0
  0
LINE
  5
1F8
100
AcDbEntity
  8
2
370
    50
100
AcDbLine
 10
-196.2813
 20
-141.274897
 30
0.0
 11
-196.0813
 21
-141.474897
 31
0.0
  0
LINE
  5
1F9
100
AcDbEntity
  8
2
370
    50
100
AcDbLine
 10
-213.6813
 20
-141.274897
 30
0.0
 11
-213.8813
 21
-141.474897
 31
0.0
  0
LINE
  5
1FA
100
AcDbEntity
  8
2
370
    50
100
AcDbLine
 10
-213.6813
 20
-144.074897
 30
0.0
 11
-213.8813
 21
-143.874897
 31
0.0
  0
LINE
  5
1FB
100
AcDbEntity
  8
2
370
    50
100
AcDbLine
 10
-213.9813
 20
-149.874897
 30
0.0
 11
-195.9813
 21
-149.874897
 31
0.0
  0
LINE
  5
1FC
100
AcDbEntity
  8
2
370
    50
100
AcDbLine
 10
-213.2813
 20
-137.874897
 30
0.0
 11
-196.6813
 21
-137.874897
 31
0.0
  0
LINE
  5
1FD
100
AcDbEntity
  8
2
370
    50
100
AcDbLine
 10
-200.9813
 20
-138.874897
 30
0.0
 11
-200.9813
 21
-148.874897
 31
0.0
  0
LINE
  5
1FE
100
AcDbEntity
  8
2
370
    50
100
AcDbLine
 10
-208.9813
 20
-138.874897
 30
0.0
 11
-208.9813
 21
-148.874897
 31
0.0
  0
ARC
  5
1FF
100
AcDbEntity
  8
2
370
    50
100
AcDbCircle
 10
-191.4813
 20
-136.874897
 30
0.0
 40
1.0
100
AcDbArc
 50
0.0
 51
90.0
  0
ARC
  5
200
100
AcDbEntity
  8
2
370
    50
100
AcDbCircle
 10
-191.4813
 20
-148.874897
 30
0.0
 40
1.0
100
AcDbArc
 50
270.0
 51
360.0
  0
LINE
  5
201
100
AcDbEntity
  8
2
370
    50
100
AcDbLine
 10
-191.4813
 20
-135.874897
 30
0.0
 11
-198.9813
 21
-135.874897
 31
0.0
  0
LINE
  5
202
100
AcDbEntity
  8
2
370
    50
100
AcDbLine
 10
-210.9813
 20
-135.874897
 30
0.0
 11
-218.4813
 21
-135.874897
 31
0.0
  0
LINE
  5
203
100
AcDbEntity
  8
2
370
    50
100
AcDbLine
 10
-191.4813
 20
-149.874897
 30
0.0
 11
-197.4813
 21
-149.874897
 31
0.0
  0
LINE
  5
204
100
AcDbEntity
  8
2
370
    50
100
AcDbLine
 10
-213.2813
 20
-149.874897
 30
0.0
 11
-218.4813
 21
-149.874897
 31
0.0
  0
LINE
  5
205
100
AcDbEntity
  8
2
370
    50
100
AcDbLine
 10
-213.2813
 20
-140.874897
 30
0.0
 11
-208.9813
 21
-140.874897
 31
0.0
  0
LINE
  5
206
100
AcDbEntity
  8
2
370
    50
100
AcDbLine
 10
-200.9813
 20
-140.874897
 30
0.0
 11
-196.6813
 21
-140.874897
 31
0.0
  0
LINE
  5
207
100
AcDbEntity
  8
2
370
    50
100
AcDbLine
 10
-213.6813
 20
-141.274897
 30
0.0
 11
-208.9813
 21
-141.274897
 31
0.0
  0
LINE
  5
208
100
AcDbEntity
  8
2
370
    50
100
AcDbLine
 10
-200.9813
 20
-141.274897
 30
0.0
 11
-196.2813
 21
-141.274897
 31
0.0
  0
LINE
  5
209
100
AcDbEntity
  8
2
370
    50
100
AcDbLine
 10
-213.8813
 20
-141.474897
 30
0.0
 11
-208.9813
 21
-141.474897
 31
0.0
  0
LINE
  5
20A
100
AcDbEntity
  8
2
370
    50
100
AcDbLine
 10
-200.9813
 20
-141.474897
 30
0.0
 11
-196.0813
 21
-141.474897
 31
0.0
  0
LINE
  5
20B
100
AcDbEntity
  8
2
370
    50
100
AcDbLine
 10
-213.8813
 20
-143.874897
 30
0.0
 11
-208.9813
 21
-143.874897
 31
0.0
  0
LINE
  5
20C
100
AcDbEntity
  8
2
370
    50
100
AcDbLine
 10
-200.9813
 20
-143.874897
 30
0.0
 11
-196.0813
 21
-143.874897
 31
0.0
  0
LINE
  5
20D
100
AcDbEntity
  8
2
370
    50
100
AcDbLine
 10
-213.2813
 20
-146.874897
 30
0.0
 11
-208.9813
 21
-146.874897
 31
0.0
  0
LINE
  5
20E
100
AcDbEntity
  8
2
370
    50
100
AcDbLine
 10
-200.9813
 20
-146.874897
 30
0.0
 11
-196.6813
 21
-146.874897
 31
0.0
  0
ARC
  5
20F
100
AcDbEntity
  8
2
370
    50
100
AcDbCircle
 10
-207.9813
 20
-138.874897
 30
0.0
 40
1.0
100
AcDbArc
 50
90.0
 51
180.0
  0
ARC
  5
210
100
AcDbEntity
  8
2
370
    50
100
AcDbCircle
 10
-201.9813
 20
-138.874897
 30
0.0
 40
1.0
100
AcDbArc
 50
0.0
 51
90.0
  0
ARC
  5
211
100
AcDbEntity
  8
2
370
    50
100
AcDbCircle
 10
-201.9813
 20
-148.874897
 30
0.0
 40
1.0
100
AcDbArc
 50
270.0
 51
0.0
  0
ARC
  5
212
100
AcDbEntity
  8
2
370
    50
100
AcDbCircle
 10
-207.9813
 20
-148.874897
 30
0.0
 40
1.0
100
AcDbArc
 50
180.0
 51
270.0
  0
LINE
  5
213
100
AcDbEntity
  8
2
370
    50
100
AcDbLine
 10
-196.6813
 20
-137.874897
 30
0.0
 11
-196.6813
 21
-140.874897
 31
0.0
  0
LINE
  5
214
100
AcDbEntity
  8
2
370
    50
100
AcDbLine
 10
-213.2813
 20
-137.874897
 30
0.0
 11
-213.2813
 21
-140.874897
 31
0.0
  0
LINE
  5
215
100
AcDbEntity
  8
2
370
    50
100
AcDbLine
 10
-213.2813
 20
-146.874897
 30
0.0
 11
-213.2813
 21
-149.874897
 31
0.0
  0
LINE
  5
216
100
AcDbEntity
  8
2
370
    50
100
AcDbLine
 10
-196.6813
 20
-146.874897
 30
0.0
 11
-196.6813
 21
-149.874897
 31
0.0
  0
LINE
  5
217
100
AcDbEntity
  8
2
370
    50
100
AcDbLine
 10
-197.4813
 20
-141.274897
 30
0.0
 11
-197.4813
 21
-140.874897
 31
0.0
  0
LINE
  5
218
100
AcDbEntity
  8
2
370
    50
100
AcDbLine
 10
-212.4813
 20
-141.274897
 30
0.0
 11
-212.4813
 21
-140.874897
 31
0.0
  0
LINE
  5
219
100
AcDbEntity
  8
2
370
    25
100
AcDbLine
 10
-199.9813
 20
-149.57548
 30
0.0
 11
-199.9813
 21
-147.270258
 31
0.0
  0
LINE
  5
21A
100
AcDbEntity
  8
2
370
    25
100
AcDbLine
 10
-199.981299
 20
-140.61371
 30
0.0
 11
-199.9813
 21
-138.181505
 31
0.0
  0
LINE
  5
21B
100
AcDbEntity
  8
2
370
    25
100
AcDbLine
 10
-209.9813
 20
-149.57548
 30
0.0
 11
-209.9813
 21
-147.270258
 31
0.0
  0
LINE
  5
21C
100
AcDbEntity
  8
2
370
    25
100
AcDbLine
 10
-209.9813
 20
-140.571032
 30
0.0
 11
-209.9813
 21
-138.101984
 31
0.0
  0
LINE
  5
21D
100
AcDbEntity
  8
2
370
    50
100
AcDbLine
 10
-196.1813
 20
-148.874897
 30
0.0
 11
-196.1813
 21
-146.274897
 31
0.0
  0
LINE
  5
21E
100
AcDbEntity
  8
2
370
    50
100
AcDbLine
 10
-196.1813
 20
-141.374897
 30
0.0
 11
-196.1813
 21
-136.874897
 31
0.0
  0
LINE
  5
21F
100
AcDbEntity
  8
2
370
    50
100
AcDbLine
 10
-213.7813
 20
-148.874897
 30
0.0
 11
-213.7813
 21
-146.274897
 31
0.0
  0
LINE
  5
220
100
AcDbEntity
  8
2
370
    50
100
AcDbLine
 10
-213.7813
 20
-141.374897
 30
0.0
 11
-213.7813
 21
-136.874897
 31
0.0
  0
ARC
  5
221
100
AcDbEntity
  8
2
370
    50
100
AcDbCircle
 10
-197.1813
 20
-136.874897
 30
0.0
 40
1.0
100
AcDbArc
 50
0.0
 51
90.0
  0
ARC
  5
222
100
AcDbEntity
  8
2
370
    50
100
AcDbCircle
 10
-212.7813
 20
-136.874897
 30
0.0
 40
1.0
100
AcDbArc
 50
90.0
 51
180.0
  0
ARC
  5
223
100
AcDbEntity
  8
2
370
    50
100
AcDbCircle
 10
-195.1813
 20
-148.874897
 30
0.0
 40
1.0
100
AcDbArc
 50
180.0
 51
270.0
  0
ARC
  5
224
100
AcDbEntity
  8
2
370
    50
100
AcDbCircle
 10
-214.7813
 20
-148.874897
 30
0.0
 40
1.0
100
AcDbArc
 50
270.0
 51
360.0
  0
LINE
  5
225
100
AcDbEntity
  8
2
370
    50
100
AcDbLine
 10
-212.4813
 20
-136.574897
 30
0.0
 11
-212.4813
 21
-137.874275
 31
0.0
  0
ARC
  5
226
100
AcDbEntity
  8
2
370
    50
100
AcDbCircle
 10
-212.7813
 20
-136.874897
 30
0.0
 40
1.0
100
AcDbArc
 50
90.0
 51
180.0
  0
LINE
  5
227
100
AcDbEntity
  8
2
370
    50
100
AcDbLine
 10
-212.4813
 20
-136.574897
 30
0.0
 11
-211.9813
 21
-136.074897
 31
0.0
  0
LINE
  5
228
100
AcDbEntity
  8
2
370
    50
100
AcDbLine
 10
-213.9813
 20
-144.274897
 30
0.0
 11
-213.9813
 21
-146.074897
 31
0.0
  0
LINE
  5
229
100
AcDbEntity
  8
2
370
    50
100
AcDbLine
 10
-195.9813
 20
-144.274897
 30
0.0
 11
-195.9813
 21
-146.074897
 31
0.0
  0
LINE
  5
22A
100
AcDbEntity
  8
2
370
    50
100
AcDbLine
 10
-194.9813
 20
-151.274897
 30
0.0
 11
-194.9813
 21
-178.774897
 31
0.0
  0
LINE
  5
22B
100
AcDbEntity
  8
2
370
    50
100
AcDbLine
 10
-195.9813
 20
-150.274897
 30
0.0
 11
-194.9813
 21
-151.274897
 31
0.0
  0
LINE
  5
22C
100
AcDbEntity
  8
2
370
    50
100
AcDbLine
 10
-213.9813
 20
-150.274897
 30
0.0
 11
-214.9813
 21
-151.274897
 31
0.0
  0
LINE
  5
22D
100
AcDbEntity
  8
2
370
    50
100
AcDbLine
 10
-213.9813
 20
-150.274897
 30
0.0
 11
-195.9813
 21
-150.274897
 31
0.0
  0
LINE
  5
22E
100
AcDbEntity
  8
2
370
    50
100
AcDbLine
 10
-216.9813
 20
-178.774897
 30
0.0
 11
-192.9813
 21
-178.774897
 31
0.0
  0
LINE
  5
22F
100
AcDbEntity
  8
2
370
    50
100
AcDbLine
 10
-213.7813
 20
-144.074897
 30
0.0
 11
-213.9813
 21
-144.274897
 31
0.0
  0
LINE
  5
230
100
AcDbEntity
  8
2
370
    50
100
AcDbLine
 10
-213.9813
 20
-146.074897
 30
0.0
 11
-213.7813
 21
-146.274897
 31
0.0
  0
LINE
  5
231
100
AcDbEntity
  8
2
370
    50
100
AcDbLine
 10
-196.1813
 20
-144.074897
 30
0.0
 11
-195.9813
 21
-144.274897
 31
0.0
  0
LINE
  5
232
100
AcDbEntity
  8
2
370
    50
100
AcDbLine
 10
-195.9813
 20
-146.074897
 30
0.0
 11
-196.1813
 21
-146.274897
 31
0.0
  0
LINE
  5
233
100
AcDbEntity
  8
2
370
    50
100
AcDbLine
 10
-191.9813
 20
-179.774897
 30
0.0
 11
-191.9813
 21
-188.774897
 31
0.0
  0
LINE
  5
234
100
AcDbEntity
  8
2
370
    50
100
AcDbLine
 10
-192.9813
 20
-178.774897
 30
0.0
 11
-191.9813
 21
-179.774897
 31
0.0
  0
LINE
  5
235
100
AcDbEntity
  8
2
370
    50
100
AcDbLine
 10
-192.9813
 20
-189.774897
 30
0.0
 11
-191.9813
 21
-188.774897
 31
0.0
  0
LINE
  5
236
100
AcDbEntity
  8
2
370
    50
100
AcDbLine
 10
-216.9813
 20
-189.774897
 30
0.0
 11
-192.9813
 21
-189.774897
 31
0.0
  0
LINE
  5
237
100
AcDbEntity
  8
2
370
    50
100
AcDbLine
 10
-194.9813
 20
-151.274897
 30
0.0
 11
-214.9813
 21
-151.274897
 31
0.0
  0
LINE
  5
238
100
AcDbEntity
  8
2
370
    50
100
AcDbLine
 10
-198.052909
 20
-188.774897
 30
0.0
 11
-198.052909
 21
-179.774897
 31
0.0
  0
LINE
  5
239
100
AcDbEntity
  8
2
370
    50
100
AcDbLine
 10
-211.90969
 20
-188.774897
 30
0.0
 11
-211.90969
 21
-179.774897
 31
0.0
  0
ARC
  5
23A
100
AcDbEntity
  8
2
370
    50
100
AcDbCircle
 10
-204.9813
 20
-203.276193
 30
0.0
 40
24.501296
100
AcDbArc
 50
73.574016
 51
106.425984
  0
ARC
  5
23B
100
AcDbEntity
  8
2
370
    50
100
AcDbCircle
 10
-204.9813
 20
-165.273601
 30
0.0
 40
24.501296
100
AcDbArc
 50
253.574016
 51
286.425984
  0
ARC
  5
23C
100
AcDbEntity
  8
2
370
    50
100
AcDbCircle
 10
-195.017104
 20
-184.666841
 30
0.0
 40
5.108056
100
AcDbArc
 50
233.536034
 51
306.463966
  0
ARC
  5
23D
100
AcDbEntity
  8
2
370
    50
100
AcDbCircle
 10
-214.945495
 20
-184.666841
 30
0.0
 40
5.108056
100
AcDbArc
 50
233.536034
 51
306.463966
  0
ARC
  5
23E
100
AcDbEntity
  8
2
370
    50
100
AcDbCircle
 10
-214.945495
 20
-183.882952
 30
0.0
 40
5.108056
100
AcDbArc
 50
53.536034
 51
126.463966
  0
ARC
  5
23F
100
AcDbEntity
  8
2
370
    50
100
AcDbCircle
 10
-195.017104
 20
-183.882952
 30
0.0
 40
5.108056
100
AcDbArc
 50
53.536034
 51
126.463966
  0
LINE
  5
240
100
AcDbEntity
  8
2
370
    50
100
AcDbLine
 10
-197.4813
 20
-150.274897
 30
0.0
 11
-197.4813
 21
-149.874897
 31
0.0
  0
LINE
  5
241
100
AcDbEntity
  8
2
370
    50
100
AcDbLine
 10
-197.4813
 20
-146.874897
 30
0.0
 11
-197.4813
 21
-146.274897
 31
0.0
  0
LINE
  5
242
100
AcDbEntity
  8
2
370
    50
100
AcDbLine
 10
-212.4813
 20
-150.274897
 30
0.0
 11
-212.4813
 21
-149.874897
 31
0.0
  0
LINE
  5
243
100
AcDbEntity
  8
2
370
    50
100
AcDbLine
 10
-212.4813
 20
-146.874897
 30
0.0
 11
-212.4813
 21
-146.274897
 31
0.0
  0
LINE
  5
244
100
AcDbEntity
  8
2
370
    50
100
AcDbLine
 10
-213.7813
 20
-146.274897
 30
0.0
 11
-208.9813
 21
-146.274897
 31
0.0
  0
LINE
  5
245
100
AcDbEntity
  8
2
370
    50
100
AcDbLine
 10
-200.9813
 20
-146.274897
 30
0.0
 11
-196.1813
 21
-146.274897
 31
0.0
  0
LINE
  5
246
100
AcDbEntity
  8
2
370
    50
100
AcDbLine
 10
-213.9813
 20
-146.074897
 30
0.0
 11
-208.9813
 21
-146.074897
 31
0.0
  0
LINE
  5
247
100
AcDbEntity
  8
2
370
    50
100
AcDbLine
 10
-200.9813
 20
-146.074897
 30
0.0
 11
-195.9813
 21
-146.074897
 31
0.0
  0
LINE
  5
248
100
AcDbEntity
  8
2
370
    50
100
AcDbLine
 10
-213.9813
 20
-144.274897
 30
0.0
 11
-208.9813
 21
-144.274897
 31
0.0
  0
LINE
  5
249
100
AcDbEntity
  8
2
370
    50
100
AcDbLine
 10
-200.9813
 20
-144.274897
 30
0.0
 11
-195.9813
 21
-144.274897
 31
0.0
  0
LINE
  5
24A
100
AcDbEntity
  8
2
370
    50
100
AcDbLine
 10
-213.7813
 20
-144.074897
 30
0.0
 11
-208.9813
 21
-144.074897
 31
0.0
  0
LINE
  5
24B
100
AcDbEntity
  8
2
370
    50
100
AcDbLine
 10
-200.9813
 20
-144.074897
 30
0.0
 11
-196.1813
 21
-144.074897
 31
0.0
  0
LINE
  5
24C
100
AcDbEntity
  8
2
370
    25
100
AcDbLine
 10
-211.48116
 20
-149.874275
 30
0.0
 11
-211.48116
 21
-146.874275
 31
0.0
  0
LINE
  5
24D
100
AcDbEntity
  8
2
370
    25
100
AcDbLine
 10
-198.481439
 20
-140.874897
 30
0.0
 11
-198.481439
 21
-137.874897
 31
0.0
  0
LINE
  5
24E
100
AcDbEntity
  8
2
370
    25
100
AcDbLine
 10
-211.48116
 20
-140.874897
 30
0.0
 11
-211.48116
 21
-137.874897
 31
0.0
  0
LINE
  5
24F
100
AcDbEntity
  8
2
370
    25
100
AcDbLine
 10
-200.915436
 20
-110.391331
 30
0.0
 11
-209.047164
 21
-102.259603
 31
0.0
  0
LINE
  5
250
100
AcDbEntity
  8
2
370
    25
100
AcDbLine
 10
-200.915436
 20
-102.259603
 30
0.0
 11
-209.047164
 21
-110.391331
 31
0.0
  0
LINE
  5
251
100
AcDbEntity
  8
2
370
    25
100
AcDbLine
 10
-201.684502
 20
-111.036479
 30
0.0
 11
-209.692311
 21
-103.02867
 31
0.0
  0
LINE
  5
252
100
AcDbEntity
  8
2
370
    25
100
AcDbLine
 10
-202.583526
 20
-111.551669
 30
0.0
 11
-210.207501
 21
-103.927693
 31
0.0
  0
LINE
  5
253
100
AcDbEntity
  8
2
370
    25
100
AcDbLine
 10
-203.634011
 20
-111.915397
 30
0.0
 11
-210.571229
 21
-104.978178
 31
0.0
  0
LINE
  5
254
100
AcDbEntity
  8
2
370
    25
100
AcDbLine
 10
-204.888896
 20
-112.074725
 30
0.0
 11
-210.730557
 21
-106.233064
 31
0.0
  0
LINE
  5
255
100
AcDbEntity
  8
2
370
    25
100
AcDbLine
 10
-206.509036
 20
-111.868799
 30
0.0
 11
-210.524631
 21
-107.853204
 31
0.0
  0
LINE
  5
256
100
AcDbEntity
  8
2
370
    25
100
AcDbLine
 10
-200.270288
 20
-109.622265
 30
0.0
 11
-208.278097
 21
-101.614456
 31
0.0
  0
LINE
  5
257
100
AcDbEntity
  8
2
370
    25
100
AcDbLine
 10
-199.755098
 20
-108.723241
 30
0.0
 11
-207.379074
 21
-101.099266
 31
0.0
  0
LINE
  5
258
100
AcDbEntity
  8
2
370
    25
100
AcDbLine
 10
-199.39137
 20
-107.672756
 30
0.0
 11
-206.328589
 21
-100.735538
 31
0.0
  0
LINE
  5
259
100
AcDbEntity
  8
2
370
    25
100
AcDbLine
 10
-199.232042
 20
-106.417871
 30
0.0
 11
-205.073703
 21
-100.57621
 31
0.0
  0
LINE
  5
25A
100
AcDbEntity
  8
2
370
    25
100
AcDbLine
 10
-199.437968
 20
-104.797731
 30
0.0
 11
-203.453563
 21
-100.782136
 31
0.0
  0
LINE
  5
25B
100
AcDbEntity
  8
2
370
    25
100
AcDbLine
 10
-201.684502
 20
-101.614456
 30
0.0
 11
-209.692311
 21
-109.622265
 31
0.0
  0
LINE
  5
25C
100
AcDbEntity
  8
2
370
    25
100
AcDbLine
 10
-202.583526
 20
-101.099266
 30
0.0
 11
-210.207501
 21
-108.723241
 31
0.0
  0
LINE
  5
25D
100
AcDbEntity
  8
2
370
    25
100
AcDbLine
 10
-203.634011
 20
-100.735538
 30
0.0
 11
-210.571229
 21
-107.672756
 31
0.0
  0
LINE
  5
25E
100
AcDbEntity
  8
2
370
    25
100
AcDbLine
 10
-204.888896
 20
-100.57621
 30
0.0
 11
-210.730557
 21
-106.417871
 31
0.0
  0
LINE
  5
25F
100
AcDbEntity
  8
2
370
    25
100
AcDbLine
 10
-206.509036
 20
-100.782136
 30
0.0
 11
-210.524631
 21
-104.797731
 31
0.0
  0
LINE
  5
260
100
AcDbEntity
  8
2
370
    25
100
AcDbLine
 10
-200.270288
 20
-103.02867
 30
0.0
 11
-208.278097
 21
-111.036479
 31
0.0
  0
LINE
  5
261
100
AcDbEntity
  8
2
370
    25
100
AcDbLine
 10
-199.755098
 20
-103.927693
 30
0.0
 11
-207.379074
 21
-111.551669
 31
0.0
  0
LINE
  5
262
100
AcDbEntity
  8
2
370
    25
100
AcDbLine
 10
-199.39137
 20
-104.978178
 30
0.0
 11
-206.328589
 21
-111.915397
 31
0.0
  0
LINE
  5
263
100
AcDbEntity
  8
2
370
    25
100
AcDbLine
 10
-199.232042
 20
-106.233064
 30
0.0
 11
-205.073703
 21
-112.074725
 31
0.0
  0
LINE
  5
264
100
AcDbEntity
  8
2
370
    25
100
AcDbLine
 10
-199.437968
 20
-107.853204
 30
0.0
 11
-203.453563
 21
-111.868799
 31
0.0
  0
LINE
  5
265
100
AcDbEntity
  8
2
370
    25
100
AcDbLine
 10
-209.917429
 20
-119.074897
 30
0.0
 11
-209.917429
 21
-131.574897
 31
0.0
  0
LINE
  5
266
100
AcDbEntity
  8
2
370
    25
100
AcDbLine
 10
-209.210322
 20
-119.074897
 30
0.0
 11
-209.210322
 21
-131.574897
 31
0.0
  0
LINE
  5
267
100
AcDbEntity
  8
2
370
    25
100
AcDbLine
 10
-205.4813
 20
-131.574897
 30
0.0
 11
-205.4813
 21
-130.299834
 31
0.0
  0
LINE
  5
268
100
AcDbEntity
  8
2
370
    25
100
AcDbLine
 10
-205.4813
 20
-131.574897
 30
0.0
 11
-205.4813
 21
-119.074897
 31
0.0
  0
LINE
  5
269
100
AcDbEntity
  8
2
370
    25
100
AcDbLine
 10
-204.4813
 20
-131.574897
 30
0.0
 11
-204.4813
 21
-130.299834
 31
0.0
  0
LINE
  5
26A
100
AcDbEntity
  8
2
370
    25
100
AcDbLine
 10
-204.4813
 20
-131.574897
 30
0.0
 11
-204.4813
 21
-119.074897
 31
0.0
  0
LINE
  5
26B
100
AcDbEntity
  8
2
370
    25
100
AcDbLine
 10
-200.752277
 20
-131.574897
 30
0.0
 11
-200.752277
 21
-127.992362
 31
0.0
  0
LINE
  5
26C
100
AcDbEntity
  8
2
370
    25
100
AcDbLine
 10
-200.752277
 20
-131.574897
 30
0.0
 11
-200.752277
 21
-119.074897
 31
0.0
  0
LINE
  5
26D
100
AcDbEntity
  8
2
370
    25
100
AcDbLine
 10
-200.045171
 20
-131.574897
 30
0.0
 11
-200.045171
 21
-126.121533
 31
0.0
  0
LINE
  5
26E
100
AcDbEntity
  8
2
370
    25
100
AcDbLine
 10
-200.045171
 20
-131.574897
 30
0.0
 11
-200.045171
 21
-119.074897
 31
0.0
  0
LINE
  5
26F
100
AcDbEntity
  8
2
370
    50
100
AcDbLine
 10
-219.4813
 20
-136.874897
 30
0.0
 11
-219.4813
 21
-148.874897
 31
0.0
  0
ARC
  5
270
100
AcDbEntity
  8
2
370
    50
100
AcDbCircle
 10
-218.4813
 20
-136.874897
 30
0.0
 40
1.0
100
AcDbArc
 50
90.0
 51
180.0
  0
ARC
  5
271
100
AcDbEntity
  8
2
370
    50
100
AcDbCircle
 10
-218.4813
 20
-148.874897
 30
0.0
 40
1.0
100
AcDbArc
 50
180.0
 51
270.0
  0
LINE
  5
272
100
AcDbEntity
  8
2
370
    50
100
AcDbLine
 10
-214.9813
 20
-151.274897
 30
0.0
 11
-214.9813
 21
-178.774897
 31
0.0
  0
LINE
  5
273
100
AcDbEntity
  8
2
370
    50
100
AcDbLine
 10
-217.9813
 20
-179.774897
 30
0.0
 11
-217.9813
 21
-188.774897
 31
0.0
  0
LINE
  5
274
100
AcDbEntity
  8
2
370
    50
100
AcDbLine
 10
-216.9813
 20
-178.774897
 30
0.0
 11
-217.9813
 21
-179.774897
 31
0.0
  0
LINE
  5
275
100
AcDbEntity
  8
2
370
    50
100
AcDbLine
 10
-216.9813
 20
-189.774897
 30
0.0
 11
-217.9813
 21
-188.774897
 31
0.0
  0
LINE
  5
276
100
AcDbEntity
  8
2
370
    25
  6
CENTER
100
AcDbLine
 10
-204.9813
 20
-74.072783
 30
0.0
 11
-204.9813
 21
-193.123028
 31
0.0
  0
ARC
  5
277
100
AcDbEntity
  8
2
370
    50
100
AcDbCircle
 10
-207.8563
 20
-79.73025
 30
0.0
 40
4.791667
100
AcDbArc
 50
233.130102
 51
306.869898
  0
ARC
  5
278
100
AcDbEntity
  8
2
370
    50
100
AcDbCircle
 10
-202.1063
 20
-87.396917
 30
0.0
 40
4.791667
100
AcDbArc
 50
53.130102
 51
126.869898
  0
ARC
  5
279
100
AcDbEntity
  8
2
370
    50
100
AcDbCircle
 10
-207.8563
 20
-87.396917
 30
0.0
 40
4.791667
100
AcDbArc
 50
53.130102
 51
126.869898
  0
ARC
  5
27A
100
AcDbEntity
  8
2
370
    50
100
AcDbCircle
 10
-303.444455
 20
-79.845263
 30
0.0
 40
4.791667
100
AcDbArc
 50
233.130102
 51
306.869898
  0
ARC
  5
27B
100
AcDbEntity
  8
2
370
    50
100
AcDbCircle
 10
-297.694455
 20
-87.51193
 30
0.0
 40
4.791667
100
AcDbArc
 50
53.130102
 51
126.869898
  0
ARC
  5
27C
100
AcDbEntity
  8
2
370
    50
100
AcDbCircle
 10
-303.444455
 20
-87.51193
 30
0.0
 40
4.791667
100
AcDbArc
 50
53.130102
 51
126.869898
  0
LINE
  5
27D
100
AcDbEntity
  8
2
370
    50
100
AcDbLine
 10
-235.275377
 20
-30.375379
 30
0.0
 11
-235.275377
 21
-19.175118
 31
0.0
  0
LINE
  5
27E
100
AcDbEntity
  8
2
370
    50
100
AcDbLine
 10
-235.275377
 20
-5.175118
 30
0.0
 11
-235.275377
 21
7.824621
 31
0.0
  0
LINE
  5
27F
100
AcDbEntity
  8
2
370
    25
100
AcDbLine
 10
-236.075377
 20
-31.175379
 30
0.0
 11
-236.075377
 21
-19.175118
 31
0.0
  0
LINE
  5
280
100
AcDbEntity
  8
2
370
    25
100
AcDbLine
 10
-236.075377
 20
-5.175118
 30
0.0
 11
-236.075377
 21
7.824621
 31
0.0
  0
LINE
  5
281
100
AcDbEntity
  8
2
370
    50
100
AcDbLine
 10
-270.275377
 20
-30.375379
 30
0.0
 11
-270.275377
 21
-19.175118
 31
0.0
  0
LINE
  5
282
100
AcDbEntity
  8
2
370
    50
100
AcDbLine
 10
-270.275377
 20
-5.175118
 30
0.0
 11
-270.275377
 21
7.824621
 31
0.0
  0
LINE
  5
283
100
AcDbEntity
  8
2
370
    25
100
AcDbLine
 10
-269.475377
 20
-31.175379
 30
0.0
 11
-269.475377
 21
-19.175118
 31
0.0
  0
LINE
  5
284
100
AcDbEntity
  8
2
370
    25
100
AcDbLine
 10
-269.475377
 20
-5.175118
 30
0.0
 11
-269.475377
 21
7.824621
 31
0.0
  0
LINE
  5
285
100
AcDbEntity
  8
2
370
    50
100
AcDbLine
 10
-226.775377
 20
-7.175118
 30
0.0
 11
-278.775377
 21
-7.175118
 31
0.0
  0
LINE
  5
286
100
AcDbEntity
  8
2
370
    50
100
AcDbLine
 10
-229.775377
 20
-19.175118
 30
0.0
 11
-275.775377
 21
-19.175118
 31
0.0
  0
LINE
  5
287
100
AcDbEntity
  8
2
370
    50
100
AcDbLine
 10
-278.775377
 20
-9.175118
 30
0.0
 11
-278.775377
 21
-7.175118
 31
0.0
  0
LINE
  5
288
100
AcDbEntity
  8
2
370
    50
100
AcDbLine
 10
-226.775377
 20
-9.175118
 30
0.0
 11
-226.775377
 21
-7.175118
 31
0.0
  0
LINE
  5
289
100
AcDbEntity
  8
2
370
    50
100
AcDbLine
 10
-275.775377
 20
-19.175118
 30
0.0
 11
-275.775377
 21
-11.175118
 31
0.0
  0
LINE
  5
28A
100
AcDbEntity
  8
2
370
    50
100
AcDbLine
 10
-229.775377
 20
-19.175118
 30
0.0
 11
-229.775377
 21
-11.175118
 31
0.0
  0
LINE
  5
28B
100
AcDbEntity
  8
2
370
    50
100
AcDbLine
 10
-227.775377
 20
-10.175118
 30
0.0
 11
-277.775377
 21
-10.175118
 31
0.0
  0
LINE
  5
28C
100
AcDbEntity
  8
2
370
    50
100
AcDbLine
 10
-274.775377
 20
-18.083118
 30
0.0
 11
-274.775377
 21
-10.175118
 31
0.0
  0
LINE
  5
28D
100
AcDbEntity
  8
2
370
    50
100
AcDbLine
 10
-230.775377
 20
-18.083118
 30
0.0
 11
-230.775377
 21
-10.175118
 31
0.0
  0
LINE
  5
28E
100
AcDbEntity
  8
2
370
    50
100
AcDbLine
 10
-251.775377
 20
-18.083118
 30
0.0
 11
-251.775377
 21
-10.175118
 31
0.0
  0
LINE
  5
28F
100
AcDbEntity
  8
2
370
    50
100
AcDbLine
 10
-253.775377
 20
-18.083118
 30
0.0
 11
-253.775377
 21
-10.175118
 31
0.0
  0
LINE
  5
290
100
AcDbEntity
  8
2
370
    50
100
AcDbLine
 10
-274.775377
 20
-18.083118
 30
0.0
 11
-275.775377
 21
-18.083118
 31
0.0
  0
LINE
  5
291
100
AcDbEntity
  8
2
370
    50
100
AcDbLine
 10
-229.775377
 20
-18.083118
 30
0.0
 11
-230.775377
 21
-18.083118
 31
0.0
  0
LINE
  5
292
100
AcDbEntity
  8
2
370
    50
100
AcDbLine
 10
-251.775377
 20
-18.083118
 30
0.0
 11
-253.775377
 21
-18.083118
 31
0.0
  0
ARC
  5
293
100
AcDbEntity
  8
2
370
    50
100
AcDbCircle
 10
-264.275377
 20
31.851651
 30
0.0
 40
51.026769
100
AcDbArc
 50
258.125168
 51
281.874832
  0
ARC
  5
294
100
AcDbEntity
  8
2
370
    50
100
AcDbCircle
 10
-241.275377
 20
31.851651
 30
0.0
 40
51.026769
100
AcDbArc
 50
258.125168
 51
281.874832
  0
ARC
  5
295
100
AcDbEntity
  8
2
370
    50
100
AcDbCircle
 10
-276.775377
 20
-11.175118
 30
0.0
 40
1.0
100
AcDbArc
 50
0.0
 51
90.0
  0
ARC
  5
296
100
AcDbEntity
  8
2
370
    50
100
AcDbCircle
 10
-228.775377
 20
-11.175118
 30
0.0
 40
1.0
100
AcDbArc
 50
90.0
 51
180.0
  0
ARC
  5
297
100
AcDbEntity
  8
2
370
    50
100
AcDbCircle
 10
-277.775377
 20
-9.175118
 30
0.0
 40
1.0
100
AcDbArc
 50
180.0
 51
270.0
  0
ARC
  5
298
100
AcDbEntity
  8
2
370
    50
100
AcDbCircle
 10
-227.775377
 20
-9.175118
 30
0.0
 40
1.0
100
AcDbArc
 50
270.0
 51
360.0
  0
LINE
  5
299
100
AcDbEntity
  8
2
370
    50
100
AcDbLine
 10
-277.775377
 20
-6.675118
 30
0.0
 11
-227.775377
 21
-6.675118
 31
0.0
  0
LINE
  5
29A
100
AcDbEntity
  8
2
370
    50
100
AcDbLine
 10
-277.775377
 20
-5.175118
 30
0.0
 11
-277.775377
 21
-7.175118
 31
0.0
  0
LINE
  5
29B
100
AcDbEntity
  8
2
370
    50
100
AcDbLine
 10
-227.775377
 20
-5.175118
 30
0.0
 11
-227.775377
 21
-7.175118
 31
0.0
  0
LINE
  5
29C
100
AcDbEntity
  8
2
370
    50
100
AcDbLine
 10
-277.775377
 20
-5.175118
 30
0.0
 11
-227.775377
 21
-5.175118
 31
0.0
  0
LINE
  5
29D
100
AcDbEntity
  8
2
370
    50
100
AcDbLine
 10
-269.475377
 20
-31.175379
 30
0.0
 11
-270.275377
 21
-30.375379
 31
0.0
  0
LINE
  5
29E
100
AcDbEntity
  8
2
370
    50
100
AcDbLine
 10
-236.075377
 20
-31.175379
 30
0.0
 11
-235.275377
 21
-30.375379
 31
0.0
  0
LINE
  5
29F
100
AcDbEntity
  8
2
370
    50
100
AcDbLine
 10
-269.475377
 20
-31.175379
 30
0.0
 11
-236.075377
 21
-31.175379
 31
0.0
  0
LINE
  5
2A0
100
AcDbEntity
  8
2
370
    50
100
AcDbLine
 10
-270.275377
 20
-30.375379
 30
0.0
 11
-235.275377
 21
-30.375379
 31
0.0
  0
ARC
  5
2A1
100
AcDbEntity
  8
2
370
    50
100
AcDbCircle
 10
-249.538517
 20
-33.80954
 30
0.0
 40
2.634161
100
AcDbArc
 50
62.924933
 51
117.075067
  0
LINE
  5
2A2
100
AcDbEntity
  8
2
370
    50
100
AcDbLine
 10
-248.339559
 20
-31.464054
 30
0.0
 11
-247.173293
 21
-31.464054
 31
0.0
  0
ARC
  5
2A3
100
AcDbEntity
  8
2
370
    50
100
AcDbCircle
 10
-244.775377
 20
-41.279009
 30
0.0
 40
10.10363
100
AcDbArc
 50
76.270867
 51
90.0
  0
LINE
  5
2A4
100
AcDbEntity
  8
2
370
    50
100
AcDbLine
 10
-241.211195
 20
-31.464054
 30
0.0
 11
-242.377461
 21
-31.464054
 31
0.0
  0
ARC
  5
2A5
100
AcDbEntity
  8
2
370
    50
100
AcDbCircle
 10
-240.012238
 20
-33.80954
 30
0.0
 40
2.634161
100
AcDbArc
 50
62.924933
 51
117.075067
  0
ARC
  5
2A6
100
AcDbEntity
  8
2
370
    50
100
AcDbCircle
 10
-244.775377
 20
-41.279009
 30
0.0
 40
10.10363
100
AcDbArc
 50
90.0
 51
103.729133
  0
LINE
  5
2A7
100
AcDbEntity
  8
2
370
    50
100
AcDbLine
 10
-238.775377
 20
-31.464054
 30
0.0
 11
-238.81328
 21
-31.464054
 31
0.0
  0
LINE
  5
2A8
100
AcDbEntity
  8
2
370
    50
100
AcDbLine
 10
-239.275377
 20
-31.175379
 30
0.0
 11
-238.775377
 21
-31.464054
 31
0.0
  0
LINE
  5
2A9
100
AcDbEntity
  8
2
370
    50
100
AcDbLine
 10
-250.737475
 20
-31.464054
 30
0.0
 11
-250.775377
 21
-31.464054
 31
0.0
  0
LINE
  5
2AA
100
AcDbEntity
  8
2
370
    50
100
AcDbLine
 10
-250.775377
 20
-31.464054
 30
0.0
 11
-250.275377
 21
-31.175379
 31
0.0
  0
LINE
  5
2AB
100
AcDbEntity
  8
2
370
    50
100
AcDbLine
 10
-257.211195
 20
-31.464054
 30
0.0
 11
-258.377461
 21
-31.464054
 31
0.0
  0
ARC
  5
2AC
100
AcDbEntity
  8
2
370
    50
100
AcDbCircle
 10
-260.775377
 20
-41.279009
 30
0.0
 40
10.10363
100
AcDbArc
 50
76.270867
 51
90.0
  0
ARC
  5
2AD
100
AcDbEntity
  8
2
370
    50
100
AcDbCircle
 10
-260.775377
 20
-41.279009
 30
0.0
 40
10.10363
100
AcDbArc
 50
90.0
 51
103.729133
  0
LINE
  5
2AE
100
AcDbEntity
  8
2
370
    50
100
AcDbLine
 10
-264.339559
 20
-31.464054
 30
0.0
 11
-263.173293
 21
-31.464054
 31
0.0
  0
LINE
  5
2AF
100
AcDbEntity
  8
2
370
    50
100
AcDbLine
 10
-266.775377
 20
-31.464054
 30
0.0
 11
-266.275377
 21
-31.175379
 31
0.0
  0
ARC
  5
2B0
100
AcDbEntity
  8
2
370
    50
100
AcDbCircle
 10
-265.538517
 20
-33.80954
 30
0.0
 40
2.634161
100
AcDbArc
 50
62.924933
 51
117.075067
  0
ARC
  5
2B1
100
AcDbEntity
  8
2
370
    50
100
AcDbCircle
 10
-256.012238
 20
-33.80954
 30
0.0
 40
2.634161
100
AcDbArc
 50
62.924933
 51
117.075067
  0
LINE
  5
2B2
100
AcDbEntity
  8
2
370
    50
100
AcDbLine
 10
-254.975377
 20
-31.175379
 30
0.0
 11
-266.575377
 21
-31.175379
 31
0.0
  0
LINE
  5
2B3
100
AcDbEntity
  8
2
370
    50
100
AcDbLine
 10
-255.275377
 20
-31.175379
 30
0.0
 11
-254.775377
 21
-31.464054
 31
0.0
  0
LINE
  5
2B4
100
AcDbEntity
  8
2
370
    50
100
AcDbLine
 10
-254.775377
 20
-31.464054
 30
0.0
 11
-254.81328
 21
-31.464054
 31
0.0
  0
LINE
  5
2B5
100
AcDbEntity
  8
2
370
    50
100
AcDbLine
 10
-266.737475
 20
-31.464054
 30
0.0
 11
-266.775377
 21
-31.464054
 31
0.0
  0
LINE
  5
2B6
100
AcDbEntity
  8
2
370
    50
100
AcDbLine
 10
-240.775377
 20
205.630683
 30
0.0
 11
-252.775377
 21
205.630683
 31
0.0
  0
LINE
  5
2B7
100
AcDbEntity
  8
2
370
    50
100
AcDbLine
 10
-240.775377
 20
193.230683
 30
0.0
 11
-252.775377
 21
193.230683
 31
0.0
  0
ARC
  5
2B8
100
AcDbEntity
  8
2
370
    50
100
AcDbCircle
 10
-240.775377
 20
199.430683
 30
0.0
 40
6.2
100
AcDbArc
 50
270.0
 51
90.0
  0
LINE
  5
2B9
100
AcDbEntity
  8
2
370
    50
100
AcDbLine
 10
-279.775377
 20
196.722207
 30
0.0
 11
-279.775377
 21
174.070969
 31
0.0
  0
LINE
  5
2BA
100
AcDbEntity
  8
2
370
    50
100
AcDbLine
 10
-225.775377
 20
174.070969
 30
0.0
 11
-225.775377
 21
196.722289
 31
0.0
  0
ARC
  5
2BB
100
AcDbEntity
  8
2
370
    50
100
AcDbCircle
 10
-252.775116
 20
88.043823
 30
0.0
 40
120.0
100
AcDbArc
 50
81.109703
 51
98.890573
  0
ARC
  5
2BC
100
AcDbEntity
  8
2
370
    50
100
AcDbCircle
 10
-269.775377
 20
196.722207
 30
0.0
 40
10.0
100
AcDbArc
 50
98.890573
 51
180.0
  0
ARC
  5
2BD
100
AcDbEntity
  8
2
370
    50
100
AcDbCircle
 10
-235.775377
 20
196.722289
 30
0.0
 40
10.0
100
AcDbArc
 50
0.0
 51
81.109703
  0
LINE
  5
2BE
100
AcDbEntity
  8
2
370
    50
100
AcDbLine
 10
-225.775377
 20
173.583784
 30
0.0
 11
-225.775377
 21
164.327268
 31
0.0
  0
LINE
  5
2BF
100
AcDbEntity
  8
2
370
    50
100
AcDbLine
 10
-279.775377
 20
173.583784
 30
0.0
 11
-279.775377
 21
164.327268
 31
0.0
  0
LINE
  5
2C0
100
AcDbEntity
  8
2
370
    50
100
AcDbLine
 10
-264.775377
 20
205.630683
 30
0.0
 11
-252.775377
 21
205.630683
 31
0.0
  0
LINE
  5
2C1
100
AcDbEntity
  8
2
370
    50
100
AcDbLine
 10
-264.775377
 20
193.230683
 30
0.0
 11
-252.775377
 21
193.230683
 31
0.0
  0
ARC
  5
2C2
100
AcDbEntity
  8
2
370
    50
100
AcDbCircle
 10
-264.775377
 20
199.430683
 30
0.0
 40
6.2
100
AcDbArc
 50
90.0
 51
270.0
  0
ARC
  5
2C3
100
AcDbEntity
  8
2
370
    50
100
AcDbCircle
 10
-240.775424
 20
199.430683
 30
0.0
 40
6.0
100
AcDbArc
 50
270.0
 51
90.0
  0
ARC
  5
2C4
100
AcDbEntity
  8
2
370
    50
100
AcDbCircle
 10
-264.775424
 20
199.430683
 30
0.0
 40
6.0
100
AcDbArc
 50
90.0
 51
270.0
  0
ELLIPSE
  5
2C5
100
AcDbEntity
  8
2
370
    50
100
AcDbEllipse
 10
-246.454032
 20
199.430683
 30
0.0
 11
8.5099999999999998
 21
0.0
 31
0.0
210
0.0
220
0.0
230
1.0
 40
0.705053
 41
4.7123889999999999
 42
1.5707960000000001
  0
ELLIPSE
  5
2C6
100
AcDbEntity
  8
2
370
    50
100
AcDbEllipse
 10
-259.096816
 20
199.430683
 30
0.0
 11
-8.5099999999999998
 21
0.0
 31
0.0
210
0.0
220
0.0
230
1.0
 40
0.705053
 41
4.7123889999999999
 42
1.5707960000000001
  0
LINE
  5
2C7
100
AcDbEntity
  8
2
370
    50
100
AcDbLine
 10
-264.775424
 20
205.430683
 30
0.0
 11
-240.775424
 21
205.430683
 31
0.0
  0
LINE
  5
2C8
100
AcDbEntity
  8
2
370
    50
100
AcDbLine
 10
-264.775424
 20
193.430683
 30
0.0
 11
-240.775424
 21
193.430683
 31
0.0
  0
ELLIPSE
  5
2C9
100
AcDbEntity
  8
2
370
    50
100
AcDbEllipse
 10
-252.775377
 20
173.583784
 30
0.0
 11
27.0
 21
0.0
 31
0.0
210
0.0
220
0.0
230
1.0
 40
0.224951
 41
0.0
 42
3.1415929999999999
  0
ELLIPSE
  5
2CA
100
AcDbEntity
  8
2
370
    25
100
AcDbEllipse
 10
-252.775377
 20
164.327268
 30
0.0
 11
27.0
 21
0.0
 31
0.0
210
0.0
220
0.0
230
1.0
 40
0.224951
 41
0.0
 42
3.1415929999999999
  0
LINE
  5
2CB
100
AcDbEntity
  8
2
370
    50
100
AcDbLine
 10
-225.775377
 20
164.327268
 30
0.0
 11
-228.775377
 21
150.393773
 31
0.0
  0
LINE
  5
2CC
100
AcDbEntity
  8
2
370
    50
100
AcDbLine
 10
-279.775377
 20
164.327268
 30
0.0
 11
-276.775377
 21
150.393773
 31
0.0
  0
ELLIPSE
  5
2CD
100
AcDbEntity
  8
2
370
    50
100
AcDbEllipse
 10
-252.775377
 20
150.393773
 30
0.0
 11
24.0
 21
0.0
 31
0.0
210
0.0
220
0.0
230
1.0
 40
0.22458
 41
0.0
 42
6.2831849999999996
  0
ELLIPSE
  5
2CE
100
AcDbEntity
  8
2
370
    50
100
AcDbEllipse
 10
-252.775377
 20
150.393773
 30
0.0
 11
9.5999999999999996
 21
0.0
 31
0.0
210
0.0
220
0.0
230
1.0
 40
0.225353
 41
0.0
 42
6.2831849999999996
  0
LINE
  5
2CF
100
AcDbEntity
  8
2
370
    50
100
AcDbLine
 10
-279.475377
 20
174.486675
 30
0.0
 11
-279.475377
 21
174.97386
 31
0.0
  0
LINE
  5
2D0
100
AcDbEntity
  8
2
370
    50
100
AcDbLine
 10
-226.075377
 20
174.486675
 30
0.0
 11
-226.075377
 21
174.97386
 31
0.0
  0
ELLIPSE
  5
2D1
100
AcDbEntity
  8
2
370
    50
100
AcDbEllipse
 10
-252.775377
 20
174.070969
 30
0.0
 11
27.0
 21
0.0
 31
0.0
210
0.0
220
0.0
230
1.0
 40
0.224951
 41
0.0
 42
3.1817099999999998
  0
LINE
  5
2D2
100
AcDbEntity
  8
2
370
    25
  6
CENTER
100
AcDbLine
 10
109.188221
 20
20.807275
 30
0.0
 11
109.188221
 21
-25.617522
 31
0.0
  0
LINE
  5
2D3
100
AcDbEntity
  8
2
370
    50
100
AcDbLine
 10
82.688221
 20
23.524621
 30
0.0
 11
82.688221
 21
11.124621
 31
0.0
  0
LINE
  5
2D4
100
AcDbEntity
  8
2
370
    50
100
AcDbLine
 10
135.688221
 20
23.524621
 30
0.0
 11
135.688221
 21
11.12505
 31
0.0
  0
LINE
  5
2D5
100
AcDbEntity
  8
2
370
    50
100
AcDbLine
 10
87.188221
 20
60.32505
 30
0.0
 11
87.188221
 21
59.825741
 31
0.0
  0
LINE
  5
2D6
100
AcDbEntity
  8
2
370
    50
100
AcDbLine
 10
131.188221
 20
60.32505
 30
0.0
 11
131.188221
 21
59.825741
 31
0.0
  0
LINE
  5
2D7
100
AcDbEntity
  8
2
370
    50
100
AcDbLine
 10
82.988221
 20
23.824621
 30
0.0
 11
89.688221
 21
23.824621
 31
0.0
  0
LINE
  5
2D8
100
AcDbEntity
  8
2
370
    50
100
AcDbLine
 10
128.688221
 20
23.824621
 30
0.0
 11
135.388221
 21
23.824621
 31
0.0
  0
LINE
  5
2D9
100
AcDbEntity
  8
2
370
    50
100
AcDbLine
 10
82.988221
 20
23.824621
 30
0.0
 11
82.688221
 21
23.524621
 31
0.0
  0
LINE
  5
2DA
100
AcDbEntity
  8
2
370
    50
100
AcDbLine
 10
135.688221
 20
23.524621
 30
0.0
 11
135.388221
 21
23.824621
 31
0.0
  0
LINE
  5
2DB
100
AcDbEntity
  8
2
370
    50
100
AcDbLine
 10
92.481221
 20
-31.175379
 30
0.0
 11
125.895221
 21
-31.175379
 31
0.0
  0
LINE
  5
2DC
100
AcDbEntity
  8
2
370
    50
100
AcDbLine
 10
125.895221
 20
-31.175379
 30
0.0
 11
126.688221
 21
-30.382379
 31
0.0
  0
LINE
  5
2DD
100
AcDbEntity
  8
2
370
    50
100
AcDbLine
 10
92.481221
 20
-31.175379
 30
0.0
 11
91.688221
 21
-30.382379
 31
0.0
  0
LINE
  5
2DE
100
AcDbEntity
  8
2
370
    50
100
AcDbLine
 10
82.988221
 20
60.32505
 30
0.0
 11
109.188221
 21
60.32505
 31
0.0
  0
LINE
  5
2DF
100
AcDbEntity
  8
2
370
    50
100
AcDbLine
 10
135.388221
 20
60.32505
 30
0.0
 11
109.188221
 21
60.32505
 31
0.0
  0
LINE
  5
2E0
100
AcDbEntity
  8
2
370
    50
100
AcDbLine
 10
135.688221
 20
60.62505
 30
0.0
 11
135.688221
 21
101.21723
 31
0.0
  0
LINE
  5
2E1
100
AcDbEntity
  8
2
370
    50
100
AcDbLine
 10
82.688221
 20
60.62505
 30
0.0
 11
82.688221
 21
101.21723
 31
0.0
  0
LINE
  5
2E2
100
AcDbEntity
  8
2
370
    50
100
AcDbLine
 10
128.688221
 20
23.82505
 30
0.0
 11
135.688221
 21
23.82505
 31
0.0
  0
LINE
  5
2E3
100
AcDbEntity
  8
2
370
    50
100
AcDbLine
 10
82.68821
 20
23.82505
 30
0.0
 11
128.688221
 21
23.82505
 31
0.0
  0
LINE
  5
2E4
100
AcDbEntity
  8
2
370
    50
100
AcDbLine
 10
133.188221
 20
103.036379
 30
0.0
 11
133.188221
 21
101.993687
 31
0.0
  0
LINE
  5
2E5
100
AcDbEntity
  8
2
370
    50
100
AcDbLine
 10
85.188221
 20
102.848265
 30
0.0
 11
85.188221
 21
101.993687
 31
0.0
  0
LINE
  5
2E6
100
AcDbEntity
  8
2
370
    50
100
AcDbLine
 10
135.688221
 20
23.52505
 30
0.0
 11
135.388221
 21
23.82505
 31
0.0
  0
LINE
  5
2E7
100
AcDbEntity
  8
2
370
    50
100
AcDbLine
 10
82.688221
 20
23.52505
 30
0.0
 11
82.988221
 21
23.82505
 31
0.0
  0
LINE
  5
2E8
100
AcDbEntity
  8
2
370
    50
100
AcDbLine
 10
135.388221
 20
60.32505
 30
0.0
 11
135.688221
 21
60.62505
 31
0.0
  0
LINE
  5
2E9
100
AcDbEntity
  8
2
370
    50
100
AcDbLine
 10
82.988221
 20
60.32505
 30
0.0
 11
82.688221
 21
60.62505
 31
0.0
  0
LINE
  5
2EA
100
AcDbEntity
  8
2
370
    50
100
AcDbLine
 10
82.688221
 20
23.82505
 30
0.0
 11
82.688221
 21
24.82505
 31
0.0
  0
LINE
  5
2EB
100
AcDbEntity
  8
2
370
    50
100
AcDbLine
 10
135.687577
 20
59.825741
 30
0.0
 11
135.687577
 21
24.825741
 31
0.0
  0
LINE
  5
2EC
100
AcDbEntity
  8
2
370
    50
100
AcDbLine
 10
135.687577
 20
24.825741
 30
0.0
 11
128.688221
 21
24.825741
 31
0.0
  0
LINE
  5
2ED
100
AcDbEntity
  8
2
370
    50
100
AcDbLine
 10
82.688221
 20
24.825741
 30
0.0
 11
89.688221
 21
24.825741
 31
0.0
  0
LINE
  5
2EE
100
AcDbEntity
  8
2
370
    50
100
AcDbLine
 10
89.688221
 20
24.825741
 30
0.0
 11
135.687577
 21
24.825741
 31
0.0
  0
LINE
  5
2EF
100
AcDbEntity
  8
2
370
    50
100
AcDbLine
 10
135.688221
 20
23.82505
 30
0.0
 11
135.688221
 21
24.82505
 31
0.0
  0
LINE
  5
2F0
100
AcDbEntity
  8
2
370
    50
100
AcDbLine
 10
82.687577
 20
59.825741
 30
0.0
 11
109.188221
 21
59.825741
 31
0.0
  0
LINE
  5
2F1
100
AcDbEntity
  8
2
370
    50
100
AcDbLine
 10
109.188221
 20
59.825741
 30
0.0
 11
135.687577
 21
59.825741
 31
0.0
  0
ARC
  5
2F2
100
AcDbEntity
  8
2
370
    50
100
AcDbCircle
 10
82.888221
 20
101.21723
 30
0.0
 40
0.2
100
AcDbArc
 50
100.0
 51
180.0
  0
LINE
  5
2F3
100
AcDbEntity
  8
2
370
    50
100
AcDbLine
 10
82.853491
 20
101.414191
 30
0.0
 11
85.02295
 21
101.796725
 31
0.0
  0
ARC
  5
2F4
100
AcDbEntity
  8
2
370
    50
100
AcDbCircle
 10
84.988221
 20
101.993687
 30
0.0
 40
0.2
100
AcDbArc
 50
280.0
 51
360.0
  0
ARC
  5
2F5
100
AcDbEntity
  8
2
370
    50
100
AcDbCircle
 10
135.488221
 20
101.21723
 30
0.0
 40
0.2
100
AcDbArc
 50
0.0
 51
80.0
  0
LINE
  5
2F6
100
AcDbEntity
  8
2
370
    50
100
AcDbLine
 10
135.52295
 20
101.414191
 30
0.0
 11
133.353491
 21
101.796725
 31
0.0
  0
ARC
  5
2F7
100
AcDbEntity
  8
2
370
    50
100
AcDbCircle
 10
133.388221
 20
101.993687
 30
0.0
 40
0.2
100
AcDbArc
 50
180.0
 51
260.0
  0
LINE
  5
2F8
100
AcDbEntity
  8
2
370
    50
100
AcDbLine
 10
83.188221
 20
10.824621
 30
0.0
 11
83.188221
 21
7.824621
 31
0.0
  0
LINE
  5
2F9
100
AcDbEntity
  8
2
370
    50
100
AcDbLine
 10
135.188221
 20
10.824621
 30
0.0
 11
135.188221
 21
7.824621
 31
0.0
  0
LINE
  5
2FA
100
AcDbEntity
  8
2
370
    50
100
AcDbLine
 10
82.988221
 20
10.824621
 30
0.0
 11
135.387792
 21
10.824621
 31
0.0
  0
LINE
  5
2FB
100
AcDbEntity
  8
2
370
    50
100
AcDbLine
 10
103.188221
 20
-36.786704
 30
0.0
 11
103.188221
 21
-31.464054
 31
0.0
  0
LINE
  5
2FC
100
AcDbEntity
  8
2
370
    50
100
AcDbLine
 10
115.188221
 20
-36.786704
 30
0.0
 11
115.188221
 21
-31.464054
 31
0.0
  0
LINE
  5
2FD
100
AcDbEntity
  8
2
370
    50
100
AcDbLine
 10
114.988221
 20
-37.075379
 30
0.0
 11
103.388221
 21
-37.075379
 31
0.0
  0
LINE
  5
2FE
100
AcDbEntity
  8
2
370
    50
100
AcDbLine
 10
111.586136
 20
-31.464054
 30
0.0
 11
111.586136
 21
-36.786704
 31
0.0
  0
LINE
  5
2FF
100
AcDbEntity
  8
2
370
    50
100
AcDbLine
 10
112.752402
 20
-31.464054
 30
0.0
 11
112.752402
 21
-36.786704
 31
0.0
  0
LINE
  5
300
100
AcDbEntity
  8
2
370
    50
100
AcDbLine
 10
115.150318
 20
-31.464054
 30
0.0
 11
115.150318
 21
-36.786704
 31
0.0
  0
LINE
  5
301
100
AcDbEntity
  8
2
370
    50
100
AcDbLine
 10
114.688221
 20
-37.075379
 30
0.0
 11
115.188221
 21
-36.786704
 31
0.0
  0
LINE
  5
302
100
AcDbEntity
  8
2
370
    50
100
AcDbLine
 10
112.752402
 20
-36.786704
 30
0.0
 11
111.586136
 21
-36.786704
 31
0.0
  0
LINE
  5
303
100
AcDbEntity
  8
2
370
    50
100
AcDbLine
 10
103.188221
 20
-36.786704
 30
0.0
 11
103.688221
 21
-37.075379
 31
0.0
  0
LINE
  5
304
100
AcDbEntity
  8
2
370
    50
100
AcDbLine
 10
103.188221
 20
-31.464054
 30
0.0
 11
103.688221
 21
-31.175379
 31
0.0
  0
ARC
  5
305
100
AcDbEntity
  8
2
370
    50
100
AcDbCircle
 10
109.188221
 20
-26.971749
 30
0.0
 40
10.10363
100
AcDbArc
 50
270.0
 51
283.729133
  0
ARC
  5
306
100
AcDbEntity
  8
2
370
    50
100
AcDbCircle
 10
109.188221
 20
-41.279009
 30
0.0
 40
10.10363
100
AcDbArc
 50
76.270867
 51
90.0
  0
LINE
  5
307
100
AcDbEntity
  8
2
370
    50
100
AcDbLine
 10
112.752402
 20
-31.464054
 30
0.0
 11
111.586136
 21
-31.464054
 31
0.0
  0
LINE
  5
308
100
AcDbEntity
  8
2
370
    50
100
AcDbLine
 10
115.188221
 20
-36.786704
 30
0.0
 11
115.150318
 21
-36.786704
 31
0.0
  0
ARC
  5
309
100
AcDbEntity
  8
2
370
    50
100
AcDbCircle
 10
113.95136
 20
-34.441219
 30
0.0
 40
2.634161
100
AcDbArc
 50
242.924933
 51
297.075067
  0
ARC
  5
30A
100
AcDbEntity
  8
2
370
    50
100
AcDbCircle
 10
113.95136
 20
-33.80954
 30
0.0
 40
2.634161
100
AcDbArc
 50
62.924933
 51
117.075067
  0
LINE
  5
30B
100
AcDbEntity
  8
2
370
    50
100
AcDbLine
 10
114.688221
 20
-31.175379
 30
0.0
 11
115.188221
 21
-31.464054
 31
0.0
  0
LINE
  5
30C
100
AcDbEntity
  8
2
370
    50
100
AcDbLine
 10
102.688221
 20
-54.075379
 30
0.0
 11
115.688221
 21
-54.075379
 31
0.0
  0
LINE
  5
30D
100
AcDbEntity
  8
2
370
    50
100
AcDbLine
 10
102.688221
 20
-54.075379
 30
0.0
 11
102.688221
 21
-41.575379
 31
0.0
  0
LINE
  5
30E
100
AcDbEntity
  8
2
370
    50
100
AcDbLine
 10
115.688221
 20
-54.075379
 30
0.0
 11
115.688221
 21
-41.575379
 31
0.0
  0
LINE
  5
30F
100
AcDbEntity
  8
2
370
    50
100
AcDbLine
 10
105.31389
 20
-40.075379
 30
0.0
 11
105.31389
 21
-37.575379
 31
0.0
  0
LINE
  5
310
100
AcDbEntity
  8
2
370
    50
100
AcDbLine
 10
104.606784
 20
-40.075379
 30
0.0
 11
104.606784
 21
-37.575379
 31
0.0
  0
LINE
  5
311
100
AcDbEntity
  8
2
370
    50
100
AcDbLine
 10
103.20909
 20
-40.075379
 30
0.0
 11
103.20909
 21
-37.575379
 31
0.0
  0
LINE
  5
312
100
AcDbEntity
  8
2
370
    50
100
AcDbLine
 10
103.188221
 20
-40.075379
 30
0.0
 11
103.188221
 21
-37.275379
 31
0.0
  0
LINE
  5
313
100
AcDbEntity
  8
2
370
    50
100
AcDbLine
 10
108.688221
 20
-40.075379
 30
0.0
 11
108.688221
 21
-37.575379
 31
0.0
  0
LINE
  5
314
100
AcDbEntity
  8
2
370
    50
100
AcDbLine
 10
109.688221
 20
-40.075379
 30
0.0
 11
109.688221
 21
-37.575379
 31
0.0
  0
LINE
  5
315
100
AcDbEntity
  8
2
370
    50
100
AcDbLine
 10
113.062551
 20
-40.075379
 30
0.0
 11
113.062551
 21
-37.575379
 31
0.0
  0
LINE
  5
316
100
AcDbEntity
  8
2
370
    50
100
AcDbLine
 10
113.769658
 20
-40.075379
 30
0.0
 11
113.769658
 21
-37.575379
 31
0.0
  0
LINE
  5
317
100
AcDbEntity
  8
2
370
    50
100
AcDbLine
 10
115.188221
 20
-40.075379
 30
0.0
 11
115.188221
 21
-37.275379
 31
0.0
  0
LINE
  5
318
100
AcDbEntity
  8
2
370
    50
100
AcDbLine
 10
115.167351
 20
-40.075379
 30
0.0
 11
115.167351
 21
-37.575379
 31
0.0
  0
LINE
  5
319
100
AcDbEntity
  8
2
370
    50
100
AcDbLine
 10
104.606784
 20
-37.575379
 30
0.0
 11
103.188221
 21
-37.575379
 31
0.0
  0
LINE
  5
31A
100
AcDbEntity
  8
2
370
    50
100
AcDbLine
 10
108.688221
 20
-37.575379
 30
0.0
 11
105.31389
 21
-37.575379
 31
0.0
  0
LINE
  5
31B
100
AcDbEntity
  8
2
370
    50
100
AcDbLine
 10
115.188221
 20
-37.575379
 30
0.0
 11
113.769658
 21
-37.575379
 31
0.0
  0
LINE
  5
31C
100
AcDbEntity
  8
2
370
    50
100
AcDbLine
 10
113.062551
 20
-37.575379
 30
0.0
 11
109.688221
 21
-37.575379
 31
0.0
  0
LINE
  5
31D
100
AcDbEntity
  8
2
370
    50
100
AcDbLine
 10
104.606784
 20
-40.075379
 30
0.0
 11
103.188221
 21
-40.075379
 31
0.0
  0
LINE
  5
31E
100
AcDbEntity
  8
2
370
    50
100
AcDbLine
 10
108.688221
 20
-40.075379
 30
0.0
 11
105.31389
 21
-40.075379
 31
0.0
  0
LINE
  5
31F
100
AcDbEntity
  8
2
370
    50
100
AcDbLine
 10
115.188221
 20
-40.075379
 30
0.0
 11
113.769658
 21
-40.075379
 31
0.0
  0
LINE
  5
320
100
AcDbEntity
  8
2
370
    50
100
AcDbLine
 10
113.062551
 20
-40.075379
 30
0.0
 11
109.688221
 21
-40.075379
 31
0.0
  0
ARC
  5
321
100
AcDbEntity
  8
2
370
    50
100
AcDbCircle
 10
114.988221
 20
-37.275379
 30
0.0
 40
0.2
100
AcDbArc
 50
0.0
 51
90.0
  0
ARC
  5
322
100
AcDbEntity
  8
2
370
    50
100
AcDbCircle
 10
103.388221
 20
-37.275379
 30
0.0
 40
0.2
100
AcDbArc
 50
90.0
 51
180.0
  0
ARC
  5
323
100
AcDbEntity
  8
2
370
    50
100
AcDbCircle
 10
105.188221
 20
-41.575379
 30
0.0
 40
2.5
100
AcDbArc
 50
143.130102
 51
180.0
  0
ARC
  5
324
100
AcDbEntity
  8
2
370
    50
100
AcDbCircle
 10
113.188221
 20
-41.575379
 30
0.0
 40
2.5
100
AcDbArc
 50
0.0
 51
36.869898
  0
LINE
  5
325
100
AcDbEntity
  8
2
370
    25
100
AcDbLine
 10
102.70748
 20
-54.075379
 30
0.0
 11
102.70748
 21
-41.575379
 31
0.0
  0
LINE
  5
326
100
AcDbEntity
  8
2
370
    25
100
AcDbLine
 10
104.252092
 20
-54.075379
 30
0.0
 11
104.252092
 21
-41.575379
 31
0.0
  0
LINE
  5
327
100
AcDbEntity
  8
2
370
    25
100
AcDbLine
 10
104.959198
 20
-54.075379
 30
0.0
 11
104.959198
 21
-41.575379
 31
0.0
  0
LINE
  5
328
100
AcDbEntity
  8
2
370
    25
100
AcDbLine
 10
108.688221
 20
-54.075379
 30
0.0
 11
108.688221
 21
-41.575379
 31
0.0
  0
LINE
  5
329
100
AcDbEntity
  8
2
370
    25
100
AcDbLine
 10
109.688221
 20
-54.075379
 30
0.0
 11
109.688221
 21
-41.575379
 31
0.0
  0
LINE
  5
32A
100
AcDbEntity
  8
2
370
    25
100
AcDbLine
 10
113.417243
 20
-54.075379
 30
0.0
 11
113.417243
 21
-41.575379
 31
0.0
  0
LINE
  5
32B
100
AcDbEntity
  8
2
370
    25
100
AcDbLine
 10
114.12435
 20
-54.075379
 30
0.0
 11
114.12435
 21
-41.575379
 31
0.0
  0
LINE
  5
32C
100
AcDbEntity
  8
2
370
    25
100
AcDbLine
 10
115.668961
 20
-54.075379
 30
0.0
 11
115.668961
 21
-41.575379
 31
0.0
  0
ARC
  5
32D
100
AcDbEntity
  8
2
370
    50
100
AcDbCircle
 10
109.188221
 20
-26.971749
 30
0.0
 40
10.10363
100
AcDbArc
 50
256.270867
 51
270.0
  0
LINE
  5
32E
100
AcDbEntity
  8
2
370
    50
100
AcDbLine
 10
105.624039
 20
-36.786704
 30
0.0
 11
106.790305
 21
-36.786704
 31
0.0
  0
LINE
  5
32F
100
AcDbEntity
  8
2
370
    50
100
AcDbLine
 10
106.790305
 20
-31.464054
 30
0.0
 11
106.790305
 21
-36.786704
 31
0.0
  0
LINE
  5
330
100
AcDbEntity
  8
2
370
    50
100
AcDbLine
 10
105.624038
 20
-31.464054
 30
0.0
 11
105.624039
 21
-36.786704
 31
0.0
  0
ARC
  5
331
100
AcDbEntity
  8
2
370
    50
100
AcDbCircle
 10
104.425081
 20
-34.441219
 30
0.0
 40
2.634161
100
AcDbArc
 50
242.924933
 51
297.075067
  0
LINE
  5
332
100
AcDbEntity
  8
2
370
    50
100
AcDbLine
 10
103.438221
 20
-84.075379
 30
0.0
 11
103.438221
 21
-54.075379
 31
0.0
  0
LINE
  5
333
100
AcDbEntity
  8
2
370
    50
100
AcDbLine
 10
114.938221
 20
-84.075379
 30
0.0
 11
114.938221
 21
-54.075379
 31
0.0
  0
LINE
  5
334
100
AcDbEntity
  8
2
370
    50
100
AcDbLine
 10
103.226123
 20
-34.372417
 30
0.0
 11
103.226123
 21
-36.786704
 31
0.0
  0
LINE
  5
335
100
AcDbEntity
  8
2
370
    50
100
AcDbLine
 10
103.226123
 20
-36.786704
 30
0.0
 11
103.188221
 21
-36.786704
 31
0.0
  0
ARC
  5
336
100
AcDbEntity
  8
2
370
    50
100
AcDbCircle
 10
106.313221
 20
-80.242046
 30
0.0
 40
4.791667
100
AcDbArc
 50
233.130102
 51
306.869898
  0
ARC
  5
337
100
AcDbEntity
  8
2
370
    50
100
AcDbCircle
 10
112.063221
 20
-87.908712
 30
0.0
 40
4.791667
100
AcDbArc
 50
53.130102
 51
126.869898
  0
ARC
  5
338
100
AcDbEntity
  8
2
370
    50
100
AcDbCircle
 10
112.063221
 20
-80.242046
 30
0.0
 40
4.791667
100
AcDbArc
 50
233.130102
 51
306.869898
  0
LINE
  5
339
100
AcDbEntity
  8
2
370
    50
100
AcDbLine
 10
102.688221
 20
-124.122921
 30
0.0
 11
115.688221
 21
-124.122921
 31
0.0
  0
LINE
  5
33A
100
AcDbEntity
  8
2
370
    50
100
AcDbLine
 10
103.438221
 20
-124.122921
 30
0.0
 11
103.438221
 21
-89.223439
 31
0.0
  0
LINE
  5
33B
100
AcDbEntity
  8
2
370
    50
100
AcDbLine
 10
114.938221
 20
-124.122921
 30
0.0
 11
114.938221
 21
-89.075379
 31
0.0
  0
LINE
  5
33C
100
AcDbEntity
  8
2
370
    25
100
AcDbLine
 10
113.254085
 20
-115.439355
 30
0.0
 11
105.122357
 21
-107.307627
 31
0.0
  0
LINE
  5
33D
100
AcDbEntity
  8
2
370
    25
100
AcDbLine
 10
113.254085
 20
-107.307627
 30
0.0
 11
105.122357
 21
-115.439355
 31
0.0
  0
LINE
  5
33E
100
AcDbEntity
  8
2
370
    25
100
AcDbLine
 10
112.485018
 20
-116.084502
 30
0.0
 11
104.477209
 21
-108.076694
 31
0.0
  0
LINE
  5
33F
100
AcDbEntity
  8
2
370
    25
100
AcDbLine
 10
111.585995
 20
-116.599693
 30
0.0
 11
103.962019
 21
-108.975717
 31
0.0
  0
LINE
  5
340
100
AcDbEntity
  8
2
370
    25
100
AcDbLine
 10
110.535509
 20
-116.963421
 30
0.0
 11
103.598291
 21
-110.026202
 31
0.0
  0
LINE
  5
341
100
AcDbEntity
  8
2
370
    25
100
AcDbLine
 10
109.280624
 20
-117.122749
 30
0.0
 11
103.438963
 21
-111.281088
 31
0.0
  0
LINE
  5
342
100
AcDbEntity
  8
2
370
    25
100
AcDbLine
 10
107.660484
 20
-116.916823
 30
0.0
 11
103.644889
 21
-112.901228
 31
0.0
  0
LINE
  5
343
100
AcDbEntity
  8
2
370
    25
100
AcDbLine
 10
113.899232
 20
-114.670289
 30
0.0
 11
105.891423
 21
-106.66248
 31
0.0
  0
LINE
  5
344
100
AcDbEntity
  8
2
370
    25
100
AcDbLine
 10
114.414422
 20
-113.771265
 30
0.0
 11
106.790446
 21
-106.14729
 31
0.0
  0
LINE
  5
345
100
AcDbEntity
  8
2
370
    25
100
AcDbLine
 10
114.77815
 20
-112.72078
 30
0.0
 11
107.840932
 21
-105.783562
 31
0.0
  0
LINE
  5
346
100
AcDbEntity
  8
2
370
    25
100
AcDbLine
 10
114.937478
 20
-111.465895
 30
0.0
 11
109.095817
 21
-105.624234
 31
0.0
  0
LINE
  5
347
100
AcDbEntity
  8
2
370
    25
100
AcDbLine
 10
114.731552
 20
-109.845755
 30
0.0
 11
110.715957
 21
-105.83016
 31
0.0
  0
LINE
  5
348
100
AcDbEntity
  8
2
370
    25
100
AcDbLine
 10
112.485018
 20
-106.66248
 30
0.0
 11
104.477209
 21
-114.670289
 31
0.0
  0
LINE
  5
349
100
AcDbEntity
  8
2
370
    25
100
AcDbLine
 10
111.585995
 20
-106.14729
 30
0.0
 11
103.962019
 21
-113.771265
 31
0.0
  0
LINE
  5
34A
100
AcDbEntity
  8
2
370
    25
100
AcDbLine
 10
110.535509
 20
-105.783562
 30
0.0
 11
103.598291
 21
-112.72078
 31
0.0
  0
LINE
  5
34B
100
AcDbEntity
  8
2
370
    25
100
AcDbLine
 10
109.280624
 20
-105.624234
 30
0.0
 11
103.438963
 21
-111.465895
 31
0.0
  0
LINE
  5
34C
100
AcDbEntity
  8
2
370
    25
100
AcDbLine
 10
107.660484
 20
-105.83016
 30
0.0
 11
103.644889
 21
-109.845755
 31
0.0
  0
LINE
  5
34D
100
AcDbEntity
  8
2
370
    25
100
AcDbLine
 10
113.899232
 20
-108.076694
 30
0.0
 11
105.891423
 21
-116.084502
 31
0.0
  0
LINE
  5
34E
100
AcDbEntity
  8
2
370
    25
100
AcDbLine
 10
114.414422
 20
-108.975717
 30
0.0
 11
106.790446
 21
-116.599693
 31
0.0
  0
LINE
  5
34F
100
AcDbEntity
  8
2
370
    25
100
AcDbLine
 10
114.77815
 20
-110.026202
 30
0.0
 11
107.840932
 21
-116.963421
 31
0.0
  0
LINE
  5
350
100
AcDbEntity
  8
2
370
    25
100
AcDbLine
 10
114.937478
 20
-111.281088
 30
0.0
 11
109.095817
 21
-117.122749
 31
0.0
  0
LINE
  5
351
100
AcDbEntity
  8
2
370
    25
100
AcDbLine
 10
114.731552
 20
-112.901228
 30
0.0
 11
110.715957
 21
-116.916823
 31
0.0
  0
ARC
  5
352
100
AcDbEntity
  8
2
370
    50
100
AcDbCircle
 10
106.313221
 20
-85.304979
 30
0.0
 40
4.791667
100
AcDbArc
 50
233.130102
 51
306.869898
  0
ARC
  5
353
100
AcDbEntity
  8
2
370
    50
100
AcDbCircle
 10
112.063221
 20
-92.971646
 30
0.0
 40
4.791667
100
AcDbArc
 50
53.130102
 51
126.869898
  0
ARC
  5
354
100
AcDbEntity
  8
2
370
    50
100
AcDbCircle
 10
106.313221
 20
-92.971646
 30
0.0
 40
4.791667
100
AcDbArc
 50
53.130102
 51
126.869898
  0
ARC
  5
355
100
AcDbEntity
  8
2
370
    50
100
AcDbCircle
 10
84.988221
 20
101.993687
 30
0.0
 40
0.2
100
AcDbArc
 50
280.0
 51
360.0
  0
ARC
  5
356
100
AcDbEntity
  8
2
370
    50
100
AcDbCircle
 10
-6.995805
 20
169.019905
 30
0.0
 40
2.0
100
AcDbArc
 50
166.0
 51
261.006308
  0
ARC
  5
357
100
AcDbEntity
  8
2
370
    50
100
AcDbCircle
 10
-6.436442
 20
171.263389
 30
0.0
 40
2.0
100
AcDbArc
 50
102.484203
 51
166.0
  0
ARC
  5
358
100
AcDbEntity
  8
2
370
    50
100
AcDbCircle
 10
-85.471323
 20
-326.808284
 30
0.0
 40
500.0
100
AcDbArc
 50
71.19879
 51
79.450142
  0
ARC
  5
359
100
AcDbEntity
  8
2
370
    50
100
AcDbCircle
 10
14.743727
 20
187.726111
 30
0.0
 40
16.0
100
AcDbArc
 50
231.771799
 51
259.85705
  0
ARC
  5
35A
100
AcDbEntity
  8
2
370
    50
100
AcDbCircle
 10
-76.126288
 20
-320.209555
 30
0.0
 40
500.0
100
AcDbArc
 50
70.672743
 51
79.85705
  0
LINE
  5
35B
100
AcDbEntity
  8
2
370
    50
100
AcDbLine
 10
-8.377033
 20
171.747233
 30
0.0
 11
-8.936396
 21
169.503749
 31
0.0
  0
ARC
  5
35C
100
AcDbEntity
  8
2
370
    50
100
AcDbCircle
 10
16.909964
 20
65.81698
 30
0.0
 40
110.0
100
AcDbArc
 50
96.299884
 51
102.484203
  0
ARC
  5
35D
100
AcDbEntity
  8
2
370
    50
100
AcDbCircle
 10
-85.471323
 20
-326.808284
 30
0.0
 40
500.0
100
AcDbArc
 50
79.450142
 51
81.006308
  0
ARC
  5
35E
100
AcDbEntity
  8
2
370
    50
100
AcDbCircle
 10
71.506487
 20
134.61514
 30
0.0
 40
12.6
100
AcDbArc
 50
357.420853
 51
70.118315
  0
ARC
  5
35F
100
AcDbEntity
  8
2
370
    50
100
AcDbCircle
 10
-85.471323
 20
-326.808284
 30
0.0
 40
500.0
100
AcDbArc
 50
71.19879
 51
79.450142
  0
ARC
  5
360
100
AcDbEntity
  8
2
370
    50
100
AcDbCircle
 10
131.870988
 20
132.036847
 30
0.0
 40
2.5
100
AcDbArc
 50
2.579148
 51
54.184173
  0
ARC
  5
361
100
AcDbEntity
  8
2
370
    50
100
AcDbCircle
 10
94.74546
 20
149.406066
 30
0.0
 40
3.0
100
AcDbArc
 50
70.470338
 51
98.744647
  0
LINE
  5
362
100
AcDbEntity
  8
2
370
    50
100
AcDbLine
 10
135.177325
 20
114.192444
 30
0.0
 11
134.368455
 21
132.149346
 31
0.0
  0
ARC
  5
363
100
AcDbEntity
  8
2
370
    50
100
AcDbCircle
 10
-71.399068
 20
-319.000804
 30
0.0
 40
500.0
100
AcDbArc
 50
68.905627
 51
70.470338
  0
LINE
  5
364
100
AcDbEntity
  8
2
370
    50
100
AcDbLine
 10
88.90408
 20
151.542834
 30
0.0
 11
94.289367
 21
152.371194
 31
0.0
  0
ARC
  5
365
100
AcDbEntity
  8
2
370
    50
100
AcDbCircle
 10
94.74546
 20
149.406066
 30
0.0
 40
3.0
100
AcDbArc
 50
70.470338
 51
98.744647
  0
ARC
  5
366
100
AcDbEntity
  8
2
370
    50
100
AcDbCircle
 10
-76.126288
 20
-320.209555
 30
0.0
 40
500.0
100
AcDbArc
 50
65.168261
 51
70.672743
  0
ARC
  5
367
100
AcDbEntity
  8
2
370
    50
100
AcDbCircle
 10
68.963955
 20
44.864861
 30
0.0
 40
110.0
100
AcDbArc
 50
54.184173
 51
68.905627
  0
LINE
  5
368
100
AcDbEntity
  8
2
370
    50
100
AcDbLine
 10
109.167068
 20
102.848265
 30
0.0
 11
82.948317
 21
102.848265
 31
0.0
  0
ARC
  5
369
100
AcDbEntity
  8
2
370
    50
100
AcDbCircle
 10
83.002141
 20
103.148265
 30
0.0
 40
0.3
100
AcDbArc
 50
177.420853
 51
270.0
  0
LINE
  5
36A
100
AcDbEntity
  8
2
370
    50
100
AcDbLine
 10
82.702445
 20
103.161765
 30
0.0
 11
84.093724
 21
134.048147
 31
0.0
  0
LINE
  5
36B
100
AcDbEntity
  8
2
370
    50
100
AcDbLine
 10
111.07873
 20
103.254601
 30
0.0
 11
134.99965
 21
113.904881
 31
0.0
  0
LINE
  5
36C
100
AcDbEntity
  8
2
370
    50
100
AcDbLine
 10
135.177325
 20
114.192444
 30
0.0
 11
134.368455
 21
132.149346
 31
0.0
  0
LINE
  5
36D
100
AcDbEntity
  8
2
370
    50
100
AcDbLine
 10
82.688221
 20
101.21723
 30
0.0
 11
135.688221
 21
101.21723
 31
0.0
  0
LINE
  5
36E
100
AcDbEntity
  8
2
370
    25
100
AcDbLine
 10
86.845435
 20
101.796725
 30
0.0
 11
131.579268
 21
101.796725
 31
0.0
  0
ARC
  5
36F
100
AcDbEntity
  8
2
370
    50
100
AcDbCircle
 10
109.167068
 20
107.548265
 30
0.0
 40
4.7
100
AcDbArc
 50
270.0
 51
294.0
  0
ARC
  5
370
100
AcDbEntity
  8
2
370
    50
100
AcDbCircle
 10
62.951513
 20
108.580962
 30
0.0
 40
40.0
100
AcDbArc
 50
25.137327
 51
71.276635
  0
LINE
  5
371
100
AcDbEntity
  8
2
370
    50
100
AcDbLine
 10
109.805637
 20
102.891847
 30
0.0
 11
99.163203
 21
125.572534
 31
0.0
  0
LINE
  5
372
100
AcDbEntity
  8
2
370
    50
100
AcDbLine
 10
133.188221
 20
108.424621
 30
0.0
 11
133.188221
 21
101.993687
 31
0.0
  0
ARC
  5
373
100
AcDbEntity
  8
2
370
    50
100
AcDbCircle
 10
109.188221
 20
108.424621
 30
0.0
 40
24.0
100
AcDbArc
 50
0.0
 51
10.309863
  0
ARC
  5
374
100
AcDbEntity
  8
2
370
    25
  6
DASHED
100
AcDbCircle
 10
27.20707
 20
211.141213
 30
0.0
 40
2.0
100
AcDbArc
 50
142.0
 51
237.006308
  0
ARC
  5
375
100
AcDbEntity
  8
2
370
    25
  6
DASHED
100
AcDbCircle
 10
28.630581
 20
212.963225
 30
0.0
 40
2.0
100
AcDbArc
 50
78.484203
 51
142.0
  0
ARC
  5
376
100
AcDbEntity
  8
2
370
    25
  6
DASHED
100
AcDbCircle
 10
-246.155376
 20
-209.901508
 30
0.0
 40
500.0
100
AcDbArc
 50
47.19879
 51
55.450142
  0
ARC
  5
377
100
AcDbEntity
  8
2
370
    25
  6
DASHED
100
AcDbCircle
 10
54.67562
 20
219.387919
 30
0.0
 40
16.0
100
AcDbArc
 50
207.771799
 51
235.85705
  0
ARC
  5
378
100
AcDbEntity
  8
2
370
    25
  6
DASHED
100
AcDbCircle
 10
-234.934317
 20
-207.674236
 30
0.0
 40
500.0
100
AcDbArc
 50
46.672743
 51
55.85705
  0
LINE
  5
379
100
AcDbEntity
  8
2
370
    25
  6
DASHED
100
AcDbLine
 10
27.05456
 20
214.194548
 30
0.0
 11
25.631048
 21
212.372536
 31
0.0
  0
ARC
  5
37A
100
AcDbEntity
  8
2
370
    25
  6
DASHED
100
AcDbCircle
 10
7.069666
 20
107.137298
 30
0.0
 40
110.0
100
AcDbArc
 50
72.299884
 51
78.484203
  0
ARC
  5
37B
100
AcDbEntity
  8
2
370
    25
  6
DASHED
100
AcDbCircle
 10
-246.155376
 20
-209.901508
 30
0.0
 40
500.0
100
AcDbArc
 50
55.450142
 51
57.006308
  0
ARC
  5
37C
100
AcDbEntity
  8
2
370
    25
  6
DASHED
100
AcDbCircle
 10
-246.155376
 20
-209.901508
 30
0.0
 40
500.0
100
AcDbArc
 50
47.19879
 51
55.450142
  0
LINE
  5
37D
100
AcDbEntity
  8
2
370
    50
100
AcDbLine
 10
-120.814564
 20
167.893259
 30
0.0
 11
-173.966451
 21
180.164339
 31
0.0
  0
LINE
  5
37E
100
AcDbEntity
  8
2
370
    50
100
AcDbLine
 10
-168.11487
 20
205.18941
 30
0.0
 11
-162.830681
 21
203.969459
 31
0.0
  0
ELLIPSE
  5
37F
100
AcDbEntity
  8
2
370
    50
100
AcDbEllipse
 10
-165.310986
 20
198.385103
 30
0.0
 11
1.3946970000000001
 21
6.0410940000000002
 31
0.0
210
0.0
220
0.0
230
1.0
 40
0.741452
 41
3.3962810000000001
 42
6.0279699999999998
  0
LINE
  5
380
100
AcDbEntity
  8
2
370
    50
100
AcDbLine
 10
-172.809941
 20
193.958549
 30
0.0
 11
-165.532192
 21
192.278348
 31
0.0
  0
LINE
  5
381
100
AcDbEntity
  8
2
370
    25
100
AcDbLine
 10
-117.071706
 20
187.561087
 30
0.0
 11
-119.826291
 21
172.256443
 31
0.0
  0
LINE
  5
382
100
AcDbEntity
  8
2
370
    50
100
AcDbLine
 10
-173.811425
 20
179.615396
 30
0.0
 11
-121.195441
 21
167.468039
 31
0.0
  0
LINE
  5
383
100
AcDbEntity
  8
2
370
    25
100
AcDbLine
 10
-175.948467
 20
170.358882
 30
0.0
 11
-123.332469
 21
158.211522
 31
0.0
  0
LINE
  5
384
100
AcDbEntity
  8
2
370
    25
  6
CENTER
100
AcDbLine
 10
-151.870893
 20
154.6222
 30
0.0
 11
-155.560089
 21
138.642533
 31
0.0
  0
ARC
  5
385
100
AcDbEntity
  8
2
370
    50
100
AcDbCircle
 10
-262.851545
 20
198.189501
 30
0.0
 40
18.0
100
AcDbArc
 50
101.173022
 51
183.96769
  0
ARC
  5
386
100
AcDbEntity
  8
2
370
    50
100
AcDbCircle
 10
-242.69921
 20
198.189501
 30
0.0
 40
18.0
100
AcDbArc
 50
356.03231
 51
78.826978
  0
ARC
  5
387
100
AcDbEntity
  8
2
370
    50
100
AcDbCircle
 10
-252.775377
 20
147.175083
 30
0.0
 40
70.0
100
AcDbArc
 50
78.826978
 51
101.173022
  0
ARC
  5
388
100
AcDbEntity
  8
2
370
    25
100
AcDbCircle
 10
-262.542529
 20
193.734264
 30
0.0
 40
18.0
100
AcDbArc
 50
100.826163
 51
150.335198
  0
ARC
  5
389
100
AcDbEntity
  8
2
370
    25
100
AcDbCircle
 10
-252.775377
 20
142.659781
 30
0.0
 40
70.0
100
AcDbArc
 50
78.934981
 51
100.826163
  0
ARC
  5
38A
100
AcDbEntity
  8
2
370
    25
100
AcDbCircle
 10
-243.008226
 20
193.734264
 30
0.0
 40
18.0
100
AcDbArc
 50
29.664802
 51
79.173837
  0
ARC
  5
38B
100
AcDbEntity
  8
2
370
    25
100
AcDbCircle
 10
-237.981002
 20
205.343617
 30
0.0
 40
2.931315
100
AcDbArc
 50
29.41548
 51
77.256579
  0
ARC
  5
38C
100
AcDbEntity
  8
2
370
    25
100
AcDbCircle
 10
-267.569752
 20
205.343617
 30
0.0
 40
2.931315
100
AcDbArc
 50
102.743421
 51
150.586387
  0
ARC
  5
38D
100
AcDbEntity
  8
2
370
    50
100
AcDbCircle
 10
1269.679225
 20
67.699473
 30
0.0
 40
1500.0
100
AcDbArc
 50
175.057093
 51
175.53843
  0
ARC
  5
38E
100
AcDbEntity
  8
2
370
    50
100
AcDbCircle
 10
-1775.22998
 20
67.699473
 30
0.0
 40
1500.0
100
AcDbArc
 50
4.46157
 51
4.942907
  0
LINE
  5
38F
100
AcDbEntity
  8
2
370
    50
100
AcDbLine
 10
-277.786159
 20
135.546046
 30
0.0
 11
-279.275377
 21
105.04751
 31
0.0
  0
ARC
  5
390
100
AcDbEntity
  8
2
370
    50
100
AcDbCircle
 10
-477.548155
 20
145.300261
 30
0.0
 40
200.0
100
AcDbArc
 50
357.204514
 51
2.808057
  0
ARC
  5
391
100
AcDbEntity
  8
2
370
    50
100
AcDbCircle
 10
-28.002599
 20
145.300261
 30
0.0
 40
200.0
100
AcDbArc
 50
177.191943
 51
182.795486
  0
LINE
  5
392
100
AcDbEntity
  8
2
370
    50
100
AcDbLine
 10
-226.275377
 20
105.04751
 30
0.0
 11
-227.764596
 21
135.546046
 31
0.0
  0
ARC
  5
393
100
AcDbEntity
  8
2
370
    25
100
AcDbCircle
 10
-252.775377
 20
139.92699
 30
0.0
 40
70.0
100
AcDbArc
 50
77.256579
 51
102.743421
  0
LINE
  5
394
100
AcDbEntity
  8
2
370
    50
100
AcDbLine
 10
83.188221
 20
7.82505
 30
0.0
 11
135.188221
 21
7.82505
 31
0.0
  0
LINE
  5
395
100
AcDbEntity
  8
2
370
    50
100
AcDbLine
 10
135.388221
 20
10.82505
 30
0.0
 11
135.688221
 21
11.12505
 31
0.0
  0
LINE
  5
396
100
AcDbEntity
  8
2
370
    50
100
AcDbLine
 10
82.988221
 20
10.824621
 30
0.0
 11
82.688221
 21
11.124621
 31
0.0
  0
LINE
  5
397
100
AcDbEntity
  8
2
370
    50
100
AcDbLine
 10
91.688221
 20
-30.37495
 30
0.0
 11
91.688221
 21
-20.62423
 31
0.0
  0
LINE
  5
398
100
AcDbEntity
  8
2
370
    50
100
AcDbLine
 10
92.488221
 20
-5.17495
 30
0.0
 11
92.488221
 21
-3.624083
 31
0.0
  0
LINE
  5
399
100
AcDbEntity
  8
2
370
    25
100
AcDbLine
 10
92.488221
 20
6.22505
 30
0.0
 11
92.488221
 21
-5.17495
 31
0.0
  0
LINE
  5
39A
100
AcDbEntity
  8
2
370
    25
100
AcDbLine
 10
92.488221
 20
-20.62423
 30
0.0
 11
92.488221
 21
-31.17495
 31
0.0
  0
LINE
  5
39B
100
AcDbEntity
  8
2
370
    50
100
AcDbLine
 10
126.688221
 20
-30.37495
 30
0.0
 11
126.688221
 21
-20.62423
 31
0.0
  0
LINE
  5
39C
100
AcDbEntity
  8
2
370
    50
100
AcDbLine
 10
136.776221
 20
-6.83023
 30
0.0
 11
136.776221
 21
-5.17495
 31
0.0
  0
LINE
  5
39D
100
AcDbEntity
  8
2
370
    50
100
AcDbLine
 10
81.600221
 20
-6.83023
 30
0.0
 11
81.600221
 21
-5.17495
 31
0.0
  0
LINE
  5
39E
100
AcDbEntity
  8
2
370
    50
100
AcDbLine
 10
136.776221
 20
-6.83023
 30
0.0
 11
81.600221
 21
-6.83023
 31
0.0
  0
LINE
  5
39F
100
AcDbEntity
  8
2
370
    50
100
AcDbLine
 10
136.776221
 20
-6.83023
 30
0.0
 11
126.844541
 21
-6.83023
 31
0.0
  0
LINE
  5
3A0
100
AcDbEntity
  8
2
370
    50
100
AcDbLine
 10
81.600221
 20
-5.17495
 30
0.0
 11
136.776221
 21
-5.17495
 31
0.0
  0
LINE
  5
3A1
100
AcDbEntity
  8
2
370
    50
100
AcDbLine
 10
80.496701
 20
-19.419285
 30
0.0
 11
80.496701
 21
-7.38199
 31
0.0
  0
LINE
  5
3A2
100
AcDbEntity
  8
2
370
    50
100
AcDbLine
 10
137.879741
 20
-7.38199
 30
0.0
 11
80.496701
 21
-7.38199
 31
0.0
  0
LINE
  5
3A3
100
AcDbEntity
  8
2
370
    50
100
AcDbLine
 10
83.807261
 20
-20.62423
 30
0.0
 11
80.496701
 21
-19.419285
 31
0.0
  0
ARC
  5
3A4
100
AcDbEntity
  8
2
370
    50
100
AcDbCircle
 10
87.19705
 20
-1.392415
 30
0.0
 40
19.231816
100
AcDbArc
 50
249.610566
 51
290.389434
  0
LINE
  5
3A5
100
AcDbEntity
  8
2
370
    50
100
AcDbLine
 10
93.897399
 20
-9.58903
 30
0.0
 11
80.496701
 21
-9.58903
 31
0.0
  0
LINE
  5
3A6
100
AcDbEntity
  8
2
370
    50
100
AcDbLine
 10
81.600221
 20
-7.38199
 30
0.0
 11
81.600221
 21
-5.17495
 31
0.0
  0
LINE
  5
3A7
100
AcDbEntity
  8
2
370
    50
100
AcDbLine
 10
134.569181
 20
-20.62423
 30
0.0
 11
83.807261
 21
-20.62423
 31
0.0
  0
LINE
  5
3A8
100
AcDbEntity
  8
2
370
    50
100
AcDbLine
 10
95.808752
 20
-19.419285
 30
0.0
 11
95.808752
 21
-9.58903
 31
0.0
  0
LINE
  5
3A9
100
AcDbEntity
  8
2
370
    50
100
AcDbLine
 10
93.897399
 20
-19.419285
 30
0.0
 11
93.897399
 21
-9.58903
 31
0.0
  0
LINE
  5
3AA
100
AcDbEntity
  8
2
370
    50
100
AcDbLine
 10
122.56769
 20
-19.419285
 30
0.0
 11
122.56769
 21
-9.58903
 31
0.0
  0
LINE
  5
3AB
100
AcDbEntity
  8
2
370
    50
100
AcDbLine
 10
124.479042
 20
-19.419285
 30
0.0
 11
124.479042
 21
-9.58903
 31
0.0
  0
LINE
  5
3AC
100
AcDbEntity
  8
2
370
    50
100
AcDbLine
 10
93.897399
 20
-9.58903
 30
0.0
 11
80.496701
 21
-9.58903
 31
0.0
  0
LINE
  5
3AD
100
AcDbEntity
  8
2
370
    50
100
AcDbLine
 10
137.879741
 20
-9.58903
 30
0.0
 11
124.479042
 21
-9.58903
 31
0.0
  0
LINE
  5
3AE
100
AcDbEntity
  8
2
370
    50
100
AcDbLine
 10
122.56769
 20
-9.58903
 30
0.0
 11
95.808752
 21
-9.58903
 31
0.0
  0
LINE
  5
3AF
100
AcDbEntity
  8
2
370
    50
100
AcDbLine
 10
95.808752
 20
-19.419285
 30
0.0
 11
93.897399
 21
-19.419285
 31
0.0
  0
ARC
  5
3B0
100
AcDbEntity
  8
2
370
    50
100
AcDbCircle
 10
109.188221
 20
54.259701
 30
0.0
 40
74.883932
100
AcDbArc
 50
259.707733
 51
280.292267
  0
LINE
  5
3B1
100
AcDbEntity
  8
2
370
    50
100
AcDbLine
 10
124.479042
 20
-19.419285
 30
0.0
 11
122.56769
 21
-19.419285
 31
0.0
  0
ARC
  5
3B2
100
AcDbEntity
  8
2
370
    50
100
AcDbCircle
 10
131.179391
 20
-1.392415
 30
0.0
 40
19.231816
100
AcDbArc
 50
249.610566
 51
290.389434
  0
LINE
  5
3B3
100
AcDbEntity
  8
2
370
    50
100
AcDbLine
 10
134.569181
 20
-20.62423
 30
0.0
 11
137.879741
 21
-19.419285
 31
0.0
  0
LINE
  5
3B4
100
AcDbEntity
  8
2
370
    50
100
AcDbLine
 10
137.879741
 20
-19.419285
 30
0.0
 11
137.879741
 21
-7.38199
 31
0.0
  0
LINE
  5
3B5
100
AcDbEntity
  8
2
370
    50
100
AcDbLine
 10
136.776221
 20
-7.38199
 30
0.0
 11
136.776221
 21
-5.17495
 31
0.0
  0
LINE
  5
3B6
100
AcDbEntity
  8
2
370
    50
100
AcDbLine
 10
91.688221
 20
-30.37495
 30
0.0
 11
91.688221
 21
-20.62423
 31
0.0
  0
LINE
  5
3B7
100
AcDbEntity
  8
2
370
    50
100
AcDbLine
 10
92.488221
 20
-5.17495
 30
0.0
 11
92.488221
 21
-3.624083
 31
0.0
  0
LINE
  5
3B8
100
AcDbEntity
  8
2
370
    25
100
AcDbLine
 10
92.488221
 20
6.22505
 30
0.0
 11
92.488221
 21
-5.17495
 31
0.0
  0
LINE
  5
3B9
100
AcDbEntity
  8
2
370
    25
100
AcDbLine
 10
92.488221
 20
-20.62423
 30
0.0
 11
92.488221
 21
-31.17495
 31
0.0
  0
LINE
  5
3BA
100
AcDbEntity
  8
2
370
    50
100
AcDbLine
 10
126.688221
 20
-30.37495
 30
0.0
 11
126.688221
 21
-20.62423
 31
0.0
  0
LINE
  5
3BB
100
AcDbEntity
  8
2
370
    50
100
AcDbLine
 10
91.688221
 20
-30.382379
 30
0.0
 11
91.688221
 21
-20.62423
 31
0.0
  0
LINE
  5
3BC
100
AcDbEntity
  8
2
370
    50
100
AcDbLine
 10
91.688221
 20
-5.17495
 30
0.0
 11
91.688221
 21
7.824621
 31
0.0
  0
LINE
  5
3BD
100
AcDbEntity
  8
2
370
    25
100
AcDbLine
 10
92.481221
 20
-31.175379
 30
0.0
 11
92.481221
 21
-20.62423
 31
0.0
  0
LINE
  5
3BE
100
AcDbEntity
  8
2
370
    25
100
AcDbLine
 10
92.481221
 20
-5.17495
 30
0.0
 11
92.481221
 21
7.824621
 31
0.0
  0
LINE
  5
3BF
100
AcDbEntity
  8
2
370
    25
100
AcDbLine
 10
125.895221
 20
-31.175379
 30
0.0
 11
125.895221
 21
-20.62423
 31
0.0
  0
LINE
  5
3C0
100
AcDbEntity
  8
2
370
    25
100
AcDbLine
 10
125.895221
 20
-5.17495
 30
0.0
 11
125.895221
 21
7.824621
 31
0.0
  0
LINE
  5
3C1
100
AcDbEntity
  8
2
370
    50
100
AcDbLine
 10
126.688221
 20
-30.382379
 30
0.0
 11
126.688221
 21
-20.62423
 31
0.0
  0
LINE
  5
3C2
100
AcDbEntity
  8
2
370
    50
100
AcDbLine
 10
126.688221
 20
-5.17495
 30
0.0
 11
126.688221
 21
7.824621
 31
0.0
  0
DIMENSION
  5
3C3
100
AcDbEntity
  8
2
370
    25
100
AcDbDimension
  2
*D0
 10
-176.234757
 20
150.35161
 30
0.0
 11
-178.734757
 21
80.588115
 31
0.0
 71
     0
 72
     0
 41
0.0
 42
0.0
  3
Standard
100
AcDbAlignedDimension
 13
82.988221
 23
10.824621
 33
0.0
 14
-152.856836
 24
150.35161
 34
0.0
 50
90.0
100
AcDbRotatedDimension
  0
LINE
  5
3C4
100
AcDbEntity
  8
2
370
    50
100
AcDbLine
 10
102.68822
 20
-124.123377
 30
0.0
 11
115.68822
 21
-124.123377
 31
0.0
  0
LINE
  5
3C5
100
AcDbEntity
  8
2
370
    50
100
AcDbLine
 10
104.606783
 20
-138.123377
 30
0.0
 11
103.18822
 21
-138.123377
 31
0.0
  0
LINE
  5
3C6
100
AcDbEntity
  8
2
370
    50
100
AcDbLine
 10
104.606783
 20
-140.623377
 30
0.0
 11
103.18822
 21
-140.623377
 31
0.0
  0
ARC
  5
3C7
100
AcDbEntity
  8
2
370
    50
100
AcDbCircle
 10
103.38822
 20
-140.923377
 30
0.0
 40
0.2
100
AcDbArc
 50
180.0
 51
270.0
  0
LINE
  5
3C8
100
AcDbEntity
  8
2
370
    50
100
AcDbLine
 10
108.68822
 20
-140.623377
 30
0.0
 11
105.313889
 21
-140.623377
 31
0.0
  0
LINE
  5
3C9
100
AcDbEntity
  8
2
370
    50
100
AcDbLine
 10
108.68822
 20
-138.123377
 30
0.0
 11
105.313889
 21
-138.123377
 31
0.0
  0
LINE
  5
3CA
100
AcDbEntity
  8
2
370
    50
100
AcDbLine
 10
113.06255
 20
-140.623377
 30
0.0
 11
109.68822
 21
-140.623377
 31
0.0
  0
LINE
  5
3CB
100
AcDbEntity
  8
2
370
    50
100
AcDbLine
 10
113.06255
 20
-138.123377
 30
0.0
 11
109.68822
 21
-138.123377
 31
0.0
  0
LINE
  5
3CC
100
AcDbEntity
  8
2
370
    50
100
AcDbLine
 10
115.18822
 20
-140.623377
 30
0.0
 11
113.769657
 21
-140.623377
 31
0.0
  0
LINE
  5
3CD
100
AcDbEntity
  8
2
370
    50
100
AcDbLine
 10
115.18822
 20
-138.123377
 30
0.0
 11
113.769657
 21
-138.123377
 31
0.0
  0
ARC
  5
3CE
100
AcDbEntity
  8
2
370
    50
100
AcDbCircle
 10
114.98822
 20
-140.923377
 30
0.0
 40
0.2
100
AcDbArc
 50
270.0
 51
360.0
  0
LINE
  5
3CF
100
AcDbEntity
  8
2
370
    50
100
AcDbLine
 10
115.18822
 20
-138.123377
 30
0.0
 11
115.18822
 21
-140.923377
 31
0.0
  0
LINE
  5
3D0
100
AcDbEntity
  8
2
370
    50
100
AcDbLine
 10
115.16735
 20
-138.123377
 30
0.0
 11
115.16735
 21
-140.623377
 31
0.0
  0
ARC
  5
3D1
100
AcDbEntity
  8
2
370
    50
100
AcDbCircle
 10
113.18822
 20
-136.623377
 30
0.0
 40
2.5
100
AcDbArc
 50
323.130102
 51
360.0
  0
LINE
  5
3D2
100
AcDbEntity
  8
2
370
    50
100
AcDbLine
 10
113.769657
 20
-138.123377
 30
0.0
 11
113.769657
 21
-140.623377
 31
0.0
  0
LINE
  5
3D3
100
AcDbEntity
  8
2
370
    50
100
AcDbLine
 10
113.06255
 20
-138.123377
 30
0.0
 11
113.06255
 21
-140.623377
 31
0.0
  0
LINE
  5
3D4
100
AcDbEntity
  8
2
370
    50
100
AcDbLine
 10
109.68822
 20
-138.123377
 30
0.0
 11
109.68822
 21
-140.623377
 31
0.0
  0
LINE
  5
3D5
100
AcDbEntity
  8
2
370
    50
100
AcDbLine
 10
108.68822
 20
-138.123377
 30
0.0
 11
108.68822
 21
-140.623377
 31
0.0
  0
LINE
  5
3D6
100
AcDbEntity
  8
2
370
    50
100
AcDbLine
 10
104.606783
 20
-138.123377
 30
0.0
 11
104.606783
 21
-140.623377
 31
0.0
  0
LINE
  5
3D7
100
AcDbEntity
  8
2
370
    50
100
AcDbLine
 10
105.313889
 20
-138.123377
 30
0.0
 11
105.313889
 21
-140.623377
 31
0.0
  0
LINE
  5
3D8
100
AcDbEntity
  8
2
370
    50
100
AcDbLine
 10
103.18822
 20
-138.123377
 30
0.0
 11
103.18822
 21
-140.923377
 31
0.0
  0
LINE
  5
3D9
100
AcDbEntity
  8
2
370
    50
100
AcDbLine
 10
103.209089
 20
-138.123377
 30
0.0
 11
103.209089
 21
-140.623377
 31
0.0
  0
ARC
  5
3DA
100
AcDbEntity
  8
2
370
    50
100
AcDbCircle
 10
105.18822
 20
-136.623377
 30
0.0
 40
2.5
100
AcDbArc
 50
180.0
 51
216.869898
  0
LINE
  5
3DB
100
AcDbEntity
  8
2
370
    50
100
AcDbLine
 10
102.68822
 20
-124.123377
 30
0.0
 11
102.68822
 21
-136.623377
 31
0.0
  0
LINE
  5
3DC
100
AcDbEntity
  8
2
370
    25
100
AcDbLine
 10
115.66896
 20
-124.123377
 30
0.0
 11
115.66896
 21
-136.623377
 31
0.0
  0
LINE
  5
3DD
100
AcDbEntity
  8
2
370
    50
100
AcDbLine
 10
115.68822
 20
-124.123377
 30
0.0
 11
115.68822
 21
-136.623377
 31
0.0
  0
LINE
  5
3DE
100
AcDbEntity
  8
2
370
    50
100
AcDbLine
 10
103.43822
 20
-124.123377
 30
0.0
 11
103.43822
 21
-89.223896
 31
0.0
  0
LINE
  5
3DF
100
AcDbEntity
  8
2
370
    50
100
AcDbLine
 10
114.93822
 20
-124.123377
 30
0.0
 11
114.93822
 21
-89.075836
 31
0.0
  0
LINE
  5
3E0
100
AcDbEntity
  8
2
370
    25
100
AcDbLine
 10
109.68822
 20
-136.623377
 30
0.0
 11
109.68822
 21
-124.123377
 31
0.0
  0
LINE
  5
3E1
100
AcDbEntity
  8
2
370
    25
100
AcDbLine
 10
108.68822
 20
-136.623377
 30
0.0
 11
108.68822
 21
-124.123377
 31
0.0
  0
LINE
  5
3E2
100
AcDbEntity
  8
2
370
    25
100
AcDbLine
 10
104.959197
 20
-136.623377
 30
0.0
 11
104.959197
 21
-124.123377
 31
0.0
  0
LINE
  5
3E3
100
AcDbEntity
  8
2
370
    25
100
AcDbLine
 10
104.252091
 20
-136.623377
 30
0.0
 11
104.252091
 21
-124.123377
 31
0.0
  0
LINE
  5
3E4
100
AcDbEntity
  8
2
370
    25
100
AcDbLine
 10
113.417242
 20
-136.623377
 30
0.0
 11
113.417242
 21
-124.123377
 31
0.0
  0
LINE
  5
3E5
100
AcDbEntity
  8
2
370
    25
100
AcDbLine
 10
114.124349
 20
-136.623377
 30
0.0
 11
114.124349
 21
-124.123377
 31
0.0
  0
LINE
  5
3E6
100
AcDbEntity
  8
2
370
    50
100
AcDbLine
 10
104.606783
 20
-140.623377
 30
0.0
 11
103.18822
 21
-140.623377
 31
0.0
  0
ARC
  5
3E7
100
AcDbEntity
  8
2
370
    50
100
AcDbCircle
 10
103.38822
 20
-140.923377
 30
0.0
 40
0.2
100
AcDbArc
 50
180.0
 51
270.0
  0
LINE
  5
3E8
100
AcDbEntity
  8
2
370
    50
100
AcDbLine
 10
108.68822
 20
-140.623377
 30
0.0
 11
105.313889
 21
-140.623377
 31
0.0
  0
LINE
  5
3E9
100
AcDbEntity
  8
2
370
    50
100
AcDbLine
 10
113.06255
 20
-140.623377
 30
0.0
 11
109.68822
 21
-140.623377
 31
0.0
  0
LINE
  5
3EA
100
AcDbEntity
  8
2
370
    50
100
AcDbLine
 10
115.18822
 20
-140.623377
 30
0.0
 11
113.769657
 21
-140.623377
 31
0.0
  0
ARC
  5
3EB
100
AcDbEntity
  8
2
370
    50
100
AcDbCircle
 10
114.98822
 20
-140.923377
 30
0.0
 40
0.2
100
AcDbArc
 50
270.0
 51
360.0
  0
LINE
  5
3EC
100
AcDbEntity
  8
2
370
    50
100
AcDbLine
 10
115.18822
 20
-138.123377
 30
0.0
 11
115.18822
 21
-140.923377
 31
0.0
  0
LINE
  5
3ED
100
AcDbEntity
  8
2
370
    50
100
AcDbLine
 10
115.16735
 20
-138.123377
 30
0.0
 11
115.16735
 21
-140.623377
 31
0.0
  0
LINE
  5
3EE
100
AcDbEntity
  8
2
370
    50
100
AcDbLine
 10
113.769657
 20
-138.123377
 30
0.0
 11
113.769657
 21
-140.623377
 31
0.0
  0
LINE
  5
3EF
100
AcDbEntity
  8
2
370
    50
100
AcDbLine
 10
113.06255
 20
-138.123377
 30
0.0
 11
113.06255
 21
-140.623377
 31
0.0
  0
LINE
  5
3F0
100
AcDbEntity
  8
2
370
    50
100
AcDbLine
 10
109.68822
 20
-138.123377
 30
0.0
 11
109.68822
 21
-140.623377
 31
0.0
  0
LINE
  5
3F1
100
AcDbEntity
  8
2
370
    50
100
AcDbLine
 10
108.68822
 20
-138.123377
 30
0.0
 11
108.68822
 21
-140.623377
 31
0.0
  0
LINE
  5
3F2
100
AcDbEntity
  8
2
370
    50
100
AcDbLine
 10
104.606783
 20
-138.123377
 30
0.0
 11
104.606783
 21
-140.623377
 31
0.0
  0
LINE
  5
3F3
100
AcDbEntity
  8
2
370
    50
100
AcDbLine
 10
105.313889
 20
-138.123377
 30
0.0
 11
105.313889
 21
-140.623377
 31
0.0
  0
LINE
  5
3F4
100
AcDbEntity
  8
2
370
    50
100
AcDbLine
 10
103.18822
 20
-138.123377
 30
0.0
 11
103.18822
 21
-140.923377
 31
0.0
  0
LINE
  5
3F5
100
AcDbEntity
  8
2
370
    50
100
AcDbLine
 10
103.209089
 20
-138.123377
 30
0.0
 11
103.209089
 21
-140.623377
 31
0.0
  0
LINE
  5
3F6
100
AcDbEntity
  8
2
370
    50
100
AcDbLine
 10
100.18822
 20
-155.323377
 30
0.0
 11
99.18822
 21
-156.323377
 31
0.0
  0
LINE
  5
3F7
100
AcDbEntity
  8
2
370
    50
100
AcDbLine
 10
135.688221
 20
11.12505
 30
0.0
 11
82.688221
 21
11.124621
 31
0.0
  0
LINE
  5
3F8
100
AcDbEntity
  8
2
370
    50
100
AcDbLine
 10
-226.275377
 20
23.524621
 30
0.0
 11
-226.275377
 21
11.124621
 31
0.0
  0
LINE
  5
3F9
100
AcDbEntity
  8
2
370
    50
100
AcDbLine
 10
-279.275377
 20
23.524621
 30
0.0
 11
-279.275377
 21
11.124621
 31
0.0
  0
LINE
  5
3FA
100
AcDbEntity
  8
2
370
    50
100
AcDbLine
 10
-190.4813
 20
-136.874897
 30
0.0
 11
-190.4813
 21
-148.874897
 31
0.0
  0
LINE
  5
3FB
100
AcDbEntity
  8
2
370
    50
100
AcDbLine
 10
100.187665
 20
-149.324086
 30
0.0
 11
100.187665
 21
-151.124086
 31
0.0
  0
LINE
  5
3FC
100
AcDbEntity
  8
2
370
    50
100
AcDbLine
 10
118.187665
 20
-149.324086
 30
0.0
 11
118.187665
 21
-151.124086
 31
0.0
  0
LINE
  5
3FD
100
AcDbEntity
  8
2
370
    50
100
AcDbLine
 10
99.187665
 20
-156.324086
 30
0.0
 11
99.187665
 21
-183.824086
 31
0.0
  0
LINE
  5
3FE
100
AcDbEntity
  8
2
370
    50
100
AcDbLine
 10
119.187665
 20
-156.324086
 30
0.0
 11
119.187665
 21
-183.824086
 31
0.0
  0
LINE
  5
3FF
100
AcDbEntity
  8
2
370
    50
100
AcDbLine
 10
118.187665
 20
-155.324086
 30
0.0
 11
119.187665
 21
-156.324086
 31
0.0
  0
LINE
  5
400
100
AcDbEntity
  8
2
370
    50
100
AcDbLine
 10
100.187665
 20
-155.324086
 30
0.0
 11
99.187665
 21
-156.324086
 31
0.0
  0
LINE
  5
401
100
AcDbEntity
  8
2
370
    50
100
AcDbLine
 10
100.387665
 20
-151.324086
 30
0.0
 11
117.987665
 21
-151.324086
 31
0.0
  0
LINE
  5
402
100
AcDbEntity
  8
2
370
    50
100
AcDbLine
 10
100.187665
 20
-155.324086
 30
0.0
 11
118.187665
 21
-155.324086
 31
0.0
  0
LINE
  5
403
100
AcDbEntity
  8
2
370
    50
100
AcDbLine
 10
97.187665
 20
-183.824086
 30
0.0
 11
121.187665
 21
-183.824086
 31
0.0
  0
LINE
  5
404
100
AcDbEntity
  8
2
370
    50
100
AcDbLine
 10
100.387665
 20
-149.124086
 30
0.0
 11
100.187665
 21
-149.324086
 31
0.0
  0
LINE
  5
405
100
AcDbEntity
  8
2
370
    50
100
AcDbLine
 10
100.187665
 20
-151.124086
 30
0.0
 11
100.387665
 21
-151.324086
 31
0.0
  0
LINE
  5
406
100
AcDbEntity
  8
2
370
    50
100
AcDbLine
 10
117.987665
 20
-149.124086
 30
0.0
 11
118.187665
 21
-149.324086
 31
0.0
  0
LINE
  5
407
100
AcDbEntity
  8
2
370
    50
100
AcDbLine
 10
118.187665
 20
-151.124086
 30
0.0
 11
117.987665
 21
-151.324086
 31
0.0
  0
LINE
  5
408
100
AcDbEntity
  8
2
370
    50
100
AcDbLine
 10
97.187665
 20
-194.824086
 30
0.0
 11
121.187665
 21
-194.824086
 31
0.0
  0
LINE
  5
409
100
AcDbEntity
  8
2
370
    50
100
AcDbLine
 10
121.187665
 20
-194.824086
 30
0.0
 11
121.187665
 21
-183.824086
 31
0.0
  0
LINE
  5
40A
100
AcDbEntity
  8
2
370
    50
100
AcDbLine
 10
97.187665
 20
-194.824086
 30
0.0
 11
97.187665
 21
-183.824086
 31
0.0
  0
LINE
  5
40B
100
AcDbEntity
  8
2
370
    50
100
AcDbLine
 10
100.287665
 20
-149.124086
 30
0.0
 11
100.287665
 21
-146.324086
 31
0.0
  0
LINE
  5
40C
100
AcDbEntity
  8
2
370
    50
100
AcDbLine
 10
118.087665
 20
-149.124086
 30
0.0
 11
118.087665
 21
-146.324086
 31
0.0
  0
LINE
  5
40D
100
AcDbEntity
  8
2
370
    50
100
AcDbLine
 10
118.087665
 20
-149.124086
 30
0.0
 11
100.287665
 21
-149.124086
 31
0.0
  0
LINE
  5
40E
100
AcDbEntity
  8
2
370
    50
100
AcDbLine
 10
118.087665
 20
-146.324086
 30
0.0
 11
100.287665
 21
-146.324086
 31
0.0
  0
LINE
  5
40F
100
AcDbEntity
  8
2
370
    50
100
AcDbLine
 10
94.688118
 20
-154.424086
 30
0.0
 11
94.688118
 21
-143.424086
 31
0.0
  0
LINE
  5
410
100
AcDbEntity
  8
2
370
    50
100
AcDbLine
 10
98.188118
 20
-146.924086
 30
0.0
 11
98.188118
 21
-150.924086
 31
0.0
  0
LINE
  5
411
100
AcDbEntity
  8
2
370
    50
100
AcDbLine
 10
124.688118
 20
-153.924086
 30
0.0
 11
124.688118
 21
-141.924086
 31
0.0
  0
ARC
  5
412
100
AcDbEntity
  8
2
370
    50
100
AcDbCircle
 10
99.188118
 20
-146.924086
 30
0.0
 40
1.0
100
AcDbArc
 50
90.0
 51
180.0
  0
ARC
  5
413
100
AcDbEntity
  8
2
370
    50
100
AcDbCircle
 10
99.188118
 20
-150.924086
 30
0.0
 40
1.0
100
AcDbArc
 50
180.0
 51
270.0
  0
ARC
  5
414
100
AcDbEntity
  8
2
370
    50
100
AcDbCircle
 10
123.688118
 20
-141.924086
 30
0.0
 40
1.0
100
AcDbArc
 50
0.0
 51
90.0
  0
ARC
  5
415
100
AcDbEntity
  8
2
370
    50
100
AcDbCircle
 10
123.688118
 20
-153.924086
 30
0.0
 40
1.0
100
AcDbArc
 50
270.0
 51
360.0
  0
ARC
  5
416
100
AcDbEntity
  8
2
370
    50
100
AcDbCircle
 10
95.188118
 20
-143.424086
 30
0.0
 40
0.5
100
AcDbArc
 50
90.0
 51
180.0
  0
ARC
  5
417
100
AcDbEntity
  8
2
370
    50
100
AcDbCircle
 10
95.188118
 20
-154.424086
 30
0.0
 40
0.5
100
AcDbArc
 50
180.0
 51
270.0
  0
LINE
  5
418
100
AcDbEntity
  8
2
370
    50
100
AcDbLine
 10
123.688118
 20
-154.924086
 30
0.0
 11
116.687665
 21
-154.924086
 31
0.0
  0
LINE
  5
419
100
AcDbEntity
  8
2
370
    50
100
AcDbLine
 10
118.688118
 20
-142.924086
 30
0.0
 11
95.188118
 21
-142.924086
 31
0.0
  0
LINE
  5
41A
100
AcDbEntity
  8
2
370
    50
100
AcDbLine
 10
118.130607
 20
-154.924086
 30
0.0
 11
95.188118
 21
-154.924086
 31
0.0
  0
LINE
  5
41B
100
AcDbEntity
  8
2
370
    50
100
AcDbLine
 10
118.688118
 20
-145.924086
 30
0.0
 11
99.188118
 21
-145.924086
 31
0.0
  0
LINE
  5
41C
100
AcDbEntity
  8
2
370
    50
100
AcDbLine
 10
118.688118
 20
-151.924086
 30
0.0
 11
99.188118
 21
-151.924086
 31
0.0
  0
LINE
  5
41D
100
AcDbEntity
  8
2
370
    50
100
AcDbLine
 10
109.187665
 20
-149.124086
 30
0.0
 11
117.987665
 21
-149.124086
 31
0.0
  0
LINE
  5
41E
100
AcDbEntity
  8
2
370
    50
100
AcDbLine
 10
118.688118
 20
-153.924086
 30
0.0
 11
118.688118
 21
-141.924086
 31
0.0
  0
ARC
  5
41F
100
AcDbEntity
  8
2
370
    50
100
AcDbCircle
 10
119.688118
 20
-153.924086
 30
0.0
 40
1.0
100
AcDbArc
 50
180.0
 51
270.0
  0
ARC
  5
420
100
AcDbEntity
  8
2
370
    50
100
AcDbCircle
 10
119.688118
 20
-141.924086
 30
0.0
 40
1.0
100
AcDbArc
 50
90.0
 51
180.0
  0
LINE
  5
421
100
AcDbEntity
  8
2
370
    25
100
AcDbLine
 10
117.687665
 20
-154.924086
 30
0.0
 11
117.687665
 21
-151.924086
 31
0.0
  0
LINE
  5
422
100
AcDbEntity
  8
2
370
    25
100
AcDbLine
 10
117.687665
 20
-145.924086
 30
0.0
 11
117.687665
 21
-142.924086
 31
0.0
  0
LINE
  5
423
100
AcDbEntity
  8
2
370
    25
100
AcDbLine
 10
100.687665
 20
-154.924086
 30
0.0
 11
100.687665
 21
-151.924086
 31
0.0
  0
LINE
  5
424
100
AcDbEntity
  8
2
370
    25
100
AcDbLine
 10
100.687665
 20
-145.924086
 30
0.0
 11
100.687665
 21
-142.924086
 31
0.0
  0
LINE
  5
425
100
AcDbEntity
  8
2
370
    50
100
AcDbLine
 10
116.687665
 20
-146.324086
 30
0.0
 11
116.687665
 21
-145.924086
 31
0.0
  0
LINE
  5
426
100
AcDbEntity
  8
2
370
    50
100
AcDbLine
 10
116.687665
 20
-142.924086
 30
0.0
 11
116.687665
 21
-141.624086
 31
0.0
  0
LINE
  5
427
100
AcDbEntity
  8
2
370
    50
100
AcDbLine
 10
101.687665
 20
-146.324086
 30
0.0
 11
101.687665
 21
-145.924086
 31
0.0
  0
LINE
  5
428
100
AcDbEntity
  8
2
370
    50
100
AcDbLine
 10
101.687665
 20
-142.924086
 30
0.0
 11
101.687665
 21
-141.624086
 31
0.0
  0
LINE
  5
429
100
AcDbEntity
  8
2
370
    50
100
AcDbLine
 10
101.687665
 20
-155.324086
 30
0.0
 11
101.687665
 21
-154.924086
 31
0.0
  0
LINE
  5
42A
100
AcDbEntity
  8
2
370
    50
100
AcDbLine
 10
101.687665
 20
-151.924086
 30
0.0
 11
101.687665
 21
-151.324086
 31
0.0
  0
LINE
  5
42B
100
AcDbEntity
  8
2
370
    50
100
AcDbLine
 10
116.687665
 20
-155.324086
 30
0.0
 11
116.687665
 21
-154.924086
 31
0.0
  0
LINE
  5
42C
100
AcDbEntity
  8
2
370
    50
100
AcDbLine
 10
116.687665
 20
-151.924086
 30
0.0
 11
116.687665
 21
-151.324086
 31
0.0
  0
LINE
  5
42D
100
AcDbEntity
  8
2
370
    50
100
AcDbLine
 10
119.187665
 20
-156.324086
 30
0.0
 11
99.187665
 21
-156.324086
 31
0.0
  0
LINE
  5
42E
100
AcDbEntity
  8
2
370
    50
100
AcDbLine
 10
118.187665
 20
-149.324086
 30
0.0
 11
100.187665
 21
-149.324086
 31
0.0
  0
LINE
  5
42F
100
AcDbEntity
  8
2
370
    50
100
AcDbLine
 10
100.187665
 20
-151.124086
 30
0.0
 11
118.187665
 21
-151.124086
 31
0.0
  0
ARC
  5
430
100
AcDbEntity
  8
2
370
    50
100
AcDbCircle
 10
115.187665
 20
-202.326242
 30
0.0
 40
18.502157
100
AcDbArc
 50
71.077645
 51
108.922355
  0
ARC
  5
431
100
AcDbEntity
  8
2
370
    50
100
AcDbCircle
 10
103.187665
 20
-202.326242
 30
0.0
 40
18.502157
100
AcDbArc
 50
71.077645
 51
108.922355
  0
ARC
  5
432
100
AcDbEntity
  8
2
370
    50
100
AcDbCircle
 10
115.187665
 20
-176.321929
 30
0.0
 40
18.502157
100
AcDbArc
 50
251.077645
 51
288.922355
  0
ARC
  5
433
100
AcDbEntity
  8
2
370
    50
100
AcDbCircle
 10
103.187665
 20
-176.321929
 30
0.0
 40
18.502157
100
AcDbArc
 50
251.077645
 51
288.922355
  0
LINE
  5
434
100
AcDbEntity
  8
2
370
    50
100
AcDbLine
 10
109.187665
 20
-184.823962
 30
0.0
 11
109.187665
 21
-193.824209
 31
0.0
  0
LINE
  5
435
100
AcDbEntity
  8
2
370
    50
100
AcDbLine
 10
123.688118
 20
-140.924086
 30
0.0
 11
119.688118
 21
-140.924086
 31
0.0
  0
ARC
  5
436
100
AcDbEntity
  8
2
370
    50
100
AcDbCircle
 10
114.987665
 20
-140.924086
 30
0.0
 40
0.2
100
AcDbArc
 50
270.0
 51
360.0
  0
LINE
  5
437
100
AcDbEntity
  8
2
370
    50
100
AcDbLine
 10
116.187665
 20
-141.124086
 30
0.0
 11
102.187665
 21
-141.124086
 31
0.0
  0
LINE
  5
438
100
AcDbEntity
  8
2
370
    50
100
AcDbLine
 10
116.687665
 20
-141.624086
 30
0.0
 11
116.187665
 21
-141.124086
 31
0.0
  0
LINE
  5
439
100
AcDbEntity
  8
2
370
    50
100
AcDbLine
 10
102.187665
 20
-141.124086
 30
0.0
 11
101.687665
 21
-141.624086
 31
0.0
  0
LINE
  5
43A
100
AcDbEntity
  8
2
370
    50
100
AcDbLine
 10
105.624039
 20
-31.464054
 30
0.0
 11
106.790305
 21
-31.464054
 31
0.0
  0
ARC
  5
43B
100
AcDbEntity
  8
2
370
    50
100
AcDbCircle
 10
109.188221
 20
-41.279009
 30
0.0
 40
10.10363
100
AcDbArc
 50
90.0
 51
103.729133
  0
ARC
  5
43C
100
AcDbEntity
  8
2
370
    50
100
AcDbCircle
 10
104.425081
 20
-33.80954
 30
0.0
 40
2.634161
100
AcDbArc
 50
62.924933
 51
117.075067
  0
LINE
  5
43D
100
AcDbEntity
  8
2
370
    50
100
AcDbLine
 10
82.687577
 20
59.825741
 30
0.0
 11
82.687577
 21
24.825741
 31
0.0
  0
LINE
  5
43E
100
AcDbEntity
  8
2
370
    50
100
AcDbLine
 10
-104.984405
 20
153.368808
 30
0.0
 11
82.687577
 21
26.782458
 31
0.0
  0
LINE
  5
43F
100
AcDbEntity
  8
2
370
    50
100
AcDbLine
 10
-104.998286
 20
153.365737
 30
0.0
 11
-104.715096
 21
153.428401
 31
0.0
  0
LINE
  5
440
100
AcDbEntity
  8
2
370
    25
100
AcDbLine
 10
126.688221
 20
-30.37495
 30
0.0
 11
91.688221
 21
-30.37495
 31
0.0
  0
LINE
  5
441
100
AcDbEntity
  8
2
370
    50
100
AcDbLine
 10
27.172515
 20
21.324621
 30
0.0
 11
135.387792
 21
21.324621
 31
0.0
  0
POINT
  5
442
100
AcDbEntity
  8
2
370
    50
100
AcDbPoint
 10
-252.775377
 20
-5.175118
 30
0.0
  0
LINE
  5
443
100
AcDbEntity
  8
2
370
    25
  6
CENTER
100
AcDbLine
 10
-378.775116
 20
88.043823
 30
0.0
 11
-126.775116
 21
88.043823
 31
0.0
  0
POINT
  5
444
100
AcDbEntity
  8
2
370
    50
100
AcDbPoint
 10
-252.775116
 20
208.043823
 30
0.0
  0
POINT
  5
445
100
AcDbEntity
  8
2
370
    50
100
AcDbPoint
 10
-252.775377
 20
25.124621
 30
0.0
  0
POINT
  5
446
100
AcDbEntity
  8
2
370
    50
100
AcDbPoint
 10
59.271536
 20
42.576777
 30
0.0
  0
LINE
  5
447
100
AcDbEntity
  8
2
370
    25
  6
CENTER
100
AcDbLine
 10
-244.775377
 20
-23.774789
 30
0.0
 11
-244.775377
 21
-39.746701
 31
0.0
  0
POINT
  5
448
100
AcDbEntity
  8
2
370
    50
100
AcDbPoint
 10
-244.775377
 20
-31.175379
 30
0.0
  0
TEXT
  5
449
100
AcDbEntity
  8
3
370
    50
100
AcDbText
 10
-354.804911
 20
-197.524502
 30
0.0
 40
7.0
  1
２４六角
 72
     5
 11
-328.204911
 21
-197.524502
 31
0.0
100
AcDbText
  0
LWPOLYLINE
  5
44A
100
AcDbEntity
  8
3
370
    25
100
AcDbPolyline
 90
        3
 70
     0
 10
-313.569455
 20
-186.064816
 10
-326.3529
 20
-198.081249
 10
-353.817286
 20
-198.081249
  0
LWPOLYLINE
  5
44F
100
AcDbEntity
  8
3
370
    25
100
AcDbPolyline
 90
        3
 70
     0
 10
-230.754265
 20
-16.65049
 10
-201.344093
 20
-47.01281
 10
-172.950074
 20
-47.01281
  0
LINE
  5
454
100
AcDbEntity
  8
3
370
    25
100
AcDbLine
 10
-228.066075
 20
-19.425709
 30
0.0
 11
-227.322457
 21
-18.705411
 31
0.0
  0
LINE
  5
455
100
AcDbEntity
  8
3
370
    25
100
AcDbLine
 10
-227.322457
 20
-18.705411
 30
0.0
 11
-230.754265
 21
-16.65049
 31
0.0
  0
LINE
  5
456
100
AcDbEntity
  8
3
370
    25
100
AcDbLine
 10
-230.754265
 20
-16.65049
 30
0.0
 11
-228.809693
 21
-20.146007
 31
0.0
  0
LINE
  5
457
100
AcDbEntity
  8
3
370
    25
100
AcDbLine
 10
-228.809693
 20
-20.146007
 30
0.0
 11
-228.066075
 21
-19.425709
 31
0.0
  0
TEXT
  5
458
100
AcDbEntity
  8
3
370
    50
100
AcDbText
 10
-201.977566
 20
-45.819358
 30
0.0
 40
7.0
  1
４６六角
 72
     5
 11
-175.377566
 21
-45.819358
 31
0.0
100
AcDbText
  0
TEXT
  5
459
100
AcDbEntity
  8
3
370
    50
100
AcDbText
 10
-188.23462
 20
-33.503363
 30
0.0
 40
7.0
  1
（取付穴φ３７±１）
 72
     5
 11
-119.63462
 21
-33.503363
 31
0.0
100
AcDbText
  0
TEXT
  5
45A
100
AcDbEntity
  8
3
370
    50
100
AcDbText
 10
-187.011842
 20
-22.803542
 30
0.0
 40
7.0
  1
Ｗ３５　山１６
 72
     5
 11
-139.411842
 21
-22.803542
 31
0.0
100
AcDbText
  0
DIMENSION
  5
45B
100
AcDbEntity
  8
3
370
    25
100
AcDbDimension
  2
*D1
 10
-152.856836
 20
150.348295
 30
0.0
 11
-144.572983
 21
117.054
 31
0.0
 70
     2
 71
     0
 72
     0
 41
0.0
 42
0.0
  3
Standard
100
AcDb2LineAngularDimension
 13
-152.857582
 23
150.34838
 33
0.0
 14
-152.856836
 24
150.35161
 34
0.0
 15
-152.856836
 25
150.35161
 35
0.0
 16
-156.609048
 26
117.418867
 36
0.0
1001
ACAD
1000
DSTYLE
1002
{
1070
   275
1070
     0
1070
   179
1070
     2
1002
}
  0
DIMENSION
  5
45C
100
AcDbEntity
  8
3
370
    25
100
AcDbDimension
  2
*D2
 10
170.043334
 20
175.152709
 30
0.0
 11
157.043334
 21
88.988665
 31
0.0
 71
     0
 72
     0
 41
0.0
 42
0.0
  3
Standard
100
AcDbAlignedDimension
 13
135.188221
 23
10.824621
 33
0.0
 14
4.839411
 24
175.152709
 34
0.0
 50
90.0
100
AcDbRotatedDimension
  0
DIMENSION
  5
45D
100
AcDbEntity
  8
3
370
    25
100
AcDbDimension
  2
*D3
 10
195.824492
 20
214.963225
 30
0.0
 11
182.824492
 21
108.893923
 31
0.0
 71
     0
 72
     0
 41
0.0
 42
0.0
  3
Standard
100
AcDbAlignedDimension
 13
135.188221
 23
10.824621
 33
0.0
 14
28.630581
 24
214.963225
 34
0.0
 50
90.0
100
AcDbRotatedDimension
  0
TEXT
  5
45E
100
AcDbEntity
  8
3
370
    50
100
AcDbText
 10
-177.234757
 20
68.588115
 30
0.0
 40
8.0
  1
１４０
 50
90.0
 72
     5
 11
-177.234757
 21
90.988115
 31
0.0
100
AcDbText
  0
DIMENSION
  5
45F
100
AcDbEntity
  8
3
370
    25
100
AcDbDimension
  2
*D4
 10
19.011606
 20
10.825164
 30
0.0
 11
16.511606
 21
-75.37483
 31
0.0
 71
     0
 72
     0
 41
0.0
 42
0.0
  3
Standard
100
AcDbAlignedDimension
 13
105.18822
 23
-161.574825
 33
0.0
 14
82.98822
 24
10.825164
 34
0.0
 50
90.0
100
AcDbRotatedDimension
  0
TEXT
  5
460
100
AcDbEntity
  8
3
370
    50
100
AcDbText
 10
28.604326
 20
-107.635211
 30
0.0
 40
8.0
  1
（金具先端マデ）
 50
90.0
 72
     5
 11
28.604326
 21
-45.235211
 31
0.0
100
AcDbText
  0
TEXT
  5
461
100
AcDbEntity
  8
3
370
    50
100
AcDbText
 10
18.011606
 20
-92.57483
 30
0.0
 40
7.0
  1
（湯、水　同様）
 50
90.0
 72
     5
 11
18.011606
 21
-37.97483
 31
0.0
100
AcDbText
  0
TEXT
  5
462
100
AcDbEntity
  8
3
370
    50
100
AcDbText
 10
18.011606
 20
-113.57483
 30
0.0
 40
7.0
  1
397
 50
90.0
 41
2.0
 72
     5
 11
18.011606
 21
-95.37483
 31
0.0
100
AcDbText
  0
TEXT
  5
463
100
AcDbEntity
  8
3
370
    50
100
AcDbText
 10
17.111316
 20
219.74611
 30
0.0
 40
7.0
  1
吐水
 72
     5
 11
29.711316
 21
219.74611
 31
0.0
100
AcDbText
  0
TEXT
  5
464
100
AcDbEntity
  8
3
370
    50
100
AcDbText
 10
-23.29012
 20
179.696504
 30
0.0
 40
7.0
  1
止水
 72
     5
 11
-10.69012
 21
179.696504
 31
0.0
100
AcDbText
  0
DIMENSION
  5
465
100
AcDbEntity
  8
3
370
    25
100
AcDbDimension
  2
*D5
 10
109.188221
 20
-1.440885
 30
0.0
 11
-21.834308
 21
3.559115
 31
0.0
 71
     0
 72
     0
 41
0.0
 42
0.0
  3
Standard
100
AcDbAlignedDimension
 13
-152.856836
 23
150.35161
 33
0.0
 14
109.188221
 24
-0.175379
 34
0.0
100
AcDbRotatedDimension
  0
LWPOLYLINE
  5
466
100
AcDbEntity
  8
3
370
    25
100
AcDbPolyline
 90
        3
 70
     0
 10
-235.275377
 20
2.264676
 10
-190.374467
 20
-24.943486
 10
-120.371324
 20
-24.943486
  0
LINE
  5
46B
100
AcDbEntity
  8
3
370
    25
100
AcDbLine
 10
-231.970999
 20
0.262354
 30
0.0
 11
-231.434479
 21
1.14776
 31
0.0
  0
LINE
  5
46C
100
AcDbEntity
  8
3
370
    25
100
AcDbLine
 10
-231.434479
 20
1.14776
 30
0.0
 11
-235.275377
 21
2.264676
 31
0.0
  0
LINE
  5
46D
100
AcDbEntity
  8
3
370
    25
100
AcDbLine
 10
-235.275377
 20
2.264676
 30
0.0
 11
-232.50752
 21
-0.623051
 31
0.0
  0
LINE
  5
46E
100
AcDbEntity
  8
3
370
    25
100
AcDbLine
 10
-232.50752
 20
-0.623051
 30
0.0
 11
-231.970999
 21
0.262354
 31
0.0
  0
DIMENSION
  5
46F
100
AcDbEntity
  8
3
370
    25
100
AcDbDimension
  2
*D6
 10
32.237358
 20
160.233806
 30
0.0
 11
-33.529756
 21
220.075809
 31
0.0
 70
     2
 71
     0
 72
     0
 41
0.0
 42
0.0
  3
Standard
100
AcDb2LineAngularDimension
 13
72.48419
 23
178.457344
 33
0.0
 14
123.148166
 24
144.576899
 34
0.0
 15
123.148166
 25
144.576899
 35
0.0
 16
-37.052012
 26
208.560875
 36
0.0
1001
ACAD
1000
DSTYLE
1002
{
1070
   275
1070
     0
1070
   179
1070
     2
1002
}
  0
TEXT
  5
470
100
AcDbEntity
  8
3
370
    50
100
AcDbText
 10
-306.926927
 20
-17.175249
 30
0.0
 40
8.0
  1
Ｍａｘ３０
 50
90.0
 72
     5
 11
-306.926927
 21
21.224751
 31
0.0
100
AcDbText
  0
DIMENSION
  5
471
100
AcDbEntity
  8
3
370
    25
100
AcDbDimension
  2
*D7
 10
-200.139146
 20
208.001661
 30
0.0
 11
-213.139146
 21
105.413141
 31
0.0
 71
     0
 72
     0
 41
0.0
 42
0.0
  3
Standard
100
AcDbAlignedDimension
 13
82.988221
 23
10.824621
 33
0.0
 14
-159.303125
 24
208.001661
 34
0.0
 50
90.0
100
AcDbRotatedDimension
  0
DIMENSION
  5
472
100
AcDbEntity
  8
3
370
    25
100
AcDbDimension
  2
*D8
 10
-305.794908
 20
208.043823
 30
0.0
 11
-317.294908
 21
105.934222
 31
0.0
 71
     0
 72
     0
 41
0.0
 42
0.0
  3
Standard
100
AcDbAlignedDimension
 13
-278.975377
 23
10.824621
 33
0.0
 14
-252.775116
 24
208.043823
 34
0.0
 50
90.0
100
AcDbRotatedDimension
  0
ENDSEC
  0
SECTION
  2
OBJECTS
  0
DICTIONARY
  5
4DC
100
AcDbDictionary
280
     0
281
     1
  3
ACAD_GROUP
350
4DD
  3
ACAD_MLINESTYLE
350
4DE
  0
DICTIONARY
  5
4DD
102
{ACAD_REACTORS
330
4DC
102
}
100
AcDbDictionary
280
     0
281
     1
  0
DICTIONARY
  5
4DE
102
{ACAD_REACTORS
330
4DC
102
}
100
AcDbDictionary
280
     0
281
     1
  3
Standard
350
4DF
  0
MLINESTYLE
  5
4DF
102
{ACAD_REACTORS
330
4DE
102
}
100
AcDbMlineStyle
  2
Standard
 70
     0
  3

 62
     0
 51
90.0
 52
90.0
 71
     2
 49
0.5
 62
   256
  6
ByLayer
 49
-0.5
 62
   256
  6
ByLayer
  0
ENDSEC
  0
EOF
