  0
SECTION
  2
HEADER
  9
$ACADVER
  1
AC1015
  9
$ACADMAINTVER
 70
     6
  9
$DWGCODEPAGE
  3
ANSI_932
  9
$INSBASE
 10
0.0
 20
0.0
 30
0.0
  9
$EXTMIN
 10
-420.0
 20
-297.0
 30
1.000000E+20
  9
$EXTMAX
 10
420.0
 20
297.0
 30
-1.000000E+20
  9
$LIMMIN
 10
-420.0
 20
-297.0
  9
$LIMMAX
 10
420.0
 20
297.0
  9
$ORTHOMODE
 70
     0
  9
$REGENMODE
 70
     1
  9
$FILLMODE
 70
     1
  9
$QTEXTMODE
 70
     0
  9
$MIRRTEXT
 70
     1
  9
$LTSCALE
 40
1.0
  9
$ATTMODE
 70
     1
  9
$TEXTSIZE
 40
0.2
  9
$TRACEWID
 40
0.05
  9
$TEXTSTYLE
  7
STANDARD
  9
$CLAYER
  8
0
  9
$CELTYPE
  6
CONTINUOUS
  9
$CECOLOR
 62
   256
  9
$CELTSCALE
 40
1.0
  9
$DISPSILH
 70
     0
  9
$DIMSCALE
 40
2.0
  9
$DIMASZ
 40
2.0
  9
$DIMEXO
 40
1.0
  9
$DIMDLI
 40
0.38
  9
$DIMRND
 40
0.0
  9
$DIMDLE
 40
0.0
  9
$DIMEXE
 40
2.0
  9
$DIMTP
 40
0.0
  9
$DIMTM
 40
0.0
  9
$DIMTXT
 40
3.5
  9
$DIMCEN
 40
0.09
  9
$DIMTSZ
 40
0.0
  9
$DIMTOL
 70
     0
  9
$DIMLIM
 70
     0
  9
$DIMTIH
 70
     0
  9
$DIMTOH
 70
     0
  9
$DIMSE1
 70
     0
  9
$DIMSE2
 70
     0
  9
$DIMTAD
 70
     1
  9
$DIMZIN
 70
     0
  9
$DIMBLK
  1

  9
$DIMASO
 70
     1
  9
$DIMSHO
 70
     1
  9
$DIMPOST
  1

  9
$DIMAPOST
  1

  9
$DIMALT
 70
     0
  9
$DIMALTD
 70
     2
  9
$DIMALTF
 40
25.4
  9
$DIMLFAC
 40
1.0
  9
$DIMTOFL
 70
     0
  9
$DIMTVP
 40
0.0
  9
$DIMTIX
 70
     0
  9
$DIMSOXD
 70
     0
  9
$DIMSAH
 70
     0
  9
$DIMBLK1
  1

  9
$DIMBLK2
  1

  9
$DIMSTYLE
  2
Standard
  9
$DIMCLRD
 70
     0
  9
$DIMCLRE
 70
     0
  9
$DIMCLRT
 70
     0
  9
$DIMTFAC
 40
1.0
  9
$DIMGAP
 40
0.5
  9
$DIMJUST
 70
     0
  9
$DIMSD1
 70
     0
  9
$DIMSD2
 70
     0
  9
$DIMTOLJ
 70
     1
  9
$DIMTZIN
 70
     0
  9
$DIMALTZ
 70
     0
  9
$DIMALTTZ
 70
     0
  9
$DIMUPT
 70
     0
  9
$DIMDEC
 70
     3
  9
$DIMTDEC
 70
     4
  9
$DIMALTU
 70
     2
  9
$DIMALTTD
 70
     2
  9
$DIMTXSTY
  7
STANDARD
  9
$DIMAUNIT
 70
     0
  9
$DIMADEC
 70
     0
  9
$DIMALTRND
 40
0.0
  9
$DIMAZIN
 70
     0
  9
$DIMDSEP
 70
     0
  9
$DIMATFIT
 70
     3
  9
$DIMFRAC
 70
     0
  9
$DIMLDRBLK
  1

  9
$DIMLUNIT
 70
     2
  9
$DIMLWD
 70
     0
  9
$DIMLWE
 70
     0
  9
$DIMTMOVE
 70
     0
  9
$LUNITS
 70
     2
  9
$LUPREC
 70
     4
  9
$SKETCHINC
 40
0.1
  9
$FILLETRAD
 40
0.0
  9
$AUNITS
 70
     0
  9
$AUPREC
 70
     0
  9
$MENU
  1
acad
  9
$ELEVATION
 40
0.0
  9
$PELEVATION
 40
0.0
  9
$THICKNESS
 40
0.0
  9
$LIMCHECK
 70
     0
  9
$CHAMFERA
 40
0.0
  9
$CHAMFERB
 40
0.0
  9
$CHAMFERC
 40
0.0
  9
$CHAMFERD
 40
0.0
  9
$SKPOLY
 70
     0
  9
$TDCREATE
 40
2455153.000000000
  9
$TDUCREATE
 40
0.000000000
  9
$TDUPDATE
 40
0.000000000
  9
$TDUUPDATE
 40
2447892.625000000
  9
$TDINDWG
 40
0.0000000000
  9
$TDUSRTIMER
 40
0.0000000000
  9
$USRTIMER
 70
     1
  9
$ANGBASE
 50
0.0
  9
$ANGDIR
 70
     0
  9
$PDMODE
 70
     0
  9
$PDSIZE
 40
0.0
  9
$PLINEWID
 40
0.0
  9
$SPLFRAME
 70
     0
  9
$SPLINETYPE
 70
     6
  9
$SPLINESEGS
 70
     8
  9
$HANDSEED
  5
558
  9
$SURFTAB1
 70
     6
  9
$SURFTAB2
 70
     6
  9
$SURFTYPE
 70
     6
  9
$SURFU
 70
     6
  9
$SURFV
 70
     6
  9
$UCSBASE
  2

  9
$UCSNAME
  2

  9
$UCSORG
 10
0.0
 20
0.0
 30
0.0
  9
$UCSXDIR
 10
1.0
 20
0.0
 30
0.0
  9
$UCSYDIR
 10
0.0
 20
1.0
 30
0.0
  9
$UCSORTHOREF
  2

  9
$UCSORTHOVIEW
 70
     0
  9
$UCSORGTOP
 10
0.0
 20
0.0
 30
0.0
  9
$UCSORGBOTTOM
 10
0.0
 20
0.0
 30
0.0
  9
$UCSORGLEFT
 10
0.0
 20
0.0
 30
0.0
  9
$UCSORGRIGHT
 10
0.0
 20
0.0
 30
0.0
  9
$UCSORGFRONT
 10
0.0
 20
0.0
 30
0.0
  9
$UCSORGBACK
 10
0.0
 20
0.0
 30
0.0
  9
$PUCSBASE
  2

  9
$PUCSNAME
  2

  9
$PUCSORG
 10
0.0
 20
0.0
 30
0.0
  9
$PUCSXDIR
 10
1.0
 20
0.0
 30
0.0
  9
$PUCSYDIR
 10
0.0
 20
1.0
 30
0.0
  9
$PUCSORTHOREF
  2

  9
$PUCSORTHOVIEW
 70
     0
  9
$PUCSORGTOP
 10
0.0
 20
0.0
 30
0.0
  9
$PUCSORGBOTTOM
 10
0.0
 20
0.0
 30
0.0
  9
$PUCSORGLEFT
 10
0.0
 20
0.0
 30
0.0
  9
$PUCSORGRIGHT
 10
0.0
 20
0.0
 30
0.0
  9
$PUCSORGFRONT
 10
0.0
 20
0.0
 30
0.0
  9
$PUCSORGBACK
 10
0.0
 20
0.0
 30
0.0
  9
$USERI1
 70
     0
  9
$USERI2
 70
     0
  9
$USERI3
 70
     0
  9
$USERI4
 70
     0
  9
$USERI5
 70
     0
  9
$USERR1
 40
0.0
  9
$USERR2
 40
0.0
  9
$USERR3
 40
0.0
  9
$USERR4
 40
0.0
  9
$USERR5
 40
0.0
  9
$WORLDVIEW
 70
     1
  9
$SHADEDGE
 70
     3
  9
$SHADEDIF
 70
    70
  9
$TILEMODE
 70
     1
  9
$MAXACTVP
 70
    16
  9
$PINSBASE
 10
0.0
 20
0.0
 30
0.0
  9
$PLIMCHECK
 70
     0
  9
$PEXTMIN
 10
1.000000E+20
 20
1.000000E+20
 30
1.000000E+20
  9
$PEXTMAX
 10
-1.000000E+20
 20
-1.000000E+20
 30
-1.000000E+20
  9
$PLIMMIN
 10
0.0
 20
0.0
  9
$PLIMMAX
 10
12.0
 20
9.0
  9
$UNITMODE
 70
     0
  9
$VISRETAIN
 70
     0
  9
$PLINEGEN
 70
     1
  9
$PSLTSCALE
 70
     0
  9
$TREEDEPTH
 70
  3020
  9
$CMLSTYLE
  2
Standard
  9
$CMLJUST
 70
     0
  9
$CMLSCALE
 40
1.0
  9
$PROXYGRAPHICS
 70
     0
  9
$MEASUREMENT
 70
     0
  9
$CELWEIGHT
370
     0
  9
$ENDCAPS
280
     0
  9
$JOINSTYLE
280
     0
  9
$LWDISPLAY
290
     0
  9
$INSUNITS
 70
     0
  9
$HYPERLINKBASE
  1

  9
$STYLESHEET
  1

  9
$XEDIT
290
     1
  9
$CEPSNTYPE
380
     0
  9
$PSTYLEMODE
290
     1
  9
$FINGERPRINTGUID
  2

  9
$VERSIONGUID
  2

  9
$EXTNAMES
290
     1
  9
$PSVPSCALE
 40
0.0
  0
ENDSEC
  0
SECTION
  2
CLASSES
  0
CLASS
  1
LWPOLYLINE
  2
AcDbPolyline
  3
AutoCAD 2000
 90
        0
280
     0
281
     1
  0
CLASS
  1
IMAGE
  2
AcDbRasterImage
  3
ISM
 90
      127
280
     0
281
     1
  0
CLASS
  1
OLE2FRAME
  2
AcDbOle2Frame
  3
AutoCAD 2000
 90
        0
280
     0
281
     1
  0
CLASS
  1
HATCH
  2
AcDbHatch
  3
AutoCAD 2000
 90
        0
280
     0
281
     1
  0
CLASS
  1
DICTIONARYVAR
  2
AcDbDictionaryVar
  3
AutoCAD 2000
 90
        0
280
     0
281
     0
  0
CLASS
  1
RASTERVARIABLES
  2
AcDbRasterVariables
  3
ISM
 90
        0
280
     0
281
     0
  0
CLASS
  1
IMAGEDEF
  2
AcDbRasterImageDef
  3
ISM
 90
        0
280
     0
281
     0
  0
CLASS
  1
IMAGEDEF_REACTOR
  2
AcDbRasterImageDefReactor
  3
ISM
 90
        1
280
     0
281
     0
  0
CLASS
  1
IDBUFFER
  2
AcDbIdBuffer
  3
AutoCAD 2000
 90
        0
280
     0
281
     0
  0
CLASS
  1
SPATIAL_FILTER
  2
AcDbSpatialFilter
  3
AutoCAD 2000
 90
        0
280
     0
281
     0
  0
CLASS
  1
XRECORD
  2
AcDbXrecord
  3
AutoCAD 2000
 90
        0
280
     0
281
     0
  0
CLASS
  1
SORTENTSTABLE
  2
AcDbSortentsTable
  3
AutoCAD 2000
 90
        0
280
     0
281
     0
  0
CLASS
  1
LAYER_INDEX
  2
AcDbLayerIndex
  3
AutoCAD 2000
 90
        0
280
     0
281
     0
  0
CLASS
  1
SPATIAL_INDEX
  2
AcDbSpatialIndex
  3
AutoCAD 2000
 90
        0
280
     0
281
     0
  0
CLASS
  1
OBJECT_PTR
  2
CAseDLPNTableRecord
  3
"ASE-LPNTableRecord"
 90
        1
280
     0
281
     0
  0
CLASS
  1
LAYOUT
  2
AcDbLayout
  3
AutoCAD 2000
 90
        0
280
     0
281
     0
  0
CLASS
  1
PLOTSETTINGS
  2
AcDbPlotSettings
  3
AutoCAD 2000
 90
        0
280
     0
281
     0
  0
CLASS
  1
ACDBDICTIONARYWDFLT
  2
AcDbDictionaryWithDefault
  3
AutoCAD 2000
 90
        0
280
     0
281
     0
  0
CLASS
  1
ACDBPLACEHOLDER
  2
AcDbPlaceHolder
  3
AutoCAD 2000
 90
        0
280
     0
281
     0
  0
CLASS
  1
VBA_PROJECT
  2
AcDbVbaProject
  3
acadvba
 90
        0
280
     0
281
     0
  0
CLASS
  1
WIPEOUT
  2
AcDbWipeout
  3
WipeOut|AutoCAD Express Tool|expresstools@autodesk.com
 90
      127
280
     0
281
     1
  0
CLASS
  1
WIPEOUTVARIABLES
  2
AcDbWipeoutVariables
  3
WipeOut|AutoCAD Express Tool|expresstools@autodesk.com
 90
        0
280
     0
281
     0
  0
CLASS
  1
RTEXT
  2
RText
  3
RText|AutoCAD Express Tool|expresstools@autodesk.com
 90
        0
280
     0
281
     1
  0
CLASS
  1
ARCALIGNEDTEXT
  2
AcDbArcAlignedText
  3
ATEXT|AutoCAD Express Tool|expresstools@autodesk.com
 90
        0
280
     0
281
     1
  0
ENDSEC
  0
SECTION
  2
TABLES
  0
TABLE
  2
VPORT
  5
6
100
AcDbSymbolTable
 70
     1
  0
VPORT
  5
19
100
AcDbSymbolTableRecord
100
AcDbViewportTableRecord
  2
*ACTIVE
 70
     0
 10
0.0
 20
0.0
 11
1.0
 21
1.0
 12
0.0
 22
0.0
 13
0.0
 23
0.0
 14
1.0
 24
1.0
 15
0.0
 25
0.0
 16
0.0
 26
0.0
 36
1.0
 17
0.0
 27
0.0
 37
0.0
 40
594.0
 41
1.414141
 42
50.0
 43
0.0
 44
0.0
 50
0.0
 51
0.0
 71
     0
 72
   500
 73
     1
 74
     1
 75
     0
 76
     0
 77
     0
 78
     0
281
     0
 65
     0
110
0.0
120
0.0
130
0.0
111
1.0
121
0.0
131
0.0
112
0.0
122
1.0
132
0.0
345
0
346
0
 79
     0
146
0.0
  0
ENDTAB
  0
TABLE
  2
LTYPE
  5
3
100
AcDbSymbolTable
 70
     9
  0
LTYPE
  5
C
100
AcDbSymbolTableRecord
100
AcDbLinetypeTableRecord
  2
ByBlock
 70
    64
  3

 72
    65
 73
     0
 40
0.0
  0
LTYPE
  5
D
100
AcDbSymbolTableRecord
100
AcDbLinetypeTableRecord
  2
ByLayer
 70
    64
  3

 72
    65
 73
     0
 40
0.0
  0
LTYPE
  5
E
100
AcDbSymbolTableRecord
100
AcDbLinetypeTableRecord
  2
CONTINUOUS
 70
     0
  3
Solid line
 72
    65
 73
     0
 40
0.0
  0
LTYPE
  5
F
100
AcDbSymbolTableRecord
100
AcDbLinetypeTableRecord
  2
DASHED
 70
     0
  3
__ __ __ __ __ __ __ __ __ __ __ __ __ __ __
 72
    65
 73
     2
 40
2.0
 49
1.2
 74
     0
 49
-0.8
 74
     0
  0
LTYPE
  5
10
100
AcDbSymbolTableRecord
100
AcDbLinetypeTableRecord
  2
CENTER
 70
     0
  3
____ _ ____ _ ____ _ ____ _ ____ _ ____ _ ____
 72
    65
 73
     4
 40
12.0
 49
9.0
 74
     0
 49
-1.0
 74
     0
 49
1.0
 74
     0
 49
-1.0
 74
     0
  0
LTYPE
  5
11
100
AcDbSymbolTableRecord
100
AcDbLinetypeTableRecord
  2
HIDDEN
 70
     0
  3
_ _ _ _ _ _ _ _ _ _ _ _ _ _ _ _ _ _ _ _ _ _ _
 72
    65
 73
     2
 40
3.2
 49
2.4
 74
     0
 49
-0.8
 74
     0
  0
LTYPE
  5
12
100
AcDbSymbolTableRecord
100
AcDbLinetypeTableRecord
  2
PHANTOM
 70
     0
  3
_____ _ _ _____ _ _ _____ _ _ _____ _ _ _____
 72
    65
 73
     6
 40
13.5
 49
9.0
 74
     0
 49
-1.0
 74
     0
 49
1.0
 74
     0
 49
-0.5
 74
     0
 49
1.0
 74
     0
 49
-1.0
 74
     0
  0
LTYPE
  5
13
100
AcDbSymbolTableRecord
100
AcDbLinetypeTableRecord
  2
DOT
 70
     0
  3
...............................................
 72
    65
 73
     2
 40
1.0
 49
0.5
 74
     0
 49
-0.5
 74
     0
  0
LTYPE
  5
14
100
AcDbSymbolTableRecord
100
AcDbLinetypeTableRecord
  2
DASHDOT
 70
     0
  3
__ . __ . __ . __ . __ . __ . __ . __ . __ . __
 72
    65
 73
     4
 40
8.0
 49
5.0
 74
     0
 49
-1.0
 74
     0
 49
1.0
 74
     0
 49
-1.0
 74
     0
  0
ENDTAB
  0
TABLE
  2
LAYER
  5
1
100
AcDbSymbolTable
 70
     4
  0
LAYER
  5
15
100
AcDbSymbolTableRecord
100
AcDbLayerTableRecord
  2
0
 70
     0
 62
   225
  6
CONTINUOUS
290
     1
370
    -3
390
0
  0
LAYER
  5
16
100
AcDbSymbolTableRecord
100
AcDbLayerTableRecord
  2
1
 70
     0
 62
     2
  6
CONTINUOUS
290
     1
370
    -3
390
0
  0
LAYER
  5
17
100
AcDbSymbolTableRecord
100
AcDbLayerTableRecord
  2
2
 70
     0
 62
     3
  6
CONTINUOUS
290
     1
370
    -3
390
0
  0
LAYER
  5
18
100
AcDbSymbolTableRecord
100
AcDbLayerTableRecord
  2
3
 70
     0
 62
     4
  6
CONTINUOUS
290
     1
370
    -3
390
0
  0
ENDTAB
  0
TABLE
  2
STYLE
  5
2
100
AcDbSymbolTable
 70
     1
  0
STYLE
  5
1B
100
AcDbSymbolTableRecord
100
AcDbTextStyleTableRecord
  2
STANDARD
 70
    64
 40
0.0
 41
1.0
 50
0.0
 71
     0
 42
1.0
  3
txt
  4
BIGFONT
  0
ENDTAB
  0
TABLE
  2
VIEW
  5
4
100
AcDbSymbolTable
 70
     0
  0
ENDTAB
  0
TABLE
  2
UCS
  5
5
100
AcDbSymbolTable
 70
     0
  0
ENDTAB
  0
TABLE
  2
APPID
  5
7
100
AcDbSymbolTable
 70
     1
  0
APPID
  5
1A
100
AcDbSymbolTableRecord
100
AcDbRegAppTableRecord
  2
ACAD
 70
     0
  0
ENDTAB
  0
TABLE
  2
DIMSTYLE
  5
8
100
AcDbSymbolTable
 70
     1
100
AcDbDimStyleTable
 71
     0
  0
DIMSTYLE
105
2E
100
AcDbSymbolTableRecord
100
AcDbDimStyleTableRecord
  2
Standard
 70
     0
  3

  4

 40
2.0
 41
2.0
 42
1.0
 43
0.38
 44
2.0
 45
0.0
 46
0.0
 47
0.0
 48
0.0
 71
     0
 72
     0
 73
     0
 74
     0
 75
     0
 76
     0
 77
     1
 78
     0
 79
     0
140
3.5
141
0.09
142
0.0
143
25.4
144
1.0
145
0.0
146
1.0
147
0.5
148
0.0
170
     0
171
     2
172
     0
173
     0
174
     0
175
     0
176
     0
177
     0
178
     0
179
     0
271
     3
272
     4
273
     2
274
     2
275
     0
276
     0
277
     2
278
    46
279
     0
280
     0
281
     0
282
     0
283
     1
284
     0
285
     0
286
     0
288
     0
289
     3
340
1B
341
0
342
0
343
0
344
0
371
    -2
372
    -2
  0
ENDTAB
  0
TABLE
  2
BLOCK_RECORD
  5
29
100
AcDbSymbolTable
 70
    11
  0
BLOCK_RECORD
  5
27
100
AcDbSymbolTableRecord
100
AcDbBlockTableRecord
  2
*Model_Space
340
0
  0
BLOCK_RECORD
  5
28
100
AcDbSymbolTableRecord
100
AcDbBlockTableRecord
  2
*Paper_Space
340
0
  0
BLOCK_RECORD
  5
1C
100
AcDbSymbolTableRecord
100
AcDbBlockTableRecord
  2
*D0
340
0
  0
BLOCK_RECORD
  5
1D
100
AcDbSymbolTableRecord
100
AcDbBlockTableRecord
  2
*D1
340
0
  0
BLOCK_RECORD
  5
1E
100
AcDbSymbolTableRecord
100
AcDbBlockTableRecord
  2
*D2
340
0
  0
BLOCK_RECORD
  5
1F
100
AcDbSymbolTableRecord
100
AcDbBlockTableRecord
  2
*D3
340
0
  0
BLOCK_RECORD
  5
20
100
AcDbSymbolTableRecord
100
AcDbBlockTableRecord
  2
*D4
340
0
  0
BLOCK_RECORD
  5
21
100
AcDbSymbolTableRecord
100
AcDbBlockTableRecord
  2
*D5
340
0
  0
BLOCK_RECORD
  5
22
100
AcDbSymbolTableRecord
100
AcDbBlockTableRecord
  2
*D6
340
0
  0
BLOCK_RECORD
  5
23
100
AcDbSymbolTableRecord
100
AcDbBlockTableRecord
  2
*D7
340
0
  0
BLOCK_RECORD
  5
24
100
AcDbSymbolTableRecord
100
AcDbBlockTableRecord
  2
*D8
340
0
  0
BLOCK_RECORD
  5
25
100
AcDbSymbolTableRecord
100
AcDbBlockTableRecord
  2
*D9
340
0
  0
BLOCK_RECORD
  5
26
100
AcDbSymbolTableRecord
100
AcDbBlockTableRecord
  2
*D10
340
0
  0
ENDTAB
  0
ENDSEC
  0
SECTION
  2
BLOCKS
  0
BLOCK
  5
2A
100
AcDbEntity
  8
0
390
0
100
AcDbBlockBegin
  2
*Model_Space
 70
     0
 10
0.0
 20
0.0
 30
0.0
  3
*Model_Space
  1

  0
ENDBLK
  5
2B
100
AcDbEntity
  8
0
390
0
100
AcDbBlockEnd
  0
BLOCK
  5
2C
100
AcDbEntity
 67
     1
  8
0
390
0
100
AcDbBlockBegin
  2
*Paper_Space
 70
     0
 10
0.0
 20
0.0
 30
0.0
  3
*Paper_Space
  1

  0
ENDBLK
  5
2D
100
AcDbEntity
 67
     1
  8
0
390
0
100
AcDbBlockEnd
  0
BLOCK
  5
4D2
100
AcDbEntity
  8
3
100
AcDbBlockBegin
  2
*D0
 70
     1
 10
0.0
 20
0.0
 30
0.0
  3
*D0
  1

  0
LINE
  5
4D3
100
AcDbEntity
  8
3
370
    25
100
AcDbLine
 10
-257.540462
 20
-32.862473
 30
0.0
 11
-257.540462
 21
-40.463234
 31
0.0
  0
LINE
  5
4D4
100
AcDbEntity
  8
3
370
    25
100
AcDbLine
 10
-257.540462
 20
-38.463234
 30
0.0
 11
-253.676759
 21
-39.49851
 31
0.0
  0
LINE
  5
4D5
100
AcDbEntity
  8
3
370
    25
100
AcDbLine
 10
-257.540462
 20
-38.463234
 30
0.0
 11
-253.676759
 21
-37.427958
 31
0.0
  0
LINE
  5
4D6
100
AcDbEntity
  8
3
370
    25
100
AcDbLine
 10
-253.676759
 20
-39.49851
 30
0.0
 11
-253.676759
 21
-37.427958
 31
0.0
  0
LINE
  5
4D7
100
AcDbEntity
  8
3
370
    25
100
AcDbLine
 10
-257.540462
 20
-38.463234
 30
0.0
 11
-138.540462
 21
-38.463234
 31
0.0
  0
LINE
  5
4D8
100
AcDbEntity
  8
3
370
    25
100
AcDbLine
 10
-138.540462
 20
-38.463234
 30
0.0
 11
-142.404166
 21
-37.427958
 31
0.0
  0
LINE
  5
4D9
100
AcDbEntity
  8
3
370
    25
100
AcDbLine
 10
-138.540462
 20
-38.463234
 30
0.0
 11
-142.404166
 21
-39.49851
 31
0.0
  0
LINE
  5
4DA
100
AcDbEntity
  8
3
370
    25
100
AcDbLine
 10
-142.404166
 20
-37.427958
 30
0.0
 11
-142.404166
 21
-39.49851
 31
0.0
  0
LINE
  5
4DB
100
AcDbEntity
  8
3
370
    25
100
AcDbLine
 10
-138.540462
 20
-34.417145
 30
0.0
 11
-138.540462
 21
-40.463234
 31
0.0
  0
ENDBLK
  5
4DC
100
AcDbEntity
  8
3
100
AcDbBlockEnd
  0
BLOCK
  5
4DD
100
AcDbEntity
  8
3
100
AcDbBlockBegin
  2
*D1
 70
     1
 10
0.0
 20
0.0
 30
0.0
  3
*D1
  1

  0
TEXT
  5
4DE
100
AcDbEntity
  8
3
370
    25
100
AcDbText
 10
-96.930267
 20
1.276498
 30
0.0
 40
7.0
  1
５７
 50
90.0
 72
     5
 11
-96.930267
 21
13.876498
 31
0.0
100
AcDbText
  0
LINE
  5
4DF
100
AcDbEntity
  8
3
370
    25
100
AcDbLine
 10
-136.540462
 20
-20.223502
 30
0.0
 11
-93.930267
 21
-20.223502
 31
0.0
  0
LINE
  5
4E0
100
AcDbEntity
  8
3
370
    25
100
AcDbLine
 10
-95.930267
 20
-20.223502
 30
0.0
 11
-94.894991
 21
-16.359799
 31
0.0
  0
LINE
  5
4E1
100
AcDbEntity
  8
3
370
    25
100
AcDbLine
 10
-95.930267
 20
-20.223502
 30
0.0
 11
-96.965544
 21
-16.359799
 31
0.0
  0
LINE
  5
4E2
100
AcDbEntity
  8
3
370
    25
100
AcDbLine
 10
-94.894991
 20
-16.359799
 30
0.0
 11
-96.965544
 21
-16.359799
 31
0.0
  0
LINE
  5
4E3
100
AcDbEntity
  8
3
370
    25
100
AcDbLine
 10
-95.930267
 20
-20.223502
 30
0.0
 11
-95.930267
 21
36.776498
 31
0.0
  0
LINE
  5
4E4
100
AcDbEntity
  8
3
370
    25
100
AcDbLine
 10
-95.930267
 20
36.776498
 30
0.0
 11
-96.965544
 21
32.912795
 31
0.0
  0
LINE
  5
4E5
100
AcDbEntity
  8
3
370
    25
100
AcDbLine
 10
-95.930267
 20
36.776498
 30
0.0
 11
-94.894991
 21
32.912795
 31
0.0
  0
LINE
  5
4E6
100
AcDbEntity
  8
3
370
    25
100
AcDbLine
 10
-96.965544
 20
32.912795
 30
0.0
 11
-94.894991
 21
32.912795
 31
0.0
  0
LINE
  5
4E7
100
AcDbEntity
  8
3
370
    25
100
AcDbLine
 10
-113.540462
 20
36.776498
 30
0.0
 11
-93.930267
 21
36.776498
 31
0.0
  0
ENDBLK
  5
4E8
100
AcDbEntity
  8
3
100
AcDbBlockEnd
  0
BLOCK
  5
4E9
100
AcDbEntity
  8
3
100
AcDbBlockBegin
  2
*D2
 70
     1
 10
0.0
 20
0.0
 30
0.0
  3
*D2
  1

  0
TEXT
  5
4EA
100
AcDbEntity
  8
3
370
    25
100
AcDbText
 10
166.719894
 20
74.776182
 30
0.0
 40
7.0
  1
９０
 50
90.0
 72
     5
 11
166.719894
 21
87.376182
 31
0.0
100
AcDbText
  0
LINE
  5
4EB
100
AcDbEntity
  8
3
370
    25
100
AcDbLine
 10
209.560403
 20
36.776182
 30
0.0
 11
165.719894
 21
36.776182
 31
0.0
  0
LINE
  5
4EC
100
AcDbEntity
  8
3
370
    25
100
AcDbLine
 10
167.719894
 20
36.776182
 30
0.0
 11
168.755171
 21
40.639885
 31
0.0
  0
LINE
  5
4ED
100
AcDbEntity
  8
3
370
    25
100
AcDbLine
 10
167.719894
 20
36.776182
 30
0.0
 11
166.684618
 21
40.639885
 31
0.0
  0
LINE
  5
4EE
100
AcDbEntity
  8
3
370
    25
100
AcDbLine
 10
168.755171
 20
40.639885
 30
0.0
 11
166.684618
 21
40.639885
 31
0.0
  0
LINE
  5
4EF
100
AcDbEntity
  8
3
370
    25
100
AcDbLine
 10
167.719894
 20
36.776182
 30
0.0
 11
167.719894
 21
126.776182
 31
0.0
  0
LINE
  5
4F0
100
AcDbEntity
  8
3
370
    25
100
AcDbLine
 10
167.719894
 20
126.776182
 30
0.0
 11
166.684618
 21
122.912478
 31
0.0
  0
LINE
  5
4F1
100
AcDbEntity
  8
3
370
    25
100
AcDbLine
 10
167.719894
 20
126.776182
 30
0.0
 11
168.755171
 21
122.912478
 31
0.0
  0
LINE
  5
4F2
100
AcDbEntity
  8
3
370
    25
100
AcDbLine
 10
166.684618
 20
122.912478
 30
0.0
 11
168.755171
 21
122.912478
 31
0.0
  0
LINE
  5
4F3
100
AcDbEntity
  8
3
370
    25
100
AcDbLine
 10
213.545853
 20
126.776182
 30
0.0
 11
165.719894
 21
126.776182
 31
0.0
  0
ENDBLK
  5
4F4
100
AcDbEntity
  8
3
100
AcDbBlockEnd
  0
BLOCK
  5
4F5
100
AcDbEntity
  8
3
100
AcDbBlockBegin
  2
*D3
 70
     1
 10
0.0
 20
0.0
 30
0.0
  3
*D3
  1

  0
TEXT
  5
4F6
100
AcDbEntity
  8
3
370
    25
100
AcDbText
 10
-208.540462
 20
-47.863911
 30
0.0
 40
7.0
  1
１６５
 72
     5
 11
-188.940462
 21
-47.863911
 31
0.0
100
AcDbText
  0
LINE
  5
4F7
100
AcDbEntity
  8
3
370
    25
100
AcDbLine
 10
-280.540462
 20
34.776498
 30
0.0
 11
-280.540462
 21
-50.863911
 31
0.0
  0
LINE
  5
4F8
100
AcDbEntity
  8
3
370
    25
100
AcDbLine
 10
-280.540462
 20
-48.863911
 30
0.0
 11
-276.676759
 21
-49.899187
 31
0.0
  0
LINE
  5
4F9
100
AcDbEntity
  8
3
370
    25
100
AcDbLine
 10
-280.540462
 20
-48.863911
 30
0.0
 11
-276.676759
 21
-47.828634
 31
0.0
  0
LINE
  5
4FA
100
AcDbEntity
  8
3
370
    25
100
AcDbLine
 10
-276.676759
 20
-49.899187
 30
0.0
 11
-276.676759
 21
-47.828634
 31
0.0
  0
LINE
  5
4FB
100
AcDbEntity
  8
3
370
    25
100
AcDbLine
 10
-280.540462
 20
-48.863911
 30
0.0
 11
-115.540462
 21
-48.863911
 31
0.0
  0
LINE
  5
4FC
100
AcDbEntity
  8
3
370
    25
100
AcDbLine
 10
-115.540462
 20
-48.863911
 30
0.0
 11
-119.404166
 21
-47.828634
 31
0.0
  0
LINE
  5
4FD
100
AcDbEntity
  8
3
370
    25
100
AcDbLine
 10
-115.540462
 20
-48.863911
 30
0.0
 11
-119.404166
 21
-49.899187
 31
0.0
  0
LINE
  5
4FE
100
AcDbEntity
  8
3
370
    25
100
AcDbLine
 10
-119.404166
 20
-47.828634
 30
0.0
 11
-119.404166
 21
-49.899187
 31
0.0
  0
LINE
  5
4FF
100
AcDbEntity
  8
3
370
    25
100
AcDbLine
 10
-115.540462
 20
34.776498
 30
0.0
 11
-115.540462
 21
-50.863911
 31
0.0
  0
ENDBLK
  5
500
100
AcDbEntity
  8
3
100
AcDbBlockEnd
  0
BLOCK
  5
501
100
AcDbEntity
  8
3
100
AcDbBlockBegin
  2
*D4
 70
     1
 10
0.0
 20
0.0
 30
0.0
  3
*D4
  1

  0
LINE
  5
502
100
AcDbEntity
  8
3
370
    25
100
AcDbLine
 10
-325.040811
 20
139.776865
 30
0.0
 11
-325.040811
 21
227.237061
 31
0.0
  0
LINE
  5
503
100
AcDbEntity
  8
3
370
    25
100
AcDbLine
 10
-325.040811
 20
225.237061
 30
0.0
 11
-321.177108
 21
224.201784
 31
0.0
  0
LINE
  5
504
100
AcDbEntity
  8
3
370
    25
100
AcDbLine
 10
-325.040811
 20
225.237061
 30
0.0
 11
-321.177108
 21
226.272337
 31
0.0
  0
LINE
  5
505
100
AcDbEntity
  8
3
370
    25
100
AcDbLine
 10
-321.177108
 20
224.201784
 30
0.0
 11
-321.177108
 21
226.272337
 31
0.0
  0
LINE
  5
506
100
AcDbEntity
  8
3
370
    25
100
AcDbLine
 10
-325.040811
 20
225.237061
 30
0.0
 11
-71.039811
 21
225.237061
 31
0.0
  0
LINE
  5
507
100
AcDbEntity
  8
3
370
    25
100
AcDbLine
 10
-71.039811
 20
225.237061
 30
0.0
 11
-74.903514
 21
226.272337
 31
0.0
  0
LINE
  5
508
100
AcDbEntity
  8
3
370
    25
100
AcDbLine
 10
-71.039811
 20
225.237061
 30
0.0
 11
-74.903514
 21
224.201784
 31
0.0
  0
LINE
  5
509
100
AcDbEntity
  8
3
370
    25
100
AcDbLine
 10
-74.903514
 20
226.272337
 30
0.0
 11
-74.903514
 21
224.201784
 31
0.0
  0
LINE
  5
50A
100
AcDbEntity
  8
3
370
    25
100
AcDbLine
 10
-71.039811
 20
139.776131
 30
0.0
 11
-71.039811
 21
227.237061
 31
0.0
  0
ENDBLK
  5
50B
100
AcDbEntity
  8
3
100
AcDbBlockEnd
  0
BLOCK
  5
50C
100
AcDbEntity
  8
3
100
AcDbBlockBegin
  2
*D5
 70
     1
 10
0.0
 20
0.0
 30
0.0
  3
*D5
  1

  0
TEXT
  5
50D
100
AcDbEntity
  8
3
370
    25
100
AcDbText
 10
234.560403
 20
-49.758911
 30
0.0
 40
7.0
  1
６０
 72
     5
 11
247.160403
 21
-49.758911
 31
0.0
100
AcDbText
  0
LINE
  5
50E
100
AcDbEntity
  8
3
370
    25
100
AcDbLine
 10
211.560403
 20
34.776182
 30
0.0
 11
211.560403
 21
-52.758911
 31
0.0
  0
LINE
  5
50F
100
AcDbEntity
  8
3
370
    25
100
AcDbLine
 10
211.560403
 20
-50.758911
 30
0.0
 11
215.424107
 21
-51.794187
 31
0.0
  0
LINE
  5
510
100
AcDbEntity
  8
3
370
    25
100
AcDbLine
 10
211.560403
 20
-50.758911
 30
0.0
 11
215.424107
 21
-49.723635
 31
0.0
  0
LINE
  5
511
100
AcDbEntity
  8
3
370
    25
100
AcDbLine
 10
215.424107
 20
-51.794187
 30
0.0
 11
215.424107
 21
-49.723635
 31
0.0
  0
LINE
  5
512
100
AcDbEntity
  8
3
370
    25
100
AcDbLine
 10
211.560403
 20
-50.758911
 30
0.0
 11
271.560403
 21
-50.758911
 31
0.0
  0
LINE
  5
513
100
AcDbEntity
  8
3
370
    25
100
AcDbLine
 10
271.560403
 20
-50.758911
 30
0.0
 11
267.6967
 21
-49.723635
 31
0.0
  0
LINE
  5
514
100
AcDbEntity
  8
3
370
    25
100
AcDbLine
 10
271.560403
 20
-50.758911
 30
0.0
 11
267.6967
 21
-51.794187
 31
0.0
  0
LINE
  5
515
100
AcDbEntity
  8
3
370
    25
100
AcDbLine
 10
267.6967
 20
-49.723635
 30
0.0
 11
267.6967
 21
-51.794187
 31
0.0
  0
LINE
  5
516
100
AcDbEntity
  8
3
370
    25
100
AcDbLine
 10
271.560403
 20
34.776182
 30
0.0
 11
271.560403
 21
-52.758911
 31
0.0
  0
ENDBLK
  5
517
100
AcDbEntity
  8
3
100
AcDbBlockEnd
  0
BLOCK
  5
518
100
AcDbEntity
  8
3
100
AcDbBlockBegin
  2
*D6
 70
     1
 10
0.0
 20
0.0
 30
0.0
  3
*D6
  1

  0
TEXT
  5
519
100
AcDbEntity
  8
3
370
    25
100
AcDbText
 10
233.328689
 20
178.957575
 30
0.0
 40
7.0
  1
９５゜
 50
357.5
 72
     5
 11
252.910034
 21
178.102635
 31
0.0
100
AcDbText
  0
LINE
  5
51A
100
AcDbEntity
  8
3
370
    25
100
AcDbLine
 10
274.706895
 20
154.589391
 30
0.0
 11
281.98661
 21
160.697797
 31
0.0
  0
LINE
  5
51B
100
AcDbEntity
  8
3
370
    25
100
AcDbLine
 10
227.232541
 20
141.104044
 30
0.0
 11
204.244494
 21
164.092091
 31
0.0
  0
LINE
  5
51C
100
AcDbEntity
  8
3
370
    25
100
AcDbLine
 10
280.454522
 20
159.412222
 30
0.0
 11
278.627336
 21
162.970507
 31
0.0
  0
LINE
  5
51D
100
AcDbEntity
  8
3
370
    25
100
AcDbLine
 10
280.454522
 20
159.412222
 30
0.0
 11
277.09299
 21
161.580195
 31
0.0
  0
LINE
  5
51E
100
AcDbEntity
  8
3
370
    25
100
AcDbLine
 10
278.627336
 20
162.970507
 30
0.0
 11
277.09299
 21
161.580195
 31
0.0
  0
LINE
  5
51F
100
AcDbEntity
  8
3
370
    25
100
AcDbLine
 10
205.658707
 20
162.677878
 30
0.0
 11
209.196399
 21
164.544624
 31
0.0
  0
LINE
  5
520
100
AcDbEntity
  8
3
370
    25
100
AcDbLine
 10
205.658707
 20
162.677878
 30
0.0
 11
207.789065
 21
166.063373
 31
0.0
  0
LINE
  5
521
100
AcDbEntity
  8
3
370
    25
100
AcDbLine
 10
209.196399
 20
164.544624
 30
0.0
 11
207.789065
 21
166.063373
 31
0.0
  0
ARC
  5
522
100
AcDbEntity
  8
3
370
    25
100
AcDbCircle
 10
241.560403
 20
126.776182
 30
0.0
 40
50.772665
100
AcDbArc
 50
40.0
 51
135.0
  0
ENDBLK
  5
523
100
AcDbEntity
  8
3
100
AcDbBlockEnd
  0
BLOCK
  5
524
100
AcDbEntity
  8
3
100
AcDbBlockBegin
  2
*D7
 70
     1
 10
0.0
 20
0.0
 30
0.0
  3
*D7
  1

  0
TEXT
  5
525
100
AcDbEntity
  8
3
370
    25
100
AcDbText
 10
191.384983
 20
135.095479
 30
0.0
 40
7.0
  1
９５゜
 50
272.5
 72
     5
 11
192.239923
 21
115.514134
 31
0.0
100
AcDbText
  0
LINE
  5
526
100
AcDbEntity
  8
3
370
    25
100
AcDbLine
 10
227.232541
 20
141.104044
 30
0.0
 11
204.250068
 21
164.086517
 31
0.0
  0
LINE
  5
527
100
AcDbEntity
  8
3
370
    25
100
AcDbLine
 10
214.138286
 20
94.095775
 30
0.0
 11
207.643855
 21
86.356014
 31
0.0
  0
LINE
  5
528
100
AcDbEntity
  8
3
370
    25
100
AcDbLine
 10
205.664282
 20
162.672303
 30
0.0
 11
202.278799
 21
160.541926
 31
0.0
  0
LINE
  5
529
100
AcDbEntity
  8
3
370
    25
100
AcDbLine
 10
205.664282
 20
162.672303
 30
0.0
 11
203.797557
 21
159.134601
 31
0.0
  0
LINE
  5
52A
100
AcDbEntity
  8
3
370
    25
100
AcDbLine
 10
202.278799
 20
160.541926
 30
0.0
 11
203.797557
 21
159.134601
 31
0.0
  0
LINE
  5
52B
100
AcDbEntity
  8
3
370
    25
100
AcDbLine
 10
208.929431
 20
87.888103
 30
0.0
 11
206.761478
 21
91.249647
 31
0.0
  0
LINE
  5
52C
100
AcDbEntity
  8
3
370
    25
100
AcDbLine
 10
208.929431
 20
87.888103
 30
0.0
 11
205.371156
 21
89.715309
 31
0.0
  0
LINE
  5
52D
100
AcDbEntity
  8
3
370
    25
100
AcDbLine
 10
206.761478
 20
91.249647
 30
0.0
 11
205.371156
 21
89.715309
 31
0.0
  0
ARC
  5
52E
100
AcDbEntity
  8
3
370
    25
100
AcDbCircle
 10
241.560403
 20
126.776182
 30
0.0
 40
50.764782
100
AcDbArc
 50
135.0
 51
230.0
  0
ENDBLK
  5
52F
100
AcDbEntity
  8
3
100
AcDbBlockEnd
  0
BLOCK
  5
530
100
AcDbEntity
  8
3
100
AcDbBlockBegin
  2
*D8
 70
     1
 10
0.0
 20
0.0
 30
0.0
  3
*D8
  1

  0
TEXT
  5
531
100
AcDbEntity
  8
3
370
    25
100
AcDbText
 10
277.060554
 20
-49.758911
 30
0.0
 40
7.0
  1
２５
 72
     5
 11
289.660554
 21
-49.758911
 31
0.0
100
AcDbText
  0
LINE
  5
532
100
AcDbEntity
  8
3
370
    25
100
AcDbLine
 10
271.560403
 20
34.776182
 30
0.0
 11
271.560403
 21
-52.758911
 31
0.0
  0
LINE
  5
533
100
AcDbEntity
  8
3
370
    25
100
AcDbLine
 10
271.560403
 20
-50.758911
 30
0.0
 11
275.424107
 21
-51.794187
 31
0.0
  0
LINE
  5
534
100
AcDbEntity
  8
3
370
    25
100
AcDbLine
 10
271.560403
 20
-50.758911
 30
0.0
 11
275.424107
 21
-49.723635
 31
0.0
  0
LINE
  5
535
100
AcDbEntity
  8
3
370
    25
100
AcDbLine
 10
275.424107
 20
-51.794187
 30
0.0
 11
275.424107
 21
-49.723635
 31
0.0
  0
LINE
  5
536
100
AcDbEntity
  8
3
370
    25
100
AcDbLine
 10
271.560403
 20
-50.758911
 30
0.0
 11
296.560704
 21
-50.758911
 31
0.0
  0
LINE
  5
537
100
AcDbEntity
  8
3
370
    25
100
AcDbLine
 10
296.560704
 20
-50.758911
 30
0.0
 11
292.697001
 21
-49.723635
 31
0.0
  0
LINE
  5
538
100
AcDbEntity
  8
3
370
    25
100
AcDbLine
 10
296.560704
 20
-50.758911
 30
0.0
 11
292.697001
 21
-51.794187
 31
0.0
  0
LINE
  5
539
100
AcDbEntity
  8
3
370
    25
100
AcDbLine
 10
292.697001
 20
-49.723635
 30
0.0
 11
292.697001
 21
-51.794187
 31
0.0
  0
LINE
  5
53A
100
AcDbEntity
  8
3
370
    25
100
AcDbLine
 10
296.560704
 20
134.775799
 30
0.0
 11
296.560704
 21
-52.758911
 31
0.0
  0
ENDBLK
  5
53B
100
AcDbEntity
  8
3
100
AcDbBlockEnd
  0
BLOCK
  5
53C
100
AcDbEntity
  8
3
100
AcDbBlockBegin
  2
*D9
 70
     1
 10
0.0
 20
0.0
 30
0.0
  3
*D9
  1

  0
LINE
  5
53D
100
AcDbEntity
  8
3
370
    25
100
AcDbLine
 10
1.560403
 20
170.724498
 30
0.0
 11
1.560403
 21
-41.281525
 31
0.0
  0
LINE
  5
53E
100
AcDbEntity
  8
3
370
    25
100
AcDbLine
 10
1.560403
 20
-39.281525
 30
0.0
 11
5.424107
 21
-40.316801
 31
0.0
  0
LINE
  5
53F
100
AcDbEntity
  8
3
370
    25
100
AcDbLine
 10
1.560403
 20
-39.281525
 30
0.0
 11
5.424107
 21
-38.246248
 31
0.0
  0
LINE
  5
540
100
AcDbEntity
  8
3
370
    25
100
AcDbLine
 10
5.424107
 20
-40.316801
 30
0.0
 11
5.424107
 21
-38.246248
 31
0.0
  0
LINE
  5
541
100
AcDbEntity
  8
3
370
    25
100
AcDbLine
 10
1.560403
 20
-39.281525
 30
0.0
 11
241.560403
 21
-39.281525
 31
0.0
  0
LINE
  5
542
100
AcDbEntity
  8
3
370
    25
100
AcDbLine
 10
241.560403
 20
-39.281525
 30
0.0
 11
237.6967
 21
-38.246248
 31
0.0
  0
LINE
  5
543
100
AcDbEntity
  8
3
370
    25
100
AcDbLine
 10
241.560403
 20
-39.281525
 30
0.0
 11
237.6967
 21
-40.316801
 31
0.0
  0
LINE
  5
544
100
AcDbEntity
  8
3
370
    25
100
AcDbLine
 10
237.6967
 20
-38.246248
 30
0.0
 11
237.6967
 21
-40.316801
 31
0.0
  0
LINE
  5
545
100
AcDbEntity
  8
3
370
    25
100
AcDbLine
 10
241.560403
 20
-24.061848
 30
0.0
 11
241.560403
 21
-41.281525
 31
0.0
  0
ENDBLK
  5
546
100
AcDbEntity
  8
3
100
AcDbBlockEnd
  0
BLOCK
  5
547
100
AcDbEntity
  8
3
100
AcDbBlockBegin
  2
*D10
 70
     1
 10
0.0
 20
0.0
 30
0.0
  3
*D10
  1

  0
TEXT
  5
548
100
AcDbEntity
  8
3
370
    25
100
AcDbText
 10
-20.462994
 20
89.926362
 30
0.0
 40
7.0
  1
１２７
 50
90.0
 72
     5
 11
-20.462994
 21
109.526362
 31
0.0
100
AcDbText
  0
LINE
  5
549
100
AcDbEntity
  8
3
370
    25
100
AcDbLine
 10
209.560403
 20
36.776182
 30
0.0
 11
-21.462994
 21
36.776182
 31
0.0
  0
LINE
  5
54A
100
AcDbEntity
  8
3
370
    25
100
AcDbLine
 10
-19.462994
 20
36.776182
 30
0.0
 11
-18.427717
 21
40.639885
 31
0.0
  0
LINE
  5
54B
100
AcDbEntity
  8
3
370
    25
100
AcDbLine
 10
-19.462994
 20
36.776182
 30
0.0
 11
-20.49827
 21
40.639885
 31
0.0
  0
LINE
  5
54C
100
AcDbEntity
  8
3
370
    25
100
AcDbLine
 10
-18.427717
 20
40.639885
 30
0.0
 11
-20.49827
 21
40.639885
 31
0.0
  0
LINE
  5
54D
100
AcDbEntity
  8
3
370
    25
100
AcDbLine
 10
-19.462994
 20
36.776182
 30
0.0
 11
-19.462994
 21
164.076542
 31
0.0
  0
LINE
  5
54E
100
AcDbEntity
  8
3
370
    25
100
AcDbLine
 10
-19.462994
 20
164.076542
 30
0.0
 11
-20.49827
 21
160.212839
 31
0.0
  0
LINE
  5
54F
100
AcDbEntity
  8
3
370
    25
100
AcDbLine
 10
-19.462994
 20
164.076542
 30
0.0
 11
-18.427717
 21
160.212839
 31
0.0
  0
LINE
  5
550
100
AcDbEntity
  8
3
370
    25
100
AcDbLine
 10
-20.49827
 20
160.212839
 30
0.0
 11
-18.427717
 21
160.212839
 31
0.0
  0
LINE
  5
551
100
AcDbEntity
  8
3
370
    25
100
AcDbLine
 10
-0.439609
 20
164.076542
 30
0.0
 11
-21.462994
 21
164.076542
 31
0.0
  0
ENDBLK
  5
552
100
AcDbEntity
  8
3
100
AcDbBlockEnd
  0
ENDSEC
  0
SECTION
  2
ENTITIES
  0
LINE
  5
2F
100
AcDbEntity
  8
1
370
   100
100
AcDbLine
 10
-373.02157
 20
275.028767
 30
0.0
 11
394.982385
 21
275.028767
 31
0.0
  0
LINE
  5
30
100
AcDbEntity
  8
1
370
   100
100
AcDbLine
 10
-373.02157
 20
275.028767
 30
0.0
 11
-373.02157
 21
-277.971881
 31
0.0
  0
LINE
  5
31
100
AcDbEntity
  8
1
370
   100
100
AcDbLine
 10
-373.02157
 20
-277.971881
 30
0.0
 11
394.982385
 21
-277.971881
 31
0.0
  0
LINE
  5
32
100
AcDbEntity
  8
1
370
   100
100
AcDbLine
 10
394.982385
 20
-277.971881
 30
0.0
 11
394.982385
 21
275.028767
 31
0.0
  0
TEXT
  5
33
100
AcDbEntity
  8
1
370
    50
100
AcDbText
 10
359.628442
 20
-226.252857
 30
0.0
 40
6.0
  1
設計
 72
     5
 11
370.428442
 21
-226.252857
 31
0.0
100
AcDbText
  0
TEXT
  5
34
100
AcDbEntity
  8
1
370
    50
100
AcDbText
 10
379.127478
 20
-226.099658
 30
0.0
 40
6.0
  1
製図
 72
     5
 11
389.927478
 21
-226.099658
 31
0.0
100
AcDbText
  0
TEXT
  5
35
100
AcDbEntity
  8
1
370
    50
100
AcDbText
 10
319.005745
 20
-226.252857
 30
0.0
 40
6.0
  1
承認
 72
     5
 11
329.805745
 21
-226.252857
 31
0.0
100
AcDbText
  0
TEXT
  5
36
100
AcDbEntity
  8
1
370
    50
100
AcDbText
 10
338.989679
 20
-226.19802
 30
0.0
 40
6.0
  1
検図
 72
     5
 11
349.789679
 21
-226.19802
 31
0.0
100
AcDbText
  0
LINE
  5
37
100
AcDbEntity
  8
1
370
    25
100
AcDbLine
 10
284.982385
 20
-227.971881
 30
0.0
 11
394.982385
 21
-227.971881
 31
0.0
  0
LINE
  5
38
100
AcDbEntity
  8
1
370
    25
100
AcDbLine
 10
342.482385
 20
-245.971881
 30
0.0
 11
342.482385
 21
-259.971881
 31
0.0
  0
TEXT
  5
39
100
AcDbEntity
  8
1
370
    50
100
AcDbText
 10
319.55159
 20
-256.012528
 30
0.0
 40
6.0
  1
日　付
 72
     5
 11
336.35159
 21
-256.012528
 31
0.0
100
AcDbText
  0
LINE
  5
3A
100
AcDbEntity
  8
1
370
    50
100
AcDbLine
 10
40.982385
 20
-259.971881
 30
0.0
 11
394.982385
 21
-259.971881
 31
0.0
  0
TEXT
  5
3B
100
AcDbEntity
  8
1
370
    50
100
AcDbText
 10
287.775011
 20
-256.322406
 30
0.0
 40
6.0
  1
第三角法
 72
     5
 11
310.575011
 21
-256.322406
 31
0.0
100
AcDbText
  0
TEXT
  5
3C
100
AcDbEntity
  8
1
370
    50
100
AcDbText
 10
291.087419
 20
-225.99802
 30
0.0
 40
6.0
  1
尺　度
 72
     5
 11
307.887419
 21
-225.99802
 31
0.0
100
AcDbText
  0
LINE
  5
3D
100
AcDbEntity
  8
1
370
   100
100
AcDbLine
 10
40.982385
 20
-217.971881
 30
0.0
 11
394.982385
 21
-217.971881
 31
0.0
  0
LINE
  5
3E
100
AcDbEntity
  8
1
370
    50
100
AcDbLine
 10
211.982385
 20
-217.971881
 30
0.0
 11
211.982385
 21
-277.971881
 31
0.0
  0
LINE
  5
3F
100
AcDbEntity
  8
1
370
    25
100
AcDbLine
 10
374.982385
 20
-245.971881
 30
0.0
 11
374.982385
 21
-217.971881
 31
0.0
  0
LINE
  5
40
100
AcDbEntity
  8
1
370
    25
100
AcDbLine
 10
354.982385
 20
-245.971881
 30
0.0
 11
354.982385
 21
-217.971881
 31
0.0
  0
LINE
  5
41
100
AcDbEntity
  8
1
370
    25
100
AcDbLine
 10
334.982385
 20
-245.971881
 30
0.0
 11
334.982385
 21
-217.971881
 31
0.0
  0
LINE
  5
42
100
AcDbEntity
  8
1
370
    50
100
AcDbLine
 10
284.982385
 20
-277.971881
 30
0.0
 11
284.982385
 21
-217.971881
 31
0.0
  0
LINE
  5
43
100
AcDbEntity
  8
1
370
    50
100
AcDbLine
 10
189.982385
 20
-217.971881
 30
0.0
 11
189.982385
 21
-277.971881
 31
0.0
  0
LINE
  5
44
100
AcDbEntity
  8
1
370
    50
100
AcDbLine
 10
62.982385
 20
-217.971881
 30
0.0
 11
62.982385
 21
-259.971881
 31
0.0
  0
LINE
  5
45
100
AcDbEntity
  8
1
370
    50
100
AcDbLine
 10
284.982385
 20
-245.971881
 30
0.0
 11
394.982385
 21
-245.971881
 31
0.0
  0
TEXT
  5
46
100
AcDbEntity
  8
1
370
    50
100
AcDbText
 10
287.101129
 20
-271.880939
 30
0.0
 40
6.0
  1
コードＮｏ
 41
0.9
 72
     5
 11
313.021129
 21
-271.880939
 31
0.0
100
AcDbText
  0
TEXT
  5
47
100
AcDbEntity
  8
1
370
   100
100
AcDbText
 10
52.886774
 20
-272.875659
 30
0.0
 40
8.0
  1
ミズタニバルブ工業株式会社
 41
1.2
 72
     5
 11
175.766774
 21
-272.875659
 31
0.0
100
AcDbText
  0
LINE
  5
48
100
AcDbEntity
  8
1
370
    50
100
AcDbLine
 10
40.982385
 20
-238.971881
 30
0.0
 11
284.982385
 21
-238.971881
 31
0.0
  0
LINE
  5
49
100
AcDbEntity
  8
1
370
    50
100
AcDbLine
 10
115.482385
 20
-238.971881
 30
0.0
 11
115.482385
 21
-259.971881
 31
0.0
  0
LINE
  5
4A
100
AcDbEntity
  8
1
370
    50
100
AcDbLine
 10
137.482385
 20
-238.971881
 30
0.0
 11
137.482385
 21
-259.971881
 31
0.0
  0
LINE
  5
4B
100
AcDbEntity
  8
1
370
    50
100
AcDbLine
 10
314.982385
 20
-277.971881
 30
0.0
 11
314.982385
 21
-217.971881
 31
0.0
  0
TEXT
  5
4C
100
AcDbEntity
  8
1
370
    50
100
AcDbText
 10
345.098131
 20
-256.100293
 30
0.0
 40
6.0
  1
　　・　　・
 72
     5
 11
379.898131
 21
-256.100293
 31
0.0
100
AcDbText
  0
LINE
  5
4D
100
AcDbEntity
  8
1
370
   100
100
AcDbLine
 10
40.982385
 20
-217.971881
 30
0.0
 11
40.982385
 21
-277.971881
 31
0.0
  0
TEXT
  5
4E
100
AcDbEntity
  8
1
370
    50
100
AcDbText
 10
290.832582
 20
-240.013492
 30
0.0
 40
6.0
  1
　／ 
 72
     5
 11
301.632582
 21
-240.013492
 31
0.0
100
AcDbText
  0
TEXT
  5
4F
100
AcDbEntity
  8
1
370
    50
100
AcDbText
 10
193.904123
 20
-272.024909
 30
0.0
 40
6.0
  1
備 考 
 72
     5
 11
207.704123
 21
-272.024909
 31
0.0
100
AcDbText
  0
TEXT
  5
50
100
AcDbEntity
  8
1
370
    50
100
AcDbText
 10
193.512534
 20
-230.89184
 30
0.0
 40
6.0
  1
仕 上
 72
     5
 11
207.312534
 21
-230.89184
 31
0.0
100
AcDbText
  0
TEXT
  5
51
100
AcDbEntity
  8
1
370
    50
100
AcDbText
 10
193.447176
 20
-248.891666
 30
0.0
 40
6.0
  1
表 面
 72
     5
 11
207.247176
 21
-248.891666
 31
0.0
100
AcDbText
  0
TEXT
  5
52
100
AcDbEntity
  8
1
370
    50
100
AcDbText
 10
193.447176
 20
-255.891666
 30
0.0
 40
6.0
  1
処 理
 72
     5
 11
207.247176
 21
-255.891666
 31
0.0
100
AcDbText
  0
TEXT
  5
53
100
AcDbEntity
  8
1
370
    50
100
AcDbText
 10
44.79335
 20
-231.693399
 30
0.0
 40
6.0
  1
品 名
 72
     5
 11
58.59335
 21
-231.693399
 31
0.0
100
AcDbText
  0
TEXT
  5
54
100
AcDbEntity
  8
1
370
    50
100
AcDbText
 10
44.397766
 20
-252.462534
 30
0.0
 40
6.0
  1
材 質
 72
     5
 11
58.197766
 21
-252.462534
 31
0.0
100
AcDbText
  0
TEXT
  5
55
100
AcDbEntity
  8
1
370
    50
100
AcDbText
 10
118.897766
 20
-252.462534
 30
0.0
 40
6.0
  1
規 格
 72
     5
 11
132.697766
 21
-252.462534
 31
0.0
100
AcDbText
  0
LINE
  5
56
100
AcDbEntity
  8
2
370
    50
100
AcDbLine
 10
-218.946343
 20
150.776498
 30
0.0
 11
-269.540811
 21
150.776498
 31
0.0
  0
LINE
  5
57
100
AcDbEntity
  8
2
370
    50
100
AcDbLine
 10
-163.134582
 20
150.776498
 30
0.0
 11
-126.540811
 21
150.776498
 31
0.0
  0
LINE
  5
58
100
AcDbEntity
  8
2
370
    50
100
AcDbLine
 10
-269.540532
 20
73.235128
 30
0.0
 11
-269.540583
 21
126.776498
 31
0.0
  0
LINE
  5
59
100
AcDbEntity
  8
2
370
    50
100
AcDbLine
 10
-191.04036
 20
161.276498
 30
0.0
 11
-175.040462
 21
161.276498
 31
0.0
  0
LINE
  5
5A
100
AcDbEntity
  8
2
370
    50
100
AcDbLine
 10
-191.04036
 20
161.276498
 30
0.0
 11
-207.040462
 21
161.276498
 31
0.0
  0
LINE
  5
5B
100
AcDbEntity
  8
2
370
    50
100
AcDbLine
 10
-218.946343
 20
150.776498
 30
0.0
 11
-269.540811
 21
150.776498
 31
0.0
  0
ARC
  5
5C
100
AcDbEntity
  8
2
370
    50
100
AcDbCircle
 10
-163.134582
 20
162.776498
 30
0.0
 40
12.0
100
AcDbArc
 50
187.180756
 51
270.0
  0
LINE
  5
5D
100
AcDbEntity
  8
2
370
    50
100
AcDbLine
 10
-177.840462
 20
161.276498
 30
0.0
 11
-175.040462
 21
161.276498
 31
0.0
  0
LINE
  5
5E
100
AcDbEntity
  8
2
370
    50
100
AcDbLine
 10
-204.240462
 20
161.276498
 30
0.0
 11
-207.040462
 21
161.276498
 31
0.0
  0
ARC
  5
5F
100
AcDbEntity
  8
2
370
    50
100
AcDbCircle
 10
-163.134582
 20
162.776498
 30
0.0
 40
12.0
100
AcDbArc
 50
187.180756
 51
270.0
  0
ARC
  5
60
100
AcDbEntity
  8
2
370
    50
100
AcDbCircle
 10
-218.946343
 20
162.776498
 30
0.0
 40
12.0
100
AcDbArc
 50
270.0
 51
352.819244
  0
LINE
  5
61
100
AcDbEntity
  8
2
370
    50
100
AcDbLine
 10
-269.540811
 20
150.776498
 30
0.0
 11
-269.540811
 21
126.776498
 31
0.0
  0
LINE
  5
62
100
AcDbEntity
  8
2
370
    50
100
AcDbLine
 10
-269.540811
 20
150.776498
 30
0.0
 11
-269.540811
 21
146.276498
 31
0.0
  0
LINE
  5
63
100
AcDbEntity
  8
2
370
    50
100
AcDbLine
 10
-126.540811
 20
150.776498
 30
0.0
 11
-126.540811
 21
129.776498
 31
0.0
  0
LINE
  5
64
100
AcDbEntity
  8
2
370
    50
100
AcDbLine
 10
-126.54038
 20
73.235134
 30
0.0
 11
-126.54038
 21
129.776498
 31
0.0
  0
LINE
  5
65
100
AcDbEntity
  8
2
370
    50
100
AcDbLine
 10
-115.540462
 20
55.084777
 30
0.0
 11
-115.540462
 21
36.776498
 31
0.0
  0
LINE
  5
66
100
AcDbEntity
  8
2
370
    50
100
AcDbLine
 10
-280.540462
 20
36.776498
 30
0.0
 11
-115.540462
 21
36.776498
 31
0.0
  0
LINE
  5
67
100
AcDbEntity
  8
2
370
    50
100
AcDbLine
 10
-124.403591
 20
67.056948
 30
0.0
 11
-115.96782
 21
56.320413
 31
0.0
  0
ARC
  5
68
100
AcDbEntity
  8
2
370
    50
100
AcDbCircle
 10
-116.54038
 20
73.235128
 30
0.0
 40
10.0
100
AcDbArc
 50
179.999967
 51
218.156969
  0
ARC
  5
69
100
AcDbEntity
  8
2
370
    50
100
AcDbCircle
 10
-117.540462
 20
55.084777
 30
0.0
 40
2.0
100
AcDbArc
 50
360.0
 51
38.156969
  0
LINE
  5
6A
100
AcDbEntity
  8
2
370
    50
100
AcDbLine
 10
-280.540462
 20
55.084777
 30
0.0
 11
-280.540462
 21
36.776498
 31
0.0
  0
ARC
  5
6B
100
AcDbEntity
  8
2
370
    50
100
AcDbCircle
 10
-278.540462
 20
55.084777
 30
0.0
 40
2.0
100
AcDbArc
 50
141.843031
 51
180.0
  0
LINE
  5
6C
100
AcDbEntity
  8
2
370
    50
100
AcDbLine
 10
-271.677334
 20
67.056948
 30
0.0
 11
-280.113105
 21
56.320413
 31
0.0
  0
ARC
  5
6D
100
AcDbEntity
  8
2
370
    50
100
AcDbCircle
 10
-279.540545
 20
73.235128
 30
0.0
 40
10.0
100
AcDbArc
 50
321.843031
 51
0.000033
  0
LINE
  5
6E
100
AcDbEntity
  8
2
370
    50
100
AcDbLine
 10
-281.540811
 20
104.717023
 30
0.0
 11
-281.540811
 21
105.175631
 31
0.0
  0
LINE
  5
6F
100
AcDbEntity
  8
2
370
    50
100
AcDbLine
 10
-281.540811
 20
148.83424
 30
0.0
 11
-281.540811
 21
148.375631
 31
0.0
  0
LINE
  5
70
100
AcDbEntity
  8
2
370
    50
100
AcDbLine
 10
-281.102828
 20
149.330379
 30
0.0
 11
-270.102828
 21
150.705379
 31
0.0
  0
LINE
  5
71
100
AcDbEntity
  8
2
370
    50
100
AcDbLine
 10
-281.102828
 20
104.220884
 30
0.0
 11
-270.102828
 21
102.845884
 31
0.0
  0
ARC
  5
72
100
AcDbEntity
  8
2
370
    50
100
AcDbCircle
 10
-281.040811
 20
148.83424
 30
0.0
 40
0.5
100
AcDbArc
 50
97.125016
 51
180.0
  0
ARC
  5
73
100
AcDbEntity
  8
2
370
    50
100
AcDbCircle
 10
-281.040811
 20
104.717023
 30
0.0
 40
0.5
100
AcDbArc
 50
180.0
 51
262.874984
  0
ARC
  5
74
100
AcDbEntity
  8
2
370
    50
100
AcDbCircle
 10
-270.040811
 20
103.342023
 30
0.0
 40
0.5
100
AcDbArc
 50
262.874984
 51
0.0
  0
ARC
  5
75
100
AcDbEntity
  8
2
370
    50
100
AcDbCircle
 10
-270.040811
 20
150.20924
 30
0.0
 40
0.5
100
AcDbArc
 50
360.0
 51
97.125016
  0
LINE
  5
76
100
AcDbEntity
  8
2
370
    50
100
AcDbLine
 10
-113.540811
 20
111.776498
 30
0.0
 11
-114.540811
 21
111.776498
 31
0.0
  0
LINE
  5
77
100
AcDbEntity
  8
2
370
    50
100
AcDbLine
 10
-114.540811
 20
104.776269
 30
0.0
 11
-114.540811
 21
105.276498
 31
0.0
  0
LINE
  5
78
100
AcDbEntity
  8
2
370
    50
100
AcDbLine
 10
-114.978794
 20
104.22175
 30
0.0
 11
-125.978794
 21
102.84675
 31
0.0
  0
ARC
  5
79
100
AcDbEntity
  8
2
370
    50
100
AcDbCircle
 10
-115.040811
 20
104.717889
 30
0.0
 40
0.5
100
AcDbArc
 50
277.125016
 51
360.0
  0
ARC
  5
7A
100
AcDbEntity
  8
2
370
    50
100
AcDbCircle
 10
-126.040811
 20
103.342889
 30
0.0
 40
0.5
100
AcDbArc
 50
180.0
 51
277.125016
  0
LINE
  5
7B
100
AcDbEntity
  8
2
370
    50
100
AcDbLine
 10
-114.540811
 20
148.835107
 30
0.0
 11
-114.540811
 21
104.717889
 31
0.0
  0
LINE
  5
7C
100
AcDbEntity
  8
2
370
    50
100
AcDbLine
 10
-114.978794
 20
149.331246
 30
0.0
 11
-125.978794
 21
150.706246
 31
0.0
  0
ARC
  5
7D
100
AcDbEntity
  8
2
370
    50
100
AcDbCircle
 10
-115.040811
 20
148.835107
 30
0.0
 40
0.5
100
AcDbArc
 50
0.0
 51
82.874984
  0
ARC
  5
7E
100
AcDbEntity
  8
2
370
    50
100
AcDbCircle
 10
-126.040811
 20
150.210107
 30
0.0
 40
0.5
100
AcDbArc
 50
82.874984
 51
180.0
  0
LINE
  5
7F
100
AcDbEntity
  8
2
370
    50
100
AcDbLine
 10
-113.540811
 20
143.276498
 30
0.0
 11
-114.540811
 21
143.276498
 31
0.0
  0
LINE
  5
80
100
AcDbEntity
  8
2
370
    50
100
AcDbLine
 10
-281.540811
 20
148.375631
 30
0.0
 11
-281.540811
 21
105.175631
 31
0.0
  0
LINE
  5
81
100
AcDbEntity
  8
2
370
    50
100
AcDbLine
 10
-124.040811
 20
137.776498
 30
0.0
 11
-117.040811
 21
137.776498
 31
0.0
  0
LINE
  5
82
100
AcDbEntity
  8
2
370
    50
100
AcDbLine
 10
-117.040811
 20
137.776498
 30
0.0
 11
-120.540811
 21
131.71432
 31
0.0
  0
LINE
  5
83
100
AcDbEntity
  8
2
370
    50
100
AcDbLine
 10
-124.040811
 20
137.776498
 30
0.0
 11
-120.540811
 21
131.71432
 31
0.0
  0
LINE
  5
84
100
AcDbEntity
  8
2
370
    50
100
AcDbLine
 10
-124.040811
 20
147.776498
 30
0.0
 11
-117.040811
 21
147.776498
 31
0.0
  0
LINE
  5
85
100
AcDbEntity
  8
2
370
    50
100
AcDbLine
 10
-117.040811
 20
147.776498
 30
0.0
 11
-118.168653
 21
149.729978
 31
0.0
  0
LINE
  5
86
100
AcDbEntity
  8
2
370
    50
100
AcDbLine
 10
-124.040811
 20
147.776498
 30
0.0
 11
-122.593624
 21
150.2831
 31
0.0
  0
LINE
  5
87
100
AcDbEntity
  8
2
370
    50
100
AcDbLine
 10
-123.540811
 20
139.776498
 30
0.0
 11
-117.540811
 21
139.776498
 31
0.0
  0
ARC
  5
88
100
AcDbEntity
  8
2
370
    50
100
AcDbCircle
 10
-117.540811
 20
140.276498
 30
0.0
 40
0.5
100
AcDbArc
 50
270.0
 51
90.0
  0
ARC
  5
89
100
AcDbEntity
  8
2
370
    50
100
AcDbCircle
 10
-123.540811
 20
140.276498
 30
0.0
 40
0.5
100
AcDbArc
 50
90.0
 51
270.0
  0
LINE
  5
8A
100
AcDbEntity
  8
2
370
    50
100
AcDbLine
 10
-121.040811
 20
145.276498
 30
0.0
 11
-121.040811
 21
140.776498
 31
0.0
  0
ARC
  5
8B
100
AcDbEntity
  8
2
370
    50
100
AcDbCircle
 10
-120.540811
 20
145.276498
 30
0.0
 40
0.5
100
AcDbArc
 50
0.0
 51
180.0
  0
LINE
  5
8C
100
AcDbEntity
  8
2
370
    50
100
AcDbLine
 10
-120.040811
 20
140.776498
 30
0.0
 11
-117.540811
 21
140.776498
 31
0.0
  0
LINE
  5
8D
100
AcDbEntity
  8
2
370
    50
100
AcDbLine
 10
-122.040811
 20
143.776498
 30
0.0
 11
-122.040811
 21
140.776498
 31
0.0
  0
LINE
  5
8E
100
AcDbEntity
  8
2
370
    50
100
AcDbLine
 10
-123.040811
 20
143.776498
 30
0.0
 11
-123.040811
 21
140.776498
 31
0.0
  0
ARC
  5
8F
100
AcDbEntity
  8
2
370
    50
100
AcDbCircle
 10
-122.540811
 20
143.776498
 30
0.0
 40
0.5
100
AcDbArc
 50
0.0
 51
180.0
  0
LINE
  5
90
100
AcDbEntity
  8
2
370
    50
100
AcDbLine
 10
-123.540811
 20
140.776498
 30
0.0
 11
-123.040811
 21
140.776498
 31
0.0
  0
LINE
  5
91
100
AcDbEntity
  8
2
370
    50
100
AcDbLine
 10
-122.040811
 20
140.776498
 30
0.0
 11
-121.040811
 21
140.776498
 31
0.0
  0
LINE
  5
92
100
AcDbEntity
  8
2
370
    50
100
AcDbLine
 10
-120.040811
 20
142.776498
 30
0.0
 11
-118.540811
 21
142.776498
 31
0.0
  0
LINE
  5
93
100
AcDbEntity
  8
2
370
    50
100
AcDbLine
 10
-120.040811
 20
143.776498
 30
0.0
 11
-118.540811
 21
143.776498
 31
0.0
  0
ARC
  5
94
100
AcDbEntity
  8
2
370
    50
100
AcDbCircle
 10
-118.540811
 20
143.276498
 30
0.0
 40
0.5
100
AcDbArc
 50
270.0
 51
90.0
  0
LINE
  5
95
100
AcDbEntity
  8
2
370
    50
100
AcDbLine
 10
-120.040811
 20
145.276498
 30
0.0
 11
-120.040811
 21
143.776498
 31
0.0
  0
LINE
  5
96
100
AcDbEntity
  8
2
370
    50
100
AcDbLine
 10
-120.040811
 20
142.776498
 30
0.0
 11
-120.040811
 21
140.776498
 31
0.0
  0
LINE
  5
97
100
AcDbEntity
  8
2
370
    50
100
AcDbLine
 10
-116.540811
 20
130.71432
 30
0.0
 11
-116.540811
 21
127.71432
 31
0.0
  0
LINE
  5
98
100
AcDbEntity
  8
2
370
    50
100
AcDbLine
 10
-116.540811
 20
130.71432
 30
0.0
 11
-123.040811
 21
130.71432
 31
0.0
  0
LINE
  5
99
100
AcDbEntity
  8
2
370
    50
100
AcDbLine
 10
-116.540811
 20
127.71432
 30
0.0
 11
-123.040811
 21
127.71432
 31
0.0
  0
ARC
  5
9A
100
AcDbEntity
  8
2
370
    50
100
AcDbCircle
 10
-123.040811
 20
129.21432
 30
0.0
 40
1.5
100
AcDbArc
 50
90.0
 51
270.0
  0
LINE
  5
9B
100
AcDbEntity
  8
2
370
    50
100
AcDbLine
 10
-120.540811
 20
127.21432
 30
0.0
 11
-120.540811
 21
123.71432
 31
0.0
  0
LINE
  5
9C
100
AcDbEntity
  8
2
370
    50
100
AcDbLine
 10
-121.540811
 20
127.21432
 30
0.0
 11
-121.540811
 21
123.71432
 31
0.0
  0
LINE
  5
9D
100
AcDbEntity
  8
2
370
    50
100
AcDbLine
 10
-122.540811
 20
127.21432
 30
0.0
 11
-122.540811
 21
123.71432
 31
0.0
  0
LINE
  5
9E
100
AcDbEntity
  8
2
370
    50
100
AcDbLine
 10
-123.540811
 20
127.21432
 30
0.0
 11
-123.540811
 21
123.71432
 31
0.0
  0
LINE
  5
9F
100
AcDbEntity
  8
2
370
    50
100
AcDbLine
 10
-120.540811
 20
127.21432
 30
0.0
 11
-121.540811
 21
127.21432
 31
0.0
  0
LINE
  5
A0
100
AcDbEntity
  8
2
370
    50
100
AcDbLine
 10
-122.540811
 20
127.21432
 30
0.0
 11
-123.540811
 21
127.21432
 31
0.0
  0
ARC
  5
A1
100
AcDbEntity
  8
2
370
    50
100
AcDbCircle
 10
-121.040811
 20
123.71432
 30
0.0
 40
0.5
100
AcDbArc
 50
180.0
 51
360.0
  0
ARC
  5
A2
100
AcDbEntity
  8
2
370
    50
100
AcDbCircle
 10
-123.040811
 20
123.71432
 30
0.0
 40
0.5
100
AcDbArc
 50
180.0
 51
360.0
  0
LINE
  5
A3
100
AcDbEntity
  8
2
370
    25
100
AcDbLine
 10
-123.040811
 20
141.526498
 30
0.0
 11
-122.040811
 21
142.526498
 31
0.0
  0
LINE
  5
A4
100
AcDbEntity
  8
2
370
    25
100
AcDbLine
 10
-121.040811
 20
143.526498
 30
0.0
 11
-120.040811
 21
144.526498
 31
0.0
  0
LINE
  5
A5
100
AcDbEntity
  8
2
370
    25
100
AcDbLine
 10
-124.039797
 20
140.24467
 30
0.0
 11
-123.507968
 21
140.776498
 31
0.0
  0
LINE
  5
A6
100
AcDbEntity
  8
2
370
    25
100
AcDbLine
 10
-123.040811
 20
141.243655
 30
0.0
 11
-122.040811
 21
142.243655
 31
0.0
  0
LINE
  5
A7
100
AcDbEntity
  8
2
370
    25
100
AcDbLine
 10
-121.040811
 20
143.243655
 30
0.0
 11
-120.040811
 21
144.243655
 31
0.0
  0
LINE
  5
A8
100
AcDbEntity
  8
2
370
    25
100
AcDbLine
 10
-123.9743
 20
140.027324
 30
0.0
 11
-123.225126
 21
140.776498
 31
0.0
  0
LINE
  5
A9
100
AcDbEntity
  8
2
370
    25
100
AcDbLine
 10
-123.040811
 20
140.960813
 30
0.0
 11
-122.040811
 21
141.960813
 31
0.0
  0
LINE
  5
AA
100
AcDbEntity
  8
2
370
    25
100
AcDbLine
 10
-121.040811
 20
142.960813
 30
0.0
 11
-120.040811
 21
143.960813
 31
0.0
  0
LINE
  5
AB
100
AcDbEntity
  8
2
370
    25
100
AcDbLine
 10
-123.841651
 20
139.87713
 30
0.0
 11
-122.040811
 21
141.67797
 31
0.0
  0
LINE
  5
AC
100
AcDbEntity
  8
2
370
    25
100
AcDbLine
 10
-121.040811
 20
142.67797
 30
0.0
 11
-119.942283
 21
143.776498
 31
0.0
  0
LINE
  5
AD
100
AcDbEntity
  8
2
370
    25
100
AcDbLine
 10
-123.647849
 20
139.78809
 30
0.0
 11
-122.040811
 21
141.395127
 31
0.0
  0
LINE
  5
AE
100
AcDbEntity
  8
2
370
    25
100
AcDbLine
 10
-121.040811
 20
142.395127
 30
0.0
 11
-119.65944
 21
143.776498
 31
0.0
  0
LINE
  5
AF
100
AcDbEntity
  8
2
370
    25
100
AcDbLine
 10
-123.376597
 20
139.776498
 30
0.0
 11
-122.040811
 21
141.112285
 31
0.0
  0
LINE
  5
B0
100
AcDbEntity
  8
2
370
    25
100
AcDbLine
 10
-121.040811
 20
142.112285
 30
0.0
 11
-119.376597
 21
143.776498
 31
0.0
  0
LINE
  5
B1
100
AcDbEntity
  8
2
370
    25
100
AcDbLine
 10
-123.093755
 20
139.776498
 30
0.0
 11
-122.040811
 21
140.829442
 31
0.0
  0
LINE
  5
B2
100
AcDbEntity
  8
2
370
    25
100
AcDbLine
 10
-121.040811
 20
141.829442
 30
0.0
 11
-119.093755
 21
143.776498
 31
0.0
  0
LINE
  5
B3
100
AcDbEntity
  8
2
370
    25
100
AcDbLine
 10
-122.810912
 20
139.776498
 30
0.0
 11
-121.810912
 21
140.776498
 31
0.0
  0
LINE
  5
B4
100
AcDbEntity
  8
2
370
    25
100
AcDbLine
 10
-121.040811
 20
141.546599
 30
0.0
 11
-120.040811
 21
142.546599
 31
0.0
  0
LINE
  5
B5
100
AcDbEntity
  8
2
370
    25
100
AcDbLine
 10
-119.810912
 20
142.776498
 30
0.0
 11
-118.810912
 21
143.776498
 31
0.0
  0
LINE
  5
B6
100
AcDbEntity
  8
2
370
    25
100
AcDbLine
 10
-122.528069
 20
139.776498
 30
0.0
 11
-121.528069
 21
140.776498
 31
0.0
  0
LINE
  5
B7
100
AcDbEntity
  8
2
370
    25
100
AcDbLine
 10
-121.040811
 20
141.263756
 30
0.0
 11
-120.040811
 21
142.263756
 31
0.0
  0
LINE
  5
B8
100
AcDbEntity
  8
2
370
    25
100
AcDbLine
 10
-119.528069
 20
142.776498
 30
0.0
 11
-118.528228
 21
143.77634
 31
0.0
  0
LINE
  5
B9
100
AcDbEntity
  8
2
370
    25
100
AcDbLine
 10
-122.245227
 20
139.776498
 30
0.0
 11
-121.245227
 21
140.776498
 31
0.0
  0
LINE
  5
BA
100
AcDbEntity
  8
2
370
    25
100
AcDbLine
 10
-121.040811
 20
140.980914
 30
0.0
 11
-120.040811
 21
141.980914
 31
0.0
  0
LINE
  5
BB
100
AcDbEntity
  8
2
370
    25
100
AcDbLine
 10
-119.245227
 20
142.776498
 30
0.0
 11
-118.304561
 21
143.717164
 31
0.0
  0
LINE
  5
BC
100
AcDbEntity
  8
2
370
    25
100
AcDbLine
 10
-121.962384
 20
139.776498
 30
0.0
 11
-120.040811
 21
141.698071
 31
0.0
  0
LINE
  5
BD
100
AcDbEntity
  8
2
370
    25
100
AcDbLine
 10
-118.962384
 20
142.776498
 30
0.0
 11
-118.150225
 21
143.588657
 31
0.0
  0
LINE
  5
BE
100
AcDbEntity
  8
2
370
    25
100
AcDbLine
 10
-121.679541
 20
139.776498
 30
0.0
 11
-120.040811
 21
141.415228
 31
0.0
  0
LINE
  5
BF
100
AcDbEntity
  8
2
370
    25
100
AcDbLine
 10
-118.679541
 20
142.776498
 30
0.0
 11
-118.05625
 21
143.399789
 31
0.0
  0
LINE
  5
C0
100
AcDbEntity
  8
2
370
    25
100
AcDbLine
 10
-121.396698
 20
139.776498
 30
0.0
 11
-120.040811
 21
141.132386
 31
0.0
  0
LINE
  5
C1
100
AcDbEntity
  8
2
370
    25
100
AcDbLine
 10
-118.364631
 20
142.808566
 30
0.0
 11
-118.072879
 21
143.100318
 31
0.0
  0
LINE
  5
C2
100
AcDbEntity
  8
2
370
    25
100
AcDbLine
 10
-121.113856
 20
139.776498
 30
0.0
 11
-120.040811
 21
140.849543
 31
0.0
  0
LINE
  5
C3
100
AcDbEntity
  8
2
370
    25
100
AcDbLine
 10
-120.831013
 20
139.776498
 30
0.0
 11
-119.831013
 21
140.776498
 31
0.0
  0
LINE
  5
C4
100
AcDbEntity
  8
2
370
    25
100
AcDbLine
 10
-120.54817
 20
139.776498
 30
0.0
 11
-119.54817
 21
140.776498
 31
0.0
  0
LINE
  5
C5
100
AcDbEntity
  8
2
370
    25
100
AcDbLine
 10
-120.265328
 20
139.776498
 30
0.0
 11
-119.265328
 21
140.776498
 31
0.0
  0
LINE
  5
C6
100
AcDbEntity
  8
2
370
    25
100
AcDbLine
 10
-119.982485
 20
139.776498
 30
0.0
 11
-118.982485
 21
140.776498
 31
0.0
  0
LINE
  5
C7
100
AcDbEntity
  8
2
370
    25
100
AcDbLine
 10
-119.699642
 20
139.776498
 30
0.0
 11
-118.699642
 21
140.776498
 31
0.0
  0
LINE
  5
C8
100
AcDbEntity
  8
2
370
    25
100
AcDbLine
 10
-119.416799
 20
139.776498
 30
0.0
 11
-118.416799
 21
140.776498
 31
0.0
  0
LINE
  5
C9
100
AcDbEntity
  8
2
370
    25
100
AcDbLine
 10
-119.133957
 20
139.776498
 30
0.0
 11
-118.133957
 21
140.776498
 31
0.0
  0
LINE
  5
CA
100
AcDbEntity
  8
2
370
    25
100
AcDbLine
 10
-118.851114
 20
139.776498
 30
0.0
 11
-117.851114
 21
140.776498
 31
0.0
  0
LINE
  5
CB
100
AcDbEntity
  8
2
370
    25
100
AcDbLine
 10
-118.568271
 20
139.776498
 30
0.0
 11
-117.568271
 21
140.776498
 31
0.0
  0
LINE
  5
CC
100
AcDbEntity
  8
2
370
    25
100
AcDbLine
 10
-118.285429
 20
139.776498
 30
0.0
 11
-117.331396
 21
140.730531
 31
0.0
  0
LINE
  5
CD
100
AcDbEntity
  8
2
370
    25
100
AcDbLine
 10
-118.002586
 20
139.776498
 30
0.0
 11
-117.168662
 21
140.610422
 31
0.0
  0
LINE
  5
CE
100
AcDbEntity
  8
2
370
    25
100
AcDbLine
 10
-117.719743
 20
139.776498
 30
0.0
 11
-117.065271
 21
140.43097
 31
0.0
  0
LINE
  5
CF
100
AcDbEntity
  8
2
370
    25
100
AcDbLine
 10
-117.422766
 20
139.790633
 30
0.0
 11
-117.054945
 21
140.158453
 31
0.0
  0
LINE
  5
D0
100
AcDbEntity
  8
2
370
    25
100
AcDbLine
 10
-123.040811
 20
141.809341
 30
0.0
 11
-122.040811
 21
142.809341
 31
0.0
  0
LINE
  5
D1
100
AcDbEntity
  8
2
370
    25
100
AcDbLine
 10
-121.040811
 20
143.809341
 30
0.0
 11
-120.040811
 21
144.809341
 31
0.0
  0
LINE
  5
D2
100
AcDbEntity
  8
2
370
    25
100
AcDbLine
 10
-123.040811
 20
142.092184
 30
0.0
 11
-122.040811
 21
143.092184
 31
0.0
  0
LINE
  5
D3
100
AcDbEntity
  8
2
370
    25
100
AcDbLine
 10
-121.040811
 20
144.092184
 30
0.0
 11
-120.040811
 21
145.092184
 31
0.0
  0
LINE
  5
D4
100
AcDbEntity
  8
2
370
    25
100
AcDbLine
 10
-120.049034
 20
145.366804
 30
0.0
 11
-121.040811
 21
144.375026
 31
0.0
  0
LINE
  5
D5
100
AcDbEntity
  8
2
370
    25
100
AcDbLine
 10
-122.040811
 20
143.375026
 30
0.0
 11
-123.040811
 21
142.375026
 31
0.0
  0
LINE
  5
D6
100
AcDbEntity
  8
2
370
    25
100
AcDbLine
 10
-120.132954
 20
145.565726
 30
0.0
 11
-121.040811
 21
144.657869
 31
0.0
  0
LINE
  5
D7
100
AcDbEntity
  8
2
370
    25
100
AcDbLine
 10
-122.040811
 20
143.657869
 30
0.0
 11
-123.040811
 21
142.657869
 31
0.0
  0
LINE
  5
D8
100
AcDbEntity
  8
2
370
    25
100
AcDbLine
 10
-120.279031
 20
145.702492
 30
0.0
 11
-121.040811
 21
144.940712
 31
0.0
  0
LINE
  5
D9
100
AcDbEntity
  8
2
370
    25
100
AcDbLine
 10
-122.061772
 20
143.919751
 30
0.0
 11
-123.040811
 21
142.940712
 31
0.0
  0
LINE
  5
DA
100
AcDbEntity
  8
2
370
    25
100
AcDbLine
 10
-120.490414
 20
145.773952
 30
0.0
 11
-121.040811
 21
145.223554
 31
0.0
  0
LINE
  5
DB
100
AcDbEntity
  8
2
370
    25
100
AcDbLine
 10
-122.161778
 20
144.102587
 30
0.0
 11
-123.040811
 21
143.223554
 31
0.0
  0
LINE
  5
DC
100
AcDbEntity
  8
2
370
    25
100
AcDbLine
 10
-122.321416
 20
144.225793
 30
0.0
 11
-123.040811
 21
143.506397
 31
0.0
  0
LINE
  5
DD
100
AcDbEntity
  8
2
370
    25
100
AcDbLine
 10
-123.040644
 20
143.789407
 30
0.0
 11
-122.553719
 21
144.276332
 31
0.0
  0
HATCH
  5
DE
100
AcDbEntity
  8
2
370
    25
100
AcDbHatch
 10
0.0
 20
0.0
 30
0.0
210
0.0
220
0.0
230
1.0
  2
_U
 70
     0
 71
     1
 91
        1
 92
        1
 93
        3
 72
     1
 10
-117.04081100000001
 20
137.776498
 11
-124.04081100000001
 21
137.776498
 72
     1
 10
-124.04081100000001
 20
137.776498
 11
-120.54081100000001
 21
131.71431999999999
 72
     1
 10
-120.54081100000001
 20
131.71431999999999
 11
-117.04081100000001
 21
137.776498
 97
        3
330
0
330
0
330
0
 75
     0
 76
     0
 52
45.0
 41
1.0
 77
     0
 78
     1
 53
45.0
 43
0.0
 44
0.0
 45
-0.141421
 46
0.141421
 79
     0
 98
        1
 10
0.0
 20
0.0
  0
HATCH
  5
DF
100
AcDbEntity
  8
2
370
    25
100
AcDbHatch
 10
0.0
 20
0.0
 30
0.0
210
0.0
220
0.0
230
1.0
  2
_U
 70
     0
 71
     1
 91
        1
 92
        1
 93
        4
 72
     1
 10
-123.04081100000001
 20
127.71432
 11
-116.54081100000001
 21
127.71432
 72
     1
 10
-116.54081100000001
 20
127.71432
 11
-116.54081100000001
 21
130.71431999999999
 72
     1
 10
-116.54081100000001
 20
130.71431999999999
 11
-123.04081100000001
 21
130.71431999999999
 72
     2
 10
-123.04081100000001
 20
129.21431999999999
 40
1.5
 50
90.0
 51
270.0
 73
     1
 97
        4
330
0
330
0
330
0
330
0
 75
     0
 76
     0
 52
45.0
 41
1.0
 77
     0
 78
     1
 53
45.0
 43
0.0
 44
0.0
 45
-0.141421
 46
0.141421
 79
     0
 98
        1
 10
0.0
 20
0.0
  0
LINE
  5
E0
100
AcDbEntity
  8
2
370
    25
100
AcDbLine
 10
-121.540811
 20
124.46432
 30
0.0
 11
-120.540811
 21
125.46432
 31
0.0
  0
LINE
  5
E1
100
AcDbEntity
  8
2
370
    25
100
AcDbLine
 10
-121.540811
 20
124.181478
 30
0.0
 11
-120.540811
 21
125.181478
 31
0.0
  0
LINE
  5
E2
100
AcDbEntity
  8
2
370
    25
100
AcDbLine
 10
-121.540811
 20
123.898635
 30
0.0
 11
-120.540811
 21
124.898635
 31
0.0
  0
LINE
  5
E3
100
AcDbEntity
  8
2
370
    25
100
AcDbLine
 10
-121.532588
 20
123.624015
 30
0.0
 11
-120.540811
 21
124.615792
 31
0.0
  0
LINE
  5
E4
100
AcDbEntity
  8
2
370
    25
100
AcDbLine
 10
-121.448668
 20
123.425093
 30
0.0
 11
-120.540811
 21
124.332949
 31
0.0
  0
LINE
  5
E5
100
AcDbEntity
  8
2
370
    25
100
AcDbLine
 10
-121.302592
 20
123.288326
 30
0.0
 11
-120.540811
 21
124.050107
 31
0.0
  0
LINE
  5
E6
100
AcDbEntity
  8
2
370
    25
100
AcDbLine
 10
-121.091208
 20
123.216867
 30
0.0
 11
-120.540811
 21
123.767264
 31
0.0
  0
LINE
  5
E7
100
AcDbEntity
  8
2
370
    25
100
AcDbLine
 10
-121.540811
 20
124.747163
 30
0.0
 11
-120.540811
 21
125.747163
 31
0.0
  0
LINE
  5
E8
100
AcDbEntity
  8
2
370
    25
100
AcDbLine
 10
-121.540811
 20
125.030006
 30
0.0
 11
-120.540811
 21
126.030006
 31
0.0
  0
LINE
  5
E9
100
AcDbEntity
  8
2
370
    25
100
AcDbLine
 10
-121.540811
 20
125.312849
 30
0.0
 11
-120.540811
 21
126.312849
 31
0.0
  0
LINE
  5
EA
100
AcDbEntity
  8
2
370
    25
100
AcDbLine
 10
-121.540811
 20
125.595691
 30
0.0
 11
-120.540811
 21
126.595691
 31
0.0
  0
LINE
  5
EB
100
AcDbEntity
  8
2
370
    25
100
AcDbLine
 10
-121.540811
 20
125.878534
 30
0.0
 11
-120.540811
 21
126.878534
 31
0.0
  0
LINE
  5
EC
100
AcDbEntity
  8
2
370
    25
100
AcDbLine
 10
-121.540811
 20
126.161377
 30
0.0
 11
-120.540811
 21
127.161377
 31
0.0
  0
LINE
  5
ED
100
AcDbEntity
  8
2
370
    25
100
AcDbLine
 10
-120.77071
 20
127.21432
 30
0.0
 11
-121.540811
 21
126.444219
 31
0.0
  0
LINE
  5
EE
100
AcDbEntity
  8
2
370
    25
100
AcDbLine
 10
-121.053553
 20
127.21432
 30
0.0
 11
-121.540811
 21
126.727062
 31
0.0
  0
LINE
  5
EF
100
AcDbEntity
  8
2
370
    25
100
AcDbLine
 10
-121.336396
 20
127.21432
 30
0.0
 11
-121.540811
 21
127.009905
 31
0.0
  0
LINE
  5
F0
100
AcDbEntity
  8
2
370
    25
100
AcDbLine
 10
-123.540811
 20
124.46432
 30
0.0
 11
-122.540811
 21
125.46432
 31
0.0
  0
LINE
  5
F1
100
AcDbEntity
  8
2
370
    25
100
AcDbLine
 10
-123.540811
 20
124.181478
 30
0.0
 11
-122.540811
 21
125.181478
 31
0.0
  0
LINE
  5
F2
100
AcDbEntity
  8
2
370
    25
100
AcDbLine
 10
-123.540811
 20
123.898635
 30
0.0
 11
-122.540811
 21
124.898635
 31
0.0
  0
LINE
  5
F3
100
AcDbEntity
  8
2
370
    25
100
AcDbLine
 10
-123.532588
 20
123.624015
 30
0.0
 11
-122.540811
 21
124.615792
 31
0.0
  0
LINE
  5
F4
100
AcDbEntity
  8
2
370
    25
100
AcDbLine
 10
-123.448668
 20
123.425093
 30
0.0
 11
-122.540811
 21
124.332949
 31
0.0
  0
LINE
  5
F5
100
AcDbEntity
  8
2
370
    25
100
AcDbLine
 10
-123.302592
 20
123.288326
 30
0.0
 11
-122.540811
 21
124.050107
 31
0.0
  0
LINE
  5
F6
100
AcDbEntity
  8
2
370
    25
100
AcDbLine
 10
-123.091208
 20
123.216867
 30
0.0
 11
-122.540811
 21
123.767264
 31
0.0
  0
LINE
  5
F7
100
AcDbEntity
  8
2
370
    25
100
AcDbLine
 10
-123.540811
 20
124.747163
 30
0.0
 11
-122.540811
 21
125.747163
 31
0.0
  0
LINE
  5
F8
100
AcDbEntity
  8
2
370
    25
100
AcDbLine
 10
-123.540811
 20
125.030006
 30
0.0
 11
-122.540811
 21
126.030006
 31
0.0
  0
LINE
  5
F9
100
AcDbEntity
  8
2
370
    25
100
AcDbLine
 10
-123.540811
 20
125.312849
 30
0.0
 11
-122.540811
 21
126.312849
 31
0.0
  0
LINE
  5
FA
100
AcDbEntity
  8
2
370
    25
100
AcDbLine
 10
-123.540811
 20
125.595691
 30
0.0
 11
-122.540811
 21
126.595691
 31
0.0
  0
LINE
  5
FB
100
AcDbEntity
  8
2
370
    25
100
AcDbLine
 10
-123.540811
 20
125.878534
 30
0.0
 11
-122.540811
 21
126.878534
 31
0.0
  0
LINE
  5
FC
100
AcDbEntity
  8
2
370
    25
100
AcDbLine
 10
-123.540811
 20
126.161377
 30
0.0
 11
-122.540811
 21
127.161377
 31
0.0
  0
LINE
  5
FD
100
AcDbEntity
  8
2
370
    25
100
AcDbLine
 10
-122.77071
 20
127.21432
 30
0.0
 11
-123.540811
 21
126.444219
 31
0.0
  0
LINE
  5
FE
100
AcDbEntity
  8
2
370
    25
100
AcDbLine
 10
-123.053553
 20
127.21432
 30
0.0
 11
-123.540811
 21
126.727062
 31
0.0
  0
LINE
  5
FF
100
AcDbEntity
  8
2
370
    25
100
AcDbLine
 10
-123.336396
 20
127.21432
 30
0.0
 11
-123.540811
 21
127.009905
 31
0.0
  0
LINE
  5
100
100
AcDbEntity
  8
2
370
    50
100
AcDbLine
 10
-272.040811
 20
141.276498
 30
0.0
 11
-279.040811
 21
141.276498
 31
0.0
  0
ARC
  5
101
100
AcDbEntity
  8
2
370
    50
100
AcDbCircle
 10
-279.040811
 20
141.776498
 30
0.0
 40
0.5
100
AcDbArc
 50
180.0
 51
270.0
  0
ARC
  5
102
100
AcDbEntity
  8
2
370
    50
100
AcDbCircle
 10
-272.040811
 20
141.776498
 30
0.0
 40
0.5
100
AcDbArc
 50
270.0
 51
360.0
  0
ARC
  5
103
100
AcDbEntity
  8
2
370
    50
100
AcDbCircle
 10
-279.040811
 20
141.776498
 30
0.0
 40
0.5
100
AcDbArc
 50
90.0
 51
180.0
  0
LINE
  5
104
100
AcDbEntity
  8
2
370
    50
100
AcDbLine
 10
-272.040811
 20
142.276498
 30
0.0
 11
-279.040811
 21
142.276498
 31
0.0
  0
ARC
  5
105
100
AcDbEntity
  8
2
370
    50
100
AcDbCircle
 10
-272.040811
 20
141.776498
 30
0.0
 40
0.5
100
AcDbArc
 50
0.0
 51
90.0
  0
LINE
  5
106
100
AcDbEntity
  8
2
370
    50
100
AcDbLine
 10
-272.040811
 20
146.776498
 30
0.0
 11
-279.040811
 21
146.776498
 31
0.0
  0
LINE
  5
107
100
AcDbEntity
  8
2
370
    50
100
AcDbLine
 10
-279.040811
 20
146.776498
 30
0.0
 11
-277.29125
 21
149.806827
 31
0.0
  0
LINE
  5
108
100
AcDbEntity
  8
2
370
    50
100
AcDbLine
 10
-272.040811
 20
146.776498
 30
0.0
 11
-274.02602
 21
150.21498
 31
0.0
  0
LINE
  5
109
100
AcDbEntity
  8
2
370
    50
100
AcDbLine
 10
-272.040811
 20
136.776498
 30
0.0
 11
-279.040811
 21
136.776498
 31
0.0
  0
LINE
  5
10A
100
AcDbEntity
  8
2
370
    50
100
AcDbLine
 10
-279.040811
 20
136.776498
 30
0.0
 11
-275.540811
 21
130.71432
 31
0.0
  0
LINE
  5
10B
100
AcDbEntity
  8
2
370
    50
100
AcDbLine
 10
-272.040811
 20
136.776498
 30
0.0
 11
-275.540811
 21
130.71432
 31
0.0
  0
ARC
  5
10C
100
AcDbEntity
  8
2
370
    50
100
AcDbCircle
 10
-275.040811
 20
126.21432
 30
0.0
 40
2.5
100
AcDbArc
 50
48.189685
 51
311.810315
  0
ARC
  5
10D
100
AcDbEntity
  8
2
370
    50
100
AcDbCircle
 10
-275.040811
 20
126.21432
 30
0.0
 40
3.5
100
AcDbArc
 50
48.189685
 51
311.810315
  0
ARC
  5
10E
100
AcDbEntity
  8
2
370
    50
100
AcDbCircle
 10
-273.040811
 20
128.450388
 30
0.0
 40
0.5
100
AcDbArc
 50
228.189685
 51
48.189685
  0
ARC
  5
10F
100
AcDbEntity
  8
2
370
    50
100
AcDbCircle
 10
-273.040811
 20
123.978252
 30
0.0
 40
0.5
100
AcDbArc
 50
311.810315
 51
131.810315
  0
HATCH
  5
110
100
AcDbEntity
  8
2
370
    25
100
AcDbHatch
 10
0.0
 20
0.0
 30
0.0
210
0.0
220
0.0
230
1.0
  2
_U
 70
     0
 71
     1
 91
        1
 92
        1
 93
        6
 72
     1
 10
-272.04081100000002
 20
142.276498
 11
-279.04081100000002
 21
142.276498
 72
     2
 10
-279.04081100000002
 20
141.776498
 40
0.5
 50
90.0
 51
180.0
 73
     1
 72
     2
 10
-279.04081100000002
 20
141.776498
 40
0.5
 50
180.0
 51
270.0
 73
     1
 72
     1
 10
-279.04081100000002
 20
141.276498
 11
-272.04081100000002
 21
141.276498
 72
     2
 10
-272.04081100000002
 20
141.776498
 40
0.5
 50
270.0
 51
0.0
 73
     1
 72
     2
 10
-272.04081100000002
 20
141.776498
 40
0.5
 50
0.0
 51
90.0
 73
     1
 97
        6
330
0
330
0
330
0
330
0
330
0
330
0
 75
     0
 76
     0
 52
45.0
 41
1.0
 77
     0
 78
     1
 53
45.0
 43
0.0
 44
0.0
 45
-0.141421
 46
0.141421
 79
     0
 98
        1
 10
0.0
 20
0.0
  0
HATCH
  5
111
100
AcDbEntity
  8
2
370
    25
100
AcDbHatch
 10
0.0
 20
0.0
 30
0.0
210
0.0
220
0.0
230
1.0
  2
_U
 70
     0
 71
     1
 91
        1
 92
        1
 93
        3
 72
     1
 10
-272.04081100000002
 20
136.776498
 11
-279.04081100000002
 21
136.776498
 72
     1
 10
-279.04081100000002
 20
136.776498
 11
-275.54081100000002
 21
130.71431999999999
 72
     1
 10
-275.54081100000002
 20
130.71431999999999
 11
-272.04081100000002
 21
136.776498
 97
        3
330
0
330
0
330
0
 75
     0
 76
     0
 52
45.0
 41
1.0
 77
     0
 78
     1
 53
45.0
 43
0.0
 44
0.0
 45
-0.141421
 46
0.141421
 79
     0
 98
        1
 10
0.0
 20
0.0
  0
LINE
  5
112
100
AcDbEntity
  8
2
370
    25
100
AcDbLine
 10
-278.540811
 20
126.21432
 30
0.0
 11
-277.040811
 21
127.71432
 31
0.0
  0
LINE
  5
113
100
AcDbEntity
  8
2
370
    25
100
AcDbLine
 10
-276.540811
 20
128.21432
 30
0.0
 11
-275.040811
 21
129.71432
 31
0.0
  0
LINE
  5
114
100
AcDbEntity
  8
2
370
    25
100
AcDbLine
 10
-278.530207
 20
125.942081
 30
0.0
 11
-277.382516
 21
127.089772
 31
0.0
  0
LINE
  5
115
100
AcDbEntity
  8
2
370
    25
100
AcDbLine
 10
-275.916263
 20
128.556026
 30
0.0
 11
-274.768572
 21
129.703717
 31
0.0
  0
LINE
  5
116
100
AcDbEntity
  8
2
370
    25
100
AcDbLine
 10
-278.501069
 20
125.688377
 30
0.0
 11
-277.494097
 21
126.695349
 31
0.0
  0
LINE
  5
117
100
AcDbEntity
  8
2
370
    25
100
AcDbLine
 10
-275.52184
 20
128.667606
 30
0.0
 11
-274.514868
 21
129.674578
 31
0.0
  0
LINE
  5
118
100
AcDbEntity
  8
2
370
    25
100
AcDbLine
 10
-278.456385
 20
125.450218
 30
0.0
 11
-277.535916
 21
126.370687
 31
0.0
  0
LINE
  5
119
100
AcDbEntity
  8
2
370
    25
100
AcDbLine
 10
-275.197178
 20
128.709425
 30
0.0
 11
-274.276709
 21
129.629895
 31
0.0
  0
LINE
  5
11A
100
AcDbEntity
  8
2
370
    25
100
AcDbLine
 10
-278.398234
 20
125.225527
 30
0.0
 11
-277.537528
 21
126.086233
 31
0.0
  0
LINE
  5
11B
100
AcDbEntity
  8
2
370
    25
100
AcDbLine
 10
-274.912724
 20
128.711037
 30
0.0
 11
-274.052017
 21
129.571743
 31
0.0
  0
LINE
  5
11C
100
AcDbEntity
  8
2
370
    25
100
AcDbLine
 10
-278.328114
 20
125.012804
 30
0.0
 11
-277.51107
 21
125.829848
 31
0.0
  0
LINE
  5
11D
100
AcDbEntity
  8
2
370
    25
100
AcDbLine
 10
-274.656338
 20
128.68458
 30
0.0
 11
-273.839295
 21
129.501623
 31
0.0
  0
LINE
  5
11E
100
AcDbEntity
  8
2
370
    25
100
AcDbLine
 10
-278.247136
 20
124.810939
 30
0.0
 11
-277.462924
 21
125.595151
 31
0.0
  0
LINE
  5
11F
100
AcDbEntity
  8
2
370
    25
100
AcDbLine
 10
-274.421642
 20
128.636433
 30
0.0
 11
-273.63743
 21
129.420645
 31
0.0
  0
LINE
  5
120
100
AcDbEntity
  8
2
370
    25
100
AcDbLine
 10
-278.156137
 20
124.619095
 30
0.0
 11
-277.396895
 21
125.378337
 31
0.0
  0
LINE
  5
121
100
AcDbEntity
  8
2
370
    25
100
AcDbLine
 10
-274.204828
 20
128.570404
 30
0.0
 11
-273.445586
 21
129.329646
 31
0.0
  0
LINE
  5
122
100
AcDbEntity
  8
2
370
    25
100
AcDbLine
 10
-278.055749
 20
124.43664
 30
0.0
 11
-277.315429
 21
125.176961
 31
0.0
  0
LINE
  5
123
100
AcDbEntity
  8
2
370
    25
100
AcDbLine
 10
-274.003452
 20
128.488938
 30
0.0
 11
-273.263131
 21
129.229259
 31
0.0
  0
LINE
  5
124
100
AcDbEntity
  8
2
370
    25
100
AcDbLine
 10
-277.946449
 20
124.263098
 30
0.0
 11
-277.220157
 21
124.98939
 31
0.0
  0
LINE
  5
125
100
AcDbEntity
  8
2
370
    25
100
AcDbLine
 10
-273.815881
 20
128.393666
 30
0.0
 11
-273.089589
 21
129.119958
 31
0.0
  0
LINE
  5
126
100
AcDbEntity
  8
2
370
    25
100
AcDbLine
 10
-277.828586
 20
124.098118
 30
0.0
 11
-277.11218
 21
124.814524
 31
0.0
  0
LINE
  5
127
100
AcDbEntity
  8
2
370
    25
100
AcDbLine
 10
-273.641015
 20
128.28569
 30
0.0
 11
-272.924609
 21
129.002095
 31
0.0
  0
LINE
  5
128
100
AcDbEntity
  8
2
370
    25
100
AcDbLine
 10
-277.702406
 20
123.941456
 30
0.0
 11
-276.992225
 21
124.651636
 31
0.0
  0
LINE
  5
129
100
AcDbEntity
  8
2
370
    25
100
AcDbLine
 10
-273.478127
 20
128.165735
 30
0.0
 11
-272.767946
 21
128.875915
 31
0.0
  0
LINE
  5
12A
100
AcDbEntity
  8
2
370
    25
100
AcDbLine
 10
-272.628211
 20
128.732808
 30
0.0
 11
-273.323231
 21
128.037788
 31
0.0
  0
LINE
  5
12B
100
AcDbEntity
  8
2
370
    25
100
AcDbLine
 10
-276.860729
 20
124.50029
 30
0.0
 11
-277.568062
 21
123.792957
 31
0.0
  0
LINE
  5
12C
100
AcDbEntity
  8
2
370
    25
100
AcDbLine
 10
-272.547327
 20
128.530849
 30
0.0
 11
-273.121271
 21
127.956905
 31
0.0
  0
LINE
  5
12D
100
AcDbEntity
  8
2
370
    25
100
AcDbLine
 10
-276.717885
 20
124.360291
 30
0.0
 11
-277.425625
 21
123.652551
 31
0.0
  0
LINE
  5
12E
100
AcDbEntity
  8
2
370
    25
100
AcDbLine
 10
-272.630088
 20
128.165246
 30
0.0
 11
-272.755668
 21
128.039665
 31
0.0
  0
LINE
  5
12F
100
AcDbEntity
  8
2
370
    25
100
AcDbLine
 10
-276.563666
 20
124.231667
 30
0.0
 11
-277.275085
 21
123.520249
 31
0.0
  0
LINE
  5
130
100
AcDbEntity
  8
2
370
    25
100
AcDbLine
 10
-276.39782
 20
124.114671
 30
0.0
 11
-277.11635
 21
123.396141
 31
0.0
  0
LINE
  5
131
100
AcDbEntity
  8
2
370
    25
100
AcDbLine
 10
-276.219842
 20
124.009806
 30
0.0
 11
-276.949246
 21
123.280402
 31
0.0
  0
LINE
  5
132
100
AcDbEntity
  8
2
370
    25
100
AcDbLine
 10
-276.028924
 20
123.917881
 30
0.0
 11
-276.773502
 21
123.173304
 31
0.0
  0
LINE
  5
133
100
AcDbEntity
  8
2
370
    25
100
AcDbLine
 10
-275.823848
 20
123.840115
 30
0.0
 11
-276.588738
 21
123.075225
 31
0.0
  0
LINE
  5
134
100
AcDbEntity
  8
2
370
    25
100
AcDbLine
 10
-275.602812
 20
123.778308
 30
0.0
 11
-276.394443
 21
122.986677
 31
0.0
  0
LINE
  5
135
100
AcDbEntity
  8
2
370
    25
100
AcDbLine
 10
-275.363096
 20
123.735181
 30
0.0
 11
-276.189937
 21
122.90834
 31
0.0
  0
LINE
  5
136
100
AcDbEntity
  8
2
370
    25
100
AcDbLine
 10
-275.100404
 20
123.715031
 30
0.0
 11
-275.974325
 21
122.841109
 31
0.0
  0
LINE
  5
137
100
AcDbEntity
  8
2
370
    25
100
AcDbLine
 10
-274.807346
 20
123.725245
 30
0.0
 11
-275.746409
 21
122.786182
 31
0.0
  0
LINE
  5
138
100
AcDbEntity
  8
2
370
    25
100
AcDbLine
 10
-274.469205
 20
123.780544
 30
0.0
 11
-275.504568
 21
122.745181
 31
0.0
  0
LINE
  5
139
100
AcDbEntity
  8
2
370
    25
100
AcDbLine
 10
-274.046232
 20
123.920674
 30
0.0
 11
-275.246535
 21
122.720372
 31
0.0
  0
LINE
  5
13A
100
AcDbEntity
  8
2
370
    25
100
AcDbLine
 10
-273.253129
 20
124.430934
 30
0.0
 11
-274.969007
 21
122.715057
 31
0.0
  0
LINE
  5
13B
100
AcDbEntity
  8
2
370
    25
100
AcDbLine
 10
-272.934419
 20
124.466802
 30
0.0
 11
-274.666867
 21
122.734354
 31
0.0
  0
LINE
  5
13C
100
AcDbEntity
  8
2
370
    25
100
AcDbLine
 10
-272.74042
 20
124.377958
 30
0.0
 11
-274.331411
 21
122.786967
 31
0.0
  0
LINE
  5
13D
100
AcDbEntity
  8
2
370
    25
100
AcDbLine
 10
-272.60761
 20
124.227926
 30
0.0
 11
-273.945371
 21
122.890165
 31
0.0
  0
LINE
  5
13E
100
AcDbEntity
  8
2
370
    25
100
AcDbLine
 10
-272.541873
 20
124.01082
 30
0.0
 11
-273.462099
 21
123.090594
 31
0.0
  0
LINE
  5
13F
100
AcDbEntity
  8
2
370
    25
100
AcDbLine
 10
-278.528329
 20
126.509645
 30
0.0
 11
-275.336136
 21
129.701839
 31
0.0
  0
LINE
  5
140
100
AcDbEntity
  8
2
370
    25
100
AcDbLine
 10
-278.485231
 20
126.835586
 30
0.0
 11
-275.662076
 21
129.65874
 31
0.0
  0
LINE
  5
141
100
AcDbEntity
  8
2
370
    25
100
AcDbLine
 10
-278.397266
 20
127.206393
 30
0.0
 11
-276.032884
 21
129.570776
 31
0.0
  0
LINE
  5
142
100
AcDbEntity
  8
2
370
    25
100
AcDbLine
 10
-278.229767
 20
127.656736
 30
0.0
 11
-276.483226
 21
129.403276
 31
0.0
  0
LINE
  5
143
100
AcDbEntity
  8
2
370
    25
100
AcDbLine
 10
-277.793935
 20
128.37541
 30
0.0
 11
-277.201901
 21
128.967444
 31
0.0
  0
LINE
  5
144
100
AcDbEntity
  8
2
370
    25
  6
CENTER
100
AcDbLine
 10
-328.43808
 20
126.776498
 30
0.0
 11
-67.626595
 21
126.776498
 31
0.0
  0
LINE
  5
145
100
AcDbEntity
  8
2
370
    50
100
AcDbLine
 10
-287.855401
 20
148.328674
 30
0.0
 11
-287.340811
 21
148.328674
 31
0.0
  0
LINE
  5
146
100
AcDbEntity
  8
2
370
    50
100
AcDbLine
 10
-287.740811
 20
143.328674
 30
0.0
 11
-287.340811
 21
143.328674
 31
0.0
  0
LWPOLYLINE
  5
147
100
AcDbEntity
  8
2
370
    50
100
AcDbPolyline
 90
      114
 70
     0
 10
-285.040811
 20
148.328674
 10
-285.108164
 20
148.325916
 10
-285.17525
 20
148.317847
 10
-285.241799
 20
148.304774
 10
-285.435553
 20
148.238584
 10
-285.497279
 20
148.208553
 10
-285.557129
 20
148.175046
 10
-285.614836
 20
148.138372
 10
-285.681212
 20
148.090396
 10
-285.744215
 20
148.038596
 10
-285.803974
 20
147.9833
 10
-285.965046
 20
147.799709
 10
-286.013091
 20
147.733702
 10
-286.058524
 20
147.665837
 10
-286.101471
 20
147.596441
 10
-286.138086
 20
147.53293
 10
-286.172833
 20
147.468499
 10
-286.205753
 20
147.403201
 10
-286.293963
 20
147.202643
 10
-286.367217
 20
146.99622
 10
-286.388504
 20
146.926359
 10
-286.408295
 20
146.856062
 10
-286.42663
 20
146.785382
 10
-286.445204
 20
146.707062
 10
-286.462074
 20
146.628375
 10
-286.477259
 20
146.549355
 10
-286.512866
 20
146.310628
 10
-286.5339
 20
146.070101
 10
-286.53775
 20
145.989681
 10
-286.540049
 20
145.909194
 10
-286.540811
 20
145.828674
 10
-286.540049
 20
145.748153
 10
-286.53775
 20
145.667667
 10
-286.5339
 20
145.587246
 10
-286.512866
 20
145.346719
 10
-286.477259
 20
145.107992
 10
-286.462074
 20
145.028972
 10
-286.445204
 20
144.950285
 10
-286.42663
 20
144.871965
 10
-286.408295
 20
144.801285
 10
-286.388504
 20
144.730988
 10
-286.367217
 20
144.661128
 10
-286.293963
 20
144.454704
 10
-286.205753
 20
144.254146
 10
-286.172833
 20
144.188848
 10
-286.138086
 20
144.124417
 10
-286.101471
 20
144.060907
 10
-286.058524
 20
143.99151
 10
-286.013091
 20
143.923645
 10
-285.965046
 20
143.857639
 10
-285.803974
 20
143.674047
 10
-285.744215
 20
143.618751
 10
-285.681212
 20
143.566951
 10
-285.614836
 20
143.518975
 10
-285.557129
 20
143.482301
 10
-285.497279
 20
143.448795
 10
-285.435553
 20
143.418763
 10
-285.241799
 20
143.352574
 10
-285.17525
 20
143.3395
 10
-285.108164
 20
143.331431
 10
-285.040811
 20
143.328674
 10
-284.973458
 20
143.331431
 10
-284.906372
 20
143.3395
 10
-284.839823
 20
143.352574
 10
-284.646069
 20
143.418763
 10
-284.584343
 20
143.448795
 10
-284.524493
 20
143.482301
 10
-284.466786
 20
143.518975
 10
-284.400411
 20
143.566951
 10
-284.337407
 20
143.618751
 10
-284.277648
 20
143.674047
 10
-284.116576
 20
143.857639
 10
-284.068531
 20
143.923645
 10
-284.023098
 20
143.99151
 10
-283.980151
 20
144.060907
 10
-283.931748
 20
144.145794
 10
-283.886642
 20
144.232287
 10
-283.844735
 20
144.320257
 10
-283.73723
 20
144.591758
 10
-283.70714
 20
144.684363
 10
-283.67976
 20
144.777808
 10
-283.654992
 20
144.871965
 10
-283.630607
 20
144.976475
 10
-283.609238
 20
145.081617
 10
-283.590847
 20
145.187312
 10
-283.553142
 20
145.506926
 10
-283.546265
 20
145.614044
 10
-283.542168
 20
145.721319
 10
-283.540811
 20
145.828674
 10
-283.542168
 20
145.936028
 10
-283.546265
 20
146.043303
 10
-283.553142
 20
146.150421
 10
-283.590847
 20
146.470035
 10
-283.609238
 20
146.57573
 10
-283.630607
 20
146.680872
 10
-283.654992
 20
146.785382
 10
-283.67976
 20
146.87954
 10
-283.70714
 20
146.972985
 10
-283.73723
 20
147.06559
 10
-283.844735
 20
147.33709
 10
-283.886642
 20
147.42506
 10
-283.931748
 20
147.511553
 10
-283.980151
 20
147.596441
 10
-284.045496
 20
147.699982
 10
-284.116576
 20
147.799709
 10
-284.193817
 20
147.894517
 10
-284.277648
 20
147.9833
 10
-284.368495
 20
148.064954
 10
-284.466786
 20
148.138372
 10
-284.572214
 20
148.202119
 10
-284.683894
 20
148.254809
 10
-284.800262
 20
148.294654
 10
-284.919755
 20
148.319871
 10
-285.040811
 20
148.328674
  0
LWPOLYLINE
  5
1BB
100
AcDbEntity
  8
2
370
    50
100
AcDbPolyline
 90
      114
 70
     0
 10
-285.040811
 20
147.328674
 10
-285.075413
 20
147.324372
 10
-285.109551
 20
147.312372
 10
-285.142758
 20
147.294028
 10
-285.174571
 20
147.270697
 10
-285.204524
 20
147.243733
 10
-285.232153
 20
147.214493
 10
-285.259162
 20
147.181428
 10
-285.28319
 20
147.147372
 10
-285.30455
 20
147.11242
 10
-285.355784
 20
147.003163
 10
-285.36963
 20
146.965598
 10
-285.382385
 20
146.927623
 10
-285.394364
 20
146.889334
 10
-285.406157
 20
146.849692
 10
-285.417458
 20
146.809835
 10
-285.428265
 20
146.769777
 10
-285.45769
 20
146.648551
 10
-285.482548
 20
146.526057
 10
-285.489804
 20
146.485014
 10
-285.496539
 20
146.443889
 10
-285.502751
 20
146.402699
 10
-285.508019
 20
146.364628
 10
-285.512849
 20
146.326516
 10
-285.517252
 20
146.288366
 10
-285.528009
 20
146.173718
 10
-285.535321
 20
146.058835
 10
-285.539488
 20
145.943793
 10
-285.540231
 20
145.905425
 10
-285.540668
 20
145.867051
 10
-285.540811
 20
145.828674
 10
-285.540668
 20
145.790296
 10
-285.540231
 20
145.751922
 10
-285.539488
 20
145.713554
 10
-285.535321
 20
145.598513
 10
-285.528009
 20
145.483629
 10
-285.517252
 20
145.368981
 10
-285.512849
 20
145.330831
 10
-285.508019
 20
145.29272
 10
-285.502751
 20
145.254648
 10
-285.496539
 20
145.213458
 10
-285.489804
 20
145.172333
 10
-285.482548
 20
145.13129
 10
-285.45769
 20
145.008796
 10
-285.428265
 20
144.88757
 10
-285.417458
 20
144.847512
 10
-285.406157
 20
144.807655
 10
-285.394364
 20
144.768013
 10
-285.382385
 20
144.729724
 10
-285.36963
 20
144.691749
 10
-285.355784
 20
144.654185
 10
-285.30455
 20
144.544927
 10
-285.28319
 20
144.509975
 10
-285.259162
 20
144.475919
 10
-285.232153
 20
144.442854
 10
-285.204524
 20
144.413614
 10
-285.174571
 20
144.38665
 10
-285.142758
 20
144.363319
 10
-285.109551
 20
144.344975
 10
-285.075413
 20
144.332975
 10
-285.040811
 20
144.328674
 10
-285.006209
 20
144.332975
 10
-284.972071
 20
144.344975
 10
-284.938864
 20
144.363319
 10
-284.907051
 20
144.38665
 10
-284.877098
 20
144.413614
 10
-284.849469
 20
144.442854
 10
-284.82246
 20
144.475919
 10
-284.798432
 20
144.509975
 10
-284.777072
 20
144.544927
 10
-284.725838
 20
144.654185
 10
-284.711992
 20
144.691749
 10
-284.699237
 20
144.729724
 10
-284.687258
 20
144.768013
 10
-284.671644
 20
144.820918
 10
-284.656904
 20
144.874196
 10
-284.643047
 20
144.927813
 10
-284.606847
 20
145.090343
 10
-284.596598
 20
145.144961
 10
-284.58727
 20
145.199742
 10
-284.578871
 20
145.254648
 10
-284.572355
 20
145.302244
 10
-284.566519
 20
145.349902
 10
-284.561342
 20
145.397617
 10
-284.549546
 20
145.541046
 10
-284.542897
 20
145.684783
 10
-284.541724
 20
145.732737
 10
-284.541036
 20
145.780702
 10
-284.540811
 20
145.828674
 10
-284.541036
 20
145.876645
 10
-284.541724
 20
145.92461
 10
-284.542897
 20
145.972564
 10
-284.549546
 20
146.116301
 10
-284.561342
 20
146.25973
 10
-284.566519
 20
146.307445
 10
-284.572355
 20
146.355103
 10
-284.578871
 20
146.402699
 10
-284.58727
 20
146.457606
 10
-284.596598
 20
146.512386
 10
-284.606847
 20
146.567004
 10
-284.643047
 20
146.729534
 10
-284.656904
 20
146.783151
 10
-284.671644
 20
146.836429
 10
-284.687258
 20
146.889334
 10
-284.705498
 20
146.946656
 10
-284.725838
 20
147.003163
 10
-284.749341
 20
147.058526
 10
-284.777072
 20
147.11242
 10
-284.810093
 20
147.164518
 10
-284.849469
 20
147.214493
 10
-284.891813
 20
147.257584
 10
-284.938864
 20
147.294028
 10
-284.989053
 20
147.31925
 10
-285.040811
 20
147.328674
  0
LINE
  5
22F
100
AcDbEntity
  8
2
370
    50
100
AcDbLine
 10
-287.040811
 20
148.028674
 30
0.0
 11
-287.040811
 21
145.328674
 31
0.0
  0
LINE
  5
230
100
AcDbEntity
  8
2
370
    50
100
AcDbLine
 10
-288.040811
 20
147.21064
 30
0.0
 11
-288.040811
 21
145.428674
 31
0.0
  0
LINE
  5
231
100
AcDbEntity
  8
2
370
    50
100
AcDbLine
 10
-287.040811
 20
144.328674
 30
0.0
 11
-286.840811
 21
144.328674
 31
0.0
  0
LINE
  5
232
100
AcDbEntity
  8
2
370
    50
100
AcDbLine
 10
-288.819991
 20
145.328674
 30
0.0
 11
-288.140811
 21
145.328674
 31
0.0
  0
LINE
  5
233
100
AcDbEntity
  8
2
370
    50
100
AcDbLine
 10
-288.123729
 20
148.162838
 30
0.0
 11
-289.509139
 21
145.392017
 31
0.0
  0
LINE
  5
234
100
AcDbEntity
  8
2
370
    50
100
AcDbLine
 10
-288.040811
 20
147.21064
 30
0.0
 11
-288.909433
 21
145.473395
 31
0.0
  0
ARC
  5
235
100
AcDbEntity
  8
2
370
    50
100
AcDbCircle
 10
-288.819991
 20
145.428674
 30
0.0
 40
0.1
100
AcDbArc
 50
153.434949
 51
270.0
  0
ARC
  5
236
100
AcDbEntity
  8
2
370
    50
100
AcDbCircle
 10
-288.140811
 20
145.428674
 30
0.0
 40
0.1
100
AcDbArc
 50
270.0
 51
360.0
  0
LINE
  5
237
100
AcDbEntity
  8
2
370
    50
100
AcDbLine
 10
-287.040811
 20
145.328674
 30
0.0
 11
-286.840811
 21
145.328674
 31
0.0
  0
LINE
  5
238
100
AcDbEntity
  8
2
370
    50
100
AcDbLine
 10
-287.040811
 20
143.628674
 30
0.0
 11
-287.040811
 21
144.328674
 31
0.0
  0
LINE
  5
239
100
AcDbEntity
  8
2
370
    50
100
AcDbLine
 10
-288.040811
 20
143.628674
 30
0.0
 11
-288.040811
 21
144.328674
 31
0.0
  0
LINE
  5
23A
100
AcDbEntity
  8
2
370
    50
100
AcDbLine
 10
-289.240811
 20
144.328674
 30
0.0
 11
-288.040811
 21
144.328674
 31
0.0
  0
LINE
  5
23B
100
AcDbEntity
  8
2
370
    50
100
AcDbLine
 10
-286.540811
 20
145.028674
 30
0.0
 11
-286.540811
 21
144.628674
 31
0.0
  0
ARC
  5
23C
100
AcDbEntity
  8
2
370
    50
100
AcDbCircle
 10
-287.855401
 20
148.028674
 30
0.0
 40
0.3
100
AcDbArc
 50
90.0
 51
153.434949
  0
ARC
  5
23D
100
AcDbEntity
  8
2
370
    50
100
AcDbCircle
 10
-287.340811
 20
148.028674
 30
0.0
 40
0.3
100
AcDbArc
 50
0.0
 51
90.0
  0
ARC
  5
23E
100
AcDbEntity
  8
2
370
    50
100
AcDbCircle
 10
-289.240811
 20
144.628674
 30
0.0
 40
0.3
100
AcDbArc
 50
180.0
 51
270.0
  0
ARC
  5
23F
100
AcDbEntity
  8
2
370
    50
100
AcDbCircle
 10
-286.840811
 20
145.028674
 30
0.0
 40
0.3
100
AcDbArc
 50
0.0
 51
90.0
  0
ARC
  5
240
100
AcDbEntity
  8
2
370
    50
100
AcDbCircle
 10
-286.840811
 20
144.628674
 30
0.0
 40
0.3
100
AcDbArc
 50
270.0
 51
360.0
  0
ARC
  5
241
100
AcDbEntity
  8
2
370
    50
100
AcDbCircle
 10
-287.740811
 20
143.628674
 30
0.0
 40
0.3
100
AcDbArc
 50
180.0
 51
270.0
  0
ARC
  5
242
100
AcDbEntity
  8
2
370
    50
100
AcDbCircle
 10
-287.340811
 20
143.628674
 30
0.0
 40
0.3
100
AcDbArc
 50
270.0
 51
360.0
  0
LINE
  5
243
100
AcDbEntity
  8
2
370
    25
100
AcDbLine
 10
-289.364242
 20
144.355242
 30
0.0
 11
-288.390811
 21
145.328674
 31
0.0
  0
LINE
  5
244
100
AcDbEntity
  8
2
370
    25
100
AcDbLine
 10
-288.040811
 20
145.678674
 30
0.0
 11
-287.040811
 21
146.678674
 31
0.0
  0
LINE
  5
245
100
AcDbEntity
  8
2
370
    25
100
AcDbLine
 10
-289.107968
 20
144.328674
 30
0.0
 11
-288.098643
 21
145.337999
 31
0.0
  0
LINE
  5
246
100
AcDbEntity
  8
2
370
    25
100
AcDbLine
 10
-288.050137
 20
145.386505
 30
0.0
 11
-287.040811
 21
146.395831
 31
0.0
  0
LINE
  5
247
100
AcDbEntity
  8
2
370
    25
100
AcDbLine
 10
-288.825126
 20
144.328674
 30
0.0
 11
-287.040811
 21
146.112988
 31
0.0
  0
LINE
  5
248
100
AcDbEntity
  8
2
370
    25
100
AcDbLine
 10
-288.542283
 20
144.328674
 30
0.0
 11
-287.040811
 21
145.830145
 31
0.0
  0
LINE
  5
249
100
AcDbEntity
  8
2
370
    25
100
AcDbLine
 10
-288.25944
 20
144.328674
 30
0.0
 11
-287.040811
 21
145.547303
 31
0.0
  0
LINE
  5
24A
100
AcDbEntity
  8
2
370
    25
100
AcDbLine
 10
-288.040811
 20
144.26446
 30
0.0
 11
-286.976598
 21
145.328674
 31
0.0
  0
LINE
  5
24B
100
AcDbEntity
  8
2
370
    25
100
AcDbLine
 10
-288.040811
 20
143.981617
 30
0.0
 11
-286.719414
 21
145.303014
 31
0.0
  0
LINE
  5
24C
100
AcDbEntity
  8
2
370
    25
100
AcDbLine
 10
-288.040811
 20
143.698775
 30
0.0
 11
-286.573917
 21
145.165669
 31
0.0
  0
LINE
  5
24D
100
AcDbEntity
  8
2
370
    25
100
AcDbLine
 10
-287.992037
 20
143.464706
 30
0.0
 11
-286.540811
 21
144.915932
 31
0.0
  0
LINE
  5
24E
100
AcDbEntity
  8
2
370
    25
100
AcDbLine
 10
-287.831265
 20
143.342635
 30
0.0
 11
-287.040811
 21
144.133089
 31
0.0
  0
LINE
  5
24F
100
AcDbEntity
  8
2
370
    25
100
AcDbLine
 10
-286.845227
 20
144.328674
 30
0.0
 11
-286.540811
 21
144.633089
 31
0.0
  0
LINE
  5
250
100
AcDbEntity
  8
2
370
    25
100
AcDbLine
 10
-287.562384
 20
143.328674
 30
0.0
 11
-287.040811
 21
143.850246
 31
0.0
  0
LINE
  5
251
100
AcDbEntity
  8
2
370
    25
100
AcDbLine
 10
-287.271401
 20
143.336814
 30
0.0
 11
-287.048951
 21
143.559264
 31
0.0
  0
LINE
  5
252
100
AcDbEntity
  8
2
370
    25
100
AcDbLine
 10
-289.508698
 20
144.49363
 30
0.0
 11
-288.673654
 21
145.328674
 31
0.0
  0
LINE
  5
253
100
AcDbEntity
  8
2
370
    25
100
AcDbLine
 10
-288.040811
 20
145.961516
 30
0.0
 11
-287.040811
 21
146.961516
 31
0.0
  0
LINE
  5
254
100
AcDbEntity
  8
2
370
    25
100
AcDbLine
 10
-289.540811
 20
144.744359
 30
0.0
 11
-288.906558
 21
145.378612
 31
0.0
  0
LINE
  5
255
100
AcDbEntity
  8
2
370
    25
100
AcDbLine
 10
-288.040811
 20
146.244359
 30
0.0
 11
-287.040811
 21
147.244359
 31
0.0
  0
LINE
  5
256
100
AcDbEntity
  8
2
370
    25
100
AcDbLine
 10
-289.540811
 20
145.027202
 30
0.0
 11
-288.724249
 21
145.843764
 31
0.0
  0
LINE
  5
257
100
AcDbEntity
  8
2
370
    25
100
AcDbLine
 10
-288.040811
 20
146.527202
 30
0.0
 11
-287.040811
 21
147.527202
 31
0.0
  0
LINE
  5
258
100
AcDbEntity
  8
2
370
    25
100
AcDbLine
 10
-289.535187
 20
145.315668
 30
0.0
 11
-288.441406
 21
146.409449
 31
0.0
  0
LINE
  5
259
100
AcDbEntity
  8
2
370
    25
100
AcDbLine
 10
-288.040811
 20
146.810044
 30
0.0
 11
-287.040811
 21
147.810044
 31
0.0
  0
LINE
  5
25A
100
AcDbEntity
  8
2
370
    25
100
AcDbLine
 10
-287.046563
 20
148.087136
 30
0.0
 11
-288.040811
 21
147.092887
 31
0.0
  0
LINE
  5
25B
100
AcDbEntity
  8
2
370
    25
100
AcDbLine
 10
-288.158564
 20
146.975135
 30
0.0
 11
-289.276598
 21
145.857101
 31
0.0
  0
LINE
  5
25C
100
AcDbEntity
  8
2
370
    25
100
AcDbLine
 10
-287.153516
 20
148.263025
 30
0.0
 11
-288.993755
 21
146.422786
 31
0.0
  0
LINE
  5
25D
100
AcDbEntity
  8
2
370
    25
100
AcDbLine
 10
-287.37071
 20
148.328674
 30
0.0
 11
-288.710912
 21
146.988472
 31
0.0
  0
LINE
  5
25E
100
AcDbEntity
  8
2
370
    25
100
AcDbLine
 10
-287.653553
 20
148.328674
 30
0.0
 11
-288.428069
 21
147.554157
 31
0.0
  0
LINE
  5
25F
100
AcDbEntity
  8
2
370
    25
100
AcDbLine
 10
-287.952567
 20
148.312502
 30
0.0
 11
-288.145227
 21
148.119842
 31
0.0
  0
HATCH
  5
260
100
AcDbEntity
  8
2
370
    25
100
AcDbHatch
 10
0.0
 20
0.0
 30
0.0
210
0.0
220
0.0
230
1.0
  2
_U
 70
     0
 71
     1
 91
        2
 92
        1
 93
        8
 72
     1
 10
-285.04081100000002
 20
148.32867400000001
 11
-286.101471
 21
147.596441
 72
     1
 10
-286.101471
 20
147.596441
 11
-286.54081100000002
 21
145.82867400000001
 72
     1
 10
-286.54081100000002
 20
145.82867400000001
 11
-286.101471
 21
144.06090699999999
 72
     1
 10
-286.101471
 20
144.06090699999999
 11
-285.04081100000002
 21
143.32867400000001
 72
     1
 10
-285.04081100000002
 20
143.32867400000001
 11
-283.98015099999998
 21
144.06090699999999
 72
     1
 10
-283.98015099999998
 20
144.06090699999999
 11
-283.54081100000002
 21
145.82867400000001
 72
     1
 10
-283.54081100000002
 20
145.82867400000001
 11
-283.98015099999998
 21
147.596441
 72
     1
 10
-283.98015099999998
 20
147.596441
 11
-285.04081100000002
 21
148.32867400000001
 97
        8
330
0
330
0
330
0
330
0
330
0
330
0
330
0
330
0
 92
        0
 93
        9
 72
     1
 10
-285.04081100000002
 20
147.32867400000001
 11
-285.394364
 21
146.88933399999999
 72
     1
 10
-285.394364
 20
146.88933399999999
 11
-285.54081100000002
 21
145.82867400000001
 72
     1
 10
-285.54081100000002
 20
145.82867400000001
 11
-285.50275099999999
 21
145.254648
 72
     1
 10
-285.50275099999999
 20
145.254648
 11
-285.23215299999998
 21
144.44285400000001
 72
     1
 10
-285.23215299999998
 20
144.44285400000001
 11
-284.68725799999999
 21
144.768013
 72
     1
 10
-284.68725799999999
 20
144.768013
 11
-284.54081100000002
 21
145.82867400000001
 72
     1
 10
-284.54081100000002
 20
145.82867400000001
 11
-284.57887099999999
 21
146.40269900000001
 72
     1
 10
-284.57887099999999
 20
146.40269900000001
 11
-284.849469
 21
147.214493
 72
     1
 10
-284.849469
 20
147.214493
 11
-285.04081100000002
 21
147.32867400000001
 97
        9
330
0
330
0
330
0
330
0
330
0
330
0
330
0
330
0
330
0
 75
     0
 76
     0
 52
45.0
 41
1.0
 77
     0
 78
     1
 53
45.0
 43
0.0
 44
0.0
 45
-0.141421
 46
0.141421
 79
     0
 98
        1
 10
0.0
 20
0.0
  0
LINE
  5
261
100
AcDbEntity
  8
2
370
    50
100
AcDbLine
 10
-289.540811
 20
145.257853
 30
0.0
 11
-289.540811
 21
144.628674
 31
0.0
  0
ARC
  5
262
100
AcDbEntity
  8
2
370
    50
100
AcDbCircle
 10
-289.240811
 20
145.257853
 30
0.0
 40
0.3
100
AcDbArc
 50
153.434949
 51
180.0
  0
LINE
  5
263
100
AcDbEntity
  8
2
370
    50
100
AcDbLine
 10
-286.040811
 20
140.828674
 30
0.0
 11
-287.040811
 21
140.828674
 31
0.0
  0
LINE
  5
264
100
AcDbEntity
  8
2
370
    50
100
AcDbLine
 10
-286.040811
 20
104.776498
 30
0.0
 11
-286.040811
 21
140.828674
 31
0.0
  0
LINE
  5
265
100
AcDbEntity
  8
2
370
    50
100
AcDbLine
 10
-287.040811
 20
104.776498
 30
0.0
 11
-287.040811
 21
140.828674
 31
0.0
  0
HATCH
  5
266
100
AcDbEntity
  8
2
370
    25
100
AcDbHatch
 10
0.0
 20
0.0
 30
0.0
210
0.0
220
0.0
230
1.0
  2
_U
 70
     0
 71
     1
 91
        1
 92
        1
 93
        4
 72
     1
 10
-286.04081100000002
 20
104.776498
 11
-286.04081100000002
 21
140.82867400000001
 72
     1
 10
-286.04081100000002
 20
140.82867400000001
 11
-287.04081100000002
 21
140.82867400000001
 72
     1
 10
-287.04081100000002
 20
140.82867400000001
 11
-287.04081100000002
 21
104.776498
 72
     1
 10
-287.04081100000002
 20
104.776498
 11
-286.04081100000002
 21
104.776498
 97
        4
330
0
330
0
330
0
330
0
 75
     0
 76
     0
 52
45.0
 41
1.0
 77
     0
 78
     1
 53
45.0
 43
0.0
 44
0.0
 45
-0.141421
 46
0.141421
 79
     0
 98
        1
 10
0.0
 20
0.0
  0
POINT
  5
267
100
AcDbEntity
  8
2
370
    50
100
AcDbPoint
 10
-113.540811
 20
126.776498
 30
0.0
  0
LINE
  5
268
100
AcDbEntity
  8
2
370
    50
100
AcDbLine
 10
-282.540811
 20
148.276498
 30
0.0
 11
-282.540811
 21
126.776498
 31
0.0
  0
LINE
  5
269
100
AcDbEntity
  8
2
370
    50
100
AcDbLine
 10
-320.558814
 20
104.776498
 30
0.0
 11
-283.040811
 21
104.776498
 31
0.0
  0
LINE
  5
26A
100
AcDbEntity
  8
2
370
    50
100
AcDbLine
 10
-325.040811
 20
137.776865
 30
0.0
 11
-325.040811
 21
115.776131
 31
0.0
  0
LINE
  5
26B
100
AcDbEntity
  8
2
370
    50
100
AcDbLine
 10
-282.540811
 20
146.476498
 30
0.0
 11
-282.540811
 21
126.776498
 31
0.0
  0
LINE
  5
26C
100
AcDbEntity
  8
2
370
    50
100
AcDbLine
 10
-282.540811
 20
105.276498
 30
0.0
 11
-282.540811
 21
126.776498
 31
0.0
  0
LINE
  5
26D
100
AcDbEntity
  8
2
370
    50
100
AcDbLine
 10
-282.540811
 20
107.076498
 30
0.0
 11
-282.540811
 21
126.776498
 31
0.0
  0
LINE
  5
26E
100
AcDbEntity
  8
2
370
    50
100
AcDbLine
 10
-325.040811
 20
137.776865
 30
0.0
 11
-322.490666
 21
147.294136
 31
0.0
  0
LINE
  5
26F
100
AcDbEntity
  8
2
370
    50
100
AcDbLine
 10
-325.040811
 20
115.776131
 30
0.0
 11
-322.490666
 21
106.25886
 31
0.0
  0
ARC
  5
270
100
AcDbEntity
  8
2
370
    50
100
AcDbCircle
 10
-320.558814
 20
146.776498
 30
0.0
 40
2.0
100
AcDbArc
 50
124.403495
 51
165.0
  0
ARC
  5
271
100
AcDbEntity
  8
2
370
    50
100
AcDbCircle
 10
-320.558814
 20
106.776498
 30
0.0
 40
2.0
100
AcDbArc
 50
195.0
 51
270.0
  0
ARC
  5
272
100
AcDbEntity
  8
2
370
    50
100
AcDbCircle
 10
-283.040811
 20
148.276498
 30
0.0
 40
0.5
100
AcDbArc
 50
0.0
 51
90.0
  0
ARC
  5
273
100
AcDbEntity
  8
2
370
    50
100
AcDbCircle
 10
-283.040811
 20
105.276498
 30
0.0
 40
0.5
100
AcDbArc
 50
270.0
 51
360.0
  0
LINE
  5
274
100
AcDbEntity
  8
2
370
    50
100
AcDbLine
 10
-282.540811
 20
145.576498
 30
0.0
 11
-281.540811
 21
145.576498
 31
0.0
  0
LINE
  5
275
100
AcDbEntity
  8
2
370
    50
100
AcDbLine
 10
-282.540811
 20
107.976498
 30
0.0
 11
-281.540811
 21
107.976498
 31
0.0
  0
ELLIPSE
  5
276
100
AcDbEntity
  8
2
370
    50
100
AcDbEllipse
 10
-295.540811
 20
146.575105
 30
0.0
 11
3.5
 21
0.0
 31
0.0
210
0.0
220
0.0
230
1.0
 40
0.763714
 41
0.0
 42
6.2831849999999996
  0
LINE
  5
277
100
AcDbEntity
  8
2
370
    50
100
AcDbLine
 10
-292.040811
 20
146.575105
 30
0.0
 11
-292.040811
 21
142.332464
 31
0.0
  0
LINE
  5
278
100
AcDbEntity
  8
2
370
    50
100
AcDbLine
 10
-299.040811
 20
146.575105
 30
0.0
 11
-299.040811
 21
142.332464
 31
0.0
  0
ELLIPSE
  5
279
100
AcDbEntity
  8
2
370
    50
100
AcDbEllipse
 10
-295.540811
 20
142.332464
 30
0.0
 11
3.5
 21
0.0
 31
0.0
210
0.0
220
0.0
230
1.0
 40
0.763714
 41
3.1415929999999999
 42
0.0
  0
LINE
  5
27A
100
AcDbEntity
  8
2
370
    50
100
AcDbLine
 10
-305.570833
 20
148.776498
 30
0.0
 11
-297.526079
 21
148.776498
 31
0.0
  0
LINE
  5
27B
100
AcDbEntity
  8
2
370
    50
100
AcDbLine
 10
-293.555543
 20
148.776498
 30
0.0
 11
-283.040811
 21
148.776498
 31
0.0
  0
LINE
  5
27C
100
AcDbEntity
  8
2
370
    50
100
AcDbLine
 10
-318.690674
 20
146.792906
 30
0.0
 11
-309.208099
 21
146.792906
 31
0.0
  0
LINE
  5
27D
100
AcDbEntity
  8
2
370
    50
100
AcDbLine
 10
-319.538207
 20
151.742654
 30
0.0
 11
-307.869862
 21
151.742654
 31
0.0
  0
LINE
  5
27E
100
AcDbEntity
  8
2
370
    50
100
AcDbLine
 10
-306.304054
 20
146.792906
 30
0.0
 11
-305.480074
 21
143.4596
 31
0.0
  0
ARC
  5
27F
100
AcDbEntity
  8
2
370
    50
100
AcDbCircle
 10
-300.626176
 20
144.659464
 30
0.0
 40
5.0
100
AcDbArc
 50
193.884933
 51
270.0
  0
LINE
  5
280
100
AcDbEntity
  8
2
370
    50
100
AcDbLine
 10
-321.337479
 20
146.792906
 30
0.0
 11
-322.093468
 21
139.658379
 31
0.0
  0
LINE
  5
281
100
AcDbEntity
  8
2
370
    50
100
AcDbLine
 10
-305.928303
 20
150.222599
 30
0.0
 11
-305.480074
 21
148.409347
 31
0.0
  0
ARC
  5
282
100
AcDbEntity
  8
2
370
    50
100
AcDbCircle
 10
-300.626176
 20
149.609211
 30
0.0
 40
5.0
100
AcDbArc
 50
193.884933
 51
270.0
  0
LINE
  5
283
100
AcDbEntity
  8
2
370
    50
100
AcDbLine
 10
-321.527072
 20
149.953398
 30
0.0
 11
-322.093468
 21
144.608126
 31
0.0
  0
ARC
  5
284
100
AcDbEntity
  8
2
370
    50
100
AcDbCircle
 10
-307.869862
 20
149.742654
 30
0.0
 40
2.0
100
AcDbArc
 50
13.884933
 51
90.0
  0
ARC
  5
285
100
AcDbEntity
  8
2
370
    50
100
AcDbCircle
 10
-319.538207
 20
149.742654
 30
0.0
 40
2.0
100
AcDbArc
 50
90.0
 51
173.951392
  0
ARC
  5
286
100
AcDbEntity
  8
2
370
    50
100
AcDbCircle
 10
-319.337479
 20
148.792906
 30
0.0
 40
2.0
100
AcDbArc
 50
188.117936
 51
243.547871
  0
ARC
  5
287
100
AcDbEntity
  8
2
370
    50
100
AcDbCircle
 10
-308.304054
 20
148.792906
 30
0.0
 40
2.0
100
AcDbArc
 50
270.0
 51
337.467588
  0
HATCH
  5
288
100
AcDbEntity
  8
2
370
    25
100
AcDbHatch
 10
0.0
 20
0.0
 30
0.0
210
0.0
220
0.0
230
1.0
  2
_U
 70
     0
 71
     1
 91
        1
 92
        1
 93
        4
 72
     1
 10
-272.04081100000002
 20
146.776498
 11
-274.02602000000002
 21
150.21498
 72
     1
 10
-274.02602000000002
 20
150.21498
 11
-277.29124999999999
 21
149.806827
 72
     1
 10
-277.29124999999999
 20
149.806827
 11
-279.04081100000002
 21
146.776498
 72
     1
 10
-279.04081100000002
 20
146.776498
 11
-272.04081100000002
 21
146.776498
 97
        4
330
0
330
0
330
0
330
0
 75
     0
 76
     0
 52
45.0
 41
1.0
 77
     0
 78
     1
 53
45.0
 43
0.0
 44
0.0
 45
-0.141421
 46
0.141421
 79
     0
 98
        1
 10
0.0
 20
0.0
  0
HATCH
  5
289
100
AcDbEntity
  8
2
370
    25
100
AcDbHatch
 10
0.0
 20
0.0
 30
0.0
210
0.0
220
0.0
230
1.0
  2
_U
 70
     0
 71
     1
 91
        1
 92
        1
 93
        4
 72
     1
 10
-117.04081100000001
 20
147.776498
 11
-124.04081100000001
 21
147.776498
 72
     1
 10
-124.04081100000001
 20
147.776498
 11
-122.59362400000001
 21
150.28309999999999
 72
     1
 10
-122.59362400000001
 20
150.28309999999999
 11
-118.16865300000001
 21
149.72997799999999
 72
     1
 10
-118.16865300000001
 20
149.72997799999999
 11
-117.04081100000001
 21
147.776498
 97
        4
330
0
330
0
330
0
330
0
 75
     0
 76
     0
 52
45.0
 41
1.0
 77
     0
 78
     1
 53
45.0
 43
0.0
 44
0.0
 45
-0.141421
 46
0.141421
 79
     0
 98
        1
 10
0.0
 20
0.0
  0
LINE
  5
28A
100
AcDbEntity
  8
2
370
    50
100
AcDbLine
 10
-113.540811
 20
126.776498
 30
0.0
 11
-113.540811
 21
105.276498
 31
0.0
  0
LINE
  5
28B
100
AcDbEntity
  8
2
370
    50
100
AcDbLine
 10
-113.040811
 20
148.776498
 30
0.0
 11
-112.074754
 21
148.776498
 31
0.0
  0
LINE
  5
28C
100
AcDbEntity
  8
2
370
    50
100
AcDbLine
 10
-113.540811
 20
148.276498
 30
0.0
 11
-113.540811
 21
126.776498
 31
0.0
  0
ARC
  5
28D
100
AcDbEntity
  8
2
370
    50
100
AcDbCircle
 10
-113.040811
 20
148.276498
 30
0.0
 40
0.5
100
AcDbArc
 50
90.0
 51
180.0
  0
LINE
  5
28E
100
AcDbEntity
  8
2
370
    50
100
AcDbLine
 10
-71.040352
 20
115.776498
 30
0.0
 11
-71.040352
 21
137.776498
 31
0.0
  0
LINE
  5
28F
100
AcDbEntity
  8
2
370
    50
100
AcDbLine
 10
-71.039811
 20
126.776498
 30
0.0
 11
-71.039811
 21
115.776131
 31
0.0
  0
LINE
  5
290
100
AcDbEntity
  8
2
370
    50
100
AcDbLine
 10
-71.039811
 20
126.776498
 30
0.0
 11
-71.039811
 21
137.776131
 31
0.0
  0
LINE
  5
291
100
AcDbEntity
  8
2
370
    50
100
AcDbLine
 10
-71.040352
 20
115.776498
 30
0.0
 11
-73.590595
 21
106.25886
 31
0.0
  0
LINE
  5
292
100
AcDbEntity
  8
2
370
    50
100
AcDbLine
 10
-71.040352
 20
137.776498
 30
0.0
 11
-73.590595
 21
147.294136
 31
0.0
  0
ARC
  5
293
100
AcDbEntity
  8
2
370
    50
100
AcDbCircle
 10
-75.522447
 20
146.776498
 30
0.0
 40
2.0
100
AcDbArc
 50
15.0
 51
90.921024
  0
LINE
  5
294
100
AcDbEntity
  8
2
370
    50
100
AcDbLine
 10
-113.040811
 20
104.776498
 30
0.0
 11
-75.522447
 21
104.776498
 31
0.0
  0
ARC
  5
295
100
AcDbEntity
  8
2
370
    50
100
AcDbCircle
 10
-113.040811
 20
105.276498
 30
0.0
 40
0.5
100
AcDbArc
 50
180.0
 51
270.0
  0
ARC
  5
296
100
AcDbEntity
  8
2
370
    50
100
AcDbCircle
 10
-75.522447
 20
106.776498
 30
0.0
 40
2.0
100
AcDbArc
 50
270.0
 51
345.0
  0
LINE
  5
297
100
AcDbEntity
  8
2
370
    50
100
AcDbLine
 10
-78.006366
 20
153.296733
 30
0.0
 11
-78.006366
 21
152.346985
 31
0.0
  0
LINE
  5
298
100
AcDbEntity
  8
2
370
    50
100
AcDbLine
 10
-110.895626
 20
153.296733
 30
0.0
 11
-110.895626
 21
152.346985
 31
0.0
  0
LINE
  5
299
100
AcDbEntity
  8
2
370
    50
100
AcDbLine
 10
-80.006366
 20
150.346985
 30
0.0
 11
-108.895626
 21
150.346985
 31
0.0
  0
LINE
  5
29A
100
AcDbEntity
  8
2
370
    50
100
AcDbLine
 10
-80.006366
 20
155.296733
 30
0.0
 11
-108.895626
 21
155.296733
 31
0.0
  0
LINE
  5
29B
100
AcDbEntity
  8
2
370
    50
100
AcDbLine
 10
-322.093468
 20
108.041553
 30
0.0
 11
-322.093468
 21
139.658379
 31
0.0
  0
LINE
  5
29C
100
AcDbEntity
  8
2
370
    50
100
AcDbLine
 10
-322.093468
 20
144.608126
 30
0.0
 11
-322.093468
 21
147.807484
 31
0.0
  0
LINE
  5
29D
100
AcDbEntity
  8
2
370
    50
100
AcDbLine
 10
-78.006366
 20
150.346985
 30
0.0
 11
-74.307703
 21
140.510377
 31
0.0
  0
LINE
  5
29E
100
AcDbEntity
  8
2
370
    50
100
AcDbLine
 10
-110.895626
 20
150.346985
 30
0.0
 11
-113.540811
 21
139.659575
 31
0.0
  0
LINE
  5
29F
100
AcDbEntity
  8
2
370
    50
100
AcDbLine
 10
-73.987793
 20
104.776498
 30
0.0
 11
-73.987793
 21
138.750616
 31
0.0
  0
LINE
  5
2A0
100
AcDbEntity
  8
2
370
    50
100
AcDbLine
 10
-73.987793
 20
142.972906
 30
0.0
 11
-73.987793
 21
147.272614
 31
0.0
  0
ARC
  5
2A1
100
AcDbEntity
  8
2
370
    50
100
AcDbCircle
 10
-80.006366
 20
153.296733
 30
0.0
 40
2.0
100
AcDbArc
 50
0.0
 51
90.0
  0
ARC
  5
2A2
100
AcDbEntity
  8
2
370
    50
100
AcDbCircle
 10
-80.006366
 20
152.346985
 30
0.0
 40
2.0
100
AcDbArc
 50
270.0
 51
360.0
  0
ARC
  5
2A3
100
AcDbEntity
  8
2
370
    50
100
AcDbCircle
 10
-108.895626
 20
153.296733
 30
0.0
 40
2.0
100
AcDbArc
 50
90.0
 51
180.0
  0
ARC
  5
2A4
100
AcDbEntity
  8
2
370
    50
100
AcDbCircle
 10
-108.895626
 20
152.346985
 30
0.0
 40
2.0
100
AcDbArc
 50
180.0
 51
270.0
  0
LINE
  5
2A5
100
AcDbEntity
  8
2
370
    50
100
AcDbLine
 10
-78.134329
 20
154.000637
 30
0.0
 11
-73.987793
 21
142.972906
 31
0.0
  0
LINE
  5
2A6
100
AcDbEntity
  8
2
370
    50
100
AcDbLine
 10
-110.837046
 20
153.777243
 30
0.0
 11
-113.540811
 21
142.853148
 31
0.0
  0
LINE
  5
2A7
100
AcDbEntity
  8
2
370
    50
100
AcDbLine
 10
-75.522447
 20
148.776498
 30
0.0
 11
-76.170001
 21
148.776498
 31
0.0
  0
ARC
  5
2A8
100
AcDbEntity
  8
2
370
    50
100
AcDbCircle
 10
-78.987793
 20
138.750616
 30
0.0
 40
5.0
100
AcDbArc
 50
360.0
 51
20.606759
  0
LINE
  5
2A9
100
AcDbEntity
  8
2
370
    25
100
AcDbLine
 10
-76.667587
 20
139.659575
 30
0.0
 11
-111.489668
 21
139.659575
 31
0.0
  0
LINE
  5
2AA
100
AcDbEntity
  8
2
370
    25
100
AcDbLine
 10
-300.626176
 20
139.659464
 30
0.0
 11
-321.411362
 21
139.659464
 31
0.0
  0
LINE
  5
2AB
100
AcDbEntity
  8
2
370
    25
100
AcDbLine
 10
-129.385581
 20
69.776523
 30
0.0
 11
-267.461761
 21
69.776523
 31
0.0
  0
POINT
  5
2AC
100
AcDbEntity
  8
2
370
    50
100
AcDbPoint
 10
-191.14036
 20
162.776498
 30
0.0
  0
LINE
  5
2AD
100
AcDbEntity
  8
2
370
    25
  6
CENTER
100
AcDbLine
 10
-138.540462
 20
40.930107
 30
0.0
 11
-138.540462
 21
-32.417145
 31
0.0
  0
LINE
  5
2AE
100
AcDbEntity
  8
2
370
    50
100
AcDbLine
 10
-156.040462
 20
36.776498
 30
0.0
 11
-156.040462
 21
33.776498
 31
0.0
  0
LINE
  5
2AF
100
AcDbEntity
  8
2
370
    50
100
AcDbLine
 10
-121.040462
 20
36.776498
 30
0.0
 11
-121.040462
 21
33.776498
 31
0.0
  0
LINE
  5
2B0
100
AcDbEntity
  8
2
370
    50
100
AcDbLine
 10
-156.040462
 20
33.776498
 30
0.0
 11
-121.040462
 21
33.776498
 31
0.0
  0
LINE
  5
2B1
100
AcDbEntity
  8
2
370
    50
100
AcDbLine
 10
-143.679962
 20
-10.223502
 30
0.0
 11
-143.679962
 21
-20.22305
 31
0.0
  0
LINE
  5
2B2
100
AcDbEntity
  8
2
370
    50
100
AcDbLine
 10
-133.400962
 20
-10.223502
 30
0.0
 11
-133.400962
 21
-20.22305
 31
0.0
  0
LINE
  5
2B3
100
AcDbEntity
  8
2
370
    50
100
AcDbLine
 10
-143.679962
 20
-10.223502
 30
0.0
 11
-133.400962
 21
-10.223502
 31
0.0
  0
LINE
  5
2B4
100
AcDbEntity
  8
2
370
    50
100
AcDbLine
 10
-156.04091
 20
13.776543
 30
0.0
 11
-156.04091
 21
15.276543
 31
0.0
  0
LINE
  5
2B5
100
AcDbEntity
  8
2
370
    50
100
AcDbLine
 10
-138.54091
 20
15.276543
 30
0.0
 11
-156.04091
 21
15.276543
 31
0.0
  0
LINE
  5
2B6
100
AcDbEntity
  8
2
370
    50
100
AcDbLine
 10
-138.54091
 20
13.776543
 30
0.0
 11
-156.04091
 21
13.776543
 31
0.0
  0
LINE
  5
2B7
100
AcDbEntity
  8
2
370
    50
100
AcDbLine
 10
-150.54091
 20
5.076543
 30
0.0
 11
-138.54091
 21
5.076543
 31
0.0
  0
LINE
  5
2B8
100
AcDbEntity
  8
2
370
    50
100
AcDbLine
 10
-152.29091
 20
6.086906
 30
0.0
 11
-152.29091
 21
11.576543
 31
0.0
  0
LINE
  5
2B9
100
AcDbEntity
  8
2
370
    50
100
AcDbLine
 10
-150.54091
 20
5.076543
 30
0.0
 11
-152.29091
 21
6.086906
 31
0.0
  0
LINE
  5
2BA
100
AcDbEntity
  8
2
370
    50
100
AcDbLine
 10
-158.54091
 20
12.076543
 30
0.0
 11
-158.54091
 21
13.276543
 31
0.0
  0
LINE
  5
2BB
100
AcDbEntity
  8
2
370
    50
100
AcDbLine
 10
-138.54091
 20
11.576543
 30
0.0
 11
-152.86146
 21
11.576543
 31
0.0
  0
LINE
  5
2BC
100
AcDbEntity
  8
2
370
    50
100
AcDbLine
 10
-158.54091
 20
13.276543
 30
0.0
 11
-138.54091
 21
13.276543
 31
0.0
  0
LINE
  5
2BD
100
AcDbEntity
  8
2
370
    50
100
AcDbLine
 10
-158.54091
 20
12.076543
 30
0.0
 11
-138.54091
 21
12.076543
 31
0.0
  0
ARC
  5
2BE
100
AcDbEntity
  8
2
370
    50
100
AcDbCircle
 10
-152.86146
 20
16.576543
 30
0.0
 40
5.0
100
AcDbArc
 50
246.443536
 51
270.0
  0
ARC
  5
2BF
100
AcDbEntity
  8
2
370
    50
100
AcDbCircle
 10
-152.86146
 20
8.776543
 30
0.0
 40
5.0
100
AcDbArc
 50
90.0
 51
113.556464
  0
ARC
  5
2C0
100
AcDbEntity
  8
2
370
    50
100
AcDbCircle
 10
-155.259376
 20
11.076543
 30
0.0
 40
1.0
100
AcDbArc
 50
66.443536
 51
90.0
  0
ARC
  5
2C1
100
AcDbEntity
  8
2
370
    50
100
AcDbCircle
 10
-155.259376
 20
14.276543
 30
0.0
 40
1.0
100
AcDbArc
 50
270.0
 51
293.556464
  0
LINE
  5
2C2
100
AcDbEntity
  8
2
370
    50
100
AcDbLine
 10
-145.54091
 20
6.086906
 30
0.0
 11
-145.54091
 21
11.576543
 31
0.0
  0
ARC
  5
2C3
100
AcDbEntity
  8
2
370
    50
100
AcDbCircle
 10
-138.54091
 20
29.830436
 30
0.0
 40
24.753893
100
AcDbArc
 50
253.573579
 51
270.0
  0
ARC
  5
2C4
100
AcDbEntity
  8
2
370
    50
100
AcDbCircle
 10
-148.91591
 20
11.218622
 30
0.0
 40
6.142079
100
AcDbArc
 50
236.668091
 51
303.331909
  0
ARC
  5
2C5
100
AcDbEntity
  8
2
370
    50
100
AcDbCircle
 10
-138.54091
 20
27.826543
 30
0.0
 40
16.25
100
AcDbArc
 50
255.749967
 51
270.0
  0
ARC
  5
2C6
100
AcDbEntity
  8
2
370
    50
100
AcDbCircle
 10
-146.79091
 20
27.826543
 30
0.0
 40
16.25
100
AcDbArc
 50
255.749967
 51
277.069714
  0
ARC
  5
2C7
100
AcDbEntity
  8
2
370
    50
100
AcDbCircle
 10
-142.79091
 20
27.826543
 30
0.0
 40
16.25
100
AcDbArc
 50
255.749967
 51
277.514045
  0
ARC
  5
2C8
100
AcDbEntity
  8
2
370
    50
100
AcDbCircle
 10
-150.79091
 20
27.826543
 30
0.0
 40
16.25
100
AcDbArc
 50
270.0
 51
277.069714
  0
ARC
  5
2C9
100
AcDbEntity
  8
2
370
    50
100
AcDbCircle
 10
-138.54091
 20
-2.473457
 30
0.0
 40
16.25
100
AcDbArc
 50
90.0
 51
104.250033
  0
ARC
  5
2CA
100
AcDbEntity
  8
2
370
    50
100
AcDbCircle
 10
-142.79091
 20
-2.473457
 30
0.0
 40
16.25
100
AcDbArc
 50
82.485955
 51
104.250033
  0
ARC
  5
2CB
100
AcDbEntity
  8
2
370
    50
100
AcDbCircle
 10
-146.79091
 20
-2.473457
 30
0.0
 40
16.25
100
AcDbArc
 50
82.930286
 51
104.250033
  0
ARC
  5
2CC
100
AcDbEntity
  8
2
370
    50
100
AcDbCircle
 10
-150.79091
 20
-2.473457
 30
0.0
 40
16.25
100
AcDbArc
 50
82.930286
 51
90.0
  0
LINE
  5
2CD
100
AcDbEntity
  8
2
370
    50
100
AcDbLine
 10
-121.040015
 20
13.776543
 30
0.0
 11
-121.040015
 21
15.276543
 31
0.0
  0
LINE
  5
2CE
100
AcDbEntity
  8
2
370
    50
100
AcDbLine
 10
-138.540015
 20
15.276543
 30
0.0
 11
-121.040015
 21
15.276543
 31
0.0
  0
LINE
  5
2CF
100
AcDbEntity
  8
2
370
    50
100
AcDbLine
 10
-138.540015
 20
13.776543
 30
0.0
 11
-121.040015
 21
13.776543
 31
0.0
  0
LINE
  5
2D0
100
AcDbEntity
  8
2
370
    50
100
AcDbLine
 10
-126.540015
 20
5.076543
 30
0.0
 11
-138.540015
 21
5.076543
 31
0.0
  0
LINE
  5
2D1
100
AcDbEntity
  8
2
370
    50
100
AcDbLine
 10
-124.790015
 20
6.086906
 30
0.0
 11
-124.790015
 21
11.576543
 31
0.0
  0
LINE
  5
2D2
100
AcDbEntity
  8
2
370
    50
100
AcDbLine
 10
-126.540015
 20
5.076543
 30
0.0
 11
-124.790015
 21
6.086906
 31
0.0
  0
LINE
  5
2D3
100
AcDbEntity
  8
2
370
    50
100
AcDbLine
 10
-118.540015
 20
12.076543
 30
0.0
 11
-118.540015
 21
13.276543
 31
0.0
  0
LINE
  5
2D4
100
AcDbEntity
  8
2
370
    50
100
AcDbLine
 10
-138.540015
 20
11.576543
 30
0.0
 11
-124.219465
 21
11.576543
 31
0.0
  0
LINE
  5
2D5
100
AcDbEntity
  8
2
370
    50
100
AcDbLine
 10
-118.540015
 20
13.276543
 30
0.0
 11
-138.540015
 21
13.276543
 31
0.0
  0
LINE
  5
2D6
100
AcDbEntity
  8
2
370
    50
100
AcDbLine
 10
-118.540015
 20
12.076543
 30
0.0
 11
-138.540015
 21
12.076543
 31
0.0
  0
ARC
  5
2D7
100
AcDbEntity
  8
2
370
    50
100
AcDbCircle
 10
-124.219465
 20
16.576543
 30
0.0
 40
5.0
100
AcDbArc
 50
270.0
 51
293.556464
  0
ARC
  5
2D8
100
AcDbEntity
  8
2
370
    50
100
AcDbCircle
 10
-124.219465
 20
8.776543
 30
0.0
 40
5.0
100
AcDbArc
 50
66.443536
 51
90.0
  0
ARC
  5
2D9
100
AcDbEntity
  8
2
370
    50
100
AcDbCircle
 10
-121.821549
 20
11.076543
 30
0.0
 40
1.0
100
AcDbArc
 50
90.0
 51
113.556464
  0
ARC
  5
2DA
100
AcDbEntity
  8
2
370
    50
100
AcDbCircle
 10
-121.821549
 20
14.276543
 30
0.0
 40
1.0
100
AcDbArc
 50
246.443536
 51
270.0
  0
LINE
  5
2DB
100
AcDbEntity
  8
2
370
    50
100
AcDbLine
 10
-131.540015
 20
6.086906
 30
0.0
 11
-131.540015
 21
11.576543
 31
0.0
  0
ARC
  5
2DC
100
AcDbEntity
  8
2
370
    50
100
AcDbCircle
 10
-138.540015
 20
29.830436
 30
0.0
 40
24.753893
100
AcDbArc
 50
270.0
 51
286.426421
  0
ARC
  5
2DD
100
AcDbEntity
  8
2
370
    50
100
AcDbCircle
 10
-128.165015
 20
11.218622
 30
0.0
 40
6.142079
100
AcDbArc
 50
236.668091
 51
303.331909
  0
ARC
  5
2DE
100
AcDbEntity
  8
2
370
    50
100
AcDbCircle
 10
-130.290015
 20
27.826543
 30
0.0
 40
16.25
100
AcDbArc
 50
262.930286
 51
284.250033
  0
ARC
  5
2DF
100
AcDbEntity
  8
2
370
    50
100
AcDbCircle
 10
-134.290015
 20
27.826543
 30
0.0
 40
16.25
100
AcDbArc
 50
262.485955
 51
284.250033
  0
ARC
  5
2E0
100
AcDbEntity
  8
2
370
    50
100
AcDbCircle
 10
-126.290015
 20
27.826543
 30
0.0
 40
16.25
100
AcDbArc
 50
262.930286
 51
270.0
  0
ARC
  5
2E1
100
AcDbEntity
  8
2
370
    50
100
AcDbCircle
 10
-134.290015
 20
-2.473457
 30
0.0
 40
16.25
100
AcDbArc
 50
75.749967
 51
97.514045
  0
ARC
  5
2E2
100
AcDbEntity
  8
2
370
    50
100
AcDbCircle
 10
-130.290015
 20
-2.473457
 30
0.0
 40
16.25
100
AcDbArc
 50
75.749967
 51
97.069714
  0
ARC
  5
2E3
100
AcDbEntity
  8
2
370
    50
100
AcDbCircle
 10
-126.290015
 20
-2.473457
 30
0.0
 40
16.25
100
AcDbArc
 50
90.0
 51
97.069714
  0
POINT
  5
2E4
100
AcDbEntity
  8
2
370
    50
100
AcDbPoint
 10
-138.540462
 20
-26.723502
 30
0.0
  0
LINE
  5
2E5
100
AcDbEntity
  8
2
370
    50
100
AcDbLine
 10
-128.062962
 20
15.276543
 30
0.0
 11
-128.062962
 21
33.776498
 31
0.0
  0
LINE
  5
2E6
100
AcDbEntity
  8
2
370
    25
100
AcDbLine
 10
-129.240462
 20
15.276543
 30
0.0
 11
-129.240462
 21
33.776498
 31
0.0
  0
LINE
  5
2E7
100
AcDbEntity
  8
2
370
    25
100
AcDbLine
 10
-147.840462
 20
15.276543
 30
0.0
 11
-147.840462
 21
33.776498
 31
0.0
  0
LINE
  5
2E8
100
AcDbEntity
  8
2
370
    50
100
AcDbLine
 10
-149.017962
 20
15.276543
 30
0.0
 11
-149.017962
 21
33.776498
 31
0.0
  0
LINE
  5
2E9
100
AcDbEntity
  8
2
370
    25
  6
CENTER
100
AcDbLine
 10
-257.540462
 20
40.930107
 30
0.0
 11
-257.540462
 21
-30.862473
 31
0.0
  0
LINE
  5
2EA
100
AcDbEntity
  8
2
370
    50
100
AcDbLine
 10
-240.040462
 20
36.776498
 30
0.0
 11
-240.040462
 21
33.776498
 31
0.0
  0
LINE
  5
2EB
100
AcDbEntity
  8
2
370
    50
100
AcDbLine
 10
-275.040462
 20
36.776498
 30
0.0
 11
-275.040462
 21
33.776498
 31
0.0
  0
LINE
  5
2EC
100
AcDbEntity
  8
2
370
    50
100
AcDbLine
 10
-240.040462
 20
33.776498
 30
0.0
 11
-275.040462
 21
33.776498
 31
0.0
  0
LINE
  5
2ED
100
AcDbEntity
  8
2
370
    50
100
AcDbLine
 10
-252.400962
 20
-10.223502
 30
0.0
 11
-252.400962
 21
-20.22305
 31
0.0
  0
LINE
  5
2EE
100
AcDbEntity
  8
2
370
    50
100
AcDbLine
 10
-262.679962
 20
-10.223502
 30
0.0
 11
-262.679962
 21
-20.22305
 31
0.0
  0
LINE
  5
2EF
100
AcDbEntity
  8
2
370
    50
100
AcDbLine
 10
-252.400962
 20
-10.223502
 30
0.0
 11
-262.679962
 21
-10.223502
 31
0.0
  0
LINE
  5
2F0
100
AcDbEntity
  8
2
370
    50
100
AcDbLine
 10
-240.040015
 20
13.776543
 30
0.0
 11
-240.040015
 21
15.276543
 31
0.0
  0
LINE
  5
2F1
100
AcDbEntity
  8
2
370
    50
100
AcDbLine
 10
-257.540015
 20
15.276543
 30
0.0
 11
-240.040015
 21
15.276543
 31
0.0
  0
LINE
  5
2F2
100
AcDbEntity
  8
2
370
    50
100
AcDbLine
 10
-257.540015
 20
13.776543
 30
0.0
 11
-240.040015
 21
13.776543
 31
0.0
  0
LINE
  5
2F3
100
AcDbEntity
  8
2
370
    50
100
AcDbLine
 10
-245.540015
 20
5.076543
 30
0.0
 11
-257.540015
 21
5.076543
 31
0.0
  0
LINE
  5
2F4
100
AcDbEntity
  8
2
370
    50
100
AcDbLine
 10
-243.790015
 20
6.086906
 30
0.0
 11
-243.790015
 21
11.576543
 31
0.0
  0
LINE
  5
2F5
100
AcDbEntity
  8
2
370
    50
100
AcDbLine
 10
-245.540015
 20
5.076543
 30
0.0
 11
-243.790015
 21
6.086906
 31
0.0
  0
LINE
  5
2F6
100
AcDbEntity
  8
2
370
    50
100
AcDbLine
 10
-237.540015
 20
12.076543
 30
0.0
 11
-237.540015
 21
13.276543
 31
0.0
  0
LINE
  5
2F7
100
AcDbEntity
  8
2
370
    50
100
AcDbLine
 10
-257.540015
 20
11.576543
 30
0.0
 11
-243.219465
 21
11.576543
 31
0.0
  0
LINE
  5
2F8
100
AcDbEntity
  8
2
370
    50
100
AcDbLine
 10
-237.540015
 20
13.276543
 30
0.0
 11
-257.540015
 21
13.276543
 31
0.0
  0
LINE
  5
2F9
100
AcDbEntity
  8
2
370
    50
100
AcDbLine
 10
-237.540015
 20
12.076543
 30
0.0
 11
-257.540015
 21
12.076543
 31
0.0
  0
ARC
  5
2FA
100
AcDbEntity
  8
2
370
    50
100
AcDbCircle
 10
-243.219465
 20
16.576543
 30
0.0
 40
5.0
100
AcDbArc
 50
270.0
 51
293.556464
  0
ARC
  5
2FB
100
AcDbEntity
  8
2
370
    50
100
AcDbCircle
 10
-243.219465
 20
8.776543
 30
0.0
 40
5.0
100
AcDbArc
 50
66.443536
 51
90.0
  0
ARC
  5
2FC
100
AcDbEntity
  8
2
370
    50
100
AcDbCircle
 10
-240.821549
 20
11.076543
 30
0.0
 40
1.0
100
AcDbArc
 50
90.0
 51
113.556464
  0
ARC
  5
2FD
100
AcDbEntity
  8
2
370
    50
100
AcDbCircle
 10
-240.821549
 20
14.276543
 30
0.0
 40
1.0
100
AcDbArc
 50
246.443536
 51
270.0
  0
LINE
  5
2FE
100
AcDbEntity
  8
2
370
    50
100
AcDbLine
 10
-250.540015
 20
6.086906
 30
0.0
 11
-250.540015
 21
11.576543
 31
0.0
  0
ARC
  5
2FF
100
AcDbEntity
  8
2
370
    50
100
AcDbCircle
 10
-257.540015
 20
29.830436
 30
0.0
 40
24.753893
100
AcDbArc
 50
270.0
 51
286.426421
  0
ARC
  5
300
100
AcDbEntity
  8
2
370
    50
100
AcDbCircle
 10
-247.165015
 20
11.218622
 30
0.0
 40
6.142079
100
AcDbArc
 50
236.668091
 51
303.331909
  0
ARC
  5
301
100
AcDbEntity
  8
2
370
    50
100
AcDbCircle
 10
-257.540015
 20
27.826543
 30
0.0
 40
16.25
100
AcDbArc
 50
270.0
 51
284.250033
  0
ARC
  5
302
100
AcDbEntity
  8
2
370
    50
100
AcDbCircle
 10
-249.290015
 20
27.826543
 30
0.0
 40
16.25
100
AcDbArc
 50
262.930286
 51
284.250033
  0
ARC
  5
303
100
AcDbEntity
  8
2
370
    50
100
AcDbCircle
 10
-253.290015
 20
27.826543
 30
0.0
 40
16.25
100
AcDbArc
 50
262.485955
 51
284.250033
  0
ARC
  5
304
100
AcDbEntity
  8
2
370
    50
100
AcDbCircle
 10
-245.290015
 20
27.826543
 30
0.0
 40
16.25
100
AcDbArc
 50
262.930286
 51
270.0
  0
ARC
  5
305
100
AcDbEntity
  8
2
370
    50
100
AcDbCircle
 10
-257.540015
 20
-2.473457
 30
0.0
 40
16.25
100
AcDbArc
 50
75.749967
 51
90.0
  0
ARC
  5
306
100
AcDbEntity
  8
2
370
    50
100
AcDbCircle
 10
-253.290015
 20
-2.473457
 30
0.0
 40
16.25
100
AcDbArc
 50
75.749967
 51
97.514045
  0
ARC
  5
307
100
AcDbEntity
  8
2
370
    50
100
AcDbCircle
 10
-249.290015
 20
-2.473457
 30
0.0
 40
16.25
100
AcDbArc
 50
75.749967
 51
97.069714
  0
ARC
  5
308
100
AcDbEntity
  8
2
370
    50
100
AcDbCircle
 10
-245.290015
 20
-2.473457
 30
0.0
 40
16.25
100
AcDbArc
 50
90.0
 51
97.069714
  0
LINE
  5
309
100
AcDbEntity
  8
2
370
    50
100
AcDbLine
 10
-275.04091
 20
13.776543
 30
0.0
 11
-275.04091
 21
15.276543
 31
0.0
  0
LINE
  5
30A
100
AcDbEntity
  8
2
370
    50
100
AcDbLine
 10
-257.54091
 20
15.276543
 30
0.0
 11
-275.04091
 21
15.276543
 31
0.0
  0
LINE
  5
30B
100
AcDbEntity
  8
2
370
    50
100
AcDbLine
 10
-257.54091
 20
13.776543
 30
0.0
 11
-275.04091
 21
13.776543
 31
0.0
  0
LINE
  5
30C
100
AcDbEntity
  8
2
370
    50
100
AcDbLine
 10
-269.54091
 20
5.076543
 30
0.0
 11
-257.54091
 21
5.076543
 31
0.0
  0
LINE
  5
30D
100
AcDbEntity
  8
2
370
    50
100
AcDbLine
 10
-271.29091
 20
6.086906
 30
0.0
 11
-271.29091
 21
11.576543
 31
0.0
  0
LINE
  5
30E
100
AcDbEntity
  8
2
370
    50
100
AcDbLine
 10
-269.54091
 20
5.076543
 30
0.0
 11
-271.29091
 21
6.086906
 31
0.0
  0
LINE
  5
30F
100
AcDbEntity
  8
2
370
    50
100
AcDbLine
 10
-277.54091
 20
12.076543
 30
0.0
 11
-277.54091
 21
13.276543
 31
0.0
  0
LINE
  5
310
100
AcDbEntity
  8
2
370
    50
100
AcDbLine
 10
-257.54091
 20
11.576543
 30
0.0
 11
-271.86146
 21
11.576543
 31
0.0
  0
LINE
  5
311
100
AcDbEntity
  8
2
370
    50
100
AcDbLine
 10
-277.54091
 20
13.276543
 30
0.0
 11
-257.54091
 21
13.276543
 31
0.0
  0
LINE
  5
312
100
AcDbEntity
  8
2
370
    50
100
AcDbLine
 10
-277.54091
 20
12.076543
 30
0.0
 11
-257.54091
 21
12.076543
 31
0.0
  0
ARC
  5
313
100
AcDbEntity
  8
2
370
    50
100
AcDbCircle
 10
-271.86146
 20
16.576543
 30
0.0
 40
5.0
100
AcDbArc
 50
246.443536
 51
270.0
  0
ARC
  5
314
100
AcDbEntity
  8
2
370
    50
100
AcDbCircle
 10
-271.86146
 20
8.776543
 30
0.0
 40
5.0
100
AcDbArc
 50
90.0
 51
113.556464
  0
ARC
  5
315
100
AcDbEntity
  8
2
370
    50
100
AcDbCircle
 10
-274.259376
 20
11.076543
 30
0.0
 40
1.0
100
AcDbArc
 50
66.443536
 51
90.0
  0
ARC
  5
316
100
AcDbEntity
  8
2
370
    50
100
AcDbCircle
 10
-274.259376
 20
14.276543
 30
0.0
 40
1.0
100
AcDbArc
 50
270.0
 51
293.556464
  0
LINE
  5
317
100
AcDbEntity
  8
2
370
    50
100
AcDbLine
 10
-264.54091
 20
6.086906
 30
0.0
 11
-264.54091
 21
11.576543
 31
0.0
  0
ARC
  5
318
100
AcDbEntity
  8
2
370
    50
100
AcDbCircle
 10
-257.54091
 20
29.830436
 30
0.0
 40
24.753893
100
AcDbArc
 50
253.573579
 51
270.0
  0
ARC
  5
319
100
AcDbEntity
  8
2
370
    50
100
AcDbCircle
 10
-267.91591
 20
11.218622
 30
0.0
 40
6.142079
100
AcDbArc
 50
236.668091
 51
303.331909
  0
ARC
  5
31A
100
AcDbEntity
  8
2
370
    50
100
AcDbCircle
 10
-265.79091
 20
27.826543
 30
0.0
 40
16.25
100
AcDbArc
 50
255.749967
 51
277.069714
  0
ARC
  5
31B
100
AcDbEntity
  8
2
370
    50
100
AcDbCircle
 10
-261.79091
 20
27.826543
 30
0.0
 40
16.25
100
AcDbArc
 50
255.749967
 51
277.514045
  0
ARC
  5
31C
100
AcDbEntity
  8
2
370
    50
100
AcDbCircle
 10
-269.79091
 20
27.826543
 30
0.0
 40
16.25
100
AcDbArc
 50
270.0
 51
277.069714
  0
ARC
  5
31D
100
AcDbEntity
  8
2
370
    50
100
AcDbCircle
 10
-261.79091
 20
-2.473457
 30
0.0
 40
16.25
100
AcDbArc
 50
82.485955
 51
104.250033
  0
ARC
  5
31E
100
AcDbEntity
  8
2
370
    50
100
AcDbCircle
 10
-265.79091
 20
-2.473457
 30
0.0
 40
16.25
100
AcDbArc
 50
82.930286
 51
104.250033
  0
ARC
  5
31F
100
AcDbEntity
  8
2
370
    50
100
AcDbCircle
 10
-269.79091
 20
-2.473457
 30
0.0
 40
16.25
100
AcDbArc
 50
82.930286
 51
90.0
  0
POINT
  5
320
100
AcDbEntity
  8
2
370
    50
100
AcDbPoint
 10
-257.540462
 20
-26.723502
 30
0.0
  0
LINE
  5
321
100
AcDbEntity
  8
2
370
    50
100
AcDbLine
 10
-268.017962
 20
15.276543
 30
0.0
 11
-268.017962
 21
33.776498
 31
0.0
  0
LINE
  5
322
100
AcDbEntity
  8
2
370
    25
100
AcDbLine
 10
-266.840462
 20
15.276543
 30
0.0
 11
-266.840462
 21
33.776498
 31
0.0
  0
LINE
  5
323
100
AcDbEntity
  8
2
370
    25
100
AcDbLine
 10
-248.240462
 20
15.276543
 30
0.0
 11
-248.240462
 21
33.776498
 31
0.0
  0
LINE
  5
324
100
AcDbEntity
  8
2
370
    50
100
AcDbLine
 10
-247.062962
 20
15.276543
 30
0.0
 11
-247.062962
 21
33.776498
 31
0.0
  0
LINE
  5
325
100
AcDbEntity
  8
2
370
    25
  6
CENTER
100
AcDbLine
 10
241.560403
 20
40.929791
 30
0.0
 11
241.560403
 21
-22.061848
 31
0.0
  0
LINE
  5
326
100
AcDbEntity
  8
2
370
    50
100
AcDbLine
 10
224.060403
 20
36.776182
 30
0.0
 11
224.060403
 21
33.776182
 31
0.0
  0
LINE
  5
327
100
AcDbEntity
  8
2
370
    50
100
AcDbLine
 10
259.060403
 20
36.776182
 30
0.0
 11
259.060403
 21
33.776182
 31
0.0
  0
LINE
  5
328
100
AcDbEntity
  8
2
370
    50
100
AcDbLine
 10
224.060403
 20
33.776182
 30
0.0
 11
259.060403
 21
33.776182
 31
0.0
  0
LINE
  5
329
100
AcDbEntity
  8
2
370
    50
100
AcDbLine
 10
224.059956
 20
13.776227
 30
0.0
 11
224.059956
 21
15.276227
 31
0.0
  0
LINE
  5
32A
100
AcDbEntity
  8
2
370
    50
100
AcDbLine
 10
241.559956
 20
15.276227
 30
0.0
 11
224.059956
 21
15.276227
 31
0.0
  0
LINE
  5
32B
100
AcDbEntity
  8
2
370
    50
100
AcDbLine
 10
241.559956
 20
13.776227
 30
0.0
 11
224.059956
 21
13.776227
 31
0.0
  0
LINE
  5
32C
100
AcDbEntity
  8
2
370
    50
100
AcDbLine
 10
229.559956
 20
5.076227
 30
0.0
 11
241.559956
 21
5.076227
 31
0.0
  0
LINE
  5
32D
100
AcDbEntity
  8
2
370
    50
100
AcDbLine
 10
227.809956
 20
6.08659
 30
0.0
 11
227.809956
 21
11.576227
 31
0.0
  0
LINE
  5
32E
100
AcDbEntity
  8
2
370
    50
100
AcDbLine
 10
229.559956
 20
5.076227
 30
0.0
 11
227.809956
 21
6.08659
 31
0.0
  0
LINE
  5
32F
100
AcDbEntity
  8
2
370
    50
100
AcDbLine
 10
221.559956
 20
12.076227
 30
0.0
 11
221.559956
 21
13.276227
 31
0.0
  0
LINE
  5
330
100
AcDbEntity
  8
2
370
    50
100
AcDbLine
 10
241.559956
 20
11.576227
 30
0.0
 11
227.239406
 21
11.576227
 31
0.0
  0
LINE
  5
331
100
AcDbEntity
  8
2
370
    50
100
AcDbLine
 10
221.559956
 20
13.276227
 30
0.0
 11
241.559956
 21
13.276227
 31
0.0
  0
LINE
  5
332
100
AcDbEntity
  8
2
370
    50
100
AcDbLine
 10
221.559956
 20
12.076227
 30
0.0
 11
241.559956
 21
12.076227
 31
0.0
  0
ARC
  5
333
100
AcDbEntity
  8
2
370
    50
100
AcDbCircle
 10
227.239406
 20
16.576227
 30
0.0
 40
5.0
100
AcDbArc
 50
246.443536
 51
270.0
  0
ARC
  5
334
100
AcDbEntity
  8
2
370
    50
100
AcDbCircle
 10
227.239406
 20
8.776227
 30
0.0
 40
5.0
100
AcDbArc
 50
90.0
 51
113.556464
  0
ARC
  5
335
100
AcDbEntity
  8
2
370
    50
100
AcDbCircle
 10
224.84149
 20
11.076227
 30
0.0
 40
1.0
100
AcDbArc
 50
66.443536
 51
90.0
  0
ARC
  5
336
100
AcDbEntity
  8
2
370
    50
100
AcDbCircle
 10
224.84149
 20
14.276227
 30
0.0
 40
1.0
100
AcDbArc
 50
270.0
 51
293.556464
  0
LINE
  5
337
100
AcDbEntity
  8
2
370
    50
100
AcDbLine
 10
234.559956
 20
6.08659
 30
0.0
 11
234.559956
 21
11.576227
 31
0.0
  0
ARC
  5
338
100
AcDbEntity
  8
2
370
    50
100
AcDbCircle
 10
241.559956
 20
29.83012
 30
0.0
 40
24.753893
100
AcDbArc
 50
253.573579
 51
270.0
  0
ARC
  5
339
100
AcDbEntity
  8
2
370
    50
100
AcDbCircle
 10
231.184956
 20
11.218306
 30
0.0
 40
6.142079
100
AcDbArc
 50
236.668091
 51
303.331909
  0
ARC
  5
33A
100
AcDbEntity
  8
2
370
    50
100
AcDbCircle
 10
241.559956
 20
27.826227
 30
0.0
 40
16.25
100
AcDbArc
 50
255.749967
 51
270.0
  0
ARC
  5
33B
100
AcDbEntity
  8
2
370
    50
100
AcDbCircle
 10
233.309956
 20
27.826227
 30
0.0
 40
16.25
100
AcDbArc
 50
255.749967
 51
277.069714
  0
ARC
  5
33C
100
AcDbEntity
  8
2
370
    50
100
AcDbCircle
 10
237.309956
 20
27.826227
 30
0.0
 40
16.25
100
AcDbArc
 50
255.749967
 51
277.514045
  0
ARC
  5
33D
100
AcDbEntity
  8
2
370
    50
100
AcDbCircle
 10
229.309956
 20
27.826227
 30
0.0
 40
16.25
100
AcDbArc
 50
270.0
 51
277.069714
  0
ARC
  5
33E
100
AcDbEntity
  8
2
370
    50
100
AcDbCircle
 10
241.559956
 20
-2.473773
 30
0.0
 40
16.25
100
AcDbArc
 50
90.0
 51
104.250033
  0
ARC
  5
33F
100
AcDbEntity
  8
2
370
    50
100
AcDbCircle
 10
237.309956
 20
-2.473773
 30
0.0
 40
16.25
100
AcDbArc
 50
82.485955
 51
104.250033
  0
ARC
  5
340
100
AcDbEntity
  8
2
370
    50
100
AcDbCircle
 10
233.309956
 20
-2.473773
 30
0.0
 40
16.25
100
AcDbArc
 50
82.930286
 51
104.250033
  0
ARC
  5
341
100
AcDbEntity
  8
2
370
    50
100
AcDbCircle
 10
229.309956
 20
-2.473773
 30
0.0
 40
16.25
100
AcDbArc
 50
82.930286
 51
90.0
  0
LINE
  5
342
100
AcDbEntity
  8
2
370
    50
100
AcDbLine
 10
259.06085
 20
13.776227
 30
0.0
 11
259.06085
 21
15.276227
 31
0.0
  0
LINE
  5
343
100
AcDbEntity
  8
2
370
    50
100
AcDbLine
 10
241.56085
 20
15.276227
 30
0.0
 11
259.06085
 21
15.276227
 31
0.0
  0
LINE
  5
344
100
AcDbEntity
  8
2
370
    50
100
AcDbLine
 10
241.56085
 20
13.776227
 30
0.0
 11
259.06085
 21
13.776227
 31
0.0
  0
LINE
  5
345
100
AcDbEntity
  8
2
370
    50
100
AcDbLine
 10
253.56085
 20
5.076227
 30
0.0
 11
241.56085
 21
5.076227
 31
0.0
  0
LINE
  5
346
100
AcDbEntity
  8
2
370
    50
100
AcDbLine
 10
255.31085
 20
6.08659
 30
0.0
 11
255.31085
 21
11.576227
 31
0.0
  0
LINE
  5
347
100
AcDbEntity
  8
2
370
    50
100
AcDbLine
 10
253.56085
 20
5.076227
 30
0.0
 11
255.31085
 21
6.08659
 31
0.0
  0
LINE
  5
348
100
AcDbEntity
  8
2
370
    50
100
AcDbLine
 10
261.56085
 20
12.076227
 30
0.0
 11
261.56085
 21
13.276227
 31
0.0
  0
LINE
  5
349
100
AcDbEntity
  8
2
370
    50
100
AcDbLine
 10
241.56085
 20
11.576227
 30
0.0
 11
255.881401
 21
11.576227
 31
0.0
  0
LINE
  5
34A
100
AcDbEntity
  8
2
370
    50
100
AcDbLine
 10
261.56085
 20
13.276227
 30
0.0
 11
241.56085
 21
13.276227
 31
0.0
  0
LINE
  5
34B
100
AcDbEntity
  8
2
370
    50
100
AcDbLine
 10
261.56085
 20
12.076227
 30
0.0
 11
241.56085
 21
12.076227
 31
0.0
  0
ARC
  5
34C
100
AcDbEntity
  8
2
370
    50
100
AcDbCircle
 10
255.881401
 20
16.576227
 30
0.0
 40
5.0
100
AcDbArc
 50
270.0
 51
293.556464
  0
ARC
  5
34D
100
AcDbEntity
  8
2
370
    50
100
AcDbCircle
 10
255.881401
 20
8.776227
 30
0.0
 40
5.0
100
AcDbArc
 50
66.443536
 51
90.0
  0
ARC
  5
34E
100
AcDbEntity
  8
2
370
    50
100
AcDbCircle
 10
258.279317
 20
11.076227
 30
0.0
 40
1.0
100
AcDbArc
 50
90.0
 51
113.556464
  0
ARC
  5
34F
100
AcDbEntity
  8
2
370
    50
100
AcDbCircle
 10
258.279317
 20
14.276227
 30
0.0
 40
1.0
100
AcDbArc
 50
246.443536
 51
270.0
  0
LINE
  5
350
100
AcDbEntity
  8
2
370
    50
100
AcDbLine
 10
248.56085
 20
6.08659
 30
0.0
 11
248.56085
 21
11.576227
 31
0.0
  0
ARC
  5
351
100
AcDbEntity
  8
2
370
    50
100
AcDbCircle
 10
241.56085
 20
29.83012
 30
0.0
 40
24.753893
100
AcDbArc
 50
270.0
 51
286.426421
  0
ARC
  5
352
100
AcDbEntity
  8
2
370
    50
100
AcDbCircle
 10
251.93585
 20
11.218306
 30
0.0
 40
6.142079
100
AcDbArc
 50
236.668091
 51
303.331909
  0
ARC
  5
353
100
AcDbEntity
  8
2
370
    50
100
AcDbCircle
 10
249.81085
 20
27.826227
 30
0.0
 40
16.25
100
AcDbArc
 50
262.930286
 51
284.250033
  0
ARC
  5
354
100
AcDbEntity
  8
2
370
    50
100
AcDbCircle
 10
245.81085
 20
27.826227
 30
0.0
 40
16.25
100
AcDbArc
 50
262.485955
 51
284.250033
  0
ARC
  5
355
100
AcDbEntity
  8
2
370
    50
100
AcDbCircle
 10
253.81085
 20
27.826227
 30
0.0
 40
16.25
100
AcDbArc
 50
262.930286
 51
270.0
  0
ARC
  5
356
100
AcDbEntity
  8
2
370
    50
100
AcDbCircle
 10
245.81085
 20
-2.473773
 30
0.0
 40
16.25
100
AcDbArc
 50
75.749967
 51
97.514045
  0
ARC
  5
357
100
AcDbEntity
  8
2
370
    50
100
AcDbCircle
 10
249.81085
 20
-2.473773
 30
0.0
 40
16.25
100
AcDbArc
 50
75.749967
 51
97.069714
  0
ARC
  5
358
100
AcDbEntity
  8
2
370
    50
100
AcDbCircle
 10
253.81085
 20
-2.473773
 30
0.0
 40
16.25
100
AcDbArc
 50
90.0
 51
97.069714
  0
POINT
  5
359
100
AcDbEntity
  8
2
370
    50
100
AcDbPoint
 10
241.560403
 20
-26.723818
 30
0.0
  0
LINE
  5
35A
100
AcDbEntity
  8
2
370
    50
100
AcDbLine
 10
252.037903
 20
15.276227
 30
0.0
 11
252.037903
 21
33.776182
 31
0.0
  0
LINE
  5
35B
100
AcDbEntity
  8
2
370
    25
100
AcDbLine
 10
250.860403
 20
15.276227
 30
0.0
 11
250.860403
 21
33.776182
 31
0.0
  0
LINE
  5
35C
100
AcDbEntity
  8
2
370
    25
100
AcDbLine
 10
232.260403
 20
15.276227
 30
0.0
 11
232.260403
 21
33.776182
 31
0.0
  0
LINE
  5
35D
100
AcDbEntity
  8
2
370
    50
100
AcDbLine
 10
231.082903
 20
15.276227
 30
0.0
 11
231.082903
 21
33.776182
 31
0.0
  0
CIRCLE
  5
35E
100
AcDbEntity
  8
2
370
    50
100
AcDbCircle
 10
241.560403
 20
86.776182
 30
0.0
 40
10.9
  0
LINE
  5
35F
100
AcDbEntity
  8
2
370
    50
100
AcDbLine
 10
232.560403
 20
87.776182
 30
0.0
 11
250.560403
 21
87.776182
 31
0.0
  0
LINE
  5
360
100
AcDbEntity
  8
2
370
    50
100
AcDbLine
 10
232.560403
 20
85.776182
 30
0.0
 11
250.560403
 21
85.776182
 31
0.0
  0
CIRCLE
  5
361
100
AcDbEntity
  8
2
370
    25
100
AcDbCircle
 10
241.560403
 20
86.776182
 30
0.0
 40
10.4
  0
LINE
  5
362
100
AcDbEntity
  8
2
370
    50
100
AcDbLine
 10
232.560403
 20
85.776182
 30
0.0
 11
232.560403
 21
87.776182
 31
0.0
  0
LINE
  5
363
100
AcDbEntity
  8
2
370
    50
100
AcDbLine
 10
250.560403
 20
85.776182
 30
0.0
 11
250.560403
 21
87.776182
 31
0.0
  0
LINE
  5
364
100
AcDbEntity
  8
2
370
    50
100
AcDbLine
 10
278.560406
 20
110.975799
 30
0.0
 11
292.360704
 21
110.975799
 31
0.0
  0
LINE
  5
365
100
AcDbEntity
  8
2
370
    50
100
AcDbLine
 10
278.560406
 20
132.575799
 30
0.0
 11
284.260704
 21
132.575799
 31
0.0
  0
ARC
  5
366
100
AcDbEntity
  8
2
370
    50
100
AcDbCircle
 10
292.360704
 20
125.975799
 30
0.0
 40
15.0
100
AcDbArc
 50
270.0
 51
360.0
  0
LINE
  5
367
100
AcDbEntity
  8
2
370
    50
100
AcDbLine
 10
307.360704
 20
136.775799
 30
0.0
 11
285.760704
 21
136.775799
 31
0.0
  0
ARC
  5
368
100
AcDbEntity
  8
2
370
    50
100
AcDbCircle
 10
284.260704
 20
134.075799
 30
0.0
 40
1.5
100
AcDbArc
 50
270.0
 51
360.0
  0
LINE
  5
369
100
AcDbEntity
  8
2
370
    50
100
AcDbLine
 10
307.360704
 20
136.775799
 30
0.0
 11
307.360704
 21
125.975799
 31
0.0
  0
LINE
  5
36A
100
AcDbEntity
  8
2
370
    50
100
AcDbLine
 10
285.760704
 20
136.775799
 30
0.0
 11
285.760704
 21
134.075799
 31
0.0
  0
POINT
  5
36B
100
AcDbEntity
  8
2
370
    50
100
AcDbPoint
 10
296.560704
 20
136.775799
 30
0.0
  0
LINE
  5
36C
100
AcDbEntity
  8
2
370
    50
100
AcDbLine
 10
304.560704
 20
181.775095
 30
0.0
 11
304.560704
 21
158.875799
 31
0.0
  0
ARC
  5
36D
100
AcDbEntity
  8
2
370
    50
100
AcDbCircle
 10
292.560704
 20
187.128455
 30
0.0
 40
6.666667
100
AcDbArc
 50
233.130102
 51
306.869898
  0
ARC
  5
36E
100
AcDbEntity
  8
2
370
    50
100
AcDbCircle
 10
300.560704
 20
176.461789
 30
0.0
 40
6.666667
100
AcDbArc
 50
53.130102
 51
126.869898
  0
ARC
  5
36F
100
AcDbEntity
  8
2
370
    50
100
AcDbCircle
 10
292.560704
 20
176.461789
 30
0.0
 40
6.666667
100
AcDbArc
 50
53.130102
 51
126.869898
  0
LINE
  5
370
100
AcDbEntity
  8
2
370
    50
100
AcDbLine
 10
288.560704
 20
181.808001
 30
0.0
 11
288.560704
 21
158.875799
 31
0.0
  0
LINE
  5
371
100
AcDbEntity
  8
2
370
    50
100
AcDbLine
 10
281.810704
 20
158.875799
 30
0.0
 11
311.310704
 21
158.875799
 31
0.0
  0
LINE
  5
372
100
AcDbEntity
  8
2
370
    50
100
AcDbLine
 10
282.710704
 20
150.275799
 30
0.0
 11
282.710704
 21
137.775799
 31
0.0
  0
LINE
  5
373
100
AcDbEntity
  8
2
370
    50
100
AcDbLine
 10
310.410704
 20
150.275799
 30
0.0
 11
310.410704
 21
137.775799
 31
0.0
  0
ARC
  5
374
100
AcDbEntity
  8
2
370
    50
100
AcDbCircle
 10
309.410704
 20
150.275799
 30
0.0
 40
1.0
100
AcDbArc
 50
0.0
 51
90.0
  0
ARC
  5
375
100
AcDbEntity
  8
2
370
    50
100
AcDbCircle
 10
283.710704
 20
150.275799
 30
0.0
 40
1.0
100
AcDbArc
 50
90.0
 51
180.0
  0
LINE
  5
376
100
AcDbEntity
  8
2
370
    50
100
AcDbLine
 10
299.060704
 20
157.875799
 30
0.0
 11
299.060704
 21
149.875799
 31
0.0
  0
LINE
  5
377
100
AcDbEntity
  8
2
370
    50
100
AcDbLine
 10
294.060704
 20
157.875799
 30
0.0
 11
294.060704
 21
149.875799
 31
0.0
  0
LINE
  5
378
100
AcDbEntity
  8
2
370
    50
100
AcDbLine
 10
280.810704
 20
157.875799
 30
0.0
 11
280.810704
 21
149.875799
 31
0.0
  0
LINE
  5
379
100
AcDbEntity
  8
2
370
    50
100
AcDbLine
 10
312.310704
 20
157.875799
 30
0.0
 11
312.310704
 21
149.875799
 31
0.0
  0
LINE
  5
37A
100
AcDbEntity
  8
2
370
    50
100
AcDbLine
 10
283.810704
 20
158.875799
 30
0.0
 11
283.810704
 21
151.275799
 31
0.0
  0
LINE
  5
37B
100
AcDbEntity
  8
2
370
    50
100
AcDbLine
 10
309.310704
 20
158.875799
 30
0.0
 11
309.310704
 21
151.275799
 31
0.0
  0
LINE
  5
37C
100
AcDbEntity
  8
2
370
    50
100
AcDbLine
 10
311.310704
 20
148.875799
 30
0.0
 11
310.410704
 21
148.875799
 31
0.0
  0
LINE
  5
37D
100
AcDbEntity
  8
2
370
    50
100
AcDbLine
 10
298.060704
 20
148.875799
 30
0.0
 11
295.060704
 21
148.875799
 31
0.0
  0
LINE
  5
37E
100
AcDbEntity
  8
2
370
    50
100
AcDbLine
 10
309.410704
 20
151.275799
 30
0.0
 11
299.060704
 21
151.275799
 31
0.0
  0
LINE
  5
37F
100
AcDbEntity
  8
2
370
    50
100
AcDbLine
 10
294.060704
 20
151.275799
 30
0.0
 11
283.710704
 21
151.275799
 31
0.0
  0
ARC
  5
380
100
AcDbEntity
  8
2
370
    50
100
AcDbCircle
 10
311.310704
 20
157.875799
 30
0.0
 40
1.0
100
AcDbArc
 50
0.0
 51
90.0
  0
ARC
  5
381
100
AcDbEntity
  8
2
370
    50
100
AcDbCircle
 10
311.310704
 20
149.875799
 30
0.0
 40
1.0
100
AcDbArc
 50
270.0
 51
360.0
  0
ARC
  5
382
100
AcDbEntity
  8
2
370
    50
100
AcDbCircle
 10
281.810704
 20
157.875799
 30
0.0
 40
1.0
100
AcDbArc
 50
90.0
 51
180.0
  0
ARC
  5
383
100
AcDbEntity
  8
2
370
    50
100
AcDbCircle
 10
295.060704
 20
149.875799
 30
0.0
 40
1.0
100
AcDbArc
 50
180.0
 51
270.0
  0
ARC
  5
384
100
AcDbEntity
  8
2
370
    50
100
AcDbCircle
 10
298.060704
 20
149.875799
 30
0.0
 40
1.0
100
AcDbArc
 50
270.0
 51
360.0
  0
ARC
  5
385
100
AcDbEntity
  8
2
370
    50
100
AcDbCircle
 10
298.060704
 20
157.875799
 30
0.0
 40
1.0
100
AcDbArc
 50
360.0
 51
90.0
  0
ARC
  5
386
100
AcDbEntity
  8
2
370
    50
100
AcDbCircle
 10
295.060704
 20
157.875799
 30
0.0
 40
1.0
100
AcDbArc
 50
90.0
 51
180.0
  0
LINE
  5
387
100
AcDbEntity
  8
2
370
    50
100
AcDbLine
 10
283.710704
 20
136.775799
 30
0.0
 11
309.410704
 21
136.775799
 31
0.0
  0
ARC
  5
388
100
AcDbEntity
  8
2
370
    50
100
AcDbCircle
 10
309.410704
 20
137.775799
 30
0.0
 40
1.0
100
AcDbArc
 50
270.0
 51
360.0
  0
ARC
  5
389
100
AcDbEntity
  8
2
370
    50
100
AcDbCircle
 10
283.710704
 20
137.775799
 30
0.0
 40
1.0
100
AcDbArc
 50
180.0
 51
270.0
  0
ARC
  5
38A
100
AcDbEntity
  8
2
370
    50
100
AcDbCircle
 10
281.810704
 20
149.875799
 30
0.0
 40
1.0
100
AcDbArc
 50
180.0
 51
270.0
  0
LINE
  5
38B
100
AcDbEntity
  8
2
370
    50
100
AcDbLine
 10
281.810704
 20
148.875799
 30
0.0
 11
282.710704
 21
148.875799
 31
0.0
  0
POINT
  5
38C
100
AcDbEntity
  8
2
370
    50
100
AcDbPoint
 10
278.560406
 20
121.776629
 30
0.0
  0
LINE
  5
38D
100
AcDbEntity
  8
2
370
    50
100
AcDbLine
 10
225.914157
 20
147.372176
 30
0.0
 11
219.309279
 21
153.977054
 31
0.0
  0
LINE
  5
38E
100
AcDbEntity
  8
2
370
    50
100
AcDbLine
 10
220.964409
 20
142.422428
 30
0.0
 11
214.359531
 21
149.027306
 31
0.0
  0
ARC
  5
38F
100
AcDbEntity
  8
2
370
    50
100
AcDbCircle
 10
241.560403
 20
126.776182
 30
0.0
 40
37.0
100
AcDbArc
 50
132.543714
 51
137.456286
  0
ARC
  5
390
100
AcDbEntity
  8
2
370
    50
100
AcDbCircle
 10
217.895065
 20
152.56284
 30
0.0
 40
2.0
100
AcDbArc
 50
45.0
 51
132.543714
  0
ARC
  5
391
100
AcDbEntity
  8
2
370
    50
100
AcDbCircle
 10
215.773745
 20
150.44152
 30
0.0
 40
2.0
100
AcDbArc
 50
137.456286
 51
225.0
  0
ARC
  5
392
100
AcDbEntity
  8
2
370
    50
100
AcDbCircle
 10
229.449691
 20
150.90771
 30
0.0
 40
5.0
100
AcDbArc
 50
225.0
 51
296.650365
  0
ARC
  5
393
100
AcDbEntity
  8
2
370
    50
100
AcDbCircle
 10
217.428875
 20
138.886894
 30
0.0
 40
5.0
100
AcDbArc
 50
333.349635
 51
45.0
  0
ARC
  5
394
100
AcDbEntity
  8
2
370
    50
100
AcDbCircle
 10
241.560403
 20
126.776182
 30
0.0
 40
22.0
100
AcDbArc
 50
153.349635
 51
116.650365
  0
LINE
  5
395
100
AcDbEntity
  8
2
370
    50
100
AcDbLine
 10
247.71123
 20
119.211142
 30
0.0
 11
249.692131
 21
117.23024
 31
0.0
  0
LINE
  5
396
100
AcDbEntity
  8
2
370
    50
100
AcDbLine
 10
249.125443
 20
120.625355
 30
0.0
 11
251.106345
 21
118.644454
 31
0.0
  0
LINE
  5
397
100
AcDbEntity
  8
2
370
    50
100
AcDbLine
 10
251.106345
 20
118.644454
 30
0.0
 11
249.692131
 21
117.23024
 31
0.0
  0
ARC
  5
398
100
AcDbEntity
  8
2
370
    25
100
AcDbCircle
 10
241.560403
 20
126.776182
 30
0.0
 40
10.5
100
AcDbArc
 50
320.465024
 51
309.534976
  0
CIRCLE
  5
399
100
AcDbEntity
  8
2
370
    50
100
AcDbCircle
 10
241.560403
 20
126.776182
 30
0.0
 40
9.75
  0
CIRCLE
  5
39A
100
AcDbEntity
  8
2
370
    25
100
AcDbCircle
 10
241.560403
 20
126.776182
 30
0.0
 40
9.25
  0
ARC
  5
39B
100
AcDbEntity
  8
2
370
    50
100
AcDbCircle
 10
241.560403
 20
126.776182
 30
0.0
 40
10.0
100
AcDbArc
 50
320.73917
 51
309.26083
  0
POINT
  5
39C
100
AcDbEntity
  8
2
370
    50
100
AcDbPoint
 10
241.560403
 20
162.776498
 30
0.0
  0
LINE
  5
39D
100
AcDbEntity
  8
2
370
    25
  6
CENTER
100
AcDbLine
 10
268.560403
 20
126.776182
 30
0.0
 11
215.545853
 21
126.776182
 31
0.0
  0
LINE
  5
39E
100
AcDbEntity
  8
2
370
    50
100
AcDbLine
 10
217.560403
 20
126.776182
 30
0.0
 11
217.560149
 21
83.958219
 31
0.0
  0
LINE
  5
39F
100
AcDbEntity
  8
2
370
    50
100
AcDbLine
 10
265.560403
 20
126.776182
 30
0.0
 11
265.560403
 21
84.059039
 31
0.0
  0
LINE
  5
3A0
100
AcDbEntity
  8
2
370
    25
  6
CENTER
100
AcDbLine
 10
262.320511
 20
121.776629
 30
0.0
 11
281.331009
 21
121.776629
 31
0.0
  0
LINE
  5
3A1
100
AcDbEntity
  8
2
370
    50
100
AcDbLine
 10
267.146831
 20
135.426629
 30
0.0
 11
277.560406
 21
135.426629
 31
0.0
  0
LINE
  5
3A2
100
AcDbEntity
  8
2
370
    50
100
AcDbLine
 10
270.560403
 20
109.426629
 30
0.0
 11
277.560406
 21
109.426629
 31
0.0
  0
LINE
  5
3A3
100
AcDbEntity
  8
2
370
    50
100
AcDbLine
 10
278.560406
 20
134.426629
 30
0.0
 11
278.560406
 21
110.426629
 31
0.0
  0
LINE
  5
3A4
100
AcDbEntity
  8
2
370
    50
100
AcDbLine
 10
277.560406
 20
135.426629
 30
0.0
 11
278.560406
 21
134.426629
 31
0.0
  0
LINE
  5
3A5
100
AcDbEntity
  8
2
370
    50
100
AcDbLine
 10
278.560406
 20
110.426629
 30
0.0
 11
277.560406
 21
109.426629
 31
0.0
  0
LINE
  5
3A6
100
AcDbEntity
  8
2
370
    25
100
AcDbLine
 10
277.560406
 20
135.426629
 30
0.0
 11
277.560406
 21
109.426629
 31
0.0
  0
ARC
  5
3A7
100
AcDbEntity
  8
2
370
    50
100
AcDbCircle
 10
270.560403
 20
104.426629
 30
0.0
 40
5.0
100
AcDbArc
 50
90.0
 51
180.0
  0
ARC
  5
3A8
100
AcDbEntity
  8
2
370
    50
100
AcDbCircle
 10
267.146831
 20
140.426629
 30
0.0
 40
5.0
100
AcDbArc
 50
208.080074
 51
270.0
  0
LINE
  5
3A9
100
AcDbEntity
  8
2
370
    50
100
AcDbLine
 10
254.760301
 20
161.276182
 30
0.0
 11
257.560301
 21
161.276182
 31
0.0
  0
LINE
  5
3AA
100
AcDbEntity
  8
2
370
    50
100
AcDbLine
 10
228.360301
 20
161.276182
 30
0.0
 11
225.560301
 21
161.276182
 31
0.0
  0
LINE
  5
3AB
100
AcDbEntity
  8
2
370
    50
100
AcDbLine
 10
241.560403
 20
161.276182
 30
0.0
 11
257.560301
 21
161.276182
 31
0.0
  0
LINE
  5
3AC
100
AcDbEntity
  8
2
370
    50
100
AcDbLine
 10
241.560403
 20
161.276182
 30
0.0
 11
225.560301
 21
161.276182
 31
0.0
  0
POINT
  5
3AD
100
AcDbEntity
  8
2
370
    50
100
AcDbPoint
 10
257.560301
 20
161.276182
 30
0.0
  0
POINT
  5
3AE
100
AcDbEntity
  8
2
370
    50
100
AcDbPoint
 10
225.560301
 20
161.276182
 30
0.0
  0
ARC
  5
3AF
100
AcDbEntity
  8
2
370
    50
100
AcDbCircle
 10
317.546266
 20
162.583285
 30
0.0
 40
60.0
100
AcDbArc
 50
181.248291
 51
205.231396
  0
LINE
  5
3B0
100
AcDbEntity
  8
2
370
    25
  6
CENTER
100
AcDbLine
 10
241.560403
 20
30.5726
 30
0.0
 11
241.560403
 21
199.377182
 31
0.0
  0
CIRCLE
  5
3B1
100
AcDbEntity
  8
2
370
    50
100
AcDbCircle
 10
241.560403
 20
86.776182
 30
0.0
 40
11.25
  0
POINT
  5
3B2
100
AcDbEntity
  8
2
370
    50
100
AcDbPoint
 10
241.560403
 20
86.776182
 30
0.0
  0
CIRCLE
  5
3B3
100
AcDbEntity
  8
2
370
    25
100
AcDbCircle
 10
241.560403
 20
86.776182
 30
0.0
 40
11.75
  0
LINE
  5
3B4
100
AcDbEntity
  8
2
370
    25
  6
CENTER
100
AcDbLine
 10
214.560403
 20
86.776182
 30
0.0
 11
267.574954
 21
86.776182
 31
0.0
  0
ARC
  5
3B5
100
AcDbEntity
  8
2
370
    50
100
AcDbCircle
 10
285.560403
 20
84.059039
 30
0.0
 40
20.0
100
AcDbArc
 50
180.000093
 51
223.341758
  0
ARC
  5
3B6
100
AcDbEntity
  8
2
370
    50
100
AcDbCircle
 10
197.560403
 20
84.059039
 30
0.0
 40
20.0
100
AcDbArc
 50
316.658242
 51
359.999907
  0
LINE
  5
3B7
100
AcDbEntity
  8
2
370
    50
100
AcDbLine
 10
212.809858
 20
69.776182
 30
0.0
 11
269.896417
 21
69.776182
 31
0.0
  0
LINE
  5
3B8
100
AcDbEntity
  8
2
370
    50
100
AcDbLine
 10
211.560403
 20
36.776182
 30
0.0
 11
211.560403
 21
68.95937
 31
0.0
  0
ARC
  5
3B9
100
AcDbEntity
  8
2
370
    50
100
AcDbCircle
 10
213.560403
 20
68.95937
 30
0.0
 40
2.0
100
AcDbArc
 50
136.658242
 51
180.0
  0
LINE
  5
3BA
100
AcDbEntity
  8
2
370
    50
100
AcDbLine
 10
271.560403
 20
36.776182
 30
0.0
 11
271.560403
 21
68.95937
 31
0.0
  0
ARC
  5
3BB
100
AcDbEntity
  8
2
370
    50
100
AcDbCircle
 10
269.560403
 20
68.95937
 30
0.0
 40
2.0
100
AcDbArc
 50
0.0
 51
43.341758
  0
LINE
  5
3BC
100
AcDbEntity
  8
2
370
    50
100
AcDbLine
 10
211.560403
 20
36.776182
 30
0.0
 11
271.560403
 21
36.776182
 31
0.0
  0
ARC
  5
3BD
100
AcDbEntity
  8
2
370
    25
100
AcDbCircle
 10
241.560403
 20
94.919039
 30
0.0
 40
39.142857
100
AcDbArc
 50
224.77053
 51
315.349748
  0
ARC
  5
3BE
100
AcDbEntity
  8
2
370
    50
100
AcDbCircle
 10
165.574541
 20
162.583285
 30
0.0
 40
60.0
100
AcDbArc
 50
334.768604
 51
339.368784
  0
ARC
  5
3BF
100
AcDbEntity
  8
2
370
    50
100
AcDbCircle
 10
165.574541
 20
162.583285
 30
0.0
 40
60.0
100
AcDbArc
 50
347.130169
 51
358.751709
  0
ARC
  5
3C0
100
AcDbEntity
  8
2
370
    50
100
AcDbCircle
 10
241.560403
 20
126.776182
 30
0.0
 40
24.0
100
AcDbArc
 50
144.337183
 51
125.662817
  0
LINE
  5
3C1
100
AcDbEntity
  8
2
370
    25
  6
CENTER
100
AcDbLine
 10
-198.040462
 20
126.776498
 30
0.0
 11
-198.040462
 21
26.651095
 31
0.0
  0
LINE
  5
3C2
100
AcDbEntity
  8
2
370
    25
  6
CENTER
100
AcDbLine
 10
-191.04036
 20
215.446503
 30
0.0
 11
-191.04036
 21
126.776498
 31
0.0
  0
ARC
  5
3C3
100
AcDbEntity
  8
2
370
    25
  6
DASHED
100
AcDbCircle
 10
218.576221
 20
112.608353
 30
0.0
 40
5.0
100
AcDbArc
 50
320.0
 51
31.650365
  0
LINE
  5
3C4
100
AcDbEntity
  8
2
370
    25
  6
DASHED
100
AcDbLine
 10
222.406444
 20
109.394415
 30
0.0
 11
216.402352
 21
102.239017
 31
0.0
  0
ARC
  5
3C5
100
AcDbEntity
  8
2
370
    25
  6
DASHED
100
AcDbCircle
 10
217.934441
 20
100.953442
 30
0.0
 40
2.0
100
AcDbArc
 50
140.0
 51
227.543714
  0
ARC
  5
3C6
100
AcDbEntity
  8
2
370
    25
  6
DASHED
100
AcDbCircle
 10
241.560403
 20
126.776182
 30
0.0
 40
37.0
100
AcDbArc
 50
227.543714
 51
232.456286
  0
ARC
  5
3C7
100
AcDbEntity
  8
2
370
    25
  6
DASHED
100
AcDbCircle
 10
220.232574
 20
99.025079
 30
0.0
 40
2.0
100
AcDbArc
 50
232.456286
 51
320.0
  0
LINE
  5
3C8
100
AcDbEntity
  8
2
370
    25
  6
DASHED
100
AcDbLine
 10
227.768755
 20
104.894901
 30
0.0
 11
221.764663
 21
97.739504
 31
0.0
  0
ARC
  5
3C9
100
AcDbEntity
  8
2
370
    25
  6
DASHED
100
AcDbCircle
 10
231.598977
 20
101.680963
 30
0.0
 40
5.0
100
AcDbArc
 50
68.349635
 51
140.0
  0
ARC
  5
3CA
100
AcDbEntity
  8
2
370
    25
  6
DASHED
100
AcDbCircle
 10
266.655622
 20
136.737608
 30
0.0
 40
5.0
100
AcDbArc
 50
130.0
 51
201.650365
  0
LINE
  5
3CB
100
AcDbEntity
  8
2
370
    25
  6
DASHED
100
AcDbLine
 10
263.441684
 20
140.56783
 30
0.0
 11
270.597081
 21
146.571922
 31
0.0
  0
ARC
  5
3CC
100
AcDbEntity
  8
2
370
    25
  6
DASHED
100
AcDbCircle
 10
269.311506
 20
148.104011
 30
0.0
 40
2.0
100
AcDbArc
 50
310.0
 51
37.543714
  0
ARC
  5
3CD
100
AcDbEntity
  8
2
370
    25
  6
DASHED
100
AcDbCircle
 10
241.560403
 20
126.776182
 30
0.0
 40
37.0
100
AcDbArc
 50
37.543714
 51
42.456286
  0
ARC
  5
3CE
100
AcDbEntity
  8
2
370
    25
  6
DASHED
100
AcDbCircle
 10
267.383143
 20
150.402144
 30
0.0
 40
2.0
100
AcDbArc
 50
42.456286
 51
130.0
  0
LINE
  5
3CF
100
AcDbEntity
  8
2
370
    25
  6
DASHED
100
AcDbLine
 10
258.94217
 20
145.930142
 30
0.0
 11
266.097568
 21
151.934233
 31
0.0
  0
ARC
  5
3D0
100
AcDbEntity
  8
2
370
    25
  6
DASHED
100
AcDbCircle
 10
255.728232
 20
149.760364
 30
0.0
 40
5.0
100
AcDbArc
 50
238.349635
 51
310.0
  0
LINE
  5
3D1
100
AcDbEntity
  8
2
370
    50
100
AcDbLine
 10
252.037866
 20
-19.045867
 30
0.0
 11
252.037866
 21
5.076227
 31
0.0
  0
LINE
  5
3D2
100
AcDbEntity
  8
2
370
    25
100
AcDbLine
 10
250.860366
 20
-20.223367
 30
0.0
 11
250.860366
 21
5.076227
 31
0.0
  0
LINE
  5
3D3
100
AcDbEntity
  8
2
370
    25
100
AcDbLine
 10
232.260366
 20
-20.223367
 30
0.0
 11
232.260366
 21
5.076227
 31
0.0
  0
LINE
  5
3D4
100
AcDbEntity
  8
2
370
    50
100
AcDbLine
 10
231.082866
 20
-19.045792
 30
0.0
 11
231.082866
 21
5.076227
 31
0.0
  0
LINE
  5
3D5
100
AcDbEntity
  8
2
370
    50
100
AcDbLine
 10
232.260366
 20
-20.223367
 30
0.0
 11
250.860366
 21
-20.223367
 31
0.0
  0
LINE
  5
3D6
100
AcDbEntity
  8
2
370
    50
100
AcDbLine
 10
250.860366
 20
-20.223367
 30
0.0
 11
252.037866
 21
-19.045867
 31
0.0
  0
LINE
  5
3D7
100
AcDbEntity
  8
2
370
    50
100
AcDbLine
 10
232.260441
 20
-20.223367
 30
0.0
 11
231.082941
 21
-19.045867
 31
0.0
  0
LINE
  5
3D8
100
AcDbEntity
  8
2
370
    50
100
AcDbLine
 10
-128.063
 20
-19.04555
 30
0.0
 11
-128.063
 21
5.076543
 31
0.0
  0
LINE
  5
3D9
100
AcDbEntity
  8
2
370
    25
100
AcDbLine
 10
-129.2405
 20
-20.22305
 30
0.0
 11
-129.2405
 21
5.076543
 31
0.0
  0
LINE
  5
3DA
100
AcDbEntity
  8
2
370
    25
100
AcDbLine
 10
-147.8405
 20
-20.22305
 30
0.0
 11
-147.8405
 21
5.076543
 31
0.0
  0
LINE
  5
3DB
100
AcDbEntity
  8
2
370
    50
100
AcDbLine
 10
-149.018
 20
-19.045476
 30
0.0
 11
-149.018
 21
5.076543
 31
0.0
  0
LINE
  5
3DC
100
AcDbEntity
  8
2
370
    50
100
AcDbLine
 10
-147.8405
 20
-20.22305
 30
0.0
 11
-129.2405
 21
-20.22305
 31
0.0
  0
LINE
  5
3DD
100
AcDbEntity
  8
2
370
    50
100
AcDbLine
 10
-129.2405
 20
-20.22305
 30
0.0
 11
-128.063
 21
-19.04555
 31
0.0
  0
LINE
  5
3DE
100
AcDbEntity
  8
2
370
    50
100
AcDbLine
 10
-147.840425
 20
-20.22305
 30
0.0
 11
-149.017925
 21
-19.04555
 31
0.0
  0
LINE
  5
3DF
100
AcDbEntity
  8
2
370
    50
100
AcDbLine
 10
-247.063
 20
-19.04555
 30
0.0
 11
-247.063
 21
5.076543
 31
0.0
  0
LINE
  5
3E0
100
AcDbEntity
  8
2
370
    25
100
AcDbLine
 10
-248.2405
 20
-20.22305
 30
0.0
 11
-248.2405
 21
5.076543
 31
0.0
  0
LINE
  5
3E1
100
AcDbEntity
  8
2
370
    25
100
AcDbLine
 10
-266.8405
 20
-20.22305
 30
0.0
 11
-266.8405
 21
5.076543
 31
0.0
  0
LINE
  5
3E2
100
AcDbEntity
  8
2
370
    50
100
AcDbLine
 10
-268.018
 20
-19.045476
 30
0.0
 11
-268.018
 21
5.076543
 31
0.0
  0
LINE
  5
3E3
100
AcDbEntity
  8
2
370
    50
100
AcDbLine
 10
-266.8405
 20
-20.22305
 30
0.0
 11
-248.2405
 21
-20.22305
 31
0.0
  0
LINE
  5
3E4
100
AcDbEntity
  8
2
370
    50
100
AcDbLine
 10
-248.2405
 20
-20.22305
 30
0.0
 11
-247.063
 21
-19.04555
 31
0.0
  0
LINE
  5
3E5
100
AcDbEntity
  8
2
370
    50
100
AcDbLine
 10
-266.840425
 20
-20.22305
 30
0.0
 11
-268.017925
 21
-19.04555
 31
0.0
  0
LINE
  5
3E6
100
AcDbEntity
  8
2
370
    50
100
AcDbLine
 10
254.760301
 20
161.276182
 30
0.0
 11
254.760301
 21
162.776182
 31
0.0
  0
LINE
  5
3E7
100
AcDbEntity
  8
2
370
    50
100
AcDbLine
 10
228.360301
 20
161.276182
 30
0.0
 11
228.360301
 21
162.776182
 31
0.0
  0
LINE
  5
3E8
100
AcDbEntity
  8
2
370
    50
100
AcDbLine
 10
254.160301
 20
162.776182
 30
0.0
 11
254.760301
 21
161.736951
 31
0.0
  0
LINE
  5
3E9
100
AcDbEntity
  8
2
370
    50
100
AcDbLine
 10
254.160301
 20
162.776182
 30
0.0
 11
254.760301
 21
161.736951
 31
0.0
  0
LINE
  5
3EA
100
AcDbEntity
  8
2
370
    50
100
AcDbLine
 10
228.960505
 20
162.776182
 30
0.0
 11
228.360505
 21
161.736951
 31
0.0
  0
LINE
  5
3EB
100
AcDbEntity
  8
2
370
    50
100
AcDbLine
 10
241.560403
 20
162.775462
 30
0.0
 11
228.060403
 21
162.775462
 31
0.0
  0
LINE
  5
3EC
100
AcDbEntity
  8
2
370
    50
100
AcDbLine
 10
241.560403
 20
162.775462
 30
0.0
 11
255.060403
 21
162.775462
 31
0.0
  0
POINT
  5
3ED
100
AcDbEntity
  8
2
370
    50
100
AcDbPoint
 10
241.560403
 20
161.276182
 30
0.0
  0
POINT
  5
3EE
100
AcDbEntity
  8
2
370
    50
100
AcDbPoint
 10
241.560391
 20
168.776182
 30
0.0
  0
POINT
  5
3EF
100
AcDbEntity
  8
2
370
    50
100
AcDbPoint
 10
241.560391
 20
168.776182
 30
0.0
  0
LINE
  5
3F0
100
AcDbEntity
  8
2
370
    25
  6
CENTER
100
AcDbLine
 10
-16.073566
 20
186.276542
 30
0.0
 11
257.546082
 21
186.276542
 31
0.0
  0
LINE
  5
3F1
100
AcDbEntity
  8
2
370
    25
  6
CENTER
100
AcDbLine
 10
1.560391
 20
197.754319
 30
0.0
 11
1.560391
 21
159.82682
 31
0.0
  0
LINE
  5
3F2
100
AcDbEntity
  8
2
370
    50
100
AcDbLine
 10
-8.389609
 20
176.876542
 30
0.0
 11
-8.389609
 21
178.276542
 31
0.0
  0
LINE
  5
3F3
100
AcDbEntity
  8
2
370
    50
100
AcDbLine
 10
11.510391
 20
176.876542
 30
0.0
 11
11.510391
 21
178.276542
 31
0.0
  0
LINE
  5
3F4
100
AcDbEntity
  8
2
370
    50
100
AcDbLine
 10
-12.439609
 20
178.276542
 30
0.0
 11
-11.789609
 21
178.276542
 31
0.0
  0
LINE
  5
3F5
100
AcDbEntity
  8
2
370
    50
100
AcDbLine
 10
255.560391
 20
174.776542
 30
0.0
 11
255.560391
 21
178.276542
 31
0.0
  0
LINE
  5
3F6
100
AcDbEntity
  8
2
370
    50
100
AcDbLine
 10
227.560391
 20
174.776542
 30
0.0
 11
227.560391
 21
178.276542
 31
0.0
  0
LINE
  5
3F7
100
AcDbEntity
  8
2
370
    50
100
AcDbLine
 10
255.560391
 20
174.776542
 30
0.0
 11
255.060391
 21
174.276542
 31
0.0
  0
LINE
  5
3F8
100
AcDbEntity
  8
2
370
    50
100
AcDbLine
 10
227.560391
 20
174.776542
 30
0.0
 11
228.060391
 21
174.276542
 31
0.0
  0
LINE
  5
3F9
100
AcDbEntity
  8
2
370
    50
100
AcDbLine
 10
249.485391
 20
174.276542
 30
0.0
 11
249.485391
 21
172.776542
 31
0.0
  0
LINE
  5
3FA
100
AcDbEntity
  8
2
370
    50
100
AcDbLine
 10
233.635391
 20
174.276542
 30
0.0
 11
233.635391
 21
172.776542
 31
0.0
  0
LINE
  5
3FB
100
AcDbEntity
  8
2
370
    50
100
AcDbLine
 10
228.060391
 20
174.276542
 30
0.0
 11
241.560403
 21
174.276542
 31
0.0
  0
LINE
  5
3FC
100
AcDbEntity
  8
2
370
    50
100
AcDbLine
 10
241.560403
 20
174.276542
 30
0.0
 11
255.060391
 21
174.276542
 31
0.0
  0
LINE
  5
3FD
100
AcDbEntity
  8
2
370
    50
100
AcDbLine
 10
255.560391
 20
178.276542
 30
0.0
 11
255.560391
 21
189.776542
 31
0.0
  0
ARC
  5
3FE
100
AcDbEntity
  8
2
370
    50
100
AcDbCircle
 10
251.060391
 20
189.776542
 30
0.0
 40
4.5
100
AcDbArc
 50
0.0
 51
90.0
  0
POINT
  5
3FF
100
AcDbEntity
  8
2
370
    50
100
AcDbPoint
 10
241.560391
 20
172.776542
 30
0.0
  0
ARC
  5
400
100
AcDbEntity
  8
2
370
    50
100
AcDbCircle
 10
231.285391
 20
167.776542
 30
0.0
 40
5.0
100
AcDbArc
 50
90.0
 51
180.0
  0
ARC
  5
401
100
AcDbEntity
  8
2
370
    50
100
AcDbCircle
 10
248.630105
 20
167.776542
 30
0.0
 40
8.205286
100
AcDbArc
 50
322.456522
 51
360.0
  0
ARC
  5
402
100
AcDbEntity
  8
2
370
    50
100
AcDbCircle
 10
251.835391
 20
167.776542
 30
0.0
 40
5.0
100
AcDbArc
 50
0.0
 51
90.0
  0
ARC
  5
403
100
AcDbEntity
  8
2
370
    50
100
AcDbCircle
 10
234.490677
 20
167.776542
 30
0.0
 40
8.205286
100
AcDbArc
 50
180.0
 51
217.543478
  0
LINE
  5
404
100
AcDbEntity
  8
2
370
    50
100
AcDbLine
 10
231.285391
 20
172.776542
 30
0.0
 11
251.835308
 21
172.776542
 31
0.0
  0
LINE
  5
405
100
AcDbEntity
  8
2
370
    50
100
AcDbLine
 10
-12.439609
 20
178.276542
 30
0.0
 11
-12.439609
 21
189.776542
 31
0.0
  0
POINT
  5
406
100
AcDbEntity
  8
2
370
    50
100
AcDbPoint
 10
1.560391
 20
173.826542
 30
0.0
  0
LINE
  5
407
100
AcDbEntity
  8
2
370
    50
100
AcDbLine
 10
-9.072314
 20
164.076542
 30
0.0
 11
12.193095
 21
164.076542
 31
0.0
  0
LINE
  5
408
100
AcDbEntity
  8
2
370
    50
100
AcDbLine
 10
-10.439609
 20
176.676542
 30
0.0
 11
-10.439609
 21
167.576542
 31
0.0
  0
LINE
  5
409
100
AcDbEntity
  8
2
370
    50
100
AcDbLine
 10
13.560391
 20
176.676542
 30
0.0
 11
13.560391
 21
167.576542
 31
0.0
  0
LINE
  5
40A
100
AcDbEntity
  8
2
370
    50
100
AcDbLine
 10
13.560391
 20
176.676542
 30
0.0
 11
13.360391
 21
176.876542
 31
0.0
  0
LINE
  5
40B
100
AcDbEntity
  8
2
370
    50
100
AcDbLine
 10
-10.439609
 20
176.676542
 30
0.0
 11
-10.239609
 21
176.876542
 31
0.0
  0
LINE
  5
40C
100
AcDbEntity
  8
2
370
    50
100
AcDbLine
 10
-10.239609
 20
176.876542
 30
0.0
 11
1.560391
 21
176.876542
 31
0.0
  0
LINE
  5
40D
100
AcDbEntity
  8
2
370
    50
100
AcDbLine
 10
13.560391
 20
167.576542
 30
0.0
 11
13.183045
 21
164.935121
 31
0.0
  0
LINE
  5
40E
100
AcDbEntity
  8
2
370
    50
100
AcDbLine
 10
-10.439609
 20
167.576542
 30
0.0
 11
-10.062263
 21
164.935121
 31
0.0
  0
ARC
  5
40F
100
AcDbEntity
  8
2
370
    50
100
AcDbCircle
 10
12.193095
 20
165.076542
 30
0.0
 40
1.0
100
AcDbArc
 50
270.0
 51
351.869898
  0
ARC
  5
410
100
AcDbEntity
  8
2
370
    50
100
AcDbCircle
 10
-9.072314
 20
165.076542
 30
0.0
 40
1.0
100
AcDbArc
 50
188.130102
 51
270.0
  0
LINE
  5
411
100
AcDbEntity
  8
2
370
    50
100
AcDbLine
 10
1.560391
 20
176.876542
 30
0.0
 11
13.360391
 21
176.876542
 31
0.0
  0
POINT
  5
412
100
AcDbEntity
  8
2
370
    50
100
AcDbPoint
 10
1.560391
 20
178.876542
 30
0.0
  0
ARC
  5
413
100
AcDbEntity
  8
2
370
    50
100
AcDbCircle
 10
-7.939609
 20
189.776542
 30
0.0
 40
4.5
100
AcDbArc
 50
90.0
 51
180.0
  0
LINE
  5
414
100
AcDbEntity
  8
2
370
    50
100
AcDbLine
 10
-11.789609
 20
178.276542
 30
0.0
 11
-8.389609
 21
178.276542
 31
0.0
  0
LINE
  5
415
100
AcDbEntity
  8
2
370
    50
100
AcDbLine
 10
-8.389609
 20
178.276542
 30
0.0
 11
14.910391
 21
178.276542
 31
0.0
  0
ELLIPSE
  5
416
100
AcDbEntity
  8
2
370
    50
100
AcDbEllipse
 10
241.560403
 20
167.246657
 30
0.0
 11
-6.10947
 21
0.0
 31
0.0
210
0.0
220
0.0
230
1.0
 40
0.632482
 41
4.7123889999999999
 42
1.5707960000000001
  0
ELLIPSE
  5
417
100
AcDbEntity
  8
2
370
    50
100
AcDbEllipse
 10
229.436048
 20
167.246657
 30
0.0
 11
0.0
 21
-3.8641269999999999
 31
0.0
210
0.0
220
0.0
230
1.0
 40
0.790537
 41
0.0
 42
6.2831849999999996
  0
ELLIPSE
  5
418
100
AcDbEntity
  8
2
370
    50
100
AcDbEllipse
 10
241.560403
 20
167.246657
 30
0.0
 11
6.10947
 21
0.0
 31
0.0
210
0.0
220
0.0
230
1.0
 40
0.632482
 41
4.7123889999999999
 42
1.5707960000000001
  0
ELLIPSE
  5
419
100
AcDbEntity
  8
2
370
    50
100
AcDbEllipse
 10
253.684759
 20
167.246657
 30
0.0
 11
0.0
 21
3.8641269999999999
 31
0.0
210
0.0
220
0.0
230
1.0
 40
0.790537
 41
0.0
 42
6.2831849999999996
  0
LINE
  5
41A
100
AcDbEntity
  8
2
370
    25
100
AcDbLine
 10
-10.439609
 20
167.576542
 30
0.0
 11
13.560391
 21
167.576542
 31
0.0
  0
ARC
  5
41B
100
AcDbEntity
  8
2
370
    50
100
AcDbCircle
 10
141.930089
 20
190.276542
 30
0.0
 40
6.666667
100
AcDbArc
 50
143.130102
 51
216.869898
  0
ARC
  5
41C
100
AcDbEntity
  8
2
370
    50
100
AcDbCircle
 10
131.263423
 20
182.276542
 30
0.0
 40
6.666667
100
AcDbArc
 50
323.130102
 51
36.869898
  0
ARC
  5
41D
100
AcDbEntity
  8
2
370
    50
100
AcDbCircle
 10
141.930089
 20
182.276542
 30
0.0
 40
6.666667
100
AcDbArc
 50
143.130102
 51
216.869898
  0
ARC
  5
41E
100
AcDbEntity
  8
2
370
    50
100
AcDbCircle
 10
135.125326
 20
190.276542
 30
0.0
 40
6.666667
100
AcDbArc
 50
143.130102
 51
216.869898
  0
ARC
  5
41F
100
AcDbEntity
  8
2
370
    50
100
AcDbCircle
 10
124.458659
 20
182.276542
 30
0.0
 40
6.666667
100
AcDbArc
 50
323.130102
 51
36.869898
  0
ARC
  5
420
100
AcDbEntity
  8
2
370
    50
100
AcDbCircle
 10
124.458659
 20
190.276542
 30
0.0
 40
6.666667
100
AcDbArc
 50
323.130102
 51
36.869898
  0
LINE
  5
421
100
AcDbEntity
  8
2
370
    50
100
AcDbLine
 10
-7.939609
 20
194.276542
 30
0.0
 11
129.814728
 21
194.276542
 31
0.0
  0
LINE
  5
422
100
AcDbEntity
  8
2
370
    50
100
AcDbLine
 10
136.570847
 20
194.276542
 30
0.0
 11
251.060391
 21
194.276542
 31
0.0
  0
LINE
  5
423
100
AcDbEntity
  8
2
370
    50
100
AcDbLine
 10
14.910391
 20
178.276542
 30
0.0
 11
129.743927
 21
178.276542
 31
0.0
  0
LINE
  5
424
100
AcDbEntity
  8
2
370
    50
100
AcDbLine
 10
136.632965
 20
178.276542
 30
0.0
 11
227.560391
 21
178.276542
 31
0.0
  0
LINE
  5
425
100
AcDbEntity
  8
2
370
    50
100
AcDbLine
 10
-177.840462
 20
161.276498
 30
0.0
 11
-177.840462
 21
162.776498
 31
0.0
  0
LINE
  5
426
100
AcDbEntity
  8
2
370
    50
100
AcDbLine
 10
-204.240462
 20
161.276498
 30
0.0
 11
-204.240462
 21
162.776498
 31
0.0
  0
LINE
  5
427
100
AcDbEntity
  8
2
370
    50
100
AcDbLine
 10
-178.440462
 20
162.776498
 30
0.0
 11
-177.840462
 21
161.737268
 31
0.0
  0
LINE
  5
428
100
AcDbEntity
  8
2
370
    50
100
AcDbLine
 10
-178.440462
 20
162.776498
 30
0.0
 11
-177.840462
 21
161.737268
 31
0.0
  0
LINE
  5
429
100
AcDbEntity
  8
2
370
    50
100
AcDbLine
 10
-203.640258
 20
162.776498
 30
0.0
 11
-204.240258
 21
161.737268
 31
0.0
  0
POINT
  5
42A
100
AcDbEntity
  8
2
370
    50
100
AcDbPoint
 10
-191.04036
 20
174.775778
 30
0.0
  0
LINE
  5
42B
100
AcDbEntity
  8
2
370
    50
100
AcDbLine
 10
-191.04036
 20
162.775778
 30
0.0
 11
-204.54036
 21
162.775778
 31
0.0
  0
LINE
  5
42C
100
AcDbEntity
  8
2
370
    50
100
AcDbLine
 10
-191.04036
 20
162.775778
 30
0.0
 11
-177.54036
 21
162.775778
 31
0.0
  0
POINT
  5
42D
100
AcDbEntity
  8
2
370
    50
100
AcDbPoint
 10
-191.04036
 20
174.775778
 30
0.0
  0
POINT
  5
42E
100
AcDbEntity
  8
2
370
    50
100
AcDbPoint
 10
-191.14036
 20
162.776498
 30
0.0
  0
LINE
  5
42F
100
AcDbEntity
  8
2
370
    50
100
AcDbLine
 10
-177.840462
 20
161.276498
 30
0.0
 11
-177.840462
 21
162.776498
 31
0.0
  0
LINE
  5
430
100
AcDbEntity
  8
2
370
    50
100
AcDbLine
 10
-204.240462
 20
161.276498
 30
0.0
 11
-204.240462
 21
162.776498
 31
0.0
  0
LINE
  5
431
100
AcDbEntity
  8
2
370
    50
100
AcDbLine
 10
-178.440462
 20
162.776498
 30
0.0
 11
-177.840462
 21
161.737268
 31
0.0
  0
LINE
  5
432
100
AcDbEntity
  8
2
370
    50
100
AcDbLine
 10
-178.440462
 20
162.776498
 30
0.0
 11
-177.840462
 21
161.737268
 31
0.0
  0
LINE
  5
433
100
AcDbEntity
  8
2
370
    50
100
AcDbLine
 10
-203.640258
 20
162.776498
 30
0.0
 11
-204.240258
 21
161.737268
 31
0.0
  0
LINE
  5
434
100
AcDbEntity
  8
2
370
    50
100
AcDbLine
 10
-191.04036
 20
162.775778
 30
0.0
 11
-204.54036
 21
162.775778
 31
0.0
  0
LINE
  5
435
100
AcDbEntity
  8
2
370
    50
100
AcDbLine
 10
-191.04036
 20
162.775778
 30
0.0
 11
-177.54036
 21
162.775778
 31
0.0
  0
LINE
  5
436
100
AcDbEntity
  8
2
370
    50
100
AcDbLine
 10
-177.14036
 20
174.776498
 30
0.0
 11
-177.14036
 21
178.276498
 31
0.0
  0
LINE
  5
437
100
AcDbEntity
  8
2
370
    50
100
AcDbLine
 10
-205.14036
 20
174.776498
 30
0.0
 11
-205.14036
 21
178.276498
 31
0.0
  0
LINE
  5
438
100
AcDbEntity
  8
2
370
    50
100
AcDbLine
 10
-177.14036
 20
174.776498
 30
0.0
 11
-177.64036
 21
174.276498
 31
0.0
  0
LINE
  5
439
100
AcDbEntity
  8
2
370
    50
100
AcDbLine
 10
-205.14036
 20
174.776498
 30
0.0
 11
-204.64036
 21
174.276498
 31
0.0
  0
LINE
  5
43A
100
AcDbEntity
  8
2
370
    50
100
AcDbLine
 10
-177.14036
 20
178.276498
 30
0.0
 11
-177.14036
 21
186.279425
 31
0.0
  0
LINE
  5
43B
100
AcDbEntity
  8
2
370
    50
100
AcDbLine
 10
-205.14036
 20
178.276498
 30
0.0
 11
-205.14036
 21
186.279425
 31
0.0
  0
LINE
  5
43C
100
AcDbEntity
  8
2
370
    50
100
AcDbLine
 10
-177.564747
 20
162.776498
 30
0.0
 11
-204.715973
 21
162.776498
 31
0.0
  0
ARC
  5
43D
100
AcDbEntity
  8
2
370
    50
100
AcDbCircle
 10
-201.41536
 20
167.776498
 30
0.0
 40
5.0
100
AcDbArc
 50
110.187135
 51
180.0
  0
ARC
  5
43E
100
AcDbEntity
  8
2
370
    50
100
AcDbCircle
 10
-184.070646
 20
167.776498
 30
0.0
 40
8.205286
100
AcDbArc
 50
322.456522
 51
360.0
  0
ARC
  5
43F
100
AcDbEntity
  8
2
370
    50
100
AcDbCircle
 10
-180.86536
 20
167.776498
 30
0.0
 40
5.0
100
AcDbArc
 50
0.0
 51
69.823543
  0
ARC
  5
440
100
AcDbEntity
  8
2
370
    50
100
AcDbCircle
 10
-198.210074
 20
167.776498
 30
0.0
 40
8.205286
100
AcDbArc
 50
180.0
 51
217.543478
  0
ELLIPSE
  5
441
100
AcDbEntity
  8
2
370
    50
100
AcDbEllipse
 10
-191.14036
 20
167.247693
 30
0.0
 11
-6.10947
 21
0.0
 31
0.0
210
0.0
220
0.0
230
1.0
 40
0.632482
 41
0.918672
 42
1.5707960000000001
  0
LINE
  5
442
100
AcDbEntity
  8
2
370
    50
100
AcDbLine
 10
-201.773502
 20
164.176498
 30
0.0
 11
-180.508093
 21
164.176498
 31
0.0
  0
LINE
  5
443
100
AcDbEntity
  8
2
370
    50
100
AcDbLine
 10
-203.140798
 20
176.776498
 30
0.0
 11
-203.140798
 21
167.676498
 31
0.0
  0
LINE
  5
444
100
AcDbEntity
  8
2
370
    50
100
AcDbLine
 10
-179.140798
 20
176.776498
 30
0.0
 11
-179.140798
 21
167.676498
 31
0.0
  0
LINE
  5
445
100
AcDbEntity
  8
2
370
    50
100
AcDbLine
 10
-179.140798
 20
167.676498
 30
0.0
 11
-179.518143
 21
165.035077
 31
0.0
  0
LINE
  5
446
100
AcDbEntity
  8
2
370
    50
100
AcDbLine
 10
-203.140798
 20
167.676498
 30
0.0
 11
-202.763452
 21
165.035077
 31
0.0
  0
ARC
  5
447
100
AcDbEntity
  8
2
370
    50
100
AcDbCircle
 10
-180.508093
 20
165.176498
 30
0.0
 40
1.0
100
AcDbArc
 50
270.0
 51
351.869898
  0
ARC
  5
448
100
AcDbEntity
  8
2
370
    50
100
AcDbCircle
 10
-201.773502
 20
165.176498
 30
0.0
 40
1.0
100
AcDbArc
 50
188.130102
 51
270.0
  0
LINE
  5
449
100
AcDbEntity
  8
2
370
    25
100
AcDbLine
 10
-179.495473
 20
167.676498
 30
0.0
 11
-202.847539
 21
167.676498
 31
0.0
  0
LINE
  5
44A
100
AcDbEntity
  8
2
370
    50
100
AcDbLine
 10
-177.140798
 20
178.276498
 30
0.0
 11
-205.140798
 21
178.276498
 31
0.0
  0
LINE
  5
44B
100
AcDbEntity
  8
2
370
    50
100
AcDbLine
 10
-181.190798
 20
178.276498
 30
0.0
 11
-181.190798
 21
176.976498
 31
0.0
  0
LINE
  5
44C
100
AcDbEntity
  8
2
370
    50
100
AcDbLine
 10
-201.090798
 20
178.276498
 30
0.0
 11
-201.090798
 21
176.976498
 31
0.0
  0
LINE
  5
44D
100
AcDbEntity
  8
2
370
    50
100
AcDbLine
 10
-177.140798
 20
186.279425
 30
0.0
 11
-177.140798
 21
178.276498
 31
0.0
  0
LINE
  5
44E
100
AcDbEntity
  8
2
370
    50
100
AcDbLine
 10
-205.140798
 20
186.279425
 30
0.0
 11
-205.140798
 21
178.276498
 31
0.0
  0
ARC
  5
44F
100
AcDbEntity
  8
2
370
    50
100
AcDbCircle
 10
-191.140798
 20
104.276498
 30
0.0
 40
90.0
100
AcDbArc
 50
85.648473
 51
94.351527
  0
ARC
  5
450
100
AcDbEntity
  8
2
370
    50
100
AcDbCircle
 10
-197.380798
 20
186.279425
 30
0.0
 40
7.76
100
AcDbArc
 50
94.351527
 51
180.0
  0
ARC
  5
451
100
AcDbEntity
  8
2
370
    50
100
AcDbCircle
 10
-184.900798
 20
186.279425
 30
0.0
 40
7.76
100
AcDbArc
 50
0.0
 51
85.648473
  0
LINE
  5
452
100
AcDbEntity
  8
2
370
    50
100
AcDbLine
 10
-202.940798
 20
176.976498
 30
0.0
 11
-179.340798
 21
176.976498
 31
0.0
  0
ELLIPSE
  5
453
100
AcDbEntity
  8
2
370
    50
100
AcDbEllipse
 10
-191.14036
 20
167.247693
 30
0.0
 11
6.10947
 21
0.0
 31
0.0
210
0.0
220
0.0
230
1.0
 40
0.632482
 41
4.7123169999999996
 42
5.3645129999999996
  0
ELLIPSE
  5
454
100
AcDbEntity
  8
2
370
    50
100
AcDbEllipse
 10
-203.264716
 20
167.247693
 30
0.0
 11
0.0
 21
-3.8641269999999999
 31
0.0
210
0.0
220
0.0
230
1.0
 40
0.790537
 41
3.101016
 42
0.652124
  0
ELLIPSE
  5
455
100
AcDbEntity
  8
2
370
    50
100
AcDbEllipse
 10
-179.016005
 20
167.247693
 30
0.0
 11
0.0
 21
3.8641269999999999
 31
0.0
210
0.0
220
0.0
230
1.0
 40
0.790537
 41
2.4894690000000002
 42
0.040864
  0
LINE
  5
456
100
AcDbEntity
  8
2
370
    50
100
AcDbLine
 10
-205.14036
 20
174.776498
 30
0.0
 11
-203.140798
 21
174.776498
 31
0.0
  0
LINE
  5
457
100
AcDbEntity
  8
2
370
    50
100
AcDbLine
 10
-179.140798
 20
174.776498
 30
0.0
 11
-177.14036
 21
174.776498
 31
0.0
  0
LINE
  5
458
100
AcDbEntity
  8
2
370
    50
100
AcDbLine
 10
-204.64036
 20
174.276498
 30
0.0
 11
-203.140798
 21
174.276498
 31
0.0
  0
LINE
  5
459
100
AcDbEntity
  8
2
370
    50
100
AcDbLine
 10
-179.140798
 20
174.276498
 30
0.0
 11
-177.64036
 21
174.276498
 31
0.0
  0
LINE
  5
45A
100
AcDbEntity
  8
2
370
    50
100
AcDbLine
 10
-202.940798
 20
176.976498
 30
0.0
 11
-203.140798
 21
176.776498
 31
0.0
  0
LINE
  5
45B
100
AcDbEntity
  8
2
370
    50
100
AcDbLine
 10
-179.340798
 20
176.976498
 30
0.0
 11
-179.140798
 21
176.776498
 31
0.0
  0
LINE
  5
45C
100
AcDbEntity
  8
2
370
    50
100
AcDbLine
 10
-203.140798
 20
176.776498
 30
0.0
 11
-179.140798
 21
176.776498
 31
0.0
  0
TEXT
  5
45D
100
AcDbEntity
  8
3
370
    50
100
AcDbText
 10
-215.540462
 20
-37.463234
 30
0.0
 40
7.0
  1
（１２０）
 72
     5
 11
-181.940462
 21
-37.463234
 31
0.0
100
AcDbText
  0
DIMENSION
  5
45E
100
AcDbEntity
  8
3
370
    25
100
AcDbDimension
  2
*D0
 10
-138.540462
 20
-38.463234
 30
0.0
 11
-198.040462
 21
-36.463234
 31
0.0
 71
     0
 72
     0
 41
0.0
 42
0.0
  3
Standard
100
AcDbAlignedDimension
 13
-257.540462
 23
-30.862473
 33
0.0
 14
-138.540462
 24
-32.417145
 34
0.0
100
AcDbRotatedDimension
  0
TEXT
  5
45F
100
AcDbEntity
  8
3
370
    50
100
AcDbText
 10
-215.577744
 20
-29.216858
 30
0.0
 40
7.0
  1
（１０２）
 72
     5
 11
-181.977744
 21
-29.216858
 31
0.0
100
AcDbText
  0
POINT
  5
460
100
AcDbEntity
  8
3
370
    50
100
AcDbPoint
 10
-138.540462
 20
-20.223502
 30
0.0
  0
DIMENSION
  5
461
100
AcDbEntity
  8
3
370
    25
100
AcDbDimension
  2
*D1
 10
-95.930267
 20
36.776498
 30
0.0
 11
-103.930267
 21
8.276498
 31
0.0
 71
     0
 72
     0
 41
0.0
 42
0.0
  3
Standard
100
AcDbAlignedDimension
 13
-138.540462
 23
-20.223502
 33
0.0
 14
-115.540462
 24
36.776498
 34
0.0
 50
90.0
100
AcDbRotatedDimension
  0
TEXT
  5
462
100
AcDbEntity
  8
3
370
    50
100
AcDbText
 10
-358.780304
 20
10.383469
 30
0.0
 40
7.0
  1
ＰＪ１／２
 72
     5
 11
-325.180304
 21
10.383469
 31
0.0
100
AcDbText
  0
TEXT
  5
463
100
AcDbEntity
  8
3
370
    50
100
AcDbText
 10
-365.24054
 20
0.709557
 30
0.0
 40
7.0
  1
（取付穴径φ２３±１）
 72
     5
 11
-289.64054
 21
0.709557
 31
0.0
100
AcDbText
  0
TEXT
  5
464
100
AcDbEntity
  8
3
370
    50
100
AcDbText
 10
34.105217
 20
162.283432
 30
0.0
 40
7.0
  1
Ｗ２２山２０
 72
     5
 11
74.705217
 21
162.283432
 31
0.0
100
AcDbText
  0
DIMENSION
  5
465
100
AcDbEntity
  8
3
370
    25
100
AcDbDimension
  2
*D2
 10
167.719894
 20
126.776182
 30
0.0
 11
159.719894
 21
81.776182
 31
0.0
 71
     0
 72
     0
 41
0.0
 42
0.0
  3
Standard
100
AcDbAlignedDimension
 13
211.560403
 23
36.776182
 33
0.0
 14
215.545853
 24
126.776182
 34
0.0
 50
90.0
100
AcDbRotatedDimension
  0
DIMENSION
  5
466
100
AcDbEntity
  8
3
370
    25
100
AcDbDimension
  2
*D3
 10
-115.540462
 20
-48.863911
 30
0.0
 11
-198.040462
 21
-44.363911
 31
0.0
 71
     0
 72
     0
 41
0.0
 42
0.0
  3
Standard
100
AcDbAlignedDimension
 13
-280.540462
 23
36.776498
 33
0.0
 14
-115.540462
 24
36.776498
 34
0.0
100
AcDbRotatedDimension
  0
LWPOLYLINE
  5
467
100
AcDbEntity
  8
3
370
    25
100
AcDbPolyline
 90
        3
 70
     0
 10
-268.017962
 20
-2.65107
 10
-290.570221
 20
9.022049
 10
-363.317688
 20
9.022049
  0
LINE
  5
46C
100
AcDbEntity
  8
3
370
    25
100
AcDbLine
 10
-271.449265
 20
-0.875017
 30
0.0
 11
-271.925157
 21
-1.794432
 31
0.0
  0
LINE
  5
46D
100
AcDbEntity
  8
3
370
    25
100
AcDbLine
 10
-271.925157
 20
-1.794432
 30
0.0
 11
-268.017962
 21
-2.65107
 31
0.0
  0
LINE
  5
46E
100
AcDbEntity
  8
3
370
    25
100
AcDbLine
 10
-268.017962
 20
-2.65107
 30
0.0
 11
-270.973373
 21
0.044398
 31
0.0
  0
LINE
  5
46F
100
AcDbEntity
  8
3
370
    25
100
AcDbLine
 10
-270.973373
 20
0.044398
 30
0.0
 11
-271.449265
 21
-0.875017
 31
0.0
  0
TEXT
  5
470
100
AcDbEntity
  8
3
370
    50
100
AcDbText
 10
-208.540311
 20
226.237061
 30
0.0
 40
7.0
  1
２５４
 72
     5
 11
-188.940311
 21
226.237061
 31
0.0
100
AcDbText
  0
DIMENSION
  5
471
100
AcDbEntity
  8
3
370
    25
100
AcDbDimension
  2
*D4
 10
-71.039811
 20
225.237061
 30
0.0
 11
-198.040311
 21
227.237061
 31
0.0
 71
     0
 72
     0
 41
0.0
 42
0.0
  3
Standard
100
AcDbAlignedDimension
 13
-325.040811
 23
137.776865
 33
0.0
 14
-71.039811
 24
137.776131
 34
0.0
100
AcDbRotatedDimension
  0
DIMENSION
  5
472
100
AcDbEntity
  8
3
370
    25
100
AcDbDimension
  2
*D5
 10
271.560403
 20
-50.758911
 30
0.0
 11
241.560403
 21
-46.258911
 31
0.0
 71
     0
 72
     0
 41
0.0
 42
0.0
  3
Standard
100
AcDbAlignedDimension
 13
211.560403
 23
36.776182
 33
0.0
 14
271.560403
 24
36.776182
 34
0.0
100
AcDbRotatedDimension
  0
TEXT
  5
473
100
AcDbEntity
  8
3
370
    50
100
AcDbText
 10
323.346802
 20
167.695145
 30
0.0
 40
7.0
  1
Ｍ２３×１．５
 72
     5
 11
370.946802
 21
167.695145
 31
0.0
100
AcDbText
  0
TEXT
  5
474
100
AcDbEntity
  8
3
370
    50
100
AcDbText
 10
-212.64946
 20
-20.873022
 30
0.0
 40
7.0
  1
（８５）
 72
     5
 11
-186.04946
 21
-20.873022
 31
0.0
100
AcDbText
  0
TEXT
  5
475
100
AcDbEntity
  8
3
370
    50
100
AcDbText
 10
64.978836
 20
-227.733994
 30
0.0
 40
5.67
  1
台付サーモスタット湯水混合水栓（シャワバス）
 72
     5
 11
188.584836
 21
-227.733994
 31
0.0
100
AcDbText
  0
TEXT
  5
476
100
AcDbEntity
  8
3
370
    50
100
AcDbText
 10
289.258148
 20
-240.198822
 30
0.0
 40
7.0
  1
１　２
 72
     5
 11
308.858148
 21
-240.198822
 31
0.0
100
AcDbText
  0
LWPOLYLINE
  5
477
100
AcDbEntity
  8
3
370
    25
100
AcDbPolyline
 90
        3
 70
     0
 10
310.410704
 20
140.868042
 10
323.346802
 20
164.509399
 10
371.662323
 20
164.509399
  0
LINE
  5
47C
100
AcDbEntity
  8
3
370
    25
100
AcDbLine
 10
312.265354
 20
144.257507
 30
0.0
 11
311.35715
 21
144.754459
 31
0.0
  0
LINE
  5
47D
100
AcDbEntity
  8
3
370
    25
100
AcDbLine
 10
311.35715
 20
144.754459
 30
0.0
 11
310.410704
 21
140.868042
 31
0.0
  0
LINE
  5
47E
100
AcDbEntity
  8
3
370
    25
100
AcDbLine
 10
310.410704
 20
140.868042
 30
0.0
 11
313.173559
 21
143.760555
 31
0.0
  0
LINE
  5
47F
100
AcDbEntity
  8
3
370
    25
100
AcDbLine
 10
313.173559
 20
143.760555
 30
0.0
 11
312.265354
 21
144.257507
 31
0.0
  0
POINT
  5
480
100
AcDbEntity
  8
3
370
    50
100
AcDbPoint
 10
241.560403
 20
126.776182
 30
0.0
  0
LINE
  5
481
100
AcDbEntity
  8
3
370
    25
  6
CENTER
100
AcDbLine
 10
273.174806
 20
153.303816
 30
0.0
 11
254.950464
 21
138.011776
 31
0.0
  0
LINE
  5
482
100
AcDbEntity
  8
3
370
    25
  6
CENTER
100
AcDbLine
 10
211.575466
 20
156.761119
 30
0.0
 11
228.646755
 21
139.68983
 31
0.0
  0
LINE
  5
483
100
AcDbEntity
  8
3
370
    25
  6
CENTER
100
AcDbLine
 10
228.351348
 20
111.034243
 30
0.0
 11
215.423861
 21
95.627864
 31
0.0
  0
DIMENSION
  5
484
100
AcDbEntity
  8
3
370
    25
100
AcDbDimension
  2
*D6
 10
241.556813
 20
126.779772
 30
0.0
 11
254.308702
 21
178.041568
 31
0.0
 70
     2
 71
     0
 72
     0
 41
0.0
 42
0.0
  3
Standard
100
AcDb2LineAngularDimension
 13
265.895091
 23
147.195409
 33
0.0
 14
241.560403
 24
126.776182
 34
0.0
 15
241.560403
 25
126.776182
 35
0.0
 16
243.775076
 26
177.500523
 36
0.0
1001
ACAD
1000
DSTYLE
1002
{
1070
   275
1070
     0
1070
   179
1070
     0
1002
}
  0
DIMENSION
  5
485
100
AcDbEntity
  8
3
370
    25
100
AcDbDimension
  2
*D7
 10
221.918291
 20
103.367624
 30
0.0
 11
192.30099
 21
114.115466
 31
0.0
 70
     2
 71
     0
 72
     0
 41
0.0
 42
0.0
  3
Standard
100
AcDb2LineAngularDimension
 13
241.556814
 23
126.779771
 33
0.0
 14
241.560403
 24
126.776182
 34
0.0
 15
241.560403
 25
126.776182
 35
0.0
 16
190.843938
 26
124.561853
 36
0.0
1001
ACAD
1000
DSTYLE
1002
{
1070
   275
1070
     0
1070
   179
1070
     0
1002
}
  0
TEXT
  5
486
100
AcDbEntity
  8
3
370
    50
100
AcDbText
 10
175.024796
 20
77.712395
 30
0.0
 40
7.0
  1
パイプ吐水
 72
     5
 11
208.624796
 21
77.712395
 31
0.0
100
AcDbText
  0
TEXT
  5
487
100
AcDbEntity
  8
3
370
    50
100
AcDbText
 10
264.125153
 20
186.210251
 30
0.0
 40
7.0
  1
シャワー吐水
 72
     5
 11
304.725153
 21
186.210251
 31
0.0
100
AcDbText
  0
TEXT
  5
488
100
AcDbEntity
  8
3
370
    50
100
AcDbText
 10
229.908936
 20
-272.54834
 30
0.0
 40
7.0
  1
外観寸法図
 72
     5
 11
263.508936
 21
-272.54834
 31
0.0
100
AcDbText
  0
TEXT
  5
489
100
AcDbEntity
  8
3
370
    50
100
AcDbText
 10
-150.669968
 20
183.585373
 30
0.0
 40
7.0
  1
シャワー／パイプ吐水
 72
     5
 11
-82.069968
 21
183.585373
 31
0.0
100
AcDbText
  0
TEXT
  5
48A
100
AcDbEntity
  8
3
370
    50
100
AcDbText
 10
-150.669968
 20
175.585373
 30
0.0
 40
7.0
  1
及び止水位置の表示
 72
     5
 11
-89.069968
 21
175.585373
 31
0.0
100
AcDbText
  0
TEXT
  5
48B
100
AcDbEntity
  8
3
370
    50
100
AcDbText
 10
-297.340668
 20
181.201935
 30
0.0
 40
7.0
  1
温度調節の表示
 72
     5
 11
-249.740668
 21
181.201935
 31
0.0
100
AcDbText
  0
TEXT
  5
48C
100
AcDbEntity
  8
3
370
    50
100
AcDbText
 10
-311.106934
 20
170.13176
 30
0.0
 40
7.0
  1
吐水温度表示
 72
     5
 11
-270.506934
 21
170.13176
 31
0.0
100
AcDbText
  0
TEXT
  5
48D
100
AcDbEntity
  8
3
370
    50
100
AcDbText
 10
-320.253113
 20
158.68689
 30
0.0
 40
7.0
  1
安全ボタン
 72
     5
 11
-286.653113
 21
158.68689
 31
0.0
100
AcDbText
  0
LWPOLYLINE
  5
48E
100
AcDbEntity
  8
3
370
    25
100
AcDbPolyline
 90
        2
 70
     0
 10
-295.600128
 20
146.726242
 10
-297.02417
 20
157.005646
  0
LINE
  5
492
100
AcDbEntity
  8
3
370
    25
100
AcDbLine
 10
-296.130317
 20
150.553395
 30
0.0
 11
-297.1558
 21
150.411332
 31
0.0
  0
LINE
  5
493
100
AcDbEntity
  8
3
370
    25
100
AcDbLine
 10
-297.1558
 20
150.411332
 30
0.0
 11
-295.600128
 21
146.726242
 31
0.0
  0
LINE
  5
494
100
AcDbEntity
  8
3
370
    25
100
AcDbLine
 10
-295.600128
 20
146.726242
 30
0.0
 11
-295.104834
 21
150.695459
 31
0.0
  0
LINE
  5
495
100
AcDbEntity
  8
3
370
    25
100
AcDbLine
 10
-295.104834
 20
150.695459
 30
0.0
 11
-296.130317
 21
150.553395
 31
0.0
  0
LWPOLYLINE
  5
496
100
AcDbEntity
  8
3
370
    25
100
AcDbPolyline
 90
        2
 70
     0
 10
-285.473206
 20
150.205429
 10
-279.935028
 20
169.182831
  0
LINE
  5
49A
100
AcDbEntity
  8
3
370
    25
100
AcDbLine
 10
-284.39081
 20
153.914421
 30
0.0
 11
-285.384631
 21
154.204448
 31
0.0
  0
LINE
  5
49B
100
AcDbEntity
  8
3
370
    25
100
AcDbLine
 10
-285.384631
 20
154.204448
 30
0.0
 11
-285.473206
 21
150.205429
 31
0.0
  0
LINE
  5
49C
100
AcDbEntity
  8
3
370
    25
100
AcDbLine
 10
-285.473206
 20
150.205429
 30
0.0
 11
-283.396988
 21
153.624394
 31
0.0
  0
LINE
  5
49D
100
AcDbEntity
  8
3
370
    25
100
AcDbLine
 10
-283.396988
 20
153.624394
 30
0.0
 11
-284.39081
 21
153.914421
 31
0.0
  0
LWPOLYLINE
  5
49E
100
AcDbEntity
  8
3
370
    25
100
AcDbPolyline
 90
        2
 70
     0
 10
-274.080414
 20
151.470612
 10
-257.465912
 20
179.304169
  0
LINE
  5
4A2
100
AcDbEntity
  8
3
370
    25
100
AcDbLine
 10
-272.100065
 20
154.788204
 30
0.0
 11
-272.989011
 21
155.318837
 31
0.0
  0
LINE
  5
4A3
100
AcDbEntity
  8
3
370
    25
100
AcDbLine
 10
-272.989011
 20
155.318837
 30
0.0
 11
-274.080414
 21
151.470612
 31
0.0
  0
LINE
  5
4A4
100
AcDbEntity
  8
3
370
    25
100
AcDbLine
 10
-274.080414
 20
151.470612
 30
0.0
 11
-271.211119
 21
154.257571
 31
0.0
  0
LINE
  5
4A5
100
AcDbEntity
  8
3
370
    25
100
AcDbLine
 10
-271.211119
 20
154.257571
 30
0.0
 11
-272.100065
 21
154.788204
 31
0.0
  0
LWPOLYLINE
  5
4A6
100
AcDbEntity
  8
3
370
    25
100
AcDbPolyline
 90
        2
 70
     0
 10
-120.385498
 20
153.401108
 10
-116.473732
 20
172.238266
  0
LINE
  5
4AA
100
AcDbEntity
  8
3
370
    25
100
AcDbLine
 10
-119.599913
 20
157.184104
 30
0.0
 11
-120.613563
 21
157.394601
 31
0.0
  0
LINE
  5
4AB
100
AcDbEntity
  8
3
370
    25
100
AcDbLine
 10
-120.613563
 20
157.394601
 30
0.0
 11
-120.385498
 21
153.401108
 31
0.0
  0
LINE
  5
4AC
100
AcDbEntity
  8
3
370
    25
100
AcDbLine
 10
-120.385498
 20
153.401108
 30
0.0
 11
-118.586262
 21
156.973607
 31
0.0
  0
LINE
  5
4AD
100
AcDbEntity
  8
3
370
    25
100
AcDbLine
 10
-118.586262
 20
156.973607
 30
0.0
 11
-119.599913
 21
157.184104
 31
0.0
  0
TEXT
  5
4AE
100
AcDbEntity
  8
3
370
    50
100
AcDbText
 10
-107.534431
 20
62.172569
 30
0.0
 40
7.0
  1
逆止弁内蔵
 72
     5
 11
-73.934431
 21
62.172569
 31
0.0
100
AcDbText
  0
LWPOLYLINE
  5
4AF
100
AcDbEntity
  8
3
370
    25
100
AcDbPolyline
 90
        2
 70
     0
 10
-134.126465
 20
84.953102
 10
-111.133347
 20
64.97023
  0
LINE
  5
4B3
100
AcDbEntity
  8
3
370
    25
100
AcDbLine
 10
-131.210193
 20
82.418627
 30
0.0
 11
-130.531083
 21
83.20004
 31
0.0
  0
LINE
  5
4B4
100
AcDbEntity
  8
3
370
    25
100
AcDbLine
 10
-130.531083
 20
83.20004
 30
0.0
 11
-134.126465
 21
84.953102
 31
0.0
  0
LINE
  5
4B5
100
AcDbEntity
  8
3
370
    25
100
AcDbLine
 10
-134.126465
 20
84.953102
 30
0.0
 11
-131.889304
 21
81.637215
 31
0.0
  0
LINE
  5
4B6
100
AcDbEntity
  8
3
370
    25
100
AcDbLine
 10
-131.889304
 20
81.637215
 30
0.0
 11
-131.210193
 21
82.418627
 31
0.0
  0
TEXT
  5
4B7
100
AcDbEntity
  8
3
370
    50
100
AcDbText
 10
-323.546493
 20
62.172569
 30
0.0
 40
7.0
  1
逆止弁内蔵
 72
     5
 11
-289.946493
 21
62.172569
 31
0.0
100
AcDbText
  0
LWPOLYLINE
  5
4B8
100
AcDbEntity
  8
3
370
    25
100
AcDbPolyline
 90
        2
 70
     0
 10
-260.19342
 20
86.594719
 10
-285.804993
 20
66.90448
  0
LINE
  5
4BC
100
AcDbEntity
  8
3
370
    25
100
AcDbLine
 10
-263.256518
 20
84.239802
 30
0.0
 11
-262.62552
 21
83.419047
 31
0.0
  0
LINE
  5
4BD
100
AcDbEntity
  8
3
370
    25
100
AcDbLine
 10
-262.62552
 20
83.419047
 30
0.0
 11
-260.19342
 21
86.594719
 31
0.0
  0
LINE
  5
4BE
100
AcDbEntity
  8
3
370
    25
100
AcDbLine
 10
-260.19342
 20
86.594719
 30
0.0
 11
-263.887516
 21
85.060556
 31
0.0
  0
LINE
  5
4BF
100
AcDbEntity
  8
3
370
    25
100
AcDbLine
 10
-263.887516
 20
85.060556
 30
0.0
 11
-263.256518
 21
84.239802
 31
0.0
  0
LINE
  5
4C0
100
AcDbEntity
  8
3
370
    25
  6
CENTER
100
AcDbLine
 10
-138.540462
 20
40.930107
 30
0.0
 11
-138.540462
 21
-32.417145
 31
0.0
  0
TEXT
  5
4C1
100
AcDbEntity
  8
3
370
    50
100
AcDbText
 10
189.853622
 20
166.344589
 30
0.0
 40
7.0
  1
止水
 72
     5
 11
202.453622
 21
166.344589
 31
0.0
100
AcDbText
  0
DIMENSION
  5
4C2
100
AcDbEntity
  8
3
370
    25
100
AcDbDimension
  2
*D8
 10
296.560704
 20
-50.758911
 30
0.0
 11
284.060554
 21
-46.258911
 31
0.0
 71
     0
 72
     0
 41
0.0
 42
0.0
  3
Standard
100
AcDbAlignedDimension
 13
271.560403
 23
36.776182
 33
0.0
 14
296.560704
 24
136.775799
 34
0.0
100
AcDbRotatedDimension
  0
TEXT
  5
4C3
100
AcDbEntity
  8
3
370
    50
100
AcDbText
 10
111.060403
 20
-38.281525
 30
0.0
 40
7.0
  1
３００
 72
     5
 11
130.660403
 21
-38.281525
 31
0.0
100
AcDbText
  0
DIMENSION
  5
4C4
100
AcDbEntity
  8
3
370
    25
100
AcDbDimension
  2
*D9
 10
241.560403
 20
-39.281525
 30
0.0
 11
121.560403
 21
-37.281525
 31
0.0
 71
     0
 72
     0
 41
0.0
 42
0.0
  3
Standard
100
AcDbAlignedDimension
 13
1.560403
 23
172.724498
 33
0.0
 14
241.560403
 24
-22.061848
 34
0.0
100
AcDbRotatedDimension
  0
TEXT
  5
4C5
100
AcDbEntity
  8
3
370
    50
100
AcDbText
 10
322.360748
 20
-273.411224
 30
0.0
 40
10.5
  1
０３０１０２
 72
     5
 11
383.260748
 21
-273.411224
 31
0.0
100
AcDbText
  0
TEXT
  5
4C6
100
AcDbEntity
  8
3
370
    50
100
AcDbText
 10
64.332962
 20
-235.695724
 30
0.0
 40
7.0
  1
ＭＢ８００ＤＸＴ
 72
     5
 11
118.932962
 21
-235.695724
 31
0.0
100
AcDbText
  0
TEXT
  5
4C7
100
AcDbEntity
  8
3
370
    50
100
AcDbText
 10
344.09967
 20
-255.718811
 30
0.0
 40
6.3
  1
１０　　６　　３
 72
     5
 11
393.23967
 21
-255.718811
 31
0.0
100
AcDbText
  0
DIMENSION
  5
4C8
100
AcDbEntity
  8
3
370
    25
100
AcDbDimension
  2
*D10
 10
-19.462994
 20
164.076542
 30
0.0
 11
-30.962994
 21
96.926362
 31
0.0
 71
     0
 72
     0
 41
0.0
 42
0.0
  3
Standard
100
AcDbAlignedDimension
 13
211.560403
 23
36.776182
 33
0.0
 14
1.560391
 24
164.076542
 34
0.0
 50
90.0
100
AcDbRotatedDimension
  0
LWPOLYLINE
  5
4C9
100
AcDbEntity
  8
3
370
    25
100
AcDbPolyline
 90
        3
 70
     0
 10
13.71966
 20
171.680374
 10
34.02232
 20
161.02594
 10
75.431709
 20
161.02594
  0
LINE
  5
4CE
100
AcDbEntity
  8
3
370
    25
100
AcDbLine
 10
17.140884
 20
169.884983
 30
0.0
 11
17.621958
 21
170.801698
 31
0.0
  0
LINE
  5
4CF
100
AcDbEntity
  8
3
370
    25
100
AcDbLine
 10
17.621958
 20
170.801698
 30
0.0
 11
13.71966
 21
171.680374
 31
0.0
  0
LINE
  5
4D0
100
AcDbEntity
  8
3
370
    25
100
AcDbLine
 10
13.71966
 20
171.680374
 30
0.0
 11
16.659811
 21
168.968269
 31
0.0
  0
LINE
  5
4D1
100
AcDbEntity
  8
3
370
    25
100
AcDbLine
 10
16.659811
 20
168.968269
 30
0.0
 11
17.140884
 21
169.884983
 31
0.0
  0
ENDSEC
  0
SECTION
  2
OBJECTS
  0
DICTIONARY
  5
553
100
AcDbDictionary
280
     0
281
     1
  3
ACAD_GROUP
350
554
  3
ACAD_MLINESTYLE
350
555
  0
DICTIONARY
  5
554
102
{ACAD_REACTORS
330
553
102
}
100
AcDbDictionary
280
     0
281
     1
  0
DICTIONARY
  5
555
102
{ACAD_REACTORS
330
553
102
}
100
AcDbDictionary
280
     0
281
     1
  3
Standard
350
556
  0
MLINESTYLE
  5
556
102
{ACAD_REACTORS
330
555
102
}
100
AcDbMlineStyle
  2
Standard
 70
     0
  3

 62
     0
 51
90.0
 52
90.0
 71
     2
 49
0.5
 62
   256
  6
ByLayer
 49
-0.5
 62
   256
  6
ByLayer
  0
ENDSEC
  0
EOF
