  0
SECTION
  2
HEADER
  9
$ACADVER
  1
AC1015
  9
$ACADMAINTVER
 70
     6
  9
$DWGCODEPAGE
  3
ANSI_932
  9
$INSBASE
 10
0.0
 20
0.0
 30
0.0
  9
$EXTMIN
 10
-1261.5
 20
-891.0
 30
1.000000E+20
  9
$EXTMAX
 10
1261.5
 20
891.0
 30
-1.000000E+20
  9
$LIMMIN
 10
-1261.5
 20
-891.0
  9
$LIMMAX
 10
1261.5
 20
891.0
  9
$ORTHOMODE
 70
     0
  9
$REGENMODE
 70
     1
  9
$FILLMODE
 70
     1
  9
$QTEXTMODE
 70
     0
  9
$MIRRTEXT
 70
     1
  9
$LTSCALE
 40
1.0
  9
$ATTMODE
 70
     1
  9
$TEXTSIZE
 40
0.2
  9
$TRACEWID
 40
0.05
  9
$TEXTSTYLE
  7
STANDARD
  9
$CLAYER
  8
0
  9
$CELTYPE
  6
CONTINUOUS
  9
$CECOLOR
 62
   256
  9
$CELTSCALE
 40
1.0
  9
$DISPSILH
 70
     0
  9
$DIMSCALE
 40
3.0
  9
$DIMASZ
 40
2.0
  9
$DIMEXO
 40
1.0
  9
$DIMDLI
 40
0.38
  9
$DIMRND
 40
0.0
  9
$DIMDLE
 40
0.0
  9
$DIMEXE
 40
2.0
  9
$DIMTP
 40
0.0
  9
$DIMTM
 40
0.0
  9
$DIMTXT
 40
3.5
  9
$DIMCEN
 40
0.09
  9
$DIMTSZ
 40
0.0
  9
$DIMTOL
 70
     0
  9
$DIMLIM
 70
     0
  9
$DIMTIH
 70
     0
  9
$DIMTOH
 70
     0
  9
$DIMSE1
 70
     0
  9
$DIMSE2
 70
     0
  9
$DIMTAD
 70
     1
  9
$DIMZIN
 70
     0
  9
$DIMBLK
  1

  9
$DIMASO
 70
     1
  9
$DIMSHO
 70
     1
  9
$DIMPOST
  1

  9
$DIMAPOST
  1

  9
$DIMALT
 70
     0
  9
$DIMALTD
 70
     2
  9
$DIMALTF
 40
25.4
  9
$DIMLFAC
 40
1.0
  9
$DIMTOFL
 70
     0
  9
$DIMTVP
 40
0.0
  9
$DIMTIX
 70
     0
  9
$DIMSOXD
 70
     0
  9
$DIMSAH
 70
     0
  9
$DIMBLK1
  1

  9
$DIMBLK2
  1

  9
$DIMSTYLE
  2
Standard
  9
$DIMCLRD
 70
     0
  9
$DIMCLRE
 70
     0
  9
$DIMCLRT
 70
     0
  9
$DIMTFAC
 40
1.0
  9
$DIMGAP
 40
0.5
  9
$DIMJUST
 70
     0
  9
$DIMSD1
 70
     0
  9
$DIMSD2
 70
     0
  9
$DIMTOLJ
 70
     1
  9
$DIMTZIN
 70
     0
  9
$DIMALTZ
 70
     0
  9
$DIMALTTZ
 70
     0
  9
$DIMUPT
 70
     0
  9
$DIMDEC
 70
     3
  9
$DIMTDEC
 70
     4
  9
$DIMALTU
 70
     2
  9
$DIMALTTD
 70
     2
  9
$DIMTXSTY
  7
STANDARD
  9
$DIMAUNIT
 70
     0
  9
$DIMADEC
 70
     2
  9
$DIMALTRND
 40
0.0
  9
$DIMAZIN
 70
     0
  9
$DIMDSEP
 70
     0
  9
$DIMATFIT
 70
     3
  9
$DIMFRAC
 70
     0
  9
$DIMLDRBLK
  1

  9
$DIMLUNIT
 70
     2
  9
$DIMLWD
 70
     0
  9
$DIMLWE
 70
     0
  9
$DIMTMOVE
 70
     0
  9
$LUNITS
 70
     2
  9
$LUPREC
 70
     4
  9
$SKETCHINC
 40
0.1
  9
$FILLETRAD
 40
0.0
  9
$AUNITS
 70
     0
  9
$AUPREC
 70
     0
  9
$MENU
  1
acad
  9
$ELEVATION
 40
0.0
  9
$PELEVATION
 40
0.0
  9
$THICKNESS
 40
0.0
  9
$LIMCHECK
 70
     0
  9
$CHAMFERA
 40
0.0
  9
$CHAMFERB
 40
0.0
  9
$CHAMFERC
 40
0.0
  9
$CHAMFERD
 40
0.0
  9
$SKPOLY
 70
     0
  9
$TDCREATE
 40
2456279.000000000
  9
$TDUCREATE
 40
0.000000000
  9
$TDUPDATE
 40
0.000000000
  9
$TDUUPDATE
 40
2447892.625000000
  9
$TDINDWG
 40
0.0000000000
  9
$TDUSRTIMER
 40
0.0000000000
  9
$USRTIMER
 70
     1
  9
$ANGBASE
 50
0.0
  9
$ANGDIR
 70
     0
  9
$PDMODE
 70
     0
  9
$PDSIZE
 40
0.0
  9
$PLINEWID
 40
0.0
  9
$SPLFRAME
 70
     0
  9
$SPLINETYPE
 70
     6
  9
$SPLINESEGS
 70
     8
  9
$HANDSEED
  5
486
  9
$SURFTAB1
 70
     6
  9
$SURFTAB2
 70
     6
  9
$SURFTYPE
 70
     6
  9
$SURFU
 70
     6
  9
$SURFV
 70
     6
  9
$UCSBASE
  2

  9
$UCSNAME
  2

  9
$UCSORG
 10
0.0
 20
0.0
 30
0.0
  9
$UCSXDIR
 10
1.0
 20
0.0
 30
0.0
  9
$UCSYDIR
 10
0.0
 20
1.0
 30
0.0
  9
$UCSORTHOREF
  2

  9
$UCSORTHOVIEW
 70
     0
  9
$UCSORGTOP
 10
0.0
 20
0.0
 30
0.0
  9
$UCSORGBOTTOM
 10
0.0
 20
0.0
 30
0.0
  9
$UCSORGLEFT
 10
0.0
 20
0.0
 30
0.0
  9
$UCSORGRIGHT
 10
0.0
 20
0.0
 30
0.0
  9
$UCSORGFRONT
 10
0.0
 20
0.0
 30
0.0
  9
$UCSORGBACK
 10
0.0
 20
0.0
 30
0.0
  9
$PUCSBASE
  2

  9
$PUCSNAME
  2

  9
$PUCSORG
 10
0.0
 20
0.0
 30
0.0
  9
$PUCSXDIR
 10
1.0
 20
0.0
 30
0.0
  9
$PUCSYDIR
 10
0.0
 20
1.0
 30
0.0
  9
$PUCSORTHOREF
  2

  9
$PUCSORTHOVIEW
 70
     0
  9
$PUCSORGTOP
 10
0.0
 20
0.0
 30
0.0
  9
$PUCSORGBOTTOM
 10
0.0
 20
0.0
 30
0.0
  9
$PUCSORGLEFT
 10
0.0
 20
0.0
 30
0.0
  9
$PUCSORGRIGHT
 10
0.0
 20
0.0
 30
0.0
  9
$PUCSORGFRONT
 10
0.0
 20
0.0
 30
0.0
  9
$PUCSORGBACK
 10
0.0
 20
0.0
 30
0.0
  9
$USERI1
 70
     0
  9
$USERI2
 70
     0
  9
$USERI3
 70
     0
  9
$USERI4
 70
     0
  9
$USERI5
 70
     0
  9
$USERR1
 40
0.0
  9
$USERR2
 40
0.0
  9
$USERR3
 40
0.0
  9
$USERR4
 40
0.0
  9
$USERR5
 40
0.0
  9
$WORLDVIEW
 70
     1
  9
$SHADEDGE
 70
     3
  9
$SHADEDIF
 70
    70
  9
$TILEMODE
 70
     1
  9
$MAXACTVP
 70
    16
  9
$PINSBASE
 10
0.0
 20
0.0
 30
0.0
  9
$PLIMCHECK
 70
     0
  9
$PEXTMIN
 10
1.000000E+20
 20
1.000000E+20
 30
1.000000E+20
  9
$PEXTMAX
 10
-1.000000E+20
 20
-1.000000E+20
 30
-1.000000E+20
  9
$PLIMMIN
 10
0.0
 20
0.0
  9
$PLIMMAX
 10
12.0
 20
9.0
  9
$UNITMODE
 70
     0
  9
$VISRETAIN
 70
     0
  9
$PLINEGEN
 70
     1
  9
$PSLTSCALE
 70
     0
  9
$TREEDEPTH
 70
  3020
  9
$CMLSTYLE
  2
Standard
  9
$CMLJUST
 70
     0
  9
$CMLSCALE
 40
1.0
  9
$PROXYGRAPHICS
 70
     0
  9
$MEASUREMENT
 70
     0
  9
$CELWEIGHT
370
     0
  9
$ENDCAPS
280
     0
  9
$JOINSTYLE
280
     0
  9
$LWDISPLAY
290
     0
  9
$INSUNITS
 70
     0
  9
$HYPERLINKBASE
  1

  9
$STYLESHEET
  1

  9
$XEDIT
290
     1
  9
$CEPSNTYPE
380
     0
  9
$PSTYLEMODE
290
     1
  9
$FINGERPRINTGUID
  2

  9
$VERSIONGUID
  2

  9
$EXTNAMES
290
     1
  9
$PSVPSCALE
 40
0.0
  0
ENDSEC
  0
SECTION
  2
CLASSES
  0
CLASS
  1
LWPOLYLINE
  2
AcDbPolyline
  3
AutoCAD 2000
 90
        0
280
     0
281
     1
  0
CLASS
  1
IMAGE
  2
AcDbRasterImage
  3
ISM
 90
      127
280
     0
281
     1
  0
CLASS
  1
OLE2FRAME
  2
AcDbOle2Frame
  3
AutoCAD 2000
 90
        0
280
     0
281
     1
  0
CLASS
  1
HATCH
  2
AcDbHatch
  3
AutoCAD 2000
 90
        0
280
     0
281
     1
  0
CLASS
  1
DICTIONARYVAR
  2
AcDbDictionaryVar
  3
AutoCAD 2000
 90
        0
280
     0
281
     0
  0
CLASS
  1
RASTERVARIABLES
  2
AcDbRasterVariables
  3
ISM
 90
        0
280
     0
281
     0
  0
CLASS
  1
IMAGEDEF
  2
AcDbRasterImageDef
  3
ISM
 90
        0
280
     0
281
     0
  0
CLASS
  1
IMAGEDEF_REACTOR
  2
AcDbRasterImageDefReactor
  3
ISM
 90
        1
280
     0
281
     0
  0
CLASS
  1
IDBUFFER
  2
AcDbIdBuffer
  3
AutoCAD 2000
 90
        0
280
     0
281
     0
  0
CLASS
  1
SPATIAL_FILTER
  2
AcDbSpatialFilter
  3
AutoCAD 2000
 90
        0
280
     0
281
     0
  0
CLASS
  1
XRECORD
  2
AcDbXrecord
  3
AutoCAD 2000
 90
        0
280
     0
281
     0
  0
CLASS
  1
SORTENTSTABLE
  2
AcDbSortentsTable
  3
AutoCAD 2000
 90
        0
280
     0
281
     0
  0
CLASS
  1
LAYER_INDEX
  2
AcDbLayerIndex
  3
AutoCAD 2000
 90
        0
280
     0
281
     0
  0
CLASS
  1
SPATIAL_INDEX
  2
AcDbSpatialIndex
  3
AutoCAD 2000
 90
        0
280
     0
281
     0
  0
CLASS
  1
OBJECT_PTR
  2
CAseDLPNTableRecord
  3
"ASE-LPNTableRecord"
 90
        1
280
     0
281
     0
  0
CLASS
  1
LAYOUT
  2
AcDbLayout
  3
AutoCAD 2000
 90
        0
280
     0
281
     0
  0
CLASS
  1
PLOTSETTINGS
  2
AcDbPlotSettings
  3
AutoCAD 2000
 90
        0
280
     0
281
     0
  0
CLASS
  1
ACDBDICTIONARYWDFLT
  2
AcDbDictionaryWithDefault
  3
AutoCAD 2000
 90
        0
280
     0
281
     0
  0
CLASS
  1
ACDBPLACEHOLDER
  2
AcDbPlaceHolder
  3
AutoCAD 2000
 90
        0
280
     0
281
     0
  0
CLASS
  1
VBA_PROJECT
  2
AcDbVbaProject
  3
acadvba
 90
        0
280
     0
281
     0
  0
CLASS
  1
WIPEOUT
  2
AcDbWipeout
  3
WipeOut|AutoCAD Express Tool|expresstools@autodesk.com
 90
      127
280
     0
281
     1
  0
CLASS
  1
WIPEOUTVARIABLES
  2
AcDbWipeoutVariables
  3
WipeOut|AutoCAD Express Tool|expresstools@autodesk.com
 90
        0
280
     0
281
     0
  0
CLASS
  1
RTEXT
  2
RText
  3
RText|AutoCAD Express Tool|expresstools@autodesk.com
 90
        0
280
     0
281
     1
  0
CLASS
  1
ARCALIGNEDTEXT
  2
AcDbArcAlignedText
  3
ATEXT|AutoCAD Express Tool|expresstools@autodesk.com
 90
        0
280
     0
281
     1
  0
ENDSEC
  0
SECTION
  2
TABLES
  0
TABLE
  2
VPORT
  5
6
100
AcDbSymbolTable
 70
     1
  0
VPORT
  5
19
100
AcDbSymbolTableRecord
100
AcDbViewportTableRecord
  2
*ACTIVE
 70
     0
 10
0.0
 20
0.0
 11
1.0
 21
1.0
 12
0.0
 22
0.0
 13
0.0
 23
0.0
 14
1.0
 24
1.0
 15
0.0
 25
0.0
 16
0.0
 26
0.0
 36
1.0
 17
0.0
 27
0.0
 37
0.0
 40
1782.0
 41
1.415825
 42
50.0
 43
0.0
 44
0.0
 50
0.0
 51
0.0
 71
     0
 72
   500
 73
     1
 74
     1
 75
     0
 76
     0
 77
     0
 78
     0
281
     0
 65
     0
110
0.0
120
0.0
130
0.0
111
1.0
121
0.0
131
0.0
112
0.0
122
1.0
132
0.0
345
0
346
0
 79
     0
146
0.0
  0
ENDTAB
  0
TABLE
  2
LTYPE
  5
3
100
AcDbSymbolTable
 70
     9
  0
LTYPE
  5
C
100
AcDbSymbolTableRecord
100
AcDbLinetypeTableRecord
  2
ByBlock
 70
    64
  3

 72
    65
 73
     0
 40
0.0
  0
LTYPE
  5
D
100
AcDbSymbolTableRecord
100
AcDbLinetypeTableRecord
  2
ByLayer
 70
    64
  3

 72
    65
 73
     0
 40
0.0
  0
LTYPE
  5
E
100
AcDbSymbolTableRecord
100
AcDbLinetypeTableRecord
  2
CONTINUOUS
 70
     0
  3
Solid line
 72
    65
 73
     0
 40
0.0
  0
LTYPE
  5
F
100
AcDbSymbolTableRecord
100
AcDbLinetypeTableRecord
  2
DASHED
 70
     0
  3
__ __ __ __ __ __ __ __ __ __ __ __ __ __ __
 72
    65
 73
     2
 40
2.0
 49
1.2
 74
     0
 49
-0.8
 74
     0
  0
LTYPE
  5
10
100
AcDbSymbolTableRecord
100
AcDbLinetypeTableRecord
  2
CENTER
 70
     0
  3
____ _ ____ _ ____ _ ____ _ ____ _ ____ _ ____
 72
    65
 73
     4
 40
12.0
 49
9.0
 74
     0
 49
-1.0
 74
     0
 49
1.0
 74
     0
 49
-1.0
 74
     0
  0
LTYPE
  5
11
100
AcDbSymbolTableRecord
100
AcDbLinetypeTableRecord
  2
HIDDEN
 70
     0
  3
_ _ _ _ _ _ _ _ _ _ _ _ _ _ _ _ _ _ _ _ _ _ _
 72
    65
 73
     2
 40
3.2
 49
2.4
 74
     0
 49
-0.8
 74
     0
  0
LTYPE
  5
12
100
AcDbSymbolTableRecord
100
AcDbLinetypeTableRecord
  2
PHANTOM
 70
     0
  3
_____ _ _ _____ _ _ _____ _ _ _____ _ _ _____
 72
    65
 73
     6
 40
13.5
 49
9.0
 74
     0
 49
-1.0
 74
     0
 49
1.0
 74
     0
 49
-0.5
 74
     0
 49
1.0
 74
     0
 49
-1.0
 74
     0
  0
LTYPE
  5
13
100
AcDbSymbolTableRecord
100
AcDbLinetypeTableRecord
  2
DOT
 70
     0
  3
...............................................
 72
    65
 73
     2
 40
1.0
 49
0.5
 74
     0
 49
-0.5
 74
     0
  0
LTYPE
  5
14
100
AcDbSymbolTableRecord
100
AcDbLinetypeTableRecord
  2
DASHDOT
 70
     0
  3
__ . __ . __ . __ . __ . __ . __ . __ . __ . __
 72
    65
 73
     4
 40
8.0
 49
5.0
 74
     0
 49
-1.0
 74
     0
 49
1.0
 74
     0
 49
-1.0
 74
     0
  0
ENDTAB
  0
TABLE
  2
LAYER
  5
1
100
AcDbSymbolTable
 70
     4
  0
LAYER
  5
15
100
AcDbSymbolTableRecord
100
AcDbLayerTableRecord
  2
0
 70
     0
 62
   225
  6
CONTINUOUS
290
     1
370
    -3
390
0
  0
LAYER
  5
16
100
AcDbSymbolTableRecord
100
AcDbLayerTableRecord
  2
1
 70
     0
 62
     2
  6
CONTINUOUS
290
     1
370
    -3
390
0
  0
LAYER
  5
17
100
AcDbSymbolTableRecord
100
AcDbLayerTableRecord
  2
2
 70
     0
 62
     3
  6
CONTINUOUS
290
     1
370
    -3
390
0
  0
LAYER
  5
18
100
AcDbSymbolTableRecord
100
AcDbLayerTableRecord
  2
3
 70
     0
 62
     4
  6
CONTINUOUS
290
     1
370
    -3
390
0
  0
ENDTAB
  0
TABLE
  2
STYLE
  5
2
100
AcDbSymbolTable
 70
     1
  0
STYLE
  5
1B
100
AcDbSymbolTableRecord
100
AcDbTextStyleTableRecord
  2
STANDARD
 70
    64
 40
0.0
 41
1.0
 50
0.0
 71
     0
 42
1.0
  3
txt
  4
BIGFONT
  0
ENDTAB
  0
TABLE
  2
VIEW
  5
4
100
AcDbSymbolTable
 70
     0
  0
ENDTAB
  0
TABLE
  2
UCS
  5
5
100
AcDbSymbolTable
 70
     0
  0
ENDTAB
  0
TABLE
  2
APPID
  5
7
100
AcDbSymbolTable
 70
     1
  0
APPID
  5
1A
100
AcDbSymbolTableRecord
100
AcDbRegAppTableRecord
  2
ACAD
 70
     0
  0
ENDTAB
  0
TABLE
  2
DIMSTYLE
  5
8
100
AcDbSymbolTable
 70
     1
100
AcDbDimStyleTable
 71
     0
  0
DIMSTYLE
105
30
100
AcDbSymbolTableRecord
100
AcDbDimStyleTableRecord
  2
Standard
 70
     0
  3

  4

 40
3.0
 41
2.0
 42
1.0
 43
0.38
 44
2.0
 45
0.0
 46
0.0
 47
0.0
 48
0.0
 71
     0
 72
     0
 73
     0
 74
     0
 75
     0
 76
     0
 77
     1
 78
     0
 79
     0
140
3.5
141
0.09
142
0.0
143
25.4
144
1.0
145
0.0
146
1.0
147
0.5
148
0.0
170
     0
171
     2
172
     0
173
     0
174
     0
175
     0
176
     0
177
     0
178
     0
179
     0
271
     3
272
     4
273
     2
274
     2
275
     0
276
     0
277
     2
278
    46
279
     0
280
     0
281
     0
282
     0
283
     1
284
     0
285
     0
286
     0
288
     0
289
     3
340
1B
341
0
342
0
343
0
344
0
371
    -2
372
    -2
  0
ENDTAB
  0
TABLE
  2
BLOCK_RECORD
  5
2B
100
AcDbSymbolTable
 70
    13
  0
BLOCK_RECORD
  5
29
100
AcDbSymbolTableRecord
100
AcDbBlockTableRecord
  2
*Model_Space
340
0
  0
BLOCK_RECORD
  5
2A
100
AcDbSymbolTableRecord
100
AcDbBlockTableRecord
  2
*Paper_Space
340
0
  0
BLOCK_RECORD
  5
1C
100
AcDbSymbolTableRecord
100
AcDbBlockTableRecord
  2
*D0
340
0
  0
BLOCK_RECORD
  5
1D
100
AcDbSymbolTableRecord
100
AcDbBlockTableRecord
  2
*D1
340
0
  0
BLOCK_RECORD
  5
1E
100
AcDbSymbolTableRecord
100
AcDbBlockTableRecord
  2
*D2
340
0
  0
BLOCK_RECORD
  5
1F
100
AcDbSymbolTableRecord
100
AcDbBlockTableRecord
  2
*D3
340
0
  0
BLOCK_RECORD
  5
20
100
AcDbSymbolTableRecord
100
AcDbBlockTableRecord
  2
*D4
340
0
  0
BLOCK_RECORD
  5
21
100
AcDbSymbolTableRecord
100
AcDbBlockTableRecord
  2
*D5
340
0
  0
BLOCK_RECORD
  5
22
100
AcDbSymbolTableRecord
100
AcDbBlockTableRecord
  2
*D6
340
0
  0
BLOCK_RECORD
  5
23
100
AcDbSymbolTableRecord
100
AcDbBlockTableRecord
  2
*D7
340
0
  0
BLOCK_RECORD
  5
24
100
AcDbSymbolTableRecord
100
AcDbBlockTableRecord
  2
*D8
340
0
  0
BLOCK_RECORD
  5
25
100
AcDbSymbolTableRecord
100
AcDbBlockTableRecord
  2
*D9
340
0
  0
BLOCK_RECORD
  5
26
100
AcDbSymbolTableRecord
100
AcDbBlockTableRecord
  2
*D10
340
0
  0
BLOCK_RECORD
  5
27
100
AcDbSymbolTableRecord
100
AcDbBlockTableRecord
  2
*D11
340
0
  0
BLOCK_RECORD
  5
28
100
AcDbSymbolTableRecord
100
AcDbBlockTableRecord
  2
*D12
340
0
  0
ENDTAB
  0
ENDSEC
  0
SECTION
  2
BLOCKS
  0
BLOCK
  5
2C
100
AcDbEntity
  8
0
390
0
100
AcDbBlockBegin
  2
*Model_Space
 70
     0
 10
0.0
 20
0.0
 30
0.0
  3
*Model_Space
  1

  0
ENDBLK
  5
2D
100
AcDbEntity
  8
0
390
0
100
AcDbBlockEnd
  0
BLOCK
  5
2E
100
AcDbEntity
 67
     1
  8
0
390
0
100
AcDbBlockBegin
  2
*Paper_Space
 70
     0
 10
0.0
 20
0.0
 30
0.0
  3
*Paper_Space
  1

  0
ENDBLK
  5
2F
100
AcDbEntity
 67
     1
  8
0
390
0
100
AcDbBlockEnd
  0
BLOCK
  5
3EE
100
AcDbEntity
  8
3
100
AcDbBlockBegin
  2
*D0
 70
     1
 10
0.0
 20
0.0
 30
0.0
  3
*D0
  1

  0
TEXT
  5
3EF
100
AcDbEntity
  8
3
370
    25
100
AcDbText
 10
203.131948
 20
30.757825
 30
0.0
 40
10.5
  1
２５゜
 50
69.988657
 72
     5
 11
213.19281
 21
58.382797
 31
0.0
100
AcDbText
  0
LINE
  5
3F0
100
AcDbEntity
  8
3
370
    25
100
AcDbLine
 10
264.870644
 20
48.384154
 30
0.0
 11
221.798501
 21
75.836125
 31
0.0
  0
LINE
  5
3F1
100
AcDbEntity
  8
3
370
    25
100
AcDbLine
 10
226.195698
 20
10.273922
 30
0.0
 11
199.216657
 21
13.831214
 31
0.0
  0
LINE
  5
3F2
100
AcDbEntity
  8
3
370
    25
100
AcDbLine
 10
224.328357
 20
74.223725
 30
0.0
 11
219.983306
 21
70.086028
 31
0.0
  0
LINE
  5
3F3
100
AcDbEntity
  8
3
370
    25
100
AcDbLine
 10
224.328357
 20
74.223725
 30
0.0
 11
222.63428
 21
68.467849
 31
0.0
  0
LINE
  5
3F4
100
AcDbEntity
  8
3
370
    25
100
AcDbLine
 10
219.983306
 20
70.086028
 30
0.0
 11
222.63428
 21
68.467849
 31
0.0
  0
LINE
  5
3F5
100
AcDbEntity
  8
3
370
    25
100
AcDbLine
 10
202.190914
 20
13.439047
 30
0.0
 11
204.595159
 21
18.936283
 31
0.0
  0
LINE
  5
3F6
100
AcDbEntity
  8
3
370
    25
100
AcDbLine
 10
202.190914
 20
13.439047
 30
0.0
 11
201.524433
 21
19.401915
 31
0.0
  0
LINE
  5
3F7
100
AcDbEntity
  8
3
370
    25
100
AcDbLine
 10
204.595159
 20
18.936283
 30
0.0
 11
201.524433
 21
19.401915
 31
0.0
  0
ARC
  5
3F8
100
AcDbEntity
  8
3
370
    25
100
AcDbCircle
 10
350.350618
 20
-6.09639
 30
0.0
 40
149.442067
100
AcDbArc
 50
147.488657
 51
172.488657
  0
ENDBLK
  5
3F9
100
AcDbEntity
  8
3
100
AcDbBlockEnd
  0
BLOCK
  5
3FA
100
AcDbEntity
  8
3
100
AcDbBlockBegin
  2
*D1
 70
     1
 10
0.0
 20
0.0
 30
0.0
  3
*D1
  1

  0
LINE
  5
3FB
100
AcDbEntity
  8
3
370
    25
100
AcDbLine
 10
359.743817
 20
-134.73921
 30
0.0
 11
498.952744
 21
-134.73921
 31
0.0
  0
LINE
  5
3FC
100
AcDbEntity
  8
3
370
    25
100
AcDbLine
 10
495.952744
 20
-134.73921
 30
0.0
 11
497.505658
 21
-128.943655
 31
0.0
  0
LINE
  5
3FD
100
AcDbEntity
  8
3
370
    25
100
AcDbLine
 10
495.952744
 20
-134.73921
 30
0.0
 11
494.399829
 21
-128.943655
 31
0.0
  0
LINE
  5
3FE
100
AcDbEntity
  8
3
370
    25
100
AcDbLine
 10
497.505658
 20
-128.943655
 30
0.0
 11
494.399829
 21
-128.943655
 31
0.0
  0
LINE
  5
3FF
100
AcDbEntity
  8
3
370
    25
100
AcDbLine
 10
495.952744
 20
-134.73921
 30
0.0
 11
495.952744
 21
9.322759
 31
0.0
  0
LINE
  5
400
100
AcDbEntity
  8
3
370
    25
100
AcDbLine
 10
495.952744
 20
9.322759
 30
0.0
 11
494.399829
 21
3.527204
 31
0.0
  0
LINE
  5
401
100
AcDbEntity
  8
3
370
    25
100
AcDbLine
 10
495.952744
 20
9.322759
 30
0.0
 11
497.505658
 21
3.527204
 31
0.0
  0
LINE
  5
402
100
AcDbEntity
  8
3
370
    25
100
AcDbLine
 10
494.399829
 20
3.527204
 30
0.0
 11
497.505658
 21
3.527204
 31
0.0
  0
LINE
  5
403
100
AcDbEntity
  8
3
370
    25
100
AcDbLine
 10
236.343817
 20
9.322759
 30
0.0
 11
498.952744
 21
9.322759
 31
0.0
  0
ENDBLK
  5
404
100
AcDbEntity
  8
3
100
AcDbBlockEnd
  0
BLOCK
  5
405
100
AcDbEntity
  8
3
100
AcDbBlockBegin
  2
*D2
 70
     1
 10
0.0
 20
0.0
 30
0.0
  3
*D2
  1

  0
LINE
  5
406
100
AcDbEntity
  8
3
370
    25
100
AcDbLine
 10
359.743817
 20
-134.73921
 30
0.0
 11
520.908417
 21
-134.73921
 31
0.0
  0
LINE
  5
407
100
AcDbEntity
  8
3
370
    25
100
AcDbLine
 10
517.908417
 20
-134.73921
 30
0.0
 11
519.461331
 21
-128.943655
 31
0.0
  0
LINE
  5
408
100
AcDbEntity
  8
3
370
    25
100
AcDbLine
 10
517.908417
 20
-134.73921
 30
0.0
 11
516.355502
 21
-128.943655
 31
0.0
  0
LINE
  5
409
100
AcDbEntity
  8
3
370
    25
100
AcDbLine
 10
519.461331
 20
-128.943655
 30
0.0
 11
516.355502
 21
-128.943655
 31
0.0
  0
LINE
  5
40A
100
AcDbEntity
  8
3
370
    25
100
AcDbLine
 10
517.908417
 20
-134.73921
 30
0.0
 11
517.908417
 21
45.178598
 31
0.0
  0
LINE
  5
40B
100
AcDbEntity
  8
3
370
    25
100
AcDbLine
 10
517.908417
 20
45.178598
 30
0.0
 11
516.355502
 21
39.383043
 31
0.0
  0
LINE
  5
40C
100
AcDbEntity
  8
3
370
    25
100
AcDbLine
 10
517.908417
 20
45.178598
 30
0.0
 11
519.461331
 21
39.383043
 31
0.0
  0
LINE
  5
40D
100
AcDbEntity
  8
3
370
    25
100
AcDbLine
 10
516.355502
 20
39.383043
 30
0.0
 11
519.461331
 21
39.383043
 31
0.0
  0
LINE
  5
40E
100
AcDbEntity
  8
3
370
    25
100
AcDbLine
 10
272.608581
 20
45.178598
 30
0.0
 11
520.908417
 21
45.178598
 31
0.0
  0
ENDBLK
  5
40F
100
AcDbEntity
  8
3
100
AcDbBlockEnd
  0
BLOCK
  5
410
100
AcDbEntity
  8
3
100
AcDbBlockBegin
  2
*D3
 70
     1
 10
0.0
 20
0.0
 30
0.0
  3
*D3
  1

  0
TEXT
  5
411
100
AcDbEntity
  8
3
370
    25
100
AcDbText
 10
267.343817
 20
-60.46382
 30
0.0
 40
10.5
  1
φ４３
 72
     5
 11
296.743817
 21
-60.46382
 31
0.0
100
AcDbText
  0
LINE
  5
412
100
AcDbEntity
  8
3
370
    25
100
AcDbLine
 10
310.843817
 20
-61.03921
 30
0.0
 11
310.843817
 21
-64.96382
 31
0.0
  0
LINE
  5
413
100
AcDbEntity
  8
3
370
    25
100
AcDbLine
 10
310.843817
 20
-61.96382
 30
0.0
 11
305.048262
 21
-60.410905
 31
0.0
  0
LINE
  5
414
100
AcDbEntity
  8
3
370
    25
100
AcDbLine
 10
310.843817
 20
-61.96382
 30
0.0
 11
305.048262
 21
-63.516734
 31
0.0
  0
LINE
  5
415
100
AcDbEntity
  8
3
370
    25
100
AcDbLine
 10
305.048262
 20
-60.410905
 30
0.0
 11
305.048262
 21
-63.516734
 31
0.0
  0
LINE
  5
416
100
AcDbEntity
  8
3
370
    25
100
AcDbLine
 10
267.343817
 20
-61.96382
 30
0.0
 11
368.843817
 21
-61.96382
 31
0.0
  0
LINE
  5
417
100
AcDbEntity
  8
3
370
    25
100
AcDbLine
 10
353.843817
 20
-61.96382
 30
0.0
 11
359.639372
 21
-63.516734
 31
0.0
  0
LINE
  5
418
100
AcDbEntity
  8
3
370
    25
100
AcDbLine
 10
353.843817
 20
-61.96382
 30
0.0
 11
359.639372
 21
-60.410905
 31
0.0
  0
LINE
  5
419
100
AcDbEntity
  8
3
370
    25
100
AcDbLine
 10
359.639372
 20
-63.516734
 30
0.0
 11
359.639372
 21
-60.410905
 31
0.0
  0
LINE
  5
41A
100
AcDbEntity
  8
3
370
    25
100
AcDbLine
 10
353.843817
 20
-61.03921
 30
0.0
 11
353.843817
 21
-64.96382
 31
0.0
  0
ENDBLK
  5
41B
100
AcDbEntity
  8
3
100
AcDbBlockEnd
  0
BLOCK
  5
41C
100
AcDbEntity
  8
3
100
AcDbBlockBegin
  2
*D4
 70
     1
 10
0.0
 20
0.0
 30
0.0
  3
*D4
  1

  0
LINE
  5
41D
100
AcDbEntity
  8
3
370
    25
100
AcDbLine
 10
-193.633075
 20
-126.239403
 30
0.0
 11
-193.633075
 21
-108.656944
 31
0.0
  0
LINE
  5
41E
100
AcDbEntity
  8
3
370
    25
100
AcDbLine
 10
-193.633075
 20
-111.656944
 30
0.0
 11
-187.83752
 21
-113.209859
 31
0.0
  0
LINE
  5
41F
100
AcDbEntity
  8
3
370
    25
100
AcDbLine
 10
-193.633075
 20
-111.656944
 30
0.0
 11
-187.83752
 21
-110.10403
 31
0.0
  0
LINE
  5
420
100
AcDbEntity
  8
3
370
    25
100
AcDbLine
 10
-187.83752
 20
-113.209859
 30
0.0
 11
-187.83752
 21
-110.10403
 31
0.0
  0
LINE
  5
421
100
AcDbEntity
  8
3
370
    25
100
AcDbLine
 10
-150.133075
 20
-111.656944
 30
0.0
 11
-258.433075
 21
-111.656944
 31
0.0
  0
LINE
  5
422
100
AcDbEntity
  8
3
370
    25
100
AcDbLine
 10
-243.433075
 20
-111.656944
 30
0.0
 11
-249.22863
 21
-110.10403
 31
0.0
  0
LINE
  5
423
100
AcDbEntity
  8
3
370
    25
100
AcDbLine
 10
-243.433075
 20
-111.656944
 30
0.0
 11
-249.22863
 21
-113.209859
 31
0.0
  0
LINE
  5
424
100
AcDbEntity
  8
3
370
    25
100
AcDbLine
 10
-249.22863
 20
-110.10403
 30
0.0
 11
-249.22863
 21
-113.209859
 31
0.0
  0
LINE
  5
425
100
AcDbEntity
  8
3
370
    25
100
AcDbLine
 10
-243.433075
 20
-126.239403
 30
0.0
 11
-243.433075
 21
-108.656944
 31
0.0
  0
ENDBLK
  5
426
100
AcDbEntity
  8
3
100
AcDbBlockEnd
  0
BLOCK
  5
427
100
AcDbEntity
  8
3
100
AcDbBlockBegin
  2
*D5
 70
     1
 10
0.0
 20
0.0
 30
0.0
  3
*D5
  1

  0
LINE
  5
428
100
AcDbEntity
  8
3
370
    25
100
AcDbLine
 10
-280.898697
 20
-313.548788
 30
0.0
 11
-415.306
 21
-313.548788
 31
0.0
  0
LINE
  5
429
100
AcDbEntity
  8
3
370
    25
100
AcDbLine
 10
-412.306
 20
-313.548788
 30
0.0
 11
-410.753085
 21
-307.753233
 31
0.0
  0
LINE
  5
42A
100
AcDbEntity
  8
3
370
    25
100
AcDbLine
 10
-412.306
 20
-313.548788
 30
0.0
 11
-413.858914
 21
-307.753233
 31
0.0
  0
LINE
  5
42B
100
AcDbEntity
  8
3
370
    25
100
AcDbLine
 10
-410.753085
 20
-307.753233
 30
0.0
 11
-413.858914
 21
-307.753233
 31
0.0
  0
LINE
  5
42C
100
AcDbEntity
  8
3
370
    25
100
AcDbLine
 10
-412.306
 20
-313.548788
 30
0.0
 11
-412.306
 21
-134.739403
 31
0.0
  0
LINE
  5
42D
100
AcDbEntity
  8
3
370
    25
100
AcDbLine
 10
-412.306
 20
-134.739403
 30
0.0
 11
-413.858914
 21
-140.534958
 31
0.0
  0
LINE
  5
42E
100
AcDbEntity
  8
3
370
    25
100
AcDbLine
 10
-412.306
 20
-134.739403
 30
0.0
 11
-410.753085
 21
-140.534958
 31
0.0
  0
LINE
  5
42F
100
AcDbEntity
  8
3
370
    25
100
AcDbLine
 10
-413.858914
 20
-140.534958
 30
0.0
 11
-410.753085
 21
-140.534958
 31
0.0
  0
LINE
  5
430
100
AcDbEntity
  8
3
370
    25
100
AcDbLine
 10
-245.933075
 20
-134.739403
 30
0.0
 11
-415.306
 21
-134.739403
 31
0.0
  0
ENDBLK
  5
431
100
AcDbEntity
  8
3
100
AcDbBlockEnd
  0
BLOCK
  5
432
100
AcDbEntity
  8
3
100
AcDbBlockBegin
  2
*D6
 70
     1
 10
0.0
 20
0.0
 30
0.0
  3
*D6
  1

  0
LINE
  5
433
100
AcDbEntity
  8
3
370
    25
100
AcDbLine
 10
-156.168214
 20
-313.548788
 30
0.0
 11
-11.123082
 21
-313.548788
 31
0.0
  0
LINE
  5
434
100
AcDbEntity
  8
3
370
    25
100
AcDbLine
 10
-14.123082
 20
-313.548788
 30
0.0
 11
-12.570168
 21
-307.753233
 31
0.0
  0
LINE
  5
435
100
AcDbEntity
  8
3
370
    25
100
AcDbLine
 10
-14.123082
 20
-313.548788
 30
0.0
 11
-15.675996
 21
-307.753233
 31
0.0
  0
LINE
  5
436
100
AcDbEntity
  8
3
370
    25
100
AcDbLine
 10
-12.570168
 20
-307.753233
 30
0.0
 11
-15.675996
 21
-307.753233
 31
0.0
  0
LINE
  5
437
100
AcDbEntity
  8
3
370
    25
100
AcDbLine
 10
-14.123082
 20
-313.548788
 30
0.0
 11
-14.123082
 21
-134.739403
 31
0.0
  0
LINE
  5
438
100
AcDbEntity
  8
3
370
    25
100
AcDbLine
 10
-14.123082
 20
-134.739403
 30
0.0
 11
-15.675996
 21
-140.534958
 31
0.0
  0
LINE
  5
439
100
AcDbEntity
  8
3
370
    25
100
AcDbLine
 10
-14.123082
 20
-134.739403
 30
0.0
 11
-12.570168
 21
-140.534958
 31
0.0
  0
LINE
  5
43A
100
AcDbEntity
  8
3
370
    25
100
AcDbLine
 10
-15.675996
 20
-140.534958
 30
0.0
 11
-12.570168
 21
-140.534958
 31
0.0
  0
LINE
  5
43B
100
AcDbEntity
  8
3
370
    25
100
AcDbLine
 10
-191.133075
 20
-134.739403
 30
0.0
 11
-11.123082
 21
-134.739403
 31
0.0
  0
ENDBLK
  5
43C
100
AcDbEntity
  8
3
100
AcDbBlockEnd
  0
BLOCK
  5
43D
100
AcDbEntity
  8
3
100
AcDbBlockBegin
  2
*D7
 70
     1
 10
0.0
 20
0.0
 30
0.0
  3
*D7
  1

  0
TEXT
  5
43E
100
AcDbEntity
  8
3
370
    25
100
AcDbText
 10
-201.568467
 20
196.862559
 30
0.0
 40
10.5
  1
３０゜
 50
15.0
 72
     5
 11
-173.170248
 21
204.471838
 31
0.0
100
AcDbText
  0
LINE
  5
43F
100
AcDbEntity
  8
3
370
    25
100
AcDbLine
 10
-163.811243
 20
226.247671
 30
0.0
 11
-154.120069
 21
209.462065
 31
0.0
  0
LINE
  5
440
100
AcDbEntity
  8
3
370
    25
100
AcDbLine
 10
-218.533075
 20
195.202652
 30
0.0
 11
-212.703293
 21
193.783622
 31
0.0
  0
LINE
  5
441
100
AcDbEntity
  8
3
370
    25
100
AcDbLine
 10
-218.533075
 20
195.202652
 30
0.0
 11
-212.774821
 21
196.888627
 31
0.0
  0
LINE
  5
442
100
AcDbEntity
  8
3
370
    25
100
AcDbLine
 10
-212.703293
 20
193.783622
 30
0.0
 11
-212.774821
 21
196.888627
 31
0.0
  0
LINE
  5
443
100
AcDbEntity
  8
3
370
    25
100
AcDbLine
 10
-155.620069
 20
212.060141
 30
0.0
 11
-161.449851
 21
210.641111
 31
0.0
  0
LINE
  5
444
100
AcDbEntity
  8
3
370
    25
100
AcDbLine
 10
-155.620069
 20
212.060141
 30
0.0
 11
-159.959293
 21
207.916334
 31
0.0
  0
LINE
  5
445
100
AcDbEntity
  8
3
370
    25
100
AcDbLine
 10
-161.449851
 20
210.641111
 30
0.0
 11
-159.959293
 21
207.916334
 31
0.0
  0
ARC
  5
446
100
AcDbEntity
  8
3
370
    25
100
AcDbCircle
 10
-218.533075
 20
321.028664
 30
0.0
 40
125.826011
100
AcDbArc
 50
270.0
 51
300.0
  0
ENDBLK
  5
447
100
AcDbEntity
  8
3
100
AcDbBlockEnd
  0
BLOCK
  5
448
100
AcDbEntity
  8
3
100
AcDbBlockBegin
  2
*D8
 70
     1
 10
0.0
 20
0.0
 30
0.0
  3
*D8
  1

  0
TEXT
  5
449
100
AcDbEntity
  8
3
370
    25
100
AcDbText
 10
-294.33598
 20
221.23418
 30
0.0
 40
10.5
  1
６０゜
 50
330.0
 72
     5
 11
-268.874834
 21
206.53418
 31
0.0
100
AcDbText
  0
LINE
  5
44A
100
AcDbEntity
  8
3
370
    25
100
AcDbLine
 10
-327.501597
 20
258.115658
 30
0.0
 11
-325.815623
 21
252.357404
 31
0.0
  0
LINE
  5
44B
100
AcDbEntity
  8
3
370
    25
100
AcDbLine
 10
-327.501597
 20
258.115658
 30
0.0
 11
-323.162373
 21
253.971851
 31
0.0
  0
LINE
  5
44C
100
AcDbEntity
  8
3
370
    25
100
AcDbLine
 10
-325.815623
 20
252.357404
 30
0.0
 11
-323.162373
 21
253.971851
 31
0.0
  0
LINE
  5
44D
100
AcDbEntity
  8
3
370
    25
100
AcDbLine
 10
-218.533075
 20
195.202652
 30
0.0
 11
-224.291329
 21
196.888627
 31
0.0
  0
LINE
  5
44E
100
AcDbEntity
  8
3
370
    25
100
AcDbLine
 10
-218.533075
 20
195.202652
 30
0.0
 11
-224.362856
 21
193.783622
 31
0.0
  0
LINE
  5
44F
100
AcDbEntity
  8
3
370
    25
100
AcDbLine
 10
-224.291329
 20
196.888627
 30
0.0
 11
-224.362856
 21
193.783622
 31
0.0
  0
ARC
  5
450
100
AcDbEntity
  8
3
370
    25
100
AcDbCircle
 10
-218.533075
 20
321.028664
 30
0.0
 40
125.826011
100
AcDbArc
 50
210.0
 51
270.0
  0
ENDBLK
  5
451
100
AcDbEntity
  8
3
100
AcDbBlockEnd
  0
BLOCK
  5
452
100
AcDbEntity
  8
3
100
AcDbBlockBegin
  2
*D9
 70
     1
 10
0.0
 20
0.0
 30
0.0
  3
*D9
  1

  0
TEXT
  5
453
100
AcDbEntity
  8
3
370
    25
100
AcDbText
 10
-239.533075
 20
99.053786
 30
0.0
 40
10.5
  1
１２０゜
 72
     5
 11
-199.633075
 21
99.053786
 31
0.0
100
AcDbText
  0
LINE
  5
454
100
AcDbEntity
  8
3
370
    25
100
AcDbLine
 10
-403.498966
 20
214.238556
 30
0.0
 11
-414.666072
 21
207.791225
 31
0.0
  0
LINE
  5
455
100
AcDbEntity
  8
3
370
    25
100
AcDbLine
 10
-33.567183
 20
214.238556
 30
0.0
 11
-22.400077
 21
207.791225
 31
0.0
  0
LINE
  5
456
100
AcDbEntity
  8
3
370
    25
100
AcDbLine
 10
-412.067996
 20
209.291225
 30
0.0
 11
-410.440062
 21
203.516294
 31
0.0
  0
LINE
  5
457
100
AcDbEntity
  8
3
370
    25
100
AcDbLine
 10
-412.067996
 20
209.291225
 30
0.0
 11
-407.770698
 21
205.103955
 31
0.0
  0
LINE
  5
458
100
AcDbEntity
  8
3
370
    25
100
AcDbLine
 10
-410.440062
 20
203.516294
 30
0.0
 11
-407.770698
 21
205.103955
 31
0.0
  0
LINE
  5
459
100
AcDbEntity
  8
3
370
    25
100
AcDbLine
 10
-24.998153
 20
209.291225
 30
0.0
 11
-29.295451
 21
205.103955
 31
0.0
  0
LINE
  5
45A
100
AcDbEntity
  8
3
370
    25
100
AcDbLine
 10
-24.998153
 20
209.291225
 30
0.0
 11
-26.626088
 21
203.516294
 31
0.0
  0
LINE
  5
45B
100
AcDbEntity
  8
3
370
    25
100
AcDbLine
 10
-29.295451
 20
205.103955
 30
0.0
 11
-26.626088
 21
203.516294
 31
0.0
  0
ARC
  5
45C
100
AcDbEntity
  8
3
370
    25
100
AcDbCircle
 10
-218.533075
 20
321.028664
 30
0.0
 40
223.474878
100
AcDbArc
 50
210.0
 51
330.0
  0
ENDBLK
  5
45D
100
AcDbEntity
  8
3
100
AcDbBlockEnd
  0
BLOCK
  5
45E
100
AcDbEntity
  8
3
100
AcDbBlockBegin
  2
*D10
 70
     1
 10
0.0
 20
0.0
 30
0.0
  3
*D10
  1

  0
TEXT
  5
45F
100
AcDbEntity
  8
3
370
    25
100
AcDbText
 10
119.169135
 20
-50.209328
 30
0.0
 40
10.5
  1
８゜
 50
356.0
 72
     5
 11
138.023095
 21
-51.527725
 31
0.0
100
AcDbText
  0
LINE
  5
460
100
AcDbEntity
  8
3
370
    25
100
AcDbLine
 10
130.161378
 20
-35.855114
 30
0.0
 11
127.438134
 21
-55.232003
 31
0.0
  0
LINE
  5
461
100
AcDbEntity
  8
3
370
    25
100
AcDbLine
 10
131.230433
 20
-31.248396
 30
0.0
 11
131.230433
 21
-55.497186
 31
0.0
  0
LINE
  5
462
100
AcDbEntity
  8
3
370
    25
100
AcDbLine
 10
127.855653
 20
-52.261198
 30
0.0
 11
122.652361
 21
-49.273599
 31
0.0
  0
LINE
  5
463
100
AcDbEntity
  8
3
370
    25
100
AcDbLine
 10
127.855653
 20
-52.261198
 30
0.0
 11
121.85567
 21
-52.275507
 31
0.0
  0
LINE
  5
464
100
AcDbEntity
  8
3
370
    25
100
AcDbLine
 10
122.652361
 20
-49.273599
 30
0.0
 11
121.85567
 21
-52.275507
 31
0.0
  0
LINE
  5
465
100
AcDbEntity
  8
3
370
    25
100
AcDbLine
 10
131.230433
 20
-52.497186
 30
0.0
 11
137.170033
 21
-53.346392
 31
0.0
  0
LINE
  5
466
100
AcDbEntity
  8
3
370
    25
100
AcDbLine
 10
131.230433
 20
-52.497186
 30
0.0
 11
136.79888
 21
-50.26282
 31
0.0
  0
LINE
  5
467
100
AcDbEntity
  8
3
370
    25
100
AcDbLine
 10
137.170033
 20
-53.346392
 30
0.0
 11
136.79888
 21
-50.26282
 31
0.0
  0
ARC
  5
468
100
AcDbEntity
  8
3
370
    25
100
AcDbCircle
 10
131.230433
 20
-28.248396
 30
0.0
 40
24.24879
100
AcDbArc
 50
230.25958
 51
301.74042
  0
ENDBLK
  5
469
100
AcDbEntity
  8
3
100
AcDbBlockEnd
  0
BLOCK
  5
46A
100
AcDbEntity
  8
3
100
AcDbBlockBegin
  2
*D11
 70
     1
 10
0.0
 20
0.0
 30
0.0
  3
*D11
  1

  0
LINE
  5
46B
100
AcDbEntity
  8
3
370
    25
100
AcDbLine
 10
304.943817
 20
-134.73921
 30
0.0
 11
98.543247
 21
-134.73921
 31
0.0
  0
LINE
  5
46C
100
AcDbEntity
  8
3
370
    25
100
AcDbLine
 10
101.543247
 20
-134.73921
 30
0.0
 11
103.096161
 21
-128.943655
 31
0.0
  0
LINE
  5
46D
100
AcDbEntity
  8
3
370
    25
100
AcDbLine
 10
101.543247
 20
-134.73921
 30
0.0
 11
99.990333
 21
-128.943655
 31
0.0
  0
LINE
  5
46E
100
AcDbEntity
  8
3
370
    25
100
AcDbLine
 10
103.096161
 20
-128.943655
 30
0.0
 11
99.990333
 21
-128.943655
 31
0.0
  0
LINE
  5
46F
100
AcDbEntity
  8
3
370
    25
100
AcDbLine
 10
101.543247
 20
-134.73921
 30
0.0
 11
101.543247
 21
-28.248396
 31
0.0
  0
LINE
  5
470
100
AcDbEntity
  8
3
370
    25
100
AcDbLine
 10
101.543247
 20
-28.248396
 30
0.0
 11
99.990333
 21
-34.043951
 31
0.0
  0
LINE
  5
471
100
AcDbEntity
  8
3
370
    25
100
AcDbLine
 10
101.543247
 20
-28.248396
 30
0.0
 11
103.096161
 21
-34.043951
 31
0.0
  0
LINE
  5
472
100
AcDbEntity
  8
3
370
    25
100
AcDbLine
 10
99.990333
 20
-34.043951
 30
0.0
 11
103.096161
 21
-34.043951
 31
0.0
  0
LINE
  5
473
100
AcDbEntity
  8
3
370
    25
100
AcDbLine
 10
128.230433
 20
-28.248396
 30
0.0
 11
98.543247
 21
-28.248396
 31
0.0
  0
ENDBLK
  5
474
100
AcDbEntity
  8
3
100
AcDbBlockEnd
  0
BLOCK
  5
475
100
AcDbEntity
  8
3
100
AcDbBlockBegin
  2
*D12
 70
     1
 10
0.0
 20
0.0
 30
0.0
  3
*D12
  1

  0
TEXT
  5
476
100
AcDbEntity
  8
3
370
    25
100
AcDbText
 10
216.037125
 20
-183.318592
 30
0.0
 40
10.5
  1
２０１
 72
     5
 11
245.437125
 21
-183.318592
 31
0.0
100
AcDbText
  0
LINE
  5
477
100
AcDbEntity
  8
3
370
    25
100
AcDbLine
 10
131.230433
 20
-31.248396
 30
0.0
 11
131.230433
 21
-187.818592
 31
0.0
  0
LINE
  5
478
100
AcDbEntity
  8
3
370
    25
100
AcDbLine
 10
131.230433
 20
-184.818592
 30
0.0
 11
137.025988
 21
-186.371506
 31
0.0
  0
LINE
  5
479
100
AcDbEntity
  8
3
370
    25
100
AcDbLine
 10
131.230433
 20
-184.818592
 30
0.0
 11
137.025988
 21
-183.265678
 31
0.0
  0
LINE
  5
47A
100
AcDbEntity
  8
3
370
    25
100
AcDbLine
 10
137.025988
 20
-186.371506
 30
0.0
 11
137.025988
 21
-183.265678
 31
0.0
  0
LINE
  5
47B
100
AcDbEntity
  8
3
370
    25
100
AcDbLine
 10
131.230433
 20
-184.818592
 30
0.0
 11
332.343817
 21
-184.818592
 31
0.0
  0
LINE
  5
47C
100
AcDbEntity
  8
3
370
    25
100
AcDbLine
 10
332.343817
 20
-184.818592
 30
0.0
 11
326.548262
 21
-183.265678
 31
0.0
  0
LINE
  5
47D
100
AcDbEntity
  8
3
370
    25
100
AcDbLine
 10
332.343817
 20
-184.818592
 30
0.0
 11
326.548262
 21
-186.371506
 31
0.0
  0
LINE
  5
47E
100
AcDbEntity
  8
3
370
    25
100
AcDbLine
 10
326.548262
 20
-183.265678
 30
0.0
 11
326.548262
 21
-186.371506
 31
0.0
  0
LINE
  5
47F
100
AcDbEntity
  8
3
370
    25
100
AcDbLine
 10
332.343817
 20
-137.73921
 30
0.0
 11
332.343817
 21
-187.818592
 31
0.0
  0
ENDBLK
  5
480
100
AcDbEntity
  8
3
100
AcDbBlockEnd
  0
ENDSEC
  0
SECTION
  2
ENTITIES
  0
LINE
  5
31
100
AcDbEntity
  8
1
370
   100
100
AcDbLine
 10
-559.532355
 20
412.543151
 30
0.0
 11
592.473578
 21
412.543151
 31
0.0
  0
LINE
  5
32
100
AcDbEntity
  8
1
370
   100
100
AcDbLine
 10
-559.532355
 20
412.543151
 30
0.0
 11
-559.532355
 21
-416.957822
 31
0.0
  0
LINE
  5
33
100
AcDbEntity
  8
1
370
   100
100
AcDbLine
 10
-559.532355
 20
-416.957822
 30
0.0
 11
592.473578
 21
-416.957822
 31
0.0
  0
LINE
  5
34
100
AcDbEntity
  8
1
370
   100
100
AcDbLine
 10
592.473578
 20
-416.957822
 30
0.0
 11
592.473578
 21
412.543151
 31
0.0
  0
TEXT
  5
35
100
AcDbEntity
  8
1
370
    50
100
AcDbText
 10
539.442664
 20
-339.379285
 30
0.0
 40
9.0
  1
設計
 72
     5
 11
555.642664
 21
-339.379285
 31
0.0
100
AcDbText
  0
TEXT
  5
36
100
AcDbEntity
  8
1
370
    50
100
AcDbText
 10
568.691217
 20
-339.149488
 30
0.0
 40
9.0
  1
製図
 72
     5
 11
584.891217
 21
-339.149488
 31
0.0
100
AcDbText
  0
TEXT
  5
37
100
AcDbEntity
  8
1
370
    50
100
AcDbText
 10
478.508617
 20
-339.379285
 30
0.0
 40
9.0
  1
承認
 72
     5
 11
494.708617
 21
-339.379285
 31
0.0
100
AcDbText
  0
TEXT
  5
38
100
AcDbEntity
  8
1
370
    50
100
AcDbText
 10
508.484518
 20
-339.297029
 30
0.0
 40
9.0
  1
検図
 72
     5
 11
524.684518
 21
-339.297029
 31
0.0
100
AcDbText
  0
LINE
  5
39
100
AcDbEntity
  8
1
370
    25
100
AcDbLine
 10
427.473578
 20
-341.957822
 30
0.0
 11
592.473578
 21
-341.957822
 31
0.0
  0
LINE
  5
3A
100
AcDbEntity
  8
1
370
    25
100
AcDbLine
 10
513.723578
 20
-368.957822
 30
0.0
 11
513.723578
 21
-389.957822
 31
0.0
  0
TEXT
  5
3B
100
AcDbEntity
  8
1
370
    50
100
AcDbText
 10
479.327385
 20
-384.018792
 30
0.0
 40
9.0
  1
日　付
 72
     5
 11
504.527385
 21
-384.018792
 31
0.0
100
AcDbText
  0
LINE
  5
3C
100
AcDbEntity
  8
1
370
    50
100
AcDbLine
 10
61.473578
 20
-389.957822
 30
0.0
 11
592.473578
 21
-389.957822
 31
0.0
  0
TEXT
  5
3D
100
AcDbEntity
  8
1
370
    50
100
AcDbText
 10
431.662516
 20
-384.483609
 30
0.0
 40
9.0
  1
第三角法
 72
     5
 11
465.862516
 21
-384.483609
 31
0.0
100
AcDbText
  0
TEXT
  5
3E
100
AcDbEntity
  8
1
370
    50
100
AcDbText
 10
436.631129
 20
-338.997029
 30
0.0
 40
9.0
  1
尺　度
 72
     5
 11
461.831129
 21
-338.997029
 31
0.0
100
AcDbText
  0
LINE
  5
3F
100
AcDbEntity
  8
1
370
   100
100
AcDbLine
 10
61.473578
 20
-326.957822
 30
0.0
 11
592.473578
 21
-326.957822
 31
0.0
  0
LINE
  5
40
100
AcDbEntity
  8
1
370
    50
100
AcDbLine
 10
317.973578
 20
-326.957822
 30
0.0
 11
317.973578
 21
-416.957822
 31
0.0
  0
LINE
  5
41
100
AcDbEntity
  8
1
370
    25
100
AcDbLine
 10
562.473578
 20
-368.957822
 30
0.0
 11
562.473578
 21
-326.957822
 31
0.0
  0
LINE
  5
42
100
AcDbEntity
  8
1
370
    25
100
AcDbLine
 10
532.473578
 20
-368.957822
 30
0.0
 11
532.473578
 21
-326.957822
 31
0.0
  0
LINE
  5
43
100
AcDbEntity
  8
1
370
    25
100
AcDbLine
 10
502.473578
 20
-368.957822
 30
0.0
 11
502.473578
 21
-326.957822
 31
0.0
  0
LINE
  5
44
100
AcDbEntity
  8
1
370
    50
100
AcDbLine
 10
427.473578
 20
-416.957822
 30
0.0
 11
427.473578
 21
-326.957822
 31
0.0
  0
LINE
  5
45
100
AcDbEntity
  8
1
370
    50
100
AcDbLine
 10
284.973578
 20
-326.957822
 30
0.0
 11
284.973578
 21
-416.957822
 31
0.0
  0
LINE
  5
46
100
AcDbEntity
  8
1
370
    50
100
AcDbLine
 10
94.473578
 20
-326.957822
 30
0.0
 11
94.473578
 21
-389.957822
 31
0.0
  0
LINE
  5
47
100
AcDbEntity
  8
1
370
    50
100
AcDbLine
 10
427.473578
 20
-368.957822
 30
0.0
 11
592.473578
 21
-368.957822
 31
0.0
  0
TEXT
  5
48
100
AcDbEntity
  8
1
370
    50
100
AcDbText
 10
430.651694
 20
-407.821408
 30
0.0
 40
9.0
  1
コードＮｏ
 41
0.9
 72
     5
 11
469.531694
 21
-407.821408
 31
0.0
100
AcDbText
  0
TEXT
  5
49
100
AcDbEntity
  8
1
370
   100
100
AcDbText
 10
79.330161
 20
-409.313489
 30
0.0
 40
12.0
  1
ミズタニバルブ工業株式会社
 41
1.2
 72
     5
 11
263.650161
 21
-409.313489
 31
0.0
100
AcDbText
  0
LINE
  5
4A
100
AcDbEntity
  8
1
370
    50
100
AcDbLine
 10
61.473578
 20
-358.457822
 30
0.0
 11
427.473578
 21
-358.457822
 31
0.0
  0
LINE
  5
4B
100
AcDbEntity
  8
1
370
    50
100
AcDbLine
 10
173.223578
 20
-358.457822
 30
0.0
 11
173.223578
 21
-389.957822
 31
0.0
  0
LINE
  5
4C
100
AcDbEntity
  8
1
370
    50
100
AcDbLine
 10
206.223578
 20
-358.457822
 30
0.0
 11
206.223578
 21
-389.957822
 31
0.0
  0
LINE
  5
4D
100
AcDbEntity
  8
1
370
    50
100
AcDbLine
 10
472.473578
 20
-416.957822
 30
0.0
 11
472.473578
 21
-326.957822
 31
0.0
  0
TEXT
  5
4E
100
AcDbEntity
  8
1
370
    50
100
AcDbText
 10
517.647196
 20
-384.15044
 30
0.0
 40
9.0
  1
　　・　　・
 72
     5
 11
569.847196
 21
-384.15044
 31
0.0
100
AcDbText
  0
LINE
  5
4F
100
AcDbEntity
  8
1
370
   100
100
AcDbLine
 10
61.473578
 20
-326.957822
 30
0.0
 11
61.473578
 21
-416.957822
 31
0.0
  0
TEXT
  5
50
100
AcDbEntity
  8
1
370
    50
100
AcDbText
 10
436.248873
 20
-360.020238
 30
0.0
 40
9.0
  1
　／ 
 72
     5
 11
452.448873
 21
-360.020238
 31
0.0
100
AcDbText
  0
TEXT
  5
51
100
AcDbEntity
  8
1
370
    50
100
AcDbText
 10
290.856184
 20
-408.037363
 30
0.0
 40
9.0
  1
備 考 
 72
     5
 11
311.556184
 21
-408.037363
 31
0.0
100
AcDbText
  0
TEXT
  5
52
100
AcDbEntity
  8
1
370
    50
100
AcDbText
 10
290.2688
 20
-346.33776
 30
0.0
 40
9.0
  1
仕 上
 72
     5
 11
310.9688
 21
-346.33776
 31
0.0
100
AcDbText
  0
TEXT
  5
53
100
AcDbEntity
  8
1
370
    50
100
AcDbText
 10
290.170764
 20
-373.337499
 30
0.0
 40
9.0
  1
表 面
 72
     5
 11
310.870764
 21
-373.337499
 31
0.0
100
AcDbText
  0
TEXT
  5
54
100
AcDbEntity
  8
1
370
    50
100
AcDbText
 10
290.170764
 20
-383.837499
 30
0.0
 40
9.0
  1
処 理
 72
     5
 11
310.870764
 21
-383.837499
 31
0.0
100
AcDbText
  0
TEXT
  5
55
100
AcDbEntity
  8
1
370
    50
100
AcDbText
 10
67.190025
 20
-347.540099
 30
0.0
 40
9.0
  1
品 名
 72
     5
 11
87.890025
 21
-347.540099
 31
0.0
100
AcDbText
  0
TEXT
  5
56
100
AcDbEntity
  8
1
370
    50
100
AcDbText
 10
66.596649
 20
-378.693801
 30
0.0
 40
9.0
  1
材 質
 72
     5
 11
87.296649
 21
-378.693801
 31
0.0
100
AcDbText
  0
TEXT
  5
57
100
AcDbEntity
  8
1
370
    50
100
AcDbText
 10
178.346649
 20
-378.693801
 30
0.0
 40
9.0
  1
規 格
 72
     5
 11
199.046649
 21
-378.693801
 31
0.0
100
AcDbText
  0
LINE
  5
58
100
AcDbEntity
  8
2
370
    50
100
AcDbLine
 10
349.843817
 20
-137.73921
 30
0.0
 11
349.843817
 21
-138.73921
 31
0.0
  0
LINE
  5
59
100
AcDbEntity
  8
2
370
    50
100
AcDbLine
 10
314.843817
 20
-137.73921
 30
0.0
 11
314.843817
 21
-138.73921
 31
0.0
  0
LINE
  5
5A
100
AcDbEntity
  8
2
370
    50
100
AcDbLine
 10
315.343817
 20
-139.23921
 30
0.0
 11
332.343817
 21
-139.23921
 31
0.0
  0
LINE
  5
5B
100
AcDbEntity
  8
2
370
    50
100
AcDbLine
 10
349.843817
 20
-138.73921
 30
0.0
 11
349.343817
 21
-139.23921
 31
0.0
  0
LINE
  5
5C
100
AcDbEntity
  8
2
370
    50
100
AcDbLine
 10
314.843817
 20
-138.73921
 30
0.0
 11
315.343817
 21
-139.23921
 31
0.0
  0
LINE
  5
5D
100
AcDbEntity
  8
2
370
    50
100
AcDbLine
 10
332.343817
 20
-139.23921
 30
0.0
 11
342.343817
 21
-139.23921
 31
0.0
  0
LINE
  5
5E
100
AcDbEntity
  8
2
370
    50
100
AcDbLine
 10
342.343817
 20
-139.23921
 30
0.0
 11
349.343817
 21
-139.23921
 31
0.0
  0
POINT
  5
5F
100
AcDbEntity
  8
2
370
    50
100
AcDbPoint
 10
332.343817
 20
-55.53921
 30
0.0
  0
LINE
  5
60
100
AcDbEntity
  8
2
370
    50
100
AcDbLine
 10
310.843817
 20
-101.83921
 30
0.0
 11
310.843817
 21
-58.03921
 31
0.0
  0
LINE
  5
61
100
AcDbEntity
  8
2
370
    50
100
AcDbLine
 10
332.343817
 20
-57.53921
 30
0.0
 11
311.343817
 21
-57.53921
 31
0.0
  0
LINE
  5
62
100
AcDbEntity
  8
2
370
    50
100
AcDbLine
 10
311.343817
 20
-57.53921
 30
0.0
 11
310.843817
 21
-58.03921
 31
0.0
  0
LINE
  5
63
100
AcDbEntity
  8
2
370
    50
100
AcDbLine
 10
311.043817
 20
-102.03921
 30
0.0
 11
332.343817
 21
-102.03921
 31
0.0
  0
LINE
  5
64
100
AcDbEntity
  8
2
370
    50
100
AcDbLine
 10
310.843817
 20
-101.83921
 30
0.0
 11
311.043817
 21
-102.03921
 31
0.0
  0
LINE
  5
65
100
AcDbEntity
  8
2
370
    50
100
AcDbLine
 10
353.843817
 20
-101.83921
 30
0.0
 11
353.843817
 21
-58.03921
 31
0.0
  0
LINE
  5
66
100
AcDbEntity
  8
2
370
    50
100
AcDbLine
 10
332.343817
 20
-57.53921
 30
0.0
 11
353.343817
 21
-57.53921
 31
0.0
  0
LINE
  5
67
100
AcDbEntity
  8
2
370
    50
100
AcDbLine
 10
353.343817
 20
-57.53921
 30
0.0
 11
353.843817
 21
-58.03921
 31
0.0
  0
LINE
  5
68
100
AcDbEntity
  8
2
370
    50
100
AcDbLine
 10
353.643817
 20
-102.03921
 30
0.0
 11
332.343817
 21
-102.03921
 31
0.0
  0
LINE
  5
69
100
AcDbEntity
  8
2
370
    50
100
AcDbLine
 10
353.843817
 20
-101.83921
 30
0.0
 11
353.643817
 21
-102.03921
 31
0.0
  0
LINE
  5
6A
100
AcDbEntity
  8
2
370
    50
100
AcDbLine
 10
312.843817
 20
-56.478974
 30
0.0
 11
312.843817
 21
-56.53921
 31
0.0
  0
ARC
  5
6B
100
AcDbEntity
  8
2
370
    50
100
AcDbCircle
 10
313.843817
 20
-56.53921
 30
0.0
 40
1.0
100
AcDbArc
 50
180.0
 51
270.0
  0
LINE
  5
6C
100
AcDbEntity
  8
2
370
    50
100
AcDbLine
 10
312.843817
 20
-56.478974
 30
0.0
 11
312.843817
 21
-55.198434
 31
0.0
  0
ARC
  5
6D
100
AcDbEntity
  8
2
370
    50
100
AcDbCircle
 10
332.843817
 20
-55.198434
 30
0.0
 40
20.0
100
AcDbArc
 50
172.359258
 51
180.0
  0
LINE
  5
6E
100
AcDbEntity
  8
2
370
    50
100
AcDbLine
 10
351.843817
 20
-56.478974
 30
0.0
 11
351.843817
 21
-56.53921
 31
0.0
  0
ARC
  5
6F
100
AcDbEntity
  8
2
370
    50
100
AcDbCircle
 10
350.843817
 20
-56.53921
 30
0.0
 40
1.0
100
AcDbArc
 50
270.0
 51
0.0
  0
LINE
  5
70
100
AcDbEntity
  8
2
370
    50
100
AcDbLine
 10
351.843817
 20
-56.478974
 30
0.0
 11
351.843817
 21
-55.198434
 31
0.0
  0
ARC
  5
71
100
AcDbEntity
  8
2
370
    50
100
AcDbCircle
 10
331.843817
 20
-55.198434
 30
0.0
 40
20.0
100
AcDbArc
 50
0.0
 51
26.683928
  0
LINE
  5
72
100
AcDbEntity
  8
2
370
    50
100
AcDbLine
 10
232.343817
 20
4.552099
 30
0.0
 11
232.343817
 21
8.322759
 31
0.0
  0
LINE
  5
73
100
AcDbEntity
  8
2
370
    50
100
AcDbLine
 10
233.430973
 20
3.555904
 30
0.0
 11
239.652845
 21
4.100247
 31
0.0
  0
ARC
  5
74
100
AcDbEntity
  8
2
370
    50
100
AcDbCircle
 10
295.843823
 20
-29.762379
 30
0.0
 40
15.0
100
AcDbArc
 50
0.000001
 51
64.279919
  0
ARC
  5
75
100
AcDbEntity
  8
2
370
    50
100
AcDbCircle
 10
233.343817
 20
4.552099
 30
0.0
 40
1.0
100
AcDbArc
 50
180.0
 51
275.0
  0
ARC
  5
76
100
AcDbEntity
  8
2
370
    50
100
AcDbCircle
 10
240.088623
 20
-0.880726
 30
0.0
 40
5.0
100
AcDbArc
 50
79.123693
 51
95.0
  0
LINE
  5
77
100
AcDbEntity
  8
2
370
    50
100
AcDbLine
 10
310.843818
 20
-29.762379
 30
0.0
 11
310.843818
 21
-52.53921
 31
0.0
  0
LINE
  5
78
100
AcDbEntity
  8
2
370
    50
100
AcDbLine
 10
310.843818
 20
-52.53921
 30
0.0
 11
332.343817
 21
-52.53921
 31
0.0
  0
LINE
  5
79
100
AcDbEntity
  8
2
370
    50
100
AcDbLine
 10
353.843817
 20
-39.050999
 30
0.0
 11
353.843817
 21
-44.71385
 31
0.0
  0
ARC
  5
7A
100
AcDbEntity
  8
2
370
    50
100
AcDbCircle
 10
193.859728
 20
-241.479748
 30
0.0
 40
250.0
100
AcDbArc
 50
64.279919
 51
79.123693
  0
ARC
  5
7B
100
AcDbEntity
  8
2
370
    50
100
AcDbCircle
 10
198.887542
 20
-252.998843
 30
0.0
 40
264.583411
100
AcDbArc
 50
54.261314
 51
82.488657
  0
ARC
  5
7C
100
AcDbEntity
  8
2
370
    50
100
AcDbCircle
 10
352.843817
 20
-39.050999
 30
0.0
 40
1.0
100
AcDbArc
 50
360.0
 51
54.261314
  0
ARC
  5
7D
100
AcDbEntity
  8
2
370
    50
100
AcDbCircle
 10
233.343817
 20
8.322759
 30
0.0
 40
1.0
100
AcDbArc
 50
82.488657
 51
180.0
  0
LINE
  5
7E
100
AcDbEntity
  8
2
370
    50
100
AcDbLine
 10
332.343817
 20
-52.53921
 30
0.0
 11
353.843817
 21
-44.71385
 31
0.0
  0
LINE
  5
7F
100
AcDbEntity
  8
2
370
    50
100
AcDbLine
 10
310.443817
 20
-128.73921
 30
0.0
 11
332.343817
 21
-128.73921
 31
0.0
  0
LINE
  5
80
100
AcDbEntity
  8
2
370
    50
100
AcDbLine
 10
354.243817
 20
-128.73921
 30
0.0
 11
332.343817
 21
-128.73921
 31
0.0
  0
LINE
  5
81
100
AcDbEntity
  8
2
370
    50
100
AcDbLine
 10
311.043817
 20
-103.23921
 30
0.0
 11
332.343817
 21
-103.23921
 31
0.0
  0
LINE
  5
82
100
AcDbEntity
  8
2
370
    50
100
AcDbLine
 10
353.843817
 20
-103.43921
 30
0.0
 11
353.843817
 21
-128.53921
 31
0.0
  0
LINE
  5
83
100
AcDbEntity
  8
2
370
    50
100
AcDbLine
 10
332.343817
 20
-103.23921
 30
0.0
 11
353.643817
 21
-103.23921
 31
0.0
  0
LINE
  5
84
100
AcDbEntity
  8
2
370
    50
100
AcDbLine
 10
311.043817
 20
-103.23921
 30
0.0
 11
310.843817
 21
-103.43921
 31
0.0
  0
LINE
  5
85
100
AcDbEntity
  8
2
370
    50
100
AcDbLine
 10
353.643817
 20
-103.23921
 30
0.0
 11
353.843817
 21
-103.43921
 31
0.0
  0
LINE
  5
86
100
AcDbEntity
  8
2
370
    50
100
AcDbLine
 10
353.843817
 20
-128.53921
 30
0.0
 11
353.643817
 21
-128.73921
 31
0.0
  0
LINE
  5
87
100
AcDbEntity
  8
2
370
    50
100
AcDbLine
 10
310.843817
 20
-128.53921
 30
0.0
 11
311.043817
 21
-128.73921
 31
0.0
  0
LINE
  5
88
100
AcDbEntity
  8
2
370
    50
100
AcDbLine
 10
312.343817
 20
-103.23921
 30
0.0
 11
312.343817
 21
-102.03921
 31
0.0
  0
LINE
  5
89
100
AcDbEntity
  8
2
370
    50
100
AcDbLine
 10
352.343817
 20
-103.23921
 30
0.0
 11
352.343817
 21
-102.03921
 31
0.0
  0
LINE
  5
8A
100
AcDbEntity
  8
2
370
    50
100
AcDbLine
 10
310.443817
 20
-128.73921
 30
0.0
 11
307.943817
 21
-128.73921
 31
0.0
  0
LINE
  5
8B
100
AcDbEntity
  8
2
370
    50
100
AcDbLine
 10
307.443817
 20
-129.23921
 30
0.0
 11
307.443817
 21
-134.23921
 31
0.0
  0
LINE
  5
8C
100
AcDbEntity
  8
2
370
    50
100
AcDbLine
 10
332.343817
 20
-134.73921
 30
0.0
 11
307.943817
 21
-134.73921
 31
0.0
  0
LINE
  5
8D
100
AcDbEntity
  8
2
370
    50
100
AcDbLine
 10
307.943817
 20
-128.73921
 30
0.0
 11
307.443817
 21
-129.23921
 31
0.0
  0
LINE
  5
8E
100
AcDbEntity
  8
2
370
    50
100
AcDbLine
 10
307.443817
 20
-134.23921
 30
0.0
 11
307.943817
 21
-134.73921
 31
0.0
  0
LINE
  5
8F
100
AcDbEntity
  8
2
370
    50
100
AcDbLine
 10
354.243817
 20
-128.73921
 30
0.0
 11
356.743817
 21
-128.73921
 31
0.0
  0
LINE
  5
90
100
AcDbEntity
  8
2
370
    50
100
AcDbLine
 10
357.243817
 20
-129.23921
 30
0.0
 11
357.243817
 21
-134.23921
 31
0.0
  0
LINE
  5
91
100
AcDbEntity
  8
2
370
    50
100
AcDbLine
 10
332.343817
 20
-134.73921
 30
0.0
 11
356.743817
 21
-134.73921
 31
0.0
  0
LINE
  5
92
100
AcDbEntity
  8
2
370
    50
100
AcDbLine
 10
356.743817
 20
-128.73921
 30
0.0
 11
357.243817
 21
-129.23921
 31
0.0
  0
LINE
  5
93
100
AcDbEntity
  8
2
370
    50
100
AcDbLine
 10
357.243817
 20
-134.23921
 30
0.0
 11
356.743817
 21
-134.73921
 31
0.0
  0
LINE
  5
94
100
AcDbEntity
  8
2
370
    50
100
AcDbLine
 10
310.843817
 20
-128.53921
 30
0.0
 11
310.843817
 21
-123.59921
 31
0.0
  0
LINE
  5
95
100
AcDbEntity
  8
2
370
    50
100
AcDbLine
 10
310.843817
 20
-104.297816
 30
0.0
 11
310.843817
 21
-103.43921
 31
0.0
  0
LINE
  5
96
100
AcDbEntity
  8
2
370
    25
100
AcDbLine
 10
307.443817
 20
-129.23921
 30
0.0
 11
357.243817
 21
-129.23921
 31
0.0
  0
LINE
  5
97
100
AcDbEntity
  8
2
370
    25
100
AcDbLine
 10
357.243817
 20
-134.23921
 30
0.0
 11
307.443817
 21
-134.23921
 31
0.0
  0
LINE
  5
98
100
AcDbEntity
  8
2
370
    25
100
AcDbLine
 10
314.843817
 20
-138.73921
 30
0.0
 11
349.843817
 21
-138.73921
 31
0.0
  0
LINE
  5
99
100
AcDbEntity
  8
2
370
    25
100
AcDbLine
 10
310.843817
 20
-128.53921
 30
0.0
 11
353.843817
 21
-128.53921
 31
0.0
  0
LINE
  5
9A
100
AcDbEntity
  8
2
370
    50
100
AcDbLine
 10
349.343817
 20
-166.551025
 30
0.0
 11
349.343817
 21
-195.551025
 31
0.0
  0
LINE
  5
9B
100
AcDbEntity
  8
2
370
    50
100
AcDbLine
 10
348.843817
 20
-166.051025
 30
0.0
 11
349.343817
 21
-166.551025
 31
0.0
  0
LINE
  5
9C
100
AcDbEntity
  8
2
370
    50
100
AcDbLine
 10
348.843817
 20
-196.051025
 30
0.0
 11
349.343817
 21
-195.551025
 31
0.0
  0
LINE
  5
9D
100
AcDbEntity
  8
2
370
    50
100
AcDbLine
 10
335.843817
 20
-166.051025
 30
0.0
 11
335.343817
 21
-166.551025
 31
0.0
  0
LINE
  5
9E
100
AcDbEntity
  8
2
370
    50
100
AcDbLine
 10
335.343817
 20
-166.551025
 30
0.0
 11
335.343817
 21
-195.551025
 31
0.0
  0
LINE
  5
9F
100
AcDbEntity
  8
2
370
    50
100
AcDbLine
 10
335.843817
 20
-196.051025
 30
0.0
 11
335.343817
 21
-195.551025
 31
0.0
  0
LINE
  5
A0
100
AcDbEntity
  8
2
370
    50
100
AcDbLine
 10
315.643817
 20
-166.051025
 30
0.0
 11
355.643817
 21
-166.051025
 31
0.0
  0
LINE
  5
A1
100
AcDbEntity
  8
2
370
    50
100
AcDbLine
 10
335.843817
 20
-196.051025
 30
0.0
 11
346.343817
 21
-196.051025
 31
0.0
  0
LINE
  5
A2
100
AcDbEntity
  8
2
370
    50
100
AcDbLine
 10
346.343817
 20
-196.051025
 30
0.0
 11
348.843817
 21
-196.051025
 31
0.0
  0
LINE
  5
A3
100
AcDbEntity
  8
2
370
    50
100
AcDbLine
 10
315.643817
 20
-162.051025
 30
0.0
 11
355.643817
 21
-162.051025
 31
0.0
  0
LINE
  5
A4
100
AcDbEntity
  8
2
370
    50
100
AcDbLine
 10
315.643817
 20
-160.251025
 30
0.0
 11
355.643817
 21
-160.251025
 31
0.0
  0
LINE
  5
A5
100
AcDbEntity
  8
2
370
    50
100
AcDbLine
 10
315.643817
 20
-160.251025
 30
0.0
 11
315.643817
 21
-166.051025
 31
0.0
  0
LINE
  5
A6
100
AcDbEntity
  8
2
370
    50
100
AcDbLine
 10
355.643817
 20
-166.051025
 30
0.0
 11
355.643817
 21
-160.251025
 31
0.0
  0
HATCH
  5
A7
100
AcDbEntity
  8
2
370
    25
100
AcDbHatch
 10
0.0
 20
0.0
 30
0.0
210
0.0
220
0.0
230
1.0
  2
_U
 70
     0
 71
     1
 91
        1
 92
        1
 93
        4
 72
     1
 10
355.64381700000001
 20
-162.05102500000001
 11
315.64381700000001
 21
-162.05102500000001
 72
     1
 10
315.64381700000001
 20
-162.05102500000001
 11
315.64381700000001
 21
-160.251025
 72
     1
 10
315.64381700000001
 20
-160.251025
 11
355.64381700000001
 21
-160.251025
 72
     1
 10
355.64381700000001
 20
-160.251025
 11
355.64381700000001
 21
-162.05102500000001
 97
        4
330
0
330
0
330
0
330
0
 75
     0
 76
     0
 52
45.0
 41
1.0
 77
     0
 78
     1
 53
45.0
 43
0.0
 44
0.0
 45
-2.1213199999999999
 46
2.1213199999999999
 79
     0
 98
        1
 10
0.0
 20
0.0
  0
LINE
  5
A8
100
AcDbEntity
  8
2
370
    50
100
AcDbLine
 10
346.343817
 20
-160.251025
 30
0.0
 11
346.343817
 21
-139.23921
 31
0.0
  0
LINE
  5
A9
100
AcDbEntity
  8
2
370
    50
100
AcDbLine
 10
345.718817
 20
-160.251025
 30
0.0
 11
345.718817
 21
-139.23921
 31
0.0
  0
LINE
  5
AA
100
AcDbEntity
  8
2
370
    50
100
AcDbLine
 10
338.968817
 20
-160.251025
 30
0.0
 11
338.968817
 21
-139.23921
 31
0.0
  0
LINE
  5
AB
100
AcDbEntity
  8
2
370
    50
100
AcDbLine
 10
338.343817
 20
-160.251025
 30
0.0
 11
338.343817
 21
-139.23921
 31
0.0
  0
LINE
  5
AC
100
AcDbEntity
  8
2
370
    50
100
AcDbLine
 10
346.673944
 20
-166.551025
 30
0.0
 11
346.673944
 21
-195.551025
 31
0.0
  0
LINE
  5
AD
100
AcDbEntity
  8
2
370
    50
100
AcDbLine
 10
344.941894
 20
-166.551025
 30
0.0
 11
344.941894
 21
-195.551025
 31
0.0
  0
LINE
  5
AE
100
AcDbEntity
  8
2
370
    50
100
AcDbLine
 10
346.673944
 20
-166.551025
 30
0.0
 11
344.941894
 21
-166.551025
 31
0.0
  0
LINE
  5
AF
100
AcDbEntity
  8
2
370
    50
100
AcDbLine
 10
346.673944
 20
-195.551025
 30
0.0
 11
344.941894
 21
-195.551025
 31
0.0
  0
ARC
  5
B0
100
AcDbEntity
  8
2
370
    50
100
AcDbCircle
 10
342.343817
 20
-173.051025
 30
0.0
 40
7.0
100
AcDbArc
 50
68.213211
 51
90.0
  0
ARC
  5
B1
100
AcDbEntity
  8
2
370
    50
100
AcDbCircle
 10
348.008881
 20
-168.08308
 30
0.0
 40
2.032055
100
AcDbArc
 50
48.93316
 51
131.06684
  0
ARC
  5
B2
100
AcDbEntity
  8
2
370
    50
100
AcDbCircle
 10
348.008881
 20
-194.018969
 30
0.0
 40
2.032055
100
AcDbArc
 50
228.93316
 51
311.06684
  0
ARC
  5
B3
100
AcDbEntity
  8
2
370
    50
100
AcDbCircle
 10
342.343817
 20
-189.051025
 30
0.0
 40
7.0
100
AcDbArc
 50
270.0
 51
291.786789
  0
ARC
  5
B4
100
AcDbEntity
  8
2
370
    50
100
AcDbCircle
 10
342.343817
 20
-173.051025
 30
0.0
 40
7.0
100
AcDbArc
 50
90.0
 51
111.786789
  0
LINE
  5
B5
100
AcDbEntity
  8
2
370
    50
100
AcDbLine
 10
339.745741
 20
-166.551025
 30
0.0
 11
339.745741
 21
-195.551025
 31
0.0
  0
LINE
  5
B6
100
AcDbEntity
  8
2
370
    50
100
AcDbLine
 10
338.01369
 20
-166.551025
 30
0.0
 11
339.745741
 21
-166.551025
 31
0.0
  0
LINE
  5
B7
100
AcDbEntity
  8
2
370
    50
100
AcDbLine
 10
338.01369
 20
-166.551025
 30
0.0
 11
338.01369
 21
-195.551025
 31
0.0
  0
ARC
  5
B8
100
AcDbEntity
  8
2
370
    50
100
AcDbCircle
 10
336.678754
 20
-168.08308
 30
0.0
 40
2.032055
100
AcDbArc
 50
48.93316
 51
131.06684
  0
ARC
  5
B9
100
AcDbEntity
  8
2
370
    50
100
AcDbCircle
 10
336.678754
 20
-194.018969
 30
0.0
 40
2.032055
100
AcDbArc
 50
228.93316
 51
311.06684
  0
LINE
  5
BA
100
AcDbEntity
  8
2
370
    50
100
AcDbLine
 10
338.01369
 20
-195.551025
 30
0.0
 11
339.745741
 21
-195.551025
 31
0.0
  0
ARC
  5
BB
100
AcDbEntity
  8
2
370
    50
100
AcDbCircle
 10
342.343817
 20
-189.051025
 30
0.0
 40
7.0
100
AcDbArc
 50
248.213211
 51
270.0
  0
LINE
  5
BC
100
AcDbEntity
  8
2
370
    50
100
AcDbLine
 10
355.843817
 20
-137.73921
 30
0.0
 11
308.843817
 21
-137.73921
 31
0.0
  0
LINE
  5
BD
100
AcDbEntity
  8
2
370
    50
100
AcDbLine
 10
355.843817
 20
-134.73921
 30
0.0
 11
355.843817
 21
-137.73921
 31
0.0
  0
LINE
  5
BE
100
AcDbEntity
  8
2
370
    50
100
AcDbLine
 10
308.843817
 20
-134.73921
 30
0.0
 11
308.843817
 21
-137.73921
 31
0.0
  0
HATCH
  5
BF
100
AcDbEntity
  8
2
370
    25
100
AcDbHatch
 10
0.0
 20
0.0
 30
0.0
210
0.0
220
0.0
230
1.0
  2
_U
 70
     0
 71
     1
 91
        1
 92
        1
 93
        5
 72
     1
 10
355.843817
 20
-137.73921000000001
 11
355.843817
 21
-134.73921000000001
 72
     1
 10
355.843817
 20
-134.73921000000001
 11
332.343817
 21
-134.73921000000001
 72
     1
 10
332.343817
 20
-134.73921000000001
 11
308.843817
 21
-134.73921000000001
 72
     1
 10
308.843817
 20
-134.73921000000001
 11
308.843817
 21
-137.73921000000001
 72
     1
 10
308.843817
 20
-137.73921000000001
 11
355.843817
 21
-137.73921000000001
 97
        5
330
0
330
0
330
0
330
0
330
0
 75
     0
 76
     0
 52
45.0
 41
1.0
 77
     0
 78
     1
 53
45.0
 43
0.0
 44
0.0
 45
-2.1213199999999999
 46
2.1213199999999999
 79
     0
 98
        1
 10
0.0
 20
0.0
  0
LINE
  5
C0
100
AcDbEntity
  8
2
370
    50
100
AcDbLine
 10
321.843584
 20
-145.139828
 30
0.0
 11
332.843584
 21
-145.139828
 31
0.0
  0
LINE
  5
C1
100
AcDbEntity
  8
2
370
    50
100
AcDbLine
 10
321.343817
 20
-144.850535
 30
0.0
 11
321.343817
 21
-139.527885
 31
0.0
  0
LINE
  5
C2
100
AcDbEntity
  8
2
370
    50
100
AcDbLine
 10
333.343817
 20
-144.850535
 30
0.0
 11
333.343817
 21
-139.527885
 31
0.0
  0
LINE
  5
C3
100
AcDbEntity
  8
2
370
    50
100
AcDbLine
 10
329.741733
 20
-139.527885
 30
0.0
 11
329.741733
 21
-144.850535
 31
0.0
  0
LINE
  5
C4
100
AcDbEntity
  8
2
370
    50
100
AcDbLine
 10
330.907999
 20
-139.527885
 30
0.0
 11
330.907999
 21
-144.850535
 31
0.0
  0
LINE
  5
C5
100
AcDbEntity
  8
2
370
    50
100
AcDbLine
 10
333.305915
 20
-139.527885
 30
0.0
 11
333.305915
 21
-144.850535
 31
0.0
  0
LINE
  5
C6
100
AcDbEntity
  8
2
370
    50
100
AcDbLine
 10
332.843817
 20
-145.13921
 30
0.0
 11
333.343817
 21
-144.850535
 31
0.0
  0
LINE
  5
C7
100
AcDbEntity
  8
2
370
    50
100
AcDbLine
 10
330.907999
 20
-144.850535
 30
0.0
 11
329.741733
 21
-144.850535
 31
0.0
  0
LINE
  5
C8
100
AcDbEntity
  8
2
370
    50
100
AcDbLine
 10
321.343817
 20
-144.850535
 30
0.0
 11
321.843817
 21
-145.13921
 31
0.0
  0
LINE
  5
C9
100
AcDbEntity
  8
2
370
    50
100
AcDbLine
 10
321.343817
 20
-139.527885
 30
0.0
 11
321.843817
 21
-139.23921
 31
0.0
  0
ARC
  5
CA
100
AcDbEntity
  8
2
370
    50
100
AcDbCircle
 10
327.343817
 20
-135.03558
 30
0.0
 40
10.10363
100
AcDbArc
 50
270.0
 51
283.729133
  0
ARC
  5
CB
100
AcDbEntity
  8
2
370
    50
100
AcDbCircle
 10
327.343817
 20
-149.342839
 30
0.0
 40
10.10363
100
AcDbArc
 50
76.270867
 51
90.0
  0
LINE
  5
CC
100
AcDbEntity
  8
2
370
    50
100
AcDbLine
 10
330.907999
 20
-139.527885
 30
0.0
 11
329.741733
 21
-139.527885
 31
0.0
  0
LINE
  5
CD
100
AcDbEntity
  8
2
370
    50
100
AcDbLine
 10
333.343817
 20
-144.850535
 30
0.0
 11
333.305915
 21
-144.850535
 31
0.0
  0
ARC
  5
CE
100
AcDbEntity
  8
2
370
    50
100
AcDbCircle
 10
332.106957
 20
-142.505049
 30
0.0
 40
2.634161
100
AcDbArc
 50
242.924933
 51
297.075067
  0
ARC
  5
CF
100
AcDbEntity
  8
2
370
    50
100
AcDbCircle
 10
332.106957
 20
-141.87337
 30
0.0
 40
2.634161
100
AcDbArc
 50
62.924933
 51
117.075067
  0
LINE
  5
D0
100
AcDbEntity
  8
2
370
    50
100
AcDbLine
 10
332.843817
 20
-139.23921
 30
0.0
 11
333.343817
 21
-139.527885
 31
0.0
  0
LINE
  5
D1
100
AcDbEntity
  8
2
370
    50
100
AcDbLine
 10
333.343817
 20
-139.527885
 30
0.0
 11
333.305915
 21
-139.527885
 31
0.0
  0
ARC
  5
D2
100
AcDbEntity
  8
2
370
    50
100
AcDbCircle
 10
327.343817
 20
-135.03558
 30
0.0
 40
10.10363
100
AcDbArc
 50
256.270867
 51
270.0
  0
LINE
  5
D3
100
AcDbEntity
  8
2
370
    50
100
AcDbLine
 10
323.779635
 20
-144.850535
 30
0.0
 11
324.945901
 21
-144.850535
 31
0.0
  0
LINE
  5
D4
100
AcDbEntity
  8
2
370
    50
100
AcDbLine
 10
324.945902
 20
-139.527885
 30
0.0
 11
324.945901
 21
-144.850535
 31
0.0
  0
LINE
  5
D5
100
AcDbEntity
  8
2
370
    50
100
AcDbLine
 10
323.779635
 20
-139.527885
 30
0.0
 11
323.779635
 21
-144.850535
 31
0.0
  0
ARC
  5
D6
100
AcDbEntity
  8
2
370
    50
100
AcDbCircle
 10
322.580677
 20
-142.505049
 30
0.0
 40
2.634161
100
AcDbArc
 50
242.924933
 51
297.075067
  0
LINE
  5
D7
100
AcDbEntity
  8
2
370
    50
100
AcDbLine
 10
321.38172
 20
-139.527885
 30
0.0
 11
321.38172
 21
-144.850535
 31
0.0
  0
LINE
  5
D8
100
AcDbEntity
  8
2
370
    50
100
AcDbLine
 10
321.38172
 20
-144.850535
 30
0.0
 11
321.343817
 21
-144.850535
 31
0.0
  0
ARC
  5
D9
100
AcDbEntity
  8
2
370
    50
100
AcDbCircle
 10
327.343817
 20
-149.342839
 30
0.0
 40
10.10363
100
AcDbArc
 50
90.0
 51
103.729133
  0
ARC
  5
DA
100
AcDbEntity
  8
2
370
    50
100
AcDbCircle
 10
322.580677
 20
-141.87337
 30
0.0
 40
2.634161
100
AcDbArc
 50
62.924933
 51
117.075067
  0
LINE
  5
DB
100
AcDbEntity
  8
2
370
    50
100
AcDbLine
 10
323.779635
 20
-139.527885
 30
0.0
 11
324.945901
 21
-139.527885
 31
0.0
  0
LINE
  5
DC
100
AcDbEntity
  8
2
370
    50
100
AcDbLine
 10
333.593584
 20
-145.139828
 30
0.0
 11
321.093584
 21
-145.139828
 31
0.0
  0
LINE
  5
DD
100
AcDbEntity
  8
2
370
    50
100
AcDbLine
 10
320.093584
 20
-173.139828
 30
0.0
 11
334.593584
 21
-173.139828
 31
0.0
  0
LINE
  5
DE
100
AcDbEntity
  8
2
370
    50
100
AcDbLine
 10
320.443584
 20
-167.139828
 30
0.0
 11
334.243584
 21
-167.139828
 31
0.0
  0
LINE
  5
DF
100
AcDbEntity
  8
2
370
    50
100
AcDbLine
 10
320.443584
 20
-159.639828
 30
0.0
 11
334.243584
 21
-159.639828
 31
0.0
  0
LINE
  5
E0
100
AcDbEntity
  8
2
370
    50
100
AcDbLine
 10
320.443584
 20
-157.139828
 30
0.0
 11
334.243584
 21
-157.139828
 31
0.0
  0
LINE
  5
E1
100
AcDbEntity
  8
2
370
    50
100
AcDbLine
 10
320.443584
 20
-152.139828
 30
0.0
 11
334.243584
 21
-152.139828
 31
0.0
  0
LINE
  5
E2
100
AcDbEntity
  8
2
370
    50
100
AcDbLine
 10
320.443584
 20
-149.639828
 30
0.0
 11
334.243584
 21
-149.639828
 31
0.0
  0
LINE
  5
E3
100
AcDbEntity
  8
2
370
    50
100
AcDbLine
 10
320.093584
 20
-148.879894
 30
0.0
 11
320.093584
 21
-146.139828
 31
0.0
  0
LINE
  5
E4
100
AcDbEntity
  8
2
370
    50
100
AcDbLine
 10
320.093584
 20
-156.379894
 30
0.0
 11
320.093584
 21
-152.899762
 31
0.0
  0
LINE
  5
E5
100
AcDbEntity
  8
2
370
    50
100
AcDbLine
 10
320.093584
 20
-173.139828
 30
0.0
 11
320.093584
 21
-167.899762
 31
0.0
  0
LINE
  5
E6
100
AcDbEntity
  8
2
370
    50
100
AcDbLine
 10
334.593584
 20
-148.879894
 30
0.0
 11
334.593584
 21
-146.139828
 31
0.0
  0
LINE
  5
E7
100
AcDbEntity
  8
2
370
    50
100
AcDbLine
 10
334.593584
 20
-156.379894
 30
0.0
 11
334.593584
 21
-152.899762
 31
0.0
  0
LINE
  5
E8
100
AcDbEntity
  8
2
370
    50
100
AcDbLine
 10
334.593584
 20
-173.139828
 30
0.0
 11
334.593584
 21
-167.899762
 31
0.0
  0
LINE
  5
E9
100
AcDbEntity
  8
2
370
    50
100
AcDbLine
 10
320.443584
 20
-152.139828
 30
0.0
 11
320.443584
 21
-149.639828
 31
0.0
  0
LINE
  5
EA
100
AcDbEntity
  8
2
370
    50
100
AcDbLine
 10
334.243584
 20
-152.139828
 30
0.0
 11
334.243584
 21
-149.639828
 31
0.0
  0
LINE
  5
EB
100
AcDbEntity
  8
2
370
    50
100
AcDbLine
 10
320.443584
 20
-167.139828
 30
0.0
 11
320.443584
 21
-166.051025
 31
0.0
  0
LINE
  5
EC
100
AcDbEntity
  8
2
370
    50
100
AcDbLine
 10
320.443584
 20
-159.639828
 30
0.0
 11
320.443584
 21
-157.139828
 31
0.0
  0
LINE
  5
ED
100
AcDbEntity
  8
2
370
    50
100
AcDbLine
 10
334.243584
 20
-167.139828
 30
0.0
 11
334.243584
 21
-166.051025
 31
0.0
  0
LINE
  5
EE
100
AcDbEntity
  8
2
370
    50
100
AcDbLine
 10
334.243584
 20
-159.639828
 30
0.0
 11
334.243584
 21
-157.139828
 31
0.0
  0
LINE
  5
EF
100
AcDbEntity
  8
2
370
    50
100
AcDbLine
 10
334.243584
 20
-173.139828
 30
0.0
 11
334.243584
 21
-224.905189
 31
0.0
  0
LINE
  5
F0
100
AcDbEntity
  8
2
370
    50
100
AcDbLine
 10
320.443584
 20
-173.139828
 30
0.0
 11
320.443584
 21
-224.952399
 31
0.0
  0
ARC
  5
F1
100
AcDbEntity
  8
2
370
    50
100
AcDbCircle
 10
333.593584
 20
-148.879894
 30
0.0
 40
1.0
100
AcDbArc
 50
310.541602
 51
360.0
  0
ARC
  5
F2
100
AcDbEntity
  8
2
370
    50
100
AcDbCircle
 10
333.593584
 20
-152.899762
 30
0.0
 40
1.0
100
AcDbArc
 50
0.0
 51
49.458398
  0
ARC
  5
F3
100
AcDbEntity
  8
2
370
    50
100
AcDbCircle
 10
333.593584
 20
-156.379894
 30
0.0
 40
1.0
100
AcDbArc
 50
310.541602
 51
360.0
  0
ARC
  5
F4
100
AcDbEntity
  8
2
370
    50
100
AcDbCircle
 10
333.593584
 20
-160.399762
 30
0.0
 40
1.0
100
AcDbArc
 50
8.553763
 51
49.458398
  0
ARC
  5
F5
100
AcDbEntity
  8
2
370
    50
100
AcDbCircle
 10
333.593584
 20
-167.899762
 30
0.0
 40
1.0
100
AcDbArc
 50
0.0
 51
49.458398
  0
ARC
  5
F6
100
AcDbEntity
  8
2
370
    50
100
AcDbCircle
 10
321.093584
 20
-148.879894
 30
0.0
 40
1.0
100
AcDbArc
 50
180.0
 51
229.458398
  0
ARC
  5
F7
100
AcDbEntity
  8
2
370
    50
100
AcDbCircle
 10
321.093584
 20
-152.899762
 30
0.0
 40
1.0
100
AcDbArc
 50
130.541602
 51
180.0
  0
ARC
  5
F8
100
AcDbEntity
  8
2
370
    50
100
AcDbCircle
 10
321.093584
 20
-156.379894
 30
0.0
 40
1.0
100
AcDbArc
 50
180.0
 51
229.458398
  0
ARC
  5
F9
100
AcDbEntity
  8
2
370
    50
100
AcDbCircle
 10
321.093584
 20
-160.399762
 30
0.0
 40
1.0
100
AcDbArc
 50
130.541602
 51
171.446237
  0
ARC
  5
FA
100
AcDbEntity
  8
2
370
    50
100
AcDbCircle
 10
321.093584
 20
-167.899762
 30
0.0
 40
1.0
100
AcDbArc
 50
130.541602
 51
180.0
  0
ARC
  5
FB
100
AcDbEntity
  8
2
370
    50
100
AcDbCircle
 10
333.593584
 20
-146.139828
 30
0.0
 40
1.0
100
AcDbArc
 50
0.0
 51
90.0
  0
ARC
  5
FC
100
AcDbEntity
  8
2
370
    50
100
AcDbCircle
 10
321.093584
 20
-146.139828
 30
0.0
 40
1.0
100
AcDbArc
 50
90.0
 51
180.0
  0
ARC
  5
FD
100
AcDbEntity
  8
2
370
    50
100
AcDbCircle
 10
323.893584
 20
-220.318647
 30
0.0
 40
5.75
100
AcDbArc
 50
233.130102
 51
306.869898
  0
ARC
  5
FE
100
AcDbEntity
  8
2
370
    50
100
AcDbCircle
 10
330.793584
 20
-229.518647
 30
0.0
 40
5.75
100
AcDbArc
 50
53.130102
 51
126.869898
  0
ARC
  5
FF
100
AcDbEntity
  8
2
370
    50
100
AcDbCircle
 10
323.893584
 20
-229.518647
 30
0.0
 40
5.75
100
AcDbArc
 50
53.130102
 51
126.869898
  0
LINE
  5
100
100
AcDbEntity
  8
2
370
    25
100
AcDbLine
 10
310.843817
 20
-58.03921
 30
0.0
 11
353.843817
 21
-58.03921
 31
0.0
  0
LINE
  5
101
100
AcDbEntity
  8
2
370
    25
100
AcDbLine
 10
353.843817
 20
-101.83921
 30
0.0
 11
310.843817
 21
-101.83921
 31
0.0
  0
LINE
  5
102
100
AcDbEntity
  8
2
370
    25
100
AcDbLine
 10
310.843817
 20
-103.43921
 30
0.0
 11
353.843817
 21
-103.43921
 31
0.0
  0
LINE
  5
103
100
AcDbEntity
  8
2
370
    50
100
AcDbLine
 10
267.108723
 20
41.183837
 30
0.0
 11
268.702273
 21
44.601216
 31
0.0
  0
LINE
  5
104
100
AcDbEntity
  8
2
370
    50
100
AcDbLine
 10
267.673011
 20
39.821526
 30
0.0
 11
273.541991
 21
37.685392
 31
0.0
  0
ARC
  5
105
100
AcDbEntity
  8
2
370
    50
100
AcDbCircle
 10
268.015031
 20
40.761219
 30
0.0
 40
1.0
100
AcDbArc
 50
155.0
 51
250.0
  0
ARC
  5
106
100
AcDbEntity
  8
2
370
    50
100
AcDbCircle
 10
271.83189
 20
32.986929
 30
0.0
 40
5.0
100
AcDbArc
 50
54.123693
 51
70.0
  0
ARC
  5
107
100
AcDbEntity
  8
2
370
    50
100
AcDbCircle
 10
128.252742
 20
-165.532662
 30
0.0
 40
250.0
100
AcDbArc
 50
39.279919
 51
54.123693
  0
ARC
  5
108
100
AcDbEntity
  8
2
370
    50
100
AcDbCircle
 10
127.941309
 20
-178.097354
 30
0.0
 40
264.583411
100
AcDbArc
 50
34.056262
 51
57.488657
  0
ARC
  5
109
100
AcDbEntity
  8
2
370
    50
100
AcDbCircle
 10
269.608581
 20
44.178598
 30
0.0
 40
1.0
100
AcDbArc
 50
57.488657
 51
155.0
  0
ARC
  5
10A
100
AcDbEntity
  8
2
370
    25
100
AcDbCircle
 10
294.936208
 20
-118.145624
 30
0.0
 40
21.09061
100
AcDbArc
 50
0.0
 51
37.907455
  0
ARC
  5
10B
100
AcDbEntity
  8
2
370
    25
100
AcDbCircle
 10
310.566168
 20
-118.145624
 30
0.0
 40
5.460649
100
AcDbArc
 50
285.860851
 51
360.0
  0
LINE
  5
10C
100
AcDbEntity
  8
2
370
    50
100
AcDbLine
 10
-201.033075
 20
-137.739403
 30
0.0
 11
-201.033075
 21
-138.739403
 31
0.0
  0
LINE
  5
10D
100
AcDbEntity
  8
2
370
    50
100
AcDbLine
 10
-236.033075
 20
-137.739403
 30
0.0
 11
-236.033075
 21
-138.739403
 31
0.0
  0
LINE
  5
10E
100
AcDbEntity
  8
2
370
    50
100
AcDbLine
 10
-235.533075
 20
-139.239403
 30
0.0
 11
-218.533075
 21
-139.239403
 31
0.0
  0
LINE
  5
10F
100
AcDbEntity
  8
2
370
    50
100
AcDbLine
 10
-201.033075
 20
-138.739403
 30
0.0
 11
-201.533075
 21
-139.239403
 31
0.0
  0
LINE
  5
110
100
AcDbEntity
  8
2
370
    50
100
AcDbLine
 10
-236.033075
 20
-138.739403
 30
0.0
 11
-235.533075
 21
-139.239403
 31
0.0
  0
LINE
  5
111
100
AcDbEntity
  8
2
370
    50
100
AcDbLine
 10
-218.533075
 20
-139.239403
 30
0.0
 11
-208.533075
 21
-139.239403
 31
0.0
  0
LINE
  5
112
100
AcDbEntity
  8
2
370
    50
100
AcDbLine
 10
-208.533075
 20
-139.239403
 30
0.0
 11
-201.533075
 21
-139.239403
 31
0.0
  0
LINE
  5
113
100
AcDbEntity
  8
2
370
    50
100
AcDbLine
 10
-240.033075
 20
-101.839403
 30
0.0
 11
-240.033075
 21
-58.039403
 31
0.0
  0
LINE
  5
114
100
AcDbEntity
  8
2
370
    50
100
AcDbLine
 10
-218.533075
 20
-57.539403
 30
0.0
 11
-239.533075
 21
-57.539403
 31
0.0
  0
LINE
  5
115
100
AcDbEntity
  8
2
370
    50
100
AcDbLine
 10
-239.533075
 20
-57.539403
 30
0.0
 11
-240.033075
 21
-58.039403
 31
0.0
  0
LINE
  5
116
100
AcDbEntity
  8
2
370
    50
100
AcDbLine
 10
-239.833075
 20
-102.039403
 30
0.0
 11
-232.533075
 21
-102.039403
 31
0.0
  0
LINE
  5
117
100
AcDbEntity
  8
2
370
    50
100
AcDbLine
 10
-240.033075
 20
-101.839403
 30
0.0
 11
-239.833075
 21
-102.039403
 31
0.0
  0
LINE
  5
118
100
AcDbEntity
  8
2
370
    50
100
AcDbLine
 10
-197.033075
 20
-101.839403
 30
0.0
 11
-197.033075
 21
-58.039403
 31
0.0
  0
LINE
  5
119
100
AcDbEntity
  8
2
370
    50
100
AcDbLine
 10
-218.533075
 20
-57.539403
 30
0.0
 11
-197.533075
 21
-57.539403
 31
0.0
  0
LINE
  5
11A
100
AcDbEntity
  8
2
370
    50
100
AcDbLine
 10
-197.533075
 20
-57.539403
 30
0.0
 11
-197.033075
 21
-58.039403
 31
0.0
  0
LINE
  5
11B
100
AcDbEntity
  8
2
370
    50
100
AcDbLine
 10
-197.233075
 20
-102.039403
 30
0.0
 11
-204.533075
 21
-102.039403
 31
0.0
  0
LINE
  5
11C
100
AcDbEntity
  8
2
370
    50
100
AcDbLine
 10
-197.033075
 20
-101.839403
 30
0.0
 11
-197.233075
 21
-102.039403
 31
0.0
  0
LINE
  5
11D
100
AcDbEntity
  8
2
370
    50
100
AcDbLine
 10
-238.033075
 20
-56.479167
 30
0.0
 11
-238.033075
 21
-56.539403
 31
0.0
  0
ARC
  5
11E
100
AcDbEntity
  8
2
370
    50
100
AcDbCircle
 10
-237.033075
 20
-56.539403
 30
0.0
 40
1.0
100
AcDbArc
 50
180.0
 51
270.0
  0
LINE
  5
11F
100
AcDbEntity
  8
2
370
    50
100
AcDbLine
 10
-238.033075
 20
-56.479167
 30
0.0
 11
-238.033075
 21
-55.198626
 31
0.0
  0
ARC
  5
120
100
AcDbEntity
  8
2
370
    50
100
AcDbCircle
 10
-218.033075
 20
-55.198626
 30
0.0
 40
20.0
100
AcDbArc
 50
172.359258
 51
180.0
  0
LINE
  5
121
100
AcDbEntity
  8
2
370
    50
100
AcDbLine
 10
-199.033075
 20
-56.479167
 30
0.0
 11
-199.033075
 21
-56.539403
 31
0.0
  0
ARC
  5
122
100
AcDbEntity
  8
2
370
    50
100
AcDbCircle
 10
-200.033075
 20
-56.539403
 30
0.0
 40
1.0
100
AcDbArc
 50
270.0
 51
0.0
  0
LINE
  5
123
100
AcDbEntity
  8
2
370
    50
100
AcDbLine
 10
-199.033075
 20
-56.479167
 30
0.0
 11
-199.033075
 21
-55.198626
 31
0.0
  0
ARC
  5
124
100
AcDbEntity
  8
2
370
    50
100
AcDbCircle
 10
-219.033075
 20
-55.198626
 30
0.0
 40
20.0
100
AcDbArc
 50
0.0
 51
7.6413
  0
LINE
  5
125
100
AcDbEntity
  8
2
370
    50
100
AcDbLine
 10
-240.433075
 20
-128.739403
 30
0.0
 11
-218.533075
 21
-128.739403
 31
0.0
  0
LINE
  5
126
100
AcDbEntity
  8
2
370
    50
100
AcDbLine
 10
-196.633075
 20
-128.739403
 30
0.0
 11
-218.533075
 21
-128.739403
 31
0.0
  0
LINE
  5
127
100
AcDbEntity
  8
2
370
    50
100
AcDbLine
 10
-239.833075
 20
-103.239403
 30
0.0
 11
-232.533075
 21
-103.239403
 31
0.0
  0
LINE
  5
128
100
AcDbEntity
  8
2
370
    50
100
AcDbLine
 10
-197.033075
 20
-103.439403
 30
0.0
 11
-197.033075
 21
-128.539403
 31
0.0
  0
LINE
  5
129
100
AcDbEntity
  8
2
370
    50
100
AcDbLine
 10
-204.533075
 20
-103.239403
 30
0.0
 11
-197.233075
 21
-103.239403
 31
0.0
  0
LINE
  5
12A
100
AcDbEntity
  8
2
370
    50
100
AcDbLine
 10
-239.833075
 20
-103.239403
 30
0.0
 11
-240.033075
 21
-103.439403
 31
0.0
  0
LINE
  5
12B
100
AcDbEntity
  8
2
370
    50
100
AcDbLine
 10
-197.233075
 20
-103.239403
 30
0.0
 11
-197.033075
 21
-103.439403
 31
0.0
  0
LINE
  5
12C
100
AcDbEntity
  8
2
370
    50
100
AcDbLine
 10
-197.033075
 20
-128.539403
 30
0.0
 11
-197.233075
 21
-128.739403
 31
0.0
  0
LINE
  5
12D
100
AcDbEntity
  8
2
370
    50
100
AcDbLine
 10
-240.033075
 20
-128.539403
 30
0.0
 11
-239.833075
 21
-128.739403
 31
0.0
  0
LINE
  5
12E
100
AcDbEntity
  8
2
370
    50
100
AcDbLine
 10
-238.533075
 20
-103.239403
 30
0.0
 11
-238.533075
 21
-102.039403
 31
0.0
  0
LINE
  5
12F
100
AcDbEntity
  8
2
370
    50
100
AcDbLine
 10
-198.533075
 20
-103.239403
 30
0.0
 11
-198.533075
 21
-102.039403
 31
0.0
  0
LINE
  5
130
100
AcDbEntity
  8
2
370
    50
100
AcDbLine
 10
-240.433075
 20
-128.739403
 30
0.0
 11
-242.933075
 21
-128.739403
 31
0.0
  0
LINE
  5
131
100
AcDbEntity
  8
2
370
    50
100
AcDbLine
 10
-243.433075
 20
-129.239403
 30
0.0
 11
-243.433075
 21
-134.239403
 31
0.0
  0
LINE
  5
132
100
AcDbEntity
  8
2
370
    50
100
AcDbLine
 10
-218.533075
 20
-134.739403
 30
0.0
 11
-242.933075
 21
-134.739403
 31
0.0
  0
LINE
  5
133
100
AcDbEntity
  8
2
370
    50
100
AcDbLine
 10
-242.933075
 20
-128.739403
 30
0.0
 11
-243.433075
 21
-129.239403
 31
0.0
  0
LINE
  5
134
100
AcDbEntity
  8
2
370
    50
100
AcDbLine
 10
-243.433075
 20
-134.239403
 30
0.0
 11
-242.933075
 21
-134.739403
 31
0.0
  0
LINE
  5
135
100
AcDbEntity
  8
2
370
    50
100
AcDbLine
 10
-196.633075
 20
-128.739403
 30
0.0
 11
-194.133075
 21
-128.739403
 31
0.0
  0
LINE
  5
136
100
AcDbEntity
  8
2
370
    50
100
AcDbLine
 10
-193.633075
 20
-129.239403
 30
0.0
 11
-193.633075
 21
-134.239403
 31
0.0
  0
LINE
  5
137
100
AcDbEntity
  8
2
370
    50
100
AcDbLine
 10
-218.533075
 20
-134.739403
 30
0.0
 11
-194.133075
 21
-134.739403
 31
0.0
  0
LINE
  5
138
100
AcDbEntity
  8
2
370
    50
100
AcDbLine
 10
-194.133075
 20
-128.739403
 30
0.0
 11
-193.633075
 21
-129.239403
 31
0.0
  0
LINE
  5
139
100
AcDbEntity
  8
2
370
    50
100
AcDbLine
 10
-193.633075
 20
-134.239403
 30
0.0
 11
-194.133075
 21
-134.739403
 31
0.0
  0
LINE
  5
13A
100
AcDbEntity
  8
2
370
    50
100
AcDbLine
 10
-240.033075
 20
-128.539403
 30
0.0
 11
-240.033075
 21
-103.439403
 31
0.0
  0
LINE
  5
13B
100
AcDbEntity
  8
2
370
    25
100
AcDbLine
 10
-243.433075
 20
-129.239403
 30
0.0
 11
-193.633075
 21
-129.239403
 31
0.0
  0
LINE
  5
13C
100
AcDbEntity
  8
2
370
    25
100
AcDbLine
 10
-193.633075
 20
-134.239403
 30
0.0
 11
-243.433075
 21
-134.239403
 31
0.0
  0
LINE
  5
13D
100
AcDbEntity
  8
2
370
    25
100
AcDbLine
 10
-236.033075
 20
-138.739403
 30
0.0
 11
-201.033075
 21
-138.739403
 31
0.0
  0
LINE
  5
13E
100
AcDbEntity
  8
2
370
    25
100
AcDbLine
 10
-240.033075
 20
-128.539403
 30
0.0
 11
-197.033075
 21
-128.539403
 31
0.0
  0
LINE
  5
13F
100
AcDbEntity
  8
2
370
    50
100
AcDbLine
 10
-195.033075
 20
-137.739403
 30
0.0
 11
-242.033075
 21
-137.739403
 31
0.0
  0
LINE
  5
140
100
AcDbEntity
  8
2
370
    50
100
AcDbLine
 10
-195.033075
 20
-134.739403
 30
0.0
 11
-195.033075
 21
-137.739403
 31
0.0
  0
LINE
  5
141
100
AcDbEntity
  8
2
370
    50
100
AcDbLine
 10
-242.033075
 20
-134.739403
 30
0.0
 11
-242.033075
 21
-137.739403
 31
0.0
  0
HATCH
  5
142
100
AcDbEntity
  8
2
370
    25
100
AcDbHatch
 10
0.0
 20
0.0
 30
0.0
210
0.0
220
0.0
230
1.0
  2
_U
 70
     0
 71
     1
 91
        1
 92
        1
 93
        5
 72
     1
 10
-195.033075
 20
-137.73940300000001
 11
-195.033075
 21
-134.73940300000001
 72
     1
 10
-195.033075
 20
-134.73940300000001
 11
-218.533075
 21
-134.73940300000001
 72
     1
 10
-218.533075
 20
-134.73940300000001
 11
-242.033075
 21
-134.73940300000001
 72
     1
 10
-242.033075
 20
-134.73940300000001
 11
-242.033075
 21
-137.73940300000001
 72
     1
 10
-242.033075
 20
-137.73940300000001
 11
-195.033075
 21
-137.73940300000001
 97
        5
330
0
330
0
330
0
330
0
330
0
 75
     0
 76
     0
 52
45.0
 41
1.0
 77
     0
 78
     1
 53
45.0
 43
0.0
 44
0.0
 45
-2.1213199999999999
 46
2.1213199999999999
 79
     0
 98
        1
 10
0.0
 20
0.0
  0
LINE
  5
143
100
AcDbEntity
  8
2
370
    25
100
AcDbLine
 10
-240.033075
 20
-58.039403
 30
0.0
 11
-197.033075
 21
-58.039403
 31
0.0
  0
LINE
  5
144
100
AcDbEntity
  8
2
370
    50
100
AcDbLine
 10
-226.701075
 20
-123.599403
 30
0.0
 11
-210.365075
 21
-123.599403
 31
0.0
  0
LINE
  5
145
100
AcDbEntity
  8
2
370
    25
100
AcDbLine
 10
-240.033075
 20
-101.839403
 30
0.0
 11
-232.533075
 21
-101.839403
 31
0.0
  0
LINE
  5
146
100
AcDbEntity
  8
2
370
    25
100
AcDbLine
 10
-204.533075
 20
-101.839403
 30
0.0
 11
-197.033075
 21
-101.839403
 31
0.0
  0
LINE
  5
147
100
AcDbEntity
  8
2
370
    25
100
AcDbLine
 10
-240.033075
 20
-103.439403
 30
0.0
 11
-232.533075
 21
-103.439403
 31
0.0
  0
LINE
  5
148
100
AcDbEntity
  8
2
370
    25
100
AcDbLine
 10
-204.533075
 20
-103.439403
 30
0.0
 11
-197.033075
 21
-103.439403
 31
0.0
  0
ARC
  5
149
100
AcDbEntity
  8
2
370
    50
100
AcDbCircle
 10
-226.701075
 20
-117.767403
 30
0.0
 40
5.832
100
AcDbArc
 50
180.0
 51
270.0
  0
ARC
  5
14A
100
AcDbEntity
  8
2
370
    50
100
AcDbCircle
 10
-210.365075
 20
-117.767403
 30
0.0
 40
5.832
100
AcDbArc
 50
270.0
 51
360.0
  0
ARC
  5
14B
100
AcDbEntity
  8
2
370
    50
100
AcDbCircle
 10
-225.533075
 20
-63.60232
 30
0.0
 40
11.666667
100
AcDbArc
 50
233.130102
 51
306.869898
  0
ARC
  5
14C
100
AcDbEntity
  8
2
370
    50
100
AcDbCircle
 10
-211.533075
 20
-82.268987
 30
0.0
 40
11.666667
100
AcDbArc
 50
53.130102
 51
126.869898
  0
ARC
  5
14D
100
AcDbEntity
  8
2
370
    50
100
AcDbCircle
 10
-211.533075
 20
-63.60232
 30
0.0
 40
11.666667
100
AcDbArc
 50
233.130102
 51
306.869898
  0
LINE
  5
14E
100
AcDbEntity
  8
2
370
    50
100
AcDbLine
 10
-204.533075
 20
-117.767403
 30
0.0
 11
-204.533075
 21
-72.935654
 31
0.0
  0
LINE
  5
14F
100
AcDbEntity
  8
2
370
    50
100
AcDbLine
 10
-232.533075
 20
-117.767403
 30
0.0
 11
-232.533075
 21
-72.950783
 31
0.0
  0
LINE
  5
150
100
AcDbEntity
  8
2
370
    50
100
AcDbLine
 10
-212.033075
 20
-196.051218
 30
0.0
 11
-211.533075
 21
-195.551218
 31
0.0
  0
LINE
  5
151
100
AcDbEntity
  8
2
370
    50
100
AcDbLine
 10
-225.033075
 20
-196.051218
 30
0.0
 11
-214.533075
 21
-196.051218
 31
0.0
  0
LINE
  5
152
100
AcDbEntity
  8
2
370
    50
100
AcDbLine
 10
-214.533075
 20
-196.051218
 30
0.0
 11
-212.033075
 21
-196.051218
 31
0.0
  0
LINE
  5
153
100
AcDbEntity
  8
2
370
    50
100
AcDbLine
 10
-217.158075
 20
-145.140021
 30
0.0
 11
-217.158075
 21
-139.239403
 31
0.0
  0
LINE
  5
154
100
AcDbEntity
  8
2
370
    50
100
AcDbLine
 10
-219.908075
 20
-145.140021
 30
0.0
 11
-219.908075
 21
-139.239403
 31
0.0
  0
LINE
  5
155
100
AcDbEntity
  8
2
370
    50
100
AcDbLine
 10
-217.934999
 20
-173.140021
 30
0.0
 11
-217.934999
 21
-187.561174
 31
0.0
  0
LINE
  5
156
100
AcDbEntity
  8
2
370
    50
100
AcDbLine
 10
-214.202948
 20
-195.551218
 30
0.0
 11
-215.934998
 21
-195.551218
 31
0.0
  0
ARC
  5
157
100
AcDbEntity
  8
2
370
    50
100
AcDbCircle
 10
-212.868011
 20
-194.019162
 30
0.0
 40
2.032055
100
AcDbArc
 50
228.93316
 51
311.06684
  0
ARC
  5
158
100
AcDbEntity
  8
2
370
    50
100
AcDbCircle
 10
-218.533075
 20
-189.051218
 30
0.0
 40
7.0
100
AcDbArc
 50
270.0
 51
291.786789
  0
ARC
  5
159
100
AcDbEntity
  8
2
370
    50
100
AcDbCircle
 10
-224.198138
 20
-194.019162
 30
0.0
 40
2.032055
100
AcDbArc
 50
228.93316
 51
311.06684
  0
LINE
  5
15A
100
AcDbEntity
  8
2
370
    50
100
AcDbLine
 10
-222.863202
 20
-195.551218
 30
0.0
 11
-221.131151
 21
-195.551218
 31
0.0
  0
ARC
  5
15B
100
AcDbEntity
  8
2
370
    50
100
AcDbCircle
 10
-218.533075
 20
-189.051218
 30
0.0
 40
7.0
100
AcDbArc
 50
248.213211
 51
270.0
  0
LINE
  5
15C
100
AcDbEntity
  8
2
370
    50
100
AcDbLine
 10
-243.033075
 20
-160.251218
 30
0.0
 11
-243.033075
 21
-166.051218
 31
0.0
  0
LINE
  5
15D
100
AcDbEntity
  8
2
370
    50
100
AcDbLine
 10
-194.033075
 20
-160.251218
 30
0.0
 11
-194.033075
 21
-166.051218
 31
0.0
  0
LINE
  5
15E
100
AcDbEntity
  8
2
370
    50
100
AcDbLine
 10
-216.533308
 20
-145.140021
 30
0.0
 11
-205.533308
 21
-145.140021
 31
0.0
  0
LINE
  5
15F
100
AcDbEntity
  8
2
370
    25
  6
CENTER
100
AcDbLine
 10
-226.033207
 20
-243.500678
 30
0.0
 11
-226.033207
 21
-188.111934
 31
0.0
  0
LINE
  5
160
100
AcDbEntity
  8
2
370
    50
100
AcDbLine
 10
-217.033075
 20
-144.850728
 30
0.0
 11
-217.033075
 21
-139.528078
 31
0.0
  0
LINE
  5
161
100
AcDbEntity
  8
2
370
    50
100
AcDbLine
 10
-205.033075
 20
-144.850728
 30
0.0
 11
-205.033075
 21
-139.528078
 31
0.0
  0
LINE
  5
162
100
AcDbEntity
  8
2
370
    50
100
AcDbLine
 10
-208.635159
 20
-139.528078
 30
0.0
 11
-208.635159
 21
-144.850728
 31
0.0
  0
LINE
  5
163
100
AcDbEntity
  8
2
370
    50
100
AcDbLine
 10
-207.468893
 20
-139.528078
 30
0.0
 11
-207.468893
 21
-144.850728
 31
0.0
  0
LINE
  5
164
100
AcDbEntity
  8
2
370
    50
100
AcDbLine
 10
-205.070977
 20
-139.528078
 30
0.0
 11
-205.070977
 21
-144.850728
 31
0.0
  0
LINE
  5
165
100
AcDbEntity
  8
2
370
    50
100
AcDbLine
 10
-205.533075
 20
-145.139403
 30
0.0
 11
-205.033075
 21
-144.850728
 31
0.0
  0
LINE
  5
166
100
AcDbEntity
  8
2
370
    50
100
AcDbLine
 10
-207.468893
 20
-144.850728
 30
0.0
 11
-208.635159
 21
-144.850728
 31
0.0
  0
LINE
  5
167
100
AcDbEntity
  8
2
370
    50
100
AcDbLine
 10
-217.033075
 20
-144.850728
 30
0.0
 11
-216.533075
 21
-145.139403
 31
0.0
  0
LINE
  5
168
100
AcDbEntity
  8
2
370
    50
100
AcDbLine
 10
-217.033075
 20
-139.528078
 30
0.0
 11
-216.533075
 21
-139.239403
 31
0.0
  0
ARC
  5
169
100
AcDbEntity
  8
2
370
    50
100
AcDbCircle
 10
-211.033075
 20
-135.035773
 30
0.0
 40
10.10363
100
AcDbArc
 50
270.0
 51
283.729133
  0
ARC
  5
16A
100
AcDbEntity
  8
2
370
    50
100
AcDbCircle
 10
-211.033075
 20
-149.343032
 30
0.0
 40
10.10363
100
AcDbArc
 50
76.270867
 51
90.0
  0
LINE
  5
16B
100
AcDbEntity
  8
2
370
    50
100
AcDbLine
 10
-207.468893
 20
-139.528078
 30
0.0
 11
-208.635159
 21
-139.528078
 31
0.0
  0
LINE
  5
16C
100
AcDbEntity
  8
2
370
    50
100
AcDbLine
 10
-205.033075
 20
-144.850728
 30
0.0
 11
-205.070977
 21
-144.850728
 31
0.0
  0
ARC
  5
16D
100
AcDbEntity
  8
2
370
    50
100
AcDbCircle
 10
-206.269935
 20
-142.505242
 30
0.0
 40
2.634161
100
AcDbArc
 50
242.924933
 51
297.075067
  0
ARC
  5
16E
100
AcDbEntity
  8
2
370
    50
100
AcDbCircle
 10
-206.269935
 20
-141.873563
 30
0.0
 40
2.634161
100
AcDbArc
 50
62.924933
 51
117.075067
  0
LINE
  5
16F
100
AcDbEntity
  8
2
370
    50
100
AcDbLine
 10
-205.533075
 20
-139.239403
 30
0.0
 11
-205.033075
 21
-139.528078
 31
0.0
  0
ARC
  5
170
100
AcDbEntity
  8
2
370
    50
100
AcDbCircle
 10
-211.033075
 20
-135.035773
 30
0.0
 40
10.10363
100
AcDbArc
 50
256.270867
 51
270.0
  0
LINE
  5
171
100
AcDbEntity
  8
2
370
    50
100
AcDbLine
 10
-214.597257
 20
-144.850728
 30
0.0
 11
-213.430991
 21
-144.850728
 31
0.0
  0
LINE
  5
172
100
AcDbEntity
  8
2
370
    50
100
AcDbLine
 10
-213.43099
 20
-139.528078
 30
0.0
 11
-213.430991
 21
-144.850728
 31
0.0
  0
LINE
  5
173
100
AcDbEntity
  8
2
370
    50
100
AcDbLine
 10
-214.597257
 20
-139.528078
 30
0.0
 11
-214.597257
 21
-144.850728
 31
0.0
  0
ARC
  5
174
100
AcDbEntity
  8
2
370
    50
100
AcDbCircle
 10
-215.796215
 20
-142.505242
 30
0.0
 40
2.634161
100
AcDbArc
 50
242.924933
 51
297.075067
  0
LINE
  5
175
100
AcDbEntity
  8
2
370
    50
100
AcDbLine
 10
-216.995173
 20
-139.528078
 30
0.0
 11
-216.995173
 21
-144.850728
 31
0.0
  0
LINE
  5
176
100
AcDbEntity
  8
2
370
    50
100
AcDbLine
 10
-216.995173
 20
-144.850728
 30
0.0
 11
-217.033075
 21
-144.850728
 31
0.0
  0
ARC
  5
177
100
AcDbEntity
  8
2
370
    50
100
AcDbCircle
 10
-211.033075
 20
-149.343032
 30
0.0
 40
10.10363
100
AcDbArc
 50
90.0
 51
103.729133
  0
ARC
  5
178
100
AcDbEntity
  8
2
370
    50
100
AcDbCircle
 10
-215.796215
 20
-141.873563
 30
0.0
 40
2.634161
100
AcDbArc
 50
62.924933
 51
117.075067
  0
LINE
  5
179
100
AcDbEntity
  8
2
370
    50
100
AcDbLine
 10
-214.597257
 20
-139.528078
 30
0.0
 11
-213.430991
 21
-139.528078
 31
0.0
  0
LINE
  5
17A
100
AcDbEntity
  8
2
370
    50
100
AcDbLine
 10
-231.533308
 20
-145.140021
 30
0.0
 11
-219.782842
 21
-145.140021
 31
0.0
  0
LINE
  5
17B
100
AcDbEntity
  8
2
370
    25
  6
CENTER
100
AcDbLine
 10
-211.033207
 20
-243.500835
 30
0.0
 11
-211.033207
 21
-188.111934
 31
0.0
  0
LINE
  5
17C
100
AcDbEntity
  8
2
370
    50
100
AcDbLine
 10
-232.033075
 20
-144.850728
 30
0.0
 11
-232.033075
 21
-139.528078
 31
0.0
  0
LINE
  5
17D
100
AcDbEntity
  8
2
370
    50
100
AcDbLine
 10
-220.033075
 20
-144.850728
 30
0.0
 11
-220.033075
 21
-139.528078
 31
0.0
  0
LINE
  5
17E
100
AcDbEntity
  8
2
370
    50
100
AcDbLine
 10
-223.635159
 20
-139.528078
 30
0.0
 11
-223.635159
 21
-144.850728
 31
0.0
  0
LINE
  5
17F
100
AcDbEntity
  8
2
370
    50
100
AcDbLine
 10
-222.468893
 20
-139.528078
 30
0.0
 11
-222.468893
 21
-144.850728
 31
0.0
  0
LINE
  5
180
100
AcDbEntity
  8
2
370
    50
100
AcDbLine
 10
-220.070977
 20
-139.528078
 30
0.0
 11
-220.070977
 21
-144.850728
 31
0.0
  0
LINE
  5
181
100
AcDbEntity
  8
2
370
    50
100
AcDbLine
 10
-220.533075
 20
-145.139403
 30
0.0
 11
-220.033075
 21
-144.850728
 31
0.0
  0
LINE
  5
182
100
AcDbEntity
  8
2
370
    50
100
AcDbLine
 10
-222.468893
 20
-144.850728
 30
0.0
 11
-223.635159
 21
-144.850728
 31
0.0
  0
LINE
  5
183
100
AcDbEntity
  8
2
370
    50
100
AcDbLine
 10
-232.033075
 20
-144.850728
 30
0.0
 11
-231.533075
 21
-145.139403
 31
0.0
  0
LINE
  5
184
100
AcDbEntity
  8
2
370
    50
100
AcDbLine
 10
-232.033075
 20
-139.528078
 30
0.0
 11
-231.533075
 21
-139.239403
 31
0.0
  0
ARC
  5
185
100
AcDbEntity
  8
2
370
    50
100
AcDbCircle
 10
-226.033075
 20
-135.035773
 30
0.0
 40
10.10363
100
AcDbArc
 50
270.0
 51
283.729133
  0
ARC
  5
186
100
AcDbEntity
  8
2
370
    50
100
AcDbCircle
 10
-226.033075
 20
-149.343032
 30
0.0
 40
10.10363
100
AcDbArc
 50
76.270867
 51
90.0
  0
LINE
  5
187
100
AcDbEntity
  8
2
370
    50
100
AcDbLine
 10
-222.468893
 20
-139.528078
 30
0.0
 11
-223.635159
 21
-139.528078
 31
0.0
  0
LINE
  5
188
100
AcDbEntity
  8
2
370
    50
100
AcDbLine
 10
-220.033075
 20
-144.850728
 30
0.0
 11
-220.070977
 21
-144.850728
 31
0.0
  0
ARC
  5
189
100
AcDbEntity
  8
2
370
    50
100
AcDbCircle
 10
-221.269935
 20
-142.505242
 30
0.0
 40
2.634161
100
AcDbArc
 50
242.924933
 51
297.075067
  0
ARC
  5
18A
100
AcDbEntity
  8
2
370
    50
100
AcDbCircle
 10
-221.269935
 20
-141.873563
 30
0.0
 40
2.634161
100
AcDbArc
 50
62.924933
 51
117.075067
  0
LINE
  5
18B
100
AcDbEntity
  8
2
370
    50
100
AcDbLine
 10
-220.533075
 20
-139.239403
 30
0.0
 11
-220.033075
 21
-139.528078
 31
0.0
  0
LINE
  5
18C
100
AcDbEntity
  8
2
370
    50
100
AcDbLine
 10
-220.033075
 20
-139.528078
 30
0.0
 11
-220.070977
 21
-139.528078
 31
0.0
  0
ARC
  5
18D
100
AcDbEntity
  8
2
370
    50
100
AcDbCircle
 10
-226.033075
 20
-135.035773
 30
0.0
 40
10.10363
100
AcDbArc
 50
256.270867
 51
270.0
  0
LINE
  5
18E
100
AcDbEntity
  8
2
370
    50
100
AcDbLine
 10
-229.597257
 20
-144.850728
 30
0.0
 11
-228.430991
 21
-144.850728
 31
0.0
  0
LINE
  5
18F
100
AcDbEntity
  8
2
370
    50
100
AcDbLine
 10
-228.43099
 20
-139.528078
 30
0.0
 11
-228.430991
 21
-144.850728
 31
0.0
  0
LINE
  5
190
100
AcDbEntity
  8
2
370
    50
100
AcDbLine
 10
-229.597257
 20
-139.528078
 30
0.0
 11
-229.597257
 21
-144.850728
 31
0.0
  0
ARC
  5
191
100
AcDbEntity
  8
2
370
    50
100
AcDbCircle
 10
-230.796215
 20
-142.505242
 30
0.0
 40
2.634161
100
AcDbArc
 50
242.924933
 51
297.075067
  0
LINE
  5
192
100
AcDbEntity
  8
2
370
    50
100
AcDbLine
 10
-231.995173
 20
-139.528078
 30
0.0
 11
-231.995173
 21
-144.850728
 31
0.0
  0
LINE
  5
193
100
AcDbEntity
  8
2
370
    50
100
AcDbLine
 10
-231.995173
 20
-144.850728
 30
0.0
 11
-232.033075
 21
-144.850728
 31
0.0
  0
ARC
  5
194
100
AcDbEntity
  8
2
370
    50
100
AcDbCircle
 10
-226.033075
 20
-149.343032
 30
0.0
 40
10.10363
100
AcDbArc
 50
90.0
 51
103.729133
  0
ARC
  5
195
100
AcDbEntity
  8
2
370
    50
100
AcDbCircle
 10
-230.796215
 20
-141.873563
 30
0.0
 40
2.634161
100
AcDbArc
 50
62.924933
 51
117.075067
  0
LINE
  5
196
100
AcDbEntity
  8
2
370
    50
100
AcDbLine
 10
-229.597257
 20
-139.528078
 30
0.0
 11
-228.430991
 21
-139.528078
 31
0.0
  0
LINE
  5
197
100
AcDbEntity
  8
2
370
    50
100
AcDbLine
 10
-203.794431
 20
-160.251218
 30
0.0
 11
-194.033075
 21
-160.251218
 31
0.0
  0
LINE
  5
198
100
AcDbEntity
  8
2
370
    50
100
AcDbLine
 10
-243.033075
 20
-160.251218
 30
0.0
 11
-233.282842
 21
-160.251218
 31
0.0
  0
LINE
  5
199
100
AcDbEntity
  8
2
370
    50
100
AcDbLine
 10
-243.033075
 20
-162.051218
 30
0.0
 11
-233.282842
 21
-162.051218
 31
0.0
  0
LINE
  5
19A
100
AcDbEntity
  8
2
370
    50
100
AcDbLine
 10
-203.783308
 20
-162.051218
 30
0.0
 11
-194.033075
 21
-162.051218
 31
0.0
  0
LINE
  5
19B
100
AcDbEntity
  8
2
370
    50
100
AcDbLine
 10
-204.133308
 20
-166.051218
 30
0.0
 11
-194.033075
 21
-166.051218
 31
0.0
  0
LINE
  5
19C
100
AcDbEntity
  8
2
370
    50
100
AcDbLine
 10
-243.033075
 20
-166.051218
 30
0.0
 11
-232.932842
 21
-166.051218
 31
0.0
  0
LINE
  5
19D
100
AcDbEntity
  8
2
370
    50
100
AcDbLine
 10
-225.033075
 20
-196.051218
 30
0.0
 11
-225.533075
 21
-195.551218
 31
0.0
  0
LINE
  5
19E
100
AcDbEntity
  8
2
370
    50
100
AcDbLine
 10
-211.533075
 20
-195.551218
 30
0.0
 11
-211.533075
 21
-187.907372
 31
0.0
  0
LINE
  5
19F
100
AcDbEntity
  8
2
370
    50
100
AcDbLine
 10
-225.533075
 20
-195.551218
 30
0.0
 11
-225.533075
 21
-187.925247
 31
0.0
  0
LINE
  5
1A0
100
AcDbEntity
  8
2
370
    25
  6
CENTER
100
AcDbLine
 10
-226.033207
 20
-243.500678
 30
0.0
 11
-277.898444
 21
-212.467331
 31
0.0
  0
LINE
  5
1A1
100
AcDbEntity
  8
2
370
    25
  6
CENTER
100
AcDbLine
 10
-211.033207
 20
-243.500835
 30
0.0
 11
-159.167707
 21
-212.467331
 31
0.0
  0
LINE
  5
1A2
100
AcDbEntity
  8
2
370
    50
100
AcDbLine
 10
-283.898697
 20
-293.548788
 30
0.0
 11
-283.898697
 21
-293.04848
 31
0.0
  0
LINE
  5
1A3
100
AcDbEntity
  8
2
370
    50
100
AcDbLine
 10
-271.898697
 20
-293.04848
 30
0.0
 11
-271.898697
 21
-293.548788
 31
0.0
  0
LINE
  5
1A4
100
AcDbEntity
  8
2
370
    50
100
AcDbLine
 10
-283.898697
 20
-293.04848
 30
0.0
 11
-283.398697
 21
-292.54848
 31
0.0
  0
LINE
  5
1A5
100
AcDbEntity
  8
2
370
    50
100
AcDbLine
 10
-272.398697
 20
-292.54848
 30
0.0
 11
-271.898697
 21
-293.04848
 31
0.0
  0
LINE
  5
1A6
100
AcDbEntity
  8
2
370
    50
100
AcDbLine
 10
-283.898697
 20
-293.04848
 30
0.0
 11
-271.898697
 21
-293.04848
 31
0.0
  0
LINE
  5
1A7
100
AcDbEntity
  8
2
370
    50
100
AcDbLine
 10
-217.283308
 20
-145.140021
 30
0.0
 11
-204.783308
 21
-145.140021
 31
0.0
  0
LINE
  5
1A8
100
AcDbEntity
  8
2
370
    50
100
AcDbLine
 10
-218.283308
 20
-173.140021
 30
0.0
 11
-203.783308
 21
-173.140021
 31
0.0
  0
LINE
  5
1A9
100
AcDbEntity
  8
2
370
    50
100
AcDbLine
 10
-217.933308
 20
-167.140021
 30
0.0
 11
-204.133308
 21
-167.140021
 31
0.0
  0
LINE
  5
1AA
100
AcDbEntity
  8
2
370
    50
100
AcDbLine
 10
-217.933308
 20
-164.640021
 30
0.0
 11
-204.133308
 21
-164.640021
 31
0.0
  0
LINE
  5
1AB
100
AcDbEntity
  8
2
370
    50
100
AcDbLine
 10
-217.933308
 20
-159.640021
 30
0.0
 11
-204.133308
 21
-159.640021
 31
0.0
  0
LINE
  5
1AC
100
AcDbEntity
  8
2
370
    50
100
AcDbLine
 10
-217.933308
 20
-157.140021
 30
0.0
 11
-204.133308
 21
-157.140021
 31
0.0
  0
LINE
  5
1AD
100
AcDbEntity
  8
2
370
    50
100
AcDbLine
 10
-217.933308
 20
-152.140021
 30
0.0
 11
-204.133308
 21
-152.140021
 31
0.0
  0
LINE
  5
1AE
100
AcDbEntity
  8
2
370
    50
100
AcDbLine
 10
-217.933308
 20
-149.640021
 30
0.0
 11
-204.133308
 21
-149.640021
 31
0.0
  0
LINE
  5
1AF
100
AcDbEntity
  8
2
370
    50
100
AcDbLine
 10
-218.283308
 20
-148.880086
 30
0.0
 11
-218.283308
 21
-146.140021
 31
0.0
  0
LINE
  5
1B0
100
AcDbEntity
  8
2
370
    50
100
AcDbLine
 10
-218.283308
 20
-156.380086
 30
0.0
 11
-218.283308
 21
-152.899955
 31
0.0
  0
LINE
  5
1B1
100
AcDbEntity
  8
2
370
    50
100
AcDbLine
 10
-218.283308
 20
-173.140021
 30
0.0
 11
-218.283308
 21
-167.899955
 31
0.0
  0
LINE
  5
1B2
100
AcDbEntity
  8
2
370
    50
100
AcDbLine
 10
-218.283308
 20
-163.880086
 30
0.0
 11
-218.283308
 21
-160.399955
 31
0.0
  0
LINE
  5
1B3
100
AcDbEntity
  8
2
370
    50
100
AcDbLine
 10
-217.933308
 20
-152.140021
 30
0.0
 11
-217.933308
 21
-149.640021
 31
0.0
  0
LINE
  5
1B4
100
AcDbEntity
  8
2
370
    50
100
AcDbLine
 10
-217.933308
 20
-167.140021
 30
0.0
 11
-217.933308
 21
-164.640021
 31
0.0
  0
LINE
  5
1B5
100
AcDbEntity
  8
2
370
    50
100
AcDbLine
 10
-217.933308
 20
-159.640021
 30
0.0
 11
-217.933308
 21
-157.140021
 31
0.0
  0
ARC
  5
1B6
100
AcDbEntity
  8
2
370
    50
100
AcDbCircle
 10
-217.283308
 20
-148.880086
 30
0.0
 40
1.0
100
AcDbArc
 50
180.0
 51
229.458398
  0
ARC
  5
1B7
100
AcDbEntity
  8
2
370
    50
100
AcDbCircle
 10
-217.283308
 20
-152.899955
 30
0.0
 40
1.0
100
AcDbArc
 50
130.541602
 51
180.0
  0
ARC
  5
1B8
100
AcDbEntity
  8
2
370
    50
100
AcDbCircle
 10
-217.283308
 20
-156.380086
 30
0.0
 40
1.0
100
AcDbArc
 50
180.0
 51
229.458398
  0
ARC
  5
1B9
100
AcDbEntity
  8
2
370
    50
100
AcDbCircle
 10
-217.283308
 20
-160.399955
 30
0.0
 40
1.0
100
AcDbArc
 50
130.541602
 51
180.0
  0
ARC
  5
1BA
100
AcDbEntity
  8
2
370
    50
100
AcDbCircle
 10
-217.283308
 20
-163.880086
 30
0.0
 40
1.0
100
AcDbArc
 50
180.0
 51
229.458398
  0
ARC
  5
1BB
100
AcDbEntity
  8
2
370
    50
100
AcDbCircle
 10
-217.283308
 20
-167.899955
 30
0.0
 40
1.0
100
AcDbArc
 50
130.541602
 51
180.0
  0
ARC
  5
1BC
100
AcDbEntity
  8
2
370
    50
100
AcDbCircle
 10
-217.283308
 20
-146.140021
 30
0.0
 40
1.0
100
AcDbArc
 50
90.0
 51
180.0
  0
LINE
  5
1BD
100
AcDbEntity
  8
2
370
    50
100
AcDbLine
 10
-203.783308
 20
-148.880086
 30
0.0
 11
-203.783308
 21
-146.140021
 31
0.0
  0
LINE
  5
1BE
100
AcDbEntity
  8
2
370
    50
100
AcDbLine
 10
-203.783308
 20
-156.380086
 30
0.0
 11
-203.783308
 21
-152.899955
 31
0.0
  0
LINE
  5
1BF
100
AcDbEntity
  8
2
370
    50
100
AcDbLine
 10
-203.783308
 20
-173.140021
 30
0.0
 11
-203.783308
 21
-167.899955
 31
0.0
  0
LINE
  5
1C0
100
AcDbEntity
  8
2
370
    50
100
AcDbLine
 10
-203.783308
 20
-163.880086
 30
0.0
 11
-203.783308
 21
-160.399955
 31
0.0
  0
LINE
  5
1C1
100
AcDbEntity
  8
2
370
    50
100
AcDbLine
 10
-204.133308
 20
-152.140021
 30
0.0
 11
-204.133308
 21
-149.640021
 31
0.0
  0
LINE
  5
1C2
100
AcDbEntity
  8
2
370
    50
100
AcDbLine
 10
-204.133308
 20
-167.140021
 30
0.0
 11
-204.133308
 21
-164.640021
 31
0.0
  0
LINE
  5
1C3
100
AcDbEntity
  8
2
370
    50
100
AcDbLine
 10
-204.133308
 20
-159.640021
 30
0.0
 11
-204.133308
 21
-157.140021
 31
0.0
  0
LINE
  5
1C4
100
AcDbEntity
  8
2
370
    50
100
AcDbLine
 10
-204.133308
 20
-173.140021
 30
0.0
 11
-204.133308
 21
-187.561174
 31
0.0
  0
ARC
  5
1C5
100
AcDbEntity
  8
2
370
    50
100
AcDbCircle
 10
-204.783308
 20
-148.880086
 30
0.0
 40
1.0
100
AcDbArc
 50
310.541602
 51
360.0
  0
ARC
  5
1C6
100
AcDbEntity
  8
2
370
    50
100
AcDbCircle
 10
-204.783308
 20
-152.899955
 30
0.0
 40
1.0
100
AcDbArc
 50
0.0
 51
49.458398
  0
ARC
  5
1C7
100
AcDbEntity
  8
2
370
    50
100
AcDbCircle
 10
-204.783308
 20
-156.380086
 30
0.0
 40
1.0
100
AcDbArc
 50
310.541602
 51
360.0
  0
ARC
  5
1C8
100
AcDbEntity
  8
2
370
    50
100
AcDbCircle
 10
-204.783308
 20
-160.399955
 30
0.0
 40
1.0
100
AcDbArc
 50
0.0
 51
49.458398
  0
ARC
  5
1C9
100
AcDbEntity
  8
2
370
    50
100
AcDbCircle
 10
-204.783308
 20
-163.880086
 30
0.0
 40
1.0
100
AcDbArc
 50
310.541602
 51
360.0
  0
ARC
  5
1CA
100
AcDbEntity
  8
2
370
    50
100
AcDbCircle
 10
-204.783308
 20
-167.899955
 30
0.0
 40
1.0
100
AcDbArc
 50
0.0
 51
49.458398
  0
ARC
  5
1CB
100
AcDbEntity
  8
2
370
    50
100
AcDbCircle
 10
-204.783308
 20
-146.140021
 30
0.0
 40
1.0
100
AcDbArc
 50
0.0
 51
90.0
  0
ARC
  5
1CC
100
AcDbEntity
  8
2
370
    50
100
AcDbCircle
 10
-214.482761
 20
-182.969168
 30
0.0
 40
5.749696
100
AcDbArc
 50
233.130102
 51
306.869898
  0
ARC
  5
1CD
100
AcDbEntity
  8
2
370
    50
100
AcDbCircle
 10
-207.583126
 20
-192.168682
 30
0.0
 40
5.749696
100
AcDbArc
 50
53.130102
 51
126.869898
  0
ARC
  5
1CE
100
AcDbEntity
  8
2
370
    50
100
AcDbCircle
 10
-207.583126
 20
-182.969168
 30
0.0
 40
5.749696
100
AcDbArc
 50
233.130102
 51
306.869898
  0
LINE
  5
1CF
100
AcDbEntity
  8
2
370
    50
100
AcDbLine
 10
-214.202948
 20
-195.551218
 30
0.0
 11
-214.202948
 21
-188.711044
 31
0.0
  0
LINE
  5
1D0
100
AcDbEntity
  8
2
370
    50
100
AcDbLine
 10
-215.934998
 20
-195.551218
 30
0.0
 11
-215.934998
 21
-188.514595
 31
0.0
  0
LINE
  5
1D1
100
AcDbEntity
  8
2
370
    50
100
AcDbLine
 10
-219.131151
 20
-173.140021
 30
0.0
 11
-219.131151
 21
-187.561174
 31
0.0
  0
ARC
  5
1D2
100
AcDbEntity
  8
2
370
    50
100
AcDbCircle
 10
-229.483025
 20
-182.969168
 30
0.0
 40
5.749696
100
AcDbArc
 50
233.130102
 51
306.869898
  0
ARC
  5
1D3
100
AcDbEntity
  8
2
370
    50
100
AcDbCircle
 10
-222.583389
 20
-192.168682
 30
0.0
 40
5.749696
100
AcDbArc
 50
53.130102
 51
126.869898
  0
ARC
  5
1D4
100
AcDbEntity
  8
2
370
    50
100
AcDbCircle
 10
-222.583389
 20
-182.969168
 30
0.0
 40
5.749696
100
AcDbArc
 50
233.130102
 51
306.869898
  0
LINE
  5
1D5
100
AcDbEntity
  8
2
370
    50
100
AcDbLine
 10
-232.932842
 20
-173.140021
 30
0.0
 11
-232.932842
 21
-187.561174
 31
0.0
  0
LINE
  5
1D6
100
AcDbEntity
  8
2
370
    50
100
AcDbLine
 10
-218.782842
 20
-173.140021
 30
0.0
 11
-233.282842
 21
-173.140021
 31
0.0
  0
LINE
  5
1D7
100
AcDbEntity
  8
2
370
    50
100
AcDbLine
 10
-219.132842
 20
-157.140021
 30
0.0
 11
-232.932842
 21
-157.140021
 31
0.0
  0
LINE
  5
1D8
100
AcDbEntity
  8
2
370
    50
100
AcDbLine
 10
-219.132842
 20
-152.140021
 30
0.0
 11
-232.932842
 21
-152.140021
 31
0.0
  0
LINE
  5
1D9
100
AcDbEntity
  8
2
370
    50
100
AcDbLine
 10
-219.132842
 20
-149.640021
 30
0.0
 11
-232.932842
 21
-149.640021
 31
0.0
  0
LINE
  5
1DA
100
AcDbEntity
  8
2
370
    50
100
AcDbLine
 10
-218.782842
 20
-148.880086
 30
0.0
 11
-218.782842
 21
-146.140021
 31
0.0
  0
LINE
  5
1DB
100
AcDbEntity
  8
2
370
    50
100
AcDbLine
 10
-218.782842
 20
-156.380086
 30
0.0
 11
-218.782842
 21
-152.899955
 31
0.0
  0
LINE
  5
1DC
100
AcDbEntity
  8
2
370
    50
100
AcDbLine
 10
-219.132842
 20
-152.140021
 30
0.0
 11
-219.132842
 21
-149.640021
 31
0.0
  0
LINE
  5
1DD
100
AcDbEntity
  8
2
370
    50
100
AcDbLine
 10
-219.132842
 20
-159.640021
 30
0.0
 11
-219.132842
 21
-157.140021
 31
0.0
  0
ARC
  5
1DE
100
AcDbEntity
  8
2
370
    50
100
AcDbCircle
 10
-219.782842
 20
-148.880086
 30
0.0
 40
1.0
100
AcDbArc
 50
310.541602
 51
360.0
  0
ARC
  5
1DF
100
AcDbEntity
  8
2
370
    50
100
AcDbCircle
 10
-219.782842
 20
-152.899955
 30
0.0
 40
1.0
100
AcDbArc
 50
0.0
 51
49.458398
  0
ARC
  5
1E0
100
AcDbEntity
  8
2
370
    50
100
AcDbCircle
 10
-219.782842
 20
-156.380086
 30
0.0
 40
1.0
100
AcDbArc
 50
310.541602
 51
360.0
  0
LINE
  5
1E1
100
AcDbEntity
  8
2
370
    50
100
AcDbLine
 10
-233.282842
 20
-148.880086
 30
0.0
 11
-233.282842
 21
-146.140021
 31
0.0
  0
LINE
  5
1E2
100
AcDbEntity
  8
2
370
    50
100
AcDbLine
 10
-233.282842
 20
-156.380086
 30
0.0
 11
-233.282842
 21
-152.899955
 31
0.0
  0
LINE
  5
1E3
100
AcDbEntity
  8
2
370
    50
100
AcDbLine
 10
-232.932842
 20
-152.140021
 30
0.0
 11
-232.932842
 21
-149.640021
 31
0.0
  0
LINE
  5
1E4
100
AcDbEntity
  8
2
370
    50
100
AcDbLine
 10
-232.932842
 20
-159.640021
 30
0.0
 11
-232.932842
 21
-157.140021
 31
0.0
  0
ARC
  5
1E5
100
AcDbEntity
  8
2
370
    50
100
AcDbCircle
 10
-232.282842
 20
-148.880086
 30
0.0
 40
1.0
100
AcDbArc
 50
180.0
 51
229.458398
  0
ARC
  5
1E6
100
AcDbEntity
  8
2
370
    50
100
AcDbCircle
 10
-232.282842
 20
-152.899955
 30
0.0
 40
1.0
100
AcDbArc
 50
130.541602
 51
180.0
  0
ARC
  5
1E7
100
AcDbEntity
  8
2
370
    50
100
AcDbCircle
 10
-232.282842
 20
-156.380086
 30
0.0
 40
1.0
100
AcDbArc
 50
180.0
 51
229.458398
  0
ARC
  5
1E8
100
AcDbEntity
  8
2
370
    50
100
AcDbCircle
 10
-219.782842
 20
-146.140021
 30
0.0
 40
1.0
100
AcDbArc
 50
0.0
 51
90.0
  0
ARC
  5
1E9
100
AcDbEntity
  8
2
370
    50
100
AcDbCircle
 10
-232.282842
 20
-146.140021
 30
0.0
 40
1.0
100
AcDbArc
 50
90.0
 51
180.0
  0
LINE
  5
1EA
100
AcDbEntity
  8
2
370
    50
100
AcDbLine
 10
-219.132842
 20
-159.640021
 30
0.0
 11
-232.932842
 21
-159.640021
 31
0.0
  0
ARC
  5
1EB
100
AcDbEntity
  8
2
370
    50
100
AcDbCircle
 10
-219.782842
 20
-160.399955
 30
0.0
 40
1.0
100
AcDbArc
 50
0.0
 51
49.458398
  0
LINE
  5
1EC
100
AcDbEntity
  8
2
370
    50
100
AcDbLine
 10
-218.782842
 20
-163.880086
 30
0.0
 11
-218.782842
 21
-160.399955
 31
0.0
  0
LINE
  5
1ED
100
AcDbEntity
  8
2
370
    50
100
AcDbLine
 10
-219.132842
 20
-164.640021
 30
0.0
 11
-232.932842
 21
-164.640021
 31
0.0
  0
ARC
  5
1EE
100
AcDbEntity
  8
2
370
    50
100
AcDbCircle
 10
-219.782842
 20
-163.880086
 30
0.0
 40
1.0
100
AcDbArc
 50
310.541602
 51
360.0
  0
LINE
  5
1EF
100
AcDbEntity
  8
2
370
    50
100
AcDbLine
 10
-219.132842
 20
-167.140021
 30
0.0
 11
-219.132842
 21
-164.640021
 31
0.0
  0
LINE
  5
1F0
100
AcDbEntity
  8
2
370
    50
100
AcDbLine
 10
-219.132842
 20
-167.140021
 30
0.0
 11
-232.932842
 21
-167.140021
 31
0.0
  0
ARC
  5
1F1
100
AcDbEntity
  8
2
370
    50
100
AcDbCircle
 10
-219.782842
 20
-167.899955
 30
0.0
 40
1.0
100
AcDbArc
 50
0.0
 51
49.458398
  0
LINE
  5
1F2
100
AcDbEntity
  8
2
370
    50
100
AcDbLine
 10
-218.782842
 20
-173.140021
 30
0.0
 11
-218.782842
 21
-167.899955
 31
0.0
  0
LINE
  5
1F3
100
AcDbEntity
  8
2
370
    50
100
AcDbLine
 10
-233.282842
 20
-173.140021
 30
0.0
 11
-233.282842
 21
-167.899955
 31
0.0
  0
ARC
  5
1F4
100
AcDbEntity
  8
2
370
    50
100
AcDbCircle
 10
-232.282842
 20
-167.899955
 30
0.0
 40
1.0
100
AcDbArc
 50
130.541602
 51
180.0
  0
LINE
  5
1F5
100
AcDbEntity
  8
2
370
    50
100
AcDbLine
 10
-232.932842
 20
-167.140021
 30
0.0
 11
-232.932842
 21
-164.640021
 31
0.0
  0
ARC
  5
1F6
100
AcDbEntity
  8
2
370
    50
100
AcDbCircle
 10
-232.282842
 20
-163.880086
 30
0.0
 40
1.0
100
AcDbArc
 50
180.0
 51
229.458398
  0
LINE
  5
1F7
100
AcDbEntity
  8
2
370
    50
100
AcDbLine
 10
-233.282842
 20
-163.880086
 30
0.0
 11
-233.282842
 21
-160.399955
 31
0.0
  0
ARC
  5
1F8
100
AcDbEntity
  8
2
370
    50
100
AcDbCircle
 10
-232.282842
 20
-160.399955
 30
0.0
 40
1.0
100
AcDbArc
 50
130.541602
 51
180.0
  0
LINE
  5
1F9
100
AcDbEntity
  8
2
370
    50
100
AcDbLine
 10
-222.863202
 20
-195.551218
 30
0.0
 11
-222.863202
 21
-188.728897
 31
0.0
  0
LINE
  5
1FA
100
AcDbEntity
  8
2
370
    50
100
AcDbLine
 10
-221.131151
 20
-195.551218
 30
0.0
 11
-221.131151
 21
-188.514595
 31
0.0
  0
LINE
  5
1FB
100
AcDbEntity
  8
2
370
    50
100
AcDbLine
 10
-270.648444
 20
-264.54848
 30
0.0
 11
-285.148444
 21
-264.54848
 31
0.0
  0
LINE
  5
1FC
100
AcDbEntity
  8
2
370
    50
100
AcDbLine
 10
-270.998444
 20
-270.54848
 30
0.0
 11
-284.798444
 21
-270.54848
 31
0.0
  0
LINE
  5
1FD
100
AcDbEntity
  8
2
370
    50
100
AcDbLine
 10
-270.998444
 20
-273.04848
 30
0.0
 11
-284.798444
 21
-273.04848
 31
0.0
  0
LINE
  5
1FE
100
AcDbEntity
  8
2
370
    50
100
AcDbLine
 10
-270.998444
 20
-278.04848
 30
0.0
 11
-284.798444
 21
-278.04848
 31
0.0
  0
LINE
  5
1FF
100
AcDbEntity
  8
2
370
    50
100
AcDbLine
 10
-270.998444
 20
-280.54848
 30
0.0
 11
-284.798444
 21
-280.54848
 31
0.0
  0
LINE
  5
200
100
AcDbEntity
  8
2
370
    50
100
AcDbLine
 10
-270.998444
 20
-285.54848
 30
0.0
 11
-284.798444
 21
-285.54848
 31
0.0
  0
LINE
  5
201
100
AcDbEntity
  8
2
370
    50
100
AcDbLine
 10
-270.998444
 20
-288.04848
 30
0.0
 11
-284.798444
 21
-288.04848
 31
0.0
  0
LINE
  5
202
100
AcDbEntity
  8
2
370
    50
100
AcDbLine
 10
-270.648444
 20
-288.808415
 30
0.0
 11
-270.648444
 21
-291.54848
 31
0.0
  0
LINE
  5
203
100
AcDbEntity
  8
2
370
    50
100
AcDbLine
 10
-270.648444
 20
-281.308415
 30
0.0
 11
-270.648444
 21
-284.788546
 31
0.0
  0
LINE
  5
204
100
AcDbEntity
  8
2
370
    50
100
AcDbLine
 10
-270.648444
 20
-264.54848
 30
0.0
 11
-270.648444
 21
-269.788546
 31
0.0
  0
LINE
  5
205
100
AcDbEntity
  8
2
370
    50
100
AcDbLine
 10
-270.648444
 20
-273.808415
 30
0.0
 11
-270.648444
 21
-277.288546
 31
0.0
  0
LINE
  5
206
100
AcDbEntity
  8
2
370
    50
100
AcDbLine
 10
-285.148444
 20
-288.808415
 30
0.0
 11
-285.148444
 21
-291.54848
 31
0.0
  0
LINE
  5
207
100
AcDbEntity
  8
2
370
    50
100
AcDbLine
 10
-285.148444
 20
-281.308415
 30
0.0
 11
-285.148444
 21
-284.788546
 31
0.0
  0
LINE
  5
208
100
AcDbEntity
  8
2
370
    50
100
AcDbLine
 10
-285.148444
 20
-264.54848
 30
0.0
 11
-285.148444
 21
-269.788546
 31
0.0
  0
LINE
  5
209
100
AcDbEntity
  8
2
370
    50
100
AcDbLine
 10
-285.148444
 20
-273.808415
 30
0.0
 11
-285.148444
 21
-277.288546
 31
0.0
  0
LINE
  5
20A
100
AcDbEntity
  8
2
370
    50
100
AcDbLine
 10
-270.998444
 20
-285.54848
 30
0.0
 11
-270.998444
 21
-288.04848
 31
0.0
  0
LINE
  5
20B
100
AcDbEntity
  8
2
370
    50
100
AcDbLine
 10
-284.798444
 20
-285.54848
 30
0.0
 11
-284.798444
 21
-288.04848
 31
0.0
  0
LINE
  5
20C
100
AcDbEntity
  8
2
370
    50
100
AcDbLine
 10
-270.998444
 20
-270.54848
 30
0.0
 11
-270.998444
 21
-273.04848
 31
0.0
  0
LINE
  5
20D
100
AcDbEntity
  8
2
370
    50
100
AcDbLine
 10
-270.998444
 20
-278.04848
 30
0.0
 11
-270.998444
 21
-280.54848
 31
0.0
  0
LINE
  5
20E
100
AcDbEntity
  8
2
370
    50
100
AcDbLine
 10
-284.798444
 20
-270.54848
 30
0.0
 11
-284.798444
 21
-273.04848
 31
0.0
  0
LINE
  5
20F
100
AcDbEntity
  8
2
370
    50
100
AcDbLine
 10
-284.798444
 20
-278.04848
 30
0.0
 11
-284.798444
 21
-280.54848
 31
0.0
  0
LINE
  5
210
100
AcDbEntity
  8
2
370
    50
100
AcDbLine
 10
-284.798444
 20
-264.54848
 30
0.0
 11
-284.798444
 21
-230.715477
 31
0.0
  0
LINE
  5
211
100
AcDbEntity
  8
2
370
    50
100
AcDbLine
 10
-270.998444
 20
-264.54848
 30
0.0
 11
-270.998444
 21
-230.65583
 31
0.0
  0
ARC
  5
212
100
AcDbEntity
  8
2
370
    50
100
AcDbCircle
 10
-284.148444
 20
-288.808415
 30
0.0
 40
1.0
100
AcDbArc
 50
130.541602
 51
180.0
  0
ARC
  5
213
100
AcDbEntity
  8
2
370
    50
100
AcDbCircle
 10
-284.148444
 20
-284.788546
 30
0.0
 40
1.0
100
AcDbArc
 50
180.0
 51
229.458398
  0
ARC
  5
214
100
AcDbEntity
  8
2
370
    50
100
AcDbCircle
 10
-284.148444
 20
-281.308415
 30
0.0
 40
1.0
100
AcDbArc
 50
130.541602
 51
180.0
  0
ARC
  5
215
100
AcDbEntity
  8
2
370
    50
100
AcDbCircle
 10
-284.148444
 20
-277.288546
 30
0.0
 40
1.0
100
AcDbArc
 50
180.0
 51
229.458398
  0
ARC
  5
216
100
AcDbEntity
  8
2
370
    50
100
AcDbCircle
 10
-284.148444
 20
-273.808415
 30
0.0
 40
1.0
100
AcDbArc
 50
130.541602
 51
180.0
  0
ARC
  5
217
100
AcDbEntity
  8
2
370
    50
100
AcDbCircle
 10
-284.148444
 20
-269.788546
 30
0.0
 40
1.0
100
AcDbArc
 50
180.0
 51
229.458398
  0
ARC
  5
218
100
AcDbEntity
  8
2
370
    50
100
AcDbCircle
 10
-271.648444
 20
-288.808415
 30
0.0
 40
1.0
100
AcDbArc
 50
0.0
 51
49.458398
  0
ARC
  5
219
100
AcDbEntity
  8
2
370
    50
100
AcDbCircle
 10
-271.648444
 20
-284.788546
 30
0.0
 40
1.0
100
AcDbArc
 50
310.541602
 51
360.0
  0
ARC
  5
21A
100
AcDbEntity
  8
2
370
    50
100
AcDbCircle
 10
-271.648444
 20
-281.308415
 30
0.0
 40
1.0
100
AcDbArc
 50
0.0
 51
49.458398
  0
ARC
  5
21B
100
AcDbEntity
  8
2
370
    50
100
AcDbCircle
 10
-271.648444
 20
-277.288546
 30
0.0
 40
1.0
100
AcDbArc
 50
310.541602
 51
360.0
  0
ARC
  5
21C
100
AcDbEntity
  8
2
370
    50
100
AcDbCircle
 10
-271.648444
 20
-273.808415
 30
0.0
 40
1.0
100
AcDbArc
 50
0.0
 51
49.458398
  0
ARC
  5
21D
100
AcDbEntity
  8
2
370
    50
100
AcDbCircle
 10
-271.648444
 20
-269.788546
 30
0.0
 40
1.0
100
AcDbArc
 50
310.541602
 51
360.0
  0
ARC
  5
21E
100
AcDbEntity
  8
2
370
    50
100
AcDbCircle
 10
-284.148444
 20
-291.54848
 30
0.0
 40
1.0
100
AcDbArc
 50
180.0
 51
270.0
  0
ARC
  5
21F
100
AcDbEntity
  8
2
370
    50
100
AcDbCircle
 10
-271.648444
 20
-291.54848
 30
0.0
 40
1.0
100
AcDbArc
 50
270.0
 51
360.0
  0
LINE
  5
220
100
AcDbEntity
  8
2
370
    50
100
AcDbLine
 10
-271.648444
 20
-292.54848
 30
0.0
 11
-284.148444
 21
-292.54848
 31
0.0
  0
LINE
  5
221
100
AcDbEntity
  8
2
370
    50
100
AcDbLine
 10
-267.898444
 20
-305.548788
 30
0.0
 11
-287.898444
 21
-305.548788
 31
0.0
  0
LINE
  5
222
100
AcDbEntity
  8
2
370
    50
100
AcDbLine
 10
-287.898444
 20
-293.548788
 30
0.0
 11
-277.898697
 21
-293.548788
 31
0.0
  0
LINE
  5
223
100
AcDbEntity
  8
2
370
    50
100
AcDbLine
 10
-277.898697
 20
-293.548788
 30
0.0
 11
-269.21396
 21
-293.548788
 31
0.0
  0
POINT
  5
224
100
AcDbEntity
  8
2
370
    50
100
AcDbPoint
 10
-277.898697
 20
-293.548788
 30
0.0
  0
LINE
  5
225
100
AcDbEntity
  8
2
370
    50
100
AcDbLine
 10
-288.898444
 20
-294.126138
 30
0.0
 11
-288.898444
 21
-304.971438
 31
0.0
  0
LINE
  5
226
100
AcDbEntity
  8
2
370
    50
100
AcDbLine
 10
-287.898444
 20
-293.548788
 30
0.0
 11
-288.898444
 21
-294.126138
 31
0.0
  0
LINE
  5
227
100
AcDbEntity
  8
2
370
    50
100
AcDbLine
 10
-287.898444
 20
-305.548788
 30
0.0
 11
-288.898444
 21
-304.971438
 31
0.0
  0
LINE
  5
228
100
AcDbEntity
  8
2
370
    50
100
AcDbLine
 10
-284.26741
 20
-294.126138
 30
0.0
 11
-284.26741
 21
-304.971438
 31
0.0
  0
LINE
  5
229
100
AcDbEntity
  8
2
370
    50
100
AcDbLine
 10
-282.481019
 20
-294.126138
 30
0.0
 11
-282.481019
 21
-304.971438
 31
0.0
  0
LINE
  5
22A
100
AcDbEntity
  8
2
370
    50
100
AcDbLine
 10
-284.26741
 20
-294.126138
 30
0.0
 11
-282.481019
 21
-294.126138
 31
0.0
  0
ARC
  5
22B
100
AcDbEntity
  8
2
370
    50
100
AcDbCircle
 10
-277.898697
 20
-312.021982
 30
0.0
 40
18.473194
100
AcDbArc
 50
89.999213
 51
104.362299
  0
ARC
  5
22C
100
AcDbEntity
  8
2
370
    50
100
AcDbCircle
 10
-286.582927
 20
-298.480761
 30
0.0
 40
4.931973
100
AcDbArc
 50
61.998739
 51
118.001261
  0
ARC
  5
22D
100
AcDbEntity
  8
2
370
    50
100
AcDbCircle
 10
-286.582927
 20
-300.616815
 30
0.0
 40
4.931973
100
AcDbArc
 50
241.998739
 51
298.001261
  0
ARC
  5
22E
100
AcDbEntity
  8
2
370
    50
100
AcDbCircle
 10
-277.898697
 20
-287.075594
 30
0.0
 40
18.473194
100
AcDbArc
 50
255.637701
 51
270.000787
  0
LINE
  5
22F
100
AcDbEntity
  8
2
370
    50
100
AcDbLine
 10
-284.26741
 20
-304.971438
 30
0.0
 11
-282.481019
 21
-304.971438
 31
0.0
  0
LINE
  5
230
100
AcDbEntity
  8
2
370
    50
100
AcDbLine
 10
-273.315868
 20
-294.126138
 30
0.0
 11
-273.315868
 21
-304.971438
 31
0.0
  0
LINE
  5
231
100
AcDbEntity
  8
2
370
    50
100
AcDbLine
 10
-271.529477
 20
-294.126138
 30
0.0
 11
-271.529477
 21
-304.971438
 31
0.0
  0
LINE
  5
232
100
AcDbEntity
  8
2
370
    50
100
AcDbLine
 10
-271.529477
 20
-294.126138
 30
0.0
 11
-273.315868
 21
-294.126138
 31
0.0
  0
ARC
  5
233
100
AcDbEntity
  8
2
370
    50
100
AcDbCircle
 10
-277.89819
 20
-312.021982
 30
0.0
 40
18.473194
100
AcDbArc
 50
75.637701
 51
90.000787
  0
ARC
  5
234
100
AcDbEntity
  8
2
370
    50
100
AcDbCircle
 10
-269.21396
 20
-298.480761
 30
0.0
 40
4.931973
100
AcDbArc
 50
61.998739
 51
118.001261
  0
LINE
  5
235
100
AcDbEntity
  8
2
370
    50
100
AcDbLine
 10
-271.529477
 20
-304.971438
 30
0.0
 11
-273.315868
 21
-304.971438
 31
0.0
  0
ARC
  5
236
100
AcDbEntity
  8
2
370
    50
100
AcDbCircle
 10
-277.89819
 20
-287.075594
 30
0.0
 40
18.473194
100
AcDbArc
 50
269.999213
 51
284.362299
  0
ARC
  5
237
100
AcDbEntity
  8
2
370
    50
100
AcDbCircle
 10
-269.21396
 20
-300.616815
 30
0.0
 40
4.931973
100
AcDbArc
 50
241.998739
 51
298.001261
  0
LINE
  5
238
100
AcDbEntity
  8
2
370
    50
100
AcDbLine
 10
-267.898444
 20
-305.548788
 30
0.0
 11
-266.898444
 21
-304.971438
 31
0.0
  0
LINE
  5
239
100
AcDbEntity
  8
2
370
    50
100
AcDbLine
 10
-267.898444
 20
-293.548788
 30
0.0
 11
-266.898444
 21
-294.126138
 31
0.0
  0
LINE
  5
23A
100
AcDbEntity
  8
2
370
    50
100
AcDbLine
 10
-266.898444
 20
-294.126138
 30
0.0
 11
-266.898444
 21
-304.971438
 31
0.0
  0
LINE
  5
23B
100
AcDbEntity
  8
2
370
    25
  6
CENTER
100
AcDbLine
 10
327.343817
 20
-135.028954
 30
0.0
 11
327.343817
 21
-146.478493
 31
0.0
  0
LINE
  5
23C
100
AcDbEntity
  8
2
370
    25
  6
CENTER
100
AcDbLine
 10
-159.167707
 20
-235.476013
 30
0.0
 11
-159.167707
 21
-212.467331
 31
0.0
  0
LINE
  5
23D
100
AcDbEntity
  8
2
370
    25
  6
CENTER
100
AcDbLine
 10
-277.898444
 20
-234.731117
 30
0.0
 11
-277.898444
 21
-212.467331
 31
0.0
  0
HATCH
  5
23E
100
AcDbEntity
  8
2
370
    25
100
AcDbHatch
 10
0.0
 20
0.0
 30
0.0
210
0.0
220
0.0
230
1.0
  2
_U
 70
     0
 71
     1
 91
        1
 92
        1
 93
        4
 72
     1
 10
-194.033075
 20
-160.25121799999999
 11
-203.794431
 21
-160.25121799999999
 72
     1
 10
-203.794431
 20
-160.25121799999999
 11
-203.78330800000001
 21
-162.05121800000001
 72
     1
 10
-203.78330800000001
 20
-162.05121800000001
 11
-194.033075
 21
-162.05121800000001
 72
     1
 10
-194.033075
 20
-162.05121800000001
 11
-194.033075
 21
-160.25121799999999
 97
        4
330
0
330
0
330
0
330
0
 75
     0
 76
     0
 52
45.0
 41
1.0
 77
     0
 78
     1
 53
45.0
 43
0.0
 44
0.0
 45
-2.1213199999999999
 46
2.1213199999999999
 79
     0
 98
        1
 10
0.0
 20
0.0
  0
HATCH
  5
23F
100
AcDbEntity
  8
2
370
    25
100
AcDbHatch
 10
0.0
 20
0.0
 30
0.0
210
0.0
220
0.0
230
1.0
  2
_U
 70
     0
 71
     1
 91
        1
 92
        1
 93
        4
 72
     1
 10
-243.033075
 20
-160.25121799999999
 11
-233.27171799999999
 21
-160.25121799999999
 72
     1
 10
-233.27171799999999
 20
-160.25121799999999
 11
-233.28284099999999
 21
-162.05121800000001
 72
     1
 10
-233.28284099999999
 20
-162.05121800000001
 11
-243.033075
 21
-162.05121800000001
 72
     1
 10
-243.033075
 20
-162.05121800000001
 11
-243.033075
 21
-160.25121799999999
 97
        4
330
0
330
0
330
0
330
0
 75
     0
 76
     0
 52
45.0
 41
1.0
 77
     0
 78
     1
 53
45.0
 43
0.0
 44
0.0
 45
-2.1213199999999999
 46
2.1213199999999999
 79
     0
 98
        1
 10
0.0
 20
0.0
  0
LINE
  5
240
100
AcDbEntity
  8
2
370
    25
  6
CENTER
100
AcDbLine
 10
-246.769318
 20
321.028664
 30
0.0
 11
-190.694206
 21
321.028664
 31
0.0
  0
LINE
  5
241
100
AcDbEntity
  8
2
370
    25
  6
CENTER
100
AcDbLine
 10
-218.533075
 20
116.125412
 30
0.0
 11
-218.533075
 21
346.280441
 31
0.0
  0
LINE
  5
242
100
AcDbEntity
  8
2
370
    50
100
AcDbLine
 10
-208.571128
 20
230.157571
 30
0.0
 11
-202.724182
 21
296.988462
 31
0.0
  0
LINE
  5
243
100
AcDbEntity
  8
2
370
    50
100
AcDbLine
 10
-228.495022
 20
230.157571
 30
0.0
 11
-234.341967
 21
296.988462
 31
0.0
  0
ARC
  5
244
100
AcDbEntity
  8
2
370
    50
100
AcDbCircle
 10
-152.914448
 20
292.630675
 30
0.0
 40
50.0
100
AcDbArc
 50
156.598328
 51
175.0
  0
ARC
  5
245
100
AcDbEntity
  8
2
370
    50
100
AcDbCircle
 10
-284.151702
 20
292.630675
 30
0.0
 40
50.0
100
AcDbArc
 50
5.0
 51
23.401672
  0
ARC
  5
246
100
AcDbEntity
  8
2
370
    50
100
AcDbCircle
 10
-218.533075
 20
231.029129
 30
0.0
 40
10.0
100
AcDbArc
 50
185.0
 51
355.0
  0
ARC
  5
247
100
AcDbEntity
  8
2
370
    50
100
AcDbCircle
 10
-218.533075
 20
321.028664
 30
0.0
 40
21.5
100
AcDbArc
 50
336.598328
 51
203.401672
  0
ARC
  5
248
100
AcDbEntity
  8
2
370
    50
100
AcDbCircle
 10
-218.533075
 20
321.028664
 30
0.0
 40
24.9
100
AcDbArc
 50
311.795901
 51
228.204099
  0
POINT
  5
249
100
AcDbEntity
  8
2
370
    50
100
AcDbPoint
 10
-218.533075
 20
321.028664
 30
0.0
  0
LINE
  5
24A
100
AcDbEntity
  8
2
370
    50
100
AcDbLine
 10
-181.724828
 20
237.351016
 30
0.0
 11
-196.41792
 21
258.334927
 31
0.0
  0
ARC
  5
24B
100
AcDbEntity
  8
2
370
    50
100
AcDbCircle
 10
-173.533307
 20
243.08678
 30
0.0
 40
10.0
100
AcDbArc
 50
215.0
 51
25.0
  0
LINE
  5
24C
100
AcDbEntity
  8
2
370
    50
100
AcDbLine
 10
-164.470229
 20
247.312963
 30
0.0
 11
-191.775572
 21
305.86946
 31
0.0
  0
LINE
  5
24D
100
AcDbEntity
  8
2
370
    50
100
AcDbLine
 10
-292.248776
 20
266.965818
 30
0.0
 11
-241.407697
 21
290.673402
 31
0.0
  0
LINE
  5
24E
100
AcDbEntity
  8
2
370
    50
100
AcDbLine
 10
-302.210723
 20
284.220417
 30
0.0
 11
-249.285353
 21
321.279159
 31
0.0
  0
ARC
  5
24F
100
AcDbEntity
  8
2
370
    50
100
AcDbCircle
 10
-296.474958
 20
276.028896
 30
0.0
 40
10.0
100
AcDbArc
 50
125.0
 51
295.0
  0
POINT
  5
250
100
AcDbEntity
  8
2
370
    50
100
AcDbPoint
 10
-277.898697
 20
-330.848788
 30
0.0
  0
LINE
  5
251
100
AcDbEntity
  8
2
370
    50
100
AcDbLine
 10
-165.167961
 20
-294.124975
 30
0.0
 11
-165.167961
 21
-293.624668
 31
0.0
  0
LINE
  5
252
100
AcDbEntity
  8
2
370
    50
100
AcDbLine
 10
-153.167961
 20
-293.624668
 30
0.0
 11
-153.167961
 21
-294.124975
 31
0.0
  0
LINE
  5
253
100
AcDbEntity
  8
2
370
    50
100
AcDbLine
 10
-165.167961
 20
-293.624668
 30
0.0
 11
-164.667961
 21
-293.124668
 31
0.0
  0
LINE
  5
254
100
AcDbEntity
  8
2
370
    50
100
AcDbLine
 10
-153.667961
 20
-293.124668
 30
0.0
 11
-153.167961
 21
-293.624668
 31
0.0
  0
LINE
  5
255
100
AcDbEntity
  8
2
370
    50
100
AcDbLine
 10
-165.167961
 20
-293.624668
 30
0.0
 11
-153.167961
 21
-293.624668
 31
0.0
  0
LINE
  5
256
100
AcDbEntity
  8
2
370
    50
100
AcDbLine
 10
-151.917707
 20
-265.124668
 30
0.0
 11
-166.417707
 21
-265.124668
 31
0.0
  0
LINE
  5
257
100
AcDbEntity
  8
2
370
    50
100
AcDbLine
 10
-152.267707
 20
-271.124668
 30
0.0
 11
-166.067707
 21
-271.124668
 31
0.0
  0
LINE
  5
258
100
AcDbEntity
  8
2
370
    50
100
AcDbLine
 10
-152.267707
 20
-273.624668
 30
0.0
 11
-166.067707
 21
-273.624668
 31
0.0
  0
LINE
  5
259
100
AcDbEntity
  8
2
370
    50
100
AcDbLine
 10
-152.267707
 20
-278.624668
 30
0.0
 11
-166.067707
 21
-278.624668
 31
0.0
  0
LINE
  5
25A
100
AcDbEntity
  8
2
370
    50
100
AcDbLine
 10
-152.267707
 20
-281.124668
 30
0.0
 11
-166.067707
 21
-281.124668
 31
0.0
  0
LINE
  5
25B
100
AcDbEntity
  8
2
370
    50
100
AcDbLine
 10
-152.267707
 20
-286.124668
 30
0.0
 11
-166.067707
 21
-286.124668
 31
0.0
  0
LINE
  5
25C
100
AcDbEntity
  8
2
370
    50
100
AcDbLine
 10
-152.267707
 20
-288.624668
 30
0.0
 11
-166.067707
 21
-288.624668
 31
0.0
  0
LINE
  5
25D
100
AcDbEntity
  8
2
370
    50
100
AcDbLine
 10
-151.917707
 20
-289.384602
 30
0.0
 11
-151.917707
 21
-292.124668
 31
0.0
  0
LINE
  5
25E
100
AcDbEntity
  8
2
370
    50
100
AcDbLine
 10
-151.917707
 20
-281.884602
 30
0.0
 11
-151.917707
 21
-285.364733
 31
0.0
  0
LINE
  5
25F
100
AcDbEntity
  8
2
370
    50
100
AcDbLine
 10
-151.917707
 20
-265.124668
 30
0.0
 11
-151.917707
 21
-270.364733
 31
0.0
  0
LINE
  5
260
100
AcDbEntity
  8
2
370
    50
100
AcDbLine
 10
-151.917707
 20
-274.384602
 30
0.0
 11
-151.917707
 21
-277.864733
 31
0.0
  0
LINE
  5
261
100
AcDbEntity
  8
2
370
    50
100
AcDbLine
 10
-166.417707
 20
-289.384602
 30
0.0
 11
-166.417707
 21
-292.124668
 31
0.0
  0
LINE
  5
262
100
AcDbEntity
  8
2
370
    50
100
AcDbLine
 10
-166.417707
 20
-281.884602
 30
0.0
 11
-166.417707
 21
-285.364733
 31
0.0
  0
LINE
  5
263
100
AcDbEntity
  8
2
370
    50
100
AcDbLine
 10
-166.417707
 20
-265.124668
 30
0.0
 11
-166.417707
 21
-270.364733
 31
0.0
  0
LINE
  5
264
100
AcDbEntity
  8
2
370
    50
100
AcDbLine
 10
-166.417707
 20
-274.384602
 30
0.0
 11
-166.417707
 21
-277.864733
 31
0.0
  0
LINE
  5
265
100
AcDbEntity
  8
2
370
    50
100
AcDbLine
 10
-152.267707
 20
-286.124668
 30
0.0
 11
-152.267707
 21
-288.624668
 31
0.0
  0
LINE
  5
266
100
AcDbEntity
  8
2
370
    50
100
AcDbLine
 10
-166.067707
 20
-286.124668
 30
0.0
 11
-166.067707
 21
-288.624668
 31
0.0
  0
LINE
  5
267
100
AcDbEntity
  8
2
370
    50
100
AcDbLine
 10
-152.267707
 20
-271.124668
 30
0.0
 11
-152.267707
 21
-273.624668
 31
0.0
  0
LINE
  5
268
100
AcDbEntity
  8
2
370
    50
100
AcDbLine
 10
-152.267707
 20
-278.624668
 30
0.0
 11
-152.267707
 21
-281.124668
 31
0.0
  0
LINE
  5
269
100
AcDbEntity
  8
2
370
    50
100
AcDbLine
 10
-166.067707
 20
-271.124668
 30
0.0
 11
-166.067707
 21
-273.624668
 31
0.0
  0
LINE
  5
26A
100
AcDbEntity
  8
2
370
    50
100
AcDbLine
 10
-166.067707
 20
-278.624668
 30
0.0
 11
-166.067707
 21
-281.124668
 31
0.0
  0
LINE
  5
26B
100
AcDbEntity
  8
2
370
    50
100
AcDbLine
 10
-166.067707
 20
-265.124668
 30
0.0
 11
-166.067707
 21
-231.362823
 31
0.0
  0
LINE
  5
26C
100
AcDbEntity
  8
2
370
    50
100
AcDbLine
 10
-152.267707
 20
-265.124668
 30
0.0
 11
-152.267707
 21
-231.284843
 31
0.0
  0
ARC
  5
26D
100
AcDbEntity
  8
2
370
    50
100
AcDbCircle
 10
-165.417707
 20
-289.384602
 30
0.0
 40
1.0
100
AcDbArc
 50
130.541602
 51
180.0
  0
ARC
  5
26E
100
AcDbEntity
  8
2
370
    50
100
AcDbCircle
 10
-165.417707
 20
-285.364733
 30
0.0
 40
1.0
100
AcDbArc
 50
180.0
 51
229.458398
  0
ARC
  5
26F
100
AcDbEntity
  8
2
370
    50
100
AcDbCircle
 10
-165.417707
 20
-281.884602
 30
0.0
 40
1.0
100
AcDbArc
 50
130.541602
 51
180.0
  0
ARC
  5
270
100
AcDbEntity
  8
2
370
    50
100
AcDbCircle
 10
-165.417707
 20
-277.864733
 30
0.0
 40
1.0
100
AcDbArc
 50
180.0
 51
229.458398
  0
ARC
  5
271
100
AcDbEntity
  8
2
370
    50
100
AcDbCircle
 10
-165.417707
 20
-274.384602
 30
0.0
 40
1.0
100
AcDbArc
 50
130.541602
 51
180.0
  0
ARC
  5
272
100
AcDbEntity
  8
2
370
    50
100
AcDbCircle
 10
-165.417707
 20
-270.364733
 30
0.0
 40
1.0
100
AcDbArc
 50
180.0
 51
229.458398
  0
ARC
  5
273
100
AcDbEntity
  8
2
370
    50
100
AcDbCircle
 10
-152.917707
 20
-289.384602
 30
0.0
 40
1.0
100
AcDbArc
 50
0.0
 51
49.458398
  0
ARC
  5
274
100
AcDbEntity
  8
2
370
    50
100
AcDbCircle
 10
-152.917707
 20
-285.364733
 30
0.0
 40
1.0
100
AcDbArc
 50
310.541602
 51
360.0
  0
ARC
  5
275
100
AcDbEntity
  8
2
370
    50
100
AcDbCircle
 10
-152.917707
 20
-281.884602
 30
0.0
 40
1.0
100
AcDbArc
 50
0.0
 51
49.458398
  0
ARC
  5
276
100
AcDbEntity
  8
2
370
    50
100
AcDbCircle
 10
-152.917707
 20
-277.864733
 30
0.0
 40
1.0
100
AcDbArc
 50
310.541602
 51
360.0
  0
ARC
  5
277
100
AcDbEntity
  8
2
370
    50
100
AcDbCircle
 10
-152.917707
 20
-274.384602
 30
0.0
 40
1.0
100
AcDbArc
 50
0.0
 51
49.458398
  0
ARC
  5
278
100
AcDbEntity
  8
2
370
    50
100
AcDbCircle
 10
-152.917707
 20
-270.364733
 30
0.0
 40
1.0
100
AcDbArc
 50
310.541602
 51
360.0
  0
ARC
  5
279
100
AcDbEntity
  8
2
370
    50
100
AcDbCircle
 10
-165.417707
 20
-292.124668
 30
0.0
 40
1.0
100
AcDbArc
 50
180.0
 51
270.0
  0
ARC
  5
27A
100
AcDbEntity
  8
2
370
    50
100
AcDbCircle
 10
-152.917707
 20
-292.124668
 30
0.0
 40
1.0
100
AcDbArc
 50
270.0
 51
360.0
  0
LINE
  5
27B
100
AcDbEntity
  8
2
370
    50
100
AcDbLine
 10
-152.917707
 20
-293.124668
 30
0.0
 11
-165.417707
 21
-293.124668
 31
0.0
  0
LINE
  5
27C
100
AcDbEntity
  8
2
370
    50
100
AcDbLine
 10
-149.167707
 20
-306.124975
 30
0.0
 11
-169.167707
 21
-306.124975
 31
0.0
  0
LINE
  5
27D
100
AcDbEntity
  8
2
370
    50
100
AcDbLine
 10
-169.167707
 20
-294.124975
 30
0.0
 11
-159.167961
 21
-294.124975
 31
0.0
  0
LINE
  5
27E
100
AcDbEntity
  8
2
370
    50
100
AcDbLine
 10
-159.167961
 20
-294.124975
 30
0.0
 11
-150.483224
 21
-294.124975
 31
0.0
  0
POINT
  5
27F
100
AcDbEntity
  8
2
370
    50
100
AcDbPoint
 10
-159.167961
 20
-294.124975
 30
0.0
  0
LINE
  5
280
100
AcDbEntity
  8
2
370
    50
100
AcDbLine
 10
-170.167707
 20
-294.702326
 30
0.0
 11
-170.167707
 21
-305.547625
 31
0.0
  0
LINE
  5
281
100
AcDbEntity
  8
2
370
    50
100
AcDbLine
 10
-169.167707
 20
-294.124975
 30
0.0
 11
-170.167707
 21
-294.702326
 31
0.0
  0
LINE
  5
282
100
AcDbEntity
  8
2
370
    50
100
AcDbLine
 10
-169.167707
 20
-306.124975
 30
0.0
 11
-170.167707
 21
-305.547625
 31
0.0
  0
LINE
  5
283
100
AcDbEntity
  8
2
370
    50
100
AcDbLine
 10
-165.536673
 20
-294.702326
 30
0.0
 11
-165.536673
 21
-305.547625
 31
0.0
  0
LINE
  5
284
100
AcDbEntity
  8
2
370
    50
100
AcDbLine
 10
-163.750282
 20
-294.702326
 30
0.0
 11
-163.750282
 21
-305.547625
 31
0.0
  0
LINE
  5
285
100
AcDbEntity
  8
2
370
    50
100
AcDbLine
 10
-165.536673
 20
-294.702326
 30
0.0
 11
-163.750282
 21
-294.702326
 31
0.0
  0
ARC
  5
286
100
AcDbEntity
  8
2
370
    50
100
AcDbCircle
 10
-159.167961
 20
-312.598169
 30
0.0
 40
18.473194
100
AcDbArc
 50
89.999213
 51
104.362299
  0
ARC
  5
287
100
AcDbEntity
  8
2
370
    50
100
AcDbCircle
 10
-167.85219
 20
-299.056948
 30
0.0
 40
4.931973
100
AcDbArc
 50
61.998739
 51
118.001261
  0
ARC
  5
288
100
AcDbEntity
  8
2
370
    50
100
AcDbCircle
 10
-167.85219
 20
-301.193002
 30
0.0
 40
4.931973
100
AcDbArc
 50
241.998739
 51
298.001261
  0
ARC
  5
289
100
AcDbEntity
  8
2
370
    50
100
AcDbCircle
 10
-159.167961
 20
-287.651782
 30
0.0
 40
18.473194
100
AcDbArc
 50
255.637701
 51
270.000787
  0
LINE
  5
28A
100
AcDbEntity
  8
2
370
    50
100
AcDbLine
 10
-165.536673
 20
-305.547625
 30
0.0
 11
-163.750282
 21
-305.547625
 31
0.0
  0
LINE
  5
28B
100
AcDbEntity
  8
2
370
    50
100
AcDbLine
 10
-154.585131
 20
-294.702326
 30
0.0
 11
-154.585131
 21
-305.547625
 31
0.0
  0
LINE
  5
28C
100
AcDbEntity
  8
2
370
    50
100
AcDbLine
 10
-152.798741
 20
-294.702326
 30
0.0
 11
-152.798741
 21
-305.547625
 31
0.0
  0
LINE
  5
28D
100
AcDbEntity
  8
2
370
    50
100
AcDbLine
 10
-152.798741
 20
-294.702326
 30
0.0
 11
-154.585131
 21
-294.702326
 31
0.0
  0
ARC
  5
28E
100
AcDbEntity
  8
2
370
    50
100
AcDbCircle
 10
-159.167453
 20
-312.598169
 30
0.0
 40
18.473194
100
AcDbArc
 50
75.637701
 51
90.000787
  0
ARC
  5
28F
100
AcDbEntity
  8
2
370
    50
100
AcDbCircle
 10
-150.483224
 20
-299.056948
 30
0.0
 40
4.931973
100
AcDbArc
 50
61.998739
 51
118.001261
  0
LINE
  5
290
100
AcDbEntity
  8
2
370
    50
100
AcDbLine
 10
-152.798741
 20
-305.547625
 30
0.0
 11
-154.585131
 21
-305.547625
 31
0.0
  0
ARC
  5
291
100
AcDbEntity
  8
2
370
    50
100
AcDbCircle
 10
-159.167453
 20
-287.651782
 30
0.0
 40
18.473194
100
AcDbArc
 50
269.999213
 51
284.362299
  0
ARC
  5
292
100
AcDbEntity
  8
2
370
    50
100
AcDbCircle
 10
-150.483224
 20
-301.193002
 30
0.0
 40
4.931973
100
AcDbArc
 50
241.998739
 51
298.001261
  0
LINE
  5
293
100
AcDbEntity
  8
2
370
    50
100
AcDbLine
 10
-149.167707
 20
-306.124975
 30
0.0
 11
-148.167707
 21
-305.547625
 31
0.0
  0
LINE
  5
294
100
AcDbEntity
  8
2
370
    50
100
AcDbLine
 10
-149.167707
 20
-294.124975
 30
0.0
 11
-148.167707
 21
-294.702326
 31
0.0
  0
LINE
  5
295
100
AcDbEntity
  8
2
370
    50
100
AcDbLine
 10
-148.167707
 20
-294.702326
 30
0.0
 11
-148.167707
 21
-305.547625
 31
0.0
  0
POINT
  5
296
100
AcDbEntity
  8
2
370
    50
100
AcDbPoint
 10
-159.167961
 20
-331.424975
 30
0.0
  0
ARC
  5
297
100
AcDbEntity
  8
2
370
    50
100
AcDbCircle
 10
-162.618088
 20
-226.684674
 30
0.0
 40
5.750212
100
AcDbArc
 50
233.130102
 51
306.869898
  0
ARC
  5
298
100
AcDbEntity
  8
2
370
    50
100
AcDbCircle
 10
-155.717834
 20
-235.885013
 30
0.0
 40
5.750212
100
AcDbArc
 50
53.130102
 51
126.869898
  0
ARC
  5
299
100
AcDbEntity
  8
2
370
    50
100
AcDbCircle
 10
-162.618088
 20
-235.885013
 30
0.0
 40
5.750212
100
AcDbArc
 50
53.130102
 51
126.869898
  0
ARC
  5
29A
100
AcDbEntity
  8
2
370
    50
100
AcDbCircle
 10
-281.356072
 20
-226.067906
 30
0.0
 40
5.750212
100
AcDbArc
 50
233.130102
 51
306.869898
  0
ARC
  5
29B
100
AcDbEntity
  8
2
370
    50
100
AcDbCircle
 10
-274.455818
 20
-235.268245
 30
0.0
 40
5.750212
100
AcDbArc
 50
53.130102
 51
126.869898
  0
ARC
  5
29C
100
AcDbEntity
  8
2
370
    50
100
AcDbCircle
 10
-281.356072
 20
-235.268245
 30
0.0
 40
5.750212
100
AcDbArc
 50
53.130102
 51
126.869898
  0
LINE
  5
29D
100
AcDbEntity
  8
2
370
    50
  6
DASHED
100
AcDbLine
 10
-50.45235
 20
240.153019
 30
0.0
 11
-133.117849
 21
287.879968
 31
0.0
  0
LINE
  5
29E
100
AcDbEntity
  8
2
370
    25
  6
CENTER
100
AcDbLine
 10
-36.165259
 20
215.738556
 30
0.0
 11
-218.533075
 21
321.028664
 31
0.0
  0
ARC
  5
29F
100
AcDbEntity
  8
2
370
    50
  6
DASHED
100
AcDbCircle
 10
-57.45235
 20
228.028664
 30
0.0
 40
14.0
100
AcDbArc
 50
240.0
 51
60.0
  0
LINE
  5
2A0
100
AcDbEntity
  8
2
370
    50
  6
DASHED
100
AcDbLine
 10
-64.45235
 20
215.904308
 30
0.0
 11
-167.908489
 21
275.634738
 31
0.0
  0
LINE
  5
2A1
100
AcDbEntity
  8
2
370
    50
100
AcDbLine
 10
-204.533075
 20
135.028664
 30
0.0
 11
-204.533075
 21
276.312729
 31
0.0
  0
LINE
  5
2A2
100
AcDbEntity
  8
2
370
    50
100
AcDbLine
 10
-232.533075
 20
135.028664
 30
0.0
 11
-232.533075
 21
276.312729
 31
0.0
  0
ARC
  5
2A3
100
AcDbEntity
  8
2
370
    50
100
AcDbCircle
 10
-218.533075
 20
135.028664
 30
0.0
 40
14.0
100
AcDbArc
 50
180.0
 51
360.0
  0
POINT
  5
2A4
100
AcDbEntity
  8
2
370
    50
100
AcDbPoint
 10
-218.533075
 20
135.028664
 30
0.0
  0
ARC
  5
2A5
100
AcDbEntity
  8
2
370
    50
  6
DASHED
100
AcDbCircle
 10
-379.6138
 20
228.028664
 30
0.0
 40
14.0
100
AcDbArc
 50
120.0
 51
300.0
  0
LINE
  5
2A6
100
AcDbEntity
  8
2
370
    25
  6
CENTER
100
AcDbLine
 10
-400.90089
 20
215.738556
 30
0.0
 11
-218.533075
 21
321.028664
 31
0.0
  0
LINE
  5
2A7
100
AcDbEntity
  8
2
370
    50
  6
DASHED
100
AcDbLine
 10
-386.6138
 20
240.153019
 30
0.0
 11
-303.9483
 21
287.879968
 31
0.0
  0
LINE
  5
2A8
100
AcDbEntity
  8
2
370
    50
  6
DASHED
100
AcDbLine
 10
-372.6138
 20
215.904308
 30
0.0
 11
-269.15766
 21
275.634738
 31
0.0
  0
POINT
  5
2A9
100
AcDbEntity
  8
2
370
    50
100
AcDbPoint
 10
-159.168214
 20
-321.124975
 30
0.0
  0
POINT
  5
2AA
100
AcDbEntity
  8
2
370
    50
100
AcDbPoint
 10
-277.898697
 20
-320.548788
 30
0.0
  0
LINE
  5
2AB
100
AcDbEntity
  8
2
370
    50
100
AcDbLine
 10
-159.168214
 20
-321.124975
 30
0.0
 11
-147.168214
 21
-321.124975
 31
0.0
  0
LINE
  5
2AC
100
AcDbEntity
  8
2
370
    50
100
AcDbLine
 10
-159.168214
 20
-310.124975
 30
0.0
 11
-147.168214
 21
-310.124975
 31
0.0
  0
LINE
  5
2AD
100
AcDbEntity
  8
2
370
    50
100
AcDbLine
 10
-147.168214
 20
-310.124975
 30
0.0
 11
-146.168214
 21
-311.124975
 31
0.0
  0
LINE
  5
2AE
100
AcDbEntity
  8
2
370
    50
100
AcDbLine
 10
-151.27591
 20
-311.124975
 30
0.0
 11
-154.168214
 21
-311.124975
 31
0.0
  0
ARC
  5
2AF
100
AcDbEntity
  8
2
370
    50
100
AcDbCircle
 10
-148.722062
 20
-313.886044
 30
0.0
 40
3.761069
100
AcDbArc
 50
47.232751
 51
132.767249
  0
ARC
  5
2B0
100
AcDbEntity
  8
2
370
    50
100
AcDbCircle
 10
-159.168214
 20
-323.124975
 30
0.0
 40
13.0
100
AcDbArc
 50
67.380135
 51
90.0
  0
ARC
  5
2B1
100
AcDbEntity
  8
2
370
    50
100
AcDbCircle
 10
-148.722062
 20
-317.363907
 30
0.0
 40
3.761069
100
AcDbArc
 50
227.232751
 51
312.767249
  0
ARC
  5
2B2
100
AcDbEntity
  8
2
370
    50
100
AcDbCircle
 10
-159.168214
 20
-308.124975
 30
0.0
 40
13.0
100
AcDbArc
 50
270.0
 51
292.619865
  0
LINE
  5
2B3
100
AcDbEntity
  8
2
370
    50
100
AcDbLine
 10
-147.168214
 20
-321.124975
 30
0.0
 11
-146.168214
 21
-320.124975
 31
0.0
  0
LINE
  5
2B4
100
AcDbEntity
  8
2
370
    50
100
AcDbLine
 10
-154.168214
 20
-320.124975
 30
0.0
 11
-151.27591
 21
-320.124975
 31
0.0
  0
LINE
  5
2B5
100
AcDbEntity
  8
2
370
    50
100
AcDbLine
 10
-150.52591
 20
-315.624975
 30
0.0
 11
-155.668214
 21
-315.624975
 31
0.0
  0
LINE
  5
2B6
100
AcDbEntity
  8
2
370
    50
100
AcDbLine
 10
-146.668214
 20
-315.624975
 30
0.0
 11
-146.168214
 21
-315.124975
 31
0.0
  0
LINE
  5
2B7
100
AcDbEntity
  8
2
370
    50
100
AcDbLine
 10
-146.668214
 20
-315.624975
 30
0.0
 11
-146.168214
 21
-316.124975
 31
0.0
  0
LINE
  5
2B8
100
AcDbEntity
  8
2
370
    50
100
AcDbLine
 10
-151.27591
 20
-315.124975
 30
0.0
 11
-154.168214
 21
-315.124975
 31
0.0
  0
LINE
  5
2B9
100
AcDbEntity
  8
2
370
    50
100
AcDbLine
 10
-146.168214
 20
-320.124975
 30
0.0
 11
-146.168214
 21
-316.124975
 31
0.0
  0
LINE
  5
2BA
100
AcDbEntity
  8
2
370
    50
100
AcDbLine
 10
-146.168214
 20
-315.124975
 30
0.0
 11
-146.168214
 21
-311.124975
 31
0.0
  0
LINE
  5
2BB
100
AcDbEntity
  8
2
370
    50
100
AcDbLine
 10
-151.27591
 20
-316.124975
 30
0.0
 11
-154.168214
 21
-316.124975
 31
0.0
  0
LINE
  5
2BC
100
AcDbEntity
  8
2
370
    50
100
AcDbLine
 10
-154.168214
 20
-315.124975
 30
0.0
 11
-155.668214
 21
-315.624975
 31
0.0
  0
LINE
  5
2BD
100
AcDbEntity
  8
2
370
    50
100
AcDbLine
 10
-151.27591
 20
-315.124975
 30
0.0
 11
-150.52591
 21
-315.624975
 31
0.0
  0
LINE
  5
2BE
100
AcDbEntity
  8
2
370
    50
100
AcDbLine
 10
-151.27591
 20
-316.124975
 30
0.0
 11
-150.52591
 21
-315.624975
 31
0.0
  0
LINE
  5
2BF
100
AcDbEntity
  8
2
370
    50
100
AcDbLine
 10
-154.168214
 20
-316.124975
 30
0.0
 11
-155.668214
 21
-315.624975
 31
0.0
  0
LINE
  5
2C0
100
AcDbEntity
  8
2
370
    50
100
AcDbLine
 10
-154.168214
 20
-320.124975
 30
0.0
 11
-154.168214
 21
-316.124975
 31
0.0
  0
LINE
  5
2C1
100
AcDbEntity
  8
2
370
    50
100
AcDbLine
 10
-154.168214
 20
-315.124975
 30
0.0
 11
-154.168214
 21
-311.124975
 31
0.0
  0
LINE
  5
2C2
100
AcDbEntity
  8
2
370
    50
100
AcDbLine
 10
-151.27591
 20
-320.124975
 30
0.0
 11
-151.27591
 21
-316.124975
 31
0.0
  0
LINE
  5
2C3
100
AcDbEntity
  8
2
370
    50
100
AcDbLine
 10
-151.27591
 20
-315.124975
 30
0.0
 11
-151.27591
 21
-311.124975
 31
0.0
  0
LINE
  5
2C4
100
AcDbEntity
  8
2
370
    50
100
AcDbLine
 10
-146.668214
 20
-315.624975
 30
0.0
 11
-147.02591
 21
-315.624975
 31
0.0
  0
LINE
  5
2C5
100
AcDbEntity
  8
2
370
    50
100
AcDbLine
 10
-146.168214
 20
-315.124975
 30
0.0
 11
-147.02591
 21
-315.624975
 31
0.0
  0
LINE
  5
2C6
100
AcDbEntity
  8
2
370
    50
100
AcDbLine
 10
-146.168214
 20
-316.124975
 30
0.0
 11
-147.02591
 21
-315.624975
 31
0.0
  0
LINE
  5
2C7
100
AcDbEntity
  8
2
370
    50
100
AcDbLine
 10
-150.818214
 20
-310.124975
 30
0.0
 11
-150.818214
 21
-306.124975
 31
0.0
  0
LINE
  5
2C8
100
AcDbEntity
  8
2
370
    25
100
AcDbLine
 10
-151.668214
 20
-308.124975
 30
0.0
 11
-151.668214
 21
-306.124975
 31
0.0
  0
LINE
  5
2C9
100
AcDbEntity
  8
2
370
    50
100
AcDbLine
 10
-151.668214
 20
-308.124975
 30
0.0
 11
-150.818214
 21
-308.974975
 31
0.0
  0
LINE
  5
2CA
100
AcDbEntity
  8
2
370
    50
100
AcDbLine
 10
-151.668214
 20
-308.124975
 30
0.0
 11
-159.168214
 21
-308.124975
 31
0.0
  0
LINE
  5
2CB
100
AcDbEntity
  8
2
370
    50
100
AcDbLine
 10
-159.168214
 20
-321.124975
 30
0.0
 11
-171.168214
 21
-321.124975
 31
0.0
  0
LINE
  5
2CC
100
AcDbEntity
  8
2
370
    50
100
AcDbLine
 10
-159.168214
 20
-310.124975
 30
0.0
 11
-171.168214
 21
-310.124975
 31
0.0
  0
LINE
  5
2CD
100
AcDbEntity
  8
2
370
    50
100
AcDbLine
 10
-171.168214
 20
-310.124975
 30
0.0
 11
-172.168214
 21
-311.124975
 31
0.0
  0
LINE
  5
2CE
100
AcDbEntity
  8
2
370
    50
100
AcDbLine
 10
-167.060519
 20
-311.124975
 30
0.0
 11
-164.168214
 21
-311.124975
 31
0.0
  0
ARC
  5
2CF
100
AcDbEntity
  8
2
370
    50
100
AcDbCircle
 10
-169.614367
 20
-313.886044
 30
0.0
 40
3.761069
100
AcDbArc
 50
47.232751
 51
132.767249
  0
ARC
  5
2D0
100
AcDbEntity
  8
2
370
    50
100
AcDbCircle
 10
-159.168214
 20
-323.124975
 30
0.0
 40
13.0
100
AcDbArc
 50
90.0
 51
112.619865
  0
ARC
  5
2D1
100
AcDbEntity
  8
2
370
    50
100
AcDbCircle
 10
-169.614367
 20
-317.363907
 30
0.0
 40
3.761069
100
AcDbArc
 50
227.232751
 51
312.767249
  0
ARC
  5
2D2
100
AcDbEntity
  8
2
370
    50
100
AcDbCircle
 10
-159.168214
 20
-308.124975
 30
0.0
 40
13.0
100
AcDbArc
 50
247.380135
 51
270.0
  0
LINE
  5
2D3
100
AcDbEntity
  8
2
370
    50
100
AcDbLine
 10
-171.168214
 20
-321.124975
 30
0.0
 11
-172.168214
 21
-320.124975
 31
0.0
  0
LINE
  5
2D4
100
AcDbEntity
  8
2
370
    50
100
AcDbLine
 10
-164.168214
 20
-320.124975
 30
0.0
 11
-167.060519
 21
-320.124975
 31
0.0
  0
LINE
  5
2D5
100
AcDbEntity
  8
2
370
    50
100
AcDbLine
 10
-167.810519
 20
-315.624975
 30
0.0
 11
-162.668214
 21
-315.624975
 31
0.0
  0
LINE
  5
2D6
100
AcDbEntity
  8
2
370
    50
100
AcDbLine
 10
-171.668214
 20
-315.624975
 30
0.0
 11
-172.168214
 21
-315.124975
 31
0.0
  0
LINE
  5
2D7
100
AcDbEntity
  8
2
370
    50
100
AcDbLine
 10
-171.668214
 20
-315.624975
 30
0.0
 11
-172.168214
 21
-316.124975
 31
0.0
  0
LINE
  5
2D8
100
AcDbEntity
  8
2
370
    50
100
AcDbLine
 10
-167.060519
 20
-315.124975
 30
0.0
 11
-164.168214
 21
-315.124975
 31
0.0
  0
LINE
  5
2D9
100
AcDbEntity
  8
2
370
    50
100
AcDbLine
 10
-172.168214
 20
-320.124975
 30
0.0
 11
-172.168214
 21
-316.124975
 31
0.0
  0
LINE
  5
2DA
100
AcDbEntity
  8
2
370
    50
100
AcDbLine
 10
-172.168214
 20
-315.124975
 30
0.0
 11
-172.168214
 21
-311.124975
 31
0.0
  0
LINE
  5
2DB
100
AcDbEntity
  8
2
370
    50
100
AcDbLine
 10
-167.060519
 20
-316.124975
 30
0.0
 11
-164.168214
 21
-316.124975
 31
0.0
  0
LINE
  5
2DC
100
AcDbEntity
  8
2
370
    50
100
AcDbLine
 10
-164.168214
 20
-315.124975
 30
0.0
 11
-162.668214
 21
-315.624975
 31
0.0
  0
LINE
  5
2DD
100
AcDbEntity
  8
2
370
    50
100
AcDbLine
 10
-167.060519
 20
-315.124975
 30
0.0
 11
-167.810519
 21
-315.624975
 31
0.0
  0
LINE
  5
2DE
100
AcDbEntity
  8
2
370
    50
100
AcDbLine
 10
-167.060519
 20
-316.124975
 30
0.0
 11
-167.810519
 21
-315.624975
 31
0.0
  0
LINE
  5
2DF
100
AcDbEntity
  8
2
370
    50
100
AcDbLine
 10
-164.168214
 20
-316.124975
 30
0.0
 11
-162.668214
 21
-315.624975
 31
0.0
  0
LINE
  5
2E0
100
AcDbEntity
  8
2
370
    50
100
AcDbLine
 10
-164.168214
 20
-320.124975
 30
0.0
 11
-164.168214
 21
-316.124975
 31
0.0
  0
LINE
  5
2E1
100
AcDbEntity
  8
2
370
    50
100
AcDbLine
 10
-164.168214
 20
-315.124975
 30
0.0
 11
-164.168214
 21
-311.124975
 31
0.0
  0
LINE
  5
2E2
100
AcDbEntity
  8
2
370
    50
100
AcDbLine
 10
-167.060519
 20
-320.124975
 30
0.0
 11
-167.060519
 21
-316.124975
 31
0.0
  0
LINE
  5
2E3
100
AcDbEntity
  8
2
370
    50
100
AcDbLine
 10
-167.060519
 20
-315.124975
 30
0.0
 11
-167.060519
 21
-311.124975
 31
0.0
  0
LINE
  5
2E4
100
AcDbEntity
  8
2
370
    50
100
AcDbLine
 10
-171.668214
 20
-315.624975
 30
0.0
 11
-171.310519
 21
-315.624975
 31
0.0
  0
LINE
  5
2E5
100
AcDbEntity
  8
2
370
    50
100
AcDbLine
 10
-172.168214
 20
-315.124975
 30
0.0
 11
-171.310519
 21
-315.624975
 31
0.0
  0
LINE
  5
2E6
100
AcDbEntity
  8
2
370
    50
100
AcDbLine
 10
-172.168214
 20
-316.124975
 30
0.0
 11
-171.310519
 21
-315.624975
 31
0.0
  0
LINE
  5
2E7
100
AcDbEntity
  8
2
370
    50
100
AcDbLine
 10
-166.668214
 20
-308.124975
 30
0.0
 11
-159.168214
 21
-308.124975
 31
0.0
  0
LINE
  5
2E8
100
AcDbEntity
  8
2
370
    25
100
AcDbLine
 10
-166.668214
 20
-308.124975
 30
0.0
 11
-166.668214
 21
-306.124975
 31
0.0
  0
LINE
  5
2E9
100
AcDbEntity
  8
2
370
    50
100
AcDbLine
 10
-166.668214
 20
-308.124975
 30
0.0
 11
-167.518214
 21
-308.974975
 31
0.0
  0
LINE
  5
2EA
100
AcDbEntity
  8
2
370
    50
100
AcDbLine
 10
-167.518214
 20
-310.124975
 30
0.0
 11
-167.518214
 21
-306.124975
 31
0.0
  0
LINE
  5
2EB
100
AcDbEntity
  8
2
370
    50
100
AcDbLine
 10
-277.898697
 20
-320.548788
 30
0.0
 11
-265.898697
 21
-320.548788
 31
0.0
  0
LINE
  5
2EC
100
AcDbEntity
  8
2
370
    50
100
AcDbLine
 10
-277.898697
 20
-309.548788
 30
0.0
 11
-265.898697
 21
-309.548788
 31
0.0
  0
LINE
  5
2ED
100
AcDbEntity
  8
2
370
    50
100
AcDbLine
 10
-265.898697
 20
-309.548788
 30
0.0
 11
-264.898697
 21
-310.548788
 31
0.0
  0
LINE
  5
2EE
100
AcDbEntity
  8
2
370
    50
100
AcDbLine
 10
-270.006393
 20
-310.548788
 30
0.0
 11
-272.898697
 21
-310.548788
 31
0.0
  0
ARC
  5
2EF
100
AcDbEntity
  8
2
370
    50
100
AcDbCircle
 10
-267.452545
 20
-313.309857
 30
0.0
 40
3.761069
100
AcDbArc
 50
47.232751
 51
132.767249
  0
ARC
  5
2F0
100
AcDbEntity
  8
2
370
    50
100
AcDbCircle
 10
-277.898697
 20
-322.548788
 30
0.0
 40
13.0
100
AcDbArc
 50
67.380135
 51
90.0
  0
ARC
  5
2F1
100
AcDbEntity
  8
2
370
    50
100
AcDbCircle
 10
-267.452545
 20
-316.787719
 30
0.0
 40
3.761069
100
AcDbArc
 50
227.232751
 51
312.767249
  0
ARC
  5
2F2
100
AcDbEntity
  8
2
370
    50
100
AcDbCircle
 10
-277.898697
 20
-307.548788
 30
0.0
 40
13.0
100
AcDbArc
 50
270.0
 51
292.619865
  0
LINE
  5
2F3
100
AcDbEntity
  8
2
370
    50
100
AcDbLine
 10
-265.898697
 20
-320.548788
 30
0.0
 11
-264.898697
 21
-319.548788
 31
0.0
  0
LINE
  5
2F4
100
AcDbEntity
  8
2
370
    50
100
AcDbLine
 10
-272.898697
 20
-319.548788
 30
0.0
 11
-270.006393
 21
-319.548788
 31
0.0
  0
LINE
  5
2F5
100
AcDbEntity
  8
2
370
    50
100
AcDbLine
 10
-269.256393
 20
-315.048788
 30
0.0
 11
-274.398697
 21
-315.048788
 31
0.0
  0
LINE
  5
2F6
100
AcDbEntity
  8
2
370
    50
100
AcDbLine
 10
-265.398697
 20
-315.048788
 30
0.0
 11
-264.898697
 21
-314.548788
 31
0.0
  0
LINE
  5
2F7
100
AcDbEntity
  8
2
370
    50
100
AcDbLine
 10
-265.398697
 20
-315.048788
 30
0.0
 11
-264.898697
 21
-315.548788
 31
0.0
  0
LINE
  5
2F8
100
AcDbEntity
  8
2
370
    50
100
AcDbLine
 10
-270.006393
 20
-314.548788
 30
0.0
 11
-272.898697
 21
-314.548788
 31
0.0
  0
LINE
  5
2F9
100
AcDbEntity
  8
2
370
    50
100
AcDbLine
 10
-264.898697
 20
-319.548788
 30
0.0
 11
-264.898697
 21
-315.548788
 31
0.0
  0
LINE
  5
2FA
100
AcDbEntity
  8
2
370
    50
100
AcDbLine
 10
-264.898697
 20
-314.548788
 30
0.0
 11
-264.898697
 21
-310.548788
 31
0.0
  0
LINE
  5
2FB
100
AcDbEntity
  8
2
370
    50
100
AcDbLine
 10
-270.006393
 20
-315.548788
 30
0.0
 11
-272.898697
 21
-315.548788
 31
0.0
  0
LINE
  5
2FC
100
AcDbEntity
  8
2
370
    50
100
AcDbLine
 10
-272.898697
 20
-314.548788
 30
0.0
 11
-274.398697
 21
-315.048788
 31
0.0
  0
LINE
  5
2FD
100
AcDbEntity
  8
2
370
    50
100
AcDbLine
 10
-270.006393
 20
-314.548788
 30
0.0
 11
-269.256393
 21
-315.048788
 31
0.0
  0
LINE
  5
2FE
100
AcDbEntity
  8
2
370
    50
100
AcDbLine
 10
-270.006393
 20
-315.548788
 30
0.0
 11
-269.256393
 21
-315.048788
 31
0.0
  0
LINE
  5
2FF
100
AcDbEntity
  8
2
370
    50
100
AcDbLine
 10
-272.898697
 20
-315.548788
 30
0.0
 11
-274.398697
 21
-315.048788
 31
0.0
  0
LINE
  5
300
100
AcDbEntity
  8
2
370
    50
100
AcDbLine
 10
-272.898697
 20
-319.548788
 30
0.0
 11
-272.898697
 21
-315.548788
 31
0.0
  0
LINE
  5
301
100
AcDbEntity
  8
2
370
    50
100
AcDbLine
 10
-272.898697
 20
-314.548788
 30
0.0
 11
-272.898697
 21
-310.548788
 31
0.0
  0
LINE
  5
302
100
AcDbEntity
  8
2
370
    50
100
AcDbLine
 10
-270.006393
 20
-319.548788
 30
0.0
 11
-270.006393
 21
-315.548788
 31
0.0
  0
LINE
  5
303
100
AcDbEntity
  8
2
370
    50
100
AcDbLine
 10
-270.006393
 20
-314.548788
 30
0.0
 11
-270.006393
 21
-310.548788
 31
0.0
  0
LINE
  5
304
100
AcDbEntity
  8
2
370
    50
100
AcDbLine
 10
-265.398697
 20
-315.048788
 30
0.0
 11
-265.756393
 21
-315.048788
 31
0.0
  0
LINE
  5
305
100
AcDbEntity
  8
2
370
    50
100
AcDbLine
 10
-264.898697
 20
-314.548788
 30
0.0
 11
-265.756393
 21
-315.048788
 31
0.0
  0
LINE
  5
306
100
AcDbEntity
  8
2
370
    50
100
AcDbLine
 10
-264.898697
 20
-315.548788
 30
0.0
 11
-265.756393
 21
-315.048788
 31
0.0
  0
LINE
  5
307
100
AcDbEntity
  8
2
370
    50
100
AcDbLine
 10
-277.898697
 20
-320.548788
 30
0.0
 11
-289.898697
 21
-320.548788
 31
0.0
  0
LINE
  5
308
100
AcDbEntity
  8
2
370
    50
100
AcDbLine
 10
-277.898697
 20
-309.548788
 30
0.0
 11
-289.898697
 21
-309.548788
 31
0.0
  0
LINE
  5
309
100
AcDbEntity
  8
2
370
    50
100
AcDbLine
 10
-289.898697
 20
-309.548788
 30
0.0
 11
-290.898697
 21
-310.548788
 31
0.0
  0
LINE
  5
30A
100
AcDbEntity
  8
2
370
    50
100
AcDbLine
 10
-285.791002
 20
-310.548788
 30
0.0
 11
-282.898697
 21
-310.548788
 31
0.0
  0
ARC
  5
30B
100
AcDbEntity
  8
2
370
    50
100
AcDbCircle
 10
-288.34485
 20
-313.309857
 30
0.0
 40
3.761069
100
AcDbArc
 50
47.232751
 51
132.767249
  0
ARC
  5
30C
100
AcDbEntity
  8
2
370
    50
100
AcDbCircle
 10
-277.898697
 20
-322.548788
 30
0.0
 40
13.0
100
AcDbArc
 50
90.0
 51
112.619865
  0
ARC
  5
30D
100
AcDbEntity
  8
2
370
    50
100
AcDbCircle
 10
-288.34485
 20
-316.787719
 30
0.0
 40
3.761069
100
AcDbArc
 50
227.232751
 51
312.767249
  0
ARC
  5
30E
100
AcDbEntity
  8
2
370
    50
100
AcDbCircle
 10
-277.898697
 20
-307.548788
 30
0.0
 40
13.0
100
AcDbArc
 50
247.380135
 51
270.0
  0
LINE
  5
30F
100
AcDbEntity
  8
2
370
    50
100
AcDbLine
 10
-289.898697
 20
-320.548788
 30
0.0
 11
-290.898697
 21
-319.548788
 31
0.0
  0
LINE
  5
310
100
AcDbEntity
  8
2
370
    50
100
AcDbLine
 10
-282.898697
 20
-319.548788
 30
0.0
 11
-285.791002
 21
-319.548788
 31
0.0
  0
LINE
  5
311
100
AcDbEntity
  8
2
370
    50
100
AcDbLine
 10
-286.541002
 20
-315.048788
 30
0.0
 11
-281.398697
 21
-315.048788
 31
0.0
  0
LINE
  5
312
100
AcDbEntity
  8
2
370
    50
100
AcDbLine
 10
-290.398697
 20
-315.048788
 30
0.0
 11
-290.898697
 21
-314.548788
 31
0.0
  0
LINE
  5
313
100
AcDbEntity
  8
2
370
    50
100
AcDbLine
 10
-290.398697
 20
-315.048788
 30
0.0
 11
-290.898697
 21
-315.548788
 31
0.0
  0
LINE
  5
314
100
AcDbEntity
  8
2
370
    50
100
AcDbLine
 10
-285.791002
 20
-314.548788
 30
0.0
 11
-282.898697
 21
-314.548788
 31
0.0
  0
LINE
  5
315
100
AcDbEntity
  8
2
370
    50
100
AcDbLine
 10
-290.898697
 20
-319.548788
 30
0.0
 11
-290.898697
 21
-315.548788
 31
0.0
  0
LINE
  5
316
100
AcDbEntity
  8
2
370
    50
100
AcDbLine
 10
-290.898697
 20
-314.548788
 30
0.0
 11
-290.898697
 21
-310.548788
 31
0.0
  0
LINE
  5
317
100
AcDbEntity
  8
2
370
    50
100
AcDbLine
 10
-285.791002
 20
-315.548788
 30
0.0
 11
-282.898697
 21
-315.548788
 31
0.0
  0
LINE
  5
318
100
AcDbEntity
  8
2
370
    50
100
AcDbLine
 10
-282.898697
 20
-314.548788
 30
0.0
 11
-281.398697
 21
-315.048788
 31
0.0
  0
LINE
  5
319
100
AcDbEntity
  8
2
370
    50
100
AcDbLine
 10
-285.791002
 20
-314.548788
 30
0.0
 11
-286.541002
 21
-315.048788
 31
0.0
  0
LINE
  5
31A
100
AcDbEntity
  8
2
370
    50
100
AcDbLine
 10
-285.791002
 20
-315.548788
 30
0.0
 11
-286.541002
 21
-315.048788
 31
0.0
  0
LINE
  5
31B
100
AcDbEntity
  8
2
370
    50
100
AcDbLine
 10
-282.898697
 20
-315.548788
 30
0.0
 11
-281.398697
 21
-315.048788
 31
0.0
  0
LINE
  5
31C
100
AcDbEntity
  8
2
370
    50
100
AcDbLine
 10
-282.898697
 20
-319.548788
 30
0.0
 11
-282.898697
 21
-315.548788
 31
0.0
  0
LINE
  5
31D
100
AcDbEntity
  8
2
370
    50
100
AcDbLine
 10
-282.898697
 20
-314.548788
 30
0.0
 11
-282.898697
 21
-310.548788
 31
0.0
  0
LINE
  5
31E
100
AcDbEntity
  8
2
370
    50
100
AcDbLine
 10
-285.791002
 20
-319.548788
 30
0.0
 11
-285.791002
 21
-315.548788
 31
0.0
  0
LINE
  5
31F
100
AcDbEntity
  8
2
370
    50
100
AcDbLine
 10
-285.791002
 20
-314.548788
 30
0.0
 11
-285.791002
 21
-310.548788
 31
0.0
  0
LINE
  5
320
100
AcDbEntity
  8
2
370
    50
100
AcDbLine
 10
-290.398697
 20
-315.048788
 30
0.0
 11
-290.041002
 21
-315.048788
 31
0.0
  0
LINE
  5
321
100
AcDbEntity
  8
2
370
    50
100
AcDbLine
 10
-290.898697
 20
-314.548788
 30
0.0
 11
-290.041002
 21
-315.048788
 31
0.0
  0
LINE
  5
322
100
AcDbEntity
  8
2
370
    50
100
AcDbLine
 10
-290.898697
 20
-315.548788
 30
0.0
 11
-290.041002
 21
-315.048788
 31
0.0
  0
LINE
  5
323
100
AcDbEntity
  8
2
370
    50
100
AcDbLine
 10
-269.548697
 20
-309.548788
 30
0.0
 11
-269.548697
 21
-305.548788
 31
0.0
  0
LINE
  5
324
100
AcDbEntity
  8
2
370
    25
100
AcDbLine
 10
-270.398697
 20
-307.548788
 30
0.0
 11
-270.398697
 21
-305.548788
 31
0.0
  0
LINE
  5
325
100
AcDbEntity
  8
2
370
    50
100
AcDbLine
 10
-285.398697
 20
-307.548788
 30
0.0
 11
-277.898697
 21
-307.548788
 31
0.0
  0
LINE
  5
326
100
AcDbEntity
  8
2
370
    50
100
AcDbLine
 10
-270.398697
 20
-307.548788
 30
0.0
 11
-269.548697
 21
-308.398788
 31
0.0
  0
LINE
  5
327
100
AcDbEntity
  8
2
370
    25
100
AcDbLine
 10
-285.398697
 20
-307.548788
 30
0.0
 11
-285.398697
 21
-305.548788
 31
0.0
  0
LINE
  5
328
100
AcDbEntity
  8
2
370
    50
100
AcDbLine
 10
-285.398697
 20
-307.548788
 30
0.0
 11
-286.248697
 21
-308.398788
 31
0.0
  0
LINE
  5
329
100
AcDbEntity
  8
2
370
    50
100
AcDbLine
 10
-286.248697
 20
-309.548788
 30
0.0
 11
-286.248697
 21
-305.548788
 31
0.0
  0
LINE
  5
32A
100
AcDbEntity
  8
2
370
    50
100
AcDbLine
 10
-270.398697
 20
-307.548788
 30
0.0
 11
-277.898697
 21
-307.548788
 31
0.0
  0
LINE
  5
32B
100
AcDbEntity
  8
2
370
    25
  6
CENTER
100
AcDbLine
 10
-165.311243
 20
228.845747
 30
0.0
 11
-218.533075
 21
321.028664
 31
0.0
  0
LINE
  5
32C
100
AcDbEntity
  8
2
370
    50
100
AcDbLine
 10
310.843817
 20
-123.59921
 30
0.0
 11
216.860484
 21
-47.493007
 31
0.0
  0
LINE
  5
32D
100
AcDbEntity
  8
2
370
    50
100
AcDbLine
 10
310.843817
 20
-104.297816
 30
0.0
 11
226.30029
 21
-35.835818
 31
0.0
  0
LINE
  5
32E
100
AcDbEntity
  8
2
370
    25
  6
CENTER
100
AcDbLine
 10
316.815074
 20
-118.783941
 30
0.0
 11
221.580387
 21
-41.664413
 31
0.0
  0
ARC
  5
32F
100
AcDbEntity
  8
2
370
    50
100
AcDbCircle
 10
120.476657
 20
-25.727224
 30
0.0
 40
1.0
100
AcDbArc
 50
172.0
 51
262.0
  0
LINE
  5
330
100
AcDbEntity
  8
2
370
    50
100
AcDbLine
 10
119.486389
 20
-25.588051
 30
0.0
 11
120.432766
 21
-18.854228
 31
0.0
  0
ARC
  5
331
100
AcDbEntity
  8
2
370
    50
100
AcDbCircle
 10
142.262554
 20
-28.789032
 30
0.0
 40
1.0
100
AcDbArc
 50
262.0
 51
352.0
  0
LINE
  5
332
100
AcDbEntity
  8
2
370
    50
100
AcDbLine
 10
143.252823
 20
-28.928205
 30
0.0
 11
144.1992
 21
-22.194383
 31
0.0
  0
LINE
  5
333
100
AcDbEntity
  8
2
370
    50
100
AcDbLine
 10
120.337484
 20
-26.717492
 30
0.0
 11
142.123381
 21
-29.7793
 31
0.0
  0
LINE
  5
334
100
AcDbEntity
  8
2
370
    25
  6
CENTER
100
AcDbLine
 10
130.578897
 20
-32.88431
 30
0.0
 11
134.465239
 21
-5.231555
 31
0.0
  0
LINE
  5
335
100
AcDbEntity
  8
2
370
    50
100
AcDbLine
 10
146.20757
 20
-22.274675
 30
0.0
 11
118.480064
 21
-18.377828
 31
0.0
  0
LINE
  5
336
100
AcDbEntity
  8
2
370
    50
100
AcDbLine
 10
118.480064
 20
-18.377828
 30
0.0
 11
119.809677
 21
-8.917146
 31
0.0
  0
LINE
  5
337
100
AcDbEntity
  8
2
370
    50
100
AcDbLine
 10
146.485917
 20
-20.294139
 30
0.0
 11
146.20757
 21
-22.274675
 31
0.0
  0
LINE
  5
338
100
AcDbEntity
  8
2
370
    50
100
AcDbLine
 10
158.04281
 20
-21.918354
 30
0.0
 11
132.622164
 21
-18.345716
 31
0.0
  0
ARC
  5
339
100
AcDbEntity
  8
2
370
    50
100
AcDbCircle
 10
141.342037
 20
-140.750523
 30
0.0
 40
120.0
100
AcDbArc
 50
51.0
 51
82.0
  0
ARC
  5
33A
100
AcDbEntity
  8
2
370
    50
100
AcDbCircle
 10
141.342037
 20
-140.750523
 30
0.0
 40
135.0
100
AcDbArc
 50
51.0
 51
98.453471
  0
ARC
  5
33B
100
AcDbEntity
  8
2
370
    25
  6
CENTER
100
AcDbCircle
 10
141.342037
 20
-140.750523
 30
0.0
 40
127.5
100
AcDbArc
 50
51.0
 51
82.0
  0
LINE
  5
33C
100
AcDbEntity
  8
2
370
    25
  6
CENTER
100
AcDbLine
 10
159.086608
 20
-14.491344
 30
0.0
 11
120.54491
 21
-9.074661
 31
0.0
  0
ARC
  5
33D
100
AcDbEntity
  8
2
370
    50
100
AcDbCircle
 10
121.790213
 20
-9.195492
 30
0.0
 40
2.0
100
AcDbArc
 50
98.453471
 51
172.0
  0
POINT
  5
33E
100
AcDbEntity
  8
2
370
    50
100
AcDbPoint
 10
-218.533075
 20
-52.53921
 30
0.0
  0
ELLIPSE
  5
33F
100
AcDbEntity
  8
2
370
    50
100
AcDbEllipse
 10
-218.533075
 20
-28.248396
 30
0.0
 11
12.0
 21
0.0
 31
0.0
210
0.0
220
0.0
230
1.0
 40
0.139167
 41
0.0
 42
6.2831849999999996
  0
LINE
  5
340
100
AcDbEntity
  8
2
370
    50
100
AcDbLine
 10
-206.533075
 20
-28.248396
 30
0.0
 11
-206.533075
 21
-20.326252
 31
0.0
  0
LINE
  5
341
100
AcDbEntity
  8
2
370
    50
100
AcDbLine
 10
-230.533075
 20
-28.248396
 30
0.0
 11
-230.533075
 21
-20.326252
 31
0.0
  0
ELLIPSE
  5
342
100
AcDbEntity
  8
2
370
    50
100
AcDbEllipse
 10
-218.533075
 20
-20.326252
 30
0.0
 11
14.0
 21
0.0
 31
0.0
210
0.0
220
0.0
230
1.0
 40
0.139179
 41
5.7420859999999996
 42
3.6826919999999999
  0
ELLIPSE
  5
343
100
AcDbEntity
  8
2
370
    50
100
AcDbEllipse
 10
-218.533075
 20
-20.326252
 30
0.0
 11
12.0
 21
0.0
 31
0.0
210
0.0
220
0.0
230
1.0
 40
0.139167
 41
0.0
 42
3.1415929999999999
  0
ARC
  5
344
100
AcDbEntity
  8
2
370
    50
100
AcDbCircle
 10
-218.533075
 20
-23.250523
 30
0.0
 40
17.5
100
AcDbArc
 50
45.570246
 51
134.429754
  0
ARC
  5
345
100
AcDbEntity
  8
2
370
    50
100
AcDbCircle
 10
-210.365075
 20
-14.918296
 30
0.0
 40
5.832
100
AcDbArc
 50
0.0
 51
45.570246
  0
ARC
  5
346
100
AcDbEntity
  8
2
370
    50
100
AcDbCircle
 10
-226.701075
 20
-14.918296
 30
0.0
 40
5.832
100
AcDbArc
 50
134.429754
 51
180.0
  0
ELLIPSE
  5
347
100
AcDbEntity
  8
2
370
    50
100
AcDbEllipse
 10
-218.533075
 20
-28.248396
 30
0.0
 11
10.0
 21
0.0
 31
0.0
210
0.0
220
0.0
230
1.0
 40
0.13915
 41
0.0
 42
6.2831849999999996
  0
LINE
  5
348
100
AcDbEntity
  8
2
370
    50
100
AcDbLine
 10
-197.033075
 20
-52.53921
 30
0.0
 11
-240.033075
 21
-52.53921
 31
0.0
  0
CIRCLE
  5
349
100
AcDbEntity
  8
2
370
    50
100
AcDbCircle
 10
-218.533075
 20
-38.03921
 30
0.0
 40
5.0
  0
LINE
  5
34A
100
AcDbEntity
  8
2
370
    50
100
AcDbLine
 10
-240.033075
 20
-33.463528
 30
0.0
 11
-240.033075
 21
-52.53921
 31
0.0
  0
LINE
  5
34B
100
AcDbEntity
  8
2
370
    50
100
AcDbLine
 10
-197.033075
 20
-33.463528
 30
0.0
 11
-197.033075
 21
-52.53921
 31
0.0
  0
ARC
  5
34C
100
AcDbEntity
  8
2
370
    50
100
AcDbCircle
 10
-231.555657
 20
-33.463528
 30
0.0
 40
8.477417
100
AcDbArc
 50
149.878537
 51
180.0
  0
ARC
  5
34D
100
AcDbEntity
  8
2
370
    50
100
AcDbCircle
 10
-205.510492
 20
-33.463528
 30
0.0
 40
8.477417
100
AcDbArc
 50
360.0
 51
30.121463
  0
ARC
  5
34E
100
AcDbEntity
  8
2
370
    50
100
AcDbCircle
 10
-225.533075
 20
-23.165909
 30
0.0
 40
11.666667
100
AcDbArc
 50
233.130102
 51
306.869898
  0
ARC
  5
34F
100
AcDbEntity
  8
2
370
    50
100
AcDbCircle
 10
-211.533075
 20
-41.832576
 30
0.0
 40
11.666667
100
AcDbArc
 50
53.130102
 51
126.869898
  0
ARC
  5
350
100
AcDbEntity
  8
2
370
    50
100
AcDbCircle
 10
-225.533075
 20
-41.832576
 30
0.0
 40
11.666667
100
AcDbArc
 50
53.130102
 51
126.869898
  0
LINE
  5
351
100
AcDbEntity
  8
2
370
    50
100
AcDbLine
 10
-204.533075
 20
-32.64254
 30
0.0
 11
-204.533075
 21
-14.918296
 31
0.0
  0
LINE
  5
352
100
AcDbEntity
  8
2
370
    50
100
AcDbLine
 10
-232.533075
 20
-32.536757
 30
0.0
 11
-232.533075
 21
-14.918296
 31
0.0
  0
ARC
  5
353
100
AcDbEntity
  8
2
370
    50
100
AcDbCircle
 10
-218.533075
 20
-38.03921
 30
0.0
 40
4.9
100
AcDbArc
 50
305.281262
 51
234.718738
  0
LINE
  5
354
100
AcDbEntity
  8
2
370
    50
100
AcDbLine
 10
-221.363269
 20
-42.03921
 30
0.0
 11
-215.70288
 21
-42.03921
 31
0.0
  0
LINE
  5
355
100
AcDbEntity
  8
2
370
    50
100
AcDbLine
 10
-219.981916
 20
-36.295691
 30
0.0
 11
-222.577247
 21
-37.778737
 31
0.0
  0
ARC
  5
356
100
AcDbEntity
  8
2
370
    50
100
AcDbCircle
 10
-219.833075
 20
-36.556164
 30
0.0
 40
0.3
100
AcDbArc
 50
0.0
 51
119.744881
  0
LINE
  5
357
100
AcDbEntity
  8
2
370
    50
100
AcDbLine
 10
-219.533075
 20
-36.556164
 30
0.0
 11
-219.533075
 21
-39.522256
 31
0.0
  0
ARC
  5
358
100
AcDbEntity
  8
2
370
    50
100
AcDbCircle
 10
-219.833075
 20
-39.522256
 30
0.0
 40
0.3
100
AcDbArc
 50
240.255119
 51
360.0
  0
LINE
  5
359
100
AcDbEntity
  8
2
370
    50
100
AcDbLine
 10
-219.981916
 20
-39.782729
 30
0.0
 11
-222.577247
 21
-38.299683
 31
0.0
  0
ARC
  5
35A
100
AcDbEntity
  8
2
370
    50
100
AcDbCircle
 10
-222.428405
 20
-38.03921
 30
0.0
 40
0.3
100
AcDbArc
 50
119.744881
 51
240.255119
  0
ARC
  5
35B
100
AcDbEntity
  8
2
370
    50
100
AcDbCircle
 10
-217.233075
 20
-36.556164
 30
0.0
 40
0.3
100
AcDbArc
 50
60.255119
 51
180.0
  0
LINE
  5
35C
100
AcDbEntity
  8
2
370
    50
100
AcDbLine
 10
-217.533075
 20
-36.556164
 30
0.0
 11
-217.533075
 21
-39.522256
 31
0.0
  0
LINE
  5
35D
100
AcDbEntity
  8
2
370
    50
100
AcDbLine
 10
-217.084233
 20
-36.295691
 30
0.0
 11
-214.488902
 21
-37.778737
 31
0.0
  0
ARC
  5
35E
100
AcDbEntity
  8
2
370
    50
100
AcDbCircle
 10
-214.637744
 20
-38.03921
 30
0.0
 40
0.3
100
AcDbArc
 50
299.744881
 51
60.255119
  0
LINE
  5
35F
100
AcDbEntity
  8
2
370
    50
100
AcDbLine
 10
-217.084233
 20
-39.782729
 30
0.0
 11
-214.488902
 21
-38.299683
 31
0.0
  0
ARC
  5
360
100
AcDbEntity
  8
2
370
    50
100
AcDbCircle
 10
-217.233075
 20
-39.522256
 30
0.0
 40
0.3
100
AcDbArc
 50
180.0
 51
299.744881
  0
ARC
  5
361
100
AcDbEntity
  8
2
370
    50
100
AcDbCircle
 10
-218.533075
 20
-28.960769
 30
0.0
 40
38.263071
100
AcDbArc
 50
79.986433
 51
100.013567
  0
LINE
  5
362
100
AcDbEntity
  8
2
370
    50
100
AcDbLine
 10
-229.193347
 20
4.900259
 30
0.0
 11
-238.263075
 21
-35.137189
 31
0.0
  0
ARC
  5
363
100
AcDbEntity
  8
2
370
    50
100
AcDbCircle
 10
-275.346701
 20
-8.056827
 30
0.0
 40
42.150203
100
AcDbArc
 50
329.878537
 51
347.236145
  0
ARC
  5
364
100
AcDbEntity
  8
2
370
    50
100
AcDbCircle
 10
-161.719449
 20
-8.056827
 30
0.0
 40
42.150203
100
AcDbArc
 50
192.763855
 51
210.121463
  0
ARC
  5
365
100
AcDbEntity
  8
2
370
    50
100
AcDbCircle
 10
-224.316903
 20
3.795593
 30
0.0
 40
5.0
100
AcDbArc
 50
100.013567
 51
167.236145
  0
ARC
  5
366
100
AcDbEntity
  8
2
370
    50
100
AcDbCircle
 10
-212.749247
 20
3.795593
 30
0.0
 40
5.0
100
AcDbArc
 50
12.763855
 51
79.986433
  0
LINE
  5
367
100
AcDbEntity
  8
2
370
    50
100
AcDbLine
 10
-207.872802
 20
4.900259
 30
0.0
 11
-198.803075
 21
-35.137189
 31
0.0
  0
LINE
  5
368
100
AcDbEntity
  8
2
370
    50
100
AcDbLine
 10
-227.371942
 20
3.552099
 30
0.0
 11
-208.809335
 21
3.552099
 31
0.0
  0
POINT
  5
369
100
AcDbEntity
  8
2
370
    50
100
AcDbPoint
 10
332.343817
 20
-134.73921
 30
0.0
  0
DIMENSION
  5
36A
100
AcDbEntity
  8
3
370
    25
100
AcDbDimension
  2
*D0
 10
283.128038
 20
2.76717
 30
0.0
 11
213.911443
 21
60.356009
 31
0.0
 70
     2
 71
     0
 72
     0
 41
0.0
 42
0.0
  3
Standard
100
AcDb2LineAngularDimension
 13
350.338016
 23
-6.088358
 33
0.0
 14
350.350618
 24
-6.09639
 34
0.0
 15
350.350618
 25
-6.09639
 35
0.0
 16
209.931133
 26
45.043608
 36
0.0
1001
ACAD
1000
DSTYLE
1002
{
1070
   275
1070
     0
1070
   179
1070
     2
1002
}
  0
POINT
  5
36B
100
AcDbEntity
  8
3
370
    50
100
AcDbPoint
 10
269.608581
 20
45.178598
 30
0.0
  0
POINT
  5
36C
100
AcDbEntity
  8
3
370
    50
100
AcDbPoint
 10
233.343817
 20
9.322759
 30
0.0
  0
TEXT
  5
36D
100
AcDbEntity
  8
3
370
    50
100
AcDbText
 10
494.452743
 20
-78.458225
 30
0.0
 40
10.5
  1
１４４
 50
90.0
 72
     5
 11
494.452743
 21
-49.058225
 31
0.0
100
AcDbText
  0
DIMENSION
  5
36E
100
AcDbEntity
  8
3
370
    25
100
AcDbDimension
  2
*D1
 10
495.952744
 20
9.322759
 30
0.0
 11
493.452744
 21
-62.708225
 31
0.0
 71
     0
 72
     0
 41
0.0
 42
0.0
  3
Standard
100
AcDbAlignedDimension
 13
356.743817
 23
-134.73921
 33
0.0
 14
233.343817
 24
9.322759
 34
0.0
 50
90.0
100
AcDbRotatedDimension
  0
TEXT
  5
36F
100
AcDbEntity
  8
3
370
    50
100
AcDbText
 10
516.408417
 20
-60.530306
 30
0.0
 40
10.5
  1
１８０
 50
90.0
 72
     5
 11
516.408417
 21
-31.130306
 31
0.0
100
AcDbText
  0
DIMENSION
  5
370
100
AcDbEntity
  8
3
370
    25
100
AcDbDimension
  2
*D2
 10
517.908417
 20
45.178598
 30
0.0
 11
515.408417
 21
-44.780306
 31
0.0
 71
     0
 72
     0
 41
0.0
 42
0.0
  3
Standard
100
AcDbAlignedDimension
 13
356.743817
 23
-134.73921
 33
0.0
 14
269.608581
 24
45.178598
 34
0.0
 50
90.0
100
AcDbRotatedDimension
  0
DIMENSION
  5
371
100
AcDbEntity
  8
3
370
    25
100
AcDbDimension
  2
*D3
 10
353.843817
 20
-61.96382
 30
0.0
 11
283.093817
 21
-55.21382
 31
0.0
 70
     1
 71
     0
 72
     0
 41
0.0
 42
0.0
  3
Standard
100
AcDbAlignedDimension
 13
310.843817
 23
-58.03921
 33
0.0
 14
353.843817
 24
-58.03921
 34
0.0
  0
TEXT
  5
372
100
AcDbEntity
  8
3
370
    50
100
AcDbText
 10
224.186684
 20
-11.74883
 30
0.0
 40
10.5
  1
止水
 72
     5
 11
243.086684
 21
-11.74883
 31
0.0
100
AcDbText
  0
TEXT
  5
373
100
AcDbEntity
  8
3
370
    50
100
AcDbText
 10
268.082375
 20
53.43082
 30
0.0
 40
10.5
  1
吐水
 72
     5
 11
286.982375
 21
53.43082
 31
0.0
100
AcDbText
  0
TEXT
  5
374
100
AcDbEntity
  8
3
370
    50
100
AcDbText
 10
362.934494
 20
-205.446854
 30
0.0
 40
10.5
  1
１３六角
 72
     5
 11
402.834494
 21
-205.446854
 31
0.0
100
AcDbText
  0
LWPOLYLINE
  5
375
100
AcDbEntity
  8
3
370
    25
100
AcDbPolyline
 90
        3
 70
     0
 10
349.343817
 20
-191.362984
 10
362.570702
 20
-205.645279
 10
409.378326
 20
-205.645279
  0
LINE
  5
37A
100
AcDbEntity
  8
3
370
    25
100
AcDbLine
 10
353.281771
 20
-195.615157
 30
0.0
 11
354.421137
 21
-194.559986
 31
0.0
  0
LINE
  5
37B
100
AcDbEntity
  8
3
370
    25
100
AcDbLine
 10
354.421137
 20
-194.559986
 30
0.0
 11
349.343817
 21
-191.362984
 31
0.0
  0
LINE
  5
37C
100
AcDbEntity
  8
3
370
    25
100
AcDbLine
 10
349.343817
 20
-191.362984
 30
0.0
 11
352.142404
 21
-196.670329
 31
0.0
  0
LINE
  5
37D
100
AcDbEntity
  8
3
370
    25
100
AcDbLine
 10
352.142404
 20
-196.670329
 30
0.0
 11
353.281771
 21
-195.615157
 31
0.0
  0
TEXT
  5
37E
100
AcDbEntity
  8
3
370
    50
100
AcDbText
 10
-169.031651
 20
-17.069231
 30
0.0
 40
10.5
  1
青色
 72
     5
 11
-150.131651
 21
-17.069231
 31
0.0
100
AcDbText
  0
TEXT
  5
37F
100
AcDbEntity
  8
3
370
    50
100
AcDbText
 10
-178.478931
 20
-30.055883
 30
0.0
 40
10.5
  1
（水表示）
 72
     5
 11
-128.078931
 21
-30.055883
 31
0.0
100
AcDbText
  0
TEXT
  5
380
100
AcDbEntity
  8
3
370
    50
100
AcDbText
 10
-300.757668
 20
-17.45924
 30
0.0
 40
10.5
  1
赤色
 72
     5
 11
-281.857668
 21
-17.45924
 31
0.0
100
AcDbText
  0
TEXT
  5
381
100
AcDbEntity
  8
3
370
    50
100
AcDbText
 10
-310.204948
 20
-30.445892
 30
0.0
 40
10.5
  1
（湯表示）
 72
     5
 11
-259.804948
 21
-30.445892
 31
0.0
100
AcDbText
  0
LWPOLYLINE
  5
382
100
AcDbEntity
  8
3
370
    25
100
AcDbPolyline
 90
        3
 70
     0
 10
-216.128448
 20
-37.956558
 10
-189.785683
 20
-18.734529
 10
-176.71043
 20
-18.734529
  0
LINE
  5
387
100
AcDbEntity
  8
3
370
    25
100
AcDbLine
 10
-211.446761
 20
-34.540382
 30
0.0
 11
-212.362123
 21
-33.285928
 31
0.0
  0
LINE
  5
388
100
AcDbEntity
  8
3
370
    25
100
AcDbLine
 10
-212.362123
 20
-33.285928
 30
0.0
 11
-216.128448
 21
-37.956558
 31
0.0
  0
LINE
  5
389
100
AcDbEntity
  8
3
370
    25
100
AcDbLine
 10
-216.128448
 20
-37.956558
 30
0.0
 11
-210.531399
 21
-35.794836
 31
0.0
  0
LINE
  5
38A
100
AcDbEntity
  8
3
370
    25
100
AcDbLine
 10
-210.531399
 20
-35.794836
 30
0.0
 11
-211.446761
 21
-34.540382
 31
0.0
  0
LWPOLYLINE
  5
38B
100
AcDbEntity
  8
3
370
    25
100
AcDbPolyline
 90
        3
 70
     0
 10
-220.937701
 20
-37.956558
 10
-247.280467
 20
-18.734529
 10
-260.355719
 20
-18.734529
  0
LINE
  5
390
100
AcDbEntity
  8
3
370
    25
100
AcDbLine
 10
-225.619388
 20
-34.540382
 30
0.0
 11
-226.53475
 21
-35.794836
 31
0.0
  0
LINE
  5
391
100
AcDbEntity
  8
3
370
    25
100
AcDbLine
 10
-226.53475
 20
-35.794836
 30
0.0
 11
-220.937701
 21
-37.956558
 31
0.0
  0
LINE
  5
392
100
AcDbEntity
  8
3
370
    25
100
AcDbLine
 10
-220.937701
 20
-37.956558
 30
0.0
 11
-224.704027
 21
-33.285928
 31
0.0
  0
LINE
  5
393
100
AcDbEntity
  8
3
370
    25
100
AcDbLine
 10
-224.704027
 20
-33.285928
 30
0.0
 11
-225.619388
 21
-34.540382
 31
0.0
  0
TEXT
  5
394
100
AcDbEntity
  8
3
370
    50
100
AcDbText
 10
-181.633075
 20
-110.156944
 30
0.0
 40
10.5
  1
φ５０
 72
     5
 11
-152.233075
 21
-110.156944
 31
0.0
100
AcDbText
  0
DIMENSION
  5
395
100
AcDbEntity
  8
3
370
    25
100
AcDbDimension
  2
*D4
 10
-243.433075
 20
-111.656944
 30
0.0
 11
-218.533075
 21
-109.656944
 31
0.0
 70
     1
 71
     0
 72
     0
 41
0.0
 42
0.0
  3
Standard
100
AcDbAlignedDimension
 13
-193.633075
 23
-129.239403
 33
0.0
 14
-243.433075
 24
-129.239403
 34
0.0
  0
TEXT
  5
396
100
AcDbEntity
  8
3
370
    50
100
AcDbText
 10
-347.036133
 20
-121.173462
 30
0.0
 40
10.5
  1
取付穴径　φ３７±２
 50
90.0
 72
     5
 11
-347.036133
 21
-18.273462
 31
0.0
100
AcDbText
  0
LINE
  5
397
100
AcDbEntity
  8
3
370
    25
100
AcDbLine
 10
-246.033075
 20
-160.251218
 30
0.0
 11
-362.926414
 21
-160.251218
 31
0.0
  0
LINE
  5
398
100
AcDbEntity
  8
3
370
    25
100
AcDbLine
 10
-359.926414
 20
-160.251218
 30
0.0
 11
-361.479329
 21
-166.046772
 31
0.0
  0
LINE
  5
399
100
AcDbEntity
  8
3
370
    25
100
AcDbLine
 10
-359.926414
 20
-160.251218
 30
0.0
 11
-358.3735
 21
-166.046772
 31
0.0
  0
LINE
  5
39A
100
AcDbEntity
  8
3
370
    25
100
AcDbLine
 10
-361.479329
 20
-166.046772
 30
0.0
 11
-358.3735
 21
-166.046772
 31
0.0
  0
LINE
  5
39B
100
AcDbEntity
  8
3
370
    25
100
AcDbLine
 10
-359.926414
 20
-175.251218
 30
0.0
 11
-359.926414
 21
-18.657393
 31
0.0
  0
LINE
  5
39C
100
AcDbEntity
  8
3
370
    25
100
AcDbLine
 10
-359.926414
 20
-134.739403
 30
0.0
 11
-358.3735
 21
-128.943848
 31
0.0
  0
LINE
  5
39D
100
AcDbEntity
  8
3
370
    25
100
AcDbLine
 10
-359.926414
 20
-134.739403
 30
0.0
 11
-361.479329
 21
-128.943848
 31
0.0
  0
LINE
  5
39E
100
AcDbEntity
  8
3
370
    25
100
AcDbLine
 10
-358.3735
 20
-128.943848
 30
0.0
 11
-361.479329
 21
-128.943848
 31
0.0
  0
LINE
  5
39F
100
AcDbEntity
  8
3
370
    25
100
AcDbLine
 10
-245.933075
 20
-134.739403
 30
0.0
 11
-362.926414
 21
-134.739403
 31
0.0
  0
TEXT
  5
3A0
100
AcDbEntity
  8
3
370
    50
100
AcDbText
 10
-361.426414
 20
-122.739403
 30
0.0
 40
10.5
  1
５～３０
 50
90.0
 72
     5
 11
-361.426414
 21
-82.839403
 31
0.0
100
AcDbText
  0
TEXT
  5
3A1
100
AcDbEntity
  8
3
370
    50
100
AcDbText
 10
-244.888733
 20
-279.629547
 30
0.0
 40
10.5
  1
２０六角
 72
     5
 11
-204.988733
 21
-279.629547
 31
0.0
100
AcDbText
  0
TEXT
  5
3A2
100
AcDbEntity
  8
3
370
    50
100
AcDbText
 10
-237.819901
 20
-331.597214
 30
0.0
 40
10.5
  1
２４六角
 72
     5
 11
-197.919901
 21
-331.597214
 31
0.0
100
AcDbText
  0
TEXT
  5
3A3
100
AcDbEntity
  8
3
370
    50
100
AcDbText
 10
-236.191681
 20
-349.500946
 30
0.0
 40
10.5
  1
Ｇ１／２
 72
     5
 11
-196.291681
 21
-349.500946
 31
0.0
100
AcDbText
  0
LWPOLYLINE
  5
3A4
100
AcDbEntity
  8
3
370
    25
100
AcDbPolyline
 90
        3
 70
     0
 10
-267.329933
 20
-317.965973
 10
-236.802223
 20
-332.61441
 10
-195.691704
 20
-332.61441
  0
LINE
  5
3A9
100
AcDbEntity
  8
3
370
    25
100
AcDbLine
 10
-262.104782
 20
-320.473213
 30
0.0
 11
-261.432969
 21
-319.073138
 31
0.0
  0
LINE
  5
3AA
100
AcDbEntity
  8
3
370
    25
100
AcDbLine
 10
-261.432969
 20
-319.073138
 30
0.0
 11
-267.329933
 21
-317.965973
 31
0.0
  0
LINE
  5
3AB
100
AcDbEntity
  8
3
370
    25
100
AcDbLine
 10
-267.329933
 20
-317.965973
 30
0.0
 11
-262.776595
 21
-321.873288
 31
0.0
  0
LINE
  5
3AC
100
AcDbEntity
  8
3
370
    25
100
AcDbLine
 10
-262.776595
 20
-321.873288
 30
0.0
 11
-262.104782
 21
-320.473213
 31
0.0
  0
LWPOLYLINE
  5
3AD
100
AcDbEntity
  8
3
370
    25
100
AcDbPolyline
 90
        3
 70
     0
 10
-280.355026
 20
-321.348788
 10
-234.767052
 20
-351.332001
 10
-197.319832
 20
-351.332001
  0
LINE
  5
3B2
100
AcDbEntity
  8
3
370
    25
100
AcDbLine
 10
-275.512888
 20
-324.533463
 30
0.0
 11
-274.659557
 21
-323.236016
 31
0.0
  0
LINE
  5
3B3
100
AcDbEntity
  8
3
370
    25
100
AcDbLine
 10
-274.659557
 20
-323.236016
 30
0.0
 11
-280.355026
 21
-321.348788
 31
0.0
  0
LINE
  5
3B4
100
AcDbEntity
  8
3
370
    25
100
AcDbLine
 10
-280.355026
 20
-321.348788
 30
0.0
 11
-276.366219
 21
-325.83091
 31
0.0
  0
LINE
  5
3B5
100
AcDbEntity
  8
3
370
    25
100
AcDbLine
 10
-276.366219
 20
-325.83091
 30
0.0
 11
-275.512888
 21
-324.533463
 31
0.0
  0
LWPOLYLINE
  5
3B6
100
AcDbEntity
  8
3
370
    25
100
AcDbPolyline
 90
        2
 70
     0
 10
-170.862545
 20
-317.762451
 10
-195.691704
 20
-332.41098
  0
LINE
  5
3BA
100
AcDbEntity
  8
3
370
    25
100
AcDbLine
 10
-175.854138
 20
-320.707355
 30
0.0
 11
-175.065053
 21
-322.044848
 31
0.0
  0
LINE
  5
3BB
100
AcDbEntity
  8
3
370
    25
100
AcDbLine
 10
-175.065053
 20
-322.044848
 30
0.0
 11
-170.862545
 21
-317.762451
 31
0.0
  0
LINE
  5
3BC
100
AcDbEntity
  8
3
370
    25
100
AcDbLine
 10
-170.862545
 20
-317.762451
 30
0.0
 11
-176.643222
 21
-319.369862
 31
0.0
  0
LINE
  5
3BD
100
AcDbEntity
  8
3
370
    25
100
AcDbLine
 10
-176.643222
 20
-319.369862
 30
0.0
 11
-175.854138
 21
-320.707355
 31
0.0
  0
TEXT
  5
3BE
100
AcDbEntity
  8
3
370
    50
100
AcDbText
 10
-352.901436
 20
181.472939
 30
0.0
 40
10.5
  1
（ハンドル回転角度）
 72
     5
 11
-250.001436
 21
181.472939
 31
0.0
100
AcDbText
  0
TEXT
  5
3BF
100
AcDbEntity
  8
3
370
    50
100
AcDbText
 10
436.383179
 20
-359.726921
 30
0.0
 40
9.0
  1
１　３
 72
     5
 11
461.583179
 21
-359.726921
 31
0.0
100
AcDbText
  0
TEXT
  5
3C0
100
AcDbEntity
  8
3
370
    50
100
AcDbText
 10
97.446384
 20
-342.084549
 30
0.0
 40
10.5
  1
台付シングル湯水混合水栓
 72
     5
 11
221.346384
 21
-342.084549
 31
0.0
100
AcDbText
  0
LWPOLYLINE
  5
3C1
100
AcDbEntity
  8
3
370
    25
100
AcDbPolyline
 90
        3
 70
     0
 10
-268.447243
 20
-294.700615
 10
-241.263268
 20
-281.575661
 10
-201.631096
 20
-281.575661
  0
LINE
  5
3C6
100
AcDbEntity
  8
3
370
    25
100
AcDbLine
 10
-263.228171
 20
-292.180745
 30
0.0
 11
-263.903368
 21
-290.782299
 31
0.0
  0
LINE
  5
3C7
100
AcDbEntity
  8
3
370
    25
100
AcDbLine
 10
-263.903368
 20
-290.782299
 30
0.0
 11
-268.447243
 21
-294.700615
 31
0.0
  0
LINE
  5
3C8
100
AcDbEntity
  8
3
370
    25
100
AcDbLine
 10
-268.447243
 20
-294.700615
 30
0.0
 11
-262.552974
 21
-293.579191
 31
0.0
  0
LINE
  5
3C9
100
AcDbEntity
  8
3
370
    25
100
AcDbLine
 10
-262.552974
 20
-293.579191
 30
0.0
 11
-263.228171
 21
-292.180745
 31
0.0
  0
LWPOLYLINE
  5
3CA
100
AcDbEntity
  8
3
370
    25
100
AcDbPolyline
 90
        2
 70
     0
 10
-166.965088
 20
-294.799469
 10
-201.554947
 20
-281.838303
  0
LINE
  5
3CE
100
AcDbEntity
  8
3
370
    25
100
AcDbLine
 10
-172.392152
 20
-292.765894
 30
0.0
 11
-172.937047
 21
-294.220071
 31
0.0
  0
LINE
  5
3CF
100
AcDbEntity
  8
3
370
    25
100
AcDbLine
 10
-172.937047
 20
-294.220071
 30
0.0
 11
-166.965088
 21
-294.799469
 31
0.0
  0
LINE
  5
3D0
100
AcDbEntity
  8
3
370
    25
100
AcDbLine
 10
-166.965088
 20
-294.799469
 30
0.0
 11
-171.847257
 21
-291.311716
 31
0.0
  0
LINE
  5
3D1
100
AcDbEntity
  8
3
370
    25
100
AcDbLine
 10
-171.847257
 20
-291.311716
 30
0.0
 11
-172.392152
 21
-292.765894
 31
0.0
  0
TEXT
  5
3D2
100
AcDbEntity
  8
3
370
    50
100
AcDbText
 10
345.566689
 20
-408.23671
 30
0.0
 40
10.5
  1
外観寸法図
 72
     5
 11
395.966689
 21
-408.23671
 31
0.0
100
AcDbText
  0
TEXT
  5
3D3
100
AcDbEntity
  8
3
370
    50
100
AcDbText
 10
-205.495331
 20
75.786327
 30
0.0
 40
10.5
  1
（パイプ回転角度）
 72
     5
 11
-113.095331
 21
75.786327
 31
0.0
100
AcDbText
  0
LWPOLYLINE
  5
3D4
100
AcDbEntity
  8
3
370
    25
100
AcDbPolyline
 90
        2
 70
     0
 10
-159.168214
 20
-321.124975
 10
-196.753899
 20
-350.994003
  0
LINE
  5
3D8
100
AcDbEntity
  8
3
370
    25
100
AcDbLine
 10
-163.705508
 20
-324.730724
 30
0.0
 11
-162.73935
 21
-325.946488
 31
0.0
  0
LINE
  5
3D9
100
AcDbEntity
  8
3
370
    25
100
AcDbLine
 10
-162.73935
 20
-325.946488
 30
0.0
 11
-159.168214
 21
-321.124975
 31
0.0
  0
LINE
  5
3DA
100
AcDbEntity
  8
3
370
    25
100
AcDbLine
 10
-159.168214
 20
-321.124975
 30
0.0
 11
-164.671665
 21
-323.51496
 31
0.0
  0
LINE
  5
3DB
100
AcDbEntity
  8
3
370
    25
100
AcDbLine
 10
-164.671665
 20
-323.51496
 30
0.0
 11
-163.705508
 21
-324.730724
 31
0.0
  0
LINE
  5
3DC
100
AcDbEntity
  8
3
370
    25
  6
CENTER
100
AcDbLine
 10
-159.168214
 20
-315.640782
 30
0.0
 11
-159.168214
 21
-311.20551
 31
0.0
  0
POINT
  5
3DD
100
AcDbEntity
  8
3
370
    50
100
AcDbPoint
 10
-277.898697
 20
-313.548788
 30
0.0
  0
POINT
  5
3DE
100
AcDbEntity
  8
3
370
    50
100
AcDbPoint
 10
-159.168214
 20
-313.548788
 30
0.0
  0
TEXT
  5
3DF
100
AcDbEntity
  8
3
370
    50
100
AcDbText
 10
-413.806
 20
-260.894095
 30
0.0
 40
10.5
  1
３８８（湯側）
 50
90.0
 72
     5
 11
-413.806
 21
-189.494095
 31
0.0
100
AcDbText
  0
DIMENSION
  5
3E0
100
AcDbEntity
  8
3
370
    25
100
AcDbDimension
  2
*D5
 10
-412.306
 20
-134.739403
 30
0.0
 11
-414.806
 21
-224.144095
 31
0.0
 71
     0
 72
     0
 41
0.0
 42
0.0
  3
Standard
100
AcDbAlignedDimension
 13
-277.898697
 23
-313.548788
 33
0.0
 14
-242.933075
 24
-134.739403
 34
0.0
 50
90.0
100
AcDbRotatedDimension
  0
TEXT
  5
3E1
100
AcDbEntity
  8
3
370
    50
100
AcDbText
 10
-15.623082
 20
-260.894095
 30
0.0
 40
10.5
  1
３８８（水側）
 50
90.0
 72
     5
 11
-15.623082
 21
-189.494095
 31
0.0
100
AcDbText
  0
DIMENSION
  5
3E2
100
AcDbEntity
  8
3
370
    25
100
AcDbDimension
  2
*D6
 10
-14.123082
 20
-134.739403
 30
0.0
 11
-16.623082
 21
-224.144095
 31
0.0
 71
     0
 72
     0
 41
0.0
 42
0.0
  3
Standard
100
AcDbAlignedDimension
 13
-159.168214
 23
-313.548788
 33
0.0
 14
-194.133075
 24
-134.739403
 34
0.0
 50
90.0
100
AcDbRotatedDimension
  0
DIMENSION
  5
3E3
100
AcDbEntity
  8
3
370
    25
100
AcDbDimension
  2
*D7
 10
-184.693591
 20
262.416959
 30
0.0
 11
-171.141803
 21
205.015358
 31
0.0
 70
     2
 71
     0
 72
     0
 41
0.0
 42
0.0
  3
Standard
100
AcDb2LineAngularDimension
 13
-218.533075
 23
195.202652
 33
0.0
 14
-218.533075
 24
321.028664
 34
0.0
 15
-218.533075
 25
321.028664
 35
0.0
 16
-185.966907
 26
199.49007
 36
0.0
1001
ACAD
1000
DSTYLE
1002
{
1070
   275
1070
     0
1070
   179
1070
     2
1002
}
  0
DIMENSION
  5
3E4
100
AcDbEntity
  8
3
370
    25
100
AcDbDimension
  2
*D8
 10
-218.533075
 20
195.202652
 30
0.0
 11
-267.05618
 21
205.48418
 31
0.0
 70
     2
 71
     0
 72
     0
 41
0.0
 42
0.0
  3
Standard
100
AcDb2LineAngularDimension
 13
-327.501597
 23
258.115658
 33
0.0
 14
-218.533075
 24
321.028664
 34
0.0
 15
-218.533075
 25
321.028664
 35
0.0
 16
-281.44608
 26
212.060141
 36
0.0
1001
ACAD
1000
DSTYLE
1002
{
1070
   275
1070
     0
1070
   179
1070
     2
1002
}
  0
DIMENSION
  5
3E5
100
AcDbEntity
  8
3
370
    25
100
AcDbDimension
  2
*D9
 10
-58.499471
 20
228.633219
 30
0.0
 11
-197.533075
 21
99.053786
 31
0.0
 70
     2
 71
     0
 72
     0
 41
0.0
 42
0.0
  3
Standard
100
AcDb2LineAngularDimension
 13
-378.566679
 23
228.633219
 33
0.0
 14
-218.533075
 24
321.028664
 34
0.0
 15
-218.533075
 25
321.028664
 35
0.0
 16
-218.533075
 26
97.553786
 36
0.0
1001
ACAD
1000
DSTYLE
1002
{
1070
   275
1070
     0
1070
   179
1070
     2
1002
}
  0
POINT
  5
3E6
100
AcDbEntity
  8
3
370
    50
100
AcDbPoint
 10
131.230433
 20
-28.248396
 30
0.0
  0
DIMENSION
  5
3E7
100
AcDbEntity
  8
3
370
    25
100
AcDbDimension
  2
*D10
 10
131.230433
 20
-28.250821
 30
0.0
 11
140.11798
 21
-51.674214
 31
0.0
 70
     2
 71
     0
 72
     0
 41
0.0
 42
0.0
  3
Standard
100
AcDb2LineAngularDimension
 13
131.230095
 23
-28.250798
 33
0.0
 14
131.230433
 24
-28.248396
 34
0.0
 15
131.230433
 25
-28.248396
 35
0.0
 16
129.538923
 26
-52.438117
 36
0.0
1001
ACAD
1000
DSTYLE
1002
{
1070
   275
1070
     0
1070
   179
1070
     2
1002
}
  0
TEXT
  5
3E8
100
AcDbEntity
  8
3
370
    50
100
AcDbText
 10
100.043247
 20
-97.243803
 30
0.0
 40
10.5
  1
１０６
 50
90.0
 72
     5
 11
100.043247
 21
-67.843803
 31
0.0
100
AcDbText
  0
DIMENSION
  5
3E9
100
AcDbEntity
  8
3
370
    25
100
AcDbDimension
  2
*D11
 10
101.543247
 20
-28.248396
 30
0.0
 11
99.043247
 21
-81.493803
 31
0.0
 71
     0
 72
     0
 41
0.0
 42
0.0
  3
Standard
100
AcDbAlignedDimension
 13
307.943817
 23
-134.73921
 33
0.0
 14
131.230433
 24
-28.248396
 34
0.0
 50
90.0
100
AcDbRotatedDimension
  0
DIMENSION
  5
3EA
100
AcDbEntity
  8
3
370
    25
100
AcDbDimension
  2
*D12
 10
332.343817
 20
-184.818592
 30
0.0
 11
231.787125
 21
-178.068592
 31
0.0
 71
     0
 72
     0
 41
0.0
 42
0.0
  3
Standard
100
AcDbAlignedDimension
 13
131.230433
 23
-28.248396
 33
0.0
 14
332.343817
 24
-134.73921
 34
0.0
100
AcDbRotatedDimension
  0
TEXT
  5
3EB
100
AcDbEntity
  8
3
370
    50
100
AcDbText
 10
96.599178
 20
-354.50592
 30
0.0
 40
10.5
  1
ＭＫＺ５４５ＭＭＸＥ
 72
     5
 11
199.499178
 21
-354.50592
 31
0.0
100
AcDbText
  0
TEXT
  5
3EC
100
AcDbEntity
  8
3
370
    50
100
AcDbText
 10
504.009521
 20
-408.993713
 30
0.0
 40
10.5
  1
１１０１７１
 72
     5
 11
564.909521
 21
-408.993713
 31
0.0
100
AcDbText
  0
TEXT
  5
3ED
100
AcDbEntity
  8
3
370
    50
100
AcDbText
 10
517.535706
 20
-383.52095
 30
0.0
 40
9.0
  1
１５　１１　　９
 72
     5
 11
587.735706
 21
-383.52095
 31
0.0
100
AcDbText
  0
ENDSEC
  0
SECTION
  2
OBJECTS
  0
DICTIONARY
  5
481
100
AcDbDictionary
280
     0
281
     1
  3
ACAD_GROUP
350
482
  3
ACAD_MLINESTYLE
350
483
  0
DICTIONARY
  5
482
102
{ACAD_REACTORS
330
481
102
}
100
AcDbDictionary
280
     0
281
     1
  0
DICTIONARY
  5
483
102
{ACAD_REACTORS
330
481
102
}
100
AcDbDictionary
280
     0
281
     1
  3
Standard
350
484
  0
MLINESTYLE
  5
484
102
{ACAD_REACTORS
330
483
102
}
100
AcDbMlineStyle
  2
Standard
 70
     0
  3

 62
     0
 51
90.0
 52
90.0
 71
     2
 49
0.5
 62
   256
  6
ByLayer
 49
-0.5
 62
   256
  6
ByLayer
  0
ENDSEC
  0
EOF
