  0
SECTION
  2
HEADER
  9
$ACADVER
  1
AC1015
  9
$ACADMAINTVER
 70
     6
  9
$DWGCODEPAGE
  3
ANSI_932
  9
$INSBASE
 10
0.0
 20
0.0
 30
0.0
  9
$EXTMIN
 10
-630.0
 20
-445.5
 30
1.000000E+20
  9
$EXTMAX
 10
630.0
 20
445.5
 30
-1.000000E+20
  9
$LIMMIN
 10
-630.0
 20
-445.5
  9
$LIMMAX
 10
630.0
 20
445.5
  9
$ORTHOMODE
 70
     0
  9
$REGENMODE
 70
     1
  9
$FILLMODE
 70
     1
  9
$QTEXTMODE
 70
     0
  9
$MIRRTEXT
 70
     1
  9
$LTSCALE
 40
1.0
  9
$ATTMODE
 70
     1
  9
$TEXTSIZE
 40
0.2
  9
$TRACEWID
 40
0.05
  9
$TEXTSTYLE
  7
STANDARD
  9
$CLAYER
  8
0
  9
$CELTYPE
  6
CONTINUOUS
  9
$CECOLOR
 62
   256
  9
$CELTSCALE
 40
1.0
  9
$DISPSILH
 70
     0
  9
$DIMSCALE
 40
3.0
  9
$DIMASZ
 40
2.0
  9
$DIMEXO
 40
1.0
  9
$DIMDLI
 40
0.38
  9
$DIMRND
 40
0.0
  9
$DIMDLE
 40
0.0
  9
$DIMEXE
 40
2.0
  9
$DIMTP
 40
0.0
  9
$DIMTM
 40
0.0
  9
$DIMTXT
 40
3.5
  9
$DIMCEN
 40
0.09
  9
$DIMTSZ
 40
0.0
  9
$DIMTOL
 70
     0
  9
$DIMLIM
 70
     0
  9
$DIMTIH
 70
     0
  9
$DIMTOH
 70
     0
  9
$DIMSE1
 70
     0
  9
$DIMSE2
 70
     0
  9
$DIMTAD
 70
     1
  9
$DIMZIN
 70
     0
  9
$DIMBLK
  1

  9
$DIMASO
 70
     1
  9
$DIMSHO
 70
     1
  9
$DIMPOST
  1

  9
$DIMAPOST
  1

  9
$DIMALT
 70
     0
  9
$DIMALTD
 70
     2
  9
$DIMALTF
 40
25.4
  9
$DIMLFAC
 40
1.0
  9
$DIMTOFL
 70
     0
  9
$DIMTVP
 40
0.0
  9
$DIMTIX
 70
     0
  9
$DIMSOXD
 70
     0
  9
$DIMSAH
 70
     0
  9
$DIMBLK1
  1

  9
$DIMBLK2
  1

  9
$DIMSTYLE
  2
Standard
  9
$DIMCLRD
 70
     0
  9
$DIMCLRE
 70
     0
  9
$DIMCLRT
 70
     0
  9
$DIMTFAC
 40
1.0
  9
$DIMGAP
 40
0.5
  9
$DIMJUST
 70
     0
  9
$DIMSD1
 70
     0
  9
$DIMSD2
 70
     0
  9
$DIMTOLJ
 70
     1
  9
$DIMTZIN
 70
     0
  9
$DIMALTZ
 70
     0
  9
$DIMALTTZ
 70
     0
  9
$DIMUPT
 70
     0
  9
$DIMDEC
 70
     3
  9
$DIMTDEC
 70
     4
  9
$DIMALTU
 70
     2
  9
$DIMALTTD
 70
     2
  9
$DIMTXSTY
  7
STANDARD
  9
$DIMAUNIT
 70
     0
  9
$DIMADEC
 70
     0
  9
$DIMALTRND
 40
0.0
  9
$DIMAZIN
 70
     0
  9
$DIMDSEP
 70
     0
  9
$DIMATFIT
 70
     3
  9
$DIMFRAC
 70
     0
  9
$DIMLDRBLK
  1

  9
$DIMLUNIT
 70
     2
  9
$DIMLWD
 70
     0
  9
$DIMLWE
 70
     0
  9
$DIMTMOVE
 70
     0
  9
$LUNITS
 70
     2
  9
$LUPREC
 70
     4
  9
$SKETCHINC
 40
0.1
  9
$FILLETRAD
 40
0.0
  9
$AUNITS
 70
     0
  9
$AUPREC
 70
     0
  9
$MENU
  1
acad
  9
$ELEVATION
 40
0.0
  9
$PELEVATION
 40
0.0
  9
$THICKNESS
 40
0.0
  9
$LIMCHECK
 70
     0
  9
$CHAMFERA
 40
0.0
  9
$CHAMFERB
 40
0.0
  9
$CHAMFERC
 40
0.0
  9
$CHAMFERD
 40
0.0
  9
$SKPOLY
 70
     0
  9
$TDCREATE
 40
2453383.000000000
  9
$TDUCREATE
 40
0.000000000
  9
$TDUPDATE
 40
0.000000000
  9
$TDUUPDATE
 40
2447892.625000000
  9
$TDINDWG
 40
0.0000000000
  9
$TDUSRTIMER
 40
0.0000000000
  9
$USRTIMER
 70
     1
  9
$ANGBASE
 50
0.0
  9
$ANGDIR
 70
     0
  9
$PDMODE
 70
     0
  9
$PDSIZE
 40
0.0
  9
$PLINEWID
 40
0.0
  9
$SPLFRAME
 70
     0
  9
$SPLINETYPE
 70
     6
  9
$SPLINESEGS
 70
     8
  9
$HANDSEED
  5
4E7
  9
$SURFTAB1
 70
     6
  9
$SURFTAB2
 70
     6
  9
$SURFTYPE
 70
     6
  9
$SURFU
 70
     6
  9
$SURFV
 70
     6
  9
$UCSBASE
  2

  9
$UCSNAME
  2

  9
$UCSORG
 10
0.0
 20
0.0
 30
0.0
  9
$UCSXDIR
 10
1.0
 20
0.0
 30
0.0
  9
$UCSYDIR
 10
0.0
 20
1.0
 30
0.0
  9
$UCSORTHOREF
  2

  9
$UCSORTHOVIEW
 70
     0
  9
$UCSORGTOP
 10
0.0
 20
0.0
 30
0.0
  9
$UCSORGBOTTOM
 10
0.0
 20
0.0
 30
0.0
  9
$UCSORGLEFT
 10
0.0
 20
0.0
 30
0.0
  9
$UCSORGRIGHT
 10
0.0
 20
0.0
 30
0.0
  9
$UCSORGFRONT
 10
0.0
 20
0.0
 30
0.0
  9
$UCSORGBACK
 10
0.0
 20
0.0
 30
0.0
  9
$PUCSBASE
  2

  9
$PUCSNAME
  2

  9
$PUCSORG
 10
0.0
 20
0.0
 30
0.0
  9
$PUCSXDIR
 10
1.0
 20
0.0
 30
0.0
  9
$PUCSYDIR
 10
0.0
 20
1.0
 30
0.0
  9
$PUCSORTHOREF
  2

  9
$PUCSORTHOVIEW
 70
     0
  9
$PUCSORGTOP
 10
0.0
 20
0.0
 30
0.0
  9
$PUCSORGBOTTOM
 10
0.0
 20
0.0
 30
0.0
  9
$PUCSORGLEFT
 10
0.0
 20
0.0
 30
0.0
  9
$PUCSORGRIGHT
 10
0.0
 20
0.0
 30
0.0
  9
$PUCSORGFRONT
 10
0.0
 20
0.0
 30
0.0
  9
$PUCSORGBACK
 10
0.0
 20
0.0
 30
0.0
  9
$USERI1
 70
     0
  9
$USERI2
 70
     0
  9
$USERI3
 70
     0
  9
$USERI4
 70
     0
  9
$USERI5
 70
     0
  9
$USERR1
 40
0.0
  9
$USERR2
 40
0.0
  9
$USERR3
 40
0.0
  9
$USERR4
 40
0.0
  9
$USERR5
 40
0.0
  9
$WORLDVIEW
 70
     1
  9
$SHADEDGE
 70
     3
  9
$SHADEDIF
 70
    70
  9
$TILEMODE
 70
     1
  9
$MAXACTVP
 70
    16
  9
$PINSBASE
 10
0.0
 20
0.0
 30
0.0
  9
$PLIMCHECK
 70
     0
  9
$PEXTMIN
 10
1.000000E+20
 20
1.000000E+20
 30
1.000000E+20
  9
$PEXTMAX
 10
-1.000000E+20
 20
-1.000000E+20
 30
-1.000000E+20
  9
$PLIMMIN
 10
0.0
 20
0.0
  9
$PLIMMAX
 10
12.0
 20
9.0
  9
$UNITMODE
 70
     0
  9
$VISRETAIN
 70
     0
  9
$PLINEGEN
 70
     1
  9
$PSLTSCALE
 70
     0
  9
$TREEDEPTH
 70
  3020
  9
$CMLSTYLE
  2
Standard
  9
$CMLJUST
 70
     0
  9
$CMLSCALE
 40
1.0
  9
$PROXYGRAPHICS
 70
     0
  9
$MEASUREMENT
 70
     0
  9
$CELWEIGHT
370
     0
  9
$ENDCAPS
280
     0
  9
$JOINSTYLE
280
     0
  9
$LWDISPLAY
290
     0
  9
$INSUNITS
 70
     0
  9
$HYPERLINKBASE
  1

  9
$STYLESHEET
  1

  9
$XEDIT
290
     1
  9
$CEPSNTYPE
380
     0
  9
$PSTYLEMODE
290
     1
  9
$FINGERPRINTGUID
  2

  9
$VERSIONGUID
  2

  9
$EXTNAMES
290
     1
  9
$PSVPSCALE
 40
0.0
  0
ENDSEC
  0
SECTION
  2
CLASSES
  0
CLASS
  1
LWPOLYLINE
  2
AcDbPolyline
  3
AutoCAD 2000
 90
        0
280
     0
281
     1
  0
CLASS
  1
IMAGE
  2
AcDbRasterImage
  3
ISM
 90
      127
280
     0
281
     1
  0
CLASS
  1
OLE2FRAME
  2
AcDbOle2Frame
  3
AutoCAD 2000
 90
        0
280
     0
281
     1
  0
CLASS
  1
HATCH
  2
AcDbHatch
  3
AutoCAD 2000
 90
        0
280
     0
281
     1
  0
CLASS
  1
DICTIONARYVAR
  2
AcDbDictionaryVar
  3
AutoCAD 2000
 90
        0
280
     0
281
     0
  0
CLASS
  1
RASTERVARIABLES
  2
AcDbRasterVariables
  3
ISM
 90
        0
280
     0
281
     0
  0
CLASS
  1
IMAGEDEF
  2
AcDbRasterImageDef
  3
ISM
 90
        0
280
     0
281
     0
  0
CLASS
  1
IMAGEDEF_REACTOR
  2
AcDbRasterImageDefReactor
  3
ISM
 90
        1
280
     0
281
     0
  0
CLASS
  1
IDBUFFER
  2
AcDbIdBuffer
  3
AutoCAD 2000
 90
        0
280
     0
281
     0
  0
CLASS
  1
SPATIAL_FILTER
  2
AcDbSpatialFilter
  3
AutoCAD 2000
 90
        0
280
     0
281
     0
  0
CLASS
  1
XRECORD
  2
AcDbXrecord
  3
AutoCAD 2000
 90
        0
280
     0
281
     0
  0
CLASS
  1
SORTENTSTABLE
  2
AcDbSortentsTable
  3
AutoCAD 2000
 90
        0
280
     0
281
     0
  0
CLASS
  1
LAYER_INDEX
  2
AcDbLayerIndex
  3
AutoCAD 2000
 90
        0
280
     0
281
     0
  0
CLASS
  1
SPATIAL_INDEX
  2
AcDbSpatialIndex
  3
AutoCAD 2000
 90
        0
280
     0
281
     0
  0
CLASS
  1
OBJECT_PTR
  2
CAseDLPNTableRecord
  3
"ASE-LPNTableRecord"
 90
        1
280
     0
281
     0
  0
CLASS
  1
LAYOUT
  2
AcDbLayout
  3
AutoCAD 2000
 90
        0
280
     0
281
     0
  0
CLASS
  1
PLOTSETTINGS
  2
AcDbPlotSettings
  3
AutoCAD 2000
 90
        0
280
     0
281
     0
  0
CLASS
  1
ACDBDICTIONARYWDFLT
  2
AcDbDictionaryWithDefault
  3
AutoCAD 2000
 90
        0
280
     0
281
     0
  0
CLASS
  1
ACDBPLACEHOLDER
  2
AcDbPlaceHolder
  3
AutoCAD 2000
 90
        0
280
     0
281
     0
  0
CLASS
  1
VBA_PROJECT
  2
AcDbVbaProject
  3
acadvba
 90
        0
280
     0
281
     0
  0
CLASS
  1
WIPEOUT
  2
AcDbWipeout
  3
WipeOut|AutoCAD Express Tool|expresstools@autodesk.com
 90
      127
280
     0
281
     1
  0
CLASS
  1
WIPEOUTVARIABLES
  2
AcDbWipeoutVariables
  3
WipeOut|AutoCAD Express Tool|expresstools@autodesk.com
 90
        0
280
     0
281
     0
  0
CLASS
  1
RTEXT
  2
RText
  3
RText|AutoCAD Express Tool|expresstools@autodesk.com
 90
        0
280
     0
281
     1
  0
CLASS
  1
ARCALIGNEDTEXT
  2
AcDbArcAlignedText
  3
ATEXT|AutoCAD Express Tool|expresstools@autodesk.com
 90
        0
280
     0
281
     1
  0
ENDSEC
  0
SECTION
  2
TABLES
  0
TABLE
  2
VPORT
  5
6
100
AcDbSymbolTable
 70
     1
  0
VPORT
  5
19
100
AcDbSymbolTableRecord
100
AcDbViewportTableRecord
  2
*ACTIVE
 70
     0
 10
0.0
 20
0.0
 11
1.0
 21
1.0
 12
0.0
 22
0.0
 13
0.0
 23
0.0
 14
1.0
 24
1.0
 15
0.0
 25
0.0
 16
0.0
 26
0.0
 36
1.0
 17
0.0
 27
0.0
 37
0.0
 40
891.0
 41
1.414141
 42
50.0
 43
0.0
 44
0.0
 50
0.0
 51
0.0
 71
     0
 72
   500
 73
     1
 74
     1
 75
     0
 76
     0
 77
     0
 78
     0
281
     0
 65
     0
110
0.0
120
0.0
130
0.0
111
1.0
121
0.0
131
0.0
112
0.0
122
1.0
132
0.0
345
0
346
0
 79
     0
146
0.0
  0
ENDTAB
  0
TABLE
  2
LTYPE
  5
3
100
AcDbSymbolTable
 70
     9
  0
LTYPE
  5
C
100
AcDbSymbolTableRecord
100
AcDbLinetypeTableRecord
  2
ByBlock
 70
    64
  3

 72
    65
 73
     0
 40
0.0
  0
LTYPE
  5
D
100
AcDbSymbolTableRecord
100
AcDbLinetypeTableRecord
  2
ByLayer
 70
    64
  3

 72
    65
 73
     0
 40
0.0
  0
LTYPE
  5
E
100
AcDbSymbolTableRecord
100
AcDbLinetypeTableRecord
  2
CONTINUOUS
 70
     0
  3
Solid line
 72
    65
 73
     0
 40
0.0
  0
LTYPE
  5
F
100
AcDbSymbolTableRecord
100
AcDbLinetypeTableRecord
  2
DASHED
 70
     0
  3
__ __ __ __ __ __ __ __ __ __ __ __ __ __ __
 72
    65
 73
     2
 40
2.0
 49
1.2
 74
     0
 49
-0.8
 74
     0
  0
LTYPE
  5
10
100
AcDbSymbolTableRecord
100
AcDbLinetypeTableRecord
  2
CENTER
 70
     0
  3
____ _ ____ _ ____ _ ____ _ ____ _ ____ _ ____
 72
    65
 73
     4
 40
12.0
 49
9.0
 74
     0
 49
-1.0
 74
     0
 49
1.0
 74
     0
 49
-1.0
 74
     0
  0
LTYPE
  5
11
100
AcDbSymbolTableRecord
100
AcDbLinetypeTableRecord
  2
HIDDEN
 70
     0
  3
_ _ _ _ _ _ _ _ _ _ _ _ _ _ _ _ _ _ _ _ _ _ _
 72
    65
 73
     2
 40
3.2
 49
2.4
 74
     0
 49
-0.8
 74
     0
  0
LTYPE
  5
12
100
AcDbSymbolTableRecord
100
AcDbLinetypeTableRecord
  2
PHANTOM
 70
     0
  3
_____ _ _ _____ _ _ _____ _ _ _____ _ _ _____
 72
    65
 73
     6
 40
13.5
 49
9.0
 74
     0
 49
-1.0
 74
     0
 49
1.0
 74
     0
 49
-0.5
 74
     0
 49
1.0
 74
     0
 49
-1.0
 74
     0
  0
LTYPE
  5
13
100
AcDbSymbolTableRecord
100
AcDbLinetypeTableRecord
  2
DOT
 70
     0
  3
...............................................
 72
    65
 73
     2
 40
1.0
 49
0.5
 74
     0
 49
-0.5
 74
     0
  0
LTYPE
  5
14
100
AcDbSymbolTableRecord
100
AcDbLinetypeTableRecord
  2
DASHDOT
 70
     0
  3
__ . __ . __ . __ . __ . __ . __ . __ . __ . __
 72
    65
 73
     4
 40
8.0
 49
5.0
 74
     0
 49
-1.0
 74
     0
 49
1.0
 74
     0
 49
-1.0
 74
     0
  0
ENDTAB
  0
TABLE
  2
LAYER
  5
1
100
AcDbSymbolTable
 70
     4
  0
LAYER
  5
15
100
AcDbSymbolTableRecord
100
AcDbLayerTableRecord
  2
0
 70
     0
 62
     7
  6
CONTINUOUS
290
     1
370
    -3
390
0
  0
LAYER
  5
16
100
AcDbSymbolTableRecord
100
AcDbLayerTableRecord
  2
1
 70
     0
 62
     7
  6
CONTINUOUS
290
     1
370
    -3
390
0
  0
LAYER
  5
17
100
AcDbSymbolTableRecord
100
AcDbLayerTableRecord
  2
2
 70
     0
 62
     7
  6
CONTINUOUS
290
     1
370
    -3
390
0
  0
LAYER
  5
18
100
AcDbSymbolTableRecord
100
AcDbLayerTableRecord
  2
3
 70
     0
 62
     7
  6
CONTINUOUS
290
     1
370
    -3
390
0
  0
ENDTAB
  0
TABLE
  2
STYLE
  5
2
100
AcDbSymbolTable
 70
     1
  0
STYLE
  5
1B
100
AcDbSymbolTableRecord
100
AcDbTextStyleTableRecord
  2
STANDARD
 70
    64
 40
0.0
 41
1.0
 50
0.0
 71
     0
 42
1.0
  3
txt
  4
BIGFONT
  0
ENDTAB
  0
TABLE
  2
VIEW
  5
4
100
AcDbSymbolTable
 70
     0
  0
ENDTAB
  0
TABLE
  2
UCS
  5
5
100
AcDbSymbolTable
 70
     0
  0
ENDTAB
  0
TABLE
  2
APPID
  5
7
100
AcDbSymbolTable
 70
     1
  0
APPID
  5
1A
100
AcDbSymbolTableRecord
100
AcDbRegAppTableRecord
  2
ACAD
 70
     0
  0
ENDTAB
  0
TABLE
  2
DIMSTYLE
  5
8
100
AcDbSymbolTable
 70
     1
100
AcDbDimStyleTable
 71
     0
  0
DIMSTYLE
105
31
100
AcDbSymbolTableRecord
100
AcDbDimStyleTableRecord
  2
Standard
 70
     0
  3

  4

 40
3.0
 41
2.0
 42
1.0
 43
0.38
 44
2.0
 45
0.0
 46
0.0
 47
0.0
 48
0.0
 71
     0
 72
     0
 73
     0
 74
     0
 75
     0
 76
     0
 77
     1
 78
     0
 79
     0
140
3.5
141
0.09
142
0.0
143
25.4
144
1.0
145
0.0
146
1.0
147
0.5
148
0.0
170
     0
171
     2
172
     0
173
     0
174
     0
175
     0
176
     0
177
     0
178
     0
179
     0
271
     3
272
     4
273
     2
274
     2
275
     0
276
     0
277
     2
278
    46
279
     0
280
     0
281
     0
282
     0
283
     1
284
     0
285
     0
286
     0
288
     0
289
     3
340
1B
341
0
342
0
343
0
344
0
371
    -2
372
    -2
  0
ENDTAB
  0
TABLE
  2
BLOCK_RECORD
  5
2C
100
AcDbSymbolTable
 70
    14
  0
BLOCK_RECORD
  5
2A
100
AcDbSymbolTableRecord
100
AcDbBlockTableRecord
  2
*Model_Space
340
0
  0
BLOCK_RECORD
  5
2B
100
AcDbSymbolTableRecord
100
AcDbBlockTableRecord
  2
*Paper_Space
340
0
  0
BLOCK_RECORD
  5
1C
100
AcDbSymbolTableRecord
100
AcDbBlockTableRecord
  2
*D0
340
0
  0
BLOCK_RECORD
  5
1D
100
AcDbSymbolTableRecord
100
AcDbBlockTableRecord
  2
*D1
340
0
  0
BLOCK_RECORD
  5
1E
100
AcDbSymbolTableRecord
100
AcDbBlockTableRecord
  2
*D2
340
0
  0
BLOCK_RECORD
  5
1F
100
AcDbSymbolTableRecord
100
AcDbBlockTableRecord
  2
*D3
340
0
  0
BLOCK_RECORD
  5
20
100
AcDbSymbolTableRecord
100
AcDbBlockTableRecord
  2
*D4
340
0
  0
BLOCK_RECORD
  5
21
100
AcDbSymbolTableRecord
100
AcDbBlockTableRecord
  2
*D5
340
0
  0
BLOCK_RECORD
  5
22
100
AcDbSymbolTableRecord
100
AcDbBlockTableRecord
  2
*D6
340
0
  0
BLOCK_RECORD
  5
23
100
AcDbSymbolTableRecord
100
AcDbBlockTableRecord
  2
*D7
340
0
  0
BLOCK_RECORD
  5
24
100
AcDbSymbolTableRecord
100
AcDbBlockTableRecord
  2
*D8
340
0
  0
BLOCK_RECORD
  5
25
100
AcDbSymbolTableRecord
100
AcDbBlockTableRecord
  2
*D9
340
0
  0
BLOCK_RECORD
  5
26
100
AcDbSymbolTableRecord
100
AcDbBlockTableRecord
  2
*D10
340
0
  0
BLOCK_RECORD
  5
27
100
AcDbSymbolTableRecord
100
AcDbBlockTableRecord
  2
*D11
340
0
  0
BLOCK_RECORD
  5
28
100
AcDbSymbolTableRecord
100
AcDbBlockTableRecord
  2
*D12
340
0
  0
BLOCK_RECORD
  5
29
100
AcDbSymbolTableRecord
100
AcDbBlockTableRecord
  2
*D13
340
0
  0
ENDTAB
  0
ENDSEC
  0
SECTION
  2
BLOCKS
  0
BLOCK
  5
2D
100
AcDbEntity
  8
0
390
0
100
AcDbBlockBegin
  2
*Model_Space
 70
     0
 10
0.0
 20
0.0
 30
0.0
  3
*Model_Space
  1

  0
ENDBLK
  5
2E
100
AcDbEntity
  8
0
390
0
100
AcDbBlockEnd
  0
BLOCK
  5
2F
100
AcDbEntity
 67
     1
  8
0
390
0
100
AcDbBlockBegin
  2
*Paper_Space
 70
     0
 10
0.0
 20
0.0
 30
0.0
  3
*Paper_Space
  1

  0
ENDBLK
  5
30
100
AcDbEntity
 67
     1
  8
0
390
0
100
AcDbBlockEnd
  0
BLOCK
  5
440
100
AcDbEntity
  8
3
100
AcDbBlockBegin
  2
*D0
 70
     1
 10
0.0
 20
0.0
 30
0.0
  3
*D0
  1

  0
TEXT
  5
441
100
AcDbEntity
  8
3
370
    25
100
AcDbText
 10
-283.228339
 20
-7.498346
 30
0.0
 40
10.5
  1
２２゜
 50
349.0
 72
     5
 11
-254.3685
 21
-13.10813
 31
0.0
100
AcDbText
  0
LINE
  5
442
100
AcDbEntity
  8
3
370
    25
100
AcDbLine
 10
-262.549648
 20
-31.062384
 30
0.0
 11
-255.129077
 21
-12.695828
 31
0.0
  0
LINE
  5
443
100
AcDbEntity
  8
3
370
    25
100
AcDbLine
 10
-290.614361
 20
-17.443013
 30
0.0
 11
-290.614361
 21
-5.798188
 31
0.0
  0
LINE
  5
444
100
AcDbEntity
  8
3
370
    25
100
AcDbLine
 10
-256.252897
 20
-15.47738
 30
0.0
 11
-261.156391
 21
-12.019672
 31
0.0
  0
LINE
  5
445
100
AcDbEntity
  8
3
370
    25
100
AcDbLine
 10
-256.252897
 20
-15.47738
 30
0.0
 11
-262.228302
 21
-14.934664
 31
0.0
  0
LINE
  5
446
100
AcDbEntity
  8
3
370
    25
100
AcDbLine
 10
-261.156391
 20
-12.019672
 30
0.0
 11
-262.228302
 21
-14.934664
 31
0.0
  0
LINE
  5
447
100
AcDbEntity
  8
3
370
    25
100
AcDbLine
 10
-290.614361
 20
-8.798188
 30
0.0
 11
-284.870758
 21
-10.533416
 31
0.0
  0
LINE
  5
448
100
AcDbEntity
  8
3
370
    25
100
AcDbLine
 10
-290.614361
 20
-8.798188
 30
0.0
 11
-284.77264
 21
-7.429138
 31
0.0
  0
LINE
  5
449
100
AcDbEntity
  8
3
370
    25
100
AcDbLine
 10
-284.870758
 20
-10.533416
 30
0.0
 11
-284.77264
 21
-7.429138
 31
0.0
  0
ARC
  5
44A
100
AcDbEntity
  8
3
370
    25
100
AcDbCircle
 10
-290.614361
 20
-100.524987
 30
0.0
 40
91.7268
100
AcDbArc
 50
68.0
 51
90.0
  0
ENDBLK
  5
44B
100
AcDbEntity
  8
3
100
AcDbBlockEnd
  0
BLOCK
  5
44C
100
AcDbEntity
  8
3
100
AcDbBlockBegin
  2
*D1
 70
     1
 10
0.0
 20
0.0
 30
0.0
  3
*D1
  1

  0
TEXT
  5
44D
100
AcDbEntity
  8
3
370
    25
100
AcDbText
 10
-442.41436
 20
-153.583935
 30
0.0
 40
10.5
  1
φ４７．８
 72
     5
 11
-392.01436
 21
-153.583935
 31
0.0
100
AcDbText
  0
LINE
  5
44E
100
AcDbEntity
  8
3
370
    25
100
AcDbLine
 10
-330.11436
 20
-162.943014
 30
0.0
 11
-330.11436
 21
-152.083935
 31
0.0
  0
LINE
  5
44F
100
AcDbEntity
  8
3
370
    25
100
AcDbLine
 10
-330.11436
 20
-155.083935
 30
0.0
 11
-324.318806
 21
-156.636849
 31
0.0
  0
LINE
  5
450
100
AcDbEntity
  8
3
370
    25
100
AcDbLine
 10
-330.11436
 20
-155.083935
 30
0.0
 11
-324.318806
 21
-153.531021
 31
0.0
  0
LINE
  5
451
100
AcDbEntity
  8
3
370
    25
100
AcDbLine
 10
-324.318806
 20
-156.636849
 30
0.0
 11
-324.318806
 21
-153.531021
 31
0.0
  0
LINE
  5
452
100
AcDbEntity
  8
3
370
    25
100
AcDbLine
 10
-315.11436
 20
-155.083935
 30
0.0
 11
-442.41436
 21
-155.083935
 31
0.0
  0
LINE
  5
453
100
AcDbEntity
  8
3
370
    25
100
AcDbLine
 10
-377.91436
 20
-155.083935
 30
0.0
 11
-383.709915
 21
-153.531021
 31
0.0
  0
LINE
  5
454
100
AcDbEntity
  8
3
370
    25
100
AcDbLine
 10
-377.91436
 20
-155.083935
 30
0.0
 11
-383.709915
 21
-156.636849
 31
0.0
  0
LINE
  5
455
100
AcDbEntity
  8
3
370
    25
100
AcDbLine
 10
-383.709915
 20
-153.531021
 30
0.0
 11
-383.709915
 21
-156.636849
 31
0.0
  0
LINE
  5
456
100
AcDbEntity
  8
3
370
    25
100
AcDbLine
 10
-377.91436
 20
-162.943014
 30
0.0
 11
-377.91436
 21
-152.083935
 31
0.0
  0
ENDBLK
  5
457
100
AcDbEntity
  8
3
100
AcDbBlockEnd
  0
BLOCK
  5
458
100
AcDbEntity
  8
3
100
AcDbBlockBegin
  2
*D2
 70
     1
 10
0.0
 20
0.0
 30
0.0
  3
*D2
  1

  0
LINE
  5
459
100
AcDbEntity
  8
3
370
    25
100
AcDbLine
 10
-293.51436
 20
-285.423329
 30
0.0
 11
-163.04987
 21
-285.423329
 31
0.0
  0
LINE
  5
45A
100
AcDbEntity
  8
3
370
    25
100
AcDbLine
 10
-166.04987
 20
-285.423329
 30
0.0
 11
-164.496955
 21
-279.627774
 31
0.0
  0
LINE
  5
45B
100
AcDbEntity
  8
3
370
    25
100
AcDbLine
 10
-166.04987
 20
-285.423329
 30
0.0
 11
-167.602784
 21
-279.627774
 31
0.0
  0
LINE
  5
45C
100
AcDbEntity
  8
3
370
    25
100
AcDbLine
 10
-164.496955
 20
-279.627774
 30
0.0
 11
-167.602784
 21
-279.627774
 31
0.0
  0
LINE
  5
45D
100
AcDbEntity
  8
3
370
    25
100
AcDbLine
 10
-166.04987
 20
-285.423329
 30
0.0
 11
-166.04987
 21
-166.443014
 31
0.0
  0
LINE
  5
45E
100
AcDbEntity
  8
3
370
    25
100
AcDbLine
 10
-166.04987
 20
-166.443014
 30
0.0
 11
-167.602784
 21
-172.238569
 31
0.0
  0
LINE
  5
45F
100
AcDbEntity
  8
3
370
    25
100
AcDbLine
 10
-166.04987
 20
-166.443014
 30
0.0
 11
-164.496955
 21
-172.238569
 31
0.0
  0
LINE
  5
460
100
AcDbEntity
  8
3
370
    25
100
AcDbLine
 10
-167.602784
 20
-172.238569
 30
0.0
 11
-164.496955
 21
-172.238569
 31
0.0
  0
LINE
  5
461
100
AcDbEntity
  8
3
370
    25
100
AcDbLine
 10
-327.61436
 20
-166.443014
 30
0.0
 11
-163.04987
 21
-166.443014
 31
0.0
  0
ENDBLK
  5
462
100
AcDbEntity
  8
3
100
AcDbBlockEnd
  0
BLOCK
  5
463
100
AcDbEntity
  8
3
100
AcDbBlockBegin
  2
*D3
 70
     1
 10
0.0
 20
0.0
 30
0.0
  3
*D3
  1

  0
LINE
  5
464
100
AcDbEntity
  8
3
370
    25
100
AcDbLine
 10
-354.01436
 20
-145.852783
 30
0.0
 11
-354.01436
 21
-131.054352
 31
0.0
  0
LINE
  5
465
100
AcDbEntity
  8
3
370
    25
100
AcDbLine
 10
-354.01436
 20
-134.054352
 30
0.0
 11
-348.218806
 21
-135.607266
 31
0.0
  0
LINE
  5
466
100
AcDbEntity
  8
3
370
    25
100
AcDbLine
 10
-354.01436
 20
-134.054352
 30
0.0
 11
-348.218806
 21
-132.501438
 31
0.0
  0
LINE
  5
467
100
AcDbEntity
  8
3
370
    25
100
AcDbLine
 10
-348.218806
 20
-135.607266
 30
0.0
 11
-348.218806
 21
-132.501438
 31
0.0
  0
LINE
  5
468
100
AcDbEntity
  8
3
370
    25
100
AcDbLine
 10
-354.01436
 20
-134.054352
 30
0.0
 11
-286.41436
 21
-134.054352
 31
0.0
  0
LINE
  5
469
100
AcDbEntity
  8
3
370
    25
100
AcDbLine
 10
-286.41436
 20
-134.054352
 30
0.0
 11
-292.209915
 21
-132.501438
 31
0.0
  0
LINE
  5
46A
100
AcDbEntity
  8
3
370
    25
100
AcDbLine
 10
-286.41436
 20
-134.054352
 30
0.0
 11
-292.209915
 21
-135.607266
 31
0.0
  0
LINE
  5
46B
100
AcDbEntity
  8
3
370
    25
100
AcDbLine
 10
-292.209915
 20
-132.501438
 30
0.0
 11
-292.209915
 21
-135.607266
 31
0.0
  0
LINE
  5
46C
100
AcDbEntity
  8
3
370
    25
100
AcDbLine
 10
-286.41436
 20
-115.943013
 30
0.0
 11
-286.41436
 21
-137.054352
 31
0.0
  0
ENDBLK
  5
46D
100
AcDbEntity
  8
3
100
AcDbBlockEnd
  0
BLOCK
  5
46E
100
AcDbEntity
  8
3
100
AcDbBlockBegin
  2
*D4
 70
     1
 10
0.0
 20
0.0
 30
0.0
  3
*D4
  1

  0
LINE
  5
46F
100
AcDbEntity
  8
3
370
    25
100
AcDbLine
 10
-354.01436
 20
-149.847839
 30
0.0
 11
-354.01436
 21
-144.807884
 31
0.0
  0
LINE
  5
470
100
AcDbEntity
  8
3
370
    25
100
AcDbLine
 10
-354.01436
 20
-147.807884
 30
0.0
 11
-348.218806
 21
-149.360798
 31
0.0
  0
LINE
  5
471
100
AcDbEntity
  8
3
370
    25
100
AcDbLine
 10
-354.01436
 20
-147.807884
 30
0.0
 11
-348.218806
 21
-146.25497
 31
0.0
  0
LINE
  5
472
100
AcDbEntity
  8
3
370
    25
100
AcDbLine
 10
-348.218806
 20
-149.360798
 30
0.0
 11
-348.218806
 21
-146.25497
 31
0.0
  0
LINE
  5
473
100
AcDbEntity
  8
3
370
    25
100
AcDbLine
 10
-354.01436
 20
-147.807884
 30
0.0
 11
-263.473468
 21
-147.807884
 31
0.0
  0
LINE
  5
474
100
AcDbEntity
  8
3
370
    25
100
AcDbLine
 10
-263.473468
 20
-147.807884
 30
0.0
 11
-269.269023
 21
-146.25497
 31
0.0
  0
LINE
  5
475
100
AcDbEntity
  8
3
370
    25
100
AcDbLine
 10
-263.473468
 20
-147.807884
 30
0.0
 11
-269.269023
 21
-149.360798
 31
0.0
  0
LINE
  5
476
100
AcDbEntity
  8
3
370
    25
100
AcDbLine
 10
-269.269023
 20
-146.25497
 30
0.0
 11
-269.269023
 21
-149.360798
 31
0.0
  0
LINE
  5
477
100
AcDbEntity
  8
3
370
    25
100
AcDbLine
 10
-263.473468
 20
-36.843936
 30
0.0
 11
-263.473468
 21
-150.807884
 31
0.0
  0
ENDBLK
  5
478
100
AcDbEntity
  8
3
100
AcDbBlockEnd
  0
BLOCK
  5
479
100
AcDbEntity
  8
3
100
AcDbBlockBegin
  2
*D5
 70
     1
 10
0.0
 20
0.0
 30
0.0
  3
*D5
  1

  0
TEXT
  5
47A
100
AcDbEntity
  8
3
370
    25
100
AcDbText
 10
-1.740245
 20
-69.943168
 30
0.0
 40
10.5
  1
２２５
 50
90.0
 72
     5
 11
-1.740245
 21
-40.543168
 31
0.0
100
AcDbText
  0
LINE
  5
47B
100
AcDbEntity
  8
3
370
    25
100
AcDbLine
 10
137.633983
 20
-166.443013
 30
0.0
 11
-3.240245
 21
-166.443013
 31
0.0
  0
LINE
  5
47C
100
AcDbEntity
  8
3
370
    25
100
AcDbLine
 10
-0.240245
 20
-166.443013
 30
0.0
 11
1.312669
 21
-160.647458
 31
0.0
  0
LINE
  5
47D
100
AcDbEntity
  8
3
370
    25
100
AcDbLine
 10
-0.240245
 20
-166.443013
 30
0.0
 11
-1.79316
 21
-160.647458
 31
0.0
  0
LINE
  5
47E
100
AcDbEntity
  8
3
370
    25
100
AcDbLine
 10
1.312669
 20
-160.647458
 30
0.0
 11
-1.79316
 21
-160.647458
 31
0.0
  0
LINE
  5
47F
100
AcDbEntity
  8
3
370
    25
100
AcDbLine
 10
-0.240245
 20
-166.443013
 30
0.0
 11
-0.240245
 21
58.056676
 31
0.0
  0
LINE
  5
480
100
AcDbEntity
  8
3
370
    25
100
AcDbLine
 10
-0.240245
 20
58.056676
 30
0.0
 11
-1.79316
 21
52.261121
 31
0.0
  0
LINE
  5
481
100
AcDbEntity
  8
3
370
    25
100
AcDbLine
 10
-0.240245
 20
58.056676
 30
0.0
 11
1.312669
 21
52.261121
 31
0.0
  0
LINE
  5
482
100
AcDbEntity
  8
3
370
    25
100
AcDbLine
 10
-1.79316
 20
52.261121
 30
0.0
 11
1.312669
 21
52.261121
 31
0.0
  0
LINE
  5
483
100
AcDbEntity
  8
3
370
    25
100
AcDbLine
 10
-80.966017
 20
58.056676
 30
0.0
 11
2.759755
 21
58.056676
 31
0.0
  0
ENDBLK
  5
484
100
AcDbEntity
  8
3
100
AcDbBlockEnd
  0
BLOCK
  5
485
100
AcDbEntity
  8
3
100
AcDbBlockBegin
  2
*D6
 70
     1
 10
0.0
 20
0.0
 30
0.0
  3
*D6
  1

  0
TEXT
  5
486
100
AcDbEntity
  8
3
370
    25
100
AcDbText
 10
-103.94652
 20
-154.795081
 30
0.0
 40
10.5
  1
８゜
 50
356.0
 72
     5
 11
-85.09256
 21
-156.113478
 31
0.0
100
AcDbText
  0
LINE
  5
487
100
AcDbEntity
  8
3
370
    25
100
AcDbLine
 10
-111.843414
 20
-153.961429
 30
0.0
 11
-112.227419
 21
-156.693768
 31
0.0
  0
LINE
  5
488
100
AcDbEntity
  8
3
370
    25
100
AcDbLine
 10
-82.04456
 20
55.068431
 30
0.0
 11
-82.04456
 21
-158.804359
 31
0.0
  0
LINE
  5
489
100
AcDbEntity
  8
3
370
    25
100
AcDbLine
 10
-111.8099
 20
-153.722964
 30
0.0
 11
-106.255613
 21
-155.992304
 31
0.0
  0
LINE
  5
48A
100
AcDbEntity
  8
3
370
    25
100
AcDbLine
 10
-111.8099
 20
-153.722964
 30
0.0
 11
-105.865077
 21
-152.911127
 31
0.0
  0
LINE
  5
48B
100
AcDbEntity
  8
3
370
    25
100
AcDbLine
 10
-106.255613
 20
-155.992304
 30
0.0
 11
-105.865077
 21
-152.911127
 31
0.0
  0
LINE
  5
48C
100
AcDbEntity
  8
3
370
    25
100
AcDbLine
 10
-82.04456
 20
-155.804359
 30
0.0
 11
-87.818543
 21
-154.173063
 31
0.0
  0
LINE
  5
48D
100
AcDbEntity
  8
3
370
    25
100
AcDbLine
 10
-82.04456
 20
-155.804359
 30
0.0
 11
-87.860624
 21
-157.278607
 31
0.0
  0
LINE
  5
48E
100
AcDbEntity
  8
3
370
    25
100
AcDbLine
 10
-87.818543
 20
-154.173063
 30
0.0
 11
-87.860624
 21
-157.278607
 31
0.0
  0
ARC
  5
48F
100
AcDbEntity
  8
3
370
    25
100
AcDbCircle
 10
-82.04456
 20
58.068431
 30
0.0
 40
213.87279
100
AcDbArc
 50
262.0
 51
270.0
  0
ENDBLK
  5
490
100
AcDbEntity
  8
3
100
AcDbBlockEnd
  0
BLOCK
  5
491
100
AcDbEntity
  8
3
100
AcDbBlockBegin
  2
*D7
 70
     1
 10
0.0
 20
0.0
 30
0.0
  3
*D7
  1

  0
TEXT
  5
492
100
AcDbEntity
  8
3
370
    25
100
AcDbText
 10
30.494711
 20
-154.80439
 30
0.0
 40
10.5
  1
２４６
 72
     5
 11
59.894711
 21
-154.80439
 31
0.0
100
AcDbText
  0
LINE
  5
493
100
AcDbEntity
  8
3
370
    25
100
AcDbLine
 10
-82.04456
 20
55.068431
 30
0.0
 11
-82.04456
 21
-158.80439
 31
0.0
  0
LINE
  5
494
100
AcDbEntity
  8
3
370
    25
100
AcDbLine
 10
-82.04456
 20
-155.80439
 30
0.0
 11
-76.249005
 21
-157.357304
 31
0.0
  0
LINE
  5
495
100
AcDbEntity
  8
3
370
    25
100
AcDbLine
 10
-82.04456
 20
-155.80439
 30
0.0
 11
-76.249005
 21
-154.251476
 31
0.0
  0
LINE
  5
496
100
AcDbEntity
  8
3
370
    25
100
AcDbLine
 10
-76.249005
 20
-157.357304
 30
0.0
 11
-76.249005
 21
-154.251476
 31
0.0
  0
LINE
  5
497
100
AcDbEntity
  8
3
370
    25
100
AcDbLine
 10
-82.04456
 20
-155.80439
 30
0.0
 11
164.033983
 21
-155.80439
 31
0.0
  0
LINE
  5
498
100
AcDbEntity
  8
3
370
    25
100
AcDbLine
 10
164.033983
 20
-155.80439
 30
0.0
 11
158.238428
 21
-154.251476
 31
0.0
  0
LINE
  5
499
100
AcDbEntity
  8
3
370
    25
100
AcDbLine
 10
164.033983
 20
-155.80439
 30
0.0
 11
158.238428
 21
-157.357304
 31
0.0
  0
LINE
  5
49A
100
AcDbEntity
  8
3
370
    25
100
AcDbLine
 10
158.238428
 20
-154.251476
 30
0.0
 11
158.238428
 21
-157.357304
 31
0.0
  0
ENDBLK
  5
49B
100
AcDbEntity
  8
3
100
AcDbBlockEnd
  0
BLOCK
  5
49C
100
AcDbEntity
  8
3
100
AcDbBlockBegin
  2
*D8
 70
     1
 10
0.0
 20
0.0
 30
0.0
  3
*D8
  1

  0
LINE
  5
49D
100
AcDbEntity
  8
3
370
    25
100
AcDbLine
 10
143.833983
 20
-193.254828
 30
0.0
 11
-3.240245
 21
-193.254828
 31
0.0
  0
LINE
  5
49E
100
AcDbEntity
  8
3
370
    25
100
AcDbLine
 10
-0.240245
 20
-193.254828
 30
0.0
 11
1.312669
 21
-187.459273
 31
0.0
  0
LINE
  5
49F
100
AcDbEntity
  8
3
370
    25
100
AcDbLine
 10
-0.240245
 20
-193.254828
 30
0.0
 11
-1.79316
 21
-187.459273
 31
0.0
  0
LINE
  5
4A0
100
AcDbEntity
  8
3
370
    25
100
AcDbLine
 10
1.312669
 20
-187.459273
 30
0.0
 11
-1.79316
 21
-187.459273
 31
0.0
  0
LINE
  5
4A1
100
AcDbEntity
  8
3
370
    25
100
AcDbLine
 10
-0.240245
 20
-193.254828
 30
0.0
 11
-0.240245
 21
-166.443013
 31
0.0
  0
LINE
  5
4A2
100
AcDbEntity
  8
3
370
    25
100
AcDbLine
 10
-0.240245
 20
-166.443013
 30
0.0
 11
-1.79316
 21
-172.238568
 31
0.0
  0
LINE
  5
4A3
100
AcDbEntity
  8
3
370
    25
100
AcDbLine
 10
-0.240245
 20
-166.443013
 30
0.0
 11
1.312669
 21
-172.238568
 31
0.0
  0
LINE
  5
4A4
100
AcDbEntity
  8
3
370
    25
100
AcDbLine
 10
-1.79316
 20
-172.238568
 30
0.0
 11
1.312669
 21
-172.238568
 31
0.0
  0
LINE
  5
4A5
100
AcDbEntity
  8
3
370
    25
100
AcDbLine
 10
137.633983
 20
-166.443013
 30
0.0
 11
-3.240245
 21
-166.443013
 31
0.0
  0
ENDBLK
  5
4A6
100
AcDbEntity
  8
3
100
AcDbBlockEnd
  0
BLOCK
  5
4A7
100
AcDbEntity
  8
3
100
AcDbBlockBegin
  2
*D9
 70
     1
 10
0.0
 20
0.0
 30
0.0
  3
*D9
  1

  0
TEXT
  5
4A8
100
AcDbEntity
  8
3
370
    25
100
AcDbText
 10
-25.456427
 20
360.335082
 30
0.0
 40
10.5
  1
４０゜
 50
290.0
 72
     5
 11
-15.401034
 21
332.708119
 31
0.0
100
AcDbText
  0
LINE
  5
4A9
100
AcDbEntity
  8
3
370
    25
100
AcDbLine
 10
26.367359
 20
412.543151
 30
0.0
 11
-34.884968
 21
412.543151
 31
0.0
  0
LINE
  5
4AA
100
AcDbEntity
  8
3
370
    25
100
AcDbLine
 10
66.278991
 20
330.516973
 30
0.0
 11
11.653226
 21
284.680514
 31
0.0
  0
LINE
  5
4AB
100
AcDbEntity
  8
3
370
    25
100
AcDbLine
 10
-31.884968
 20
412.543151
 30
0.0
 11
-33.351992
 21
406.725261
 31
0.0
  0
LINE
  5
4AC
100
AcDbEntity
  8
3
370
    25
100
AcDbLine
 10
-31.884968
 20
412.543151
 30
0.0
 11
-30.246503
 21
406.771199
 31
0.0
  0
LINE
  5
4AD
100
AcDbEntity
  8
3
370
    25
100
AcDbLine
 10
-33.351992
 20
406.725261
 30
0.0
 11
-30.246503
 21
406.771199
 31
0.0
  0
LINE
  5
4AE
100
AcDbEntity
  8
3
370
    25
100
AcDbLine
 10
13.95136
 20
286.608877
 30
0.0
 11
11.496357
 21
292.083634
 31
0.0
  0
LINE
  5
4AF
100
AcDbEntity
  8
3
370
    25
100
AcDbLine
 10
13.95136
 20
286.608877
 30
0.0
 11
9.087886
 21
290.122654
 31
0.0
  0
LINE
  5
4B0
100
AcDbEntity
  8
3
370
    25
100
AcDbLine
 10
11.496357
 20
292.083634
 30
0.0
 11
9.087886
 21
290.122654
 31
0.0
  0
ARC
  5
4B1
100
AcDbEntity
  8
3
370
    25
100
AcDbCircle
 10
164.033983
 20
412.543151
 30
0.0
 40
195.918951
100
AcDbArc
 50
180.0
 51
220.0
  0
ENDBLK
  5
4B2
100
AcDbEntity
  8
3
100
AcDbBlockEnd
  0
BLOCK
  5
4B3
100
AcDbEntity
  8
3
100
AcDbBlockBegin
  2
*D10
 70
     1
 10
0.0
 20
0.0
 30
0.0
  3
*D10
  1

  0
LINE
  5
4B4
100
AcDbEntity
  8
3
370
    25
100
AcDbLine
 10
190.433983
 20
-166.443013
 30
0.0
 11
391.212753
 21
-166.443013
 31
0.0
  0
LINE
  5
4B5
100
AcDbEntity
  8
3
370
    25
100
AcDbLine
 10
388.212753
 20
-166.443013
 30
0.0
 11
389.765668
 21
-160.647458
 31
0.0
  0
LINE
  5
4B6
100
AcDbEntity
  8
3
370
    25
100
AcDbLine
 10
388.212753
 20
-166.443013
 30
0.0
 11
386.659839
 21
-160.647458
 31
0.0
  0
LINE
  5
4B7
100
AcDbEntity
  8
3
370
    25
100
AcDbLine
 10
389.765668
 20
-160.647458
 30
0.0
 11
386.659839
 21
-160.647458
 31
0.0
  0
LINE
  5
4B8
100
AcDbEntity
  8
3
370
    25
100
AcDbLine
 10
388.212753
 20
-166.443013
 30
0.0
 11
388.212753
 21
222.453295
 31
0.0
  0
LINE
  5
4B9
100
AcDbEntity
  8
3
370
    25
100
AcDbLine
 10
388.212753
 20
222.453295
 30
0.0
 11
386.659839
 21
216.65774
 31
0.0
  0
LINE
  5
4BA
100
AcDbEntity
  8
3
370
    25
100
AcDbLine
 10
388.212753
 20
222.453295
 30
0.0
 11
389.765668
 21
216.65774
 31
0.0
  0
LINE
  5
4BB
100
AcDbEntity
  8
3
370
    25
100
AcDbLine
 10
386.659839
 20
216.65774
 30
0.0
 11
389.765668
 21
216.65774
 31
0.0
  0
LINE
  5
4BC
100
AcDbEntity
  8
3
370
    25
100
AcDbLine
 10
47.033983
 20
222.453295
 30
0.0
 11
391.212753
 21
222.453295
 31
0.0
  0
ENDBLK
  5
4BD
100
AcDbEntity
  8
3
100
AcDbBlockEnd
  0
BLOCK
  5
4BE
100
AcDbEntity
  8
3
100
AcDbBlockBegin
  2
*D11
 70
     1
 10
0.0
 20
0.0
 30
0.0
  3
*D11
  1

  0
TEXT
  5
4BF
100
AcDbEntity
  8
3
370
    25
100
AcDbText
 10
350.582268
 20
-141.943013
 30
0.0
 40
10.5
  1
７０
 50
90.0
 72
     5
 11
350.582268
 21
-123.043013
 31
0.0
100
AcDbText
  0
LINE
  5
4C0
100
AcDbEntity
  8
3
370
    25
100
AcDbLine
 10
190.433983
 20
-166.443013
 30
0.0
 11
355.082268
 21
-166.443013
 31
0.0
  0
LINE
  5
4C1
100
AcDbEntity
  8
3
370
    25
100
AcDbLine
 10
352.082268
 20
-166.443013
 30
0.0
 11
353.635182
 21
-160.647458
 31
0.0
  0
LINE
  5
4C2
100
AcDbEntity
  8
3
370
    25
100
AcDbLine
 10
352.082268
 20
-166.443013
 30
0.0
 11
350.529353
 21
-160.647458
 31
0.0
  0
LINE
  5
4C3
100
AcDbEntity
  8
3
370
    25
100
AcDbLine
 10
353.635182
 20
-160.647458
 30
0.0
 11
350.529353
 21
-160.647458
 31
0.0
  0
LINE
  5
4C4
100
AcDbEntity
  8
3
370
    25
100
AcDbLine
 10
352.082268
 20
-166.443013
 30
0.0
 11
352.082268
 21
-96.443013
 31
0.0
  0
LINE
  5
4C5
100
AcDbEntity
  8
3
370
    25
100
AcDbLine
 10
352.082268
 20
-96.443013
 30
0.0
 11
350.529353
 21
-102.238568
 31
0.0
  0
LINE
  5
4C6
100
AcDbEntity
  8
3
370
    25
100
AcDbLine
 10
352.082268
 20
-96.443013
 30
0.0
 11
353.635182
 21
-102.238568
 31
0.0
  0
LINE
  5
4C7
100
AcDbEntity
  8
3
370
    25
100
AcDbLine
 10
350.529353
 20
-102.238568
 30
0.0
 11
353.635182
 21
-102.238568
 31
0.0
  0
LINE
  5
4C8
100
AcDbEntity
  8
3
370
    25
100
AcDbLine
 10
189.036878
 20
-96.443013
 30
0.0
 11
355.082268
 21
-96.443013
 31
0.0
  0
ENDBLK
  5
4C9
100
AcDbEntity
  8
3
100
AcDbBlockEnd
  0
BLOCK
  5
4CA
100
AcDbEntity
  8
3
100
AcDbBlockBegin
  2
*D12
 70
     1
 10
0.0
 20
0.0
 30
0.0
  3
*D12
  1

  0
TEXT
  5
4CB
100
AcDbEntity
  8
3
370
    25
100
AcDbText
 10
67.266816
 20
-47.913113
 30
0.0
 40
10.5
  1
２０゜
 50
55.0
 72
     5
 11
84.129964
 21
-23.830043
 31
0.0
100
AcDbText
  0
LINE
  5
4CC
100
AcDbEntity
  8
3
370
    25
100
AcDbLine
 10
102.489708
 20
-34.898738
 30
0.0
 11
86.179667
 21
-18.588697
 31
0.0
  0
LINE
  5
4CD
100
AcDbEntity
  8
3
370
    25
100
AcDbLine
 10
87.93705
 20
-60.95843
 30
0.0
 11
64.247113
 21
-49.911631
 31
0.0
  0
LINE
  5
4CE
100
AcDbEntity
  8
3
370
    25
100
AcDbLine
 10
88.300988
 20
-20.710017
 30
0.0
 11
83.187906
 21
-23.849507
 31
0.0
  0
LINE
  5
4CF
100
AcDbEntity
  8
3
370
    25
100
AcDbLine
 10
88.300988
 20
-20.710017
 30
0.0
 11
85.442673
 21
-25.985436
 31
0.0
  0
LINE
  5
4D0
100
AcDbEntity
  8
3
370
    25
100
AcDbLine
 10
83.187906
 20
-23.849507
 30
0.0
 11
85.442673
 21
-25.985436
 31
0.0
  0
LINE
  5
4D1
100
AcDbEntity
  8
3
370
    25
100
AcDbLine
 10
66.966036
 20
-51.179485
 30
0.0
 11
70.945707
 21
-46.689249
 31
0.0
  0
LINE
  5
4D2
100
AcDbEntity
  8
3
370
    25
100
AcDbLine
 10
66.966036
 20
-51.179485
 30
0.0
 11
68.167414
 21
-45.300991
 31
0.0
  0
LINE
  5
4D3
100
AcDbEntity
  8
3
370
    25
100
AcDbLine
 10
70.945707
 20
-46.689249
 30
0.0
 11
68.167414
 21
-45.300991
 31
0.0
  0
ARC
  5
4D4
100
AcDbEntity
  8
3
370
    25
100
AcDbCircle
 10
164.033984
 20
-96.443014
 30
0.0
 40
107.10263
100
AcDbArc
 50
135.0
 51
155.0
  0
ENDBLK
  5
4D5
100
AcDbEntity
  8
3
100
AcDbBlockEnd
  0
BLOCK
  5
4D6
100
AcDbEntity
  8
3
100
AcDbBlockBegin
  2
*D13
 70
     1
 10
0.0
 20
0.0
 30
0.0
  3
*D13
  1

  0
TEXT
  5
4D7
100
AcDbEntity
  8
3
370
    25
100
AcDbText
 10
120.712223
 20
4.382671
 30
0.0
 40
10.5
  1
６０゜
 50
15.0
 72
     5
 11
149.110443
 21
11.991951
 31
0.0
100
AcDbText
  0
LINE
  5
4D8
100
AcDbEntity
  8
3
370
    25
100
AcDbLine
 10
185.66775
 20
-15.704701
 30
0.0
 11
192.530641
 21
9.90796
 31
0.0
  0
LINE
  5
4D9
100
AcDbEntity
  8
3
370
    25
100
AcDbLine
 10
102.489708
 20
-34.898738
 30
0.0
 11
86.179668
 21
-18.588698
 31
0.0
  0
LINE
  5
4DA
100
AcDbEntity
  8
3
370
    25
100
AcDbLine
 10
191.754184
 20
7.010182
 30
0.0
 11
186.478766
 21
9.868497
 31
0.0
  0
LINE
  5
4DB
100
AcDbEntity
  8
3
370
    25
100
AcDbLine
 10
191.754184
 20
7.010182
 30
0.0
 11
185.756381
 21
6.847846
 31
0.0
  0
LINE
  5
4DC
100
AcDbEntity
  8
3
370
    25
100
AcDbLine
 10
186.478766
 20
9.868497
 30
0.0
 11
185.756381
 21
6.847846
 31
0.0
  0
LINE
  5
4DD
100
AcDbEntity
  8
3
370
    25
100
AcDbLine
 10
88.300988
 20
-20.710018
 30
0.0
 11
93.576407
 21
-17.851704
 31
0.0
  0
LINE
  5
4DE
100
AcDbEntity
  8
3
370
    25
100
AcDbLine
 10
88.300988
 20
-20.710018
 30
0.0
 11
91.440478
 21
-15.596936
 31
0.0
  0
LINE
  5
4DF
100
AcDbEntity
  8
3
370
    25
100
AcDbLine
 10
93.576407
 20
-17.851704
 30
0.0
 11
91.440478
 21
-15.596936
 31
0.0
  0
ARC
  5
4E0
100
AcDbEntity
  8
3
370
    25
100
AcDbCircle
 10
164.033984
 20
-96.443014
 30
0.0
 40
107.10263
100
AcDbArc
 50
75.0
 51
135.0
  0
ENDBLK
  5
4E1
100
AcDbEntity
  8
3
100
AcDbBlockEnd
  0
ENDSEC
  0
SECTION
  2
ENTITIES
  0
LINE
  5
32
100
AcDbEntity
  8
1
370
   100
100
AcDbLine
 10
-559.532355
 20
412.543151
 30
0.0
 11
592.473578
 21
412.543151
 31
0.0
  0
LINE
  5
33
100
AcDbEntity
  8
1
370
   100
100
AcDbLine
 10
-559.532355
 20
412.543151
 30
0.0
 11
-559.532355
 21
-416.957822
 31
0.0
  0
LINE
  5
34
100
AcDbEntity
  8
1
370
   100
100
AcDbLine
 10
-559.532355
 20
-416.957822
 30
0.0
 11
592.473578
 21
-416.957822
 31
0.0
  0
LINE
  5
35
100
AcDbEntity
  8
1
370
   100
100
AcDbLine
 10
592.473578
 20
-416.957822
 30
0.0
 11
592.473578
 21
412.543151
 31
0.0
  0
TEXT
  5
36
100
AcDbEntity
  8
1
370
    50
100
AcDbText
 10
539.442664
 20
-339.379285
 30
0.0
 40
9.0
  1
設計
 72
     5
 11
555.642664
 21
-339.379285
 31
0.0
100
AcDbText
  0
TEXT
  5
37
100
AcDbEntity
  8
1
370
    50
100
AcDbText
 10
568.691217
 20
-339.149488
 30
0.0
 40
9.0
  1
製図
 72
     5
 11
584.891217
 21
-339.149488
 31
0.0
100
AcDbText
  0
TEXT
  5
38
100
AcDbEntity
  8
1
370
    50
100
AcDbText
 10
478.508617
 20
-339.379285
 30
0.0
 40
9.0
  1
承認
 72
     5
 11
494.708617
 21
-339.379285
 31
0.0
100
AcDbText
  0
TEXT
  5
39
100
AcDbEntity
  8
1
370
    50
100
AcDbText
 10
508.484518
 20
-339.297029
 30
0.0
 40
9.0
  1
検図
 72
     5
 11
524.684518
 21
-339.297029
 31
0.0
100
AcDbText
  0
LINE
  5
3A
100
AcDbEntity
  8
1
370
    25
100
AcDbLine
 10
427.473578
 20
-341.957822
 30
0.0
 11
592.473578
 21
-341.957822
 31
0.0
  0
LINE
  5
3B
100
AcDbEntity
  8
1
370
    25
100
AcDbLine
 10
513.723578
 20
-368.957822
 30
0.0
 11
513.723578
 21
-389.957822
 31
0.0
  0
TEXT
  5
3C
100
AcDbEntity
  8
1
370
    50
100
AcDbText
 10
479.327385
 20
-384.018792
 30
0.0
 40
9.0
  1
日　付
 72
     5
 11
504.527385
 21
-384.018792
 31
0.0
100
AcDbText
  0
LINE
  5
3D
100
AcDbEntity
  8
1
370
    50
100
AcDbLine
 10
61.473578
 20
-389.957822
 30
0.0
 11
592.473578
 21
-389.957822
 31
0.0
  0
TEXT
  5
3E
100
AcDbEntity
  8
1
370
    50
100
AcDbText
 10
431.662516
 20
-384.483609
 30
0.0
 40
9.0
  1
第三角法
 72
     5
 11
465.862516
 21
-384.483609
 31
0.0
100
AcDbText
  0
TEXT
  5
3F
100
AcDbEntity
  8
1
370
    50
100
AcDbText
 10
436.631129
 20
-338.997029
 30
0.0
 40
9.0
  1
尺　度
 72
     5
 11
461.831129
 21
-338.997029
 31
0.0
100
AcDbText
  0
LINE
  5
40
100
AcDbEntity
  8
1
370
   100
100
AcDbLine
 10
61.473578
 20
-326.957822
 30
0.0
 11
592.473578
 21
-326.957822
 31
0.0
  0
LINE
  5
41
100
AcDbEntity
  8
1
370
    50
100
AcDbLine
 10
317.973578
 20
-326.957822
 30
0.0
 11
317.973578
 21
-416.957822
 31
0.0
  0
LINE
  5
42
100
AcDbEntity
  8
1
370
    25
100
AcDbLine
 10
562.473578
 20
-368.957822
 30
0.0
 11
562.473578
 21
-326.957822
 31
0.0
  0
LINE
  5
43
100
AcDbEntity
  8
1
370
    25
100
AcDbLine
 10
532.473578
 20
-368.957822
 30
0.0
 11
532.473578
 21
-326.957822
 31
0.0
  0
LINE
  5
44
100
AcDbEntity
  8
1
370
    25
100
AcDbLine
 10
502.473578
 20
-368.957822
 30
0.0
 11
502.473578
 21
-326.957822
 31
0.0
  0
LINE
  5
45
100
AcDbEntity
  8
1
370
    50
100
AcDbLine
 10
427.473578
 20
-416.957822
 30
0.0
 11
427.473578
 21
-326.957822
 31
0.0
  0
LINE
  5
46
100
AcDbEntity
  8
1
370
    50
100
AcDbLine
 10
284.973578
 20
-326.957822
 30
0.0
 11
284.973578
 21
-416.957822
 31
0.0
  0
LINE
  5
47
100
AcDbEntity
  8
1
370
    50
100
AcDbLine
 10
94.473578
 20
-326.957822
 30
0.0
 11
94.473578
 21
-389.957822
 31
0.0
  0
LINE
  5
48
100
AcDbEntity
  8
1
370
    50
100
AcDbLine
 10
427.473578
 20
-368.957822
 30
0.0
 11
592.473578
 21
-368.957822
 31
0.0
  0
TEXT
  5
49
100
AcDbEntity
  8
1
370
    50
100
AcDbText
 10
430.651694
 20
-407.821408
 30
0.0
 40
9.0
  1
コードＮｏ
 41
0.9
 72
     5
 11
469.531694
 21
-407.821408
 31
0.0
100
AcDbText
  0
TEXT
  5
4A
100
AcDbEntity
  8
1
370
   100
100
AcDbText
 10
79.330161
 20
-409.313489
 30
0.0
 40
12.0
  1
ミズタニバルブ工業株式会社
 41
1.2
 72
     5
 11
263.650161
 21
-409.313489
 31
0.0
100
AcDbText
  0
LINE
  5
4B
100
AcDbEntity
  8
1
370
    50
100
AcDbLine
 10
61.473578
 20
-358.457822
 30
0.0
 11
427.473578
 21
-358.457822
 31
0.0
  0
LINE
  5
4C
100
AcDbEntity
  8
1
370
    50
100
AcDbLine
 10
173.223578
 20
-358.457822
 30
0.0
 11
173.223578
 21
-389.957822
 31
0.0
  0
LINE
  5
4D
100
AcDbEntity
  8
1
370
    50
100
AcDbLine
 10
206.223578
 20
-358.457822
 30
0.0
 11
206.223578
 21
-389.957822
 31
0.0
  0
LINE
  5
4E
100
AcDbEntity
  8
1
370
    50
100
AcDbLine
 10
472.473578
 20
-416.957822
 30
0.0
 11
472.473578
 21
-326.957822
 31
0.0
  0
TEXT
  5
4F
100
AcDbEntity
  8
1
370
    50
100
AcDbText
 10
517.647196
 20
-384.15044
 30
0.0
 40
9.0
  1
　　・　　・
 72
     5
 11
569.847196
 21
-384.15044
 31
0.0
100
AcDbText
  0
LINE
  5
50
100
AcDbEntity
  8
1
370
   100
100
AcDbLine
 10
61.473578
 20
-326.957822
 30
0.0
 11
61.473578
 21
-416.957822
 31
0.0
  0
TEXT
  5
51
100
AcDbEntity
  8
1
370
    50
100
AcDbText
 10
436.248873
 20
-360.020238
 30
0.0
 40
9.0
  1
　／ 
 72
     5
 11
452.448873
 21
-360.020238
 31
0.0
100
AcDbText
  0
TEXT
  5
52
100
AcDbEntity
  8
1
370
    50
100
AcDbText
 10
290.856184
 20
-408.037363
 30
0.0
 40
9.0
  1
備 考 
 72
     5
 11
311.556184
 21
-408.037363
 31
0.0
100
AcDbText
  0
TEXT
  5
53
100
AcDbEntity
  8
1
370
    50
100
AcDbText
 10
290.2688
 20
-346.33776
 30
0.0
 40
9.0
  1
仕 上
 72
     5
 11
310.9688
 21
-346.33776
 31
0.0
100
AcDbText
  0
TEXT
  5
54
100
AcDbEntity
  8
1
370
    50
100
AcDbText
 10
290.170764
 20
-373.337499
 30
0.0
 40
9.0
  1
表 面
 72
     5
 11
310.870764
 21
-373.337499
 31
0.0
100
AcDbText
  0
TEXT
  5
55
100
AcDbEntity
  8
1
370
    50
100
AcDbText
 10
290.170764
 20
-383.837499
 30
0.0
 40
9.0
  1
処 理
 72
     5
 11
310.870764
 21
-383.837499
 31
0.0
100
AcDbText
  0
TEXT
  5
56
100
AcDbEntity
  8
1
370
    50
100
AcDbText
 10
67.190025
 20
-347.540099
 30
0.0
 40
9.0
  1
品 名
 72
     5
 11
87.890025
 21
-347.540099
 31
0.0
100
AcDbText
  0
TEXT
  5
57
100
AcDbEntity
  8
1
370
    50
100
AcDbText
 10
66.596649
 20
-378.693801
 30
0.0
 40
9.0
  1
材 質
 72
     5
 11
87.296649
 21
-378.693801
 31
0.0
100
AcDbText
  0
TEXT
  5
58
100
AcDbEntity
  8
1
370
    50
100
AcDbText
 10
178.346649
 20
-378.693801
 30
0.0
 40
9.0
  1
規 格
 72
     5
 11
199.046649
 21
-378.693801
 31
0.0
100
AcDbText
  0
LINE
  5
59
100
AcDbEntity
  8
2
370
    50
100
AcDbLine
 10
-344.489361
 20
212.928295
 30
0.0
 11
-344.489361
 21
-42.943015
 31
0.0
  0
LINE
  5
5A
100
AcDbEntity
  8
2
370
    50
100
AcDbLine
 10
-363.539361
 20
212.928295
 30
0.0
 11
-363.539361
 21
-42.943015
 31
0.0
  0
LINE
  5
5B
100
AcDbEntity
  8
2
370
    25
  6
CENTER
100
AcDbLine
 10
-374.73228
 20
-96.443015
 30
0.0
 11
-282.364572
 21
-96.443013
 31
0.0
  0
LINE
  5
5C
100
AcDbEntity
  8
2
370
    50
100
AcDbLine
 10
-371.51436
 20
-54.243015
 30
0.0
 11
-371.51436
 21
-161.643014
 31
0.0
  0
LINE
  5
5D
100
AcDbEntity
  8
2
370
    50
100
AcDbLine
 10
-331.51436
 20
-113.943015
 30
0.0
 11
-313.514363
 21
-113.943015
 31
0.0
  0
LINE
  5
5E
100
AcDbEntity
  8
2
370
    50
100
AcDbLine
 10
-313.514361
 20
-78.943014
 30
0.0
 11
-331.51436
 21
-78.943014
 31
0.0
  0
LINE
  5
5F
100
AcDbEntity
  8
2
370
    50
100
AcDbLine
 10
-313.014361
 20
-113.443015
 30
0.0
 11
-313.514361
 21
-113.943013
 31
0.0
  0
LINE
  5
60
100
AcDbEntity
  8
2
370
    50
100
AcDbLine
 10
-313.014359
 20
-79.443014
 30
0.0
 11
-313.014359
 21
-113.443015
 31
0.0
  0
LINE
  5
61
100
AcDbEntity
  8
2
370
    50
100
AcDbLine
 10
-313.514361
 20
-78.943014
 30
0.0
 11
-313.014359
 21
-79.443014
 31
0.0
  0
LINE
  5
62
100
AcDbEntity
  8
2
370
    50
100
AcDbLine
 10
-336.51436
 20
-161.643014
 30
0.0
 11
-336.51436
 21
-118.943014
 31
0.0
  0
LINE
  5
63
100
AcDbEntity
  8
2
370
    50
100
AcDbLine
 10
-336.51436
 20
-73.943014
 30
0.0
 11
-336.51436
 21
-54.243015
 31
0.0
  0
ARC
  5
64
100
AcDbEntity
  8
2
370
    50
100
AcDbCircle
 10
-331.51436
 20
-73.943014
 30
0.0
 40
5.0
100
AcDbArc
 50
180.0
 51
270.0
  0
ARC
  5
65
100
AcDbEntity
  8
2
370
    50
100
AcDbCircle
 10
-331.51436
 20
-118.943014
 30
0.0
 40
5.0
100
AcDbArc
 50
90.0
 51
180.0
  0
LINE
  5
66
100
AcDbEntity
  8
2
370
    50
100
AcDbLine
 10
-336.81436
 20
-161.943014
 30
0.0
 11
-336.51436
 21
-161.643014
 31
0.0
  0
LINE
  5
67
100
AcDbEntity
  8
2
370
    50
100
AcDbLine
 10
-371.21436
 20
-161.943014
 30
0.0
 11
-371.51436
 21
-161.643014
 31
0.0
  0
LINE
  5
68
100
AcDbEntity
  8
2
370
    50
100
AcDbLine
 10
-376.01436
 20
-169.443014
 30
0.0
 11
-376.01436
 21
-166.443014
 31
0.0
  0
LINE
  5
69
100
AcDbEntity
  8
2
370
    50
100
AcDbLine
 10
-332.01436
 20
-169.443014
 30
0.0
 11
-376.01436
 21
-169.443014
 31
0.0
  0
LINE
  5
6A
100
AcDbEntity
  8
2
370
    50
100
AcDbLine
 10
-377.41436
 20
-166.443014
 30
0.0
 11
-330.61436
 21
-166.443014
 31
0.0
  0
LINE
  5
6B
100
AcDbEntity
  8
2
370
    50
100
AcDbLine
 10
-332.01436
 20
-169.443014
 30
0.0
 11
-332.01436
 21
-166.443014
 31
0.0
  0
LINE
  5
6C
100
AcDbEntity
  8
2
370
    50
100
AcDbLine
 10
-371.01436
 20
-169.943014
 30
0.0
 11
-371.01436
 21
-169.443014
 31
0.0
  0
LINE
  5
6D
100
AcDbEntity
  8
2
370
    50
100
AcDbLine
 10
-370.51436
 20
-170.443014
 30
0.0
 11
-337.51436
 21
-170.443014
 31
0.0
  0
LINE
  5
6E
100
AcDbEntity
  8
2
370
    50
100
AcDbLine
 10
-377.91436
 20
-165.943014
 30
0.0
 11
-377.91436
 21
-162.443014
 31
0.0
  0
LINE
  5
6F
100
AcDbEntity
  8
2
370
    50
100
AcDbLine
 10
-377.41436
 20
-161.943014
 30
0.0
 11
-330.61436
 21
-161.943014
 31
0.0
  0
LINE
  5
70
100
AcDbEntity
  8
2
370
    50
100
AcDbLine
 10
-377.41436
 20
-161.943014
 30
0.0
 11
-377.91436
 21
-162.443014
 31
0.0
  0
LINE
  5
71
100
AcDbEntity
  8
2
370
    50
100
AcDbLine
 10
-377.41436
 20
-166.443014
 30
0.0
 11
-377.91436
 21
-165.943014
 31
0.0
  0
LINE
  5
72
100
AcDbEntity
  8
2
370
    50
100
AcDbLine
 10
-371.01436
 20
-169.943014
 30
0.0
 11
-370.51436
 21
-170.443014
 31
0.0
  0
LINE
  5
73
100
AcDbEntity
  8
2
370
    50
100
AcDbLine
 10
-337.01436
 20
-169.943014
 30
0.0
 11
-337.01436
 21
-169.443014
 31
0.0
  0
LINE
  5
74
100
AcDbEntity
  8
2
370
    50
100
AcDbLine
 10
-330.11436
 20
-165.943014
 30
0.0
 11
-330.11436
 21
-162.443014
 31
0.0
  0
LINE
  5
75
100
AcDbEntity
  8
2
370
    50
100
AcDbLine
 10
-330.61436
 20
-161.943014
 30
0.0
 11
-330.11436
 21
-162.443014
 31
0.0
  0
LINE
  5
76
100
AcDbEntity
  8
2
370
    50
100
AcDbLine
 10
-330.61436
 20
-166.443014
 30
0.0
 11
-330.11436
 21
-165.943014
 31
0.0
  0
LINE
  5
77
100
AcDbEntity
  8
2
370
    50
100
AcDbLine
 10
-337.01436
 20
-169.943014
 30
0.0
 11
-337.51436
 21
-170.443014
 31
0.0
  0
LINE
  5
78
100
AcDbEntity
  8
2
370
    50
100
AcDbLine
 10
-290.614361
 20
-78.943015
 30
0.0
 11
-290.61436
 21
-20.443013
 31
0.0
  0
LINE
  5
79
100
AcDbEntity
  8
2
370
    50
100
AcDbLine
 10
-298.614361
 20
-20.443013
 30
0.0
 11
-298.614362
 21
-78.943014
 31
0.0
  0
LINE
  5
7A
100
AcDbEntity
  8
2
370
    50
100
AcDbLine
 10
-298.614361
 20
-20.443013
 30
0.0
 11
-298.11436
 21
-19.943014
 31
0.0
  0
LINE
  5
7B
100
AcDbEntity
  8
2
370
    50
100
AcDbLine
 10
-291.114362
 20
-19.943013
 30
0.0
 11
-290.61436
 21
-20.443013
 31
0.0
  0
LINE
  5
7C
100
AcDbEntity
  8
2
370
    50
100
AcDbLine
 10
-298.11436
 20
-19.943014
 30
0.0
 11
-291.114362
 21
-19.943013
 31
0.0
  0
LINE
  5
7D
100
AcDbEntity
  8
2
370
    50
100
AcDbLine
 10
-303.869394
 20
-113.943013
 30
0.0
 11
-287.61436
 21
-113.94303
 31
0.0
  0
LINE
  5
7E
100
AcDbEntity
  8
2
370
    50
100
AcDbLine
 10
-287.414361
 20
-78.943016
 30
0.0
 11
-310.414361
 21
-78.943015
 31
0.0
  0
LINE
  5
7F
100
AcDbEntity
  8
2
370
    50
100
AcDbLine
 10
-304.543901
 20
-113.943015
 30
0.0
 11
-312.11436
 21
-95.205476
 31
0.0
  0
LINE
  5
80
100
AcDbEntity
  8
2
370
    50
100
AcDbLine
 10
-298.614361
 20
-114.943014
 30
0.0
 11
-298.614361
 21
-113.943014
 31
0.0
  0
LINE
  5
81
100
AcDbEntity
  8
2
370
    50
100
AcDbLine
 10
-297.614361
 20
-113.943014
 30
0.0
 11
-298.614361
 21
-113.943014
 31
0.0
  0
ARC
  5
82
100
AcDbEntity
  8
2
370
    50
100
AcDbCircle
 10
-294.614361
 20
-108.014811
 30
0.0
 40
8.0
100
AcDbArc
 50
239.999998
 51
299.999998
  0
LINE
  5
83
100
AcDbEntity
  8
2
370
    50
100
AcDbLine
 10
-290.614361
 20
-114.943014
 30
0.0
 11
-290.614361
 21
-113.943014
 31
0.0
  0
LINE
  5
84
100
AcDbEntity
  8
2
370
    25
  6
CENTER
100
AcDbLine
 10
-294.614364
 20
-17.457084
 30
0.0
 11
-294.614361
 21
-117.101181
 31
0.0
  0
LINE
  5
85
100
AcDbEntity
  8
2
370
    50
100
AcDbLine
 10
-290.61436
 20
-20.443013
 30
0.0
 11
-298.614361
 21
-20.443013
 31
0.0
  0
LINE
  5
86
100
AcDbEntity
  8
2
370
    50
100
AcDbLine
 10
-290.614361
 20
-114.943014
 30
0.0
 11
-298.614361
 21
-114.943014
 31
0.0
  0
LINE
  5
87
100
AcDbEntity
  8
2
370
    50
100
AcDbLine
 10
-313.514361
 20
-78.943014
 30
0.0
 11
-313.514361
 21
-113.943015
 31
0.0
  0
LINE
  5
88
100
AcDbEntity
  8
2
370
    50
100
AcDbLine
 10
-377.91436
 20
-162.443014
 30
0.0
 11
-330.11436
 21
-162.443014
 31
0.0
  0
LINE
  5
89
100
AcDbEntity
  8
2
370
    50
100
AcDbLine
 10
-330.11436
 20
-165.943014
 30
0.0
 11
-377.91436
 21
-165.943014
 31
0.0
  0
LINE
  5
8A
100
AcDbEntity
  8
2
370
    50
100
AcDbLine
 10
-336.51436
 20
-161.643014
 30
0.0
 11
-371.51436
 21
-161.643014
 31
0.0
  0
LINE
  5
8B
100
AcDbEntity
  8
2
370
    50
100
AcDbLine
 10
-337.01436
 20
-169.943014
 30
0.0
 11
-371.01436
 21
-169.943014
 31
0.0
  0
POINT
  5
8C
100
AcDbEntity
  8
2
370
    50
100
AcDbPoint
 10
-346.51436
 20
-170.443014
 30
0.0
  0
POINT
  5
8D
100
AcDbEntity
  8
2
370
    50
100
AcDbPoint
 10
-361.51436
 20
-170.443014
 30
0.0
  0
POINT
  5
8E
100
AcDbEntity
  8
2
370
    50
100
AcDbPoint
 10
-354.01436
 20
-170.443014
 30
0.0
  0
HATCH
  5
8F
100
AcDbEntity
  8
2
370
    25
100
AcDbHatch
 10
0.0
 20
0.0
 30
0.0
210
0.0
220
0.0
230
1.0
  2
_U
 70
     0
 71
     1
 91
        1
 92
        1
 93
        4
 72
     1
 10
-332.01436000000001
 20
-166.44301400000001
 11
-376.01436000000001
 21
-166.44301400000001
 72
     1
 10
-376.01436000000001
 20
-166.44301400000001
 11
-376.01436000000001
 21
-169.44301400000001
 72
     1
 10
-376.01436000000001
 20
-169.44301400000001
 11
-332.01436000000001
 21
-169.44301400000001
 72
     1
 10
-332.01436000000001
 20
-169.44301400000001
 11
-332.01436000000001
 21
-166.44301400000001
 97
        4
330
0
330
0
330
0
330
0
 75
     0
 76
     0
 52
45.0
 41
1.0
 77
     0
 78
     1
 53
45.0
 43
0.0
 44
0.0
 45
-2.1213199999999999
 46
2.1213199999999999
 79
     0
 98
        1
 10
0.0
 20
0.0
  0
LINE
  5
90
100
AcDbEntity
  8
2
370
    25
  6
PHANTOM
100
AcDbLine
 10
-271.090938
 20
-30.847083
 30
0.0
 11
-287.008771
 21
-70.245103
 31
0.0
  0
LINE
  5
91
100
AcDbEntity
  8
2
370
    25
  6
PHANTOM
100
AcDbLine
 10
-263.673468
 20
-33.843936
 30
0.0
 11
-281.010538
 21
-76.754691
 31
0.0
  0
LINE
  5
92
100
AcDbEntity
  8
2
370
    25
  6
PHANTOM
100
AcDbLine
 10
-270.440043
 20
-30.570795
 30
0.0
 11
-263.949756
 21
-33.193041
 31
0.0
  0
LINE
  5
93
100
AcDbEntity
  8
2
370
    25
  6
PHANTOM
100
AcDbLine
 10
-263.673468
 20
-33.843936
 30
0.0
 11
-263.949756
 21
-33.193041
 31
0.0
  0
LINE
  5
94
100
AcDbEntity
  8
2
370
    25
  6
PHANTOM
100
AcDbLine
 10
-270.440043
 20
-30.570795
 30
0.0
 11
-271.090938
 21
-30.847083
 31
0.0
  0
LINE
  5
95
100
AcDbEntity
  8
2
370
    25
  6
PHANTOM
100
AcDbLine
 10
-263.673468
 20
-33.843936
 30
0.0
 11
-271.090938
 21
-30.847083
 31
0.0
  0
LINE
  5
96
100
AcDbEntity
  8
2
370
    25
  6
PHANTOM
100
AcDbLine
 10
-294.415776
 20
-121.106705
 30
0.0
 11
-293.102448
 21
-117.856104
 31
0.0
  0
LINE
  5
97
100
AcDbEntity
  8
2
370
    25
  6
PHANTOM
100
AcDbLine
 10
-311.414363
 20
-112.608354
 30
0.0
 11
-311.414363
 21
-115.317364
 31
0.0
  0
ARC
  5
98
100
AcDbEntity
  8
2
370
    25
  6
PHANTOM
100
AcDbCircle
 10
-295.34296
 20
-120.732098
 30
0.0
 40
1.0
100
AcDbArc
 50
248.000004
 51
338.000004
  0
ARC
  5
99
100
AcDbEntity
  8
2
370
    25
  6
PHANTOM
100
AcDbCircle
 10
-309.414363
 20
-113.968347
 30
0.0
 40
2.0
100
AcDbArc
 50
237.906481
 51
248.000004
  0
ARC
  5
9A
100
AcDbEntity
  8
2
370
    25
  6
PHANTOM
100
AcDbCircle
 10
-299.987109
 20
-113.540501
 30
0.0
 40
8.0
100
AcDbArc
 50
248.000004
 51
278.000004
  0
LINE
  5
9B
100
AcDbEntity
  8
2
370
    25
  6
PHANTOM
100
AcDbLine
 10
-298.873724
 20
-121.462646
 30
0.0
 11
-298.499118
 21
-120.535462
 31
0.0
  0
ARC
  5
9C
100
AcDbEntity
  8
2
370
    25
  6
PHANTOM
100
AcDbCircle
 10
-299.987109
 20
-113.540501
 30
0.0
 40
8.0
100
AcDbArc
 50
218.000004
 51
248.000004
  0
LINE
  5
9D
100
AcDbEntity
  8
2
370
    25
  6
PHANTOM
100
AcDbLine
 10
-311.414363
 20
-115.317364
 30
0.0
 11
-302.207853
 21
-119.037036
 31
0.0
  0
LINE
  5
9E
100
AcDbEntity
  8
2
370
    25
  6
PHANTOM
100
AcDbLine
 10
-302.207853
 20
-119.037036
 30
0.0
 11
-295.717566
 21
-121.659282
 31
0.0
  0
LINE
  5
9F
100
AcDbEntity
  8
2
370
    25
  6
PHANTOM
100
AcDbLine
 10
-298.873724
 20
-121.462646
 30
0.0
 11
-306.291195
 21
-118.465793
 31
0.0
  0
LINE
  5
A0
100
AcDbEntity
  8
2
370
    50
100
AcDbLine
 10
-336.51436
 20
-54.243015
 30
0.0
 11
-336.81436
 21
-53.943015
 31
0.0
  0
LINE
  5
A1
100
AcDbEntity
  8
2
370
    50
100
AcDbLine
 10
-371.21436
 20
-53.943015
 30
0.0
 11
-336.81436
 21
-53.943015
 31
0.0
  0
LINE
  5
A2
100
AcDbEntity
  8
2
370
    50
100
AcDbLine
 10
-371.514362
 20
-54.243015
 30
0.0
 11
-371.214362
 21
-53.943015
 31
0.0
  0
LINE
  5
A3
100
AcDbEntity
  8
2
370
    50
100
AcDbLine
 10
-336.51436
 20
-54.243015
 30
0.0
 11
-371.51436
 21
-54.243015
 31
0.0
  0
HATCH
  5
A4
100
AcDbEntity
  8
2
370
    25
100
AcDbHatch
 10
0.0
 20
0.0
 30
0.0
210
0.0
220
0.0
230
1.0
  2
_U
 70
     0
 71
     1
 91
        1
 92
        1
 93
        1
 72
     2
 10
-316.51436100000001
 20
-81.287570000000002
 40
1.0
 50
0.0
 51
360.0
 73
     1
 97
        1
330
0
 75
     0
 76
     0
 52
45.0
 41
1.0
 77
     0
 78
     1
 53
45.0
 43
0.0
 44
0.0
 45
-1.0606599999999999
 46
1.0606599999999999
 79
     0
 98
        1
 10
0.0
 20
0.0
  0
HATCH
  5
A5
100
AcDbEntity
  8
2
370
    25
100
AcDbHatch
 10
0.0
 20
0.0
 30
0.0
210
0.0
220
0.0
230
1.0
  2
_U
 70
     0
 71
     1
 91
        1
 92
        1
 93
        1
 72
     2
 10
-316.51436100000001
 20
-87.693014000000005
 40
1.0
 50
0.0
 51
360.0
 73
     1
 97
        1
330
0
 75
     0
 76
     0
 52
45.0
 41
1.0
 77
     0
 78
     1
 53
45.0
 43
0.0
 44
0.0
 45
-0.636396
 46
0.636396
 79
     0
 98
        1
 10
0.0
 20
0.0
  0
LINE
  5
A6
100
AcDbEntity
  8
2
370
    25
  6
PHANTOM
100
AcDbLine
 10
-306.291195
 20
-118.465793
 30
0.0
 11
-305.916589
 21
-117.538609
 31
0.0
  0
LINE
  5
A7
100
AcDbEntity
  8
2
370
    50
100
AcDbLine
 10
-363.539361
 20
68.556986
 30
0.0
 11
-363.539361
 21
54.656986
 31
0.0
  0
ARC
  5
A8
100
AcDbEntity
  8
2
370
    50
100
AcDbCircle
 10
-354.014361
 20
212.928295
 30
0.0
 40
9.525
100
AcDbArc
 50
0.0
 51
180.0
  0
LINE
  5
A9
100
AcDbEntity
  8
2
370
    50
100
AcDbLine
 10
-298.614357
 20
-114.94265
 30
0.0
 11
-298.614357
 21
-113.94265
 31
0.0
  0
ARC
  5
AA
100
AcDbEntity
  8
2
370
    50
100
AcDbCircle
 10
-294.614357
 20
-108.014446
 30
0.0
 40
8.0
100
AcDbArc
 50
239.999998
 51
299.999998
  0
LINE
  5
AB
100
AcDbEntity
  8
2
370
    50
100
AcDbLine
 10
-290.614357
 20
-114.94265
 30
0.0
 11
-290.614357
 21
-113.94265
 31
0.0
  0
ARC
  5
AC
100
AcDbEntity
  8
2
370
    50
100
AcDbCircle
 10
-313.272846
 20
-137.943706
 30
0.0
 40
56.0
100
AcDbArc
 50
88.814623
 51
89.735531
  0
ARC
  5
AD
100
AcDbEntity
  8
2
370
    50
100
AcDbCircle
 10
-313.272846
 20
-54.941594
 30
0.0
 40
56.0
100
AcDbArc
 50
270.264469
 51
277.512993
  0
LINE
  5
AE
100
AcDbEntity
  8
2
370
    50
100
AcDbLine
 10
-286.61436
 20
-112.943015
 30
0.0
 11
-286.61436
 21
-79.943015
 31
0.0
  0
LINE
  5
AF
100
AcDbEntity
  8
2
370
    50
100
AcDbLine
 10
-312.11436
 20
-78.943015
 30
0.0
 11
-287.61436
 21
-78.943015
 31
0.0
  0
ARC
  5
B0
100
AcDbEntity
  8
2
370
    50
100
AcDbCircle
 10
-287.61436
 20
-112.943015
 30
0.0
 40
1.0
100
AcDbArc
 50
270.0
 51
360.0
  0
ARC
  5
B1
100
AcDbEntity
  8
2
370
    50
100
AcDbCircle
 10
-287.61436
 20
-79.943015
 30
0.0
 40
1.0
100
AcDbArc
 50
0.0
 51
90.0
  0
LINE
  5
B2
100
AcDbEntity
  8
2
370
    50
100
AcDbLine
 10
-312.11436
 20
-95.205476
 30
0.0
 11
-312.11436
 21
-78.943015
 31
0.0
  0
LINE
  5
B3
100
AcDbEntity
  8
2
370
    50
100
AcDbLine
 10
-304.543901
 20
-113.943015
 30
0.0
 11
-297.614356
 21
-113.943015
 31
0.0
  0
LINE
  5
B4
100
AcDbEntity
  8
2
370
    50
100
AcDbLine
 10
-291.614357
 20
-113.943015
 30
0.0
 11
-287.61436
 21
-113.943015
 31
0.0
  0
LINE
  5
B5
100
AcDbEntity
  8
2
370
    25
  6
CENTER
100
AcDbLine
 10
-354.014361
 20
227.024445
 30
0.0
 11
-354.014361
 21
-277.099434
 31
0.0
  0
POINT
  5
B6
100
AcDbEntity
  8
2
370
    50
100
AcDbPoint
 10
164.033983
 20
-96.443013
 30
0.0
  0
LINE
  5
B7
100
AcDbEntity
  8
2
370
    50
100
AcDbLine
 10
113.122296
 20
-39.874472
 30
0.0
 11
110.293869
 21
-42.702898
 31
0.0
  0
LINE
  5
B8
100
AcDbEntity
  8
2
370
    50
100
AcDbLine
 10
154.815628
 20
-81.567803
 30
0.0
 11
113.122296
 21
-39.874472
 31
0.0
  0
LINE
  5
B9
100
AcDbEntity
  8
2
370
    50
100
AcDbLine
 10
107.465442
 20
-45.531326
 30
0.0
 11
149.158774
 21
-87.224658
 31
0.0
  0
LINE
  5
BA
100
AcDbEntity
  8
2
370
    50
100
AcDbLine
 10
110.293869
 20
-42.702898
 30
0.0
 11
107.465442
 21
-45.531326
 31
0.0
  0
LINE
  5
BB
100
AcDbEntity
  8
2
370
    50
100
AcDbLine
 10
107.465442
 20
-44.824219
 30
0.0
 11
109.940316
 21
-42.349345
 31
0.0
  0
LINE
  5
BC
100
AcDbEntity
  8
2
370
    50
100
AcDbLine
 10
113.122296
 20
-39.874472
 30
0.0
 11
112.41519
 21
-39.874471
 31
0.0
  0
LINE
  5
BD
100
AcDbEntity
  8
2
370
    50
100
AcDbLine
 10
107.465442
 20
-44.824219
 30
0.0
 11
107.465442
 21
-45.531326
 31
0.0
  0
LINE
  5
BE
100
AcDbEntity
  8
2
370
    50
100
AcDbLine
 10
109.940316
 20
-42.349345
 30
0.0
 11
112.41519
 21
-39.874471
 31
0.0
  0
CIRCLE
  5
BF
100
AcDbEntity
  8
2
370
    50
100
AcDbCircle
 10
164.033985
 20
-96.443013
 30
0.0
 40
16.5
  0
CIRCLE
  5
C0
100
AcDbEntity
  8
2
370
    50
100
AcDbCircle
 10
164.033985
 20
-96.443013
 30
0.0
 40
17.5
  0
LINE
  5
C1
100
AcDbEntity
  8
2
370
    25
  6
CENTER
100
AcDbLine
 10
178.968226
 20
-111.377256
 30
0.0
 11
104.611028
 21
-37.020058
 31
0.0
  0
POINT
  5
C2
100
AcDbEntity
  8
2
370
    50
100
AcDbPoint
 10
164.033985
 20
-96.443013
 30
0.0
  0
LINE
  5
C3
100
AcDbEntity
  8
2
370
    50
100
AcDbLine
 10
181.533983
 20
-54.243014
 30
0.0
 11
181.533983
 21
-161.943013
 31
0.0
  0
LINE
  5
C4
100
AcDbEntity
  8
2
370
    25
100
AcDbLine
 10
179.943889
 20
-106.696063
 30
0.0
 11
174.287034
 21
-112.352917
 31
0.0
  0
LINE
  5
C5
100
AcDbEntity
  8
2
370
    50
100
AcDbLine
 10
179.943889
 20
-106.696063
 30
0.0
 11
178.909197
 21
-105.661371
 31
0.0
  0
ARC
  5
C6
100
AcDbEntity
  8
2
370
    50
100
AcDbCircle
 10
172.216482
 20
-104.62551
 30
0.0
 40
8.0
100
AcDbArc
 50
315.0
 51
345.0
  0
ARC
  5
C7
100
AcDbEntity
  8
2
370
    50
100
AcDbCircle
 10
172.216482
 20
-104.62551
 30
0.0
 40
8.0
100
AcDbArc
 50
285.0
 51
315.0
  0
LINE
  5
C8
100
AcDbEntity
  8
2
370
    50
100
AcDbLine
 10
174.287034
 20
-112.352917
 30
0.0
 11
173.252343
 21
-111.318225
 31
0.0
  0
LINE
  5
C9
100
AcDbEntity
  8
2
370
    50
100
AcDbLine
 10
142.033983
 20
-169.443013
 30
0.0
 11
142.033983
 21
-166.443013
 31
0.0
  0
LINE
  5
CA
100
AcDbEntity
  8
2
370
    50
100
AcDbLine
 10
186.033983
 20
-169.443013
 30
0.0
 11
142.033983
 21
-169.443013
 31
0.0
  0
LINE
  5
CB
100
AcDbEntity
  8
2
370
    50
100
AcDbLine
 10
186.033983
 20
-169.443013
 30
0.0
 11
186.033983
 21
-166.443013
 31
0.0
  0
LINE
  5
CC
100
AcDbEntity
  8
2
370
    50
100
AcDbLine
 10
187.433983
 20
-166.443013
 30
0.0
 11
140.633983
 21
-166.443013
 31
0.0
  0
LINE
  5
CD
100
AcDbEntity
  8
2
370
    50
100
AcDbLine
 10
140.133983
 20
-165.943013
 30
0.0
 11
140.133983
 21
-162.443013
 31
0.0
  0
LINE
  5
CE
100
AcDbEntity
  8
2
370
    50
100
AcDbLine
 10
140.633983
 20
-161.943013
 30
0.0
 11
187.433983
 21
-161.943013
 31
0.0
  0
LINE
  5
CF
100
AcDbEntity
  8
2
370
    50
100
AcDbLine
 10
140.633983
 20
-161.943013
 30
0.0
 11
140.133983
 21
-162.443013
 31
0.0
  0
LINE
  5
D0
100
AcDbEntity
  8
2
370
    50
100
AcDbLine
 10
140.633983
 20
-166.443013
 30
0.0
 11
140.133983
 21
-165.943013
 31
0.0
  0
LINE
  5
D1
100
AcDbEntity
  8
2
370
    50
100
AcDbLine
 10
187.933983
 20
-165.943013
 30
0.0
 11
187.933983
 21
-162.443013
 31
0.0
  0
LINE
  5
D2
100
AcDbEntity
  8
2
370
    50
100
AcDbLine
 10
187.433983
 20
-161.943013
 30
0.0
 11
187.933983
 21
-162.443013
 31
0.0
  0
LINE
  5
D3
100
AcDbEntity
  8
2
370
    50
100
AcDbLine
 10
187.433983
 20
-166.443013
 30
0.0
 11
187.933983
 21
-165.943013
 31
0.0
  0
LINE
  5
D4
100
AcDbEntity
  8
2
370
    50
100
AcDbLine
 10
187.933983
 20
-162.443013
 30
0.0
 11
140.133983
 21
-162.443013
 31
0.0
  0
LINE
  5
D5
100
AcDbEntity
  8
2
370
    50
100
AcDbLine
 10
140.133983
 20
-165.943013
 30
0.0
 11
187.933983
 21
-165.943013
 31
0.0
  0
LINE
  5
D6
100
AcDbEntity
  8
2
370
    50
100
AcDbLine
 10
147.033983
 20
-169.943013
 30
0.0
 11
147.033983
 21
-169.443013
 31
0.0
  0
LINE
  5
D7
100
AcDbEntity
  8
2
370
    50
100
AcDbLine
 10
147.033983
 20
-169.943013
 30
0.0
 11
147.533983
 21
-170.443013
 31
0.0
  0
LINE
  5
D8
100
AcDbEntity
  8
2
370
    50
100
AcDbLine
 10
181.033983
 20
-169.943013
 30
0.0
 11
181.033983
 21
-169.443013
 31
0.0
  0
LINE
  5
D9
100
AcDbEntity
  8
2
370
    50
100
AcDbLine
 10
180.533983
 20
-170.443013
 30
0.0
 11
147.533983
 21
-170.443013
 31
0.0
  0
LINE
  5
DA
100
AcDbEntity
  8
2
370
    50
100
AcDbLine
 10
181.033983
 20
-169.943013
 30
0.0
 11
180.533983
 21
-170.443013
 31
0.0
  0
LINE
  5
DB
100
AcDbEntity
  8
2
370
    50
100
AcDbLine
 10
181.033983
 20
-169.943013
 30
0.0
 11
147.033983
 21
-169.943013
 31
0.0
  0
LINE
  5
DC
100
AcDbEntity
  8
2
370
    25
  6
CENTER
100
AcDbLine
 10
173.533984
 20
-167.833396
 30
0.0
 11
173.533984
 21
-269.290306
 31
0.0
  0
LINE
  5
DD
100
AcDbEntity
  8
2
370
    50
100
AcDbLine
 10
146.833983
 20
-197.254828
 30
0.0
 11
186.833983
 21
-197.254828
 31
0.0
  0
LINE
  5
DE
100
AcDbEntity
  8
2
370
    50
100
AcDbLine
 10
146.833983
 20
-193.254828
 30
0.0
 11
146.833983
 21
-197.254828
 31
0.0
  0
LINE
  5
DF
100
AcDbEntity
  8
2
370
    50
100
AcDbLine
 10
186.833983
 20
-197.254828
 30
0.0
 11
186.833983
 21
-193.254828
 31
0.0
  0
LINE
  5
E0
100
AcDbEntity
  8
2
370
    50
100
AcDbLine
 10
177.533983
 20
-193.254828
 30
0.0
 11
177.533983
 21
-170.443013
 31
0.0
  0
LINE
  5
E1
100
AcDbEntity
  8
2
370
    50
100
AcDbLine
 10
176.908983
 20
-193.254828
 30
0.0
 11
176.908983
 21
-170.443013
 31
0.0
  0
LINE
  5
E2
100
AcDbEntity
  8
2
370
    50
100
AcDbLine
 10
170.158983
 20
-193.254828
 30
0.0
 11
170.158983
 21
-170.443013
 31
0.0
  0
LINE
  5
E3
100
AcDbEntity
  8
2
370
    50
100
AcDbLine
 10
169.533983
 20
-193.254828
 30
0.0
 11
169.533983
 21
-170.443013
 31
0.0
  0
LINE
  5
E4
100
AcDbEntity
  8
2
370
    25
  6
CENTER
100
AcDbLine
 10
161.033983
 20
-167.833396
 30
0.0
 11
161.033983
 21
-246.051651
 31
0.0
  0
LINE
  5
E5
100
AcDbEntity
  8
2
370
    50
100
AcDbLine
 10
146.833983
 20
-193.254828
 30
0.0
 11
186.833983
 21
-193.254828
 31
0.0
  0
HATCH
  5
E6
100
AcDbEntity
  8
2
370
    25
100
AcDbHatch
 10
0.0
 20
0.0
 30
0.0
210
0.0
220
0.0
230
1.0
  2
_U
 70
     0
 71
     1
 91
        1
 92
        1
 93
        4
 72
     1
 10
186.03398300000001
 20
-166.44301300000001
 11
142.03398300000001
 21
-166.44301300000001
 72
     1
 10
142.03398300000001
 20
-166.44301300000001
 11
142.03398300000001
 21
-169.44301300000001
 72
     1
 10
142.03398300000001
 20
-169.44301300000001
 11
186.03398300000001
 21
-169.44301300000001
 72
     1
 10
186.03398300000001
 20
-169.44301300000001
 11
186.03398300000001
 21
-166.44301300000001
 97
        4
330
0
330
0
330
0
330
0
 75
     0
 76
     0
 52
45.0
 41
1.0
 77
     0
 78
     1
 53
45.0
 43
0.0
 44
0.0
 45
-2.1213199999999999
 46
2.1213199999999999
 79
     0
 98
        1
 10
0.0
 20
0.0
  0
LINE
  5
E7
100
AcDbEntity
  8
2
370
    50
100
AcDbLine
 10
146.833983
 20
-53.943014
 30
0.0
 11
181.233983
 21
-53.943014
 31
0.0
  0
LINE
  5
E8
100
AcDbEntity
  8
2
370
    50
100
AcDbLine
 10
181.533983
 20
-54.243014
 30
0.0
 11
181.233983
 21
-53.943014
 31
0.0
  0
LINE
  5
E9
100
AcDbEntity
  8
2
370
    50
100
AcDbLine
 10
146.833983
 20
-53.943014
 30
0.0
 11
146.533983
 21
-54.243014
 31
0.0
  0
LINE
  5
EA
100
AcDbEntity
  8
2
370
    50
100
AcDbLine
 10
181.533983
 20
-54.243014
 30
0.0
 11
146.533983
 21
-54.243014
 31
0.0
  0
LINE
  5
EB
100
AcDbEntity
  8
2
370
    50
100
AcDbLine
 10
167.03443
 20
-267.254829
 30
0.0
 11
180.033537
 21
-267.254829
 31
0.0
  0
LINE
  5
EC
100
AcDbEntity
  8
2
370
    50
100
AcDbLine
 10
168.034064
 20
-202.254828
 30
0.0
 11
180.033984
 21
-202.254828
 31
0.0
  0
LINE
  5
ED
100
AcDbEntity
  8
2
370
    50
100
AcDbLine
 10
180.033984
 20
-202.254828
 30
0.0
 11
181.039537
 21
-203.260381
 31
0.0
  0
LINE
  5
EE
100
AcDbEntity
  8
2
370
    50
100
AcDbLine
 10
181.039537
 20
-266.248829
 30
0.0
 11
180.033537
 21
-267.254829
 31
0.0
  0
LINE
  5
EF
100
AcDbEntity
  8
2
370
    50
100
AcDbLine
 10
166.02843
 20
-266.248829
 30
0.0
 11
167.03443
 21
-267.254829
 31
0.0
  0
ARC
  5
F0
100
AcDbEntity
  8
2
370
    50
100
AcDbCircle
 10
179.127704
 20
-204.442782
 30
0.0
 40
2.187954
100
AcDbArc
 50
45.0
 51
147.288191
  0
ARC
  5
F1
100
AcDbEntity
  8
2
370
    50
100
AcDbCircle
 10
173.533984
 20
-209.760381
 30
0.0
 40
7.505554
100
AcDbArc
 50
60.0
 51
120.0
  0
ARC
  5
F2
100
AcDbEntity
  8
2
370
    50
100
AcDbCircle
 10
173.533984
 20
-259.75216
 30
0.0
 40
7.502669
100
AcDbArc
 50
239.98728
 51
300.01272
  0
ARC
  5
F3
100
AcDbEntity
  8
2
370
    50
100
AcDbCircle
 10
179.127573
 20
-265.067638
 30
0.0
 40
2.187191
100
AcDbArc
 50
212.68699
 51
315.0
  0
LINE
  5
F4
100
AcDbEntity
  8
2
370
    50
100
AcDbLine
 10
167.533984
 20
-197.254828
 30
0.0
 11
179.533984
 21
-197.254828
 31
0.0
  0
LINE
  5
F5
100
AcDbEntity
  8
2
370
    50
100
AcDbLine
 10
180.033984
 20
-202.254828
 30
0.0
 11
180.033984
 21
-197.754828
 31
0.0
  0
LINE
  5
F6
100
AcDbEntity
  8
2
370
    50
100
AcDbLine
 10
179.533984
 20
-197.254828
 30
0.0
 11
180.033984
 21
-197.754828
 31
0.0
  0
LINE
  5
F7
100
AcDbEntity
  8
2
370
    25
100
AcDbLine
 10
180.033984
 20
-197.754828
 30
0.0
 11
167.736431
 21
-197.754828
 31
0.0
  0
ARC
  5
F8
100
AcDbEntity
  8
2
370
    50
100
AcDbCircle
 10
167.940264
 20
-204.442782
 30
0.0
 40
2.187954
100
AcDbArc
 50
32.711809
 51
87.542904
  0
ARC
  5
F9
100
AcDbEntity
  8
2
370
    50
100
AcDbCircle
 10
167.940394
 20
-265.067638
 30
0.0
 40
2.187191
100
AcDbArc
 50
225.0
 51
327.31301
  0
LINE
  5
FA
100
AcDbEntity
  8
2
370
    50
100
AcDbLine
 10
146.533983
 20
-161.943013
 30
0.0
 11
146.533983
 21
-84.599867
 31
0.0
  0
LINE
  5
FB
100
AcDbEntity
  8
2
370
    50
100
AcDbLine
 10
146.533983
 20
-73.286158
 30
0.0
 11
146.533983
 21
-54.243014
 31
0.0
  0
LINE
  5
FC
100
AcDbEntity
  8
2
370
    50
100
AcDbLine
 10
154.508982
 20
92.928295
 30
0.0
 11
154.508982
 21
-42.943013
 31
0.0
  0
LINE
  5
FD
100
AcDbEntity
  8
2
370
    50
100
AcDbLine
 10
173.558982
 20
92.928295
 30
0.0
 11
173.558982
 21
-42.943013
 31
0.0
  0
LINE
  5
FE
100
AcDbEntity
  8
2
370
    25
  6
CENTER
100
AcDbLine
 10
164.033983
 20
92.928295
 30
0.0
 11
164.033983
 21
-169.443013
 31
0.0
  0
ARC
  5
FF
100
AcDbEntity
  8
2
370
    25
  6
CENTER
100
AcDbCircle
 10
44.033983
 20
92.928295
 30
0.0
 40
120.0
100
AcDbArc
 50
0.0
 51
172.0
  0
ARC
  5
100
100
AcDbEntity
  8
2
370
    50
100
AcDbCircle
 10
44.033983
 20
92.928295
 30
0.0
 40
129.524999
100
AcDbArc
 50
0.0
 51
172.0
  0
LINE
  5
101
100
AcDbEntity
  8
2
370
    50
100
AcDbLine
 10
181.039537
 20
-266.248829
 30
0.0
 11
181.039537
 21
-203.260381
 31
0.0
  0
LINE
  5
102
100
AcDbEntity
  8
2
370
    50
100
AcDbLine
 10
177.28676
 20
-266.248829
 30
0.0
 11
177.28676
 21
-203.260381
 31
0.0
  0
LINE
  5
103
100
AcDbEntity
  8
2
370
    50
100
AcDbLine
 10
169.781207
 20
-266.248829
 30
0.0
 11
169.781207
 21
-203.260381
 31
0.0
  0
LINE
  5
104
100
AcDbEntity
  8
2
370
    50
100
AcDbLine
 10
166.02843
 20
-266.248829
 30
0.0
 11
166.02843
 21
-241.307693
 31
0.0
  0
ARC
  5
105
100
AcDbEntity
  8
2
370
    50
100
AcDbCircle
 10
44.033983
 20
92.928295
 30
0.0
 40
110.474999
100
AcDbArc
 50
0.0
 51
172.0
  0
LINE
  5
106
100
AcDbEntity
  8
2
370
    50
100
AcDbLine
 10
-69.675704
 20
77.637463
 30
0.0
 11
-79.108008
 21
78.963087
 31
0.0
  0
LINE
  5
107
100
AcDbEntity
  8
2
370
    50
100
AcDbLine
 10
-71.011174
 20
76.714341
 30
0.0
 11
-70.92767
 21
77.308502
 31
0.0
  0
LINE
  5
108
100
AcDbEntity
  8
2
370
    50
100
AcDbLine
 10
-69.770047
 20
77.145808
 30
0.0
 11
-88.58514
 21
79.790097
 31
0.0
  0
LINE
  5
109
100
AcDbEntity
  8
2
370
    50
100
AcDbLine
 10
-70.92767
 20
77.308502
 30
0.0
 11
-71.354213
 21
76.762552
 31
0.0
  0
LINE
  5
10A
100
AcDbEntity
  8
2
370
    50
100
AcDbLine
 10
-88.173511
 20
79.12635
 30
0.0
 11
-79.261098
 21
77.873792
 31
0.0
  0
LINE
  5
10B
100
AcDbEntity
  8
2
370
    50
100
AcDbLine
 10
-69.770047
 20
77.145808
 30
0.0
 11
-69.70046
 21
77.640942
 31
0.0
  0
LINE
  5
10C
100
AcDbEntity
  8
2
370
    50
100
AcDbLine
 10
-90.956973
 20
59.320989
 30
0.0
 11
-82.04456
 21
58.068431
 31
0.0
  0
ARC
  5
10D
100
AcDbEntity
  8
2
370
    50
100
AcDbCircle
 10
-90.887386
 20
59.816123
 30
0.0
 40
0.5
100
AcDbArc
 50
172.0
 51
262.0
  0
LINE
  5
10E
100
AcDbEntity
  8
2
370
    50
100
AcDbLine
 10
-88.54031
 20
80.288711
 30
0.0
 11
-79.108007
 21
78.963087
 31
0.0
  0
LINE
  5
10F
100
AcDbEntity
  8
2
370
    50
100
AcDbLine
 10
-87.427517
 20
79.627404
 30
0.0
 11
-87.167982
 21
78.985032
 31
0.0
  0
LINE
  5
110
100
AcDbEntity
  8
2
370
    50
100
AcDbLine
 10
-87.511021
 20
79.033243
 30
0.0
 11
-87.427517
 21
79.627404
 31
0.0
  0
LINE
  5
111
100
AcDbEntity
  8
2
370
    50
100
AcDbLine
 10
-88.58514
 20
79.790097
 30
0.0
 11
-88.515554
 21
80.285231
 31
0.0
  0
LINE
  5
112
100
AcDbEntity
  8
2
370
    50
100
AcDbLine
 10
-69.675704
 20
77.637463
 30
0.0
 11
-65.365881
 21
108.303444
 31
0.0
  0
LINE
  5
113
100
AcDbEntity
  8
2
370
    50
100
AcDbLine
 10
-88.54031
 20
80.288711
 30
0.0
 11
-84.230488
 21
110.954691
 31
0.0
  0
LINE
  5
114
100
AcDbEntity
  8
2
370
    50
100
AcDbLine
 10
-91.38252
 20
59.885709
 30
0.0
 11
-88.738231
 21
78.700803
 31
0.0
  0
ARC
  5
115
100
AcDbEntity
  8
2
370
    50
100
AcDbCircle
 10
-88.243097
 20
78.631216
 30
0.0
 40
0.5
100
AcDbArc
 50
82.0
 51
172.0
  0
LINE
  5
116
100
AcDbEntity
  8
2
370
    50
100
AcDbLine
 10
-70.348686
 20
76.621234
 30
0.0
 11
-79.261098
 21
77.873792
 31
0.0
  0
ARC
  5
117
100
AcDbEntity
  8
2
370
    50
100
AcDbCircle
 10
-70.418272
 20
76.1261
 30
0.0
 40
0.5
100
AcDbArc
 50
352.0
 51
82.0
  0
LINE
  5
118
100
AcDbEntity
  8
2
370
    50
100
AcDbLine
 10
-72.567427
 20
57.24142
 30
0.0
 11
-69.923138
 21
76.056514
 31
0.0
  0
ARC
  5
119
100
AcDbEntity
  8
2
370
    50
100
AcDbCircle
 10
-73.062561
 20
57.311007
 30
0.0
 40
0.5
100
AcDbArc
 50
262.0
 51
352.0
  0
LINE
  5
11A
100
AcDbEntity
  8
2
370
    50
100
AcDbLine
 10
-73.132148
 20
56.815873
 30
0.0
 11
-82.04456
 21
58.068431
 31
0.0
  0
LINE
  5
11B
100
AcDbEntity
  8
2
370
    25
  6
CENTER
100
AcDbLine
 10
-85.922006
 20
30.478974
 30
0.0
 11
-74.798185
 21
109.629068
 31
0.0
  0
ELLIPSE
  5
11C
100
AcDbEntity
  8
2
370
    50
100
AcDbEllipse
 10
-354.014361
 20
58.068431
 30
0.0
 11
7.75
 21
0.0
 31
0.0
210
0.0
220
0.0
230
1.0
 40
0.139173
 41
0.0
 42
6.2831849999999996
  0
ELLIPSE
  5
11D
100
AcDbEntity
  8
2
370
    50
100
AcDbEllipse
 10
-354.014361
 20
78.467953
 30
0.0
 11
9.5250000000000004
 21
0.0
 31
0.0
210
0.0
220
0.0
230
1.0
 40
0.138808
 41
0.0
 42
3.1415929999999999
  0
POINT
  5
11E
100
AcDbEntity
  8
2
370
    50
100
AcDbPoint
 10
-354.014361
 20
79.790097
 30
0.0
  0
POINT
  5
11F
100
AcDbEntity
  8
2
370
    50
100
AcDbPoint
 10
-354.014361
 20
79.790097
 30
0.0
  0
ELLIPSE
  5
120
100
AcDbEntity
  8
2
370
    50
100
AcDbEllipse
 10
-354.014361
 20
77.803953
 30
0.0
 11
9.5250000000000004
 21
0.0
 31
0.0
210
0.0
220
0.0
230
1.0
 40
0.138808
 41
6.2107169999999998
 42
3.2140610000000001
  0
LINE
  5
121
100
AcDbEntity
  8
2
370
    50
100
AcDbLine
 10
-344.514361
 20
77.899682
 30
0.0
 11
-344.514361
 21
58.068431
 31
0.0
  0
LINE
  5
122
100
AcDbEntity
  8
2
370
    50
100
AcDbLine
 10
-363.514361
 20
77.899682
 30
0.0
 11
-363.514361
 21
58.068431
 31
0.0
  0
ELLIPSE
  5
123
100
AcDbEntity
  8
2
370
    50
100
AcDbEllipse
 10
-354.014361
 20
58.068431
 30
0.0
 11
9.5
 21
0.0
 31
0.0
210
0.0
220
0.0
230
1.0
 40
0.139173
 41
0.0
 42
6.2831849999999996
  0
POINT
  5
124
100
AcDbEntity
  8
2
370
    50
100
AcDbPoint
 10
-354.014361
 20
79.790097
 30
0.0
  0
POINT
  5
125
100
AcDbEntity
  8
2
370
    50
100
AcDbPoint
 10
-346.51436
 20
-170.443014
 30
0.0
  0
LINE
  5
126
100
AcDbEntity
  8
2
370
    50
100
AcDbLine
 10
-341.014279
 20
-170.443014
 30
0.0
 11
-352.014279
 21
-170.443014
 31
0.0
  0
POINT
  5
127
100
AcDbEntity
  8
2
370
    50
100
AcDbPoint
 10
-361.51436
 20
-170.443014
 30
0.0
  0
LINE
  5
128
100
AcDbEntity
  8
2
370
    50
100
AcDbLine
 10
-356.014279
 20
-170.443014
 30
0.0
 11
-367.014279
 21
-170.443014
 31
0.0
  0
POINT
  5
129
100
AcDbEntity
  8
2
370
    50
100
AcDbPoint
 10
161.034064
 20
-170.443013
 30
0.0
  0
POINT
  5
12A
100
AcDbEntity
  8
2
370
    50
100
AcDbPoint
 10
161.034064
 20
-170.443013
 30
0.0
  0
LINE
  5
12B
100
AcDbEntity
  8
2
370
    50
100
AcDbLine
 10
166.534146
 20
-170.443013
 30
0.0
 11
155.534146
 21
-170.443013
 31
0.0
  0
LINE
  5
12C
100
AcDbEntity
  8
2
370
    50
100
AcDbLine
 10
155.034064
 20
-176.054338
 30
0.0
 11
155.034064
 21
-170.731688
 31
0.0
  0
LINE
  5
12D
100
AcDbEntity
  8
2
370
    50
100
AcDbLine
 10
167.034064
 20
-176.054338
 30
0.0
 11
167.034064
 21
-170.731688
 31
0.0
  0
LINE
  5
12E
100
AcDbEntity
  8
2
370
    50
100
AcDbLine
 10
163.43198
 20
-170.731688
 30
0.0
 11
163.43198
 21
-176.054338
 31
0.0
  0
LINE
  5
12F
100
AcDbEntity
  8
2
370
    50
100
AcDbLine
 10
164.598246
 20
-170.731688
 30
0.0
 11
164.598246
 21
-176.054338
 31
0.0
  0
LINE
  5
130
100
AcDbEntity
  8
2
370
    50
100
AcDbLine
 10
166.996162
 20
-170.731688
 30
0.0
 11
166.996162
 21
-176.054338
 31
0.0
  0
LINE
  5
131
100
AcDbEntity
  8
2
370
    50
100
AcDbLine
 10
166.534064
 20
-176.343013
 30
0.0
 11
167.034064
 21
-176.054338
 31
0.0
  0
LINE
  5
132
100
AcDbEntity
  8
2
370
    50
100
AcDbLine
 10
164.598246
 20
-176.054338
 30
0.0
 11
163.43198
 21
-176.054338
 31
0.0
  0
LINE
  5
133
100
AcDbEntity
  8
2
370
    50
100
AcDbLine
 10
155.034064
 20
-176.054338
 30
0.0
 11
155.534064
 21
-176.343013
 31
0.0
  0
LINE
  5
134
100
AcDbEntity
  8
2
370
    50
100
AcDbLine
 10
155.034064
 20
-170.731688
 30
0.0
 11
155.534064
 21
-170.443013
 31
0.0
  0
ARC
  5
135
100
AcDbEntity
  8
2
370
    50
100
AcDbCircle
 10
161.034064
 20
-166.239383
 30
0.0
 40
10.10363
100
AcDbArc
 50
270.0
 51
283.729133
  0
ARC
  5
136
100
AcDbEntity
  8
2
370
    50
100
AcDbCircle
 10
161.034064
 20
-180.546643
 30
0.0
 40
10.10363
100
AcDbArc
 50
76.270867
 51
90.0
  0
LINE
  5
137
100
AcDbEntity
  8
2
370
    50
100
AcDbLine
 10
164.598246
 20
-170.731688
 30
0.0
 11
163.43198
 21
-170.731688
 31
0.0
  0
LINE
  5
138
100
AcDbEntity
  8
2
370
    50
100
AcDbLine
 10
167.034064
 20
-176.054338
 30
0.0
 11
166.996162
 21
-176.054338
 31
0.0
  0
ARC
  5
139
100
AcDbEntity
  8
2
370
    50
100
AcDbCircle
 10
165.797204
 20
-173.708852
 30
0.0
 40
2.634161
100
AcDbArc
 50
242.924933
 51
297.075067
  0
ARC
  5
13A
100
AcDbEntity
  8
2
370
    50
100
AcDbCircle
 10
165.797204
 20
-173.077174
 30
0.0
 40
2.634161
100
AcDbArc
 50
62.924933
 51
117.075067
  0
ARC
  5
13B
100
AcDbEntity
  8
2
370
    50
100
AcDbCircle
 10
161.034064
 20
-166.239383
 30
0.0
 40
10.10363
100
AcDbArc
 50
256.270867
 51
270.0
  0
LINE
  5
13C
100
AcDbEntity
  8
2
370
    50
100
AcDbLine
 10
157.469882
 20
-176.054338
 30
0.0
 11
158.636148
 21
-176.054338
 31
0.0
  0
ARC
  5
13D
100
AcDbEntity
  8
2
370
    50
100
AcDbCircle
 10
156.270925
 20
-173.708852
 30
0.0
 40
2.634161
100
AcDbArc
 50
242.924933
 51
297.075067
  0
LINE
  5
13E
100
AcDbEntity
  8
2
370
    50
100
AcDbLine
 10
155.071967
 20
-176.054338
 30
0.0
 11
155.034064
 21
-176.054338
 31
0.0
  0
LINE
  5
13F
100
AcDbEntity
  8
2
370
    50
100
AcDbLine
 10
155.534064
 20
-176.343013
 30
0.0
 11
166.534064
 21
-176.343013
 31
0.0
  0
LINE
  5
140
100
AcDbEntity
  8
2
370
    50
100
AcDbLine
 10
154.434064
 20
-205.343013
 30
0.0
 11
161.034064
 21
-205.343013
 31
0.0
  0
LINE
  5
141
100
AcDbEntity
  8
2
370
    50
100
AcDbLine
 10
154.434064
 20
-199.843013
 30
0.0
 11
161.034064
 21
-199.843013
 31
0.0
  0
LINE
  5
142
100
AcDbEntity
  8
2
370
    50
100
AcDbLine
 10
154.434064
 20
-197.843013
 30
0.0
 11
161.034064
 21
-197.843013
 31
0.0
  0
LINE
  5
143
100
AcDbEntity
  8
2
370
    50
100
AcDbLine
 10
154.434064
 20
-192.843013
 30
0.0
 11
161.034064
 21
-192.843013
 31
0.0
  0
LINE
  5
144
100
AcDbEntity
  8
2
370
    50
100
AcDbLine
 10
154.434064
 20
-190.843013
 30
0.0
 11
161.034064
 21
-190.843013
 31
0.0
  0
LINE
  5
145
100
AcDbEntity
  8
2
370
    50
100
AcDbLine
 10
154.434064
 20
-185.843013
 30
0.0
 11
161.034064
 21
-185.843013
 31
0.0
  0
LINE
  5
146
100
AcDbEntity
  8
2
370
    50
100
AcDbLine
 10
154.434064
 20
-183.843013
 30
0.0
 11
161.034064
 21
-183.843013
 31
0.0
  0
LINE
  5
147
100
AcDbEntity
  8
2
370
    50
100
AcDbLine
 10
154.034064
 20
-204.543013
 30
0.0
 11
154.034064
 21
-200.643013
 31
0.0
  0
LINE
  5
148
100
AcDbEntity
  8
2
370
    50
100
AcDbLine
 10
154.034064
 20
-190.043013
 30
0.0
 11
154.034064
 21
-186.643013
 31
0.0
  0
LINE
  5
149
100
AcDbEntity
  8
2
370
    50
100
AcDbLine
 10
154.034064
 20
-183.043013
 30
0.0
 11
154.034064
 21
-177.143013
 31
0.0
  0
LINE
  5
14A
100
AcDbEntity
  8
2
370
    50
100
AcDbLine
 10
154.434064
 20
-185.843013
 30
0.0
 11
154.434064
 21
-183.843013
 31
0.0
  0
LINE
  5
14B
100
AcDbEntity
  8
2
370
    50
100
AcDbLine
 10
154.434064
 20
-199.843013
 30
0.0
 11
154.434064
 21
-197.843013
 31
0.0
  0
LINE
  5
14C
100
AcDbEntity
  8
2
370
    50
100
AcDbLine
 10
154.434064
 20
-192.843013
 30
0.0
 11
154.434064
 21
-190.843013
 31
0.0
  0
ARC
  5
14D
100
AcDbEntity
  8
2
370
    50
100
AcDbCircle
 10
155.034064
 20
-183.043013
 30
0.0
 40
1.0
100
AcDbArc
 50
180.0
 51
233.130102
  0
ARC
  5
14E
100
AcDbEntity
  8
2
370
    50
100
AcDbCircle
 10
155.034064
 20
-186.643013
 30
0.0
 40
1.0
100
AcDbArc
 50
126.869898
 51
180.0
  0
ARC
  5
14F
100
AcDbEntity
  8
2
370
    50
100
AcDbCircle
 10
155.034064
 20
-190.043013
 30
0.0
 40
1.0
100
AcDbArc
 50
180.0
 51
233.130102
  0
ARC
  5
150
100
AcDbEntity
  8
2
370
    50
100
AcDbCircle
 10
155.034064
 20
-193.643013
 30
0.0
 40
1.0
100
AcDbArc
 50
126.869898
 51
157.158379
  0
ARC
  5
151
100
AcDbEntity
  8
2
370
    50
100
AcDbCircle
 10
155.034064
 20
-197.043013
 30
0.0
 40
1.0
100
AcDbArc
 50
192.228728
 51
233.130102
  0
ARC
  5
152
100
AcDbEntity
  8
2
370
    50
100
AcDbCircle
 10
155.034064
 20
-200.643013
 30
0.0
 40
1.0
100
AcDbArc
 50
126.869898
 51
180.0
  0
ARC
  5
153
100
AcDbEntity
  8
2
370
    50
100
AcDbCircle
 10
155.034064
 20
-204.543013
 30
0.0
 40
1.0
100
AcDbArc
 50
180.0
 51
233.130102
  0
LINE
  5
154
100
AcDbEntity
  8
2
370
    50
100
AcDbLine
 10
167.634064
 20
-205.343013
 30
0.0
 11
161.034064
 21
-205.343013
 31
0.0
  0
ARC
  5
155
100
AcDbEntity
  8
2
370
    50
100
AcDbCircle
 10
167.034064
 20
-204.543013
 30
0.0
 40
1.0
100
AcDbArc
 50
306.869898
 51
360.0
  0
LINE
  5
156
100
AcDbEntity
  8
2
370
    50
100
AcDbLine
 10
168.034064
 20
-204.543013
 30
0.0
 11
168.034064
 21
-200.643013
 31
0.0
  0
ARC
  5
157
100
AcDbEntity
  8
2
370
    50
100
AcDbCircle
 10
167.034064
 20
-200.643013
 30
0.0
 40
1.0
100
AcDbArc
 50
360.0
 51
53.130102
  0
LINE
  5
158
100
AcDbEntity
  8
2
370
    50
100
AcDbLine
 10
167.634064
 20
-199.843013
 30
0.0
 11
167.634064
 21
-197.843013
 31
0.0
  0
LINE
  5
159
100
AcDbEntity
  8
2
370
    50
100
AcDbLine
 10
167.634064
 20
-199.843013
 30
0.0
 11
161.034064
 21
-199.843013
 31
0.0
  0
LINE
  5
15A
100
AcDbEntity
  8
2
370
    50
100
AcDbLine
 10
167.634064
 20
-197.843013
 30
0.0
 11
161.034064
 21
-197.843013
 31
0.0
  0
ARC
  5
15B
100
AcDbEntity
  8
2
370
    50
100
AcDbCircle
 10
167.034064
 20
-197.043013
 30
0.0
 40
1.0
100
AcDbArc
 50
306.869898
 51
347.771272
  0
ARC
  5
15C
100
AcDbEntity
  8
2
370
    50
100
AcDbCircle
 10
167.034064
 20
-193.643013
 30
0.0
 40
1.0
100
AcDbArc
 50
22.841621
 51
53.130102
  0
LINE
  5
15D
100
AcDbEntity
  8
2
370
    50
100
AcDbLine
 10
167.634064
 20
-192.843013
 30
0.0
 11
161.034064
 21
-192.843013
 31
0.0
  0
LINE
  5
15E
100
AcDbEntity
  8
2
370
    50
100
AcDbLine
 10
167.634064
 20
-192.843013
 30
0.0
 11
167.634064
 21
-190.843013
 31
0.0
  0
LINE
  5
15F
100
AcDbEntity
  8
2
370
    50
100
AcDbLine
 10
167.634064
 20
-190.843013
 30
0.0
 11
161.034064
 21
-190.843013
 31
0.0
  0
ARC
  5
160
100
AcDbEntity
  8
2
370
    50
100
AcDbCircle
 10
167.034064
 20
-190.043013
 30
0.0
 40
1.0
100
AcDbArc
 50
306.869898
 51
360.0
  0
LINE
  5
161
100
AcDbEntity
  8
2
370
    50
100
AcDbLine
 10
168.034064
 20
-190.043013
 30
0.0
 11
168.034064
 21
-186.643013
 31
0.0
  0
ARC
  5
162
100
AcDbEntity
  8
2
370
    50
100
AcDbCircle
 10
167.034064
 20
-186.643013
 30
0.0
 40
1.0
100
AcDbArc
 50
360.0
 51
53.130102
  0
LINE
  5
163
100
AcDbEntity
  8
2
370
    50
100
AcDbLine
 10
167.634064
 20
-185.843013
 30
0.0
 11
161.034064
 21
-185.843013
 31
0.0
  0
LINE
  5
164
100
AcDbEntity
  8
2
370
    50
100
AcDbLine
 10
167.634064
 20
-185.843013
 30
0.0
 11
167.634064
 21
-183.843013
 31
0.0
  0
LINE
  5
165
100
AcDbEntity
  8
2
370
    50
100
AcDbLine
 10
167.634064
 20
-183.843013
 30
0.0
 11
161.034064
 21
-183.843013
 31
0.0
  0
ARC
  5
166
100
AcDbEntity
  8
2
370
    50
100
AcDbCircle
 10
167.034064
 20
-183.043013
 30
0.0
 40
1.0
100
AcDbArc
 50
306.869898
 51
360.0
  0
LINE
  5
167
100
AcDbEntity
  8
2
370
    50
100
AcDbLine
 10
168.034064
 20
-183.043013
 30
0.0
 11
168.034064
 21
-177.143013
 31
0.0
  0
ARC
  5
168
100
AcDbEntity
  8
2
370
    50
100
AcDbCircle
 10
167.034064
 20
-177.143013
 30
0.0
 40
1.0
100
AcDbArc
 50
360.0
 51
53.130102
  0
LINE
  5
169
100
AcDbEntity
  8
2
370
    50
100
AcDbLine
 10
154.434064
 20
-176.343013
 30
0.0
 11
167.634064
 21
-176.343013
 31
0.0
  0
ARC
  5
16A
100
AcDbEntity
  8
2
370
    50
100
AcDbCircle
 10
155.034064
 20
-177.143013
 30
0.0
 40
1.0
100
AcDbArc
 50
126.869898
 51
180.0
  0
LINE
  5
16B
100
AcDbEntity
  8
2
370
    50
100
AcDbLine
 10
154.584064
 20
-242.083048
 30
0.0
 11
154.584064
 21
-205.343013
 31
0.0
  0
LINE
  5
16C
100
AcDbEntity
  8
2
370
    50
100
AcDbLine
 10
167.484064
 20
-242.083048
 30
0.0
 11
167.484064
 21
-205.343013
 31
0.0
  0
ARC
  5
16D
100
AcDbEntity
  8
2
370
    50
100
AcDbCircle
 10
161.034064
 20
-180.546643
 30
0.0
 40
10.10363
100
AcDbArc
 50
90.0
 51
103.729133
  0
LINE
  5
16E
100
AcDbEntity
  8
2
370
    50
100
AcDbLine
 10
157.469882
 20
-170.731688
 30
0.0
 11
158.636148
 21
-170.731688
 31
0.0
  0
ARC
  5
16F
100
AcDbEntity
  8
2
370
    50
100
AcDbCircle
 10
156.270925
 20
-173.077174
 30
0.0
 40
2.634161
100
AcDbArc
 50
62.924933
 51
117.075067
  0
LINE
  5
170
100
AcDbEntity
  8
2
370
    50
100
AcDbLine
 10
158.636148
 20
-170.731688
 30
0.0
 11
158.636148
 21
-176.054338
 31
0.0
  0
LINE
  5
171
100
AcDbEntity
  8
2
370
    50
100
AcDbLine
 10
157.469882
 20
-170.731688
 30
0.0
 11
157.469882
 21
-176.054338
 31
0.0
  0
LINE
  5
172
100
AcDbEntity
  8
2
370
    50
100
AcDbLine
 10
155.071967
 20
-170.731688
 30
0.0
 11
155.071967
 21
-176.054338
 31
0.0
  0
ARC
  5
173
100
AcDbEntity
  8
2
370
    50
100
AcDbCircle
 10
157.809109
 20
-237.782987
 30
0.0
 40
5.375075
100
AcDbArc
 50
233.130102
 51
306.869898
  0
ARC
  5
174
100
AcDbEntity
  8
2
370
    50
100
AcDbCircle
 10
164.2592
 20
-246.383108
 30
0.0
 40
5.375075
100
AcDbArc
 50
53.130102
 51
126.869898
  0
ARC
  5
175
100
AcDbEntity
  8
2
370
    50
100
AcDbCircle
 10
157.809109
 20
-246.383108
 30
0.0
 40
5.375075
100
AcDbArc
 50
53.130102
 51
126.869898
  0
LINE
  5
176
100
AcDbEntity
  8
2
370
    50
100
AcDbLine
 10
166.534146
 20
-170.443013
 30
0.0
 11
167.034064
 21
-170.731688
 31
0.0
  0
LINE
  5
177
100
AcDbEntity
  8
2
370
    50
100
AcDbLine
 10
166.996162
 20
-170.731688
 30
0.0
 11
167.034064
 21
-170.731688
 31
0.0
  0
LINE
  5
178
100
AcDbEntity
  8
2
370
    50
100
AcDbLine
 10
155.071967
 20
-170.731688
 30
0.0
 11
155.034064
 21
-170.731688
 31
0.0
  0
LINE
  5
179
100
AcDbEntity
  8
2
370
    50
100
AcDbLine
 10
146.533983
 20
371.843151
 30
0.0
 11
181.533983
 21
371.843151
 31
0.0
  0
LINE
  5
17A
100
AcDbEntity
  8
2
370
    50
100
AcDbLine
 10
146.533983
 20
403.018151
 30
0.0
 11
146.533983
 21
371.843151
 31
0.0
  0
LINE
  5
17B
100
AcDbEntity
  8
2
370
    50
100
AcDbLine
 10
181.533983
 20
371.843151
 30
0.0
 11
181.533983
 21
412.543151
 31
0.0
  0
LINE
  5
17C
100
AcDbEntity
  8
2
370
    50
100
AcDbLine
 10
181.233983
 20
371.543151
 30
0.0
 11
146.833983
 21
371.543151
 31
0.0
  0
LINE
  5
17D
100
AcDbEntity
  8
2
370
    50
100
AcDbLine
 10
146.533983
 20
371.843151
 30
0.0
 11
146.833983
 21
371.543151
 31
0.0
  0
LINE
  5
17E
100
AcDbEntity
  8
2
370
    50
100
AcDbLine
 10
181.233983
 20
371.543151
 30
0.0
 11
181.533983
 21
371.843151
 31
0.0
  0
LINE
  5
17F
100
AcDbEntity
  8
2
370
    25
  6
CENTER
100
AcDbLine
 10
164.033983
 20
412.543151
 30
0.0
 11
164.033983
 21
340.672554
 31
0.0
  0
LINE
  5
180
100
AcDbEntity
  8
2
370
    50
100
AcDbLine
 10
146.533983
 20
368.94315
 30
0.0
 11
146.533983
 21
357.14315
 31
0.0
  0
LINE
  5
181
100
AcDbEntity
  8
2
370
    50
100
AcDbLine
 10
146.533983
 20
345.94315
 30
0.0
 11
146.533983
 21
348.74315
 31
0.0
  0
ARC
  5
182
100
AcDbEntity
  8
2
370
    50
100
AcDbCircle
 10
129.545457
 20
352.94315
 30
0.0
 40
17.5
100
AcDbArc
 50
0.0
 51
13.88654
  0
ARC
  5
183
100
AcDbEntity
  8
2
370
    50
100
AcDbCircle
 10
129.545457
 20
352.94315
 30
0.0
 40
17.5
100
AcDbArc
 50
346.11346
 51
360.0
  0
LINE
  5
184
100
AcDbEntity
  8
2
370
    50
100
AcDbLine
 10
181.533983
 20
349.69315
 30
0.0
 11
181.533983
 21
348.94315
 31
0.0
  0
LINE
  5
185
100
AcDbEntity
  8
2
370
    50
100
AcDbLine
 10
181.533983
 20
356.19315
 30
0.0
 11
181.533983
 21
356.94315
 31
0.0
  0
LINE
  5
186
100
AcDbEntity
  8
2
370
    50
100
AcDbLine
 10
181.533983
 20
361.523674
 30
0.0
 11
181.533983
 21
352.94315
 31
0.0
  0
LINE
  5
187
100
AcDbEntity
  8
2
370
    50
100
AcDbLine
 10
181.533983
 20
352.94315
 30
0.0
 11
181.533983
 21
345.94315
 31
0.0
  0
ARC
  5
188
100
AcDbEntity
  8
2
370
    50
100
AcDbCircle
 10
164.033983
 20
412.543151
 30
0.0
 40
9.525
100
AcDbArc
 50
270.0
 51
360.0
  0
ARC
  5
189
100
AcDbEntity
  8
2
370
    50
100
AcDbCircle
 10
164.033983
 20
412.543151
 30
0.0
 40
17.2
100
AcDbArc
 50
213.626661
 51
360.0
  0
ARC
  5
18A
100
AcDbEntity
  8
2
370
    50
100
AcDbCircle
 10
164.033983
 20
412.543151
 30
0.0
 40
17.5
100
AcDbArc
 50
212.975865
 51
360.0
  0
LINE
  5
18B
100
AcDbEntity
  8
2
370
    25
  6
PHANTOM
100
AcDbLine
 10
83.307571
 20
332.371644
 30
0.0
 11
155.612116
 21
393.042361
 31
0.0
  0
LINE
  5
18C
100
AcDbEntity
  8
2
370
    25
  6
PHANTOM
100
AcDbLine
 10
71.270497
 20
347.139348
 30
0.0
 11
143.367012
 21
407.635508
 31
0.0
  0
SPLINE
  5
18D
100
AcDbEntity
  8
2
370
    25
  6
CENTER
100
AcDbSpline
210
0.0
220
0.0
230
1.0
 70
     8
 71
     3
 72
     0
 73
     0
 74
     4
 44
0.0000000001
 11
69.214657000000003
 21
347.11924199999999
 31
0.0
 11
76.783344
 21
345.56132000000002
 31
0.0
 11
77.451094999999995
 21
335.991511
 31
0.0
 11
86.800621000000007
 21
331.763102
 31
0.0
  0
LINE
  5
18E
100
AcDbEntity
  8
2
370
    50
100
AcDbLine
 10
146.533983
 20
349.143151
 30
0.0
 11
88.033982
 21
349.14315
 31
0.0
  0
LINE
  5
18F
100
AcDbEntity
  8
2
370
    50
100
AcDbLine
 10
88.033981
 20
357.143151
 30
0.0
 11
146.533983
 21
357.143152
 31
0.0
  0
LINE
  5
190
100
AcDbEntity
  8
2
370
    50
100
AcDbLine
 10
88.033981
 20
357.143151
 30
0.0
 11
87.533983
 21
356.64315
 31
0.0
  0
LINE
  5
191
100
AcDbEntity
  8
2
370
    50
100
AcDbLine
 10
87.533982
 20
349.643151
 30
0.0
 11
88.033982
 21
349.14315
 31
0.0
  0
LINE
  5
192
100
AcDbEntity
  8
2
370
    50
100
AcDbLine
 10
87.533983
 20
356.64315
 30
0.0
 11
87.533982
 21
349.643151
 31
0.0
  0
LINE
  5
193
100
AcDbEntity
  8
2
370
    50
100
AcDbLine
 10
181.533982
 20
362.398184
 30
0.0
 11
181.533999
 21
346.14315
 31
0.0
  0
LINE
  5
194
100
AcDbEntity
  8
2
370
    50
100
AcDbLine
 10
180.533982
 20
363.476718
 30
0.0
 11
162.796445
 21
370.64315
 31
0.0
  0
LINE
  5
195
100
AcDbEntity
  8
2
370
    50
100
AcDbLine
 10
182.533983
 20
357.143151
 30
0.0
 11
181.533983
 21
357.143151
 31
0.0
  0
LINE
  5
196
100
AcDbEntity
  8
2
370
    50
100
AcDbLine
 10
181.533983
 20
356.143151
 30
0.0
 11
181.533983
 21
357.143151
 31
0.0
  0
ARC
  5
197
100
AcDbEntity
  8
2
370
    50
100
AcDbCircle
 10
175.605779
 20
353.143151
 30
0.0
 40
8.0
100
AcDbArc
 50
330.000002
 51
30.000002
  0
LINE
  5
198
100
AcDbEntity
  8
2
370
    50
100
AcDbLine
 10
182.533983
 20
349.143151
 30
0.0
 11
181.533983
 21
349.143151
 31
0.0
  0
LINE
  5
199
100
AcDbEntity
  8
2
370
    25
  6
CENTER
100
AcDbLine
 10
85.048053
 20
353.143154
 30
0.0
 11
184.69215
 21
353.143151
 31
0.0
  0
LINE
  5
19A
100
AcDbEntity
  8
2
370
    50
100
AcDbLine
 10
88.033982
 20
349.14315
 30
0.0
 11
88.033981
 21
357.143151
 31
0.0
  0
LINE
  5
19B
100
AcDbEntity
  8
2
370
    50
100
AcDbLine
 10
182.533983
 20
349.143151
 30
0.0
 11
182.533983
 21
357.143151
 31
0.0
  0
LINE
  5
19C
100
AcDbEntity
  8
2
370
    50
100
AcDbLine
 10
182.533618
 20
357.143146
 30
0.0
 11
181.533618
 21
357.143146
 31
0.0
  0
ARC
  5
19D
100
AcDbEntity
  8
2
370
    50
100
AcDbCircle
 10
175.605415
 20
353.143146
 30
0.0
 40
8.0
100
AcDbArc
 50
330.000002
 51
30.000002
  0
LINE
  5
19E
100
AcDbEntity
  8
2
370
    50
100
AcDbLine
 10
182.533618
 20
349.143146
 30
0.0
 11
181.533618
 21
349.143146
 31
0.0
  0
ARC
  5
19F
100
AcDbEntity
  8
2
370
    50
100
AcDbCircle
 10
205.534675
 20
371.801636
 30
0.0
 40
56.0
100
AcDbArc
 50
180.264469
 51
181.185377
  0
ARC
  5
1A0
100
AcDbEntity
  8
2
370
    50
100
AcDbCircle
 10
122.532562
 20
371.801636
 30
0.0
 40
56.0
100
AcDbArc
 50
352.487007
 51
359.735531
  0
LINE
  5
1A1
100
AcDbEntity
  8
2
370
    50
100
AcDbLine
 10
180.533983
 20
345.14315
 30
0.0
 11
147.533983
 21
345.14315
 31
0.0
  0
LINE
  5
1A2
100
AcDbEntity
  8
2
370
    50
100
AcDbLine
 10
178.051816
 20
364.479578
 30
0.0
 11
181.533983
 21
363.072691
 31
0.0
  0
ARC
  5
1A3
100
AcDbEntity
  8
2
370
    50
100
AcDbCircle
 10
180.533983
 20
346.14315
 30
0.0
 40
1.0
100
AcDbArc
 50
270.0
 51
0.0
  0
ARC
  5
1A4
100
AcDbEntity
  8
2
370
    50
100
AcDbCircle
 10
147.533983
 20
346.14315
 30
0.0
 40
1.0
100
AcDbArc
 50
180.0
 51
270.0
  0
LINE
  5
1A5
100
AcDbEntity
  8
2
370
    50
100
AcDbLine
 10
162.796445
 20
370.64315
 30
0.0
 11
146.533983
 21
370.64315
 31
0.0
  0
LINE
  5
1A6
100
AcDbEntity
  8
2
370
    50
100
AcDbLine
 10
181.533983
 20
363.072691
 30
0.0
 11
181.533983
 21
356.143146
 31
0.0
  0
LINE
  5
1A7
100
AcDbEntity
  8
2
370
    50
100
AcDbLine
 10
181.533983
 20
350.143147
 30
0.0
 11
181.533983
 21
346.14315
 31
0.0
  0
POINT
  5
1A8
100
AcDbEntity
  8
2
370
    50
100
AcDbPoint
 10
164.033983
 20
345.14315
 30
0.0
  0
LINE
  5
1A9
100
AcDbEntity
  8
2
370
    50
100
AcDbLine
 10
146.533983
 20
346.14315
 30
0.0
 11
146.533983
 21
348.74315
 31
0.0
  0
LINE
  5
1AA
100
AcDbEntity
  8
2
370
    50
100
AcDbLine
 10
146.533983
 20
357.14315
 30
0.0
 11
146.533983
 21
370.64315
 31
0.0
  0
LINE
  5
1AB
100
AcDbEntity
  8
2
370
    25
  6
CENTER
100
AcDbLine
 10
68.577124
 20
332.445336
 30
0.0
 11
164.033983
 21
412.543151
 31
0.0
  0
POINT
  5
1AC
100
AcDbEntity
  8
2
370
    50
100
AcDbPoint
 10
-88.668645
 20
79.195937
 30
0.0
  0
LINE
  5
1AD
100
AcDbEntity
  8
2
370
    50
100
AcDbLine
 10
-81.927107
 20
403.018151
 30
0.0
 11
164.033983
 21
403.018151
 31
0.0
  0
ARC
  5
1AE
100
AcDbEntity
  8
2
370
    50
100
AcDbCircle
 10
-81.927107
 20
412.543151
 30
0.0
 40
9.525
100
AcDbArc
 50
180.0
 51
270.0
  0
ARC
  5
1AF
100
AcDbEntity
  8
2
370
    50
100
AcDbCircle
 10
-79.143645
 20
412.543151
 30
0.0
 40
9.525
100
AcDbArc
 50
180.0
 51
270.0
  0
ARC
  5
1B0
100
AcDbEntity
  8
2
370
    50
100
AcDbCircle
 10
164.033983
 20
412.543151
 30
0.0
 40
23.9
100
AcDbArc
 50
203.486661
 51
222.927375
  0
ARC
  5
1B1
100
AcDbEntity
  8
2
370
    50
100
AcDbCircle
 10
164.033983
 20
412.543151
 30
0.0
 40
23.9
100
AcDbArc
 50
317.072625
 51
360.0
  0
LINE
  5
1B2
100
AcDbEntity
  8
2
370
    25
  6
PHANTOM
100
AcDbLine
 10
93.46412
 20
-67.949257
 30
0.0
 11
134.88721
 21
-87.265161
 31
0.0
  0
LINE
  5
1B3
100
AcDbEntity
  8
2
370
    25
  6
PHANTOM
100
AcDbLine
 10
93.222275
 20
-67.284793
 30
0.0
 11
93.46412
 21
-67.949257
 31
0.0
  0
LINE
  5
1B4
100
AcDbEntity
  8
2
370
    25
  6
PHANTOM
100
AcDbLine
 10
93.222275
 20
-67.284793
 30
0.0
 11
94.701439
 21
-64.112716
 31
0.0
  0
LINE
  5
1B5
100
AcDbEntity
  8
2
370
    25
  6
PHANTOM
100
AcDbLine
 10
94.701439
 20
-64.112716
 30
0.0
 11
96.180603
 21
-60.940639
 31
0.0
  0
LINE
  5
1B6
100
AcDbEntity
  8
2
370
    25
  6
PHANTOM
100
AcDbLine
 10
96.845066
 20
-60.698795
 30
0.0
 11
96.180603
 21
-60.940639
 31
0.0
  0
LINE
  5
1B7
100
AcDbEntity
  8
2
370
    25
  6
PHANTOM
100
AcDbLine
 10
138.268157
 20
-80.014699
 30
0.0
 11
96.845066
 21
-60.698795
 31
0.0
  0
LINE
  5
1B8
100
AcDbEntity
  8
2
370
    25
  6
PHANTOM
100
AcDbLine
 10
179.840528
 20
-21.997374
 30
0.0
 11
165.97975
 21
-73.726503
 31
0.0
  0
LINE
  5
1B9
100
AcDbEntity
  8
2
370
    25
  6
PHANTOM
100
AcDbLine
 10
180.452901
 20
-21.643821
 30
0.0
 11
179.840528
 21
-21.997374
 31
0.0
  0
LINE
  5
1BA
100
AcDbEntity
  8
2
370
    25
  6
PHANTOM
100
AcDbLine
 10
180.452901
 20
-21.643821
 30
0.0
 11
183.833642
 21
-22.549687
 31
0.0
  0
LINE
  5
1BB
100
AcDbEntity
  8
2
370
    25
  6
PHANTOM
100
AcDbLine
 10
183.833642
 20
-22.549687
 30
0.0
 11
187.214382
 21
-23.455554
 31
0.0
  0
LINE
  5
1BC
100
AcDbEntity
  8
2
370
    25
  6
PHANTOM
100
AcDbLine
 10
187.567935
 20
-24.067927
 30
0.0
 11
187.214382
 21
-23.455554
 31
0.0
  0
LINE
  5
1BD
100
AcDbEntity
  8
2
370
    25
  6
PHANTOM
100
AcDbLine
 10
173.707157
 20
-75.797056
 30
0.0
 11
187.567935
 21
-24.067927
 31
0.0
  0
LINE
  5
1BE
100
AcDbEntity
  8
2
370
    25
  6
PHANTOM
100
AcDbLine
 10
93.46412
 20
-67.949257
 30
0.0
 11
96.845066
 21
-60.698795
 31
0.0
  0
LINE
  5
1BF
100
AcDbEntity
  8
2
370
    25
  6
PHANTOM
100
AcDbLine
 10
179.840528
 20
-21.997374
 30
0.0
 11
187.567935
 21
-24.067927
 31
0.0
  0
LINE
  5
1C0
100
AcDbEntity
  8
2
370
    25
  6
CENTER
100
AcDbLine
 10
90.655973
 20
-62.226285
 30
0.0
 11
164.033983
 21
-96.443013
 31
0.0
  0
LINE
  5
1C1
100
AcDbEntity
  8
2
370
    25
  6
CENTER
100
AcDbLine
 10
184.891292
 20
-18.602479
 30
0.0
 11
164.033985
 21
-96.443014
 31
0.0
  0
ARC
  5
1C2
100
AcDbEntity
  8
2
370
    50
100
AcDbCircle
 10
164.033983
 20
412.543151
 30
0.0
 40
10.525
100
AcDbArc
 50
244.821684
 51
360.0
  0
ARC
  5
1C3
100
AcDbEntity
  8
2
370
    50
100
AcDbCircle
 10
164.033983
 20
412.543151
 30
0.0
 40
10.5
100
AcDbArc
 50
245.113454
 51
0.0
  0
LINE
  5
1C4
100
AcDbEntity
  8
2
370
    50
100
AcDbLine
 10
146.833982
 20
-42.943013
 30
0.0
 11
181.233982
 21
-42.943013
 31
0.0
  0
LINE
  5
1C5
100
AcDbEntity
  8
2
370
    50
100
AcDbLine
 10
146.533982
 20
-43.243013
 30
0.0
 11
146.533982
 21
-53.643014
 31
0.0
  0
LINE
  5
1C6
100
AcDbEntity
  8
2
370
    50
100
AcDbLine
 10
181.533982
 20
-43.243013
 30
0.0
 11
181.533982
 21
-53.643014
 31
0.0
  0
LINE
  5
1C7
100
AcDbEntity
  8
2
370
    50
100
AcDbLine
 10
181.533982
 20
-53.643014
 30
0.0
 11
181.233982
 21
-53.943014
 31
0.0
  0
LINE
  5
1C8
100
AcDbEntity
  8
2
370
    50
100
AcDbLine
 10
181.233982
 20
-42.943013
 30
0.0
 11
181.533982
 21
-43.243013
 31
0.0
  0
LINE
  5
1C9
100
AcDbEntity
  8
2
370
    50
100
AcDbLine
 10
146.833982
 20
-42.943013
 30
0.0
 11
146.533982
 21
-43.243013
 31
0.0
  0
LINE
  5
1CA
100
AcDbEntity
  8
2
370
    50
100
AcDbLine
 10
146.533982
 20
-53.643014
 30
0.0
 11
146.833982
 21
-53.943014
 31
0.0
  0
LINE
  5
1CB
100
AcDbEntity
  8
2
370
    50
100
AcDbLine
 10
181.533982
 20
-43.243013
 30
0.0
 11
146.533982
 21
-43.243013
 31
0.0
  0
LINE
  5
1CC
100
AcDbEntity
  8
2
370
    50
100
AcDbLine
 10
181.533982
 20
-53.643014
 30
0.0
 11
146.533982
 21
-53.643014
 31
0.0
  0
LINE
  5
1CD
100
AcDbEntity
  8
2
370
    50
100
AcDbLine
 10
-371.214362
 20
-42.943015
 30
0.0
 11
-336.814362
 21
-42.943015
 31
0.0
  0
LINE
  5
1CE
100
AcDbEntity
  8
2
370
    50
100
AcDbLine
 10
-371.514362
 20
-43.243015
 30
0.0
 11
-371.514362
 21
-53.643015
 31
0.0
  0
LINE
  5
1CF
100
AcDbEntity
  8
2
370
    50
100
AcDbLine
 10
-336.514362
 20
-43.243015
 30
0.0
 11
-336.514362
 21
-53.643015
 31
0.0
  0
LINE
  5
1D0
100
AcDbEntity
  8
2
370
    50
100
AcDbLine
 10
-336.514362
 20
-53.643015
 30
0.0
 11
-336.814362
 21
-53.943015
 31
0.0
  0
LINE
  5
1D1
100
AcDbEntity
  8
2
370
    50
100
AcDbLine
 10
-336.814362
 20
-42.943015
 30
0.0
 11
-336.514362
 21
-43.243015
 31
0.0
  0
LINE
  5
1D2
100
AcDbEntity
  8
2
370
    50
100
AcDbLine
 10
-371.214362
 20
-42.943015
 30
0.0
 11
-371.514362
 21
-43.243015
 31
0.0
  0
LINE
  5
1D3
100
AcDbEntity
  8
2
370
    50
100
AcDbLine
 10
-371.514362
 20
-53.643015
 30
0.0
 11
-371.214362
 21
-53.943015
 31
0.0
  0
LINE
  5
1D4
100
AcDbEntity
  8
2
370
    50
100
AcDbLine
 10
-336.514362
 20
-43.243015
 30
0.0
 11
-371.514362
 21
-43.243015
 31
0.0
  0
LINE
  5
1D5
100
AcDbEntity
  8
2
370
    50
100
AcDbLine
 10
-336.514362
 20
-53.643015
 30
0.0
 11
-371.514362
 21
-53.643015
 31
0.0
  0
LINE
  5
1D6
100
AcDbEntity
  8
2
370
    50
100
AcDbLine
 10
-378.514492
 20
-193.254829
 30
0.0
 11
-378.514492
 21
-197.254829
 31
0.0
  0
LINE
  5
1D7
100
AcDbEntity
  8
2
370
    50
100
AcDbLine
 10
-329.514492
 20
-193.254829
 30
0.0
 11
-329.514492
 21
-197.254829
 31
0.0
  0
LINE
  5
1D8
100
AcDbEntity
  8
2
370
    50
100
AcDbLine
 10
-378.514492
 20
-193.254829
 30
0.0
 11
-368.51436
 21
-193.254829
 31
0.0
  0
LINE
  5
1D9
100
AcDbEntity
  8
2
370
    50
100
AcDbLine
 10
-354.592779
 20
-193.254829
 30
0.0
 11
-353.435942
 21
-193.254829
 31
0.0
  0
LINE
  5
1DA
100
AcDbEntity
  8
2
370
    50
100
AcDbLine
 10
-339.51436
 20
-193.254829
 30
0.0
 11
-329.514492
 21
-193.254829
 31
0.0
  0
LINE
  5
1DB
100
AcDbEntity
  8
2
370
    50
100
AcDbLine
 10
-339.51436
 20
-197.254829
 30
0.0
 11
-329.514492
 21
-197.254829
 31
0.0
  0
LINE
  5
1DC
100
AcDbEntity
  8
2
370
    50
100
AcDbLine
 10
-378.514492
 20
-197.254829
 30
0.0
 11
-368.51436
 21
-197.254829
 31
0.0
  0
LINE
  5
1DD
100
AcDbEntity
  8
2
370
    50
100
AcDbLine
 10
-353.49167
 20
-197.254829
 30
0.0
 11
-354.537051
 21
-197.254829
 31
0.0
  0
LINE
  5
1DE
100
AcDbEntity
  8
2
370
    25
  6
CENTER
100
AcDbLine
 10
-346.51436
 20
-265.387796
 30
0.0
 11
-296.51436
 21
-193.921964
 31
0.0
  0
LINE
  5
1DF
100
AcDbEntity
  8
2
370
    25
  6
CENTER
100
AcDbLine
 10
-361.51436
 20
-265.387796
 30
0.0
 11
-411.51436
 21
-193.921964
 31
0.0
  0
LINE
  5
1E0
100
AcDbEntity
  8
2
370
    25
  6
CENTER
100
AcDbLine
 10
-346.51436
 20
-164.47002
 30
0.0
 11
-346.51436
 21
-265.387796
 31
0.0
  0
LINE
  5
1E1
100
AcDbEntity
  8
2
370
    25
  6
CENTER
100
AcDbLine
 10
-361.51436
 20
-164.47002
 30
0.0
 11
-361.51436
 21
-265.387796
 31
0.0
  0
LINE
  5
1E2
100
AcDbEntity
  8
2
370
    50
100
AcDbLine
 10
-360.513914
 20
-267.254829
 30
0.0
 11
-347.514807
 21
-267.254829
 31
0.0
  0
LINE
  5
1E3
100
AcDbEntity
  8
2
370
    50
100
AcDbLine
 10
-354.51436
 20
-202.254829
 30
0.0
 11
-353.51436
 21
-202.254829
 31
0.0
  0
LINE
  5
1E4
100
AcDbEntity
  8
2
370
    50
100
AcDbLine
 10
-361.519914
 20
-266.248829
 30
0.0
 11
-361.519914
 21
-242.087677
 31
0.0
  0
LINE
  5
1E5
100
AcDbEntity
  8
2
370
    50
100
AcDbLine
 10
-346.508807
 20
-266.248829
 30
0.0
 11
-346.508807
 21
-242.07859
 31
0.0
  0
LINE
  5
1E6
100
AcDbEntity
  8
2
370
    50
100
AcDbLine
 10
-346.508807
 20
-266.248829
 30
0.0
 11
-347.514807
 21
-267.254829
 31
0.0
  0
LINE
  5
1E7
100
AcDbEntity
  8
2
370
    50
100
AcDbLine
 10
-361.519914
 20
-266.248829
 30
0.0
 11
-360.513914
 21
-267.254829
 31
0.0
  0
LINE
  5
1E8
100
AcDbEntity
  8
2
370
    50
100
AcDbLine
 10
-350.261584
 20
-266.248829
 30
0.0
 11
-350.261584
 21
-243.132721
 31
0.0
  0
ARC
  5
1E9
100
AcDbEntity
  8
2
370
    50
100
AcDbCircle
 10
-354.01436
 20
-259.75216
 30
0.0
 40
7.502669
100
AcDbArc
 50
239.98728
 51
300.01272
  0
ARC
  5
1EA
100
AcDbEntity
  8
2
370
    50
100
AcDbCircle
 10
-348.420771
 20
-265.067638
 30
0.0
 40
2.187191
100
AcDbArc
 50
212.68699
 51
315.0
  0
LINE
  5
1EB
100
AcDbEntity
  8
2
370
    25
100
AcDbLine
 10
-353.216728
 20
-197.754829
 30
0.0
 11
-354.811993
 21
-197.754829
 31
0.0
  0
LINE
  5
1EC
100
AcDbEntity
  8
2
370
    50
100
AcDbLine
 10
-357.767137
 20
-266.248829
 30
0.0
 11
-357.767137
 21
-241.033646
 31
0.0
  0
ARC
  5
1ED
100
AcDbEntity
  8
2
370
    50
100
AcDbCircle
 10
-359.60795
 20
-265.067638
 30
0.0
 40
2.187191
100
AcDbArc
 50
225.0
 51
327.31301
  0
ARC
  5
1EE
100
AcDbEntity
  8
2
370
    50
100
AcDbCircle
 10
-302.31436
 20
-259.724077
 30
0.0
 40
0.2
100
AcDbArc
 50
180.0
 51
270.0
  0
ARC
  5
1EF
100
AcDbEntity
  8
2
370
    50
100
AcDbCircle
 10
-290.71436
 20
-259.724077
 30
0.0
 40
0.2
100
AcDbArc
 50
270.0
 51
360.0
  0
LINE
  5
1F0
100
AcDbEntity
  8
2
370
    50
100
AcDbLine
 10
-289.51436
 20
-259.924077
 30
0.0
 11
-303.51436
 21
-259.924077
 31
0.0
  0
LINE
  5
1F1
100
AcDbEntity
  8
2
370
    50
100
AcDbLine
 10
-289.01436
 20
-260.424077
 30
0.0
 11
-289.51436
 21
-259.924077
 31
0.0
  0
LINE
  5
1F2
100
AcDbEntity
  8
2
370
    25
100
AcDbLine
 10
-290.0145
 20
-273.723455
 30
0.0
 11
-290.0145
 21
-270.723455
 31
0.0
  0
LINE
  5
1F3
100
AcDbEntity
  8
2
370
    50
100
AcDbLine
 10
-287.61436
 20
-265.324712
 30
0.0
 11
-287.61436
 21
-267.724712
 31
0.0
  0
LINE
  5
1F4
100
AcDbEntity
  8
2
370
    50
100
AcDbLine
 10
-287.81436
 20
-265.124712
 30
0.0
 11
-287.61436
 21
-265.324712
 31
0.0
  0
LINE
  5
1F5
100
AcDbEntity
  8
2
370
    50
100
AcDbLine
 10
-287.81436
 20
-267.924712
 30
0.0
 11
-287.61436
 21
-267.724712
 31
0.0
  0
LINE
  5
1F6
100
AcDbEntity
  8
2
370
    50
100
AcDbLine
 10
-289.01436
 20
-265.124712
 30
0.0
 11
-289.01436
 21
-264.723455
 31
0.0
  0
LINE
  5
1F7
100
AcDbEntity
  8
2
370
    50
100
AcDbLine
 10
-289.01436
 20
-260.424077
 30
0.0
 11
-289.01436
 21
-261.723455
 31
0.0
  0
LINE
  5
1F8
100
AcDbEntity
  8
2
370
    50
100
AcDbLine
 10
-305.41436
 20
-265.324077
 30
0.0
 11
-305.41436
 21
-267.724077
 31
0.0
  0
LINE
  5
1F9
100
AcDbEntity
  8
2
370
    50
100
AcDbLine
 10
-287.61436
 20
-265.324077
 30
0.0
 11
-287.61436
 21
-267.724077
 31
0.0
  0
LINE
  5
1FA
100
AcDbEntity
  8
2
370
    50
100
AcDbLine
 10
-287.81436
 20
-265.124077
 30
0.0
 11
-287.61436
 21
-265.324077
 31
0.0
  0
LINE
  5
1FB
100
AcDbEntity
  8
2
370
    50
100
AcDbLine
 10
-305.21436
 20
-265.124077
 30
0.0
 11
-305.41436
 21
-265.324077
 31
0.0
  0
LINE
  5
1FC
100
AcDbEntity
  8
2
370
    50
100
AcDbLine
 10
-305.21436
 20
-267.924077
 30
0.0
 11
-305.41436
 21
-267.724077
 31
0.0
  0
LINE
  5
1FD
100
AcDbEntity
  8
2
370
    50
100
AcDbLine
 10
-305.51436
 20
-273.724077
 30
0.0
 11
-287.51436
 21
-273.724077
 31
0.0
  0
LINE
  5
1FE
100
AcDbEntity
  8
2
370
    50
100
AcDbLine
 10
-304.81436
 20
-261.724077
 30
0.0
 11
-288.21436
 21
-261.724077
 31
0.0
  0
LINE
  5
1FF
100
AcDbEntity
  8
2
370
    50
100
AcDbLine
 10
-292.51436
 20
-262.724077
 30
0.0
 11
-292.51436
 21
-272.724077
 31
0.0
  0
LINE
  5
200
100
AcDbEntity
  8
2
370
    50
100
AcDbLine
 10
-300.51436
 20
-262.724077
 30
0.0
 11
-300.51436
 21
-272.724077
 31
0.0
  0
ARC
  5
201
100
AcDbEntity
  8
2
370
    50
100
AcDbCircle
 10
-283.01436
 20
-260.724077
 30
0.0
 40
1.0
100
AcDbArc
 50
0.0
 51
90.0
  0
ARC
  5
202
100
AcDbEntity
  8
2
370
    50
100
AcDbCircle
 10
-283.01436
 20
-272.724077
 30
0.0
 40
1.0
100
AcDbArc
 50
270.0
 51
360.0
  0
LINE
  5
203
100
AcDbEntity
  8
2
370
    50
100
AcDbLine
 10
-283.01436
 20
-259.724077
 30
0.0
 11
-290.51436
 21
-259.724077
 31
0.0
  0
LINE
  5
204
100
AcDbEntity
  8
2
370
    50
100
AcDbLine
 10
-302.51436
 20
-259.724077
 30
0.0
 11
-310.01436
 21
-259.724077
 31
0.0
  0
LINE
  5
205
100
AcDbEntity
  8
2
370
    50
100
AcDbLine
 10
-283.01436
 20
-273.724077
 30
0.0
 11
-289.01436
 21
-273.724077
 31
0.0
  0
LINE
  5
206
100
AcDbEntity
  8
2
370
    50
100
AcDbLine
 10
-304.81436
 20
-273.724077
 30
0.0
 11
-310.01436
 21
-273.724077
 31
0.0
  0
LINE
  5
207
100
AcDbEntity
  8
2
370
    50
100
AcDbLine
 10
-304.81436
 20
-264.724077
 30
0.0
 11
-300.51436
 21
-264.724077
 31
0.0
  0
LINE
  5
208
100
AcDbEntity
  8
2
370
    50
100
AcDbLine
 10
-292.51436
 20
-264.724077
 30
0.0
 11
-288.21436
 21
-264.724077
 31
0.0
  0
LINE
  5
209
100
AcDbEntity
  8
2
370
    50
100
AcDbLine
 10
-305.21436
 20
-265.124077
 30
0.0
 11
-300.51436
 21
-265.124077
 31
0.0
  0
LINE
  5
20A
100
AcDbEntity
  8
2
370
    50
100
AcDbLine
 10
-292.51436
 20
-265.124077
 30
0.0
 11
-287.81436
 21
-265.124077
 31
0.0
  0
LINE
  5
20B
100
AcDbEntity
  8
2
370
    50
100
AcDbLine
 10
-305.41436
 20
-265.324077
 30
0.0
 11
-300.51436
 21
-265.324077
 31
0.0
  0
LINE
  5
20C
100
AcDbEntity
  8
2
370
    50
100
AcDbLine
 10
-292.51436
 20
-265.324077
 30
0.0
 11
-287.61436
 21
-265.324077
 31
0.0
  0
LINE
  5
20D
100
AcDbEntity
  8
2
370
    50
100
AcDbLine
 10
-305.41436
 20
-267.724077
 30
0.0
 11
-300.51436
 21
-267.724077
 31
0.0
  0
LINE
  5
20E
100
AcDbEntity
  8
2
370
    50
100
AcDbLine
 10
-292.51436
 20
-267.724077
 30
0.0
 11
-287.61436
 21
-267.724077
 31
0.0
  0
LINE
  5
20F
100
AcDbEntity
  8
2
370
    50
100
AcDbLine
 10
-304.81436
 20
-270.724077
 30
0.0
 11
-300.51436
 21
-270.724077
 31
0.0
  0
LINE
  5
210
100
AcDbEntity
  8
2
370
    50
100
AcDbLine
 10
-292.51436
 20
-270.724077
 30
0.0
 11
-288.21436
 21
-270.724077
 31
0.0
  0
ARC
  5
211
100
AcDbEntity
  8
2
370
    50
100
AcDbCircle
 10
-299.51436
 20
-262.724077
 30
0.0
 40
1.0
100
AcDbArc
 50
90.0
 51
180.0
  0
ARC
  5
212
100
AcDbEntity
  8
2
370
    50
100
AcDbCircle
 10
-293.51436
 20
-262.724077
 30
0.0
 40
1.0
100
AcDbArc
 50
0.0
 51
90.0
  0
ARC
  5
213
100
AcDbEntity
  8
2
370
    50
100
AcDbCircle
 10
-293.51436
 20
-272.724077
 30
0.0
 40
1.0
100
AcDbArc
 50
270.0
 51
0.0
  0
ARC
  5
214
100
AcDbEntity
  8
2
370
    50
100
AcDbCircle
 10
-299.51436
 20
-272.724077
 30
0.0
 40
1.0
100
AcDbArc
 50
180.0
 51
270.0
  0
LINE
  5
215
100
AcDbEntity
  8
2
370
    50
100
AcDbLine
 10
-288.21436
 20
-261.724077
 30
0.0
 11
-288.21436
 21
-264.724077
 31
0.0
  0
LINE
  5
216
100
AcDbEntity
  8
2
370
    50
100
AcDbLine
 10
-304.81436
 20
-261.724077
 30
0.0
 11
-304.81436
 21
-264.724077
 31
0.0
  0
LINE
  5
217
100
AcDbEntity
  8
2
370
    50
100
AcDbLine
 10
-304.81436
 20
-270.724077
 30
0.0
 11
-304.81436
 21
-273.724077
 31
0.0
  0
LINE
  5
218
100
AcDbEntity
  8
2
370
    50
100
AcDbLine
 10
-288.21436
 20
-270.724077
 30
0.0
 11
-288.21436
 21
-273.724077
 31
0.0
  0
LINE
  5
219
100
AcDbEntity
  8
2
370
    50
100
AcDbLine
 10
-289.01436
 20
-265.124077
 30
0.0
 11
-289.01436
 21
-264.724077
 31
0.0
  0
LINE
  5
21A
100
AcDbEntity
  8
2
370
    50
100
AcDbLine
 10
-304.01436
 20
-265.124077
 30
0.0
 11
-304.01436
 21
-264.724077
 31
0.0
  0
LINE
  5
21B
100
AcDbEntity
  8
2
370
    25
100
AcDbLine
 10
-291.51436
 20
-273.42466
 30
0.0
 11
-291.51436
 21
-271.119438
 31
0.0
  0
LINE
  5
21C
100
AcDbEntity
  8
2
370
    25
100
AcDbLine
 10
-291.51436
 20
-264.462891
 30
0.0
 11
-291.51436
 21
-262.030686
 31
0.0
  0
LINE
  5
21D
100
AcDbEntity
  8
2
370
    25
100
AcDbLine
 10
-301.51436
 20
-273.42466
 30
0.0
 11
-301.51436
 21
-271.119438
 31
0.0
  0
LINE
  5
21E
100
AcDbEntity
  8
2
370
    25
100
AcDbLine
 10
-301.51436
 20
-264.420212
 30
0.0
 11
-301.51436
 21
-261.951165
 31
0.0
  0
LINE
  5
21F
100
AcDbEntity
  8
2
370
    50
100
AcDbLine
 10
-287.71436
 20
-272.724077
 30
0.0
 11
-287.71436
 21
-270.124077
 31
0.0
  0
LINE
  5
220
100
AcDbEntity
  8
2
370
    50
100
AcDbLine
 10
-287.71436
 20
-265.224077
 30
0.0
 11
-287.71436
 21
-260.724077
 31
0.0
  0
LINE
  5
221
100
AcDbEntity
  8
2
370
    50
100
AcDbLine
 10
-305.31436
 20
-272.724077
 30
0.0
 11
-305.31436
 21
-270.124077
 31
0.0
  0
LINE
  5
222
100
AcDbEntity
  8
2
370
    50
100
AcDbLine
 10
-305.31436
 20
-265.224077
 30
0.0
 11
-305.31436
 21
-260.724077
 31
0.0
  0
ARC
  5
223
100
AcDbEntity
  8
2
370
    50
100
AcDbCircle
 10
-288.71436
 20
-260.724077
 30
0.0
 40
1.0
100
AcDbArc
 50
0.0
 51
90.0
  0
ARC
  5
224
100
AcDbEntity
  8
2
370
    50
100
AcDbCircle
 10
-304.31436
 20
-260.724077
 30
0.0
 40
1.0
100
AcDbArc
 50
90.0
 51
180.0
  0
ARC
  5
225
100
AcDbEntity
  8
2
370
    50
100
AcDbCircle
 10
-286.71436
 20
-272.724077
 30
0.0
 40
1.0
100
AcDbArc
 50
180.0
 51
270.0
  0
ARC
  5
226
100
AcDbEntity
  8
2
370
    50
100
AcDbCircle
 10
-306.31436
 20
-272.724077
 30
0.0
 40
1.0
100
AcDbArc
 50
270.0
 51
360.0
  0
LINE
  5
227
100
AcDbEntity
  8
2
370
    50
100
AcDbLine
 10
-304.01436
 20
-260.424077
 30
0.0
 11
-304.01436
 21
-261.723455
 31
0.0
  0
ARC
  5
228
100
AcDbEntity
  8
2
370
    50
100
AcDbCircle
 10
-304.31436
 20
-260.724077
 30
0.0
 40
1.0
100
AcDbArc
 50
90.0
 51
180.0
  0
LINE
  5
229
100
AcDbEntity
  8
2
370
    50
100
AcDbLine
 10
-304.01436
 20
-260.424077
 30
0.0
 11
-303.51436
 21
-259.924077
 31
0.0
  0
LINE
  5
22A
100
AcDbEntity
  8
2
370
    50
100
AcDbLine
 10
-305.51436
 20
-268.124077
 30
0.0
 11
-305.51436
 21
-269.924077
 31
0.0
  0
LINE
  5
22B
100
AcDbEntity
  8
2
370
    50
100
AcDbLine
 10
-287.51436
 20
-268.124077
 30
0.0
 11
-287.51436
 21
-269.924077
 31
0.0
  0
LINE
  5
22C
100
AcDbEntity
  8
2
370
    50
100
AcDbLine
 10
-305.31436
 20
-267.924077
 30
0.0
 11
-305.51436
 21
-268.124077
 31
0.0
  0
LINE
  5
22D
100
AcDbEntity
  8
2
370
    50
100
AcDbLine
 10
-305.51436
 20
-269.924077
 30
0.0
 11
-305.31436
 21
-270.124077
 31
0.0
  0
LINE
  5
22E
100
AcDbEntity
  8
2
370
    50
100
AcDbLine
 10
-287.71436
 20
-267.924077
 30
0.0
 11
-287.51436
 21
-268.124077
 31
0.0
  0
LINE
  5
22F
100
AcDbEntity
  8
2
370
    50
100
AcDbLine
 10
-287.51436
 20
-269.924077
 30
0.0
 11
-287.71436
 21
-270.124077
 31
0.0
  0
LINE
  5
230
100
AcDbEntity
  8
2
370
    50
100
AcDbLine
 10
-289.01436
 20
-274.124077
 30
0.0
 11
-289.01436
 21
-273.724077
 31
0.0
  0
LINE
  5
231
100
AcDbEntity
  8
2
370
    50
100
AcDbLine
 10
-289.01436
 20
-270.724077
 30
0.0
 11
-289.01436
 21
-270.124077
 31
0.0
  0
LINE
  5
232
100
AcDbEntity
  8
2
370
    50
100
AcDbLine
 10
-304.01436
 20
-274.124077
 30
0.0
 11
-304.01436
 21
-273.724077
 31
0.0
  0
LINE
  5
233
100
AcDbEntity
  8
2
370
    50
100
AcDbLine
 10
-304.01436
 20
-270.724077
 30
0.0
 11
-304.01436
 21
-270.124077
 31
0.0
  0
LINE
  5
234
100
AcDbEntity
  8
2
370
    50
100
AcDbLine
 10
-305.31436
 20
-270.124077
 30
0.0
 11
-300.51436
 21
-270.124077
 31
0.0
  0
LINE
  5
235
100
AcDbEntity
  8
2
370
    50
100
AcDbLine
 10
-292.51436
 20
-270.124077
 30
0.0
 11
-287.71436
 21
-270.124077
 31
0.0
  0
LINE
  5
236
100
AcDbEntity
  8
2
370
    50
100
AcDbLine
 10
-305.51436
 20
-269.924077
 30
0.0
 11
-300.51436
 21
-269.924077
 31
0.0
  0
LINE
  5
237
100
AcDbEntity
  8
2
370
    50
100
AcDbLine
 10
-292.51436
 20
-269.924077
 30
0.0
 11
-287.51436
 21
-269.924077
 31
0.0
  0
LINE
  5
238
100
AcDbEntity
  8
2
370
    50
100
AcDbLine
 10
-305.51436
 20
-268.124077
 30
0.0
 11
-300.51436
 21
-268.124077
 31
0.0
  0
LINE
  5
239
100
AcDbEntity
  8
2
370
    50
100
AcDbLine
 10
-292.51436
 20
-268.124077
 30
0.0
 11
-287.51436
 21
-268.124077
 31
0.0
  0
LINE
  5
23A
100
AcDbEntity
  8
2
370
    50
100
AcDbLine
 10
-305.31436
 20
-267.924077
 30
0.0
 11
-300.51436
 21
-267.924077
 31
0.0
  0
LINE
  5
23B
100
AcDbEntity
  8
2
370
    50
100
AcDbLine
 10
-292.51436
 20
-267.924077
 30
0.0
 11
-287.71436
 21
-267.924077
 31
0.0
  0
LINE
  5
23C
100
AcDbEntity
  8
2
370
    25
100
AcDbLine
 10
-303.014221
 20
-273.723455
 30
0.0
 11
-303.014221
 21
-270.723455
 31
0.0
  0
LINE
  5
23D
100
AcDbEntity
  8
2
370
    25
100
AcDbLine
 10
-290.0145
 20
-264.724077
 30
0.0
 11
-290.0145
 21
-261.724077
 31
0.0
  0
LINE
  5
23E
100
AcDbEntity
  8
2
370
    25
100
AcDbLine
 10
-303.014221
 20
-264.724077
 30
0.0
 11
-303.014221
 21
-261.724077
 31
0.0
  0
LINE
  5
23F
100
AcDbEntity
  8
2
370
    50
100
AcDbLine
 10
-311.01436
 20
-260.724077
 30
0.0
 11
-311.01436
 21
-272.724077
 31
0.0
  0
ARC
  5
240
100
AcDbEntity
  8
2
370
    50
100
AcDbCircle
 10
-310.01436
 20
-260.724077
 30
0.0
 40
1.0
100
AcDbArc
 50
90.0
 51
180.0
  0
ARC
  5
241
100
AcDbEntity
  8
2
370
    50
100
AcDbCircle
 10
-310.01436
 20
-272.724077
 30
0.0
 40
1.0
100
AcDbArc
 50
180.0
 51
270.0
  0
LINE
  5
242
100
AcDbEntity
  8
2
370
    25
  6
CENTER
100
AcDbLine
 10
-296.51436
 20
-193.921964
 30
0.0
 11
-296.51436
 21
-298.654266
 31
0.0
  0
LINE
  5
243
100
AcDbEntity
  8
2
370
    50
100
AcDbLine
 10
-282.01436
 20
-260.724077
 30
0.0
 11
-282.01436
 21
-272.724077
 31
0.0
  0
LINE
  5
244
100
AcDbEntity
  8
2
370
    50
100
AcDbLine
 10
-287.514155
 20
-274.123329
 30
0.0
 11
-286.514155
 21
-275.123329
 31
0.0
  0
LINE
  5
245
100
AcDbEntity
  8
2
370
    50
100
AcDbLine
 10
-305.514155
 20
-274.123329
 30
0.0
 11
-306.514155
 21
-275.123329
 31
0.0
  0
LINE
  5
246
100
AcDbEntity
  8
2
370
    50
100
AcDbLine
 10
-305.514155
 20
-274.123329
 30
0.0
 11
-287.514155
 21
-274.123329
 31
0.0
  0
LINE
  5
247
100
AcDbEntity
  8
2
370
    50
100
AcDbLine
 10
-286.514155
 20
-275.123329
 30
0.0
 11
-306.514155
 21
-275.123329
 31
0.0
  0
LINE
  5
248
100
AcDbEntity
  8
2
370
    50
100
AcDbLine
 10
-289.014155
 20
-274.123329
 30
0.0
 11
-289.014155
 21
-273.723329
 31
0.0
  0
LINE
  5
249
100
AcDbEntity
  8
2
370
    50
100
AcDbLine
 10
-304.014155
 20
-274.123329
 30
0.0
 11
-304.014155
 21
-273.723329
 31
0.0
  0
LINE
  5
24A
100
AcDbEntity
  8
2
370
    50
100
AcDbLine
 10
-286.514155
 20
-275.123329
 30
0.0
 11
-286.514155
 21
-283.923329
 31
0.0
  0
LINE
  5
24B
100
AcDbEntity
  8
2
370
    50
100
AcDbLine
 10
-306.514155
 20
-275.123329
 30
0.0
 11
-306.514155
 21
-283.923329
 31
0.0
  0
LINE
  5
24C
100
AcDbEntity
  8
2
370
    50
100
AcDbLine
 10
-306.841022
 20
-283.923329
 30
0.0
 11
-284.514155
 21
-283.923329
 31
0.0
  0
LINE
  5
24D
100
AcDbEntity
  8
2
370
    50
100
AcDbLine
 10
-282.657748
 20
-285.779735
 30
0.0
 11
-282.657748
 21
-293.066922
 31
0.0
  0
LINE
  5
24E
100
AcDbEntity
  8
2
370
    50
100
AcDbLine
 10
-310.370561
 20
-293.066922
 30
0.0
 11
-310.370561
 21
-285.779735
 31
0.0
  0
LINE
  5
24F
100
AcDbEntity
  8
2
370
    50
100
AcDbLine
 10
-308.514155
 20
-294.923329
 30
0.0
 11
-284.514155
 21
-294.923329
 31
0.0
  0
LINE
  5
250
100
AcDbEntity
  8
2
370
    50
100
AcDbLine
 10
-289.585951
 20
-293.066922
 30
0.0
 11
-289.585951
 21
-285.779735
 31
0.0
  0
LINE
  5
251
100
AcDbEntity
  8
2
370
    50
100
AcDbLine
 10
-303.442358
 20
-293.066922
 30
0.0
 11
-303.442358
 21
-285.779735
 31
0.0
  0
LINE
  5
252
100
AcDbEntity
  8
2
370
    50
100
AcDbLine
 10
-308.514155
 20
-283.923329
 30
0.0
 11
-284.514155
 21
-283.923329
 31
0.0
  0
LINE
  5
253
100
AcDbEntity
  8
2
370
    50
100
AcDbLine
 10
-284.514155
 20
-283.923329
 30
0.0
 11
-282.657748
 21
-285.779735
 31
0.0
  0
LINE
  5
254
100
AcDbEntity
  8
2
370
    50
100
AcDbLine
 10
-308.514155
 20
-294.923329
 30
0.0
 11
-310.370561
 21
-293.066922
 31
0.0
  0
LINE
  5
255
100
AcDbEntity
  8
2
370
    50
100
AcDbLine
 10
-308.514155
 20
-283.923329
 30
0.0
 11
-310.370561
 21
-285.779735
 31
0.0
  0
LINE
  5
256
100
AcDbEntity
  8
2
370
    50
100
AcDbLine
 10
-284.514155
 20
-294.923329
 30
0.0
 11
-282.657748
 21
-293.066922
 31
0.0
  0
ARC
  5
257
100
AcDbEntity
  8
2
370
    50
100
AcDbCircle
 10
-296.514155
 20
-297.779735
 30
0.0
 40
13.856406
100
AcDbArc
 50
60.0
 51
120.0
  0
ARC
  5
258
100
AcDbEntity
  8
2
370
    50
100
AcDbCircle
 10
-296.514155
 20
-281.066922
 30
0.0
 40
13.856406
100
AcDbArc
 50
240.0
 51
300.0
  0
ARC
  5
259
100
AcDbEntity
  8
2
370
    50
100
AcDbCircle
 10
-286.187287
 20
-287.962628
 30
0.0
 40
4.039299
100
AcDbArc
 50
45.0
 51
147.288191
  0
ARC
  5
25A
100
AcDbEntity
  8
2
370
    50
100
AcDbCircle
 10
-286.187287
 20
-290.884029
 30
0.0
 40
4.039299
100
AcDbArc
 50
212.711809
 51
315.0
  0
ARC
  5
25B
100
AcDbEntity
  8
2
370
    50
100
AcDbCircle
 10
-306.841022
 20
-287.962628
 30
0.0
 40
4.039299
100
AcDbArc
 50
32.711809
 51
135.0
  0
ARC
  5
25C
100
AcDbEntity
  8
2
370
    50
100
AcDbCircle
 10
-306.841022
 20
-290.884029
 30
0.0
 40
4.039299
100
AcDbArc
 50
225.0
 51
327.288191
  0
POINT
  5
25D
100
AcDbEntity
  8
2
370
    50
100
AcDbPoint
 10
-296.51436
 20
-274.124077
 30
0.0
  0
POINT
  5
25E
100
AcDbEntity
  8
2
370
    50
100
AcDbPoint
 10
-296.514155
 20
-274.123329
 30
0.0
  0
LINE
  5
25F
100
AcDbEntity
  8
2
370
    50
100
AcDbLine
 10
-296.514107
 20
-258.923662
 30
0.0
 11
-303.11436
 21
-258.923662
 31
0.0
  0
LINE
  5
260
100
AcDbEntity
  8
2
370
    50
100
AcDbLine
 10
-296.514107
 20
-258.923662
 30
0.0
 11
-289.91436
 21
-258.923662
 31
0.0
  0
LINE
  5
261
100
AcDbEntity
  8
2
370
    50
100
AcDbLine
 10
-303.11436
 20
-229.923662
 30
0.0
 11
-296.51436
 21
-229.923662
 31
0.0
  0
LINE
  5
262
100
AcDbEntity
  8
2
370
    50
100
AcDbLine
 10
-303.11436
 20
-235.423662
 30
0.0
 11
-296.51436
 21
-235.423662
 31
0.0
  0
LINE
  5
263
100
AcDbEntity
  8
2
370
    50
100
AcDbLine
 10
-303.11436
 20
-237.423662
 30
0.0
 11
-296.51436
 21
-237.423662
 31
0.0
  0
LINE
  5
264
100
AcDbEntity
  8
2
370
    50
100
AcDbLine
 10
-303.11436
 20
-242.423662
 30
0.0
 11
-296.51436
 21
-242.423662
 31
0.0
  0
LINE
  5
265
100
AcDbEntity
  8
2
370
    50
100
AcDbLine
 10
-303.11436
 20
-244.423662
 30
0.0
 11
-296.51436
 21
-244.423662
 31
0.0
  0
LINE
  5
266
100
AcDbEntity
  8
2
370
    50
100
AcDbLine
 10
-303.11436
 20
-249.423662
 30
0.0
 11
-296.51436
 21
-249.423662
 31
0.0
  0
LINE
  5
267
100
AcDbEntity
  8
2
370
    50
100
AcDbLine
 10
-303.11436
 20
-251.423662
 30
0.0
 11
-296.51436
 21
-251.423662
 31
0.0
  0
LINE
  5
268
100
AcDbEntity
  8
2
370
    50
100
AcDbLine
 10
-303.51436
 20
-230.723662
 30
0.0
 11
-303.51436
 21
-234.623662
 31
0.0
  0
LINE
  5
269
100
AcDbEntity
  8
2
370
    50
100
AcDbLine
 10
-303.51436
 20
-238.223662
 30
0.0
 11
-303.51436
 21
-241.623662
 31
0.0
  0
LINE
  5
26A
100
AcDbEntity
  8
2
370
    50
100
AcDbLine
 10
-303.51436
 20
-245.223662
 30
0.0
 11
-303.51436
 21
-248.623662
 31
0.0
  0
LINE
  5
26B
100
AcDbEntity
  8
2
370
    50
100
AcDbLine
 10
-303.51436
 20
-252.223662
 30
0.0
 11
-303.51436
 21
-258.123662
 31
0.0
  0
LINE
  5
26C
100
AcDbEntity
  8
2
370
    50
100
AcDbLine
 10
-303.11436
 20
-249.423662
 30
0.0
 11
-303.11436
 21
-251.423662
 31
0.0
  0
LINE
  5
26D
100
AcDbEntity
  8
2
370
    50
100
AcDbLine
 10
-303.11436
 20
-235.423662
 30
0.0
 11
-303.11436
 21
-237.423662
 31
0.0
  0
LINE
  5
26E
100
AcDbEntity
  8
2
370
    50
100
AcDbLine
 10
-303.11436
 20
-242.423662
 30
0.0
 11
-303.11436
 21
-244.423662
 31
0.0
  0
ARC
  5
26F
100
AcDbEntity
  8
2
370
    50
100
AcDbCircle
 10
-302.51436
 20
-252.223662
 30
0.0
 40
1.0
100
AcDbArc
 50
126.869898
 51
180.0
  0
ARC
  5
270
100
AcDbEntity
  8
2
370
    50
100
AcDbCircle
 10
-302.51436
 20
-248.623662
 30
0.0
 40
1.0
100
AcDbArc
 50
180.0
 51
233.130102
  0
ARC
  5
271
100
AcDbEntity
  8
2
370
    50
100
AcDbCircle
 10
-302.51436
 20
-245.223662
 30
0.0
 40
1.0
100
AcDbArc
 50
126.869898
 51
180.0
  0
ARC
  5
272
100
AcDbEntity
  8
2
370
    50
100
AcDbCircle
 10
-302.51436
 20
-241.623662
 30
0.0
 40
1.0
100
AcDbArc
 50
180.0
 51
233.130102
  0
ARC
  5
273
100
AcDbEntity
  8
2
370
    50
100
AcDbCircle
 10
-302.51436
 20
-238.223662
 30
0.0
 40
1.0
100
AcDbArc
 50
126.869898
 51
180.0
  0
ARC
  5
274
100
AcDbEntity
  8
2
370
    50
100
AcDbCircle
 10
-302.51436
 20
-234.623662
 30
0.0
 40
1.0
100
AcDbArc
 50
180.0
 51
233.130102
  0
ARC
  5
275
100
AcDbEntity
  8
2
370
    50
100
AcDbCircle
 10
-302.51436
 20
-230.723662
 30
0.0
 40
1.0
100
AcDbArc
 50
126.869898
 51
180.0
  0
LINE
  5
276
100
AcDbEntity
  8
2
370
    50
100
AcDbLine
 10
-289.91436
 20
-229.923662
 30
0.0
 11
-296.51436
 21
-229.923662
 31
0.0
  0
ARC
  5
277
100
AcDbEntity
  8
2
370
    50
100
AcDbCircle
 10
-290.51436
 20
-230.723662
 30
0.0
 40
1.0
100
AcDbArc
 50
0.0
 51
53.130102
  0
LINE
  5
278
100
AcDbEntity
  8
2
370
    50
100
AcDbLine
 10
-289.51436
 20
-230.723662
 30
0.0
 11
-289.51436
 21
-234.623662
 31
0.0
  0
ARC
  5
279
100
AcDbEntity
  8
2
370
    50
100
AcDbCircle
 10
-290.51436
 20
-234.623662
 30
0.0
 40
1.0
100
AcDbArc
 50
306.869898
 51
0.0
  0
LINE
  5
27A
100
AcDbEntity
  8
2
370
    50
100
AcDbLine
 10
-289.91436
 20
-235.423662
 30
0.0
 11
-289.91436
 21
-237.423662
 31
0.0
  0
LINE
  5
27B
100
AcDbEntity
  8
2
370
    50
100
AcDbLine
 10
-289.91436
 20
-235.423662
 30
0.0
 11
-296.51436
 21
-235.423662
 31
0.0
  0
LINE
  5
27C
100
AcDbEntity
  8
2
370
    50
100
AcDbLine
 10
-289.91436
 20
-237.423662
 30
0.0
 11
-296.51436
 21
-237.423662
 31
0.0
  0
ARC
  5
27D
100
AcDbEntity
  8
2
370
    50
100
AcDbCircle
 10
-290.51436
 20
-238.223662
 30
0.0
 40
1.0
100
AcDbArc
 50
0.0
 51
53.130102
  0
LINE
  5
27E
100
AcDbEntity
  8
2
370
    50
100
AcDbLine
 10
-289.51436
 20
-238.223662
 30
0.0
 11
-289.51436
 21
-241.623662
 31
0.0
  0
ARC
  5
27F
100
AcDbEntity
  8
2
370
    50
100
AcDbCircle
 10
-290.51436
 20
-241.623662
 30
0.0
 40
1.0
100
AcDbArc
 50
306.869898
 51
0.0
  0
LINE
  5
280
100
AcDbEntity
  8
2
370
    50
100
AcDbLine
 10
-289.91436
 20
-242.423662
 30
0.0
 11
-296.51436
 21
-242.423662
 31
0.0
  0
LINE
  5
281
100
AcDbEntity
  8
2
370
    50
100
AcDbLine
 10
-289.91436
 20
-242.423662
 30
0.0
 11
-289.91436
 21
-244.423662
 31
0.0
  0
LINE
  5
282
100
AcDbEntity
  8
2
370
    50
100
AcDbLine
 10
-289.91436
 20
-244.423662
 30
0.0
 11
-296.51436
 21
-244.423662
 31
0.0
  0
ARC
  5
283
100
AcDbEntity
  8
2
370
    50
100
AcDbCircle
 10
-290.51436
 20
-245.223662
 30
0.0
 40
1.0
100
AcDbArc
 50
0.0
 51
53.130102
  0
LINE
  5
284
100
AcDbEntity
  8
2
370
    50
100
AcDbLine
 10
-289.51436
 20
-245.223662
 30
0.0
 11
-289.51436
 21
-248.623662
 31
0.0
  0
ARC
  5
285
100
AcDbEntity
  8
2
370
    50
100
AcDbCircle
 10
-290.51436
 20
-248.623662
 30
0.0
 40
1.0
100
AcDbArc
 50
306.869898
 51
0.0
  0
LINE
  5
286
100
AcDbEntity
  8
2
370
    50
100
AcDbLine
 10
-289.91436
 20
-249.423662
 30
0.0
 11
-296.51436
 21
-249.423662
 31
0.0
  0
LINE
  5
287
100
AcDbEntity
  8
2
370
    50
100
AcDbLine
 10
-289.91436
 20
-249.423662
 30
0.0
 11
-289.91436
 21
-251.423662
 31
0.0
  0
LINE
  5
288
100
AcDbEntity
  8
2
370
    50
100
AcDbLine
 10
-289.91436
 20
-251.423662
 30
0.0
 11
-296.51436
 21
-251.423662
 31
0.0
  0
ARC
  5
289
100
AcDbEntity
  8
2
370
    50
100
AcDbCircle
 10
-290.51436
 20
-252.223662
 30
0.0
 40
1.0
100
AcDbArc
 50
0.0
 51
53.130102
  0
LINE
  5
28A
100
AcDbEntity
  8
2
370
    50
100
AcDbLine
 10
-289.51436
 20
-252.223662
 30
0.0
 11
-289.51436
 21
-258.123662
 31
0.0
  0
ARC
  5
28B
100
AcDbEntity
  8
2
370
    50
100
AcDbCircle
 10
-302.51436
 20
-258.123662
 30
0.0
 40
1.0
100
AcDbArc
 50
180.0
 51
233.130102
  0
ARC
  5
28C
100
AcDbEntity
  8
2
370
    50
100
AcDbCircle
 10
-290.51436
 20
-258.123662
 30
0.0
 40
1.0
100
AcDbArc
 50
306.869898
 51
0.0
  0
LINE
  5
28D
100
AcDbEntity
  8
2
370
    50
100
AcDbLine
 10
-302.76436
 20
-259.923662
 30
0.0
 11
-302.76436
 21
-258.923662
 31
0.0
  0
LINE
  5
28E
100
AcDbEntity
  8
2
370
    50
100
AcDbLine
 10
-290.26436
 20
-259.923662
 30
0.0
 11
-290.26436
 21
-258.923662
 31
0.0
  0
ARC
  5
28F
100
AcDbEntity
  8
2
370
    50
100
AcDbCircle
 10
-299.73936
 20
-207.112846
 30
0.0
 40
5.375
100
AcDbArc
 50
233.130102
 51
306.869898
  0
ARC
  5
290
100
AcDbEntity
  8
2
370
    50
100
AcDbCircle
 10
-293.28936
 20
-215.712846
 30
0.0
 40
5.375
100
AcDbArc
 50
53.130102
 51
126.869898
  0
ARC
  5
291
100
AcDbEntity
  8
2
370
    50
100
AcDbCircle
 10
-293.28936
 20
-207.112846
 30
0.0
 40
5.375
100
AcDbArc
 50
233.130102
 51
306.869898
  0
LINE
  5
292
100
AcDbEntity
  8
2
370
    50
100
AcDbLine
 10
-418.11436
 20
-229.923662
 30
0.0
 11
-411.51436
 21
-229.923662
 31
0.0
  0
LINE
  5
293
100
AcDbEntity
  8
2
370
    50
100
AcDbLine
 10
-418.11436
 20
-235.423662
 30
0.0
 11
-411.51436
 21
-235.423662
 31
0.0
  0
LINE
  5
294
100
AcDbEntity
  8
2
370
    50
100
AcDbLine
 10
-418.11436
 20
-237.423662
 30
0.0
 11
-411.51436
 21
-237.423662
 31
0.0
  0
LINE
  5
295
100
AcDbEntity
  8
2
370
    50
100
AcDbLine
 10
-418.11436
 20
-242.423662
 30
0.0
 11
-411.51436
 21
-242.423662
 31
0.0
  0
LINE
  5
296
100
AcDbEntity
  8
2
370
    50
100
AcDbLine
 10
-418.11436
 20
-244.423662
 30
0.0
 11
-411.51436
 21
-244.423662
 31
0.0
  0
LINE
  5
297
100
AcDbEntity
  8
2
370
    50
100
AcDbLine
 10
-418.11436
 20
-249.423662
 30
0.0
 11
-411.51436
 21
-249.423662
 31
0.0
  0
LINE
  5
298
100
AcDbEntity
  8
2
370
    50
100
AcDbLine
 10
-418.11436
 20
-251.423662
 30
0.0
 11
-411.51436
 21
-251.423662
 31
0.0
  0
LINE
  5
299
100
AcDbEntity
  8
2
370
    50
100
AcDbLine
 10
-404.91436
 20
-229.923662
 30
0.0
 11
-411.51436
 21
-229.923662
 31
0.0
  0
ARC
  5
29A
100
AcDbEntity
  8
2
370
    50
100
AcDbCircle
 10
-405.51436
 20
-230.723662
 30
0.0
 40
1.0
100
AcDbArc
 50
0.0
 51
53.130102
  0
LINE
  5
29B
100
AcDbEntity
  8
2
370
    50
100
AcDbLine
 10
-404.51436
 20
-230.723662
 30
0.0
 11
-404.51436
 21
-234.623662
 31
0.0
  0
ARC
  5
29C
100
AcDbEntity
  8
2
370
    50
100
AcDbCircle
 10
-405.51436
 20
-234.623662
 30
0.0
 40
1.0
100
AcDbArc
 50
306.869898
 51
0.0
  0
LINE
  5
29D
100
AcDbEntity
  8
2
370
    50
100
AcDbLine
 10
-404.91436
 20
-235.423662
 30
0.0
 11
-404.91436
 21
-237.423662
 31
0.0
  0
LINE
  5
29E
100
AcDbEntity
  8
2
370
    50
100
AcDbLine
 10
-404.91436
 20
-235.423662
 30
0.0
 11
-411.51436
 21
-235.423662
 31
0.0
  0
LINE
  5
29F
100
AcDbEntity
  8
2
370
    50
100
AcDbLine
 10
-404.91436
 20
-237.423662
 30
0.0
 11
-411.51436
 21
-237.423662
 31
0.0
  0
ARC
  5
2A0
100
AcDbEntity
  8
2
370
    50
100
AcDbCircle
 10
-405.51436
 20
-238.223662
 30
0.0
 40
1.0
100
AcDbArc
 50
0.0
 51
53.130102
  0
LINE
  5
2A1
100
AcDbEntity
  8
2
370
    50
100
AcDbLine
 10
-404.51436
 20
-238.223662
 30
0.0
 11
-404.51436
 21
-241.623662
 31
0.0
  0
ARC
  5
2A2
100
AcDbEntity
  8
2
370
    50
100
AcDbCircle
 10
-405.51436
 20
-241.623662
 30
0.0
 40
1.0
100
AcDbArc
 50
306.869898
 51
0.0
  0
LINE
  5
2A3
100
AcDbEntity
  8
2
370
    50
100
AcDbLine
 10
-404.91436
 20
-242.423662
 30
0.0
 11
-411.51436
 21
-242.423662
 31
0.0
  0
LINE
  5
2A4
100
AcDbEntity
  8
2
370
    50
100
AcDbLine
 10
-404.91436
 20
-242.423662
 30
0.0
 11
-404.91436
 21
-244.423662
 31
0.0
  0
LINE
  5
2A5
100
AcDbEntity
  8
2
370
    50
100
AcDbLine
 10
-404.91436
 20
-244.423662
 30
0.0
 11
-411.51436
 21
-244.423662
 31
0.0
  0
ARC
  5
2A6
100
AcDbEntity
  8
2
370
    50
100
AcDbCircle
 10
-405.51436
 20
-245.223662
 30
0.0
 40
1.0
100
AcDbArc
 50
0.0
 51
53.130102
  0
LINE
  5
2A7
100
AcDbEntity
  8
2
370
    50
100
AcDbLine
 10
-404.51436
 20
-245.223662
 30
0.0
 11
-404.51436
 21
-248.623662
 31
0.0
  0
ARC
  5
2A8
100
AcDbEntity
  8
2
370
    50
100
AcDbCircle
 10
-405.51436
 20
-248.623662
 30
0.0
 40
1.0
100
AcDbArc
 50
306.869898
 51
0.0
  0
LINE
  5
2A9
100
AcDbEntity
  8
2
370
    50
100
AcDbLine
 10
-404.91436
 20
-249.423662
 30
0.0
 11
-411.51436
 21
-249.423662
 31
0.0
  0
LINE
  5
2AA
100
AcDbEntity
  8
2
370
    50
100
AcDbLine
 10
-404.91436
 20
-249.423662
 30
0.0
 11
-404.91436
 21
-251.423662
 31
0.0
  0
LINE
  5
2AB
100
AcDbEntity
  8
2
370
    50
100
AcDbLine
 10
-404.91436
 20
-251.423662
 30
0.0
 11
-411.51436
 21
-251.423662
 31
0.0
  0
ARC
  5
2AC
100
AcDbEntity
  8
2
370
    50
100
AcDbCircle
 10
-405.51436
 20
-252.223662
 30
0.0
 40
1.0
100
AcDbArc
 50
0.0
 51
53.130102
  0
LINE
  5
2AD
100
AcDbEntity
  8
2
370
    50
100
AcDbLine
 10
-404.51436
 20
-252.223662
 30
0.0
 11
-404.51436
 21
-258.123662
 31
0.0
  0
LINE
  5
2AE
100
AcDbEntity
  8
2
370
    50
100
AcDbLine
 10
-405.06436
 20
-229.923662
 30
0.0
 11
-405.06436
 21
-211.412846
 31
0.0
  0
ARC
  5
2AF
100
AcDbEntity
  8
2
370
    50
100
AcDbCircle
 10
-414.73936
 20
-207.112846
 30
0.0
 40
5.375
100
AcDbArc
 50
233.130102
 51
306.869898
  0
ARC
  5
2B0
100
AcDbEntity
  8
2
370
    50
100
AcDbCircle
 10
-408.28936
 20
-215.712846
 30
0.0
 40
5.375
100
AcDbArc
 50
53.130102
 51
126.869898
  0
ARC
  5
2B1
100
AcDbEntity
  8
2
370
    50
100
AcDbCircle
 10
-408.28936
 20
-207.112846
 30
0.0
 40
5.375
100
AcDbArc
 50
233.130102
 51
306.869898
  0
ARC
  5
2B2
100
AcDbEntity
  8
2
370
    50
100
AcDbCircle
 10
-417.31436
 20
-259.724077
 30
0.0
 40
0.2
100
AcDbArc
 50
180.0
 51
270.0
  0
ARC
  5
2B3
100
AcDbEntity
  8
2
370
    50
100
AcDbCircle
 10
-405.71436
 20
-259.724077
 30
0.0
 40
0.2
100
AcDbArc
 50
270.0
 51
360.0
  0
LINE
  5
2B4
100
AcDbEntity
  8
2
370
    50
100
AcDbLine
 10
-404.51436
 20
-259.924077
 30
0.0
 11
-418.51436
 21
-259.924077
 31
0.0
  0
LINE
  5
2B5
100
AcDbEntity
  8
2
370
    50
100
AcDbLine
 10
-404.01436
 20
-260.424077
 30
0.0
 11
-404.51436
 21
-259.924077
 31
0.0
  0
ARC
  5
2B6
100
AcDbEntity
  8
2
370
    50
100
AcDbCircle
 10
-398.01436
 20
-260.724077
 30
0.0
 40
1.0
100
AcDbArc
 50
0.0
 51
90.0
  0
LINE
  5
2B7
100
AcDbEntity
  8
2
370
    50
100
AcDbLine
 10
-398.01436
 20
-259.724077
 30
0.0
 11
-405.51436
 21
-259.724077
 31
0.0
  0
LINE
  5
2B8
100
AcDbEntity
  8
2
370
    50
100
AcDbLine
 10
-417.51436
 20
-259.724077
 30
0.0
 11
-425.01436
 21
-259.724077
 31
0.0
  0
ARC
  5
2B9
100
AcDbEntity
  8
2
370
    50
100
AcDbCircle
 10
-403.71436
 20
-260.724077
 30
0.0
 40
1.0
100
AcDbArc
 50
0.0
 51
90.0
  0
ARC
  5
2BA
100
AcDbEntity
  8
2
370
    50
100
AcDbCircle
 10
-419.31436
 20
-260.724077
 30
0.0
 40
1.0
100
AcDbArc
 50
90.0
 51
180.0
  0
ARC
  5
2BB
100
AcDbEntity
  8
2
370
    50
100
AcDbCircle
 10
-419.31436
 20
-260.724077
 30
0.0
 40
1.0
100
AcDbArc
 50
90.0
 51
180.0
  0
LINE
  5
2BC
100
AcDbEntity
  8
2
370
    50
100
AcDbLine
 10
-419.01436
 20
-260.424077
 30
0.0
 11
-418.51436
 21
-259.924077
 31
0.0
  0
LINE
  5
2BD
100
AcDbEntity
  8
2
370
    50
100
AcDbLine
 10
-411.514107
 20
-258.923662
 30
0.0
 11
-418.11436
 21
-258.923662
 31
0.0
  0
LINE
  5
2BE
100
AcDbEntity
  8
2
370
    50
100
AcDbLine
 10
-411.514107
 20
-258.923662
 30
0.0
 11
-404.91436
 21
-258.923662
 31
0.0
  0
LINE
  5
2BF
100
AcDbEntity
  8
2
370
    50
100
AcDbLine
 10
-418.51436
 20
-230.723662
 30
0.0
 11
-418.51436
 21
-234.623662
 31
0.0
  0
LINE
  5
2C0
100
AcDbEntity
  8
2
370
    50
100
AcDbLine
 10
-418.51436
 20
-238.223662
 30
0.0
 11
-418.51436
 21
-241.623662
 31
0.0
  0
LINE
  5
2C1
100
AcDbEntity
  8
2
370
    50
100
AcDbLine
 10
-418.51436
 20
-245.223662
 30
0.0
 11
-418.51436
 21
-248.623662
 31
0.0
  0
LINE
  5
2C2
100
AcDbEntity
  8
2
370
    50
100
AcDbLine
 10
-418.51436
 20
-252.223662
 30
0.0
 11
-418.51436
 21
-258.123662
 31
0.0
  0
LINE
  5
2C3
100
AcDbEntity
  8
2
370
    50
100
AcDbLine
 10
-418.11436
 20
-249.423662
 30
0.0
 11
-418.11436
 21
-251.423662
 31
0.0
  0
LINE
  5
2C4
100
AcDbEntity
  8
2
370
    50
100
AcDbLine
 10
-418.11436
 20
-235.423662
 30
0.0
 11
-418.11436
 21
-237.423662
 31
0.0
  0
LINE
  5
2C5
100
AcDbEntity
  8
2
370
    50
100
AcDbLine
 10
-418.11436
 20
-242.423662
 30
0.0
 11
-418.11436
 21
-244.423662
 31
0.0
  0
ARC
  5
2C6
100
AcDbEntity
  8
2
370
    50
100
AcDbCircle
 10
-417.51436
 20
-252.223662
 30
0.0
 40
1.0
100
AcDbArc
 50
126.869898
 51
180.0
  0
ARC
  5
2C7
100
AcDbEntity
  8
2
370
    50
100
AcDbCircle
 10
-417.51436
 20
-248.623662
 30
0.0
 40
1.0
100
AcDbArc
 50
180.0
 51
233.130102
  0
ARC
  5
2C8
100
AcDbEntity
  8
2
370
    50
100
AcDbCircle
 10
-417.51436
 20
-245.223662
 30
0.0
 40
1.0
100
AcDbArc
 50
126.869898
 51
180.0
  0
ARC
  5
2C9
100
AcDbEntity
  8
2
370
    50
100
AcDbCircle
 10
-417.51436
 20
-241.623662
 30
0.0
 40
1.0
100
AcDbArc
 50
180.0
 51
233.130102
  0
ARC
  5
2CA
100
AcDbEntity
  8
2
370
    50
100
AcDbCircle
 10
-417.51436
 20
-238.223662
 30
0.0
 40
1.0
100
AcDbArc
 50
126.869898
 51
180.0
  0
ARC
  5
2CB
100
AcDbEntity
  8
2
370
    50
100
AcDbCircle
 10
-417.51436
 20
-234.623662
 30
0.0
 40
1.0
100
AcDbArc
 50
180.0
 51
233.130102
  0
ARC
  5
2CC
100
AcDbEntity
  8
2
370
    50
100
AcDbCircle
 10
-417.51436
 20
-230.723662
 30
0.0
 40
1.0
100
AcDbArc
 50
126.869898
 51
180.0
  0
ARC
  5
2CD
100
AcDbEntity
  8
2
370
    50
100
AcDbCircle
 10
-417.51436
 20
-258.123662
 30
0.0
 40
1.0
100
AcDbArc
 50
180.0
 51
233.130102
  0
ARC
  5
2CE
100
AcDbEntity
  8
2
370
    50
100
AcDbCircle
 10
-405.51436
 20
-258.123662
 30
0.0
 40
1.0
100
AcDbArc
 50
306.869898
 51
0.0
  0
LINE
  5
2CF
100
AcDbEntity
  8
2
370
    50
100
AcDbLine
 10
-417.96436
 20
-229.923662
 30
0.0
 11
-417.96436
 21
-211.412846
 31
0.0
  0
LINE
  5
2D0
100
AcDbEntity
  8
2
370
    50
100
AcDbLine
 10
-417.76436
 20
-259.923662
 30
0.0
 11
-417.76436
 21
-258.923662
 31
0.0
  0
LINE
  5
2D1
100
AcDbEntity
  8
2
370
    50
100
AcDbLine
 10
-405.26436
 20
-259.923662
 30
0.0
 11
-405.26436
 21
-258.923662
 31
0.0
  0
LINE
  5
2D2
100
AcDbEntity
  8
2
370
    25
100
AcDbLine
 10
-405.0145
 20
-273.723455
 30
0.0
 11
-405.0145
 21
-270.723455
 31
0.0
  0
LINE
  5
2D3
100
AcDbEntity
  8
2
370
    50
100
AcDbLine
 10
-402.61436
 20
-265.324712
 30
0.0
 11
-402.61436
 21
-267.724712
 31
0.0
  0
LINE
  5
2D4
100
AcDbEntity
  8
2
370
    50
100
AcDbLine
 10
-402.81436
 20
-265.124712
 30
0.0
 11
-402.61436
 21
-265.324712
 31
0.0
  0
LINE
  5
2D5
100
AcDbEntity
  8
2
370
    50
100
AcDbLine
 10
-402.81436
 20
-267.924712
 30
0.0
 11
-402.61436
 21
-267.724712
 31
0.0
  0
LINE
  5
2D6
100
AcDbEntity
  8
2
370
    50
100
AcDbLine
 10
-404.01436
 20
-265.124712
 30
0.0
 11
-404.01436
 21
-264.723455
 31
0.0
  0
LINE
  5
2D7
100
AcDbEntity
  8
2
370
    50
100
AcDbLine
 10
-404.01436
 20
-260.424077
 30
0.0
 11
-404.01436
 21
-261.723455
 31
0.0
  0
LINE
  5
2D8
100
AcDbEntity
  8
2
370
    50
100
AcDbLine
 10
-420.41436
 20
-265.324077
 30
0.0
 11
-420.41436
 21
-267.724077
 31
0.0
  0
LINE
  5
2D9
100
AcDbEntity
  8
2
370
    50
100
AcDbLine
 10
-402.61436
 20
-265.324077
 30
0.0
 11
-402.61436
 21
-267.724077
 31
0.0
  0
LINE
  5
2DA
100
AcDbEntity
  8
2
370
    50
100
AcDbLine
 10
-402.81436
 20
-265.124077
 30
0.0
 11
-402.61436
 21
-265.324077
 31
0.0
  0
LINE
  5
2DB
100
AcDbEntity
  8
2
370
    50
100
AcDbLine
 10
-420.21436
 20
-265.124077
 30
0.0
 11
-420.41436
 21
-265.324077
 31
0.0
  0
LINE
  5
2DC
100
AcDbEntity
  8
2
370
    50
100
AcDbLine
 10
-420.21436
 20
-267.924077
 30
0.0
 11
-420.41436
 21
-267.724077
 31
0.0
  0
LINE
  5
2DD
100
AcDbEntity
  8
2
370
    50
100
AcDbLine
 10
-420.51436
 20
-273.724077
 30
0.0
 11
-402.51436
 21
-273.724077
 31
0.0
  0
LINE
  5
2DE
100
AcDbEntity
  8
2
370
    50
100
AcDbLine
 10
-419.81436
 20
-261.724077
 30
0.0
 11
-403.21436
 21
-261.724077
 31
0.0
  0
LINE
  5
2DF
100
AcDbEntity
  8
2
370
    50
100
AcDbLine
 10
-407.51436
 20
-262.724077
 30
0.0
 11
-407.51436
 21
-272.724077
 31
0.0
  0
LINE
  5
2E0
100
AcDbEntity
  8
2
370
    50
100
AcDbLine
 10
-415.51436
 20
-262.724077
 30
0.0
 11
-415.51436
 21
-272.724077
 31
0.0
  0
ARC
  5
2E1
100
AcDbEntity
  8
2
370
    50
100
AcDbCircle
 10
-398.01436
 20
-272.724077
 30
0.0
 40
1.0
100
AcDbArc
 50
270.0
 51
360.0
  0
LINE
  5
2E2
100
AcDbEntity
  8
2
370
    50
100
AcDbLine
 10
-398.01436
 20
-273.724077
 30
0.0
 11
-404.01436
 21
-273.724077
 31
0.0
  0
LINE
  5
2E3
100
AcDbEntity
  8
2
370
    50
100
AcDbLine
 10
-419.81436
 20
-273.724077
 30
0.0
 11
-425.01436
 21
-273.724077
 31
0.0
  0
LINE
  5
2E4
100
AcDbEntity
  8
2
370
    50
100
AcDbLine
 10
-419.81436
 20
-264.724077
 30
0.0
 11
-415.51436
 21
-264.724077
 31
0.0
  0
LINE
  5
2E5
100
AcDbEntity
  8
2
370
    50
100
AcDbLine
 10
-407.51436
 20
-264.724077
 30
0.0
 11
-403.21436
 21
-264.724077
 31
0.0
  0
LINE
  5
2E6
100
AcDbEntity
  8
2
370
    50
100
AcDbLine
 10
-420.21436
 20
-265.124077
 30
0.0
 11
-415.51436
 21
-265.124077
 31
0.0
  0
LINE
  5
2E7
100
AcDbEntity
  8
2
370
    50
100
AcDbLine
 10
-407.51436
 20
-265.124077
 30
0.0
 11
-402.81436
 21
-265.124077
 31
0.0
  0
LINE
  5
2E8
100
AcDbEntity
  8
2
370
    50
100
AcDbLine
 10
-420.41436
 20
-265.324077
 30
0.0
 11
-415.51436
 21
-265.324077
 31
0.0
  0
LINE
  5
2E9
100
AcDbEntity
  8
2
370
    50
100
AcDbLine
 10
-407.51436
 20
-265.324077
 30
0.0
 11
-402.61436
 21
-265.324077
 31
0.0
  0
LINE
  5
2EA
100
AcDbEntity
  8
2
370
    50
100
AcDbLine
 10
-420.41436
 20
-267.724077
 30
0.0
 11
-415.51436
 21
-267.724077
 31
0.0
  0
LINE
  5
2EB
100
AcDbEntity
  8
2
370
    50
100
AcDbLine
 10
-407.51436
 20
-267.724077
 30
0.0
 11
-402.61436
 21
-267.724077
 31
0.0
  0
LINE
  5
2EC
100
AcDbEntity
  8
2
370
    50
100
AcDbLine
 10
-419.81436
 20
-270.724077
 30
0.0
 11
-415.51436
 21
-270.724077
 31
0.0
  0
LINE
  5
2ED
100
AcDbEntity
  8
2
370
    50
100
AcDbLine
 10
-407.51436
 20
-270.724077
 30
0.0
 11
-403.21436
 21
-270.724077
 31
0.0
  0
ARC
  5
2EE
100
AcDbEntity
  8
2
370
    50
100
AcDbCircle
 10
-414.51436
 20
-262.724077
 30
0.0
 40
1.0
100
AcDbArc
 50
90.0
 51
180.0
  0
ARC
  5
2EF
100
AcDbEntity
  8
2
370
    50
100
AcDbCircle
 10
-408.51436
 20
-262.724077
 30
0.0
 40
1.0
100
AcDbArc
 50
0.0
 51
90.0
  0
ARC
  5
2F0
100
AcDbEntity
  8
2
370
    50
100
AcDbCircle
 10
-408.51436
 20
-272.724077
 30
0.0
 40
1.0
100
AcDbArc
 50
270.0
 51
0.0
  0
ARC
  5
2F1
100
AcDbEntity
  8
2
370
    50
100
AcDbCircle
 10
-414.51436
 20
-272.724077
 30
0.0
 40
1.0
100
AcDbArc
 50
180.0
 51
270.0
  0
LINE
  5
2F2
100
AcDbEntity
  8
2
370
    50
100
AcDbLine
 10
-403.21436
 20
-261.724077
 30
0.0
 11
-403.21436
 21
-264.724077
 31
0.0
  0
LINE
  5
2F3
100
AcDbEntity
  8
2
370
    50
100
AcDbLine
 10
-419.81436
 20
-261.724077
 30
0.0
 11
-419.81436
 21
-264.724077
 31
0.0
  0
LINE
  5
2F4
100
AcDbEntity
  8
2
370
    50
100
AcDbLine
 10
-419.81436
 20
-270.724077
 30
0.0
 11
-419.81436
 21
-273.724077
 31
0.0
  0
LINE
  5
2F5
100
AcDbEntity
  8
2
370
    50
100
AcDbLine
 10
-403.21436
 20
-270.724077
 30
0.0
 11
-403.21436
 21
-273.724077
 31
0.0
  0
LINE
  5
2F6
100
AcDbEntity
  8
2
370
    50
100
AcDbLine
 10
-404.01436
 20
-265.124077
 30
0.0
 11
-404.01436
 21
-264.724077
 31
0.0
  0
LINE
  5
2F7
100
AcDbEntity
  8
2
370
    50
100
AcDbLine
 10
-419.01436
 20
-265.124077
 30
0.0
 11
-419.01436
 21
-264.724077
 31
0.0
  0
LINE
  5
2F8
100
AcDbEntity
  8
2
370
    25
100
AcDbLine
 10
-406.51436
 20
-273.42466
 30
0.0
 11
-406.51436
 21
-271.119438
 31
0.0
  0
LINE
  5
2F9
100
AcDbEntity
  8
2
370
    25
100
AcDbLine
 10
-406.51436
 20
-264.462891
 30
0.0
 11
-406.51436
 21
-262.030686
 31
0.0
  0
LINE
  5
2FA
100
AcDbEntity
  8
2
370
    25
100
AcDbLine
 10
-416.51436
 20
-273.42466
 30
0.0
 11
-416.51436
 21
-271.119438
 31
0.0
  0
LINE
  5
2FB
100
AcDbEntity
  8
2
370
    25
100
AcDbLine
 10
-416.51436
 20
-264.420212
 30
0.0
 11
-416.51436
 21
-261.951165
 31
0.0
  0
LINE
  5
2FC
100
AcDbEntity
  8
2
370
    50
100
AcDbLine
 10
-402.71436
 20
-272.724077
 30
0.0
 11
-402.71436
 21
-270.124077
 31
0.0
  0
LINE
  5
2FD
100
AcDbEntity
  8
2
370
    50
100
AcDbLine
 10
-402.71436
 20
-265.224077
 30
0.0
 11
-402.71436
 21
-260.724077
 31
0.0
  0
LINE
  5
2FE
100
AcDbEntity
  8
2
370
    50
100
AcDbLine
 10
-420.31436
 20
-272.724077
 30
0.0
 11
-420.31436
 21
-270.124077
 31
0.0
  0
LINE
  5
2FF
100
AcDbEntity
  8
2
370
    50
100
AcDbLine
 10
-420.31436
 20
-265.224077
 30
0.0
 11
-420.31436
 21
-260.724077
 31
0.0
  0
ARC
  5
300
100
AcDbEntity
  8
2
370
    50
100
AcDbCircle
 10
-401.71436
 20
-272.724077
 30
0.0
 40
1.0
100
AcDbArc
 50
180.0
 51
270.0
  0
ARC
  5
301
100
AcDbEntity
  8
2
370
    50
100
AcDbCircle
 10
-421.31436
 20
-272.724077
 30
0.0
 40
1.0
100
AcDbArc
 50
270.0
 51
360.0
  0
LINE
  5
302
100
AcDbEntity
  8
2
370
    50
100
AcDbLine
 10
-419.01436
 20
-260.424077
 30
0.0
 11
-419.01436
 21
-261.723455
 31
0.0
  0
LINE
  5
303
100
AcDbEntity
  8
2
370
    50
100
AcDbLine
 10
-420.51436
 20
-268.124077
 30
0.0
 11
-420.51436
 21
-269.924077
 31
0.0
  0
LINE
  5
304
100
AcDbEntity
  8
2
370
    50
100
AcDbLine
 10
-402.51436
 20
-268.124077
 30
0.0
 11
-402.51436
 21
-269.924077
 31
0.0
  0
LINE
  5
305
100
AcDbEntity
  8
2
370
    50
100
AcDbLine
 10
-420.31436
 20
-267.924077
 30
0.0
 11
-420.51436
 21
-268.124077
 31
0.0
  0
LINE
  5
306
100
AcDbEntity
  8
2
370
    50
100
AcDbLine
 10
-420.51436
 20
-269.924077
 30
0.0
 11
-420.31436
 21
-270.124077
 31
0.0
  0
LINE
  5
307
100
AcDbEntity
  8
2
370
    50
100
AcDbLine
 10
-402.71436
 20
-267.924077
 30
0.0
 11
-402.51436
 21
-268.124077
 31
0.0
  0
LINE
  5
308
100
AcDbEntity
  8
2
370
    50
100
AcDbLine
 10
-402.51436
 20
-269.924077
 30
0.0
 11
-402.71436
 21
-270.124077
 31
0.0
  0
LINE
  5
309
100
AcDbEntity
  8
2
370
    50
100
AcDbLine
 10
-404.01436
 20
-274.124077
 30
0.0
 11
-404.01436
 21
-273.724077
 31
0.0
  0
LINE
  5
30A
100
AcDbEntity
  8
2
370
    50
100
AcDbLine
 10
-404.01436
 20
-270.724077
 30
0.0
 11
-404.01436
 21
-270.124077
 31
0.0
  0
LINE
  5
30B
100
AcDbEntity
  8
2
370
    50
100
AcDbLine
 10
-419.01436
 20
-274.124077
 30
0.0
 11
-419.01436
 21
-273.724077
 31
0.0
  0
LINE
  5
30C
100
AcDbEntity
  8
2
370
    50
100
AcDbLine
 10
-419.01436
 20
-270.724077
 30
0.0
 11
-419.01436
 21
-270.124077
 31
0.0
  0
LINE
  5
30D
100
AcDbEntity
  8
2
370
    50
100
AcDbLine
 10
-420.31436
 20
-270.124077
 30
0.0
 11
-415.51436
 21
-270.124077
 31
0.0
  0
LINE
  5
30E
100
AcDbEntity
  8
2
370
    50
100
AcDbLine
 10
-407.51436
 20
-270.124077
 30
0.0
 11
-402.71436
 21
-270.124077
 31
0.0
  0
LINE
  5
30F
100
AcDbEntity
  8
2
370
    50
100
AcDbLine
 10
-420.51436
 20
-269.924077
 30
0.0
 11
-415.51436
 21
-269.924077
 31
0.0
  0
LINE
  5
310
100
AcDbEntity
  8
2
370
    50
100
AcDbLine
 10
-407.51436
 20
-269.924077
 30
0.0
 11
-402.51436
 21
-269.924077
 31
0.0
  0
LINE
  5
311
100
AcDbEntity
  8
2
370
    50
100
AcDbLine
 10
-420.51436
 20
-268.124077
 30
0.0
 11
-415.51436
 21
-268.124077
 31
0.0
  0
LINE
  5
312
100
AcDbEntity
  8
2
370
    50
100
AcDbLine
 10
-407.51436
 20
-268.124077
 30
0.0
 11
-402.51436
 21
-268.124077
 31
0.0
  0
LINE
  5
313
100
AcDbEntity
  8
2
370
    50
100
AcDbLine
 10
-420.31436
 20
-267.924077
 30
0.0
 11
-415.51436
 21
-267.924077
 31
0.0
  0
LINE
  5
314
100
AcDbEntity
  8
2
370
    50
100
AcDbLine
 10
-407.51436
 20
-267.924077
 30
0.0
 11
-402.71436
 21
-267.924077
 31
0.0
  0
LINE
  5
315
100
AcDbEntity
  8
2
370
    25
100
AcDbLine
 10
-418.014221
 20
-273.723455
 30
0.0
 11
-418.014221
 21
-270.723455
 31
0.0
  0
LINE
  5
316
100
AcDbEntity
  8
2
370
    25
100
AcDbLine
 10
-405.0145
 20
-264.724077
 30
0.0
 11
-405.0145
 21
-261.724077
 31
0.0
  0
LINE
  5
317
100
AcDbEntity
  8
2
370
    25
100
AcDbLine
 10
-418.014221
 20
-264.724077
 30
0.0
 11
-418.014221
 21
-261.724077
 31
0.0
  0
LINE
  5
318
100
AcDbEntity
  8
2
370
    50
100
AcDbLine
 10
-426.01436
 20
-260.724077
 30
0.0
 11
-426.01436
 21
-272.724077
 31
0.0
  0
ARC
  5
319
100
AcDbEntity
  8
2
370
    50
100
AcDbCircle
 10
-425.01436
 20
-260.724077
 30
0.0
 40
1.0
100
AcDbArc
 50
90.0
 51
180.0
  0
ARC
  5
31A
100
AcDbEntity
  8
2
370
    50
100
AcDbCircle
 10
-425.01436
 20
-272.724077
 30
0.0
 40
1.0
100
AcDbArc
 50
180.0
 51
270.0
  0
LINE
  5
31B
100
AcDbEntity
  8
2
370
    25
  6
CENTER
100
AcDbLine
 10
-411.51436
 20
-193.921964
 30
0.0
 11
-411.51436
 21
-298.654266
 31
0.0
  0
LINE
  5
31C
100
AcDbEntity
  8
2
370
    50
100
AcDbLine
 10
-397.01436
 20
-260.724077
 30
0.0
 11
-397.01436
 21
-272.724077
 31
0.0
  0
LINE
  5
31D
100
AcDbEntity
  8
2
370
    50
100
AcDbLine
 10
-402.514155
 20
-274.123329
 30
0.0
 11
-401.514155
 21
-275.123329
 31
0.0
  0
LINE
  5
31E
100
AcDbEntity
  8
2
370
    50
100
AcDbLine
 10
-420.514155
 20
-274.123329
 30
0.0
 11
-421.514155
 21
-275.123329
 31
0.0
  0
LINE
  5
31F
100
AcDbEntity
  8
2
370
    50
100
AcDbLine
 10
-420.514155
 20
-274.123329
 30
0.0
 11
-402.514155
 21
-274.123329
 31
0.0
  0
LINE
  5
320
100
AcDbEntity
  8
2
370
    50
100
AcDbLine
 10
-401.514155
 20
-275.123329
 30
0.0
 11
-421.514155
 21
-275.123329
 31
0.0
  0
LINE
  5
321
100
AcDbEntity
  8
2
370
    50
100
AcDbLine
 10
-404.014155
 20
-274.123329
 30
0.0
 11
-404.014155
 21
-273.723329
 31
0.0
  0
LINE
  5
322
100
AcDbEntity
  8
2
370
    50
100
AcDbLine
 10
-419.014155
 20
-274.123329
 30
0.0
 11
-419.014155
 21
-273.723329
 31
0.0
  0
LINE
  5
323
100
AcDbEntity
  8
2
370
    50
100
AcDbLine
 10
-401.514155
 20
-275.123329
 30
0.0
 11
-401.514155
 21
-283.923329
 31
0.0
  0
LINE
  5
324
100
AcDbEntity
  8
2
370
    50
100
AcDbLine
 10
-421.514155
 20
-275.123329
 30
0.0
 11
-421.514155
 21
-283.923329
 31
0.0
  0
LINE
  5
325
100
AcDbEntity
  8
2
370
    50
100
AcDbLine
 10
-421.841022
 20
-283.923329
 30
0.0
 11
-399.514155
 21
-283.923329
 31
0.0
  0
LINE
  5
326
100
AcDbEntity
  8
2
370
    50
100
AcDbLine
 10
-397.657748
 20
-285.779735
 30
0.0
 11
-397.657748
 21
-293.066922
 31
0.0
  0
LINE
  5
327
100
AcDbEntity
  8
2
370
    50
100
AcDbLine
 10
-425.370561
 20
-293.066922
 30
0.0
 11
-425.370561
 21
-285.779735
 31
0.0
  0
LINE
  5
328
100
AcDbEntity
  8
2
370
    50
100
AcDbLine
 10
-423.514155
 20
-294.923329
 30
0.0
 11
-399.514155
 21
-294.923329
 31
0.0
  0
LINE
  5
329
100
AcDbEntity
  8
2
370
    50
100
AcDbLine
 10
-404.585951
 20
-293.066922
 30
0.0
 11
-404.585951
 21
-285.779735
 31
0.0
  0
LINE
  5
32A
100
AcDbEntity
  8
2
370
    50
100
AcDbLine
 10
-418.442358
 20
-293.066922
 30
0.0
 11
-418.442358
 21
-285.779735
 31
0.0
  0
LINE
  5
32B
100
AcDbEntity
  8
2
370
    50
100
AcDbLine
 10
-423.514155
 20
-283.923329
 30
0.0
 11
-399.514155
 21
-283.923329
 31
0.0
  0
LINE
  5
32C
100
AcDbEntity
  8
2
370
    50
100
AcDbLine
 10
-399.514155
 20
-283.923329
 30
0.0
 11
-397.657748
 21
-285.779735
 31
0.0
  0
LINE
  5
32D
100
AcDbEntity
  8
2
370
    50
100
AcDbLine
 10
-423.514155
 20
-294.923329
 30
0.0
 11
-425.370561
 21
-293.066922
 31
0.0
  0
LINE
  5
32E
100
AcDbEntity
  8
2
370
    50
100
AcDbLine
 10
-423.514155
 20
-283.923329
 30
0.0
 11
-425.370561
 21
-285.779735
 31
0.0
  0
LINE
  5
32F
100
AcDbEntity
  8
2
370
    50
100
AcDbLine
 10
-399.514155
 20
-294.923329
 30
0.0
 11
-397.657748
 21
-293.066922
 31
0.0
  0
ARC
  5
330
100
AcDbEntity
  8
2
370
    50
100
AcDbCircle
 10
-411.514155
 20
-297.779735
 30
0.0
 40
13.856406
100
AcDbArc
 50
60.0
 51
120.0
  0
ARC
  5
331
100
AcDbEntity
  8
2
370
    50
100
AcDbCircle
 10
-411.514155
 20
-281.066922
 30
0.0
 40
13.856406
100
AcDbArc
 50
240.0
 51
300.0
  0
ARC
  5
332
100
AcDbEntity
  8
2
370
    50
100
AcDbCircle
 10
-401.187287
 20
-287.962628
 30
0.0
 40
4.039299
100
AcDbArc
 50
45.0
 51
147.288191
  0
ARC
  5
333
100
AcDbEntity
  8
2
370
    50
100
AcDbCircle
 10
-401.187287
 20
-290.884029
 30
0.0
 40
4.039299
100
AcDbArc
 50
212.711809
 51
315.0
  0
ARC
  5
334
100
AcDbEntity
  8
2
370
    50
100
AcDbCircle
 10
-421.841022
 20
-287.962628
 30
0.0
 40
4.039299
100
AcDbArc
 50
32.711809
 51
135.0
  0
ARC
  5
335
100
AcDbEntity
  8
2
370
    50
100
AcDbCircle
 10
-421.841022
 20
-290.884029
 30
0.0
 40
4.039299
100
AcDbArc
 50
225.0
 51
327.288191
  0
POINT
  5
336
100
AcDbEntity
  8
2
370
    50
100
AcDbPoint
 10
-411.51436
 20
-274.124077
 30
0.0
  0
POINT
  5
337
100
AcDbEntity
  8
2
370
    50
100
AcDbPoint
 10
-411.514155
 20
-274.123329
 30
0.0
  0
LINE
  5
338
100
AcDbEntity
  8
2
370
    50
100
AcDbLine
 10
-352.51436
 20
-176.054339
 30
0.0
 11
-352.51436
 21
-170.731689
 31
0.0
  0
LINE
  5
339
100
AcDbEntity
  8
2
370
    50
100
AcDbLine
 10
-340.51436
 20
-176.054339
 30
0.0
 11
-340.51436
 21
-170.731689
 31
0.0
  0
LINE
  5
33A
100
AcDbEntity
  8
2
370
    50
100
AcDbLine
 10
-344.116445
 20
-170.731689
 30
0.0
 11
-344.116445
 21
-176.054339
 31
0.0
  0
LINE
  5
33B
100
AcDbEntity
  8
2
370
    50
100
AcDbLine
 10
-342.950179
 20
-170.731689
 30
0.0
 11
-342.950179
 21
-176.054339
 31
0.0
  0
LINE
  5
33C
100
AcDbEntity
  8
2
370
    50
100
AcDbLine
 10
-340.552263
 20
-170.731689
 30
0.0
 11
-340.552263
 21
-176.054339
 31
0.0
  0
LINE
  5
33D
100
AcDbEntity
  8
2
370
    50
100
AcDbLine
 10
-341.01436
 20
-176.343014
 30
0.0
 11
-340.51436
 21
-176.054339
 31
0.0
  0
LINE
  5
33E
100
AcDbEntity
  8
2
370
    50
100
AcDbLine
 10
-342.950179
 20
-176.054339
 30
0.0
 11
-344.116445
 21
-176.054339
 31
0.0
  0
LINE
  5
33F
100
AcDbEntity
  8
2
370
    50
100
AcDbLine
 10
-352.51436
 20
-176.054339
 30
0.0
 11
-352.01436
 21
-176.343014
 31
0.0
  0
LINE
  5
340
100
AcDbEntity
  8
2
370
    50
100
AcDbLine
 10
-352.51436
 20
-170.731689
 30
0.0
 11
-352.01436
 21
-170.443014
 31
0.0
  0
ARC
  5
341
100
AcDbEntity
  8
2
370
    50
100
AcDbCircle
 10
-346.51436
 20
-166.239384
 30
0.0
 40
10.10363
100
AcDbArc
 50
270.0
 51
283.729133
  0
ARC
  5
342
100
AcDbEntity
  8
2
370
    50
100
AcDbCircle
 10
-346.51436
 20
-180.546644
 30
0.0
 40
10.10363
100
AcDbArc
 50
76.270867
 51
90.0
  0
LINE
  5
343
100
AcDbEntity
  8
2
370
    50
100
AcDbLine
 10
-342.950179
 20
-170.731689
 30
0.0
 11
-344.116445
 21
-170.731689
 31
0.0
  0
LINE
  5
344
100
AcDbEntity
  8
2
370
    50
100
AcDbLine
 10
-340.51436
 20
-176.054339
 30
0.0
 11
-340.552263
 21
-176.054339
 31
0.0
  0
ARC
  5
345
100
AcDbEntity
  8
2
370
    50
100
AcDbCircle
 10
-341.751221
 20
-173.708853
 30
0.0
 40
2.634161
100
AcDbArc
 50
242.924933
 51
297.075067
  0
ARC
  5
346
100
AcDbEntity
  8
2
370
    50
100
AcDbCircle
 10
-341.751221
 20
-173.077175
 30
0.0
 40
2.634161
100
AcDbArc
 50
62.924933
 51
117.075067
  0
ARC
  5
347
100
AcDbEntity
  8
2
370
    50
100
AcDbCircle
 10
-346.51436
 20
-166.239384
 30
0.0
 40
10.10363
100
AcDbArc
 50
256.270867
 51
270.0
  0
LINE
  5
348
100
AcDbEntity
  8
2
370
    50
100
AcDbLine
 10
-350.078542
 20
-176.054339
 30
0.0
 11
-348.912276
 21
-176.054339
 31
0.0
  0
ARC
  5
349
100
AcDbEntity
  8
2
370
    50
100
AcDbCircle
 10
-351.2775
 20
-173.708853
 30
0.0
 40
2.634161
100
AcDbArc
 50
242.924933
 51
297.075067
  0
LINE
  5
34A
100
AcDbEntity
  8
2
370
    50
100
AcDbLine
 10
-352.476458
 20
-176.054339
 30
0.0
 11
-352.51436
 21
-176.054339
 31
0.0
  0
LINE
  5
34B
100
AcDbEntity
  8
2
370
    50
100
AcDbLine
 10
-352.01436
 20
-176.343014
 30
0.0
 11
-341.01436
 21
-176.343014
 31
0.0
  0
LINE
  5
34C
100
AcDbEntity
  8
2
370
    50
100
AcDbLine
 10
-353.11436
 20
-205.343014
 30
0.0
 11
-346.51436
 21
-205.343014
 31
0.0
  0
LINE
  5
34D
100
AcDbEntity
  8
2
370
    50
100
AcDbLine
 10
-353.11436
 20
-199.843014
 30
0.0
 11
-346.51436
 21
-199.843014
 31
0.0
  0
LINE
  5
34E
100
AcDbEntity
  8
2
370
    50
100
AcDbLine
 10
-353.11436
 20
-197.843014
 30
0.0
 11
-346.51436
 21
-197.843014
 31
0.0
  0
LINE
  5
34F
100
AcDbEntity
  8
2
370
    50
100
AcDbLine
 10
-353.11436
 20
-192.843014
 30
0.0
 11
-346.51436
 21
-192.843014
 31
0.0
  0
LINE
  5
350
100
AcDbEntity
  8
2
370
    50
100
AcDbLine
 10
-353.11436
 20
-190.843014
 30
0.0
 11
-346.51436
 21
-190.843014
 31
0.0
  0
LINE
  5
351
100
AcDbEntity
  8
2
370
    50
100
AcDbLine
 10
-353.11436
 20
-185.843014
 30
0.0
 11
-346.51436
 21
-185.843014
 31
0.0
  0
LINE
  5
352
100
AcDbEntity
  8
2
370
    50
100
AcDbLine
 10
-353.11436
 20
-183.843014
 30
0.0
 11
-346.51436
 21
-183.843014
 31
0.0
  0
LINE
  5
353
100
AcDbEntity
  8
2
370
    50
100
AcDbLine
 10
-353.51436
 20
-204.543014
 30
0.0
 11
-353.51436
 21
-200.643014
 31
0.0
  0
LINE
  5
354
100
AcDbEntity
  8
2
370
    50
100
AcDbLine
 10
-353.51436
 20
-197.043014
 30
0.0
 11
-353.51436
 21
-193.643014
 31
0.0
  0
LINE
  5
355
100
AcDbEntity
  8
2
370
    50
100
AcDbLine
 10
-353.51436
 20
-190.043014
 30
0.0
 11
-353.51436
 21
-186.643014
 31
0.0
  0
LINE
  5
356
100
AcDbEntity
  8
2
370
    50
100
AcDbLine
 10
-353.51436
 20
-183.043014
 30
0.0
 11
-353.51436
 21
-177.143014
 31
0.0
  0
LINE
  5
357
100
AcDbEntity
  8
2
370
    50
100
AcDbLine
 10
-353.11436
 20
-185.843014
 30
0.0
 11
-353.11436
 21
-183.843014
 31
0.0
  0
LINE
  5
358
100
AcDbEntity
  8
2
370
    50
100
AcDbLine
 10
-353.11436
 20
-199.843014
 30
0.0
 11
-353.11436
 21
-197.843014
 31
0.0
  0
LINE
  5
359
100
AcDbEntity
  8
2
370
    50
100
AcDbLine
 10
-353.11436
 20
-192.843014
 30
0.0
 11
-353.11436
 21
-190.843014
 31
0.0
  0
ARC
  5
35A
100
AcDbEntity
  8
2
370
    50
100
AcDbCircle
 10
-352.51436
 20
-183.043014
 30
0.0
 40
1.0
100
AcDbArc
 50
180.0
 51
233.130102
  0
ARC
  5
35B
100
AcDbEntity
  8
2
370
    50
100
AcDbCircle
 10
-352.51436
 20
-186.643014
 30
0.0
 40
1.0
100
AcDbArc
 50
126.869898
 51
180.0
  0
ARC
  5
35C
100
AcDbEntity
  8
2
370
    50
100
AcDbCircle
 10
-352.51436
 20
-190.043014
 30
0.0
 40
1.0
100
AcDbArc
 50
180.0
 51
233.130102
  0
ARC
  5
35D
100
AcDbEntity
  8
2
370
    50
100
AcDbCircle
 10
-352.51436
 20
-193.643014
 30
0.0
 40
1.0
100
AcDbArc
 50
126.869898
 51
180.0
  0
ARC
  5
35E
100
AcDbEntity
  8
2
370
    50
100
AcDbCircle
 10
-352.51436
 20
-197.043014
 30
0.0
 40
1.0
100
AcDbArc
 50
180.0
 51
233.130102
  0
ARC
  5
35F
100
AcDbEntity
  8
2
370
    50
100
AcDbCircle
 10
-352.51436
 20
-200.643014
 30
0.0
 40
1.0
100
AcDbArc
 50
126.869898
 51
180.0
  0
ARC
  5
360
100
AcDbEntity
  8
2
370
    50
100
AcDbCircle
 10
-352.51436
 20
-204.543014
 30
0.0
 40
1.0
100
AcDbArc
 50
180.0
 51
233.130102
  0
LINE
  5
361
100
AcDbEntity
  8
2
370
    50
100
AcDbLine
 10
-339.91436
 20
-205.343014
 30
0.0
 11
-346.51436
 21
-205.343014
 31
0.0
  0
ARC
  5
362
100
AcDbEntity
  8
2
370
    50
100
AcDbCircle
 10
-340.51436
 20
-204.543014
 30
0.0
 40
1.0
100
AcDbArc
 50
306.869898
 51
360.0
  0
LINE
  5
363
100
AcDbEntity
  8
2
370
    50
100
AcDbLine
 10
-339.51436
 20
-204.543014
 30
0.0
 11
-339.51436
 21
-200.643014
 31
0.0
  0
ARC
  5
364
100
AcDbEntity
  8
2
370
    50
100
AcDbCircle
 10
-340.51436
 20
-200.643014
 30
0.0
 40
1.0
100
AcDbArc
 50
360.0
 51
53.130102
  0
LINE
  5
365
100
AcDbEntity
  8
2
370
    50
100
AcDbLine
 10
-339.91436
 20
-199.843014
 30
0.0
 11
-339.91436
 21
-197.843014
 31
0.0
  0
LINE
  5
366
100
AcDbEntity
  8
2
370
    50
100
AcDbLine
 10
-339.91436
 20
-199.843014
 30
0.0
 11
-346.51436
 21
-199.843014
 31
0.0
  0
LINE
  5
367
100
AcDbEntity
  8
2
370
    50
100
AcDbLine
 10
-339.91436
 20
-197.843014
 30
0.0
 11
-346.51436
 21
-197.843014
 31
0.0
  0
ARC
  5
368
100
AcDbEntity
  8
2
370
    50
100
AcDbCircle
 10
-340.51436
 20
-197.043014
 30
0.0
 40
1.0
100
AcDbArc
 50
306.869898
 51
360.0
  0
LINE
  5
369
100
AcDbEntity
  8
2
370
    50
100
AcDbLine
 10
-339.51436
 20
-197.043014
 30
0.0
 11
-339.51436
 21
-193.643014
 31
0.0
  0
ARC
  5
36A
100
AcDbEntity
  8
2
370
    50
100
AcDbCircle
 10
-340.51436
 20
-193.643014
 30
0.0
 40
1.0
100
AcDbArc
 50
360.0
 51
53.130102
  0
LINE
  5
36B
100
AcDbEntity
  8
2
370
    50
100
AcDbLine
 10
-339.91436
 20
-192.843014
 30
0.0
 11
-346.51436
 21
-192.843014
 31
0.0
  0
LINE
  5
36C
100
AcDbEntity
  8
2
370
    50
100
AcDbLine
 10
-339.91436
 20
-192.843014
 30
0.0
 11
-339.91436
 21
-190.843014
 31
0.0
  0
LINE
  5
36D
100
AcDbEntity
  8
2
370
    50
100
AcDbLine
 10
-339.91436
 20
-190.843014
 30
0.0
 11
-346.51436
 21
-190.843014
 31
0.0
  0
ARC
  5
36E
100
AcDbEntity
  8
2
370
    50
100
AcDbCircle
 10
-340.51436
 20
-190.043014
 30
0.0
 40
1.0
100
AcDbArc
 50
306.869898
 51
360.0
  0
LINE
  5
36F
100
AcDbEntity
  8
2
370
    50
100
AcDbLine
 10
-339.51436
 20
-190.043014
 30
0.0
 11
-339.51436
 21
-186.643014
 31
0.0
  0
ARC
  5
370
100
AcDbEntity
  8
2
370
    50
100
AcDbCircle
 10
-340.51436
 20
-186.643014
 30
0.0
 40
1.0
100
AcDbArc
 50
360.0
 51
53.130102
  0
LINE
  5
371
100
AcDbEntity
  8
2
370
    50
100
AcDbLine
 10
-339.91436
 20
-185.843014
 30
0.0
 11
-346.51436
 21
-185.843014
 31
0.0
  0
LINE
  5
372
100
AcDbEntity
  8
2
370
    50
100
AcDbLine
 10
-339.91436
 20
-185.843014
 30
0.0
 11
-339.91436
 21
-183.843014
 31
0.0
  0
LINE
  5
373
100
AcDbEntity
  8
2
370
    50
100
AcDbLine
 10
-339.91436
 20
-183.843014
 30
0.0
 11
-346.51436
 21
-183.843014
 31
0.0
  0
ARC
  5
374
100
AcDbEntity
  8
2
370
    50
100
AcDbCircle
 10
-340.51436
 20
-183.043014
 30
0.0
 40
1.0
100
AcDbArc
 50
306.869898
 51
360.0
  0
LINE
  5
375
100
AcDbEntity
  8
2
370
    50
100
AcDbLine
 10
-339.51436
 20
-183.043014
 30
0.0
 11
-339.51436
 21
-177.143014
 31
0.0
  0
ARC
  5
376
100
AcDbEntity
  8
2
370
    50
100
AcDbCircle
 10
-340.51436
 20
-177.143014
 30
0.0
 40
1.0
100
AcDbArc
 50
360.0
 51
53.130102
  0
LINE
  5
377
100
AcDbEntity
  8
2
370
    50
100
AcDbLine
 10
-353.11436
 20
-176.343014
 30
0.0
 11
-339.91436
 21
-176.343014
 31
0.0
  0
ARC
  5
378
100
AcDbEntity
  8
2
370
    50
100
AcDbCircle
 10
-352.51436
 20
-177.143014
 30
0.0
 40
1.0
100
AcDbArc
 50
126.869898
 51
180.0
  0
LINE
  5
379
100
AcDbEntity
  8
2
370
    50
100
AcDbLine
 10
-352.96436
 20
-242.083049
 30
0.0
 11
-352.96436
 21
-205.343014
 31
0.0
  0
LINE
  5
37A
100
AcDbEntity
  8
2
370
    50
100
AcDbLine
 10
-340.06436
 20
-242.083049
 30
0.0
 11
-340.06436
 21
-205.343014
 31
0.0
  0
ARC
  5
37B
100
AcDbEntity
  8
2
370
    50
100
AcDbCircle
 10
-346.51436
 20
-180.546644
 30
0.0
 40
10.10363
100
AcDbArc
 50
90.0
 51
103.729133
  0
LINE
  5
37C
100
AcDbEntity
  8
2
370
    50
100
AcDbLine
 10
-350.078542
 20
-170.731689
 30
0.0
 11
-348.912276
 21
-170.731689
 31
0.0
  0
ARC
  5
37D
100
AcDbEntity
  8
2
370
    50
100
AcDbCircle
 10
-351.2775
 20
-173.077175
 30
0.0
 40
2.634161
100
AcDbArc
 50
62.924933
 51
117.075067
  0
LINE
  5
37E
100
AcDbEntity
  8
2
370
    50
100
AcDbLine
 10
-348.912276
 20
-170.731689
 30
0.0
 11
-348.912276
 21
-176.054339
 31
0.0
  0
LINE
  5
37F
100
AcDbEntity
  8
2
370
    50
100
AcDbLine
 10
-350.078542
 20
-170.731689
 30
0.0
 11
-350.078542
 21
-176.054339
 31
0.0
  0
LINE
  5
380
100
AcDbEntity
  8
2
370
    50
100
AcDbLine
 10
-352.476458
 20
-170.731689
 30
0.0
 11
-352.476458
 21
-176.054339
 31
0.0
  0
ARC
  5
381
100
AcDbEntity
  8
2
370
    50
100
AcDbCircle
 10
-349.739315
 20
-237.782988
 30
0.0
 40
5.375075
100
AcDbArc
 50
233.130102
 51
306.869898
  0
ARC
  5
382
100
AcDbEntity
  8
2
370
    50
100
AcDbCircle
 10
-343.289225
 20
-246.383109
 30
0.0
 40
5.375075
100
AcDbArc
 50
53.130102
 51
126.869898
  0
ARC
  5
383
100
AcDbEntity
  8
2
370
    50
100
AcDbCircle
 10
-349.739315
 20
-246.383109
 30
0.0
 40
5.375075
100
AcDbArc
 50
53.130102
 51
126.869898
  0
LINE
  5
384
100
AcDbEntity
  8
2
370
    50
100
AcDbLine
 10
-367.51436
 20
-176.054339
 30
0.0
 11
-367.51436
 21
-170.731689
 31
0.0
  0
LINE
  5
385
100
AcDbEntity
  8
2
370
    50
100
AcDbLine
 10
-355.51436
 20
-176.054339
 30
0.0
 11
-355.51436
 21
-170.731689
 31
0.0
  0
LINE
  5
386
100
AcDbEntity
  8
2
370
    50
100
AcDbLine
 10
-359.116445
 20
-170.731689
 30
0.0
 11
-359.116445
 21
-176.054339
 31
0.0
  0
LINE
  5
387
100
AcDbEntity
  8
2
370
    50
100
AcDbLine
 10
-357.950179
 20
-170.731689
 30
0.0
 11
-357.950179
 21
-176.054339
 31
0.0
  0
LINE
  5
388
100
AcDbEntity
  8
2
370
    50
100
AcDbLine
 10
-355.552263
 20
-170.731689
 30
0.0
 11
-355.552263
 21
-176.054339
 31
0.0
  0
LINE
  5
389
100
AcDbEntity
  8
2
370
    50
100
AcDbLine
 10
-356.01436
 20
-176.343014
 30
0.0
 11
-355.51436
 21
-176.054339
 31
0.0
  0
LINE
  5
38A
100
AcDbEntity
  8
2
370
    50
100
AcDbLine
 10
-357.950179
 20
-176.054339
 30
0.0
 11
-359.116445
 21
-176.054339
 31
0.0
  0
LINE
  5
38B
100
AcDbEntity
  8
2
370
    50
100
AcDbLine
 10
-367.51436
 20
-176.054339
 30
0.0
 11
-367.01436
 21
-176.343014
 31
0.0
  0
LINE
  5
38C
100
AcDbEntity
  8
2
370
    50
100
AcDbLine
 10
-367.51436
 20
-170.731689
 30
0.0
 11
-367.01436
 21
-170.443014
 31
0.0
  0
ARC
  5
38D
100
AcDbEntity
  8
2
370
    50
100
AcDbCircle
 10
-361.51436
 20
-166.239384
 30
0.0
 40
10.10363
100
AcDbArc
 50
270.0
 51
283.729133
  0
ARC
  5
38E
100
AcDbEntity
  8
2
370
    50
100
AcDbCircle
 10
-361.51436
 20
-180.546644
 30
0.0
 40
10.10363
100
AcDbArc
 50
76.270867
 51
90.0
  0
LINE
  5
38F
100
AcDbEntity
  8
2
370
    50
100
AcDbLine
 10
-357.950179
 20
-170.731689
 30
0.0
 11
-359.116445
 21
-170.731689
 31
0.0
  0
LINE
  5
390
100
AcDbEntity
  8
2
370
    50
100
AcDbLine
 10
-355.51436
 20
-176.054339
 30
0.0
 11
-355.552263
 21
-176.054339
 31
0.0
  0
ARC
  5
391
100
AcDbEntity
  8
2
370
    50
100
AcDbCircle
 10
-356.751221
 20
-173.708853
 30
0.0
 40
2.634161
100
AcDbArc
 50
242.924933
 51
297.075067
  0
ARC
  5
392
100
AcDbEntity
  8
2
370
    50
100
AcDbCircle
 10
-356.751221
 20
-173.077175
 30
0.0
 40
2.634161
100
AcDbArc
 50
62.924933
 51
117.075067
  0
ARC
  5
393
100
AcDbEntity
  8
2
370
    50
100
AcDbCircle
 10
-361.51436
 20
-166.239384
 30
0.0
 40
10.10363
100
AcDbArc
 50
256.270867
 51
270.0
  0
LINE
  5
394
100
AcDbEntity
  8
2
370
    50
100
AcDbLine
 10
-365.078542
 20
-176.054339
 30
0.0
 11
-363.912276
 21
-176.054339
 31
0.0
  0
ARC
  5
395
100
AcDbEntity
  8
2
370
    50
100
AcDbCircle
 10
-366.2775
 20
-173.708853
 30
0.0
 40
2.634161
100
AcDbArc
 50
242.924933
 51
297.075067
  0
LINE
  5
396
100
AcDbEntity
  8
2
370
    50
100
AcDbLine
 10
-367.476458
 20
-176.054339
 30
0.0
 11
-367.51436
 21
-176.054339
 31
0.0
  0
LINE
  5
397
100
AcDbEntity
  8
2
370
    50
100
AcDbLine
 10
-367.01436
 20
-176.343014
 30
0.0
 11
-356.01436
 21
-176.343014
 31
0.0
  0
LINE
  5
398
100
AcDbEntity
  8
2
370
    50
100
AcDbLine
 10
-368.11436
 20
-205.343014
 30
0.0
 11
-361.51436
 21
-205.343014
 31
0.0
  0
LINE
  5
399
100
AcDbEntity
  8
2
370
    50
100
AcDbLine
 10
-368.11436
 20
-199.843014
 30
0.0
 11
-361.51436
 21
-199.843014
 31
0.0
  0
LINE
  5
39A
100
AcDbEntity
  8
2
370
    50
100
AcDbLine
 10
-368.11436
 20
-197.843014
 30
0.0
 11
-361.51436
 21
-197.843014
 31
0.0
  0
LINE
  5
39B
100
AcDbEntity
  8
2
370
    50
100
AcDbLine
 10
-368.11436
 20
-192.843014
 30
0.0
 11
-361.51436
 21
-192.843014
 31
0.0
  0
LINE
  5
39C
100
AcDbEntity
  8
2
370
    50
100
AcDbLine
 10
-368.11436
 20
-190.843014
 30
0.0
 11
-361.51436
 21
-190.843014
 31
0.0
  0
LINE
  5
39D
100
AcDbEntity
  8
2
370
    50
100
AcDbLine
 10
-368.11436
 20
-185.843014
 30
0.0
 11
-361.51436
 21
-185.843014
 31
0.0
  0
LINE
  5
39E
100
AcDbEntity
  8
2
370
    50
100
AcDbLine
 10
-368.11436
 20
-183.843014
 30
0.0
 11
-361.51436
 21
-183.843014
 31
0.0
  0
LINE
  5
39F
100
AcDbEntity
  8
2
370
    50
100
AcDbLine
 10
-368.51436
 20
-204.543014
 30
0.0
 11
-368.51436
 21
-200.643014
 31
0.0
  0
LINE
  5
3A0
100
AcDbEntity
  8
2
370
    50
100
AcDbLine
 10
-368.51436
 20
-197.043014
 30
0.0
 11
-368.51436
 21
-193.643014
 31
0.0
  0
LINE
  5
3A1
100
AcDbEntity
  8
2
370
    50
100
AcDbLine
 10
-368.51436
 20
-190.043014
 30
0.0
 11
-368.51436
 21
-186.643014
 31
0.0
  0
LINE
  5
3A2
100
AcDbEntity
  8
2
370
    50
100
AcDbLine
 10
-368.51436
 20
-183.043014
 30
0.0
 11
-368.51436
 21
-177.143014
 31
0.0
  0
LINE
  5
3A3
100
AcDbEntity
  8
2
370
    50
100
AcDbLine
 10
-368.11436
 20
-185.843014
 30
0.0
 11
-368.11436
 21
-183.843014
 31
0.0
  0
LINE
  5
3A4
100
AcDbEntity
  8
2
370
    50
100
AcDbLine
 10
-368.11436
 20
-199.843014
 30
0.0
 11
-368.11436
 21
-197.843014
 31
0.0
  0
LINE
  5
3A5
100
AcDbEntity
  8
2
370
    50
100
AcDbLine
 10
-368.11436
 20
-192.843014
 30
0.0
 11
-368.11436
 21
-190.843014
 31
0.0
  0
ARC
  5
3A6
100
AcDbEntity
  8
2
370
    50
100
AcDbCircle
 10
-367.51436
 20
-183.043014
 30
0.0
 40
1.0
100
AcDbArc
 50
180.0
 51
233.130102
  0
ARC
  5
3A7
100
AcDbEntity
  8
2
370
    50
100
AcDbCircle
 10
-367.51436
 20
-186.643014
 30
0.0
 40
1.0
100
AcDbArc
 50
126.869898
 51
180.0
  0
ARC
  5
3A8
100
AcDbEntity
  8
2
370
    50
100
AcDbCircle
 10
-367.51436
 20
-190.043014
 30
0.0
 40
1.0
100
AcDbArc
 50
180.0
 51
233.130102
  0
ARC
  5
3A9
100
AcDbEntity
  8
2
370
    50
100
AcDbCircle
 10
-367.51436
 20
-193.643014
 30
0.0
 40
1.0
100
AcDbArc
 50
126.869898
 51
180.0
  0
ARC
  5
3AA
100
AcDbEntity
  8
2
370
    50
100
AcDbCircle
 10
-367.51436
 20
-197.043014
 30
0.0
 40
1.0
100
AcDbArc
 50
180.0
 51
233.130102
  0
ARC
  5
3AB
100
AcDbEntity
  8
2
370
    50
100
AcDbCircle
 10
-367.51436
 20
-200.643014
 30
0.0
 40
1.0
100
AcDbArc
 50
126.869898
 51
180.0
  0
ARC
  5
3AC
100
AcDbEntity
  8
2
370
    50
100
AcDbCircle
 10
-367.51436
 20
-204.543014
 30
0.0
 40
1.0
100
AcDbArc
 50
180.0
 51
233.130102
  0
LINE
  5
3AD
100
AcDbEntity
  8
2
370
    50
100
AcDbLine
 10
-354.91436
 20
-205.343014
 30
0.0
 11
-361.51436
 21
-205.343014
 31
0.0
  0
ARC
  5
3AE
100
AcDbEntity
  8
2
370
    50
100
AcDbCircle
 10
-355.51436
 20
-204.543014
 30
0.0
 40
1.0
100
AcDbArc
 50
306.869898
 51
360.0
  0
LINE
  5
3AF
100
AcDbEntity
  8
2
370
    50
100
AcDbLine
 10
-354.51436
 20
-204.543014
 30
0.0
 11
-354.51436
 21
-200.643014
 31
0.0
  0
ARC
  5
3B0
100
AcDbEntity
  8
2
370
    50
100
AcDbCircle
 10
-355.51436
 20
-200.643014
 30
0.0
 40
1.0
100
AcDbArc
 50
360.0
 51
53.130102
  0
LINE
  5
3B1
100
AcDbEntity
  8
2
370
    50
100
AcDbLine
 10
-354.91436
 20
-199.843014
 30
0.0
 11
-354.91436
 21
-197.843014
 31
0.0
  0
LINE
  5
3B2
100
AcDbEntity
  8
2
370
    50
100
AcDbLine
 10
-354.91436
 20
-199.843014
 30
0.0
 11
-361.51436
 21
-199.843014
 31
0.0
  0
LINE
  5
3B3
100
AcDbEntity
  8
2
370
    50
100
AcDbLine
 10
-354.91436
 20
-197.843014
 30
0.0
 11
-361.51436
 21
-197.843014
 31
0.0
  0
ARC
  5
3B4
100
AcDbEntity
  8
2
370
    50
100
AcDbCircle
 10
-355.51436
 20
-197.043014
 30
0.0
 40
1.0
100
AcDbArc
 50
306.869898
 51
360.0
  0
LINE
  5
3B5
100
AcDbEntity
  8
2
370
    50
100
AcDbLine
 10
-354.51436
 20
-197.043014
 30
0.0
 11
-354.51436
 21
-193.643014
 31
0.0
  0
ARC
  5
3B6
100
AcDbEntity
  8
2
370
    50
100
AcDbCircle
 10
-355.51436
 20
-193.643014
 30
0.0
 40
1.0
100
AcDbArc
 50
360.0
 51
53.130102
  0
LINE
  5
3B7
100
AcDbEntity
  8
2
370
    50
100
AcDbLine
 10
-354.91436
 20
-192.843014
 30
0.0
 11
-361.51436
 21
-192.843014
 31
0.0
  0
LINE
  5
3B8
100
AcDbEntity
  8
2
370
    50
100
AcDbLine
 10
-354.91436
 20
-192.843014
 30
0.0
 11
-354.91436
 21
-190.843014
 31
0.0
  0
LINE
  5
3B9
100
AcDbEntity
  8
2
370
    50
100
AcDbLine
 10
-354.91436
 20
-190.843014
 30
0.0
 11
-361.51436
 21
-190.843014
 31
0.0
  0
ARC
  5
3BA
100
AcDbEntity
  8
2
370
    50
100
AcDbCircle
 10
-355.51436
 20
-190.043014
 30
0.0
 40
1.0
100
AcDbArc
 50
306.869898
 51
360.0
  0
LINE
  5
3BB
100
AcDbEntity
  8
2
370
    50
100
AcDbLine
 10
-354.51436
 20
-190.043014
 30
0.0
 11
-354.51436
 21
-186.643014
 31
0.0
  0
ARC
  5
3BC
100
AcDbEntity
  8
2
370
    50
100
AcDbCircle
 10
-355.51436
 20
-186.643014
 30
0.0
 40
1.0
100
AcDbArc
 50
360.0
 51
53.130102
  0
LINE
  5
3BD
100
AcDbEntity
  8
2
370
    50
100
AcDbLine
 10
-354.91436
 20
-185.843014
 30
0.0
 11
-361.51436
 21
-185.843014
 31
0.0
  0
LINE
  5
3BE
100
AcDbEntity
  8
2
370
    50
100
AcDbLine
 10
-354.91436
 20
-185.843014
 30
0.0
 11
-354.91436
 21
-183.843014
 31
0.0
  0
LINE
  5
3BF
100
AcDbEntity
  8
2
370
    50
100
AcDbLine
 10
-354.91436
 20
-183.843014
 30
0.0
 11
-361.51436
 21
-183.843014
 31
0.0
  0
ARC
  5
3C0
100
AcDbEntity
  8
2
370
    50
100
AcDbCircle
 10
-355.51436
 20
-183.043014
 30
0.0
 40
1.0
100
AcDbArc
 50
306.869898
 51
360.0
  0
LINE
  5
3C1
100
AcDbEntity
  8
2
370
    50
100
AcDbLine
 10
-354.51436
 20
-183.043014
 30
0.0
 11
-354.51436
 21
-177.143014
 31
0.0
  0
ARC
  5
3C2
100
AcDbEntity
  8
2
370
    50
100
AcDbCircle
 10
-355.51436
 20
-177.143014
 30
0.0
 40
1.0
100
AcDbArc
 50
360.0
 51
53.130102
  0
LINE
  5
3C3
100
AcDbEntity
  8
2
370
    50
100
AcDbLine
 10
-368.11436
 20
-176.343014
 30
0.0
 11
-354.91436
 21
-176.343014
 31
0.0
  0
ARC
  5
3C4
100
AcDbEntity
  8
2
370
    50
100
AcDbCircle
 10
-367.51436
 20
-177.143014
 30
0.0
 40
1.0
100
AcDbArc
 50
126.869898
 51
180.0
  0
LINE
  5
3C5
100
AcDbEntity
  8
2
370
    50
100
AcDbLine
 10
-367.96436
 20
-242.083049
 30
0.0
 11
-367.96436
 21
-205.343014
 31
0.0
  0
LINE
  5
3C6
100
AcDbEntity
  8
2
370
    50
100
AcDbLine
 10
-355.06436
 20
-242.083049
 30
0.0
 11
-355.06436
 21
-205.343014
 31
0.0
  0
ARC
  5
3C7
100
AcDbEntity
  8
2
370
    50
100
AcDbCircle
 10
-361.51436
 20
-180.546644
 30
0.0
 40
10.10363
100
AcDbArc
 50
90.0
 51
103.729133
  0
LINE
  5
3C8
100
AcDbEntity
  8
2
370
    50
100
AcDbLine
 10
-365.078542
 20
-170.731689
 30
0.0
 11
-363.912276
 21
-170.731689
 31
0.0
  0
ARC
  5
3C9
100
AcDbEntity
  8
2
370
    50
100
AcDbCircle
 10
-366.2775
 20
-173.077175
 30
0.0
 40
2.634161
100
AcDbArc
 50
62.924933
 51
117.075067
  0
LINE
  5
3CA
100
AcDbEntity
  8
2
370
    50
100
AcDbLine
 10
-363.912276
 20
-170.731689
 30
0.0
 11
-363.912276
 21
-176.054339
 31
0.0
  0
LINE
  5
3CB
100
AcDbEntity
  8
2
370
    50
100
AcDbLine
 10
-365.078542
 20
-170.731689
 30
0.0
 11
-365.078542
 21
-176.054339
 31
0.0
  0
LINE
  5
3CC
100
AcDbEntity
  8
2
370
    50
100
AcDbLine
 10
-367.476458
 20
-170.731689
 30
0.0
 11
-367.476458
 21
-176.054339
 31
0.0
  0
ARC
  5
3CD
100
AcDbEntity
  8
2
370
    50
100
AcDbCircle
 10
-364.739315
 20
-237.782988
 30
0.0
 40
5.375075
100
AcDbArc
 50
233.130102
 51
306.869898
  0
ARC
  5
3CE
100
AcDbEntity
  8
2
370
    50
100
AcDbCircle
 10
-358.289225
 20
-246.383109
 30
0.0
 40
5.375075
100
AcDbArc
 50
53.130102
 51
126.869898
  0
ARC
  5
3CF
100
AcDbEntity
  8
2
370
    50
100
AcDbCircle
 10
-364.739315
 20
-246.383109
 30
0.0
 40
5.375075
100
AcDbArc
 50
53.130102
 51
126.869898
  0
LINE
  5
3D0
100
AcDbEntity
  8
2
370
    50
100
AcDbLine
 10
-290.06436
 20
-229.923662
 30
0.0
 11
-290.06436
 21
-211.412846
 31
0.0
  0
LINE
  5
3D1
100
AcDbEntity
  8
2
370
    50
100
AcDbLine
 10
-302.96436
 20
-229.923662
 30
0.0
 11
-302.96436
 21
-211.412846
 31
0.0
  0
LINE
  5
3D2
100
AcDbEntity
  8
2
370
    50
100
AcDbLine
 10
-340.51436
 20
-170.731689
 30
0.0
 11
-341.014279
 21
-170.443014
 31
0.0
  0
LINE
  5
3D3
100
AcDbEntity
  8
2
370
    50
100
AcDbLine
 10
-367.476458
 20
-170.731689
 30
0.0
 11
-367.51436
 21
-170.731689
 31
0.0
  0
LINE
  5
3D4
100
AcDbEntity
  8
2
370
    50
100
AcDbLine
 10
-355.51436
 20
-170.731689
 30
0.0
 11
-355.552263
 21
-170.731689
 31
0.0
  0
LINE
  5
3D5
100
AcDbEntity
  8
2
370
    50
100
AcDbLine
 10
-355.51436
 20
-170.731689
 30
0.0
 11
-356.014279
 21
-170.443014
 31
0.0
  0
LINE
  5
3D6
100
AcDbEntity
  8
2
370
    50
100
AcDbLine
 10
-352.476458
 20
-170.731689
 30
0.0
 11
-352.51436
 21
-170.731689
 31
0.0
  0
LINE
  5
3D7
100
AcDbEntity
  8
2
370
    50
100
AcDbLine
 10
-340.51436
 20
-170.731689
 30
0.0
 11
-340.552263
 21
-170.731689
 31
0.0
  0
TEXT
  5
3D8
100
AcDbEntity
  8
3
370
    50
100
AcDbText
 10
195.737441
 20
-22.50277
 30
0.0
 40
10.5
  1
湯側
 72
     5
 11
214.637441
 21
-22.50277
 31
0.0
100
AcDbText
  0
TEXT
  5
3D9
100
AcDbEntity
  8
3
370
    50
100
AcDbText
 10
71.755266
 20
-83.339829
 30
0.0
 40
10.5
  1
水側
 72
     5
 11
90.655266
 21
-83.339829
 31
0.0
100
AcDbText
  0
TEXT
  5
3DA
100
AcDbEntity
  8
3
370
    50
100
AcDbText
 10
-256.504193
 20
-44.279554
 30
0.0
 40
10.5
  1
吐水
 72
     5
 11
-237.604193
 21
-44.279554
 31
0.0
100
AcDbText
  0
TEXT
  5
3DB
100
AcDbEntity
  8
3
370
    50
100
AcDbText
 10
-320.327241
 20
-18.306252
 30
0.0
 40
10.5
  1
止水
 72
     5
 11
-301.427241
 21
-18.306252
 31
0.0
100
AcDbText
  0
POINT
  5
3DC
100
AcDbEntity
  8
3
370
    50
100
AcDbPoint
 10
164.033983
 20
-144.199064
 30
0.0
  0
CIRCLE
  5
3DD
100
AcDbEntity
  8
3
370
    50
100
AcDbCircle
 10
-316.514361
 20
-81.28757
 30
0.0
 40
1.0
  0
CIRCLE
  5
3DE
100
AcDbEntity
  8
3
370
    50
100
AcDbCircle
 10
-316.514361
 20
-87.693014
 30
0.0
 40
1.0
  0
TEXT
  5
3DF
100
AcDbEntity
  8
3
370
    50
100
AcDbText
 10
-434.093238
 20
-85.545718
 30
0.0
 40
10.5
  1
青色
 72
     5
 11
-415.193238
 21
-85.545718
 31
0.0
100
AcDbText
  0
TEXT
  5
3E0
100
AcDbEntity
  8
3
370
    50
100
AcDbText
 10
-435.13578
 20
-98.721476
 30
0.0
 40
10.5
  1
（水表示）
 72
     5
 11
-384.73578
 21
-98.721476
 31
0.0
100
AcDbText
  0
TEXT
  5
3E1
100
AcDbEntity
  8
3
370
    50
100
AcDbText
 10
-433.193224
 20
-69.697404
 30
0.0
 40
10.5
  1
（湯表示）
 72
     5
 11
-382.793224
 21
-69.697404
 31
0.0
100
AcDbText
  0
TEXT
  5
3E2
100
AcDbEntity
  8
3
370
    50
100
AcDbText
 10
-434.125986
 20
-56.326521
 30
0.0
 40
10.5
  1
赤色
 72
     5
 11
-415.225986
 21
-56.326521
 31
0.0
100
AcDbText
  0
LWPOLYLINE
  5
3E3
100
AcDbEntity
  8
3
370
    25
100
AcDbPolyline
 90
        3
 70
     0
 10
-317.354064
 20
-80.744525
 10
-327.204677
 20
-67.584059
 10
-379.966823
 20
-67.584059
  0
LINE
  5
3E8
100
AcDbEntity
  8
3
370
    25
100
AcDbLine
 10
-320.826942
 20
-76.104743
 30
0.0
 11
-322.070168
 21
-77.035298
 31
0.0
  0
LINE
  5
3E9
100
AcDbEntity
  8
3
370
    25
100
AcDbLine
 10
-322.070168
 20
-77.035298
 30
0.0
 11
-317.354064
 21
-80.744525
 31
0.0
  0
LINE
  5
3EA
100
AcDbEntity
  8
3
370
    25
100
AcDbLine
 10
-317.354064
 20
-80.744525
 30
0.0
 11
-319.583717
 21
-75.174188
 31
0.0
  0
LINE
  5
3EB
100
AcDbEntity
  8
3
370
    25
100
AcDbLine
 10
-319.583717
 20
-75.174188
 30
0.0
 11
-320.826942
 21
-76.104743
 31
0.0
  0
LWPOLYLINE
  5
3EC
100
AcDbEntity
  8
3
370
    25
100
AcDbPolyline
 90
        3
 70
     0
 10
-316.93886
 20
-88.598442
 10
-322.117824
 20
-92.459713
 10
-380.0377
 20
-92.459713
  0
LINE
  5
3F1
100
AcDbEntity
  8
3
370
    25
100
AcDbLine
 10
-321.585169
 20
-92.062583
 30
0.0
 11
-320.656956
 21
-93.307558
 31
0.0
  0
LINE
  5
3F2
100
AcDbEntity
  8
3
370
    25
100
AcDbLine
 10
-320.656956
 20
-93.307558
 30
0.0
 11
-316.93886
 21
-88.598442
 31
0.0
  0
LINE
  5
3F3
100
AcDbEntity
  8
3
370
    25
100
AcDbLine
 10
-316.93886
 20
-88.598442
 30
0.0
 11
-322.513383
 21
-90.817608
 31
0.0
  0
LINE
  5
3F4
100
AcDbEntity
  8
3
370
    25
100
AcDbLine
 10
-322.513383
 20
-90.817608
 30
0.0
 11
-321.585169
 21
-92.062583
 31
0.0
  0
LWPOLYLINE
  5
3F5
100
AcDbEntity
  8
3
370
    25
100
AcDbPolyline
 90
        3
 70
     0
 10
181.110108
 20
-232.620036
 10
194.910325
 20
-246.919429
 10
236.832574
 20
-246.919429
  0
LINE
  5
3FA
100
AcDbEntity
  8
3
370
    25
100
AcDbLine
 10
185.134749
 20
-236.790255
 30
0.0
 11
186.252156
 21
-235.711855
 31
0.0
  0
LINE
  5
3FB
100
AcDbEntity
  8
3
370
    25
100
AcDbLine
 10
186.252156
 20
-235.711855
 30
0.0
 11
181.110108
 21
-232.620036
 31
0.0
  0
LINE
  5
3FC
100
AcDbEntity
  8
3
370
    25
100
AcDbLine
 10
181.110108
 20
-232.620036
 30
0.0
 11
184.017342
 21
-237.868654
 31
0.0
  0
LINE
  5
3FD
100
AcDbEntity
  8
3
370
    25
100
AcDbLine
 10
184.017342
 20
-237.868654
 30
0.0
 11
185.134749
 21
-236.790255
 31
0.0
  0
TEXT
  5
3FE
100
AcDbEntity
  8
3
370
    50
100
AcDbText
 10
342.868469
 20
-409.072632
 30
0.0
 40
10.5
  1
外観寸法図
 72
     5
 11
393.268469
 21
-409.072632
 31
0.0
100
AcDbText
  0
POINT
  5
3FF
100
AcDbEntity
  8
3
370
    50
100
AcDbPoint
 10
-263.673468
 20
-33.843936
 30
0.0
  0
POINT
  5
400
100
AcDbEntity
  8
3
370
    50
100
AcDbPoint
 10
-354.014361
 20
208.081986
 30
0.0
  0
POINT
  5
401
100
AcDbEntity
  8
3
370
    50
100
AcDbPoint
 10
164.033983
 20
-47.199064
 30
0.0
  0
POINT
  5
402
100
AcDbEntity
  8
3
370
    50
100
AcDbPoint
 10
-354.014361
 20
79.790097
 30
0.0
  0
POINT
  5
403
100
AcDbEntity
  8
3
370
    50
100
AcDbPoint
 10
-354.014361
 20
222.453295
 30
0.0
  0
LINE
  5
404
100
AcDbEntity
  8
3
370
    25
100
AcDbLine
 10
-111.833909
 20
-153.8938
 30
0.0
 11
-86.061179
 21
29.488706
 31
0.0
  0
POINT
  5
405
100
AcDbEntity
  8
3
370
    50
100
AcDbPoint
 10
44.033983
 20
222.453295
 30
0.0
  0
POINT
  5
406
100
AcDbEntity
  8
3
370
    50
100
AcDbPoint
 10
-91.452107
 20
59.390575
 30
0.0
  0
POINT
  5
407
100
AcDbEntity
  8
3
370
    50
100
AcDbPoint
 10
-354.014361
 20
58.068431
 30
0.0
  0
POINT
  5
408
100
AcDbEntity
  8
3
370
    50
100
AcDbPoint
 10
-354.014361
 20
59.147022
 30
0.0
  0
POINT
  5
409
100
AcDbEntity
  8
3
370
    50
100
AcDbPoint
 10
-354.014361
 20
59.390575
 30
0.0
  0
POINT
  5
40A
100
AcDbEntity
  8
3
370
    50
100
AcDbPoint
 10
-344.489361
 20
58.068431
 30
0.0
  0
POINT
  5
40B
100
AcDbEntity
  8
3
370
    50
100
AcDbPoint
 10
-346.264361
 20
58.068431
 30
0.0
  0
POINT
  5
40C
100
AcDbEntity
  8
3
370
    50
100
AcDbPoint
 10
-344.514361
 20
58.068431
 30
0.0
  0
POINT
  5
40D
100
AcDbEntity
  8
3
370
    50
100
AcDbPoint
 10
161.034064
 20
-170.443013
 30
0.0
  0
POINT
  5
40E
100
AcDbEntity
  8
3
370
    50
100
AcDbPoint
 10
0.0
 20
-45.0
 30
0.0
  0
DIMENSION
  5
40F
100
AcDbEntity
  8
3
370
    25
100
AcDbDimension
  2
*D0
 10
-290.614361
 20
-43.732664
 30
0.0
 11
-252.307083
 21
-13.508829
 31
0.0
 70
     2
 71
     0
 72
     0
 41
0.0
 42
0.0
  3
Standard
100
AcDb2LineAngularDimension
 13
-278.514608
 23
-70.577049
 33
0.0
 14
-290.614361
 24
-100.524987
 34
0.0
 15
-290.614361
 25
-100.524987
 35
0.0
 16
-273.112063
 26
-10.483467
 36
0.0
1001
ACAD
1000
DSTYLE
1002
{
1070
   275
1070
     0
1070
   179
1070
     0
1002
}
  0
DIMENSION
  5
410
100
AcDbEntity
  8
3
370
    25
100
AcDbDimension
  2
*D1
 10
-377.91436
 20
-155.083935
 30
0.0
 11
-416.16436
 21
-148.333935
 31
0.0
 70
     1
 71
     0
 72
     0
 41
0.0
 42
0.0
  3
Standard
100
AcDbAlignedDimension
 13
-330.11436
 23
-165.943014
 33
0.0
 14
-377.91436
 24
-165.943014
 34
0.0
  0
TEXT
  5
411
100
AcDbEntity
  8
3
370
    50
100
AcDbText
 10
-167.54987
 20
-241.683171
 30
0.0
 40
10.5
  1
３５９
 50
90.0
 72
     5
 11
-167.54987
 21
-212.283171
 31
0.0
100
AcDbText
  0
DIMENSION
  5
412
100
AcDbEntity
  8
3
370
    25
100
AcDbDimension
  2
*D2
 10
-166.04987
 20
-166.443014
 30
0.0
 11
-168.54987
 21
-225.933171
 31
0.0
 71
     0
 72
     0
 41
0.0
 42
0.0
  3
Standard
100
AcDbAlignedDimension
 13
-296.51436
 23
-285.423329
 33
0.0
 14
-330.61436
 24
-166.443014
 34
0.0
 50
90.0
100
AcDbRotatedDimension
  0
TEXT
  5
413
100
AcDbEntity
  8
3
370
    50
100
AcDbText
 10
-333.432198
 20
-133.1922
 30
0.0
 40
10.5
  1
６８．１
 72
     5
 11
-293.532198
 21
-133.1922
 31
0.0
100
AcDbText
  0
DIMENSION
  5
414
100
AcDbEntity
  8
3
370
    25
100
AcDbDimension
  2
*D3
 10
-286.41436
 20
-134.054352
 30
0.0
 11
-320.21436
 21
-132.054352
 31
0.0
 71
     0
 72
     0
 41
0.0
 42
0.0
  3
Standard
100
AcDbAlignedDimension
 13
-354.01436
 23
-148.852783
 33
0.0
 14
-286.41436
 24
-112.943013
 34
0.0
100
AcDbRotatedDimension
  0
TEXT
  5
415
100
AcDbEntity
  8
3
370
    50
100
AcDbText
 10
-319.243914
 20
-146.307884
 30
0.0
 40
10.5
  1
９１
 72
     5
 11
-300.343914
 21
-146.307884
 31
0.0
100
AcDbText
  0
DIMENSION
  5
416
100
AcDbEntity
  8
3
370
    25
100
AcDbDimension
  2
*D4
 10
-263.473468
 20
-147.807884
 30
0.0
 11
-308.743914
 21
-145.807884
 31
0.0
 71
     0
 72
     0
 41
0.0
 42
0.0
  3
Standard
100
AcDbAlignedDimension
 13
-354.01436
 23
-152.847839
 33
0.0
 14
-263.473468
 24
-33.843936
 34
0.0
100
AcDbRotatedDimension
  0
DIMENSION
  5
417
100
AcDbEntity
  8
3
370
    25
100
AcDbDimension
  2
*D5
 10
-0.240245
 20
58.056676
 30
0.0
 11
-17.490245
 21
-59.443168
 31
0.0
 71
     0
 72
     0
 41
0.0
 42
0.0
  3
Standard
100
AcDbAlignedDimension
 13
140.633983
 23
-166.443013
 33
0.0
 14
-83.966017
 24
58.056676
 34
0.0
 50
90.0
100
AcDbRotatedDimension
  0
DIMENSION
  5
418
100
AcDbEntity
  8
3
370
    25
100
AcDbDimension
  2
*D6
 10
-82.04456
 20
58.047043
 30
0.0
 11
-82.997675
 21
-156.259967
 31
0.0
 70
     2
 71
     0
 72
     0
 41
0.0
 42
0.0
  3
Standard
100
AcDb2LineAngularDimension
 13
-110.657884
 23
-145.525947
 33
0.0
 14
-82.04456
 24
58.068431
 34
0.0
 15
-82.04456
 25
58.068431
 35
0.0
 16
-96.963572
 26
-155.283376
 36
0.0
1001
ACAD
1000
DSTYLE
1002
{
1070
   275
1070
     0
1070
   179
1070
     0
1002
}
  0
DIMENSION
  5
419
100
AcDbEntity
  8
3
370
    25
100
AcDbDimension
  2
*D7
 10
164.033983
 20
-155.80439
 30
0.0
 11
46.244711
 21
-149.55439
 31
0.0
 71
     0
 72
     0
 41
0.0
 42
0.0
  3
Standard
100
AcDbAlignedDimension
 13
-82.04456
 23
58.068431
 33
0.0
 14
164.033983
 24
-153.066199
 34
0.0
100
AcDbRotatedDimension
  0
TEXT
  5
41A
100
AcDbEntity
  8
3
370
    50
100
AcDbText
 10
-1.740246
 20
-200.84892
 30
0.0
 40
10.5
  1
５～３０
 50
90.0
 72
     5
 11
-1.740246
 21
-160.94892
 31
0.0
100
AcDbText
  0
DIMENSION
  5
41B
100
AcDbEntity
  8
3
370
    25
100
AcDbDimension
  2
*D8
 10
-0.240245
 20
-166.443013
 30
0.0
 11
-2.740245
 21
-179.84892
 31
0.0
 71
     0
 72
     0
 41
0.0
 42
0.0
  3
Standard
100
AcDbAlignedDimension
 13
146.833983
 23
-193.254828
 33
0.0
 14
140.633983
 24
-166.443013
 34
0.0
 50
90.0
100
AcDbRotatedDimension
  0
TEXT
  5
41C
100
AcDbEntity
  8
3
370
    50
100
AcDbText
 10
-59.710699
 20
380.123443
 30
0.0
 40
10.5
  1
（左右合計８０°）
 50
295.0
 72
     5
 11
-20.660772
 21
296.380604
 31
0.0
100
AcDbText
  0
DIMENSION
  5
41D
100
AcDbEntity
  8
3
370
    25
100
AcDbDimension
  2
*D9
 10
164.018975
 20
412.530558
 30
0.0
 11
-14.682792
 21
330.734765
 31
0.0
 70
     2
 71
     0
 72
     0
 41
0.0
 42
0.0
  3
Standard
100
AcDb2LineAngularDimension
 13
151.872011
 23
412.543151
 33
0.0
 14
164.033983
 24
412.543151
 34
0.0
 15
164.033983
 25
412.543151
 35
0.0
 16
-20.069609
 26
345.534923
 36
0.0
1001
ACAD
1000
DSTYLE
1002
{
1070
   275
1070
     0
1070
   179
1070
     0
1002
}
  0
TEXT
  5
41E
100
AcDbEntity
  8
3
370
    50
100
AcDbText
 10
-481.462282
 20
-168.970821
 30
0.0
 40
10.5
  1
（取付穴φ３６±１）
 72
     5
 11
-378.562282
 21
-168.970821
 31
0.0
100
AcDbText
  0
TEXT
  5
41F
100
AcDbEntity
  8
3
370
    50
100
AcDbText
 10
194.0795
 20
-245.736443
 30
0.0
 40
10.5
  1
１３六角
 72
     5
 11
233.9795
 21
-245.736443
 31
0.0
100
AcDbText
  0
TEXT
  5
420
100
AcDbEntity
  8
3
370
    50
100
AcDbText
 10
386.712753
 20
1.755141
 30
0.0
 40
10.5
  1
（３８９）
 50
90.0
 72
     5
 11
386.712753
 21
52.155141
 31
0.0
100
AcDbText
  0
DIMENSION
  5
421
100
AcDbEntity
  8
3
370
    25
100
AcDbDimension
  2
*D10
 10
388.212753
 20
222.453295
 30
0.0
 11
385.712753
 21
28.005141
 31
0.0
 71
     0
 72
     0
 41
0.0
 42
0.0
  3
Standard
100
AcDbAlignedDimension
 13
187.433983
 23
-166.443013
 33
0.0
 14
44.033983
 24
222.453295
 34
0.0
 50
90.0
100
AcDbRotatedDimension
  0
DIMENSION
  5
422
100
AcDbEntity
  8
3
370
    25
100
AcDbDimension
  2
*D11
 10
352.082268
 20
-96.443013
 30
0.0
 11
340.082268
 21
-131.443013
 31
0.0
 71
     0
 72
     0
 41
0.0
 42
0.0
  3
Standard
100
AcDbAlignedDimension
 13
187.433983
 23
-166.443013
 33
0.0
 14
186.036878
 24
-96.443013
 34
0.0
 50
90.0
100
AcDbRotatedDimension
  0
DIMENSION
  5
423
100
AcDbEntity
  8
3
370
    25
100
AcDbDimension
  2
*D12
 10
138.035848
 20
-84.319884
 30
0.0
 11
85.334474
 21
-22.109824
 31
0.0
 70
     2
 71
     0
 72
     0
 41
0.0
 42
0.0
  3
Standard
100
AcDb2LineAngularDimension
 13
137.23111
 23
-69.64014
 33
0.0
 14
164.033984
 24
-96.443014
 34
0.0
 15
164.033984
 25
-96.443014
 35
0.0
 16
76.300645
 26
-35.011468
 36
0.0
1001
ACAD
1000
DSTYLE
1002
{
1070
   275
1070
     0
1070
   179
1070
     0
1002
}
  0
DIMENSION
  5
424
100
AcDbEntity
  8
3
370
    25
100
AcDbDimension
  2
*D13
 10
137.231108
 20
-69.640138
 30
0.0
 11
151.138887
 21
12.535471
 31
0.0
 70
     2
 71
     0
 72
     0
 41
0.0
 42
0.0
  3
Standard
100
AcDb2LineAngularDimension
 13
171.165509
 23
-69.827801
 33
0.0
 14
164.033984
 24
-96.443014
 34
0.0
 15
164.033984
 25
-96.443014
 35
0.0
 16
136.313784
 26
7.010182
 36
0.0
1001
ACAD
1000
DSTYLE
1002
{
1070
   275
1070
     0
1070
   179
1070
     0
1002
}
  0
TEXT
  5
425
100
AcDbEntity
  8
3
370
    50
100
AcDbText
 10
28.428381
 20
40.246996
 30
0.0
 40
10.5
  1
ハンドル回転角度：
 72
     5
 11
120.828381
 21
40.246996
 31
0.0
100
AcDbText
  0
TEXT
  5
426
100
AcDbEntity
  8
3
370
    50
100
AcDbText
 10
38.464216
 20
27.882185
 30
0.0
 40
10.5
  1
水側２０°湯側６０°
 72
     5
 11
141.364216
 21
27.882185
 31
0.0
100
AcDbText
  0
TEXT
  5
427
100
AcDbEntity
  8
3
370
    50
100
AcDbText
 10
99.278465
 20
-352.011025
 30
0.0
 40
8.505
  1
ＭＫＺ５４８ＭＭＥ－ＢＬ
 72
     5
 11
199.637465
 21
-352.011025
 31
0.0
100
AcDbText
  0
TEXT
  5
428
100
AcDbEntity
  8
3
370
    50
100
AcDbText
 10
502.059838
 20
-409.072632
 30
0.0
 40
10.5
  1
１１０２６７
 72
     5
 11
562.959838
 21
-409.072632
 31
0.0
100
AcDbText
  0
TEXT
  5
429
100
AcDbEntity
  8
3
370
    50
100
AcDbText
 10
99.278465
 20
-342.291025
 30
0.0
 40
8.505
  1
台付シングルレバー湯水混合水栓（共・節湯）
 72
     5
 11
276.182465
 21
-342.291025
 31
0.0
100
AcDbText
  0
TEXT
  5
42A
100
AcDbEntity
  8
3
370
    50
100
AcDbText
 10
517.647196
 20
-384.15044
 30
0.0
 40
9.0
  1
２１　　９　１５
 72
     5
 11
587.847196
 21
-384.15044
 31
0.0
100
AcDbText
  0
LWPOLYLINE
  5
42B
100
AcDbEntity
  8
3
370
    25
100
AcDbPolyline
 90
        3
 70
     0
 10
-290.143341
 20
-294.923329
 10
-275.733383
 20
-323.06057
 10
-251.74512
 20
-323.06057
  0
LINE
  5
430
100
AcDbEntity
  8
3
370
    25
100
AcDbLine
 10
-287.501549
 20
-300.081758
 30
0.0
 11
-286.119352
 21
-299.373892
 31
0.0
  0
LINE
  5
431
100
AcDbEntity
  8
3
370
    25
100
AcDbLine
 10
-286.119352
 20
-299.373892
 30
0.0
 11
-290.143341
 21
-294.923329
 31
0.0
  0
LINE
  5
432
100
AcDbEntity
  8
3
370
    25
100
AcDbLine
 10
-290.143341
 20
-294.923329
 30
0.0
 11
-288.883746
 21
-300.789624
 31
0.0
  0
LINE
  5
433
100
AcDbEntity
  8
3
370
    25
100
AcDbLine
 10
-288.883746
 20
-300.789624
 30
0.0
 11
-287.501549
 21
-300.081758
 31
0.0
  0
TEXT
  5
434
100
AcDbEntity
  8
3
370
    50
100
AcDbText
 10
-273.57413
 20
-302.860587
 30
0.0
 40
7.0
  1
２４六角
 72
     5
 11
-246.97413
 21
-302.860587
 31
0.0
100
AcDbText
  0
TEXT
  5
435
100
AcDbEntity
  8
3
370
    50
100
AcDbText
 10
-276.662974
 20
-321.703086
 30
0.0
 40
7.0
  1
Ｇ１/２
 72
     5
 11
-253.562974
 21
-321.703086
 31
0.0
100
AcDbText
  0
LWPOLYLINE
  5
436
100
AcDbEntity
  8
3
370
    25
100
AcDbPolyline
 90
        3
 70
     0
 10
-282.657748
 20
-289.335548
 10
-272.540092
 20
-304.419586
 10
-244.423282
 20
-304.419586
  0
LINE
  5
43B
100
AcDbEntity
  8
3
370
    25
100
AcDbLine
 10
-279.429351
 20
-294.148646
 30
0.0
 11
-278.139685
 21
-293.2836
 31
0.0
  0
LINE
  5
43C
100
AcDbEntity
  8
3
370
    25
100
AcDbLine
 10
-278.139685
 20
-293.2836
 30
0.0
 11
-282.657748
 21
-289.335548
 31
0.0
  0
LINE
  5
43D
100
AcDbEntity
  8
3
370
    25
100
AcDbLine
 10
-282.657748
 20
-289.335548
 30
0.0
 11
-280.719017
 21
-295.013692
 31
0.0
  0
LINE
  5
43E
100
AcDbEntity
  8
3
370
    25
100
AcDbLine
 10
-280.719017
 20
-295.013692
 30
0.0
 11
-279.429351
 21
-294.148646
 31
0.0
  0
TEXT
  5
43F
100
AcDbEntity
  8
3
370
    50
100
AcDbText
 10
436.248873
 20
-360.020238
 30
0.0
 40
9.0
  1
１　３
 72
     5
 11
461.448873
 21
-360.020238
 31
0.0
100
AcDbText
  0
ENDSEC
  0
SECTION
  2
OBJECTS
  0
DICTIONARY
  5
4E2
100
AcDbDictionary
280
     0
281
     1
  3
ACAD_GROUP
350
4E3
  3
ACAD_MLINESTYLE
350
4E4
  0
DICTIONARY
  5
4E3
102
{ACAD_REACTORS
330
4E2
102
}
100
AcDbDictionary
280
     0
281
     1
  0
DICTIONARY
  5
4E4
102
{ACAD_REACTORS
330
4E2
102
}
100
AcDbDictionary
280
     0
281
     1
  3
Standard
350
4E5
  0
MLINESTYLE
  5
4E5
102
{ACAD_REACTORS
330
4E4
102
}
100
AcDbMlineStyle
  2
Standard
 70
     0
  3

 62
     0
 51
90.0
 52
90.0
 71
     2
 49
0.5
 62
   256
  6
ByLayer
 49
-0.5
 62
   256
  6
ByLayer
  0
ENDSEC
  0
EOF
