  0
SECTION
  2
HEADER
  9
$ACADVER
  1
AC1015
  9
$ACADMAINTVER
 70
     6
  9
$DWGCODEPAGE
  3
ANSI_932
  9
$INSBASE
 10
0.0
 20
0.0
 30
0.0
  9
$EXTMIN
 10
-420.0
 20
-297.0
 30
1.000000E+20
  9
$EXTMAX
 10
420.0
 20
297.0
 30
-1.000000E+20
  9
$LIMMIN
 10
-420.0
 20
-297.0
  9
$LIMMAX
 10
420.0
 20
297.0
  9
$ORTHOMODE
 70
     0
  9
$REGENMODE
 70
     1
  9
$FILLMODE
 70
     1
  9
$QTEXTMODE
 70
     0
  9
$MIRRTEXT
 70
     1
  9
$LTSCALE
 40
1.0
  9
$ATTMODE
 70
     1
  9
$TEXTSIZE
 40
0.2
  9
$TRACEWID
 40
0.05
  9
$TEXTSTYLE
  7
STANDARD
  9
$CLAYER
  8
0
  9
$CELTYPE
  6
CONTINUOUS
  9
$CECOLOR
 62
   256
  9
$CELTSCALE
 40
1.0
  9
$DISPSILH
 70
     0
  9
$DIMSCALE
 40
2.0
  9
$DIMASZ
 40
2.0
  9
$DIMEXO
 40
1.0
  9
$DIMDLI
 40
0.38
  9
$DIMRND
 40
0.0
  9
$DIMDLE
 40
0.0
  9
$DIMEXE
 40
2.0
  9
$DIMTP
 40
0.0
  9
$DIMTM
 40
0.0
  9
$DIMTXT
 40
3.5
  9
$DIMCEN
 40
0.09
  9
$DIMTSZ
 40
0.0
  9
$DIMTOL
 70
     0
  9
$DIMLIM
 70
     0
  9
$DIMTIH
 70
     0
  9
$DIMTOH
 70
     0
  9
$DIMSE1
 70
     0
  9
$DIMSE2
 70
     0
  9
$DIMTAD
 70
     1
  9
$DIMZIN
 70
     0
  9
$DIMBLK
  1

  9
$DIMASO
 70
     1
  9
$DIMSHO
 70
     1
  9
$DIMPOST
  1

  9
$DIMAPOST
  1

  9
$DIMALT
 70
     0
  9
$DIMALTD
 70
     2
  9
$DIMALTF
 40
25.4
  9
$DIMLFAC
 40
1.0
  9
$DIMTOFL
 70
     0
  9
$DIMTVP
 40
0.0
  9
$DIMTIX
 70
     0
  9
$DIMSOXD
 70
     0
  9
$DIMSAH
 70
     0
  9
$DIMBLK1
  1

  9
$DIMBLK2
  1

  9
$DIMSTYLE
  2
Standard
  9
$DIMCLRD
 70
     0
  9
$DIMCLRE
 70
     0
  9
$DIMCLRT
 70
     0
  9
$DIMTFAC
 40
1.0
  9
$DIMGAP
 40
0.5
  9
$DIMJUST
 70
     0
  9
$DIMSD1
 70
     0
  9
$DIMSD2
 70
     0
  9
$DIMTOLJ
 70
     1
  9
$DIMTZIN
 70
     0
  9
$DIMALTZ
 70
     0
  9
$DIMALTTZ
 70
     0
  9
$DIMUPT
 70
     0
  9
$DIMDEC
 70
     3
  9
$DIMTDEC
 70
     4
  9
$DIMALTU
 70
     2
  9
$DIMALTTD
 70
     2
  9
$DIMTXSTY
  7
STANDARD
  9
$DIMAUNIT
 70
     0
  9
$DIMADEC
 70
     0
  9
$DIMALTRND
 40
0.0
  9
$DIMAZIN
 70
     0
  9
$DIMDSEP
 70
     0
  9
$DIMATFIT
 70
     3
  9
$DIMFRAC
 70
     0
  9
$DIMLDRBLK
  1

  9
$DIMLUNIT
 70
     2
  9
$DIMLWD
 70
     0
  9
$DIMLWE
 70
     0
  9
$DIMTMOVE
 70
     0
  9
$LUNITS
 70
     2
  9
$LUPREC
 70
     4
  9
$SKETCHINC
 40
0.1
  9
$FILLETRAD
 40
0.0
  9
$AUNITS
 70
     0
  9
$AUPREC
 70
     0
  9
$MENU
  1
acad
  9
$ELEVATION
 40
0.0
  9
$PELEVATION
 40
0.0
  9
$THICKNESS
 40
0.0
  9
$LIMCHECK
 70
     0
  9
$CHAMFERA
 40
0.0
  9
$CHAMFERB
 40
0.0
  9
$CHAMFERC
 40
0.0
  9
$CHAMFERD
 40
0.0
  9
$SKPOLY
 70
     0
  9
$TDCREATE
 40
2453383.000000000
  9
$TDUCREATE
 40
0.000000000
  9
$TDUPDATE
 40
0.000000000
  9
$TDUUPDATE
 40
2447892.625000000
  9
$TDINDWG
 40
0.0000000000
  9
$TDUSRTIMER
 40
0.0000000000
  9
$USRTIMER
 70
     1
  9
$ANGBASE
 50
0.0
  9
$ANGDIR
 70
     0
  9
$PDMODE
 70
     0
  9
$PDSIZE
 40
0.0
  9
$PLINEWID
 40
0.0
  9
$SPLFRAME
 70
     0
  9
$SPLINETYPE
 70
     6
  9
$SPLINESEGS
 70
     8
  9
$HANDSEED
  5
4D2
  9
$SURFTAB1
 70
     6
  9
$SURFTAB2
 70
     6
  9
$SURFTYPE
 70
     6
  9
$SURFU
 70
     6
  9
$SURFV
 70
     6
  9
$UCSBASE
  2

  9
$UCSNAME
  2

  9
$UCSORG
 10
0.0
 20
0.0
 30
0.0
  9
$UCSXDIR
 10
1.0
 20
0.0
 30
0.0
  9
$UCSYDIR
 10
0.0
 20
1.0
 30
0.0
  9
$UCSORTHOREF
  2

  9
$UCSORTHOVIEW
 70
     0
  9
$UCSORGTOP
 10
0.0
 20
0.0
 30
0.0
  9
$UCSORGBOTTOM
 10
0.0
 20
0.0
 30
0.0
  9
$UCSORGLEFT
 10
0.0
 20
0.0
 30
0.0
  9
$UCSORGRIGHT
 10
0.0
 20
0.0
 30
0.0
  9
$UCSORGFRONT
 10
0.0
 20
0.0
 30
0.0
  9
$UCSORGBACK
 10
0.0
 20
0.0
 30
0.0
  9
$PUCSBASE
  2

  9
$PUCSNAME
  2

  9
$PUCSORG
 10
0.0
 20
0.0
 30
0.0
  9
$PUCSXDIR
 10
1.0
 20
0.0
 30
0.0
  9
$PUCSYDIR
 10
0.0
 20
1.0
 30
0.0
  9
$PUCSORTHOREF
  2

  9
$PUCSORTHOVIEW
 70
     0
  9
$PUCSORGTOP
 10
0.0
 20
0.0
 30
0.0
  9
$PUCSORGBOTTOM
 10
0.0
 20
0.0
 30
0.0
  9
$PUCSORGLEFT
 10
0.0
 20
0.0
 30
0.0
  9
$PUCSORGRIGHT
 10
0.0
 20
0.0
 30
0.0
  9
$PUCSORGFRONT
 10
0.0
 20
0.0
 30
0.0
  9
$PUCSORGBACK
 10
0.0
 20
0.0
 30
0.0
  9
$USERI1
 70
     0
  9
$USERI2
 70
     0
  9
$USERI3
 70
     0
  9
$USERI4
 70
     0
  9
$USERI5
 70
     0
  9
$USERR1
 40
0.0
  9
$USERR2
 40
0.0
  9
$USERR3
 40
0.0
  9
$USERR4
 40
0.0
  9
$USERR5
 40
0.0
  9
$WORLDVIEW
 70
     1
  9
$SHADEDGE
 70
     3
  9
$SHADEDIF
 70
    70
  9
$TILEMODE
 70
     1
  9
$MAXACTVP
 70
    16
  9
$PINSBASE
 10
0.0
 20
0.0
 30
0.0
  9
$PLIMCHECK
 70
     0
  9
$PEXTMIN
 10
1.000000E+20
 20
1.000000E+20
 30
1.000000E+20
  9
$PEXTMAX
 10
-1.000000E+20
 20
-1.000000E+20
 30
-1.000000E+20
  9
$PLIMMIN
 10
0.0
 20
0.0
  9
$PLIMMAX
 10
12.0
 20
9.0
  9
$UNITMODE
 70
     0
  9
$VISRETAIN
 70
     0
  9
$PLINEGEN
 70
     1
  9
$PSLTSCALE
 70
     0
  9
$TREEDEPTH
 70
  3020
  9
$CMLSTYLE
  2
Standard
  9
$CMLJUST
 70
     0
  9
$CMLSCALE
 40
1.0
  9
$PROXYGRAPHICS
 70
     0
  9
$MEASUREMENT
 70
     0
  9
$CELWEIGHT
370
     0
  9
$ENDCAPS
280
     0
  9
$JOINSTYLE
280
     0
  9
$LWDISPLAY
290
     0
  9
$INSUNITS
 70
     0
  9
$HYPERLINKBASE
  1

  9
$STYLESHEET
  1

  9
$XEDIT
290
     1
  9
$CEPSNTYPE
380
     0
  9
$PSTYLEMODE
290
     1
  9
$FINGERPRINTGUID
  2

  9
$VERSIONGUID
  2

  9
$EXTNAMES
290
     1
  9
$PSVPSCALE
 40
0.0
  0
ENDSEC
  0
SECTION
  2
CLASSES
  0
CLASS
  1
LWPOLYLINE
  2
AcDbPolyline
  3
AutoCAD 2000
 90
        0
280
     0
281
     1
  0
CLASS
  1
IMAGE
  2
AcDbRasterImage
  3
ISM
 90
      127
280
     0
281
     1
  0
CLASS
  1
OLE2FRAME
  2
AcDbOle2Frame
  3
AutoCAD 2000
 90
        0
280
     0
281
     1
  0
CLASS
  1
HATCH
  2
AcDbHatch
  3
AutoCAD 2000
 90
        0
280
     0
281
     1
  0
CLASS
  1
DICTIONARYVAR
  2
AcDbDictionaryVar
  3
AutoCAD 2000
 90
        0
280
     0
281
     0
  0
CLASS
  1
RASTERVARIABLES
  2
AcDbRasterVariables
  3
ISM
 90
        0
280
     0
281
     0
  0
CLASS
  1
IMAGEDEF
  2
AcDbRasterImageDef
  3
ISM
 90
        0
280
     0
281
     0
  0
CLASS
  1
IMAGEDEF_REACTOR
  2
AcDbRasterImageDefReactor
  3
ISM
 90
        1
280
     0
281
     0
  0
CLASS
  1
IDBUFFER
  2
AcDbIdBuffer
  3
AutoCAD 2000
 90
        0
280
     0
281
     0
  0
CLASS
  1
SPATIAL_FILTER
  2
AcDbSpatialFilter
  3
AutoCAD 2000
 90
        0
280
     0
281
     0
  0
CLASS
  1
XRECORD
  2
AcDbXrecord
  3
AutoCAD 2000
 90
        0
280
     0
281
     0
  0
CLASS
  1
SORTENTSTABLE
  2
AcDbSortentsTable
  3
AutoCAD 2000
 90
        0
280
     0
281
     0
  0
CLASS
  1
LAYER_INDEX
  2
AcDbLayerIndex
  3
AutoCAD 2000
 90
        0
280
     0
281
     0
  0
CLASS
  1
SPATIAL_INDEX
  2
AcDbSpatialIndex
  3
AutoCAD 2000
 90
        0
280
     0
281
     0
  0
CLASS
  1
OBJECT_PTR
  2
CAseDLPNTableRecord
  3
"ASE-LPNTableRecord"
 90
        1
280
     0
281
     0
  0
CLASS
  1
LAYOUT
  2
AcDbLayout
  3
AutoCAD 2000
 90
        0
280
     0
281
     0
  0
CLASS
  1
PLOTSETTINGS
  2
AcDbPlotSettings
  3
AutoCAD 2000
 90
        0
280
     0
281
     0
  0
CLASS
  1
ACDBDICTIONARYWDFLT
  2
AcDbDictionaryWithDefault
  3
AutoCAD 2000
 90
        0
280
     0
281
     0
  0
CLASS
  1
ACDBPLACEHOLDER
  2
AcDbPlaceHolder
  3
AutoCAD 2000
 90
        0
280
     0
281
     0
  0
CLASS
  1
VBA_PROJECT
  2
AcDbVbaProject
  3
acadvba
 90
        0
280
     0
281
     0
  0
CLASS
  1
WIPEOUT
  2
AcDbWipeout
  3
WipeOut|AutoCAD Express Tool|expresstools@autodesk.com
 90
      127
280
     0
281
     1
  0
CLASS
  1
WIPEOUTVARIABLES
  2
AcDbWipeoutVariables
  3
WipeOut|AutoCAD Express Tool|expresstools@autodesk.com
 90
        0
280
     0
281
     0
  0
CLASS
  1
RTEXT
  2
RText
  3
RText|AutoCAD Express Tool|expresstools@autodesk.com
 90
        0
280
     0
281
     1
  0
CLASS
  1
ARCALIGNEDTEXT
  2
AcDbArcAlignedText
  3
ATEXT|AutoCAD Express Tool|expresstools@autodesk.com
 90
        0
280
     0
281
     1
  0
ENDSEC
  0
SECTION
  2
TABLES
  0
TABLE
  2
VPORT
  5
6
100
AcDbSymbolTable
 70
     1
  0
VPORT
  5
19
100
AcDbSymbolTableRecord
100
AcDbViewportTableRecord
  2
*ACTIVE
 70
     0
 10
0.0
 20
0.0
 11
1.0
 21
1.0
 12
0.0
 22
0.0
 13
0.0
 23
0.0
 14
1.0
 24
1.0
 15
0.0
 25
0.0
 16
0.0
 26
0.0
 36
1.0
 17
0.0
 27
0.0
 37
0.0
 40
594.0
 41
1.414141
 42
50.0
 43
0.0
 44
0.0
 50
0.0
 51
0.0
 71
     0
 72
   500
 73
     1
 74
     1
 75
     0
 76
     0
 77
     0
 78
     0
281
     0
 65
     0
110
0.0
120
0.0
130
0.0
111
1.0
121
0.0
131
0.0
112
0.0
122
1.0
132
0.0
345
0
346
0
 79
     0
146
0.0
  0
ENDTAB
  0
TABLE
  2
LTYPE
  5
3
100
AcDbSymbolTable
 70
     9
  0
LTYPE
  5
C
100
AcDbSymbolTableRecord
100
AcDbLinetypeTableRecord
  2
ByBlock
 70
    64
  3

 72
    65
 73
     0
 40
0.0
  0
LTYPE
  5
D
100
AcDbSymbolTableRecord
100
AcDbLinetypeTableRecord
  2
ByLayer
 70
    64
  3

 72
    65
 73
     0
 40
0.0
  0
LTYPE
  5
E
100
AcDbSymbolTableRecord
100
AcDbLinetypeTableRecord
  2
CONTINUOUS
 70
     0
  3
Solid line
 72
    65
 73
     0
 40
0.0
  0
LTYPE
  5
F
100
AcDbSymbolTableRecord
100
AcDbLinetypeTableRecord
  2
DASHED
 70
     0
  3
__ __ __ __ __ __ __ __ __ __ __ __ __ __ __
 72
    65
 73
     2
 40
2.0
 49
1.2
 74
     0
 49
-0.8
 74
     0
  0
LTYPE
  5
10
100
AcDbSymbolTableRecord
100
AcDbLinetypeTableRecord
  2
CENTER
 70
     0
  3
____ _ ____ _ ____ _ ____ _ ____ _ ____ _ ____
 72
    65
 73
     4
 40
12.0
 49
9.0
 74
     0
 49
-1.0
 74
     0
 49
1.0
 74
     0
 49
-1.0
 74
     0
  0
LTYPE
  5
11
100
AcDbSymbolTableRecord
100
AcDbLinetypeTableRecord
  2
HIDDEN
 70
     0
  3
_ _ _ _ _ _ _ _ _ _ _ _ _ _ _ _ _ _ _ _ _ _ _
 72
    65
 73
     2
 40
3.2
 49
2.4
 74
     0
 49
-0.8
 74
     0
  0
LTYPE
  5
12
100
AcDbSymbolTableRecord
100
AcDbLinetypeTableRecord
  2
PHANTOM
 70
     0
  3
_____ _ _ _____ _ _ _____ _ _ _____ _ _ _____
 72
    65
 73
     6
 40
13.5
 49
9.0
 74
     0
 49
-1.0
 74
     0
 49
1.0
 74
     0
 49
-0.5
 74
     0
 49
1.0
 74
     0
 49
-1.0
 74
     0
  0
LTYPE
  5
13
100
AcDbSymbolTableRecord
100
AcDbLinetypeTableRecord
  2
DOT
 70
     0
  3
...............................................
 72
    65
 73
     2
 40
1.0
 49
0.5
 74
     0
 49
-0.5
 74
     0
  0
LTYPE
  5
14
100
AcDbSymbolTableRecord
100
AcDbLinetypeTableRecord
  2
DASHDOT
 70
     0
  3
__ . __ . __ . __ . __ . __ . __ . __ . __ . __
 72
    65
 73
     4
 40
8.0
 49
5.0
 74
     0
 49
-1.0
 74
     0
 49
1.0
 74
     0
 49
-1.0
 74
     0
  0
ENDTAB
  0
TABLE
  2
LAYER
  5
1
100
AcDbSymbolTable
 70
     4
  0
LAYER
  5
15
100
AcDbSymbolTableRecord
100
AcDbLayerTableRecord
  2
0
 70
     0
 62
     7
  6
CONTINUOUS
290
     1
370
    -3
390
0
  0
LAYER
  5
16
100
AcDbSymbolTableRecord
100
AcDbLayerTableRecord
  2
1
 70
     0
 62
     7
  6
CONTINUOUS
290
     1
370
    -3
390
0
  0
LAYER
  5
17
100
AcDbSymbolTableRecord
100
AcDbLayerTableRecord
  2
2
 70
     0
 62
     7
  6
CONTINUOUS
290
     1
370
    -3
390
0
  0
LAYER
  5
18
100
AcDbSymbolTableRecord
100
AcDbLayerTableRecord
  2
3
 70
     0
 62
     7
  6
CONTINUOUS
290
     1
370
    -3
390
0
  0
ENDTAB
  0
TABLE
  2
STYLE
  5
2
100
AcDbSymbolTable
 70
     1
  0
STYLE
  5
1B
100
AcDbSymbolTableRecord
100
AcDbTextStyleTableRecord
  2
STANDARD
 70
    64
 40
0.0
 41
1.0
 50
0.0
 71
     0
 42
1.0
  3
txt
  4
BIGFONT
  0
ENDTAB
  0
TABLE
  2
VIEW
  5
4
100
AcDbSymbolTable
 70
     0
  0
ENDTAB
  0
TABLE
  2
UCS
  5
5
100
AcDbSymbolTable
 70
     0
  0
ENDTAB
  0
TABLE
  2
APPID
  5
7
100
AcDbSymbolTable
 70
     1
  0
APPID
  5
1A
100
AcDbSymbolTableRecord
100
AcDbRegAppTableRecord
  2
ACAD
 70
     0
  0
ENDTAB
  0
TABLE
  2
DIMSTYLE
  5
8
100
AcDbSymbolTable
 70
     1
100
AcDbDimStyleTable
 71
     0
  0
DIMSTYLE
105
2F
100
AcDbSymbolTableRecord
100
AcDbDimStyleTableRecord
  2
Standard
 70
     0
  3

  4

 40
2.0
 41
2.0
 42
1.0
 43
0.38
 44
2.0
 45
0.0
 46
0.0
 47
0.0
 48
0.0
 71
     0
 72
     0
 73
     0
 74
     0
 75
     0
 76
     0
 77
     1
 78
     0
 79
     0
140
3.5
141
0.09
142
0.0
143
25.4
144
1.0
145
0.0
146
1.0
147
0.5
148
0.0
170
     0
171
     2
172
     0
173
     0
174
     0
175
     0
176
     0
177
     0
178
     0
179
     0
271
     3
272
     4
273
     2
274
     2
275
     0
276
     0
277
     2
278
    46
279
     0
280
     0
281
     0
282
     0
283
     1
284
     0
285
     0
286
     0
288
     0
289
     3
340
1B
341
0
342
0
343
0
344
0
371
    -2
372
    -2
  0
ENDTAB
  0
TABLE
  2
BLOCK_RECORD
  5
2A
100
AcDbSymbolTable
 70
    12
  0
BLOCK_RECORD
  5
28
100
AcDbSymbolTableRecord
100
AcDbBlockTableRecord
  2
*Model_Space
340
0
  0
BLOCK_RECORD
  5
29
100
AcDbSymbolTableRecord
100
AcDbBlockTableRecord
  2
*Paper_Space
340
0
  0
BLOCK_RECORD
  5
1C
100
AcDbSymbolTableRecord
100
AcDbBlockTableRecord
  2
*D0
340
0
  0
BLOCK_RECORD
  5
1D
100
AcDbSymbolTableRecord
100
AcDbBlockTableRecord
  2
*D1
340
0
  0
BLOCK_RECORD
  5
1E
100
AcDbSymbolTableRecord
100
AcDbBlockTableRecord
  2
*D2
340
0
  0
BLOCK_RECORD
  5
1F
100
AcDbSymbolTableRecord
100
AcDbBlockTableRecord
  2
*D3
340
0
  0
BLOCK_RECORD
  5
20
100
AcDbSymbolTableRecord
100
AcDbBlockTableRecord
  2
*D4
340
0
  0
BLOCK_RECORD
  5
21
100
AcDbSymbolTableRecord
100
AcDbBlockTableRecord
  2
*D5
340
0
  0
BLOCK_RECORD
  5
22
100
AcDbSymbolTableRecord
100
AcDbBlockTableRecord
  2
*D6
340
0
  0
BLOCK_RECORD
  5
23
100
AcDbSymbolTableRecord
100
AcDbBlockTableRecord
  2
*D7
340
0
  0
BLOCK_RECORD
  5
24
100
AcDbSymbolTableRecord
100
AcDbBlockTableRecord
  2
*D8
340
0
  0
BLOCK_RECORD
  5
25
100
AcDbSymbolTableRecord
100
AcDbBlockTableRecord
  2
*D9
340
0
  0
BLOCK_RECORD
  5
26
100
AcDbSymbolTableRecord
100
AcDbBlockTableRecord
  2
*D10
340
0
  0
BLOCK_RECORD
  5
27
100
AcDbSymbolTableRecord
100
AcDbBlockTableRecord
  2
*D11
340
0
  0
ENDTAB
  0
ENDSEC
  0
SECTION
  2
BLOCKS
  0
BLOCK
  5
2B
100
AcDbEntity
  8
0
390
0
100
AcDbBlockBegin
  2
*Model_Space
 70
     0
 10
0.0
 20
0.0
 30
0.0
  3
*Model_Space
  1

  0
ENDBLK
  5
2C
100
AcDbEntity
  8
0
390
0
100
AcDbBlockEnd
  0
BLOCK
  5
2D
100
AcDbEntity
 67
     1
  8
0
390
0
100
AcDbBlockBegin
  2
*Paper_Space
 70
     0
 10
0.0
 20
0.0
 30
0.0
  3
*Paper_Space
  1

  0
ENDBLK
  5
2E
100
AcDbEntity
 67
     1
  8
0
390
0
100
AcDbBlockEnd
  0
BLOCK
  5
441
100
AcDbEntity
  8
3
100
AcDbBlockBegin
  2
*D0
 70
     1
 10
0.0
 20
0.0
 30
0.0
  3
*D0
  1

  0
TEXT
  5
442
100
AcDbEntity
  8
3
370
    25
100
AcDbText
 10
247.27037
 20
-84.065206
 30
0.0
 40
7.0
  1
７０
 50
90.0
 72
     5
 11
247.27037
 21
-71.465206
 31
0.0
100
AcDbText
  0
LINE
  5
443
100
AcDbEntity
  8
3
370
    25
100
AcDbLine
 10
140.560192
 20
-112.065206
 30
0.0
 11
250.27037
 21
-112.065206
 31
0.0
  0
LINE
  5
444
100
AcDbEntity
  8
3
370
    25
100
AcDbLine
 10
248.27037
 20
-112.065206
 30
0.0
 11
249.305647
 21
-108.201503
 31
0.0
  0
LINE
  5
445
100
AcDbEntity
  8
3
370
    25
100
AcDbLine
 10
248.27037
 20
-112.065206
 30
0.0
 11
247.235094
 21
-108.201503
 31
0.0
  0
LINE
  5
446
100
AcDbEntity
  8
3
370
    25
100
AcDbLine
 10
249.305647
 20
-108.201503
 30
0.0
 11
247.235094
 21
-108.201503
 31
0.0
  0
LINE
  5
447
100
AcDbEntity
  8
3
370
    25
100
AcDbLine
 10
248.27037
 20
-112.065206
 30
0.0
 11
248.27037
 21
-42.065206
 31
0.0
  0
LINE
  5
448
100
AcDbEntity
  8
3
370
    25
100
AcDbLine
 10
248.27037
 20
-42.065206
 30
0.0
 11
247.235094
 21
-45.928909
 31
0.0
  0
LINE
  5
449
100
AcDbEntity
  8
3
370
    25
100
AcDbLine
 10
248.27037
 20
-42.065206
 30
0.0
 11
249.305647
 21
-45.928909
 31
0.0
  0
LINE
  5
44A
100
AcDbEntity
  8
3
370
    25
100
AcDbLine
 10
247.235094
 20
-45.928909
 30
0.0
 11
249.305647
 21
-45.928909
 31
0.0
  0
LINE
  5
44B
100
AcDbEntity
  8
3
370
    25
100
AcDbLine
 10
139.163086
 20
-42.065206
 30
0.0
 11
250.27037
 21
-42.065206
 31
0.0
  0
ENDBLK
  5
44C
100
AcDbEntity
  8
3
100
AcDbBlockEnd
  0
BLOCK
  5
44D
100
AcDbEntity
  8
3
100
AcDbBlockBegin
  2
*D1
 70
     1
 10
0.0
 20
0.0
 30
0.0
  3
*D1
  1

  0
TEXT
  5
44E
100
AcDbEntity
  8
3
370
    25
100
AcDbText
 10
-132.978389
 20
46.879462
 30
0.0
 40
7.0
  1
２２゜
 50
349.0
 72
     5
 11
-113.738497
 21
43.139606
 31
0.0
100
AcDbText
  0
LINE
  5
44F
100
AcDbEntity
  8
3
370
    25
100
AcDbLine
 10
-112.674305
 20
22.388239
 30
0.0
 11
-105.253734
 21
40.754796
 31
0.0
  0
LINE
  5
450
100
AcDbEntity
  8
3
370
    25
100
AcDbLine
 10
-140.364411
 20
35.934794
 30
0.0
 11
-140.364411
 21
47.57962
 31
0.0
  0
LINE
  5
451
100
AcDbEntity
  8
3
370
    25
100
AcDbLine
 10
-106.002948
 20
38.900428
 30
0.0
 11
-109.24748
 21
41.239874
 31
0.0
  0
LINE
  5
452
100
AcDbEntity
  8
3
370
    25
100
AcDbLine
 10
-106.002948
 20
38.900428
 30
0.0
 11
-109.982518
 21
39.304182
 31
0.0
  0
LINE
  5
453
100
AcDbEntity
  8
3
370
    25
100
AcDbLine
 10
-109.24748
 20
41.239874
 30
0.0
 11
-109.982518
 21
39.304182
 31
0.0
  0
LINE
  5
454
100
AcDbEntity
  8
3
370
    25
100
AcDbLine
 10
-140.364411
 20
45.57962
 30
0.0
 11
-136.523369
 21
44.4632
 31
0.0
  0
LINE
  5
455
100
AcDbEntity
  8
3
370
    25
100
AcDbLine
 10
-140.364411
 20
45.57962
 30
0.0
 11
-136.479761
 21
46.533293
 31
0.0
  0
LINE
  5
456
100
AcDbEntity
  8
3
370
    25
100
AcDbLine
 10
-136.523369
 20
44.4632
 30
0.0
 11
-136.479761
 21
46.533293
 31
0.0
  0
ARC
  5
457
100
AcDbEntity
  8
3
370
    25
100
AcDbCircle
 10
-140.364411
 20
-46.14718
 30
0.0
 40
91.7268
100
AcDbArc
 50
68.0
 51
90.0
  0
ENDBLK
  5
458
100
AcDbEntity
  8
3
100
AcDbBlockEnd
  0
BLOCK
  5
459
100
AcDbEntity
  8
3
100
AcDbBlockBegin
  2
*D2
 70
     1
 10
0.0
 20
0.0
 30
0.0
  3
*D2
  1

  0
TEXT
  5
45A
100
AcDbEntity
  8
3
370
    25
100
AcDbText
 10
-171.864411
 20
-97.679977
 30
0.0
 40
7.0
  1
φ４７．８
 72
     5
 11
-138.264411
 21
-97.679977
 31
0.0
100
AcDbText
  0
LINE
  5
45B
100
AcDbEntity
  8
3
370
    25
100
AcDbLine
 10
-179.864411
 20
-109.565206
 30
0.0
 11
-179.864411
 21
-96.679977
 31
0.0
  0
LINE
  5
45C
100
AcDbEntity
  8
3
370
    25
100
AcDbLine
 10
-179.864411
 20
-98.679977
 30
0.0
 11
-176.000708
 21
-99.715254
 31
0.0
  0
LINE
  5
45D
100
AcDbEntity
  8
3
370
    25
100
AcDbLine
 10
-179.864411
 20
-98.679977
 30
0.0
 11
-176.000708
 21
-97.644701
 31
0.0
  0
LINE
  5
45E
100
AcDbEntity
  8
3
370
    25
100
AcDbLine
 10
-176.000708
 20
-99.715254
 30
0.0
 11
-176.000708
 21
-97.644701
 31
0.0
  0
LINE
  5
45F
100
AcDbEntity
  8
3
370
    25
100
AcDbLine
 10
-136.864411
 20
-98.679977
 30
0.0
 11
-237.664411
 21
-98.679977
 31
0.0
  0
LINE
  5
460
100
AcDbEntity
  8
3
370
    25
100
AcDbLine
 10
-227.664411
 20
-98.679977
 30
0.0
 11
-231.528114
 21
-97.644701
 31
0.0
  0
LINE
  5
461
100
AcDbEntity
  8
3
370
    25
100
AcDbLine
 10
-227.664411
 20
-98.679977
 30
0.0
 11
-231.528114
 21
-99.715254
 31
0.0
  0
LINE
  5
462
100
AcDbEntity
  8
3
370
    25
100
AcDbLine
 10
-231.528114
 20
-97.644701
 30
0.0
 11
-231.528114
 21
-99.715254
 31
0.0
  0
LINE
  5
463
100
AcDbEntity
  8
3
370
    25
100
AcDbLine
 10
-227.664411
 20
-109.565206
 30
0.0
 11
-227.664411
 21
-96.679977
 31
0.0
  0
ENDBLK
  5
464
100
AcDbEntity
  8
3
100
AcDbBlockEnd
  0
BLOCK
  5
465
100
AcDbEntity
  8
3
100
AcDbBlockBegin
  2
*D3
 70
     1
 10
0.0
 20
0.0
 30
0.0
  3
*D3
  1

  0
LINE
  5
466
100
AcDbEntity
  8
3
370
    25
100
AcDbLine
 10
95.960192
 20
-138.877021
 30
0.0
 11
-7.488577
 21
-138.877021
 31
0.0
  0
LINE
  5
467
100
AcDbEntity
  8
3
370
    25
100
AcDbLine
 10
-5.488577
 20
-138.877021
 30
0.0
 11
-4.453301
 21
-135.013318
 31
0.0
  0
LINE
  5
468
100
AcDbEntity
  8
3
370
    25
100
AcDbLine
 10
-5.488577
 20
-138.877021
 30
0.0
 11
-6.523854
 21
-135.013318
 31
0.0
  0
LINE
  5
469
100
AcDbEntity
  8
3
370
    25
100
AcDbLine
 10
-4.453301
 20
-135.013318
 30
0.0
 11
-6.523854
 21
-135.013318
 31
0.0
  0
LINE
  5
46A
100
AcDbEntity
  8
3
370
    25
100
AcDbLine
 10
-5.488577
 20
-138.877021
 30
0.0
 11
-5.488577
 21
-112.065206
 31
0.0
  0
LINE
  5
46B
100
AcDbEntity
  8
3
370
    25
100
AcDbLine
 10
-5.488577
 20
-112.065206
 30
0.0
 11
-6.523854
 21
-115.92891
 31
0.0
  0
LINE
  5
46C
100
AcDbEntity
  8
3
370
    25
100
AcDbLine
 10
-5.488577
 20
-112.065206
 30
0.0
 11
-4.453301
 21
-115.92891
 31
0.0
  0
LINE
  5
46D
100
AcDbEntity
  8
3
370
    25
100
AcDbLine
 10
-6.523854
 20
-115.92891
 30
0.0
 11
-4.453301
 21
-115.92891
 31
0.0
  0
LINE
  5
46E
100
AcDbEntity
  8
3
370
    25
100
AcDbLine
 10
89.760192
 20
-112.065206
 30
0.0
 11
-7.488577
 21
-112.065206
 31
0.0
  0
ENDBLK
  5
46F
100
AcDbEntity
  8
3
100
AcDbBlockEnd
  0
BLOCK
  5
470
100
AcDbEntity
  8
3
100
AcDbBlockBegin
  2
*D4
 70
     1
 10
0.0
 20
0.0
 30
0.0
  3
*D4
  1

  0
LINE
  5
471
100
AcDbEntity
  8
3
370
    25
100
AcDbLine
 10
-144.264411
 20
-231.045521
 30
0.0
 11
-56.392654
 21
-231.045521
 31
0.0
  0
LINE
  5
472
100
AcDbEntity
  8
3
370
    25
100
AcDbLine
 10
-58.392654
 20
-231.045521
 30
0.0
 11
-57.357378
 21
-227.181818
 31
0.0
  0
LINE
  5
473
100
AcDbEntity
  8
3
370
    25
100
AcDbLine
 10
-58.392654
 20
-231.045521
 30
0.0
 11
-59.427931
 21
-227.181818
 31
0.0
  0
LINE
  5
474
100
AcDbEntity
  8
3
370
    25
100
AcDbLine
 10
-57.357378
 20
-227.181818
 30
0.0
 11
-59.427931
 21
-227.181818
 31
0.0
  0
LINE
  5
475
100
AcDbEntity
  8
3
370
    25
100
AcDbLine
 10
-58.392654
 20
-231.045521
 30
0.0
 11
-58.392654
 21
-112.065206
 31
0.0
  0
LINE
  5
476
100
AcDbEntity
  8
3
370
    25
100
AcDbLine
 10
-58.392654
 20
-112.065206
 30
0.0
 11
-59.427931
 21
-115.92891
 31
0.0
  0
LINE
  5
477
100
AcDbEntity
  8
3
370
    25
100
AcDbLine
 10
-58.392654
 20
-112.065206
 30
0.0
 11
-57.357378
 21
-115.92891
 31
0.0
  0
LINE
  5
478
100
AcDbEntity
  8
3
370
    25
100
AcDbLine
 10
-59.427931
 20
-115.92891
 30
0.0
 11
-57.357378
 21
-115.92891
 31
0.0
  0
LINE
  5
479
100
AcDbEntity
  8
3
370
    25
100
AcDbLine
 10
-178.364411
 20
-112.065206
 30
0.0
 11
-56.392654
 21
-112.065206
 31
0.0
  0
ENDBLK
  5
47A
100
AcDbEntity
  8
3
100
AcDbBlockEnd
  0
BLOCK
  5
47B
100
AcDbEntity
  8
3
100
AcDbBlockBegin
  2
*D5
 70
     1
 10
0.0
 20
0.0
 30
0.0
  3
*D5
  1

  0
TEXT
  5
47C
100
AcDbEntity
  8
3
370
    25
100
AcDbText
 10
-39.306907
 20
229.981207
 30
0.0
 40
7.0
  1
４０゜
 50
290.0
 72
     5
 11
-32.603313
 21
211.563232
 31
0.0
100
AcDbText
  0
LINE
  5
47D
100
AcDbEntity
  8
3
370
    25
100
AcDbLine
 10
-21.506432
 20
275.028767
 30
0.0
 11
-47.398574
 21
275.028767
 31
0.0
  0
LINE
  5
47E
100
AcDbEntity
  8
3
370
    25
100
AcDbLine
 10
18.171245
 20
193.645377
 30
0.0
 11
-9.367048
 21
170.538006
 31
0.0
  0
LINE
  5
47F
100
AcDbEntity
  8
3
370
    25
100
AcDbLine
 10
-45.398574
 20
275.028767
 30
0.0
 11
-46.387287
 21
271.152887
 31
0.0
  0
LINE
  5
480
100
AcDbEntity
  8
3
370
    25
100
AcDbLine
 10
-45.398574
 20
275.028767
 30
0.0
 11
-44.316885
 21
271.1778
 31
0.0
  0
LINE
  5
481
100
AcDbEntity
  8
3
370
    25
100
AcDbLine
 10
-46.387287
 20
271.152887
 30
0.0
 11
-44.316885
 21
271.1778
 31
0.0
  0
LINE
  5
482
100
AcDbEntity
  8
3
370
    25
100
AcDbLine
 10
-7.834959
 20
171.823581
 30
0.0
 11
-9.48169
 21
175.46889
 31
0.0
  0
LINE
  5
483
100
AcDbEntity
  8
3
370
    25
100
AcDbLine
 10
-7.834959
 20
171.823581
 30
0.0
 11
-11.083724
 21
174.157145
 31
0.0
  0
LINE
  5
484
100
AcDbEntity
  8
3
370
    25
100
AcDbLine
 10
-9.48169
 20
175.46889
 30
0.0
 11
-11.083724
 21
174.157145
 31
0.0
  0
ARC
  5
485
100
AcDbEntity
  8
3
370
    25
100
AcDbCircle
 10
115.160192
 20
275.028767
 30
0.0
 40
160.558767
100
AcDbArc
 50
180.0
 51
220.0
  0
ENDBLK
  5
486
100
AcDbEntity
  8
3
100
AcDbBlockEnd
  0
BLOCK
  5
487
100
AcDbEntity
  8
3
100
AcDbBlockBegin
  2
*D6
 70
     1
 10
0.0
 20
0.0
 30
0.0
  3
*D6
  1

  0
TEXT
  5
488
100
AcDbEntity
  8
3
370
    25
100
AcDbText
 10
267.339569
 20
10.197294
 30
0.0
 40
7.0
  1
（２８０）
 50
90.0
 72
     5
 11
267.339569
 21
43.797294
 31
0.0
100
AcDbText
  0
LINE
  5
489
100
AcDbEntity
  8
3
370
    25
100
AcDbLine
 10
140.560192
 20
-112.065206
 30
0.0
 11
270.339569
 21
-112.065206
 31
0.0
  0
LINE
  5
48A
100
AcDbEntity
  8
3
370
    25
100
AcDbLine
 10
268.339569
 20
-112.065206
 30
0.0
 11
269.374845
 21
-108.201503
 31
0.0
  0
LINE
  5
48B
100
AcDbEntity
  8
3
370
    25
100
AcDbLine
 10
268.339569
 20
-112.065206
 30
0.0
 11
267.304293
 21
-108.201503
 31
0.0
  0
LINE
  5
48C
100
AcDbEntity
  8
3
370
    25
100
AcDbLine
 10
269.374845
 20
-108.201503
 30
0.0
 11
267.304293
 21
-108.201503
 31
0.0
  0
LINE
  5
48D
100
AcDbEntity
  8
3
370
    25
100
AcDbLine
 10
268.339569
 20
-112.065206
 30
0.0
 11
268.339569
 21
167.459794
 31
0.0
  0
LINE
  5
48E
100
AcDbEntity
  8
3
370
    25
100
AcDbLine
 10
268.339569
 20
167.459794
 30
0.0
 11
267.304293
 21
163.59609
 31
0.0
  0
LINE
  5
48F
100
AcDbEntity
  8
3
370
    25
100
AcDbLine
 10
268.339569
 20
167.459794
 30
0.0
 11
269.374845
 21
163.59609
 31
0.0
  0
LINE
  5
490
100
AcDbEntity
  8
3
370
    25
100
AcDbLine
 10
267.304293
 20
163.59609
 30
0.0
 11
269.374845
 21
163.59609
 31
0.0
  0
LINE
  5
491
100
AcDbEntity
  8
3
370
    25
100
AcDbLine
 10
82.160192
 20
167.459794
 30
0.0
 11
270.339569
 21
167.459794
 31
0.0
  0
ENDBLK
  5
492
100
AcDbEntity
  8
3
100
AcDbBlockEnd
  0
BLOCK
  5
493
100
AcDbEntity
  8
3
100
AcDbBlockBegin
  2
*D7
 70
     1
 10
0.0
 20
0.0
 30
0.0
  3
*D7
  1

  0
TEXT
  5
494
100
AcDbEntity
  8
3
370
    25
100
AcDbText
 10
-6.488577
 20
-22.565206
 30
0.0
 40
7.0
  1
２００
 50
90.0
 72
     5
 11
-6.488577
 21
-2.965206
 31
0.0
100
AcDbText
  0
LINE
  5
495
100
AcDbEntity
  8
3
370
    25
100
AcDbLine
 10
89.760192
 20
-112.065206
 30
0.0
 11
-7.488577
 21
-112.065206
 31
0.0
  0
LINE
  5
496
100
AcDbEntity
  8
3
370
    25
100
AcDbLine
 10
-5.488577
 20
-112.065206
 30
0.0
 11
-4.453301
 21
-108.201503
 31
0.0
  0
LINE
  5
497
100
AcDbEntity
  8
3
370
    25
100
AcDbLine
 10
-5.488577
 20
-112.065206
 30
0.0
 11
-6.523854
 21
-108.201503
 31
0.0
  0
LINE
  5
498
100
AcDbEntity
  8
3
370
    25
100
AcDbLine
 10
-4.453301
 20
-108.201503
 30
0.0
 11
-6.523854
 21
-108.201503
 31
0.0
  0
LINE
  5
499
100
AcDbEntity
  8
3
370
    25
100
AcDbLine
 10
-5.488577
 20
-112.065206
 30
0.0
 11
-5.488577
 21
87.934794
 31
0.0
  0
LINE
  5
49A
100
AcDbEntity
  8
3
370
    25
100
AcDbLine
 10
-5.488577
 20
87.934794
 30
0.0
 11
-6.523854
 21
84.07109
 31
0.0
  0
LINE
  5
49B
100
AcDbEntity
  8
3
370
    25
100
AcDbLine
 10
-5.488577
 20
87.934794
 30
0.0
 11
-4.453301
 21
84.07109
 31
0.0
  0
LINE
  5
49C
100
AcDbEntity
  8
3
370
    25
100
AcDbLine
 10
-6.523854
 20
84.07109
 30
0.0
 11
-4.453301
 21
84.07109
 31
0.0
  0
LINE
  5
49D
100
AcDbEntity
  8
3
370
    25
100
AcDbLine
 10
-73.839808
 20
87.934794
 30
0.0
 11
-3.488577
 21
87.934794
 31
0.0
  0
ENDBLK
  5
49E
100
AcDbEntity
  8
3
100
AcDbBlockEnd
  0
BLOCK
  5
49F
100
AcDbEntity
  8
3
100
AcDbBlockBegin
  2
*D8
 70
     1
 10
0.0
 20
0.0
 30
0.0
  3
*D8
  1

  0
LINE
  5
4A0
100
AcDbEntity
  8
3
370
    25
100
AcDbLine
 10
-203.764411
 20
-92.474976
 30
0.0
 11
-203.764411
 21
-71.727226
 31
0.0
  0
LINE
  5
4A1
100
AcDbEntity
  8
3
370
    25
100
AcDbLine
 10
-203.764411
 20
-73.727226
 30
0.0
 11
-199.900708
 21
-74.762502
 31
0.0
  0
LINE
  5
4A2
100
AcDbEntity
  8
3
370
    25
100
AcDbLine
 10
-203.764411
 20
-73.727226
 30
0.0
 11
-199.900708
 21
-72.69195
 31
0.0
  0
LINE
  5
4A3
100
AcDbEntity
  8
3
370
    25
100
AcDbLine
 10
-199.900708
 20
-74.762502
 30
0.0
 11
-199.900708
 21
-72.69195
 31
0.0
  0
LINE
  5
4A4
100
AcDbEntity
  8
3
370
    25
100
AcDbLine
 10
-203.764411
 20
-73.727226
 30
0.0
 11
-136.16441
 21
-73.727226
 31
0.0
  0
LINE
  5
4A5
100
AcDbEntity
  8
3
370
    25
100
AcDbLine
 10
-136.16441
 20
-73.727226
 30
0.0
 11
-140.028114
 21
-72.69195
 31
0.0
  0
LINE
  5
4A6
100
AcDbEntity
  8
3
370
    25
100
AcDbLine
 10
-136.16441
 20
-73.727226
 30
0.0
 11
-140.028114
 21
-74.762502
 31
0.0
  0
LINE
  5
4A7
100
AcDbEntity
  8
3
370
    25
100
AcDbLine
 10
-140.028114
 20
-72.69195
 30
0.0
 11
-140.028114
 21
-74.762502
 31
0.0
  0
LINE
  5
4A8
100
AcDbEntity
  8
3
370
    25
100
AcDbLine
 10
-136.16441
 20
-60.565206
 30
0.0
 11
-136.16441
 21
-75.727226
 31
0.0
  0
ENDBLK
  5
4A9
100
AcDbEntity
  8
3
100
AcDbBlockEnd
  0
BLOCK
  5
4AA
100
AcDbEntity
  8
3
100
AcDbBlockBegin
  2
*D9
 70
     1
 10
0.0
 20
0.0
 30
0.0
  3
*D9
  1

  0
LINE
  5
4AB
100
AcDbEntity
  8
3
370
    25
100
AcDbLine
 10
-203.764411
 20
-96.470032
 30
0.0
 11
-203.764411
 21
-84.12809
 31
0.0
  0
LINE
  5
4AC
100
AcDbEntity
  8
3
370
    25
100
AcDbLine
 10
-203.764411
 20
-86.12809
 30
0.0
 11
-199.900708
 21
-87.163366
 31
0.0
  0
LINE
  5
4AD
100
AcDbEntity
  8
3
370
    25
100
AcDbLine
 10
-203.764411
 20
-86.12809
 30
0.0
 11
-199.900708
 21
-85.092814
 31
0.0
  0
LINE
  5
4AE
100
AcDbEntity
  8
3
370
    25
100
AcDbLine
 10
-199.900708
 20
-87.163366
 30
0.0
 11
-199.900708
 21
-85.092814
 31
0.0
  0
LINE
  5
4AF
100
AcDbEntity
  8
3
370
    25
100
AcDbLine
 10
-203.764411
 20
-86.12809
 30
0.0
 11
-113.223518
 21
-86.12809
 31
0.0
  0
LINE
  5
4B0
100
AcDbEntity
  8
3
370
    25
100
AcDbLine
 10
-113.223518
 20
-86.12809
 30
0.0
 11
-117.087221
 21
-85.092814
 31
0.0
  0
LINE
  5
4B1
100
AcDbEntity
  8
3
370
    25
100
AcDbLine
 10
-113.223518
 20
-86.12809
 30
0.0
 11
-117.087221
 21
-87.163366
 31
0.0
  0
LINE
  5
4B2
100
AcDbEntity
  8
3
370
    25
100
AcDbLine
 10
-117.087221
 20
-85.092814
 30
0.0
 11
-117.087221
 21
-87.163366
 31
0.0
  0
LINE
  5
4B3
100
AcDbEntity
  8
3
370
    25
100
AcDbLine
 10
-113.223518
 20
18.533872
 30
0.0
 11
-113.223518
 21
-88.12809
 31
0.0
  0
ENDBLK
  5
4B4
100
AcDbEntity
  8
3
100
AcDbBlockEnd
  0
BLOCK
  5
4B5
100
AcDbEntity
  8
3
100
AcDbBlockBegin
  2
*D10
 70
     1
 10
0.0
 20
0.0
 30
0.0
  3
*D10
  1

  0
TEXT
  5
4B6
100
AcDbEntity
  8
3
370
    25
100
AcDbText
 10
33.563025
 20
2.251612
 30
0.0
 40
7.0
  1
２０゜
 50
55.0
 72
     5
 11
44.805123
 21
18.306992
 31
0.0
100
AcDbText
  0
LINE
  5
4B7
100
AcDbEntity
  8
3
370
    25
100
AcDbLine
 10
54.323023
 20
18.771962
 30
0.0
 11
48.508612
 21
24.586374
 31
0.0
  0
LINE
  5
4B8
100
AcDbEntity
  8
3
370
    25
100
AcDbLine
 10
37.675314
 20
-5.933415
 30
0.0
 11
29.73201
 21
-2.229392
 31
0.0
  0
LINE
  5
4B9
100
AcDbEntity
  8
3
370
    25
100
AcDbLine
 10
49.922825
 20
23.17216
 30
0.0
 11
46.501362
 21
21.100063
 31
0.0
  0
LINE
  5
4BA
100
AcDbEntity
  8
3
370
    25
100
AcDbLine
 10
49.922825
 20
23.17216
 30
0.0
 11
47.9958
 21
19.66694
 31
0.0
  0
LINE
  5
4BB
100
AcDbEntity
  8
3
370
    25
100
AcDbLine
 10
46.501362
 20
21.100063
 30
0.0
 11
47.9958
 21
19.66694
 31
0.0
  0
LINE
  5
4BC
100
AcDbEntity
  8
3
370
    25
100
AcDbLine
 10
31.544626
 20
-3.074628
 30
0.0
 11
34.179374
 21
-0.064961
 31
0.0
  0
LINE
  5
4BD
100
AcDbEntity
  8
3
370
    25
100
AcDbLine
 10
31.544626
 20
-3.074628
 30
0.0
 11
32.321551
 21
0.849195
 31
0.0
  0
LINE
  5
4BE
100
AcDbEntity
  8
3
370
    25
100
AcDbLine
 10
34.179374
 20
-0.064961
 30
0.0
 11
32.321551
 21
0.849195
 31
0.0
  0
ARC
  5
4BF
100
AcDbEntity
  8
3
370
    25
100
AcDbCircle
 10
115.160192
 20
-42.065206
 30
0.0
 40
92.259569
100
AcDbArc
 50
135.0
 51
155.0
  0
ENDBLK
  5
4C0
100
AcDbEntity
  8
3
100
AcDbBlockEnd
  0
BLOCK
  5
4C1
100
AcDbEntity
  8
3
100
AcDbBlockBegin
  2
*D11
 70
     1
 10
0.0
 20
0.0
 30
0.0
  3
*D11
  1

  0
TEXT
  5
4C2
100
AcDbEntity
  8
3
370
    25
100
AcDbText
 10
80.880619
 20
45.29902
 30
0.0
 40
7.0
  1
６０゜
 50
15.0
 72
     5
 11
99.812765
 21
50.371873
 31
0.0
100
AcDbText
  0
LINE
  5
4C3
100
AcDbEntity
  8
3
370
    25
100
AcDbLine
 10
136.601628
 20
37.955321
 30
0.0
 11
139.556364
 21
48.982545
 31
0.0
  0
LINE
  5
4C4
100
AcDbEntity
  8
3
370
    25
100
AcDbLine
 10
54.323023
 20
18.771962
 30
0.0
 11
48.508612
 21
24.586374
 31
0.0
  0
LINE
  5
4C5
100
AcDbEntity
  8
3
370
    25
100
AcDbLine
 10
139.038726
 20
47.050693
 30
0.0
 11
135.533505
 21
48.977719
 31
0.0
  0
LINE
  5
4C6
100
AcDbEntity
  8
3
370
    25
100
AcDbLine
 10
139.038726
 20
47.050693
 30
0.0
 11
135.039603
 21
46.966936
 31
0.0
  0
LINE
  5
4C7
100
AcDbEntity
  8
3
370
    25
100
AcDbLine
 10
135.533505
 20
48.977719
 30
0.0
 11
135.039603
 21
46.966936
 31
0.0
  0
LINE
  5
4C8
100
AcDbEntity
  8
3
370
    25
100
AcDbLine
 10
49.922825
 20
23.17216
 30
0.0
 11
53.428046
 21
25.099186
 31
0.0
  0
LINE
  5
4C9
100
AcDbEntity
  8
3
370
    25
100
AcDbLine
 10
49.922825
 20
23.17216
 30
0.0
 11
51.994923
 21
26.593624
 31
0.0
  0
LINE
  5
4CA
100
AcDbEntity
  8
3
370
    25
100
AcDbLine
 10
53.428046
 20
25.099186
 30
0.0
 11
51.994923
 21
26.593624
 31
0.0
  0
ARC
  5
4CB
100
AcDbEntity
  8
3
370
    25
100
AcDbCircle
 10
115.160192
 20
-42.065207
 30
0.0
 40
92.259569
100
AcDbArc
 50
74.999999
 51
135.0
  0
ENDBLK
  5
4CC
100
AcDbEntity
  8
3
100
AcDbBlockEnd
  0
ENDSEC
  0
SECTION
  2
ENTITIES
  0
LINE
  5
30
100
AcDbEntity
  8
1
370
   100
100
AcDbLine
 10
-373.02157
 20
275.028767
 30
0.0
 11
394.982385
 21
275.028767
 31
0.0
  0
LINE
  5
31
100
AcDbEntity
  8
1
370
   100
100
AcDbLine
 10
-373.02157
 20
275.028767
 30
0.0
 11
-373.02157
 21
-277.971881
 31
0.0
  0
LINE
  5
32
100
AcDbEntity
  8
1
370
   100
100
AcDbLine
 10
-373.02157
 20
-277.971881
 30
0.0
 11
394.982385
 21
-277.971881
 31
0.0
  0
LINE
  5
33
100
AcDbEntity
  8
1
370
   100
100
AcDbLine
 10
394.982385
 20
-277.971881
 30
0.0
 11
394.982385
 21
275.028767
 31
0.0
  0
TEXT
  5
34
100
AcDbEntity
  8
1
370
    50
100
AcDbText
 10
359.628442
 20
-226.252857
 30
0.0
 40
6.0
  1
設計
 72
     5
 11
370.428442
 21
-226.252857
 31
0.0
100
AcDbText
  0
TEXT
  5
35
100
AcDbEntity
  8
1
370
    50
100
AcDbText
 10
379.127478
 20
-226.099658
 30
0.0
 40
6.0
  1
製図
 72
     5
 11
389.927478
 21
-226.099658
 31
0.0
100
AcDbText
  0
TEXT
  5
36
100
AcDbEntity
  8
1
370
    50
100
AcDbText
 10
319.005745
 20
-226.252857
 30
0.0
 40
6.0
  1
承認
 72
     5
 11
329.805745
 21
-226.252857
 31
0.0
100
AcDbText
  0
TEXT
  5
37
100
AcDbEntity
  8
1
370
    50
100
AcDbText
 10
338.989679
 20
-226.19802
 30
0.0
 40
6.0
  1
検図
 72
     5
 11
349.789679
 21
-226.19802
 31
0.0
100
AcDbText
  0
LINE
  5
38
100
AcDbEntity
  8
1
370
    25
100
AcDbLine
 10
284.982385
 20
-227.971881
 30
0.0
 11
394.982385
 21
-227.971881
 31
0.0
  0
LINE
  5
39
100
AcDbEntity
  8
1
370
    25
100
AcDbLine
 10
342.482385
 20
-245.971881
 30
0.0
 11
342.482385
 21
-259.971881
 31
0.0
  0
TEXT
  5
3A
100
AcDbEntity
  8
1
370
    50
100
AcDbText
 10
319.55159
 20
-256.012528
 30
0.0
 40
6.0
  1
日　付
 72
     5
 11
336.35159
 21
-256.012528
 31
0.0
100
AcDbText
  0
LINE
  5
3B
100
AcDbEntity
  8
1
370
    50
100
AcDbLine
 10
40.982385
 20
-259.971881
 30
0.0
 11
394.982385
 21
-259.971881
 31
0.0
  0
TEXT
  5
3C
100
AcDbEntity
  8
1
370
    50
100
AcDbText
 10
287.775011
 20
-256.322406
 30
0.0
 40
6.0
  1
第三角法
 72
     5
 11
310.575011
 21
-256.322406
 31
0.0
100
AcDbText
  0
TEXT
  5
3D
100
AcDbEntity
  8
1
370
    50
100
AcDbText
 10
291.087419
 20
-225.99802
 30
0.0
 40
6.0
  1
尺　度
 72
     5
 11
307.887419
 21
-225.99802
 31
0.0
100
AcDbText
  0
LINE
  5
3E
100
AcDbEntity
  8
1
370
   100
100
AcDbLine
 10
40.982385
 20
-217.971881
 30
0.0
 11
394.982385
 21
-217.971881
 31
0.0
  0
LINE
  5
3F
100
AcDbEntity
  8
1
370
    50
100
AcDbLine
 10
211.982385
 20
-217.971881
 30
0.0
 11
211.982385
 21
-277.971881
 31
0.0
  0
LINE
  5
40
100
AcDbEntity
  8
1
370
    25
100
AcDbLine
 10
374.982385
 20
-245.971881
 30
0.0
 11
374.982385
 21
-217.971881
 31
0.0
  0
LINE
  5
41
100
AcDbEntity
  8
1
370
    25
100
AcDbLine
 10
354.982385
 20
-245.971881
 30
0.0
 11
354.982385
 21
-217.971881
 31
0.0
  0
LINE
  5
42
100
AcDbEntity
  8
1
370
    25
100
AcDbLine
 10
334.982385
 20
-245.971881
 30
0.0
 11
334.982385
 21
-217.971881
 31
0.0
  0
LINE
  5
43
100
AcDbEntity
  8
1
370
    50
100
AcDbLine
 10
284.982385
 20
-277.971881
 30
0.0
 11
284.982385
 21
-217.971881
 31
0.0
  0
LINE
  5
44
100
AcDbEntity
  8
1
370
    50
100
AcDbLine
 10
189.982385
 20
-217.971881
 30
0.0
 11
189.982385
 21
-277.971881
 31
0.0
  0
LINE
  5
45
100
AcDbEntity
  8
1
370
    50
100
AcDbLine
 10
62.982385
 20
-217.971881
 30
0.0
 11
62.982385
 21
-259.971881
 31
0.0
  0
LINE
  5
46
100
AcDbEntity
  8
1
370
    50
100
AcDbLine
 10
284.982385
 20
-245.971881
 30
0.0
 11
394.982385
 21
-245.971881
 31
0.0
  0
TEXT
  5
47
100
AcDbEntity
  8
1
370
    50
100
AcDbText
 10
287.101129
 20
-271.880939
 30
0.0
 40
6.0
  1
コードＮｏ
 41
0.9
 72
     5
 11
313.021129
 21
-271.880939
 31
0.0
100
AcDbText
  0
TEXT
  5
48
100
AcDbEntity
  8
1
370
   100
100
AcDbText
 10
52.886774
 20
-272.875659
 30
0.0
 40
8.0
  1
ミズタニバルブ工業株式会社
 41
1.2
 72
     5
 11
175.766774
 21
-272.875659
 31
0.0
100
AcDbText
  0
LINE
  5
49
100
AcDbEntity
  8
1
370
    50
100
AcDbLine
 10
40.982385
 20
-238.971881
 30
0.0
 11
284.982385
 21
-238.971881
 31
0.0
  0
LINE
  5
4A
100
AcDbEntity
  8
1
370
    50
100
AcDbLine
 10
115.482385
 20
-238.971881
 30
0.0
 11
115.482385
 21
-259.971881
 31
0.0
  0
LINE
  5
4B
100
AcDbEntity
  8
1
370
    50
100
AcDbLine
 10
137.482385
 20
-238.971881
 30
0.0
 11
137.482385
 21
-259.971881
 31
0.0
  0
LINE
  5
4C
100
AcDbEntity
  8
1
370
    50
100
AcDbLine
 10
314.982385
 20
-277.971881
 30
0.0
 11
314.982385
 21
-217.971881
 31
0.0
  0
TEXT
  5
4D
100
AcDbEntity
  8
1
370
    50
100
AcDbText
 10
345.098131
 20
-256.100293
 30
0.0
 40
6.0
  1
　　・　　・
 72
     5
 11
379.898131
 21
-256.100293
 31
0.0
100
AcDbText
  0
LINE
  5
4E
100
AcDbEntity
  8
1
370
   100
100
AcDbLine
 10
40.982385
 20
-217.971881
 30
0.0
 11
40.982385
 21
-277.971881
 31
0.0
  0
TEXT
  5
4F
100
AcDbEntity
  8
1
370
    50
100
AcDbText
 10
290.832582
 20
-240.013492
 30
0.0
 40
6.0
  1
　／ 
 72
     5
 11
301.632582
 21
-240.013492
 31
0.0
100
AcDbText
  0
TEXT
  5
50
100
AcDbEntity
  8
1
370
    50
100
AcDbText
 10
193.904123
 20
-272.024909
 30
0.0
 40
6.0
  1
備 考 
 72
     5
 11
207.704123
 21
-272.024909
 31
0.0
100
AcDbText
  0
TEXT
  5
51
100
AcDbEntity
  8
1
370
    50
100
AcDbText
 10
193.512534
 20
-230.89184
 30
0.0
 40
6.0
  1
仕 上
 72
     5
 11
207.312534
 21
-230.89184
 31
0.0
100
AcDbText
  0
TEXT
  5
52
100
AcDbEntity
  8
1
370
    50
100
AcDbText
 10
193.447176
 20
-248.891666
 30
0.0
 40
6.0
  1
表 面
 72
     5
 11
207.247176
 21
-248.891666
 31
0.0
100
AcDbText
  0
TEXT
  5
53
100
AcDbEntity
  8
1
370
    50
100
AcDbText
 10
193.447176
 20
-255.891666
 30
0.0
 40
6.0
  1
処 理
 72
     5
 11
207.247176
 21
-255.891666
 31
0.0
100
AcDbText
  0
TEXT
  5
54
100
AcDbEntity
  8
1
370
    50
100
AcDbText
 10
44.79335
 20
-231.693399
 30
0.0
 40
6.0
  1
品 名
 72
     5
 11
58.59335
 21
-231.693399
 31
0.0
100
AcDbText
  0
TEXT
  5
55
100
AcDbEntity
  8
1
370
    50
100
AcDbText
 10
44.397766
 20
-252.462534
 30
0.0
 40
6.0
  1
材 質
 72
     5
 11
58.197766
 21
-252.462534
 31
0.0
100
AcDbText
  0
TEXT
  5
56
100
AcDbEntity
  8
1
370
    50
100
AcDbText
 10
118.897766
 20
-252.462534
 30
0.0
 40
6.0
  1
規 格
 72
     5
 11
132.697766
 21
-252.462534
 31
0.0
100
AcDbText
  0
LINE
  5
57
100
AcDbEntity
  8
2
370
    50
100
AcDbLine
 10
-194.239412
 20
157.934794
 30
0.0
 11
-194.239412
 21
11.434793
 31
0.0
  0
LINE
  5
58
100
AcDbEntity
  8
2
370
    50
100
AcDbLine
 10
-213.289412
 20
157.934794
 30
0.0
 11
-213.289412
 21
11.434793
 31
0.0
  0
LINE
  5
59
100
AcDbEntity
  8
2
370
    25
  6
CENTER
100
AcDbLine
 10
-224.48233
 20
-42.065207
 30
0.0
 11
-132.114623
 21
-42.065205
 31
0.0
  0
LINE
  5
5A
100
AcDbEntity
  8
2
370
    25
  6
CENTER
100
AcDbLine
 10
-203.764411
 20
-24.565207
 30
0.0
 11
-203.764411
 21
-116.065206
 31
0.0
  0
LINE
  5
5B
100
AcDbEntity
  8
2
370
    50
100
AcDbLine
 10
-221.264411
 20
0.134793
 30
0.0
 11
-221.264411
 21
-107.265206
 31
0.0
  0
LINE
  5
5C
100
AcDbEntity
  8
2
370
    50
100
AcDbLine
 10
-181.264411
 20
-59.565207
 30
0.0
 11
-163.264413
 21
-59.565207
 31
0.0
  0
LINE
  5
5D
100
AcDbEntity
  8
2
370
    50
100
AcDbLine
 10
-163.264411
 20
-24.565207
 30
0.0
 11
-181.264411
 21
-24.565207
 31
0.0
  0
LINE
  5
5E
100
AcDbEntity
  8
2
370
    50
100
AcDbLine
 10
-162.764411
 20
-59.065207
 30
0.0
 11
-163.264412
 21
-59.565206
 31
0.0
  0
LINE
  5
5F
100
AcDbEntity
  8
2
370
    50
100
AcDbLine
 10
-162.76441
 20
-25.065207
 30
0.0
 11
-162.76441
 21
-59.065207
 31
0.0
  0
LINE
  5
60
100
AcDbEntity
  8
2
370
    50
100
AcDbLine
 10
-163.264411
 20
-24.565207
 30
0.0
 11
-162.76441
 21
-25.065207
 31
0.0
  0
LINE
  5
61
100
AcDbEntity
  8
2
370
    50
100
AcDbLine
 10
-186.264411
 20
-107.265206
 30
0.0
 11
-186.264411
 21
-64.565207
 31
0.0
  0
LINE
  5
62
100
AcDbEntity
  8
2
370
    50
100
AcDbLine
 10
-186.264411
 20
-19.565207
 30
0.0
 11
-186.264411
 21
0.134793
 31
0.0
  0
ARC
  5
63
100
AcDbEntity
  8
2
370
    50
100
AcDbCircle
 10
-181.264411
 20
-19.565207
 30
0.0
 40
5.0
100
AcDbArc
 50
180.0
 51
270.0
  0
ARC
  5
64
100
AcDbEntity
  8
2
370
    50
100
AcDbCircle
 10
-181.264411
 20
-64.565207
 30
0.0
 40
5.0
100
AcDbArc
 50
90.0
 51
180.0
  0
LINE
  5
65
100
AcDbEntity
  8
2
370
    50
100
AcDbLine
 10
-186.564411
 20
-107.565206
 30
0.0
 11
-186.264411
 21
-107.265206
 31
0.0
  0
LINE
  5
66
100
AcDbEntity
  8
2
370
    50
100
AcDbLine
 10
-220.964411
 20
-107.565206
 30
0.0
 11
-221.264411
 21
-107.265206
 31
0.0
  0
LINE
  5
67
100
AcDbEntity
  8
2
370
    25
  6
CENTER
100
AcDbLine
 10
-203.764412
 20
172.811188
 30
0.0
 11
-203.764412
 21
-24.565207
 31
0.0
  0
LINE
  5
68
100
AcDbEntity
  8
2
370
    50
100
AcDbLine
 10
-225.764411
 20
-115.065206
 30
0.0
 11
-225.764411
 21
-112.065206
 31
0.0
  0
LINE
  5
69
100
AcDbEntity
  8
2
370
    50
100
AcDbLine
 10
-181.764411
 20
-115.065206
 30
0.0
 11
-225.764411
 21
-115.065206
 31
0.0
  0
LINE
  5
6A
100
AcDbEntity
  8
2
370
    50
100
AcDbLine
 10
-227.164411
 20
-112.065206
 30
0.0
 11
-180.364411
 21
-112.065206
 31
0.0
  0
LINE
  5
6B
100
AcDbEntity
  8
2
370
    50
100
AcDbLine
 10
-181.764411
 20
-115.065206
 30
0.0
 11
-181.764411
 21
-112.065206
 31
0.0
  0
LINE
  5
6C
100
AcDbEntity
  8
2
370
    50
100
AcDbLine
 10
-220.764411
 20
-115.565206
 30
0.0
 11
-220.764411
 21
-115.065206
 31
0.0
  0
LINE
  5
6D
100
AcDbEntity
  8
2
370
    50
100
AcDbLine
 10
-220.264411
 20
-116.065206
 30
0.0
 11
-187.264411
 21
-116.065206
 31
0.0
  0
LINE
  5
6E
100
AcDbEntity
  8
2
370
    50
100
AcDbLine
 10
-227.664411
 20
-111.565206
 30
0.0
 11
-227.664411
 21
-108.065206
 31
0.0
  0
LINE
  5
6F
100
AcDbEntity
  8
2
370
    50
100
AcDbLine
 10
-227.164411
 20
-107.565206
 30
0.0
 11
-180.364411
 21
-107.565206
 31
0.0
  0
LINE
  5
70
100
AcDbEntity
  8
2
370
    50
100
AcDbLine
 10
-227.164411
 20
-107.565206
 30
0.0
 11
-227.664411
 21
-108.065206
 31
0.0
  0
LINE
  5
71
100
AcDbEntity
  8
2
370
    50
100
AcDbLine
 10
-227.164411
 20
-112.065206
 30
0.0
 11
-227.664411
 21
-111.565206
 31
0.0
  0
LINE
  5
72
100
AcDbEntity
  8
2
370
    50
100
AcDbLine
 10
-220.764411
 20
-115.565206
 30
0.0
 11
-220.264411
 21
-116.065206
 31
0.0
  0
LINE
  5
73
100
AcDbEntity
  8
2
370
    50
100
AcDbLine
 10
-186.764411
 20
-115.565206
 30
0.0
 11
-186.764411
 21
-115.065206
 31
0.0
  0
LINE
  5
74
100
AcDbEntity
  8
2
370
    50
100
AcDbLine
 10
-179.864411
 20
-111.565206
 30
0.0
 11
-179.864411
 21
-108.065206
 31
0.0
  0
LINE
  5
75
100
AcDbEntity
  8
2
370
    50
100
AcDbLine
 10
-180.364411
 20
-107.565206
 30
0.0
 11
-179.864411
 21
-108.065206
 31
0.0
  0
LINE
  5
76
100
AcDbEntity
  8
2
370
    50
100
AcDbLine
 10
-180.364411
 20
-112.065206
 30
0.0
 11
-179.864411
 21
-111.565206
 31
0.0
  0
LINE
  5
77
100
AcDbEntity
  8
2
370
    50
100
AcDbLine
 10
-186.764411
 20
-115.565206
 30
0.0
 11
-187.264411
 21
-116.065206
 31
0.0
  0
LINE
  5
78
100
AcDbEntity
  8
2
370
    50
100
AcDbLine
 10
-140.364411
 20
-24.565207
 30
0.0
 11
-140.364411
 21
33.934794
 31
0.0
  0
LINE
  5
79
100
AcDbEntity
  8
2
370
    50
100
AcDbLine
 10
-148.364411
 20
33.934795
 30
0.0
 11
-148.364412
 21
-24.565207
 31
0.0
  0
LINE
  5
7A
100
AcDbEntity
  8
2
370
    50
100
AcDbLine
 10
-148.364411
 20
33.934795
 30
0.0
 11
-147.86441
 21
34.434794
 31
0.0
  0
LINE
  5
7B
100
AcDbEntity
  8
2
370
    50
100
AcDbLine
 10
-140.864412
 20
34.434795
 30
0.0
 11
-140.364411
 21
33.934794
 31
0.0
  0
LINE
  5
7C
100
AcDbEntity
  8
2
370
    50
100
AcDbLine
 10
-147.86441
 20
34.434794
 30
0.0
 11
-140.864412
 21
34.434795
 31
0.0
  0
LINE
  5
7D
100
AcDbEntity
  8
2
370
    50
100
AcDbLine
 10
-153.619444
 20
-59.565205
 30
0.0
 11
-137.364411
 21
-59.565222
 31
0.0
  0
LINE
  5
7E
100
AcDbEntity
  8
2
370
    50
100
AcDbLine
 10
-137.164411
 20
-24.565209
 30
0.0
 11
-160.164411
 21
-24.565207
 31
0.0
  0
LINE
  5
7F
100
AcDbEntity
  8
2
370
    50
100
AcDbLine
 10
-154.293952
 20
-59.565207
 30
0.0
 11
-161.86441
 21
-40.827669
 31
0.0
  0
LINE
  5
80
100
AcDbEntity
  8
2
370
    50
100
AcDbLine
 10
-148.364411
 20
-60.565206
 30
0.0
 11
-148.364411
 21
-59.565206
 31
0.0
  0
LINE
  5
81
100
AcDbEntity
  8
2
370
    50
100
AcDbLine
 10
-147.364411
 20
-59.565206
 30
0.0
 11
-148.364411
 21
-59.565206
 31
0.0
  0
ARC
  5
82
100
AcDbEntity
  8
2
370
    50
100
AcDbCircle
 10
-144.364411
 20
-53.637003
 30
0.0
 40
8.0
100
AcDbArc
 50
239.999998
 51
299.999998
  0
LINE
  5
83
100
AcDbEntity
  8
2
370
    50
100
AcDbLine
 10
-140.364411
 20
-60.565206
 30
0.0
 11
-140.364411
 21
-59.565206
 31
0.0
  0
LINE
  5
84
100
AcDbEntity
  8
2
370
    25
  6
CENTER
100
AcDbLine
 10
-144.364415
 20
36.920723
 30
0.0
 11
-144.364411
 21
-62.723373
 31
0.0
  0
LINE
  5
85
100
AcDbEntity
  8
2
370
    50
100
AcDbLine
 10
64.248505
 20
14.503335
 30
0.0
 11
61.420078
 21
11.674908
 31
0.0
  0
LINE
  5
86
100
AcDbEntity
  8
2
370
    50
100
AcDbLine
 10
105.941837
 20
-27.189996
 30
0.0
 11
64.248505
 21
14.503335
 31
0.0
  0
LINE
  5
87
100
AcDbEntity
  8
2
370
    50
100
AcDbLine
 10
58.591651
 20
8.846481
 30
0.0
 11
100.284982
 21
-32.846851
 31
0.0
  0
LINE
  5
88
100
AcDbEntity
  8
2
370
    50
100
AcDbLine
 10
61.420078
 20
11.674908
 30
0.0
 11
58.591651
 21
8.846481
 31
0.0
  0
LINE
  5
89
100
AcDbEntity
  8
2
370
    50
100
AcDbLine
 10
58.591651
 20
9.553588
 30
0.0
 11
61.066525
 21
12.028462
 31
0.0
  0
LINE
  5
8A
100
AcDbEntity
  8
2
370
    50
100
AcDbLine
 10
64.248505
 20
14.503335
 30
0.0
 11
63.541398
 21
14.503335
 31
0.0
  0
LINE
  5
8B
100
AcDbEntity
  8
2
370
    50
100
AcDbLine
 10
58.591651
 20
9.553588
 30
0.0
 11
58.591651
 21
8.846481
 31
0.0
  0
LINE
  5
8C
100
AcDbEntity
  8
2
370
    50
100
AcDbLine
 10
61.066525
 20
12.028462
 30
0.0
 11
63.541398
 21
14.503335
 31
0.0
  0
CIRCLE
  5
8D
100
AcDbEntity
  8
2
370
    50
100
AcDbCircle
 10
115.160194
 20
-42.065206
 30
0.0
 40
16.5
  0
CIRCLE
  5
8E
100
AcDbEntity
  8
2
370
    50
100
AcDbCircle
 10
115.160194
 20
-42.065206
 30
0.0
 40
17.5
  0
LINE
  5
8F
100
AcDbEntity
  8
2
370
    25
  6
CENTER
100
AcDbLine
 10
130.094435
 20
-56.99945
 30
0.0
 11
55.737237
 21
17.357748
 31
0.0
  0
LINE
  5
90
100
AcDbEntity
  8
2
370
    25
  6
PHANTOM
100
AcDbLine
 10
94.965013
 20
-28.234528
 30
0.0
 11
47.971275
 21
-6.320988
 31
0.0
  0
LINE
  5
91
100
AcDbEntity
  8
2
370
    25
  6
PHANTOM
100
AcDbLine
 10
44.590329
 20
-13.57145
 30
0.0
 11
91.584066
 21
-35.484991
 31
0.0
  0
LINE
  5
92
100
AcDbEntity
  8
2
370
    25
  6
PHANTOM
100
AcDbLine
 10
44.348483
 20
-12.906987
 30
0.0
 11
47.306811
 21
-6.562833
 31
0.0
  0
LINE
  5
93
100
AcDbEntity
  8
2
370
    25
  6
PHANTOM
100
AcDbLine
 10
47.971275
 20
-6.320988
 30
0.0
 11
47.306811
 21
-6.562833
 31
0.0
  0
LINE
  5
94
100
AcDbEntity
  8
2
370
    25
  6
PHANTOM
100
AcDbLine
 10
44.348483
 20
-12.906987
 30
0.0
 11
44.590329
 21
-13.57145
 31
0.0
  0
LINE
  5
95
100
AcDbEntity
  8
2
370
    25
  6
CENTER
100
AcDbLine
 10
39.487929
 20
-6.778651
 30
0.0
 11
135.101587
 21
-51.364031
 31
0.0
  0
POINT
  5
96
100
AcDbEntity
  8
2
370
    50
100
AcDbPoint
 10
115.160194
 20
-42.065207
 30
0.0
  0
LINE
  5
97
100
AcDbEntity
  8
2
370
    50
100
AcDbLine
 10
132.660192
 20
0.134793
 30
0.0
 11
132.660192
 21
-107.565206
 31
0.0
  0
LINE
  5
98
100
AcDbEntity
  8
2
370
    50
100
AcDbLine
 10
105.635192
 20
122.934794
 30
0.0
 11
105.635192
 21
11.434793
 31
0.0
  0
LINE
  5
99
100
AcDbEntity
  8
2
370
    50
100
AcDbLine
 10
124.685192
 20
122.934794
 30
0.0
 11
124.685192
 21
11.434793
 31
0.0
  0
LINE
  5
9A
100
AcDbEntity
  8
2
370
    50
100
AcDbLine
 10
-94.364808
 20
122.934794
 30
0.0
 11
-94.364808
 21
109.034794
 31
0.0
  0
LINE
  5
9B
100
AcDbEntity
  8
2
370
    50
100
AcDbLine
 10
-75.314808
 20
122.934794
 30
0.0
 11
-75.314808
 21
109.034794
 31
0.0
  0
LINE
  5
9C
100
AcDbEntity
  8
2
370
    50
100
AcDbLine
 10
-75.339808
 20
109.034794
 30
0.0
 11
-75.339808
 21
108.534794
 31
0.0
  0
LINE
  5
9D
100
AcDbEntity
  8
2
370
    50
100
AcDbLine
 10
-94.339808
 20
109.034794
 30
0.0
 11
-94.339808
 21
108.534794
 31
0.0
  0
LINE
  5
9E
100
AcDbEntity
  8
2
370
    50
100
AcDbLine
 10
-93.170808
 20
107.934794
 30
0.0
 11
-93.170808
 21
108.534794
 31
0.0
  0
LINE
  5
9F
100
AcDbEntity
  8
2
370
    50
100
AcDbLine
 10
-94.339808
 20
108.534794
 30
0.0
 11
-75.339808
 21
108.534794
 31
0.0
  0
LINE
  5
A0
100
AcDbEntity
  8
2
370
    50
100
AcDbLine
 10
-93.170808
 20
108.534794
 30
0.0
 11
-92.824397
 21
107.934794
 31
0.0
  0
LINE
  5
A1
100
AcDbEntity
  8
2
370
    50
100
AcDbLine
 10
-94.364808
 20
109.034794
 30
0.0
 11
-75.314808
 21
109.034794
 31
0.0
  0
LINE
  5
A2
100
AcDbEntity
  8
2
370
    50
100
AcDbLine
 10
-75.339808
 20
107.434794
 30
0.0
 11
-75.339808
 21
88.434794
 31
0.0
  0
LINE
  5
A3
100
AcDbEntity
  8
2
370
    50
100
AcDbLine
 10
-94.339808
 20
107.434794
 30
0.0
 11
-94.339808
 21
88.434794
 31
0.0
  0
LINE
  5
A4
100
AcDbEntity
  8
2
370
    50
100
AcDbLine
 10
-75.839808
 20
87.934794
 30
0.0
 11
-93.839808
 21
87.934794
 31
0.0
  0
ARC
  5
A5
100
AcDbEntity
  8
2
370
    50
100
AcDbCircle
 10
-93.839808
 20
88.434794
 30
0.0
 40
0.5
100
AcDbArc
 50
180.0
 51
270.0
  0
ARC
  5
A6
100
AcDbEntity
  8
2
370
    50
100
AcDbCircle
 10
-93.839808
 20
107.434794
 30
0.0
 40
0.5
100
AcDbArc
 50
90.0
 51
180.0
  0
ARC
  5
A7
100
AcDbEntity
  8
2
370
    50
100
AcDbCircle
 10
-75.839808
 20
107.434794
 30
0.0
 40
0.5
100
AcDbArc
 50
0.0
 51
90.0
  0
LINE
  5
A8
100
AcDbEntity
  8
2
370
    50
100
AcDbLine
 10
-75.839808
 20
107.934794
 30
0.0
 11
-93.839808
 21
107.934794
 31
0.0
  0
ARC
  5
A9
100
AcDbEntity
  8
2
370
    50
100
AcDbCircle
 10
-75.839808
 20
88.434794
 30
0.0
 40
0.5
100
AcDbArc
 50
270.0
 51
0.0
  0
LINE
  5
AA
100
AcDbEntity
  8
2
370
    50
100
AcDbLine
 10
-76.508808
 20
108.534794
 30
0.0
 11
-76.855218
 21
107.934794
 31
0.0
  0
LINE
  5
AB
100
AcDbEntity
  8
2
370
    50
100
AcDbLine
 10
-76.508808
 20
107.934794
 30
0.0
 11
-76.508808
 21
108.534794
 31
0.0
  0
LINE
  5
AC
100
AcDbEntity
  8
2
370
    25
100
AcDbLine
 10
131.070098
 20
-52.318256
 30
0.0
 11
125.413243
 21
-57.97511
 31
0.0
  0
LINE
  5
AD
100
AcDbEntity
  8
2
370
    50
100
AcDbLine
 10
131.070098
 20
-52.318256
 30
0.0
 11
130.035406
 21
-51.283564
 31
0.0
  0
ARC
  5
AE
100
AcDbEntity
  8
2
370
    50
100
AcDbCircle
 10
123.342691
 20
-50.247704
 30
0.0
 40
8.0
100
AcDbArc
 50
315.0
 51
345.0
  0
ARC
  5
AF
100
AcDbEntity
  8
2
370
    50
100
AcDbCircle
 10
123.342691
 20
-50.247704
 30
0.0
 40
8.0
100
AcDbArc
 50
285.0
 51
315.0
  0
LINE
  5
B0
100
AcDbEntity
  8
2
370
    50
100
AcDbLine
 10
125.413243
 20
-57.97511
 30
0.0
 11
124.378552
 21
-56.940419
 31
0.0
  0
LINE
  5
B1
100
AcDbEntity
  8
2
370
    50
100
AcDbLine
 10
93.160192
 20
-115.065206
 30
0.0
 11
93.160192
 21
-112.065206
 31
0.0
  0
LINE
  5
B2
100
AcDbEntity
  8
2
370
    50
100
AcDbLine
 10
137.160192
 20
-115.065206
 30
0.0
 11
93.160192
 21
-115.065206
 31
0.0
  0
LINE
  5
B3
100
AcDbEntity
  8
2
370
    50
100
AcDbLine
 10
137.160192
 20
-115.065206
 30
0.0
 11
137.160192
 21
-112.065206
 31
0.0
  0
LINE
  5
B4
100
AcDbEntity
  8
2
370
    50
100
AcDbLine
 10
138.560192
 20
-112.065206
 30
0.0
 11
91.760192
 21
-112.065206
 31
0.0
  0
LINE
  5
B5
100
AcDbEntity
  8
2
370
    50
100
AcDbLine
 10
91.260192
 20
-111.565206
 30
0.0
 11
91.260192
 21
-108.065206
 31
0.0
  0
LINE
  5
B6
100
AcDbEntity
  8
2
370
    50
100
AcDbLine
 10
91.760192
 20
-107.565206
 30
0.0
 11
138.560192
 21
-107.565206
 31
0.0
  0
LINE
  5
B7
100
AcDbEntity
  8
2
370
    50
100
AcDbLine
 10
91.760192
 20
-107.565206
 30
0.0
 11
91.260192
 21
-108.065206
 31
0.0
  0
LINE
  5
B8
100
AcDbEntity
  8
2
370
    50
100
AcDbLine
 10
91.760192
 20
-112.065206
 30
0.0
 11
91.260192
 21
-111.565206
 31
0.0
  0
LINE
  5
B9
100
AcDbEntity
  8
2
370
    50
100
AcDbLine
 10
139.060192
 20
-111.565206
 30
0.0
 11
139.060192
 21
-108.065206
 31
0.0
  0
LINE
  5
BA
100
AcDbEntity
  8
2
370
    50
100
AcDbLine
 10
138.560192
 20
-107.565206
 30
0.0
 11
139.060192
 21
-108.065206
 31
0.0
  0
LINE
  5
BB
100
AcDbEntity
  8
2
370
    50
100
AcDbLine
 10
138.560192
 20
-112.065206
 30
0.0
 11
139.060192
 21
-111.565206
 31
0.0
  0
LINE
  5
BC
100
AcDbEntity
  8
2
370
    50
100
AcDbLine
 10
139.060192
 20
-108.065206
 30
0.0
 11
91.260192
 21
-108.065206
 31
0.0
  0
LINE
  5
BD
100
AcDbEntity
  8
2
370
    50
100
AcDbLine
 10
91.260192
 20
-111.565206
 30
0.0
 11
139.060192
 21
-111.565206
 31
0.0
  0
LINE
  5
BE
100
AcDbEntity
  8
2
370
    50
100
AcDbLine
 10
98.160192
 20
-115.565206
 30
0.0
 11
98.160192
 21
-115.065206
 31
0.0
  0
LINE
  5
BF
100
AcDbEntity
  8
2
370
    50
100
AcDbLine
 10
98.160192
 20
-115.565206
 30
0.0
 11
98.660192
 21
-116.065206
 31
0.0
  0
LINE
  5
C0
100
AcDbEntity
  8
2
370
    50
100
AcDbLine
 10
132.160192
 20
-115.565206
 30
0.0
 11
132.160192
 21
-115.065206
 31
0.0
  0
LINE
  5
C1
100
AcDbEntity
  8
2
370
    50
100
AcDbLine
 10
131.660192
 20
-116.065206
 30
0.0
 11
98.660192
 21
-116.065206
 31
0.0
  0
LINE
  5
C2
100
AcDbEntity
  8
2
370
    50
100
AcDbLine
 10
132.160192
 20
-115.565206
 30
0.0
 11
131.660192
 21
-116.065206
 31
0.0
  0
LINE
  5
C3
100
AcDbEntity
  8
2
370
    50
100
AcDbLine
 10
132.160192
 20
-115.565206
 30
0.0
 11
98.160192
 21
-115.565206
 31
0.0
  0
LINE
  5
C4
100
AcDbEntity
  8
2
370
    50
100
AcDbLine
 10
-140.364411
 20
33.934794
 30
0.0
 11
-148.364411
 21
33.934795
 31
0.0
  0
LINE
  5
C5
100
AcDbEntity
  8
2
370
    50
100
AcDbLine
 10
-140.364411
 20
-60.565206
 30
0.0
 11
-148.364411
 21
-60.565206
 31
0.0
  0
LINE
  5
C6
100
AcDbEntity
  8
2
370
    50
100
AcDbLine
 10
-163.264411
 20
-24.565207
 30
0.0
 11
-163.264411
 21
-59.565207
 31
0.0
  0
LINE
  5
C7
100
AcDbEntity
  8
2
370
    50
100
AcDbLine
 10
-227.664411
 20
-108.065206
 30
0.0
 11
-179.864411
 21
-108.065206
 31
0.0
  0
LINE
  5
C8
100
AcDbEntity
  8
2
370
    50
100
AcDbLine
 10
-179.864411
 20
-111.565206
 30
0.0
 11
-227.664411
 21
-111.565206
 31
0.0
  0
LINE
  5
C9
100
AcDbEntity
  8
2
370
    50
100
AcDbLine
 10
-186.264411
 20
-107.265206
 30
0.0
 11
-221.264411
 21
-107.265206
 31
0.0
  0
LINE
  5
CA
100
AcDbEntity
  8
2
370
    50
100
AcDbLine
 10
-186.764411
 20
-115.565206
 30
0.0
 11
-220.764411
 21
-115.565206
 31
0.0
  0
LINE
  5
CB
100
AcDbEntity
  8
2
370
    25
  6
CENTER
100
AcDbLine
 10
124.660193
 20
-113.455589
 30
0.0
 11
124.660193
 21
-215.333725
 31
0.0
  0
LINE
  5
CC
100
AcDbEntity
  8
2
370
    50
100
AcDbLine
 10
97.960192
 20
-142.877021
 30
0.0
 11
137.960192
 21
-142.877021
 31
0.0
  0
LINE
  5
CD
100
AcDbEntity
  8
2
370
    50
100
AcDbLine
 10
97.960192
 20
-138.877021
 30
0.0
 11
97.960192
 21
-142.877021
 31
0.0
  0
LINE
  5
CE
100
AcDbEntity
  8
2
370
    50
100
AcDbLine
 10
137.960192
 20
-142.877021
 30
0.0
 11
137.960192
 21
-138.877021
 31
0.0
  0
LINE
  5
CF
100
AcDbEntity
  8
2
370
    50
100
AcDbLine
 10
128.660192
 20
-138.877021
 30
0.0
 11
128.660192
 21
-116.065206
 31
0.0
  0
LINE
  5
D0
100
AcDbEntity
  8
2
370
    50
100
AcDbLine
 10
128.035192
 20
-138.877021
 30
0.0
 11
128.035192
 21
-116.065206
 31
0.0
  0
LINE
  5
D1
100
AcDbEntity
  8
2
370
    50
100
AcDbLine
 10
121.285192
 20
-138.877021
 30
0.0
 11
121.285192
 21
-116.065206
 31
0.0
  0
LINE
  5
D2
100
AcDbEntity
  8
2
370
    50
100
AcDbLine
 10
120.660192
 20
-138.877021
 30
0.0
 11
120.660192
 21
-116.065206
 31
0.0
  0
LINE
  5
D3
100
AcDbEntity
  8
2
370
    50
100
AcDbLine
 10
-202.264492
 20
-116.353882
 30
0.0
 11
-201.764492
 21
-116.065206
 31
0.0
  0
ARC
  5
D4
100
AcDbEntity
  8
2
370
    50
100
AcDbCircle
 10
-196.264492
 20
-126.168836
 30
0.0
 40
10.10363
100
AcDbArc
 50
76.270867
 51
90.0
  0
LINE
  5
D5
100
AcDbEntity
  8
2
370
    50
100
AcDbLine
 10
-192.70031
 20
-116.353882
 30
0.0
 11
-193.866576
 21
-116.353882
 31
0.0
  0
ARC
  5
D6
100
AcDbEntity
  8
2
370
    50
100
AcDbCircle
 10
-191.501352
 20
-118.699367
 30
0.0
 40
2.634161
100
AcDbArc
 50
62.924933
 51
117.075067
  0
LINE
  5
D7
100
AcDbEntity
  8
2
370
    50
100
AcDbLine
 10
-190.764492
 20
-116.065206
 30
0.0
 11
-190.264492
 21
-116.353882
 31
0.0
  0
POINT
  5
D8
100
AcDbEntity
  8
2
370
    50
100
AcDbPoint
 10
-196.264411
 20
-116.065206
 30
0.0
  0
ARC
  5
D9
100
AcDbEntity
  8
2
370
    50
100
AcDbCircle
 10
-196.26433
 20
-126.168836
 30
0.0
 40
10.10363
100
AcDbArc
 50
90.0
 51
103.729133
  0
LINE
  5
DA
100
AcDbEntity
  8
2
370
    50
100
AcDbLine
 10
-199.828511
 20
-116.353882
 30
0.0
 11
-198.662245
 21
-116.353882
 31
0.0
  0
ARC
  5
DB
100
AcDbEntity
  8
2
370
    50
100
AcDbCircle
 10
-201.027469
 20
-118.699367
 30
0.0
 40
2.634161
100
AcDbArc
 50
62.924933
 51
117.075067
  0
LINE
  5
DC
100
AcDbEntity
  8
2
370
    50
100
AcDbLine
 10
-201.764492
 20
-116.065206
 30
0.0
 11
-190.764492
 21
-116.065206
 31
0.0
  0
ARC
  5
DD
100
AcDbEntity
  8
2
370
    50
100
AcDbCircle
 10
-211.26433
 20
-126.168836
 30
0.0
 40
10.10363
100
AcDbArc
 50
90.0
 51
103.729133
  0
LINE
  5
DE
100
AcDbEntity
  8
2
370
    50
100
AcDbLine
 10
-214.828511
 20
-116.353882
 30
0.0
 11
-213.662245
 21
-116.353882
 31
0.0
  0
ARC
  5
DF
100
AcDbEntity
  8
2
370
    50
100
AcDbCircle
 10
-216.027469
 20
-118.699367
 30
0.0
 40
2.634161
100
AcDbArc
 50
62.924933
 51
117.075067
  0
LINE
  5
E0
100
AcDbEntity
  8
2
370
    50
100
AcDbLine
 10
-216.76433
 20
-116.065206
 30
0.0
 11
-217.26433
 21
-116.353882
 31
0.0
  0
POINT
  5
E1
100
AcDbEntity
  8
2
370
    50
100
AcDbPoint
 10
-211.264411
 20
-116.065206
 30
0.0
  0
ARC
  5
E2
100
AcDbEntity
  8
2
370
    50
100
AcDbCircle
 10
-211.264492
 20
-126.168836
 30
0.0
 40
10.10363
100
AcDbArc
 50
76.270867
 51
90.0
  0
LINE
  5
E3
100
AcDbEntity
  8
2
370
    50
100
AcDbLine
 10
-207.70031
 20
-116.353882
 30
0.0
 11
-208.866576
 21
-116.353882
 31
0.0
  0
ARC
  5
E4
100
AcDbEntity
  8
2
370
    50
100
AcDbCircle
 10
-206.501352
 20
-118.699367
 30
0.0
 40
2.634161
100
AcDbArc
 50
62.924933
 51
117.075067
  0
LINE
  5
E5
100
AcDbEntity
  8
2
370
    50
100
AcDbLine
 10
-205.76433
 20
-116.065206
 30
0.0
 11
-216.76433
 21
-116.065206
 31
0.0
  0
LINE
  5
E6
100
AcDbEntity
  8
2
370
    50
100
AcDbLine
 10
-205.764492
 20
-116.065206
 30
0.0
 11
-205.264492
 21
-116.353882
 31
0.0
  0
POINT
  5
E7
100
AcDbEntity
  8
2
370
    50
100
AcDbPoint
 10
-203.764411
 20
-116.065206
 30
0.0
  0
LINE
  5
E8
100
AcDbEntity
  8
2
370
    50
100
AcDbLine
 10
117.660273
 20
-116.065206
 30
0.0
 11
106.660273
 21
-116.065206
 31
0.0
  0
LINE
  5
E9
100
AcDbEntity
  8
2
370
    25
  6
CENTER
100
AcDbLine
 10
112.160192
 20
-113.455589
 30
0.0
 11
112.160192
 21
-189.013824
 31
0.0
  0
LINE
  5
EA
100
AcDbEntity
  8
2
370
    50
100
AcDbLine
 10
97.960192
 20
-138.877021
 30
0.0
 11
137.960192
 21
-138.877021
 31
0.0
  0
HATCH
  5
EB
100
AcDbEntity
  8
2
370
    25
100
AcDbHatch
 10
0.0
 20
0.0
 30
0.0
210
0.0
220
0.0
230
1.0
  2
_U
 70
     0
 71
     1
 91
        1
 92
        1
 93
        4
 72
     1
 10
-181.764411
 20
-112.065206
 11
-225.764411
 21
-112.065206
 72
     1
 10
-225.764411
 20
-112.065206
 11
-225.764411
 21
-115.065206
 72
     1
 10
-225.764411
 20
-115.065206
 11
-181.764411
 21
-115.065206
 72
     1
 10
-181.764411
 20
-115.065206
 11
-181.764411
 21
-112.065206
 97
        4
330
0
330
0
330
0
330
0
 75
     0
 76
     0
 52
45.0
 41
1.0
 77
     0
 78
     1
 53
45.0
 43
0.0
 44
0.0
 45
-1.4142140000000001
 46
1.4142140000000001
 79
     0
 98
        1
 10
0.0
 20
0.0
  0
HATCH
  5
EC
100
AcDbEntity
  8
2
370
    25
100
AcDbHatch
 10
0.0
 20
0.0
 30
0.0
210
0.0
220
0.0
230
1.0
  2
_U
 70
     0
 71
     1
 91
        1
 92
        1
 93
        4
 72
     1
 10
137.160192
 20
-112.065206
 11
93.160191999999995
 21
-112.065206
 72
     1
 10
93.160191999999995
 20
-112.065206
 11
93.160191999999995
 21
-115.065206
 72
     1
 10
93.160191999999995
 20
-115.065206
 11
137.160192
 21
-115.065206
 72
     1
 10
137.160192
 20
-115.065206
 11
137.160192
 21
-112.065206
 97
        4
330
0
330
0
330
0
330
0
 75
     0
 76
     0
 52
45.0
 41
1.0
 77
     0
 78
     1
 53
45.0
 43
0.0
 44
0.0
 45
-1.4142140000000001
 46
1.4142140000000001
 79
     0
 98
        1
 10
0.0
 20
0.0
  0
LINE
  5
ED
100
AcDbEntity
  8
2
370
    50
100
AcDbLine
 10
97.660192
 20
234.328767
 30
0.0
 11
132.660192
 21
234.328767
 31
0.0
  0
LINE
  5
EE
100
AcDbEntity
  8
2
370
    50
100
AcDbLine
 10
97.660192
 20
265.503767
 30
0.0
 11
97.660192
 21
234.328767
 31
0.0
  0
LINE
  5
EF
100
AcDbEntity
  8
2
370
    50
100
AcDbLine
 10
132.660192
 20
234.328767
 30
0.0
 11
132.660192
 21
275.028767
 31
0.0
  0
LINE
  5
F0
100
AcDbEntity
  8
2
370
    50
100
AcDbLine
 10
132.360192
 20
234.028767
 30
0.0
 11
97.960192
 21
234.028767
 31
0.0
  0
LINE
  5
F1
100
AcDbEntity
  8
2
370
    50
100
AcDbLine
 10
97.660192
 20
234.328767
 30
0.0
 11
97.960192
 21
234.028767
 31
0.0
  0
LINE
  5
F2
100
AcDbEntity
  8
2
370
    50
100
AcDbLine
 10
132.360192
 20
234.028767
 30
0.0
 11
132.660192
 21
234.328767
 31
0.0
  0
LINE
  5
F3
100
AcDbEntity
  8
2
370
    25
  6
CENTER
100
AcDbLine
 10
115.160192
 20
275.028767
 30
0.0
 11
115.160192
 21
203.15817
 31
0.0
  0
LINE
  5
F4
100
AcDbEntity
  8
2
370
    50
100
AcDbLine
 10
97.660192
 20
231.428766
 30
0.0
 11
97.660192
 21
219.628766
 31
0.0
  0
LINE
  5
F5
100
AcDbEntity
  8
2
370
    50
100
AcDbLine
 10
97.660192
 20
208.428766
 30
0.0
 11
97.660192
 21
211.228766
 31
0.0
  0
ARC
  5
F6
100
AcDbEntity
  8
2
370
    50
100
AcDbCircle
 10
80.671667
 20
215.428766
 30
0.0
 40
17.5
100
AcDbArc
 50
0.0
 51
13.88654
  0
ARC
  5
F7
100
AcDbEntity
  8
2
370
    50
100
AcDbCircle
 10
80.671667
 20
215.428766
 30
0.0
 40
17.5
100
AcDbArc
 50
346.11346
 51
360.0
  0
LINE
  5
F8
100
AcDbEntity
  8
2
370
    50
100
AcDbLine
 10
132.660192
 20
212.178766
 30
0.0
 11
132.660192
 21
211.428766
 31
0.0
  0
LINE
  5
F9
100
AcDbEntity
  8
2
370
    50
100
AcDbLine
 10
132.660192
 20
218.678766
 30
0.0
 11
132.660192
 21
219.428766
 31
0.0
  0
LINE
  5
FA
100
AcDbEntity
  8
2
370
    50
100
AcDbLine
 10
132.660192
 20
224.00929
 30
0.0
 11
132.660192
 21
215.428766
 31
0.0
  0
LINE
  5
FB
100
AcDbEntity
  8
2
370
    50
100
AcDbLine
 10
132.660192
 20
215.428766
 30
0.0
 11
132.660192
 21
208.428766
 31
0.0
  0
LINE
  5
FC
100
AcDbEntity
  8
2
370
    25
  6
PHANTOM
100
AcDbLine
 10
-120.840989
 20
23.530724
 30
0.0
 11
-136.758822
 21
-15.867295
 31
0.0
  0
LINE
  5
FD
100
AcDbEntity
  8
2
370
    25
  6
PHANTOM
100
AcDbLine
 10
-113.423518
 20
20.533872
 30
0.0
 11
-130.760588
 21
-22.376883
 31
0.0
  0
LINE
  5
FE
100
AcDbEntity
  8
2
370
    25
  6
PHANTOM
100
AcDbLine
 10
-120.190094
 20
23.807013
 30
0.0
 11
-113.699807
 21
21.184767
 31
0.0
  0
LINE
  5
FF
100
AcDbEntity
  8
2
370
    25
  6
PHANTOM
100
AcDbLine
 10
-113.423518
 20
20.533872
 30
0.0
 11
-113.699807
 21
21.184767
 31
0.0
  0
LINE
  5
100
100
AcDbEntity
  8
2
370
    25
  6
PHANTOM
100
AcDbLine
 10
-120.190094
 20
23.807013
 30
0.0
 11
-120.840989
 21
23.530724
 31
0.0
  0
LINE
  5
101
100
AcDbEntity
  8
2
370
    25
  6
PHANTOM
100
AcDbLine
 10
-113.423518
 20
20.533872
 30
0.0
 11
-120.840989
 21
23.530724
 31
0.0
  0
LINE
  5
102
100
AcDbEntity
  8
2
370
    25
  6
PHANTOM
100
AcDbLine
 10
-144.165826
 20
-66.728897
 30
0.0
 11
-142.852498
 21
-63.478297
 31
0.0
  0
LINE
  5
103
100
AcDbEntity
  8
2
370
    25
  6
PHANTOM
100
AcDbLine
 10
-161.164414
 20
-58.230547
 30
0.0
 11
-161.164414
 21
-60.939557
 31
0.0
  0
ARC
  5
104
100
AcDbEntity
  8
2
370
    25
  6
PHANTOM
100
AcDbCircle
 10
-145.09301
 20
-66.35429
 30
0.0
 40
1.0
100
AcDbArc
 50
248.000004
 51
338.000004
  0
ARC
  5
105
100
AcDbEntity
  8
2
370
    25
  6
PHANTOM
100
AcDbCircle
 10
-159.164414
 20
-59.59054
 30
0.0
 40
2.0
100
AcDbArc
 50
237.906481
 51
248.000004
  0
ARC
  5
106
100
AcDbEntity
  8
2
370
    25
  6
PHANTOM
100
AcDbCircle
 10
-149.73716
 20
-59.162694
 30
0.0
 40
8.0
100
AcDbArc
 50
248.000004
 51
278.000004
  0
LINE
  5
107
100
AcDbEntity
  8
2
370
    25
  6
PHANTOM
100
AcDbLine
 10
-148.623775
 20
-67.084838
 30
0.0
 11
-148.249168
 21
-66.157655
 31
0.0
  0
ARC
  5
108
100
AcDbEntity
  8
2
370
    25
  6
PHANTOM
100
AcDbCircle
 10
-149.73716
 20
-59.162694
 30
0.0
 40
8.0
100
AcDbArc
 50
218.000004
 51
248.000004
  0
LINE
  5
109
100
AcDbEntity
  8
2
370
    25
  6
PHANTOM
100
AcDbLine
 10
-161.164414
 20
-60.939557
 30
0.0
 11
-151.957904
 21
-64.659228
 31
0.0
  0
LINE
  5
10A
100
AcDbEntity
  8
2
370
    25
  6
PHANTOM
100
AcDbLine
 10
-151.957904
 20
-64.659228
 30
0.0
 11
-145.467617
 21
-67.281474
 31
0.0
  0
LINE
  5
10B
100
AcDbEntity
  8
2
370
    25
  6
PHANTOM
100
AcDbLine
 10
-148.623775
 20
-67.084838
 30
0.0
 11
-156.041246
 21
-64.087986
 31
0.0
  0
ARC
  5
10C
100
AcDbEntity
  8
2
370
    50
100
AcDbCircle
 10
115.160192
 20
275.028767
 30
0.0
 40
9.525
100
AcDbArc
 50
270.0
 51
360.0
  0
ARC
  5
10D
100
AcDbEntity
  8
2
370
    50
100
AcDbCircle
 10
115.160192
 20
275.028767
 30
0.0
 40
17.2
100
AcDbArc
 50
213.626661
 51
360.0
  0
ARC
  5
10E
100
AcDbEntity
  8
2
370
    50
100
AcDbCircle
 10
115.160192
 20
275.028767
 30
0.0
 40
17.5
100
AcDbArc
 50
212.975865
 51
360.0
  0
LINE
  5
10F
100
AcDbEntity
  8
2
370
    50
100
AcDbLine
 10
-84.839808
 20
265.503767
 30
0.0
 11
115.160192
 21
265.503767
 31
0.0
  0
ARC
  5
110
100
AcDbEntity
  8
2
370
    25
  6
CENTER
100
AcDbCircle
 10
80.160192
 20
122.934794
 30
0.0
 40
35.0
100
AcDbArc
 50
0.0
 51
90.0
  0
ARC
  5
111
100
AcDbEntity
  8
2
370
    50
100
AcDbCircle
 10
80.160192
 20
122.934794
 30
0.0
 40
44.525
100
AcDbArc
 50
0.0
 51
90.0
  0
ARC
  5
112
100
AcDbEntity
  8
2
370
    50
100
AcDbCircle
 10
80.160192
 20
122.934794
 30
0.0
 40
25.475
100
AcDbArc
 50
0.0
 51
90.0
  0
LINE
  5
113
100
AcDbEntity
  8
2
370
    25
  6
PHANTOM
100
AcDbLine
 10
34.43378
 20
194.85726
 30
0.0
 11
106.738326
 21
255.527978
 31
0.0
  0
LINE
  5
114
100
AcDbEntity
  8
2
370
    25
  6
PHANTOM
100
AcDbLine
 10
22.396706
 20
209.624965
 30
0.0
 11
94.493222
 21
270.121124
 31
0.0
  0
LINE
  5
115
100
AcDbEntity
  8
2
370
    50
100
AcDbLine
 10
-186.264411
 20
0.134793
 30
0.0
 11
-186.564411
 21
0.434793
 31
0.0
  0
LINE
  5
116
100
AcDbEntity
  8
2
370
    50
100
AcDbLine
 10
-220.964411
 20
0.434793
 30
0.0
 11
-186.564411
 21
0.434793
 31
0.0
  0
LINE
  5
117
100
AcDbEntity
  8
2
370
    50
100
AcDbLine
 10
-221.264412
 20
0.134793
 30
0.0
 11
-220.964412
 21
0.434793
 31
0.0
  0
LINE
  5
118
100
AcDbEntity
  8
2
370
    50
100
AcDbLine
 10
97.960192
 20
0.434793
 30
0.0
 11
132.360192
 21
0.434793
 31
0.0
  0
LINE
  5
119
100
AcDbEntity
  8
2
370
    50
100
AcDbLine
 10
132.660192
 20
0.134793
 30
0.0
 11
132.360192
 21
0.434793
 31
0.0
  0
LINE
  5
11A
100
AcDbEntity
  8
2
370
    50
100
AcDbLine
 10
97.960192
 20
0.434793
 30
0.0
 11
97.660192
 21
0.134793
 31
0.0
  0
LINE
  5
11B
100
AcDbEntity
  8
2
370
    50
100
AcDbLine
 10
-186.264411
 20
0.134793
 30
0.0
 11
-221.264411
 21
0.134793
 31
0.0
  0
LINE
  5
11C
100
AcDbEntity
  8
2
370
    50
100
AcDbLine
 10
132.660192
 20
0.134793
 30
0.0
 11
97.660192
 21
0.134793
 31
0.0
  0
LINE
  5
11D
100
AcDbEntity
  8
2
370
    50
100
AcDbLine
 10
97.960192
 20
11.434793
 30
0.0
 11
132.360192
 21
11.434793
 31
0.0
  0
LINE
  5
11E
100
AcDbEntity
  8
2
370
    50
100
AcDbLine
 10
97.660192
 20
11.134793
 30
0.0
 11
97.660192
 21
0.734793
 31
0.0
  0
LINE
  5
11F
100
AcDbEntity
  8
2
370
    50
100
AcDbLine
 10
132.660192
 20
11.134793
 30
0.0
 11
132.660192
 21
0.734793
 31
0.0
  0
LINE
  5
120
100
AcDbEntity
  8
2
370
    50
100
AcDbLine
 10
132.660192
 20
0.734793
 30
0.0
 11
132.360192
 21
0.434793
 31
0.0
  0
LINE
  5
121
100
AcDbEntity
  8
2
370
    50
100
AcDbLine
 10
132.360192
 20
11.434793
 30
0.0
 11
132.660192
 21
11.134793
 31
0.0
  0
LINE
  5
122
100
AcDbEntity
  8
2
370
    50
100
AcDbLine
 10
97.960192
 20
11.434793
 30
0.0
 11
97.660192
 21
11.134793
 31
0.0
  0
LINE
  5
123
100
AcDbEntity
  8
2
370
    50
100
AcDbLine
 10
97.660192
 20
0.734793
 30
0.0
 11
97.960192
 21
0.434793
 31
0.0
  0
LINE
  5
124
100
AcDbEntity
  8
2
370
    50
100
AcDbLine
 10
132.660192
 20
11.134793
 30
0.0
 11
97.660192
 21
11.134793
 31
0.0
  0
LINE
  5
125
100
AcDbEntity
  8
2
370
    50
100
AcDbLine
 10
132.660192
 20
0.734793
 30
0.0
 11
97.660192
 21
0.734793
 31
0.0
  0
LINE
  5
126
100
AcDbEntity
  8
2
370
    50
100
AcDbLine
 10
-220.964411
 20
11.434793
 30
0.0
 11
-186.564411
 21
11.434793
 31
0.0
  0
LINE
  5
127
100
AcDbEntity
  8
2
370
    50
100
AcDbLine
 10
-186.264411
 20
11.134793
 30
0.0
 11
-186.264411
 21
0.734793
 31
0.0
  0
LINE
  5
128
100
AcDbEntity
  8
2
370
    50
100
AcDbLine
 10
-221.264411
 20
11.134793
 30
0.0
 11
-221.264411
 21
0.734793
 31
0.0
  0
LINE
  5
129
100
AcDbEntity
  8
2
370
    50
100
AcDbLine
 10
-186.264411
 20
11.134793
 30
0.0
 11
-186.564411
 21
11.434793
 31
0.0
  0
LINE
  5
12A
100
AcDbEntity
  8
2
370
    50
100
AcDbLine
 10
-221.264411
 20
11.134793
 30
0.0
 11
-220.964411
 21
11.434793
 31
0.0
  0
LINE
  5
12B
100
AcDbEntity
  8
2
370
    50
100
AcDbLine
 10
-186.264411
 20
0.734793
 30
0.0
 11
-186.564411
 21
0.434793
 31
0.0
  0
LINE
  5
12C
100
AcDbEntity
  8
2
370
    50
100
AcDbLine
 10
-220.964411
 20
0.434793
 30
0.0
 11
-221.264411
 21
0.734793
 31
0.0
  0
LINE
  5
12D
100
AcDbEntity
  8
2
370
    50
100
AcDbLine
 10
-186.264411
 20
11.134793
 30
0.0
 11
-221.264411
 21
11.134793
 31
0.0
  0
LINE
  5
12E
100
AcDbEntity
  8
2
370
    50
100
AcDbLine
 10
-186.264411
 20
0.734793
 30
0.0
 11
-221.264411
 21
0.734793
 31
0.0
  0
LINE
  5
12F
100
AcDbEntity
  8
2
370
    50
100
AcDbLine
 10
118.160639
 20
-212.877021
 30
0.0
 11
131.159746
 21
-212.877021
 31
0.0
  0
LINE
  5
130
100
AcDbEntity
  8
2
370
    50
100
AcDbLine
 10
119.160273
 20
-147.877021
 30
0.0
 11
131.160193
 21
-147.877021
 31
0.0
  0
LINE
  5
131
100
AcDbEntity
  8
2
370
    50
100
AcDbLine
 10
117.154639
 20
-211.871021
 30
0.0
 11
117.154639
 21
-186.98143
 31
0.0
  0
LINE
  5
132
100
AcDbEntity
  8
2
370
    50
100
AcDbLine
 10
132.165746
 20
-211.871021
 30
0.0
 11
132.165746
 21
-148.882575
 31
0.0
  0
LINE
  5
133
100
AcDbEntity
  8
2
370
    50
100
AcDbLine
 10
131.160193
 20
-147.877021
 30
0.0
 11
132.165746
 21
-148.882575
 31
0.0
  0
LINE
  5
134
100
AcDbEntity
  8
2
370
    50
100
AcDbLine
 10
132.165746
 20
-211.871021
 30
0.0
 11
131.159746
 21
-212.877021
 31
0.0
  0
LINE
  5
135
100
AcDbEntity
  8
2
370
    50
100
AcDbLine
 10
117.154639
 20
-211.871021
 30
0.0
 11
118.160639
 21
-212.877021
 31
0.0
  0
LINE
  5
136
100
AcDbEntity
  8
2
370
    50
100
AcDbLine
 10
128.412969
 20
-211.871021
 30
0.0
 11
128.412969
 21
-148.882575
 31
0.0
  0
ARC
  5
137
100
AcDbEntity
  8
2
370
    50
100
AcDbCircle
 10
130.253912
 20
-150.064975
 30
0.0
 40
2.187954
100
AcDbArc
 50
45.0
 51
147.288191
  0
ARC
  5
138
100
AcDbEntity
  8
2
370
    50
100
AcDbCircle
 10
124.660193
 20
-155.382575
 30
0.0
 40
7.505554
100
AcDbArc
 50
60.0
 51
120.0
  0
ARC
  5
139
100
AcDbEntity
  8
2
370
    50
100
AcDbCircle
 10
124.660193
 20
-205.374353
 30
0.0
 40
7.502669
100
AcDbArc
 50
239.98728
 51
300.01272
  0
ARC
  5
13A
100
AcDbEntity
  8
2
370
    50
100
AcDbCircle
 10
130.253782
 20
-210.689831
 30
0.0
 40
2.187191
100
AcDbArc
 50
212.68699
 51
315.0
  0
LINE
  5
13B
100
AcDbEntity
  8
2
370
    50
100
AcDbLine
 10
118.660193
 20
-142.877021
 30
0.0
 11
130.660193
 21
-142.877021
 31
0.0
  0
LINE
  5
13C
100
AcDbEntity
  8
2
370
    50
100
AcDbLine
 10
131.160193
 20
-147.877021
 30
0.0
 11
131.160193
 21
-143.377021
 31
0.0
  0
LINE
  5
13D
100
AcDbEntity
  8
2
370
    50
100
AcDbLine
 10
130.660193
 20
-142.877021
 30
0.0
 11
131.160193
 21
-143.377021
 31
0.0
  0
LINE
  5
13E
100
AcDbEntity
  8
2
370
    25
100
AcDbLine
 10
131.160193
 20
-143.377021
 30
0.0
 11
118.86264
 21
-143.377021
 31
0.0
  0
HATCH
  5
13F
100
AcDbEntity
  8
2
370
    25
100
AcDbHatch
 10
0.0
 20
0.0
 30
0.0
210
0.0
220
0.0
230
1.0
  2
_U
 70
     0
 71
     1
 91
        1
 92
        1
 93
        1
 72
     2
 10
-166.264411
 20
-26.909762000000001
 40
1.0
 50
0.0
 51
360.0
 73
     1
 97
        1
330
0
 75
     0
 76
     0
 52
45.0
 41
1.0
 77
     0
 78
     1
 53
45.0
 43
0.0
 44
0.0
 45
-0.707107
 46
0.707107
 79
     0
 98
        1
 10
0.0
 20
0.0
  0
HATCH
  5
140
100
AcDbEntity
  8
2
370
    25
100
AcDbHatch
 10
0.0
 20
0.0
 30
0.0
210
0.0
220
0.0
230
1.0
  2
_U
 70
     0
 71
     1
 91
        1
 92
        1
 93
        1
 72
     2
 10
-166.264411
 20
-33.315207000000001
 40
1.0
 50
0.0
 51
360.0
 73
     1
 97
        1
330
0
 75
     0
 76
     0
 52
45.0
 41
1.0
 77
     0
 78
     1
 53
45.0
 43
0.0
 44
0.0
 45
-0.424264
 46
0.424264
 79
     0
 98
        1
 10
0.0
 20
0.0
  0
LINE
  5
141
100
AcDbEntity
  8
2
370
    25
  6
PHANTOM
100
AcDbLine
 10
-156.041246
 20
-64.087986
 30
0.0
 11
-155.666639
 21
-63.160802
 31
0.0
  0
ARC
  5
142
100
AcDbEntity
  8
2
370
    50
100
AcDbCircle
 10
119.066473
 20
-150.064975
 30
0.0
 40
2.187954
100
AcDbArc
 50
32.711809
 51
87.542904
  0
LINE
  5
143
100
AcDbEntity
  8
2
370
    50
100
AcDbLine
 10
120.907416
 20
-211.871021
 30
0.0
 11
120.907416
 21
-148.882575
 31
0.0
  0
ARC
  5
144
100
AcDbEntity
  8
2
370
    50
100
AcDbCircle
 10
119.066603
 20
-210.689831
 30
0.0
 40
2.187191
100
AcDbArc
 50
225.0
 51
327.31301
  0
LINE
  5
145
100
AcDbEntity
  8
2
370
    25
  6
CENTER
100
AcDbLine
 10
-84.839807
 20
122.934794
 30
0.0
 11
-84.839807
 21
83.299637
 31
0.0
  0
LINE
  5
146
100
AcDbEntity
  8
2
370
    50
100
AcDbLine
 10
80.160192
 20
167.459794
 30
0.0
 11
-49.839808
 21
167.459794
 31
0.0
  0
LINE
  5
147
100
AcDbEntity
  8
2
370
    50
100
AcDbLine
 10
80.160192
 20
148.409794
 30
0.0
 11
-49.839808
 21
148.409794
 31
0.0
  0
LINE
  5
148
100
AcDbEntity
  8
2
370
    25
  6
CENTER
100
AcDbLine
 10
80.160192
 20
157.934794
 30
0.0
 11
-49.839808
 21
157.934794
 31
0.0
  0
ARC
  5
149
100
AcDbEntity
  8
2
370
    25
  6
CENTER
100
AcDbCircle
 10
-49.839808
 20
122.934794
 30
0.0
 40
35.0
100
AcDbArc
 50
90.0
 51
180.0
  0
ARC
  5
14A
100
AcDbEntity
  8
2
370
    50
100
AcDbCircle
 10
-49.839808
 20
122.934794
 30
0.0
 40
25.475
100
AcDbArc
 50
90.0
 51
180.0
  0
ARC
  5
14B
100
AcDbEntity
  8
2
370
    50
100
AcDbCircle
 10
-49.839808
 20
122.934794
 30
0.0
 40
44.525
100
AcDbArc
 50
90.0
 51
180.0
  0
LINE
  5
14C
100
AcDbEntity
  8
2
370
    50
100
AcDbLine
 10
-213.289412
 20
122.934794
 30
0.0
 11
-213.289412
 21
109.034794
 31
0.0
  0
LINE
  5
14D
100
AcDbEntity
  8
2
370
    50
100
AcDbLine
 10
-194.239412
 20
122.934794
 30
0.0
 11
-194.239412
 21
109.034794
 31
0.0
  0
LINE
  5
14E
100
AcDbEntity
  8
2
370
    50
100
AcDbLine
 10
-194.264412
 20
109.034794
 30
0.0
 11
-194.264412
 21
108.534794
 31
0.0
  0
LINE
  5
14F
100
AcDbEntity
  8
2
370
    50
100
AcDbLine
 10
-213.264412
 20
109.034794
 30
0.0
 11
-213.264412
 21
108.534794
 31
0.0
  0
LINE
  5
150
100
AcDbEntity
  8
2
370
    50
100
AcDbLine
 10
-212.095412
 20
107.934794
 30
0.0
 11
-212.095412
 21
108.534794
 31
0.0
  0
LINE
  5
151
100
AcDbEntity
  8
2
370
    50
100
AcDbLine
 10
-213.264412
 20
108.534794
 30
0.0
 11
-194.264412
 21
108.534794
 31
0.0
  0
LINE
  5
152
100
AcDbEntity
  8
2
370
    50
100
AcDbLine
 10
-212.095412
 20
108.534794
 30
0.0
 11
-211.749001
 21
107.934794
 31
0.0
  0
LINE
  5
153
100
AcDbEntity
  8
2
370
    50
100
AcDbLine
 10
-213.289412
 20
109.034794
 30
0.0
 11
-194.239412
 21
109.034794
 31
0.0
  0
LINE
  5
154
100
AcDbEntity
  8
2
370
    50
100
AcDbLine
 10
-194.264412
 20
107.434794
 30
0.0
 11
-194.264412
 21
88.434794
 31
0.0
  0
LINE
  5
155
100
AcDbEntity
  8
2
370
    50
100
AcDbLine
 10
-213.264412
 20
107.434794
 30
0.0
 11
-213.264412
 21
88.434794
 31
0.0
  0
ARC
  5
156
100
AcDbEntity
  8
2
370
    50
100
AcDbCircle
 10
-212.764412
 20
107.434794
 30
0.0
 40
0.5
100
AcDbArc
 50
90.0
 51
180.0
  0
ARC
  5
157
100
AcDbEntity
  8
2
370
    50
100
AcDbCircle
 10
-194.764412
 20
107.434794
 30
0.0
 40
0.5
100
AcDbArc
 50
0.0
 51
90.0
  0
LINE
  5
158
100
AcDbEntity
  8
2
370
    50
100
AcDbLine
 10
-194.764412
 20
107.934794
 30
0.0
 11
-212.764412
 21
107.934794
 31
0.0
  0
LINE
  5
159
100
AcDbEntity
  8
2
370
    50
100
AcDbLine
 10
-195.433412
 20
108.534794
 30
0.0
 11
-195.779822
 21
107.934794
 31
0.0
  0
LINE
  5
15A
100
AcDbEntity
  8
2
370
    50
100
AcDbLine
 10
-195.433412
 20
107.934794
 30
0.0
 11
-195.433412
 21
108.534794
 31
0.0
  0
ARC
  5
15B
100
AcDbEntity
  8
2
370
    50
100
AcDbCircle
 10
-194.764412
 20
88.434794
 30
0.0
 40
0.5
100
AcDbArc
 50
270.0
 51
0.0
  0
LINE
  5
15C
100
AcDbEntity
  8
2
370
    50
100
AcDbLine
 10
-194.764412
 20
87.934794
 30
0.0
 11
-212.764412
 21
87.934794
 31
0.0
  0
ARC
  5
15D
100
AcDbEntity
  8
2
370
    50
100
AcDbCircle
 10
-212.764412
 20
88.434794
 30
0.0
 40
0.5
100
AcDbArc
 50
180.0
 51
270.0
  0
ARC
  5
15E
100
AcDbEntity
  8
2
370
    50
100
AcDbCircle
 10
-203.764412
 20
157.934794
 30
0.0
 40
9.525
100
AcDbArc
 50
0.0
 51
180.0
  0
ARC
  5
15F
100
AcDbEntity
  8
2
370
    50
100
AcDbCircle
 10
-84.839808
 20
275.028767
 30
0.0
 40
9.525
100
AcDbArc
 50
180.0
 51
270.0
  0
SPLINE
  5
160
100
AcDbEntity
  8
2
370
    25
  6
CENTER
100
AcDbSpline
210
0.0
220
0.0
230
1.0
 70
     8
 71
     3
 72
     0
 73
     0
 74
     4
 44
0.0000000001
 11
20.340865999999998
 21
209.60485800000001
 31
0.0
 11
27.909554
 21
208.04693599999999
 31
0.0
 11
28.577304999999999
 21
198.477127
 31
0.0
 11
37.926830000000002
 21
194.248718
 31
0.0
  0
LINE
  5
161
100
AcDbEntity
  8
2
370
    50
100
AcDbLine
 10
97.660192
 20
-107.565206
 30
0.0
 11
97.660192
 21
-30.222061
 31
0.0
  0
LINE
  5
162
100
AcDbEntity
  8
2
370
    50
100
AcDbLine
 10
97.660192
 20
-18.908351
 30
0.0
 11
97.660192
 21
0.134793
 31
0.0
  0
LINE
  5
163
100
AcDbEntity
  8
2
370
    50
100
AcDbLine
 10
-148.364407
 20
-60.564842
 30
0.0
 11
-148.364407
 21
-59.564842
 31
0.0
  0
ARC
  5
164
100
AcDbEntity
  8
2
370
    50
100
AcDbCircle
 10
-144.364407
 20
-53.636639
 30
0.0
 40
8.0
100
AcDbArc
 50
239.999998
 51
299.999998
  0
LINE
  5
165
100
AcDbEntity
  8
2
370
    50
100
AcDbLine
 10
-140.364407
 20
-60.564842
 30
0.0
 11
-140.364407
 21
-59.564842
 31
0.0
  0
ARC
  5
166
100
AcDbEntity
  8
2
370
    50
100
AcDbCircle
 10
-163.022896
 20
-83.565898
 30
0.0
 40
56.0
100
AcDbArc
 50
88.814623
 51
89.735531
  0
ARC
  5
167
100
AcDbEntity
  8
2
370
    50
100
AcDbCircle
 10
-163.022896
 20
-0.563786
 30
0.0
 40
56.0
100
AcDbArc
 50
270.264469
 51
277.512993
  0
LINE
  5
168
100
AcDbEntity
  8
2
370
    50
100
AcDbLine
 10
-136.36441
 20
-58.565207
 30
0.0
 11
-136.36441
 21
-25.565207
 31
0.0
  0
LINE
  5
169
100
AcDbEntity
  8
2
370
    50
100
AcDbLine
 10
-161.86441
 20
-24.565207
 30
0.0
 11
-137.36441
 21
-24.565207
 31
0.0
  0
ARC
  5
16A
100
AcDbEntity
  8
2
370
    50
100
AcDbCircle
 10
-137.36441
 20
-58.565207
 30
0.0
 40
1.0
100
AcDbArc
 50
270.0
 51
360.0
  0
ARC
  5
16B
100
AcDbEntity
  8
2
370
    50
100
AcDbCircle
 10
-137.36441
 20
-25.565207
 30
0.0
 40
1.0
100
AcDbArc
 50
0.0
 51
90.0
  0
LINE
  5
16C
100
AcDbEntity
  8
2
370
    50
100
AcDbLine
 10
-161.86441
 20
-40.827669
 30
0.0
 11
-161.86441
 21
-24.565207
 31
0.0
  0
LINE
  5
16D
100
AcDbEntity
  8
2
370
    50
100
AcDbLine
 10
-154.293952
 20
-59.565207
 30
0.0
 11
-147.364407
 21
-59.565207
 31
0.0
  0
LINE
  5
16E
100
AcDbEntity
  8
2
370
    50
100
AcDbLine
 10
-141.364407
 20
-59.565207
 30
0.0
 11
-137.36441
 21
-59.565207
 31
0.0
  0
LINE
  5
16F
100
AcDbEntity
  8
2
370
    50
100
AcDbLine
 10
97.660193
 20
211.628767
 30
0.0
 11
39.160191
 21
211.628766
 31
0.0
  0
LINE
  5
170
100
AcDbEntity
  8
2
370
    50
100
AcDbLine
 10
39.160191
 20
219.628767
 30
0.0
 11
97.660192
 21
219.628768
 31
0.0
  0
LINE
  5
171
100
AcDbEntity
  8
2
370
    50
100
AcDbLine
 10
39.160191
 20
219.628767
 30
0.0
 11
38.660192
 21
219.128766
 31
0.0
  0
LINE
  5
172
100
AcDbEntity
  8
2
370
    50
100
AcDbLine
 10
38.660191
 20
212.128768
 30
0.0
 11
39.160191
 21
211.628766
 31
0.0
  0
LINE
  5
173
100
AcDbEntity
  8
2
370
    50
100
AcDbLine
 10
38.660192
 20
219.128766
 30
0.0
 11
38.660191
 21
212.128768
 31
0.0
  0
LINE
  5
174
100
AcDbEntity
  8
2
370
    50
100
AcDbLine
 10
132.660191
 20
224.8838
 30
0.0
 11
132.660208
 21
208.628767
 31
0.0
  0
LINE
  5
175
100
AcDbEntity
  8
2
370
    50
100
AcDbLine
 10
131.660191
 20
225.962334
 30
0.0
 11
113.922654
 21
233.128766
 31
0.0
  0
LINE
  5
176
100
AcDbEntity
  8
2
370
    50
100
AcDbLine
 10
133.660192
 20
219.628767
 30
0.0
 11
132.660192
 21
219.628767
 31
0.0
  0
LINE
  5
177
100
AcDbEntity
  8
2
370
    50
100
AcDbLine
 10
132.660192
 20
218.628767
 30
0.0
 11
132.660192
 21
219.628767
 31
0.0
  0
ARC
  5
178
100
AcDbEntity
  8
2
370
    50
100
AcDbCircle
 10
126.731989
 20
215.628767
 30
0.0
 40
8.0
100
AcDbArc
 50
330.000002
 51
30.000002
  0
LINE
  5
179
100
AcDbEntity
  8
2
370
    50
100
AcDbLine
 10
133.660192
 20
211.628767
 30
0.0
 11
132.660192
 21
211.628767
 31
0.0
  0
LINE
  5
17A
100
AcDbEntity
  8
2
370
    25
  6
CENTER
100
AcDbLine
 10
36.174262
 20
215.62877
 30
0.0
 11
135.818359
 21
215.628767
 31
0.0
  0
LINE
  5
17B
100
AcDbEntity
  8
2
370
    50
100
AcDbLine
 10
39.160191
 20
211.628766
 30
0.0
 11
39.160191
 21
219.628767
 31
0.0
  0
LINE
  5
17C
100
AcDbEntity
  8
2
370
    50
100
AcDbLine
 10
133.660192
 20
211.628767
 30
0.0
 11
133.660192
 21
219.628767
 31
0.0
  0
LINE
  5
17D
100
AcDbEntity
  8
2
370
    50
100
AcDbLine
 10
133.659828
 20
219.628763
 30
0.0
 11
132.659828
 21
219.628763
 31
0.0
  0
ARC
  5
17E
100
AcDbEntity
  8
2
370
    50
100
AcDbCircle
 10
126.731624
 20
215.628763
 30
0.0
 40
8.0
100
AcDbArc
 50
330.000002
 51
30.000002
  0
LINE
  5
17F
100
AcDbEntity
  8
2
370
    50
100
AcDbLine
 10
133.659828
 20
211.628763
 30
0.0
 11
132.659828
 21
211.628763
 31
0.0
  0
ARC
  5
180
100
AcDbEntity
  8
2
370
    50
100
AcDbCircle
 10
156.660884
 20
234.287252
 30
0.0
 40
56.0
100
AcDbArc
 50
180.264469
 51
181.185377
  0
ARC
  5
181
100
AcDbEntity
  8
2
370
    50
100
AcDbCircle
 10
73.658772
 20
234.287252
 30
0.0
 40
56.0
100
AcDbArc
 50
352.487007
 51
359.735531
  0
LINE
  5
182
100
AcDbEntity
  8
2
370
    50
100
AcDbLine
 10
131.660192
 20
207.628766
 30
0.0
 11
98.660192
 21
207.628766
 31
0.0
  0
LINE
  5
183
100
AcDbEntity
  8
2
370
    50
100
AcDbLine
 10
129.178025
 20
226.965194
 30
0.0
 11
132.660192
 21
225.558307
 31
0.0
  0
ARC
  5
184
100
AcDbEntity
  8
2
370
    50
100
AcDbCircle
 10
131.660192
 20
208.628766
 30
0.0
 40
1.0
100
AcDbArc
 50
270.0
 51
0.0
  0
ARC
  5
185
100
AcDbEntity
  8
2
370
    50
100
AcDbCircle
 10
98.660192
 20
208.628766
 30
0.0
 40
1.0
100
AcDbArc
 50
180.0
 51
270.0
  0
LINE
  5
186
100
AcDbEntity
  8
2
370
    50
100
AcDbLine
 10
113.922654
 20
233.128766
 30
0.0
 11
97.660192
 21
233.128766
 31
0.0
  0
LINE
  5
187
100
AcDbEntity
  8
2
370
    50
100
AcDbLine
 10
132.660192
 20
225.558307
 30
0.0
 11
132.660192
 21
218.628763
 31
0.0
  0
LINE
  5
188
100
AcDbEntity
  8
2
370
    50
100
AcDbLine
 10
132.660192
 20
212.628763
 30
0.0
 11
132.660192
 21
208.628766
 31
0.0
  0
POINT
  5
189
100
AcDbEntity
  8
2
370
    50
100
AcDbPoint
 10
115.160192
 20
207.628766
 30
0.0
  0
LINE
  5
18A
100
AcDbEntity
  8
2
370
    50
100
AcDbLine
 10
97.660192
 20
208.628766
 30
0.0
 11
97.660192
 21
211.228766
 31
0.0
  0
LINE
  5
18B
100
AcDbEntity
  8
2
370
    50
100
AcDbLine
 10
97.660192
 20
219.628766
 30
0.0
 11
97.660192
 21
233.128766
 31
0.0
  0
LINE
  5
18C
100
AcDbEntity
  8
2
370
    25
  6
PHANTOM
100
AcDbLine
 10
44.590329
 20
-13.57145
 30
0.0
 11
47.971275
 21
-6.320988
 31
0.0
  0
LINE
  5
18D
100
AcDbEntity
  8
2
370
    25
  6
PHANTOM
100
AcDbLine
 10
130.966736
 20
32.38043
 30
0.0
 11
131.579108
 21
32.733985
 31
0.0
  0
LINE
  5
18E
100
AcDbEntity
  8
2
370
    25
  6
PHANTOM
100
AcDbLine
 10
117.546488
 20
-17.704613
 30
0.0
 11
130.966736
 21
32.38043
 31
0.0
  0
LINE
  5
18F
100
AcDbEntity
  8
2
370
    25
  6
PHANTOM
100
AcDbLine
 10
138.340589
 20
30.922251
 30
0.0
 11
131.579108
 21
32.733985
 31
0.0
  0
LINE
  5
190
100
AcDbEntity
  8
2
370
    25
  6
PHANTOM
100
AcDbLine
 10
138.694142
 20
30.309878
 30
0.0
 11
125.273895
 21
-19.775166
 31
0.0
  0
LINE
  5
191
100
AcDbEntity
  8
2
370
    25
  6
PHANTOM
100
AcDbLine
 10
138.340589
 20
30.922251
 30
0.0
 11
138.694142
 21
30.309878
 31
0.0
  0
LINE
  5
192
100
AcDbEntity
  8
2
370
    25
  6
CENTER
100
AcDbLine
 10
120.384442
 20
-22.568038
 30
0.0
 11
136.08399
 21
36.023469
 31
0.0
  0
LINE
  5
193
100
AcDbEntity
  8
2
370
    25
  6
PHANTOM
100
AcDbLine
 10
138.694142
 20
30.309878
 30
0.0
 11
130.966736
 21
32.38043
 31
0.0
  0
ARC
  5
194
100
AcDbEntity
  8
2
370
    50
100
AcDbCircle
 10
115.160192
 20
275.028767
 30
0.0
 40
10.525
100
AcDbArc
 50
244.821684
 51
360.0
  0
ARC
  5
195
100
AcDbEntity
  8
2
370
    50
100
AcDbCircle
 10
115.160192
 20
275.028767
 30
0.0
 40
10.5
100
AcDbArc
 50
245.113454
 51
0.0
  0
POINT
  5
196
100
AcDbEntity
  8
2
370
    50
100
AcDbPoint
 10
115.160193
 20
11.434793
 30
0.0
  0
POINT
  5
197
100
AcDbEntity
  8
2
370
    50
100
AcDbPoint
 10
-203.764412
 20
11.434793
 30
0.0
  0
LINE
  5
198
100
AcDbEntity
  8
2
370
    50
100
AcDbLine
 10
106.160273
 20
-121.676531
 30
0.0
 11
106.160273
 21
-116.353882
 31
0.0
  0
LINE
  5
199
100
AcDbEntity
  8
2
370
    50
100
AcDbLine
 10
118.160273
 20
-121.676531
 30
0.0
 11
118.160273
 21
-116.353882
 31
0.0
  0
LINE
  5
19A
100
AcDbEntity
  8
2
370
    50
100
AcDbLine
 10
114.558189
 20
-116.353882
 30
0.0
 11
114.558189
 21
-121.676531
 31
0.0
  0
LINE
  5
19B
100
AcDbEntity
  8
2
370
    50
100
AcDbLine
 10
115.724455
 20
-116.353882
 30
0.0
 11
115.724455
 21
-121.676531
 31
0.0
  0
LINE
  5
19C
100
AcDbEntity
  8
2
370
    50
100
AcDbLine
 10
118.122371
 20
-116.353882
 30
0.0
 11
118.122371
 21
-121.676531
 31
0.0
  0
LINE
  5
19D
100
AcDbEntity
  8
2
370
    50
100
AcDbLine
 10
117.660273
 20
-121.965206
 30
0.0
 11
118.160273
 21
-121.676531
 31
0.0
  0
LINE
  5
19E
100
AcDbEntity
  8
2
370
    50
100
AcDbLine
 10
115.724455
 20
-121.676531
 30
0.0
 11
114.558189
 21
-121.676531
 31
0.0
  0
LINE
  5
19F
100
AcDbEntity
  8
2
370
    50
100
AcDbLine
 10
106.160273
 20
-121.676531
 30
0.0
 11
106.660273
 21
-121.965206
 31
0.0
  0
LINE
  5
1A0
100
AcDbEntity
  8
2
370
    50
100
AcDbLine
 10
106.160273
 20
-116.353882
 30
0.0
 11
106.660273
 21
-116.065206
 31
0.0
  0
ARC
  5
1A1
100
AcDbEntity
  8
2
370
    50
100
AcDbCircle
 10
112.160273
 20
-111.861577
 30
0.0
 40
10.10363
100
AcDbArc
 50
270.0
 51
283.729133
  0
ARC
  5
1A2
100
AcDbEntity
  8
2
370
    50
100
AcDbCircle
 10
112.160273
 20
-126.168836
 30
0.0
 40
10.10363
100
AcDbArc
 50
76.270867
 51
90.0
  0
LINE
  5
1A3
100
AcDbEntity
  8
2
370
    50
100
AcDbLine
 10
115.724455
 20
-116.353882
 30
0.0
 11
114.558189
 21
-116.353882
 31
0.0
  0
LINE
  5
1A4
100
AcDbEntity
  8
2
370
    50
100
AcDbLine
 10
118.160273
 20
-121.676531
 30
0.0
 11
118.122371
 21
-121.676531
 31
0.0
  0
ARC
  5
1A5
100
AcDbEntity
  8
2
370
    50
100
AcDbCircle
 10
116.923413
 20
-119.331046
 30
0.0
 40
2.634161
100
AcDbArc
 50
242.924933
 51
297.075067
  0
ARC
  5
1A6
100
AcDbEntity
  8
2
370
    50
100
AcDbCircle
 10
116.923413
 20
-118.699367
 30
0.0
 40
2.634161
100
AcDbArc
 50
62.924933
 51
117.075067
  0
ARC
  5
1A7
100
AcDbEntity
  8
2
370
    50
100
AcDbCircle
 10
112.160273
 20
-111.861577
 30
0.0
 40
10.10363
100
AcDbArc
 50
256.270867
 51
270.0
  0
LINE
  5
1A8
100
AcDbEntity
  8
2
370
    50
100
AcDbLine
 10
108.596091
 20
-121.676531
 30
0.0
 11
109.762357
 21
-121.676531
 31
0.0
  0
ARC
  5
1A9
100
AcDbEntity
  8
2
370
    50
100
AcDbCircle
 10
107.397133
 20
-119.331046
 30
0.0
 40
2.634161
100
AcDbArc
 50
242.924933
 51
297.075067
  0
LINE
  5
1AA
100
AcDbEntity
  8
2
370
    50
100
AcDbLine
 10
106.198175
 20
-121.676531
 30
0.0
 11
106.160273
 21
-121.676531
 31
0.0
  0
LINE
  5
1AB
100
AcDbEntity
  8
2
370
    50
100
AcDbLine
 10
106.660273
 20
-121.965206
 30
0.0
 11
117.660273
 21
-121.965206
 31
0.0
  0
LINE
  5
1AC
100
AcDbEntity
  8
2
370
    50
100
AcDbLine
 10
105.560273
 20
-150.965206
 30
0.0
 11
112.160273
 21
-150.965206
 31
0.0
  0
LINE
  5
1AD
100
AcDbEntity
  8
2
370
    50
100
AcDbLine
 10
105.560273
 20
-145.465206
 30
0.0
 11
112.160273
 21
-145.465206
 31
0.0
  0
LINE
  5
1AE
100
AcDbEntity
  8
2
370
    50
100
AcDbLine
 10
105.560273
 20
-143.465206
 30
0.0
 11
112.160273
 21
-143.465206
 31
0.0
  0
LINE
  5
1AF
100
AcDbEntity
  8
2
370
    50
100
AcDbLine
 10
105.560273
 20
-138.465206
 30
0.0
 11
112.160273
 21
-138.465206
 31
0.0
  0
LINE
  5
1B0
100
AcDbEntity
  8
2
370
    50
100
AcDbLine
 10
105.560273
 20
-136.465206
 30
0.0
 11
112.160273
 21
-136.465206
 31
0.0
  0
LINE
  5
1B1
100
AcDbEntity
  8
2
370
    50
100
AcDbLine
 10
105.560273
 20
-131.465206
 30
0.0
 11
112.160273
 21
-131.465206
 31
0.0
  0
LINE
  5
1B2
100
AcDbEntity
  8
2
370
    50
100
AcDbLine
 10
105.560273
 20
-129.465206
 30
0.0
 11
112.160273
 21
-129.465206
 31
0.0
  0
LINE
  5
1B3
100
AcDbEntity
  8
2
370
    50
100
AcDbLine
 10
105.160273
 20
-150.165206
 30
0.0
 11
105.160273
 21
-146.265206
 31
0.0
  0
LINE
  5
1B4
100
AcDbEntity
  8
2
370
    50
100
AcDbLine
 10
105.160273
 20
-135.665206
 30
0.0
 11
105.160273
 21
-132.265206
 31
0.0
  0
LINE
  5
1B5
100
AcDbEntity
  8
2
370
    50
100
AcDbLine
 10
105.160273
 20
-128.665206
 30
0.0
 11
105.160273
 21
-122.765206
 31
0.0
  0
LINE
  5
1B6
100
AcDbEntity
  8
2
370
    50
100
AcDbLine
 10
105.560273
 20
-131.465206
 30
0.0
 11
105.560273
 21
-129.465206
 31
0.0
  0
LINE
  5
1B7
100
AcDbEntity
  8
2
370
    50
100
AcDbLine
 10
105.560273
 20
-145.465206
 30
0.0
 11
105.560273
 21
-143.465206
 31
0.0
  0
LINE
  5
1B8
100
AcDbEntity
  8
2
370
    50
100
AcDbLine
 10
105.560273
 20
-138.465206
 30
0.0
 11
105.560273
 21
-136.465206
 31
0.0
  0
ARC
  5
1B9
100
AcDbEntity
  8
2
370
    50
100
AcDbCircle
 10
106.160273
 20
-128.665206
 30
0.0
 40
1.0
100
AcDbArc
 50
180.0
 51
233.130102
  0
ARC
  5
1BA
100
AcDbEntity
  8
2
370
    50
100
AcDbCircle
 10
106.160273
 20
-132.265206
 30
0.0
 40
1.0
100
AcDbArc
 50
126.869898
 51
180.0
  0
ARC
  5
1BB
100
AcDbEntity
  8
2
370
    50
100
AcDbCircle
 10
106.160273
 20
-135.665206
 30
0.0
 40
1.0
100
AcDbArc
 50
180.0
 51
233.130102
  0
ARC
  5
1BC
100
AcDbEntity
  8
2
370
    50
100
AcDbCircle
 10
106.160273
 20
-139.265206
 30
0.0
 40
1.0
100
AcDbArc
 50
126.869898
 51
157.158379
  0
ARC
  5
1BD
100
AcDbEntity
  8
2
370
    50
100
AcDbCircle
 10
106.160273
 20
-142.665206
 30
0.0
 40
1.0
100
AcDbArc
 50
192.228728
 51
233.130102
  0
ARC
  5
1BE
100
AcDbEntity
  8
2
370
    50
100
AcDbCircle
 10
106.160273
 20
-146.265206
 30
0.0
 40
1.0
100
AcDbArc
 50
126.869898
 51
180.0
  0
ARC
  5
1BF
100
AcDbEntity
  8
2
370
    50
100
AcDbCircle
 10
106.160273
 20
-150.165206
 30
0.0
 40
1.0
100
AcDbArc
 50
180.0
 51
233.130102
  0
LINE
  5
1C0
100
AcDbEntity
  8
2
370
    50
100
AcDbLine
 10
118.760273
 20
-150.965206
 30
0.0
 11
112.160273
 21
-150.965206
 31
0.0
  0
ARC
  5
1C1
100
AcDbEntity
  8
2
370
    50
100
AcDbCircle
 10
118.160273
 20
-150.165206
 30
0.0
 40
1.0
100
AcDbArc
 50
306.869898
 51
360.0
  0
LINE
  5
1C2
100
AcDbEntity
  8
2
370
    50
100
AcDbLine
 10
119.160273
 20
-150.165206
 30
0.0
 11
119.160273
 21
-146.265206
 31
0.0
  0
ARC
  5
1C3
100
AcDbEntity
  8
2
370
    50
100
AcDbCircle
 10
118.160273
 20
-146.265206
 30
0.0
 40
1.0
100
AcDbArc
 50
360.0
 51
53.130102
  0
LINE
  5
1C4
100
AcDbEntity
  8
2
370
    50
100
AcDbLine
 10
118.760273
 20
-145.465206
 30
0.0
 11
118.760273
 21
-143.465206
 31
0.0
  0
LINE
  5
1C5
100
AcDbEntity
  8
2
370
    50
100
AcDbLine
 10
118.760273
 20
-145.465206
 30
0.0
 11
112.160273
 21
-145.465206
 31
0.0
  0
LINE
  5
1C6
100
AcDbEntity
  8
2
370
    50
100
AcDbLine
 10
118.760273
 20
-143.465206
 30
0.0
 11
112.160273
 21
-143.465206
 31
0.0
  0
ARC
  5
1C7
100
AcDbEntity
  8
2
370
    50
100
AcDbCircle
 10
118.160273
 20
-142.665206
 30
0.0
 40
1.0
100
AcDbArc
 50
306.869898
 51
347.771272
  0
ARC
  5
1C8
100
AcDbEntity
  8
2
370
    50
100
AcDbCircle
 10
118.160273
 20
-139.265206
 30
0.0
 40
1.0
100
AcDbArc
 50
22.841621
 51
53.130102
  0
LINE
  5
1C9
100
AcDbEntity
  8
2
370
    50
100
AcDbLine
 10
118.760273
 20
-138.465206
 30
0.0
 11
112.160273
 21
-138.465206
 31
0.0
  0
LINE
  5
1CA
100
AcDbEntity
  8
2
370
    50
100
AcDbLine
 10
118.760273
 20
-138.465206
 30
0.0
 11
118.760273
 21
-136.465206
 31
0.0
  0
LINE
  5
1CB
100
AcDbEntity
  8
2
370
    50
100
AcDbLine
 10
118.760273
 20
-136.465206
 30
0.0
 11
112.160273
 21
-136.465206
 31
0.0
  0
ARC
  5
1CC
100
AcDbEntity
  8
2
370
    50
100
AcDbCircle
 10
118.160273
 20
-135.665206
 30
0.0
 40
1.0
100
AcDbArc
 50
306.869898
 51
360.0
  0
LINE
  5
1CD
100
AcDbEntity
  8
2
370
    50
100
AcDbLine
 10
119.160273
 20
-135.665206
 30
0.0
 11
119.160273
 21
-132.265206
 31
0.0
  0
ARC
  5
1CE
100
AcDbEntity
  8
2
370
    50
100
AcDbCircle
 10
118.160273
 20
-132.265206
 30
0.0
 40
1.0
100
AcDbArc
 50
360.0
 51
53.130102
  0
LINE
  5
1CF
100
AcDbEntity
  8
2
370
    50
100
AcDbLine
 10
118.760273
 20
-131.465206
 30
0.0
 11
112.160273
 21
-131.465206
 31
0.0
  0
LINE
  5
1D0
100
AcDbEntity
  8
2
370
    50
100
AcDbLine
 10
118.760273
 20
-131.465206
 30
0.0
 11
118.760273
 21
-129.465206
 31
0.0
  0
LINE
  5
1D1
100
AcDbEntity
  8
2
370
    50
100
AcDbLine
 10
118.760273
 20
-129.465206
 30
0.0
 11
112.160273
 21
-129.465206
 31
0.0
  0
ARC
  5
1D2
100
AcDbEntity
  8
2
370
    50
100
AcDbCircle
 10
118.160273
 20
-128.665206
 30
0.0
 40
1.0
100
AcDbArc
 50
306.869898
 51
360.0
  0
LINE
  5
1D3
100
AcDbEntity
  8
2
370
    50
100
AcDbLine
 10
119.160273
 20
-128.665206
 30
0.0
 11
119.160273
 21
-122.765206
 31
0.0
  0
ARC
  5
1D4
100
AcDbEntity
  8
2
370
    50
100
AcDbCircle
 10
118.160273
 20
-122.765206
 30
0.0
 40
1.0
100
AcDbArc
 50
360.0
 51
53.130102
  0
LINE
  5
1D5
100
AcDbEntity
  8
2
370
    50
100
AcDbLine
 10
105.560273
 20
-121.965206
 30
0.0
 11
118.760273
 21
-121.965206
 31
0.0
  0
ARC
  5
1D6
100
AcDbEntity
  8
2
370
    50
100
AcDbCircle
 10
106.160273
 20
-122.765206
 30
0.0
 40
1.0
100
AcDbArc
 50
126.869898
 51
180.0
  0
LINE
  5
1D7
100
AcDbEntity
  8
2
370
    50
100
AcDbLine
 10
105.710273
 20
-187.705241
 30
0.0
 11
105.710273
 21
-150.965206
 31
0.0
  0
LINE
  5
1D8
100
AcDbEntity
  8
2
370
    50
100
AcDbLine
 10
118.610273
 20
-187.705241
 30
0.0
 11
118.610273
 21
-150.965206
 31
0.0
  0
ARC
  5
1D9
100
AcDbEntity
  8
2
370
    50
100
AcDbCircle
 10
112.160273
 20
-126.168836
 30
0.0
 40
10.10363
100
AcDbArc
 50
90.0
 51
103.729133
  0
LINE
  5
1DA
100
AcDbEntity
  8
2
370
    50
100
AcDbLine
 10
108.596091
 20
-116.353882
 30
0.0
 11
109.762357
 21
-116.353882
 31
0.0
  0
ARC
  5
1DB
100
AcDbEntity
  8
2
370
    50
100
AcDbCircle
 10
107.397133
 20
-118.699367
 30
0.0
 40
2.634161
100
AcDbArc
 50
62.924933
 51
117.075067
  0
LINE
  5
1DC
100
AcDbEntity
  8
2
370
    50
100
AcDbLine
 10
109.762357
 20
-116.353882
 30
0.0
 11
109.762357
 21
-121.676531
 31
0.0
  0
LINE
  5
1DD
100
AcDbEntity
  8
2
370
    50
100
AcDbLine
 10
108.596091
 20
-116.353882
 30
0.0
 11
108.596091
 21
-121.676531
 31
0.0
  0
LINE
  5
1DE
100
AcDbEntity
  8
2
370
    50
100
AcDbLine
 10
106.198175
 20
-116.353882
 30
0.0
 11
106.198175
 21
-121.676531
 31
0.0
  0
ARC
  5
1DF
100
AcDbEntity
  8
2
370
    50
100
AcDbCircle
 10
108.935318
 20
-183.405181
 30
0.0
 40
5.375075
100
AcDbArc
 50
233.130102
 51
306.869898
  0
ARC
  5
1E0
100
AcDbEntity
  8
2
370
    50
100
AcDbCircle
 10
115.385409
 20
-192.005301
 30
0.0
 40
5.375075
100
AcDbArc
 50
53.130102
 51
126.869898
  0
ARC
  5
1E1
100
AcDbEntity
  8
2
370
    50
100
AcDbCircle
 10
108.935318
 20
-192.005301
 30
0.0
 40
5.375075
100
AcDbArc
 50
53.130102
 51
126.869898
  0
LINE
  5
1E2
100
AcDbEntity
  8
2
370
    50
100
AcDbLine
 10
117.660354
 20
-116.065206
 30
0.0
 11
118.160273
 21
-116.353882
 31
0.0
  0
LINE
  5
1E3
100
AcDbEntity
  8
2
370
    50
100
AcDbLine
 10
118.122371
 20
-116.353882
 30
0.0
 11
118.160273
 21
-116.353882
 31
0.0
  0
LINE
  5
1E4
100
AcDbEntity
  8
2
370
    50
100
AcDbLine
 10
106.198175
 20
-116.353882
 30
0.0
 11
106.160273
 21
-116.353882
 31
0.0
  0
LINE
  5
1E5
100
AcDbEntity
  8
2
370
    50
100
AcDbLine
 10
-228.264543
 20
-138.877021
 30
0.0
 11
-228.264543
 21
-142.877021
 31
0.0
  0
LINE
  5
1E6
100
AcDbEntity
  8
2
370
    50
100
AcDbLine
 10
-179.264543
 20
-138.877021
 30
0.0
 11
-179.264543
 21
-142.877021
 31
0.0
  0
LINE
  5
1E7
100
AcDbEntity
  8
2
370
    50
100
AcDbLine
 10
-228.264543
 20
-138.877021
 30
0.0
 11
-218.264411
 21
-138.877021
 31
0.0
  0
LINE
  5
1E8
100
AcDbEntity
  8
2
370
    50
100
AcDbLine
 10
-204.342829
 20
-138.877021
 30
0.0
 11
-203.185992
 21
-138.877021
 31
0.0
  0
LINE
  5
1E9
100
AcDbEntity
  8
2
370
    50
100
AcDbLine
 10
-189.264411
 20
-138.877021
 30
0.0
 11
-179.264543
 21
-138.877021
 31
0.0
  0
LINE
  5
1EA
100
AcDbEntity
  8
2
370
    50
100
AcDbLine
 10
-189.264411
 20
-142.877021
 30
0.0
 11
-179.264543
 21
-142.877021
 31
0.0
  0
LINE
  5
1EB
100
AcDbEntity
  8
2
370
    50
100
AcDbLine
 10
-228.264543
 20
-142.877021
 30
0.0
 11
-218.264411
 21
-142.877021
 31
0.0
  0
LINE
  5
1EC
100
AcDbEntity
  8
2
370
    50
100
AcDbLine
 10
-203.241721
 20
-142.877021
 30
0.0
 11
-204.287101
 21
-142.877021
 31
0.0
  0
LINE
  5
1ED
100
AcDbEntity
  8
2
370
    25
  6
CENTER
100
AcDbLine
 10
-196.264411
 20
-211.009988
 30
0.0
 11
-146.264411
 21
-139.544156
 31
0.0
  0
LINE
  5
1EE
100
AcDbEntity
  8
2
370
    25
  6
CENTER
100
AcDbLine
 10
-211.264411
 20
-211.009988
 30
0.0
 11
-261.264411
 21
-139.544156
 31
0.0
  0
LINE
  5
1EF
100
AcDbEntity
  8
2
370
    25
  6
CENTER
100
AcDbLine
 10
-196.264411
 20
-110.092213
 30
0.0
 11
-196.264411
 21
-211.009988
 31
0.0
  0
LINE
  5
1F0
100
AcDbEntity
  8
2
370
    25
  6
CENTER
100
AcDbLine
 10
-211.264411
 20
-110.092213
 30
0.0
 11
-211.264411
 21
-211.009988
 31
0.0
  0
LINE
  5
1F1
100
AcDbEntity
  8
2
370
    50
100
AcDbLine
 10
-210.263964
 20
-212.877021
 30
0.0
 11
-197.264857
 21
-212.877021
 31
0.0
  0
LINE
  5
1F2
100
AcDbEntity
  8
2
370
    50
100
AcDbLine
 10
-204.264411
 20
-147.877021
 30
0.0
 11
-203.264411
 21
-147.877021
 31
0.0
  0
LINE
  5
1F3
100
AcDbEntity
  8
2
370
    50
100
AcDbLine
 10
-211.269964
 20
-211.871021
 30
0.0
 11
-211.269964
 21
-187.709869
 31
0.0
  0
LINE
  5
1F4
100
AcDbEntity
  8
2
370
    50
100
AcDbLine
 10
-196.258857
 20
-211.871021
 30
0.0
 11
-196.258857
 21
-187.700783
 31
0.0
  0
LINE
  5
1F5
100
AcDbEntity
  8
2
370
    50
100
AcDbLine
 10
-196.258857
 20
-211.871021
 30
0.0
 11
-197.264857
 21
-212.877021
 31
0.0
  0
LINE
  5
1F6
100
AcDbEntity
  8
2
370
    50
100
AcDbLine
 10
-211.269964
 20
-211.871021
 30
0.0
 11
-210.263964
 21
-212.877021
 31
0.0
  0
LINE
  5
1F7
100
AcDbEntity
  8
2
370
    50
100
AcDbLine
 10
-200.011634
 20
-211.871021
 30
0.0
 11
-200.011634
 21
-188.754913
 31
0.0
  0
ARC
  5
1F8
100
AcDbEntity
  8
2
370
    50
100
AcDbCircle
 10
-203.764411
 20
-205.374353
 30
0.0
 40
7.502669
100
AcDbArc
 50
239.98728
 51
300.01272
  0
ARC
  5
1F9
100
AcDbEntity
  8
2
370
    50
100
AcDbCircle
 10
-198.170821
 20
-210.689831
 30
0.0
 40
2.187191
100
AcDbArc
 50
212.68699
 51
315.0
  0
LINE
  5
1FA
100
AcDbEntity
  8
2
370
    25
100
AcDbLine
 10
-202.966778
 20
-143.377021
 30
0.0
 11
-204.562044
 21
-143.377021
 31
0.0
  0
LINE
  5
1FB
100
AcDbEntity
  8
2
370
    50
100
AcDbLine
 10
-207.517188
 20
-211.871021
 30
0.0
 11
-207.517188
 21
-186.655838
 31
0.0
  0
ARC
  5
1FC
100
AcDbEntity
  8
2
370
    50
100
AcDbCircle
 10
-209.358
 20
-210.689831
 30
0.0
 40
2.187191
100
AcDbArc
 50
225.0
 51
327.31301
  0
ARC
  5
1FD
100
AcDbEntity
  8
2
370
    50
100
AcDbCircle
 10
-152.064411
 20
-205.34627
 30
0.0
 40
0.2
100
AcDbArc
 50
180.0
 51
270.0
  0
ARC
  5
1FE
100
AcDbEntity
  8
2
370
    50
100
AcDbCircle
 10
-140.464411
 20
-205.34627
 30
0.0
 40
0.2
100
AcDbArc
 50
270.0
 51
360.0
  0
LINE
  5
1FF
100
AcDbEntity
  8
2
370
    50
100
AcDbLine
 10
-139.264411
 20
-205.54627
 30
0.0
 11
-153.264411
 21
-205.54627
 31
0.0
  0
LINE
  5
200
100
AcDbEntity
  8
2
370
    50
100
AcDbLine
 10
-138.764411
 20
-206.04627
 30
0.0
 11
-139.264411
 21
-205.54627
 31
0.0
  0
LINE
  5
201
100
AcDbEntity
  8
2
370
    25
100
AcDbLine
 10
-139.76455
 20
-219.345647
 30
0.0
 11
-139.76455
 21
-216.345647
 31
0.0
  0
LINE
  5
202
100
AcDbEntity
  8
2
370
    50
100
AcDbLine
 10
-137.364411
 20
-210.946905
 30
0.0
 11
-137.364411
 21
-213.346905
 31
0.0
  0
LINE
  5
203
100
AcDbEntity
  8
2
370
    50
100
AcDbLine
 10
-137.564411
 20
-210.746905
 30
0.0
 11
-137.364411
 21
-210.946905
 31
0.0
  0
LINE
  5
204
100
AcDbEntity
  8
2
370
    50
100
AcDbLine
 10
-137.564411
 20
-213.546905
 30
0.0
 11
-137.364411
 21
-213.346905
 31
0.0
  0
LINE
  5
205
100
AcDbEntity
  8
2
370
    50
100
AcDbLine
 10
-138.764411
 20
-210.746905
 30
0.0
 11
-138.764411
 21
-210.345647
 31
0.0
  0
LINE
  5
206
100
AcDbEntity
  8
2
370
    50
100
AcDbLine
 10
-138.764411
 20
-206.04627
 30
0.0
 11
-138.764411
 21
-207.345647
 31
0.0
  0
LINE
  5
207
100
AcDbEntity
  8
2
370
    50
100
AcDbLine
 10
-155.164411
 20
-210.94627
 30
0.0
 11
-155.164411
 21
-213.34627
 31
0.0
  0
LINE
  5
208
100
AcDbEntity
  8
2
370
    50
100
AcDbLine
 10
-137.364411
 20
-210.94627
 30
0.0
 11
-137.364411
 21
-213.34627
 31
0.0
  0
LINE
  5
209
100
AcDbEntity
  8
2
370
    50
100
AcDbLine
 10
-137.564411
 20
-210.74627
 30
0.0
 11
-137.364411
 21
-210.94627
 31
0.0
  0
LINE
  5
20A
100
AcDbEntity
  8
2
370
    50
100
AcDbLine
 10
-154.964411
 20
-210.74627
 30
0.0
 11
-155.164411
 21
-210.94627
 31
0.0
  0
LINE
  5
20B
100
AcDbEntity
  8
2
370
    50
100
AcDbLine
 10
-154.964411
 20
-213.54627
 30
0.0
 11
-155.164411
 21
-213.34627
 31
0.0
  0
LINE
  5
20C
100
AcDbEntity
  8
2
370
    50
100
AcDbLine
 10
-155.264411
 20
-219.34627
 30
0.0
 11
-137.264411
 21
-219.34627
 31
0.0
  0
LINE
  5
20D
100
AcDbEntity
  8
2
370
    50
100
AcDbLine
 10
-154.564411
 20
-207.34627
 30
0.0
 11
-137.964411
 21
-207.34627
 31
0.0
  0
LINE
  5
20E
100
AcDbEntity
  8
2
370
    50
100
AcDbLine
 10
-142.264411
 20
-208.34627
 30
0.0
 11
-142.264411
 21
-218.34627
 31
0.0
  0
LINE
  5
20F
100
AcDbEntity
  8
2
370
    50
100
AcDbLine
 10
-150.264411
 20
-208.34627
 30
0.0
 11
-150.264411
 21
-218.34627
 31
0.0
  0
ARC
  5
210
100
AcDbEntity
  8
2
370
    50
100
AcDbCircle
 10
-132.764411
 20
-206.34627
 30
0.0
 40
1.0
100
AcDbArc
 50
0.0
 51
90.0
  0
ARC
  5
211
100
AcDbEntity
  8
2
370
    50
100
AcDbCircle
 10
-132.764411
 20
-218.34627
 30
0.0
 40
1.0
100
AcDbArc
 50
270.0
 51
360.0
  0
LINE
  5
212
100
AcDbEntity
  8
2
370
    50
100
AcDbLine
 10
-132.764411
 20
-205.34627
 30
0.0
 11
-140.264411
 21
-205.34627
 31
0.0
  0
LINE
  5
213
100
AcDbEntity
  8
2
370
    50
100
AcDbLine
 10
-152.264411
 20
-205.34627
 30
0.0
 11
-159.764411
 21
-205.34627
 31
0.0
  0
LINE
  5
214
100
AcDbEntity
  8
2
370
    50
100
AcDbLine
 10
-132.764411
 20
-219.34627
 30
0.0
 11
-138.764411
 21
-219.34627
 31
0.0
  0
LINE
  5
215
100
AcDbEntity
  8
2
370
    50
100
AcDbLine
 10
-154.564411
 20
-219.34627
 30
0.0
 11
-159.764411
 21
-219.34627
 31
0.0
  0
LINE
  5
216
100
AcDbEntity
  8
2
370
    50
100
AcDbLine
 10
-154.564411
 20
-210.34627
 30
0.0
 11
-150.264411
 21
-210.34627
 31
0.0
  0
LINE
  5
217
100
AcDbEntity
  8
2
370
    50
100
AcDbLine
 10
-142.264411
 20
-210.34627
 30
0.0
 11
-137.964411
 21
-210.34627
 31
0.0
  0
LINE
  5
218
100
AcDbEntity
  8
2
370
    50
100
AcDbLine
 10
-154.964411
 20
-210.74627
 30
0.0
 11
-150.264411
 21
-210.74627
 31
0.0
  0
LINE
  5
219
100
AcDbEntity
  8
2
370
    50
100
AcDbLine
 10
-142.264411
 20
-210.74627
 30
0.0
 11
-137.564411
 21
-210.74627
 31
0.0
  0
LINE
  5
21A
100
AcDbEntity
  8
2
370
    50
100
AcDbLine
 10
-155.164411
 20
-210.94627
 30
0.0
 11
-150.264411
 21
-210.94627
 31
0.0
  0
LINE
  5
21B
100
AcDbEntity
  8
2
370
    50
100
AcDbLine
 10
-142.264411
 20
-210.94627
 30
0.0
 11
-137.364411
 21
-210.94627
 31
0.0
  0
LINE
  5
21C
100
AcDbEntity
  8
2
370
    50
100
AcDbLine
 10
-155.164411
 20
-213.34627
 30
0.0
 11
-150.264411
 21
-213.34627
 31
0.0
  0
LINE
  5
21D
100
AcDbEntity
  8
2
370
    50
100
AcDbLine
 10
-142.264411
 20
-213.34627
 30
0.0
 11
-137.364411
 21
-213.34627
 31
0.0
  0
LINE
  5
21E
100
AcDbEntity
  8
2
370
    50
100
AcDbLine
 10
-154.564411
 20
-216.34627
 30
0.0
 11
-150.264411
 21
-216.34627
 31
0.0
  0
LINE
  5
21F
100
AcDbEntity
  8
2
370
    50
100
AcDbLine
 10
-142.264411
 20
-216.34627
 30
0.0
 11
-137.964411
 21
-216.34627
 31
0.0
  0
ARC
  5
220
100
AcDbEntity
  8
2
370
    50
100
AcDbCircle
 10
-149.264411
 20
-208.34627
 30
0.0
 40
1.0
100
AcDbArc
 50
90.0
 51
180.0
  0
ARC
  5
221
100
AcDbEntity
  8
2
370
    50
100
AcDbCircle
 10
-143.264411
 20
-208.34627
 30
0.0
 40
1.0
100
AcDbArc
 50
0.0
 51
90.0
  0
ARC
  5
222
100
AcDbEntity
  8
2
370
    50
100
AcDbCircle
 10
-143.264411
 20
-218.34627
 30
0.0
 40
1.0
100
AcDbArc
 50
270.0
 51
0.0
  0
ARC
  5
223
100
AcDbEntity
  8
2
370
    50
100
AcDbCircle
 10
-149.264411
 20
-218.34627
 30
0.0
 40
1.0
100
AcDbArc
 50
180.0
 51
270.0
  0
LINE
  5
224
100
AcDbEntity
  8
2
370
    50
100
AcDbLine
 10
-137.964411
 20
-207.34627
 30
0.0
 11
-137.964411
 21
-210.34627
 31
0.0
  0
LINE
  5
225
100
AcDbEntity
  8
2
370
    50
100
AcDbLine
 10
-154.564411
 20
-207.34627
 30
0.0
 11
-154.564411
 21
-210.34627
 31
0.0
  0
LINE
  5
226
100
AcDbEntity
  8
2
370
    50
100
AcDbLine
 10
-154.564411
 20
-216.34627
 30
0.0
 11
-154.564411
 21
-219.34627
 31
0.0
  0
LINE
  5
227
100
AcDbEntity
  8
2
370
    50
100
AcDbLine
 10
-137.964411
 20
-216.34627
 30
0.0
 11
-137.964411
 21
-219.34627
 31
0.0
  0
LINE
  5
228
100
AcDbEntity
  8
2
370
    50
100
AcDbLine
 10
-138.764411
 20
-210.74627
 30
0.0
 11
-138.764411
 21
-210.34627
 31
0.0
  0
LINE
  5
229
100
AcDbEntity
  8
2
370
    50
100
AcDbLine
 10
-153.764411
 20
-210.74627
 30
0.0
 11
-153.764411
 21
-210.34627
 31
0.0
  0
LINE
  5
22A
100
AcDbEntity
  8
2
370
    25
100
AcDbLine
 10
-141.264411
 20
-219.046852
 30
0.0
 11
-141.264411
 21
-216.741631
 31
0.0
  0
LINE
  5
22B
100
AcDbEntity
  8
2
370
    25
100
AcDbLine
 10
-141.264411
 20
-210.085083
 30
0.0
 11
-141.264411
 21
-207.652878
 31
0.0
  0
LINE
  5
22C
100
AcDbEntity
  8
2
370
    25
100
AcDbLine
 10
-151.264411
 20
-219.046852
 30
0.0
 11
-151.264411
 21
-216.741631
 31
0.0
  0
LINE
  5
22D
100
AcDbEntity
  8
2
370
    25
100
AcDbLine
 10
-151.264411
 20
-210.042405
 30
0.0
 11
-151.264411
 21
-207.573357
 31
0.0
  0
LINE
  5
22E
100
AcDbEntity
  8
2
370
    50
100
AcDbLine
 10
-137.464411
 20
-218.34627
 30
0.0
 11
-137.464411
 21
-215.74627
 31
0.0
  0
LINE
  5
22F
100
AcDbEntity
  8
2
370
    50
100
AcDbLine
 10
-137.464411
 20
-210.84627
 30
0.0
 11
-137.464411
 21
-206.34627
 31
0.0
  0
LINE
  5
230
100
AcDbEntity
  8
2
370
    50
100
AcDbLine
 10
-155.064411
 20
-218.34627
 30
0.0
 11
-155.064411
 21
-215.74627
 31
0.0
  0
LINE
  5
231
100
AcDbEntity
  8
2
370
    50
100
AcDbLine
 10
-155.064411
 20
-210.84627
 30
0.0
 11
-155.064411
 21
-206.34627
 31
0.0
  0
ARC
  5
232
100
AcDbEntity
  8
2
370
    50
100
AcDbCircle
 10
-138.464411
 20
-206.34627
 30
0.0
 40
1.0
100
AcDbArc
 50
0.0
 51
90.0
  0
ARC
  5
233
100
AcDbEntity
  8
2
370
    50
100
AcDbCircle
 10
-154.064411
 20
-206.34627
 30
0.0
 40
1.0
100
AcDbArc
 50
90.0
 51
180.0
  0
ARC
  5
234
100
AcDbEntity
  8
2
370
    50
100
AcDbCircle
 10
-136.464411
 20
-218.34627
 30
0.0
 40
1.0
100
AcDbArc
 50
180.0
 51
270.0
  0
ARC
  5
235
100
AcDbEntity
  8
2
370
    50
100
AcDbCircle
 10
-156.064411
 20
-218.34627
 30
0.0
 40
1.0
100
AcDbArc
 50
270.0
 51
360.0
  0
LINE
  5
236
100
AcDbEntity
  8
2
370
    50
100
AcDbLine
 10
-153.764411
 20
-206.04627
 30
0.0
 11
-153.764411
 21
-207.345647
 31
0.0
  0
ARC
  5
237
100
AcDbEntity
  8
2
370
    50
100
AcDbCircle
 10
-154.064411
 20
-206.34627
 30
0.0
 40
1.0
100
AcDbArc
 50
90.0
 51
180.0
  0
LINE
  5
238
100
AcDbEntity
  8
2
370
    50
100
AcDbLine
 10
-153.764411
 20
-206.04627
 30
0.0
 11
-153.264411
 21
-205.54627
 31
0.0
  0
LINE
  5
239
100
AcDbEntity
  8
2
370
    50
100
AcDbLine
 10
-155.264411
 20
-213.74627
 30
0.0
 11
-155.264411
 21
-215.54627
 31
0.0
  0
LINE
  5
23A
100
AcDbEntity
  8
2
370
    50
100
AcDbLine
 10
-137.264411
 20
-213.74627
 30
0.0
 11
-137.264411
 21
-215.54627
 31
0.0
  0
LINE
  5
23B
100
AcDbEntity
  8
2
370
    50
100
AcDbLine
 10
-155.064411
 20
-213.54627
 30
0.0
 11
-155.264411
 21
-213.74627
 31
0.0
  0
LINE
  5
23C
100
AcDbEntity
  8
2
370
    50
100
AcDbLine
 10
-155.264411
 20
-215.54627
 30
0.0
 11
-155.064411
 21
-215.74627
 31
0.0
  0
LINE
  5
23D
100
AcDbEntity
  8
2
370
    50
100
AcDbLine
 10
-137.464411
 20
-213.54627
 30
0.0
 11
-137.264411
 21
-213.74627
 31
0.0
  0
LINE
  5
23E
100
AcDbEntity
  8
2
370
    50
100
AcDbLine
 10
-137.264411
 20
-215.54627
 30
0.0
 11
-137.464411
 21
-215.74627
 31
0.0
  0
LINE
  5
23F
100
AcDbEntity
  8
2
370
    50
100
AcDbLine
 10
-138.764411
 20
-219.74627
 30
0.0
 11
-138.764411
 21
-219.34627
 31
0.0
  0
LINE
  5
240
100
AcDbEntity
  8
2
370
    50
100
AcDbLine
 10
-138.764411
 20
-216.34627
 30
0.0
 11
-138.764411
 21
-215.74627
 31
0.0
  0
LINE
  5
241
100
AcDbEntity
  8
2
370
    50
100
AcDbLine
 10
-153.764411
 20
-219.74627
 30
0.0
 11
-153.764411
 21
-219.34627
 31
0.0
  0
LINE
  5
242
100
AcDbEntity
  8
2
370
    50
100
AcDbLine
 10
-153.764411
 20
-216.34627
 30
0.0
 11
-153.764411
 21
-215.74627
 31
0.0
  0
LINE
  5
243
100
AcDbEntity
  8
2
370
    50
100
AcDbLine
 10
-155.064411
 20
-215.74627
 30
0.0
 11
-150.264411
 21
-215.74627
 31
0.0
  0
LINE
  5
244
100
AcDbEntity
  8
2
370
    50
100
AcDbLine
 10
-142.264411
 20
-215.74627
 30
0.0
 11
-137.464411
 21
-215.74627
 31
0.0
  0
LINE
  5
245
100
AcDbEntity
  8
2
370
    50
100
AcDbLine
 10
-155.264411
 20
-215.54627
 30
0.0
 11
-150.264411
 21
-215.54627
 31
0.0
  0
LINE
  5
246
100
AcDbEntity
  8
2
370
    50
100
AcDbLine
 10
-142.264411
 20
-215.54627
 30
0.0
 11
-137.264411
 21
-215.54627
 31
0.0
  0
LINE
  5
247
100
AcDbEntity
  8
2
370
    50
100
AcDbLine
 10
-155.264411
 20
-213.74627
 30
0.0
 11
-150.264411
 21
-213.74627
 31
0.0
  0
LINE
  5
248
100
AcDbEntity
  8
2
370
    50
100
AcDbLine
 10
-142.264411
 20
-213.74627
 30
0.0
 11
-137.264411
 21
-213.74627
 31
0.0
  0
LINE
  5
249
100
AcDbEntity
  8
2
370
    50
100
AcDbLine
 10
-155.064411
 20
-213.54627
 30
0.0
 11
-150.264411
 21
-213.54627
 31
0.0
  0
LINE
  5
24A
100
AcDbEntity
  8
2
370
    50
100
AcDbLine
 10
-142.264411
 20
-213.54627
 30
0.0
 11
-137.464411
 21
-213.54627
 31
0.0
  0
LINE
  5
24B
100
AcDbEntity
  8
2
370
    25
100
AcDbLine
 10
-152.764271
 20
-219.345647
 30
0.0
 11
-152.764271
 21
-216.345647
 31
0.0
  0
LINE
  5
24C
100
AcDbEntity
  8
2
370
    25
100
AcDbLine
 10
-139.76455
 20
-210.34627
 30
0.0
 11
-139.76455
 21
-207.34627
 31
0.0
  0
LINE
  5
24D
100
AcDbEntity
  8
2
370
    25
100
AcDbLine
 10
-152.764271
 20
-210.34627
 30
0.0
 11
-152.764271
 21
-207.34627
 31
0.0
  0
LINE
  5
24E
100
AcDbEntity
  8
2
370
    50
100
AcDbLine
 10
-160.764411
 20
-206.34627
 30
0.0
 11
-160.764411
 21
-218.34627
 31
0.0
  0
ARC
  5
24F
100
AcDbEntity
  8
2
370
    50
100
AcDbCircle
 10
-159.764411
 20
-206.34627
 30
0.0
 40
1.0
100
AcDbArc
 50
90.0
 51
180.0
  0
ARC
  5
250
100
AcDbEntity
  8
2
370
    50
100
AcDbCircle
 10
-159.764411
 20
-218.34627
 30
0.0
 40
1.0
100
AcDbArc
 50
180.0
 51
270.0
  0
LINE
  5
251
100
AcDbEntity
  8
2
370
    25
  6
CENTER
100
AcDbLine
 10
-146.264411
 20
-139.544156
 30
0.0
 11
-146.264411
 21
-244.276459
 31
0.0
  0
LINE
  5
252
100
AcDbEntity
  8
2
370
    50
100
AcDbLine
 10
-131.764411
 20
-206.34627
 30
0.0
 11
-131.764411
 21
-218.34627
 31
0.0
  0
LINE
  5
253
100
AcDbEntity
  8
2
370
    50
100
AcDbLine
 10
-137.264205
 20
-219.745521
 30
0.0
 11
-136.264205
 21
-220.745521
 31
0.0
  0
LINE
  5
254
100
AcDbEntity
  8
2
370
    50
100
AcDbLine
 10
-155.264205
 20
-219.745521
 30
0.0
 11
-156.264205
 21
-220.745521
 31
0.0
  0
LINE
  5
255
100
AcDbEntity
  8
2
370
    50
100
AcDbLine
 10
-155.264205
 20
-219.745521
 30
0.0
 11
-137.264205
 21
-219.745521
 31
0.0
  0
LINE
  5
256
100
AcDbEntity
  8
2
370
    50
100
AcDbLine
 10
-136.264205
 20
-220.745521
 30
0.0
 11
-156.264205
 21
-220.745521
 31
0.0
  0
LINE
  5
257
100
AcDbEntity
  8
2
370
    50
100
AcDbLine
 10
-138.764205
 20
-219.745521
 30
0.0
 11
-138.764205
 21
-219.345521
 31
0.0
  0
LINE
  5
258
100
AcDbEntity
  8
2
370
    50
100
AcDbLine
 10
-153.764205
 20
-219.745521
 30
0.0
 11
-153.764205
 21
-219.345521
 31
0.0
  0
LINE
  5
259
100
AcDbEntity
  8
2
370
    50
100
AcDbLine
 10
-136.264205
 20
-220.745521
 30
0.0
 11
-136.264205
 21
-229.545521
 31
0.0
  0
LINE
  5
25A
100
AcDbEntity
  8
2
370
    50
100
AcDbLine
 10
-156.264205
 20
-220.745521
 30
0.0
 11
-156.264205
 21
-229.545521
 31
0.0
  0
LINE
  5
25B
100
AcDbEntity
  8
2
370
    50
100
AcDbLine
 10
-156.591073
 20
-229.545521
 30
0.0
 11
-134.264205
 21
-229.545521
 31
0.0
  0
LINE
  5
25C
100
AcDbEntity
  8
2
370
    50
100
AcDbLine
 10
-132.407799
 20
-231.401928
 30
0.0
 11
-132.407799
 21
-238.689115
 31
0.0
  0
LINE
  5
25D
100
AcDbEntity
  8
2
370
    50
100
AcDbLine
 10
-160.120612
 20
-238.689115
 30
0.0
 11
-160.120612
 21
-231.401928
 31
0.0
  0
LINE
  5
25E
100
AcDbEntity
  8
2
370
    50
100
AcDbLine
 10
-158.264205
 20
-240.545521
 30
0.0
 11
-134.264205
 21
-240.545521
 31
0.0
  0
LINE
  5
25F
100
AcDbEntity
  8
2
370
    50
100
AcDbLine
 10
-139.336002
 20
-238.689115
 30
0.0
 11
-139.336002
 21
-231.401928
 31
0.0
  0
LINE
  5
260
100
AcDbEntity
  8
2
370
    50
100
AcDbLine
 10
-153.192408
 20
-238.689115
 30
0.0
 11
-153.192408
 21
-231.401928
 31
0.0
  0
LINE
  5
261
100
AcDbEntity
  8
2
370
    50
100
AcDbLine
 10
-158.264205
 20
-229.545521
 30
0.0
 11
-134.264205
 21
-229.545521
 31
0.0
  0
LINE
  5
262
100
AcDbEntity
  8
2
370
    50
100
AcDbLine
 10
-134.264205
 20
-229.545521
 30
0.0
 11
-132.407799
 21
-231.401928
 31
0.0
  0
LINE
  5
263
100
AcDbEntity
  8
2
370
    50
100
AcDbLine
 10
-158.264205
 20
-240.545521
 30
0.0
 11
-160.120612
 21
-238.689115
 31
0.0
  0
LINE
  5
264
100
AcDbEntity
  8
2
370
    50
100
AcDbLine
 10
-158.264205
 20
-229.545521
 30
0.0
 11
-160.120612
 21
-231.401928
 31
0.0
  0
LINE
  5
265
100
AcDbEntity
  8
2
370
    50
100
AcDbLine
 10
-134.264205
 20
-240.545521
 30
0.0
 11
-132.407799
 21
-238.689115
 31
0.0
  0
ARC
  5
266
100
AcDbEntity
  8
2
370
    50
100
AcDbCircle
 10
-146.264205
 20
-243.401928
 30
0.0
 40
13.856406
100
AcDbArc
 50
60.0
 51
120.0
  0
ARC
  5
267
100
AcDbEntity
  8
2
370
    50
100
AcDbCircle
 10
-146.264205
 20
-226.689115
 30
0.0
 40
13.856406
100
AcDbArc
 50
240.0
 51
300.0
  0
ARC
  5
268
100
AcDbEntity
  8
2
370
    50
100
AcDbCircle
 10
-135.937338
 20
-233.584821
 30
0.0
 40
4.039299
100
AcDbArc
 50
45.0
 51
147.288191
  0
ARC
  5
269
100
AcDbEntity
  8
2
370
    50
100
AcDbCircle
 10
-135.937338
 20
-236.506222
 30
0.0
 40
4.039299
100
AcDbArc
 50
212.711809
 51
315.0
  0
ARC
  5
26A
100
AcDbEntity
  8
2
370
    50
100
AcDbCircle
 10
-156.591073
 20
-233.584821
 30
0.0
 40
4.039299
100
AcDbArc
 50
32.711809
 51
135.0
  0
ARC
  5
26B
100
AcDbEntity
  8
2
370
    50
100
AcDbCircle
 10
-156.591073
 20
-236.506222
 30
0.0
 40
4.039299
100
AcDbArc
 50
225.0
 51
327.288191
  0
POINT
  5
26C
100
AcDbEntity
  8
2
370
    50
100
AcDbPoint
 10
-146.264411
 20
-219.74627
 30
0.0
  0
POINT
  5
26D
100
AcDbEntity
  8
2
370
    50
100
AcDbPoint
 10
-146.264205
 20
-219.745521
 30
0.0
  0
LINE
  5
26E
100
AcDbEntity
  8
2
370
    50
100
AcDbLine
 10
-146.264157
 20
-204.545854
 30
0.0
 11
-152.864411
 21
-204.545854
 31
0.0
  0
LINE
  5
26F
100
AcDbEntity
  8
2
370
    50
100
AcDbLine
 10
-146.264157
 20
-204.545854
 30
0.0
 11
-139.664411
 21
-204.545854
 31
0.0
  0
LINE
  5
270
100
AcDbEntity
  8
2
370
    50
100
AcDbLine
 10
-152.864411
 20
-175.545854
 30
0.0
 11
-146.264411
 21
-175.545854
 31
0.0
  0
LINE
  5
271
100
AcDbEntity
  8
2
370
    50
100
AcDbLine
 10
-152.864411
 20
-181.045854
 30
0.0
 11
-146.264411
 21
-181.045854
 31
0.0
  0
LINE
  5
272
100
AcDbEntity
  8
2
370
    50
100
AcDbLine
 10
-152.864411
 20
-183.045854
 30
0.0
 11
-146.264411
 21
-183.045854
 31
0.0
  0
LINE
  5
273
100
AcDbEntity
  8
2
370
    50
100
AcDbLine
 10
-152.864411
 20
-188.045854
 30
0.0
 11
-146.264411
 21
-188.045854
 31
0.0
  0
LINE
  5
274
100
AcDbEntity
  8
2
370
    50
100
AcDbLine
 10
-152.864411
 20
-190.045854
 30
0.0
 11
-146.264411
 21
-190.045854
 31
0.0
  0
LINE
  5
275
100
AcDbEntity
  8
2
370
    50
100
AcDbLine
 10
-152.864411
 20
-195.045854
 30
0.0
 11
-146.264411
 21
-195.045854
 31
0.0
  0
LINE
  5
276
100
AcDbEntity
  8
2
370
    50
100
AcDbLine
 10
-152.864411
 20
-197.045854
 30
0.0
 11
-146.264411
 21
-197.045854
 31
0.0
  0
LINE
  5
277
100
AcDbEntity
  8
2
370
    50
100
AcDbLine
 10
-153.264411
 20
-176.345854
 30
0.0
 11
-153.264411
 21
-180.245854
 31
0.0
  0
LINE
  5
278
100
AcDbEntity
  8
2
370
    50
100
AcDbLine
 10
-153.264411
 20
-183.845854
 30
0.0
 11
-153.264411
 21
-187.245854
 31
0.0
  0
LINE
  5
279
100
AcDbEntity
  8
2
370
    50
100
AcDbLine
 10
-153.264411
 20
-190.845854
 30
0.0
 11
-153.264411
 21
-194.245854
 31
0.0
  0
LINE
  5
27A
100
AcDbEntity
  8
2
370
    50
100
AcDbLine
 10
-153.264411
 20
-197.845854
 30
0.0
 11
-153.264411
 21
-203.745854
 31
0.0
  0
LINE
  5
27B
100
AcDbEntity
  8
2
370
    50
100
AcDbLine
 10
-152.864411
 20
-195.045854
 30
0.0
 11
-152.864411
 21
-197.045854
 31
0.0
  0
LINE
  5
27C
100
AcDbEntity
  8
2
370
    50
100
AcDbLine
 10
-152.864411
 20
-181.045854
 30
0.0
 11
-152.864411
 21
-183.045854
 31
0.0
  0
LINE
  5
27D
100
AcDbEntity
  8
2
370
    50
100
AcDbLine
 10
-152.864411
 20
-188.045854
 30
0.0
 11
-152.864411
 21
-190.045854
 31
0.0
  0
ARC
  5
27E
100
AcDbEntity
  8
2
370
    50
100
AcDbCircle
 10
-152.264411
 20
-197.845854
 30
0.0
 40
1.0
100
AcDbArc
 50
126.869898
 51
180.0
  0
ARC
  5
27F
100
AcDbEntity
  8
2
370
    50
100
AcDbCircle
 10
-152.264411
 20
-194.245854
 30
0.0
 40
1.0
100
AcDbArc
 50
180.0
 51
233.130102
  0
ARC
  5
280
100
AcDbEntity
  8
2
370
    50
100
AcDbCircle
 10
-152.264411
 20
-190.845854
 30
0.0
 40
1.0
100
AcDbArc
 50
126.869898
 51
180.0
  0
ARC
  5
281
100
AcDbEntity
  8
2
370
    50
100
AcDbCircle
 10
-152.264411
 20
-187.245854
 30
0.0
 40
1.0
100
AcDbArc
 50
180.0
 51
233.130102
  0
ARC
  5
282
100
AcDbEntity
  8
2
370
    50
100
AcDbCircle
 10
-152.264411
 20
-183.845854
 30
0.0
 40
1.0
100
AcDbArc
 50
126.869898
 51
180.0
  0
ARC
  5
283
100
AcDbEntity
  8
2
370
    50
100
AcDbCircle
 10
-152.264411
 20
-180.245854
 30
0.0
 40
1.0
100
AcDbArc
 50
180.0
 51
233.130102
  0
ARC
  5
284
100
AcDbEntity
  8
2
370
    50
100
AcDbCircle
 10
-152.264411
 20
-176.345854
 30
0.0
 40
1.0
100
AcDbArc
 50
126.869898
 51
180.0
  0
LINE
  5
285
100
AcDbEntity
  8
2
370
    50
100
AcDbLine
 10
-139.664411
 20
-175.545854
 30
0.0
 11
-146.264411
 21
-175.545854
 31
0.0
  0
ARC
  5
286
100
AcDbEntity
  8
2
370
    50
100
AcDbCircle
 10
-140.264411
 20
-176.345854
 30
0.0
 40
1.0
100
AcDbArc
 50
0.0
 51
53.130102
  0
LINE
  5
287
100
AcDbEntity
  8
2
370
    50
100
AcDbLine
 10
-139.264411
 20
-176.345854
 30
0.0
 11
-139.264411
 21
-180.245854
 31
0.0
  0
ARC
  5
288
100
AcDbEntity
  8
2
370
    50
100
AcDbCircle
 10
-140.264411
 20
-180.245854
 30
0.0
 40
1.0
100
AcDbArc
 50
306.869898
 51
0.0
  0
LINE
  5
289
100
AcDbEntity
  8
2
370
    50
100
AcDbLine
 10
-139.664411
 20
-181.045854
 30
0.0
 11
-139.664411
 21
-183.045854
 31
0.0
  0
LINE
  5
28A
100
AcDbEntity
  8
2
370
    50
100
AcDbLine
 10
-139.664411
 20
-181.045854
 30
0.0
 11
-146.264411
 21
-181.045854
 31
0.0
  0
LINE
  5
28B
100
AcDbEntity
  8
2
370
    50
100
AcDbLine
 10
-139.664411
 20
-183.045854
 30
0.0
 11
-146.264411
 21
-183.045854
 31
0.0
  0
ARC
  5
28C
100
AcDbEntity
  8
2
370
    50
100
AcDbCircle
 10
-140.264411
 20
-183.845854
 30
0.0
 40
1.0
100
AcDbArc
 50
0.0
 51
53.130102
  0
LINE
  5
28D
100
AcDbEntity
  8
2
370
    50
100
AcDbLine
 10
-139.264411
 20
-183.845854
 30
0.0
 11
-139.264411
 21
-187.245854
 31
0.0
  0
ARC
  5
28E
100
AcDbEntity
  8
2
370
    50
100
AcDbCircle
 10
-140.264411
 20
-187.245854
 30
0.0
 40
1.0
100
AcDbArc
 50
306.869898
 51
0.0
  0
LINE
  5
28F
100
AcDbEntity
  8
2
370
    50
100
AcDbLine
 10
-139.664411
 20
-188.045854
 30
0.0
 11
-146.264411
 21
-188.045854
 31
0.0
  0
LINE
  5
290
100
AcDbEntity
  8
2
370
    50
100
AcDbLine
 10
-139.664411
 20
-188.045854
 30
0.0
 11
-139.664411
 21
-190.045854
 31
0.0
  0
LINE
  5
291
100
AcDbEntity
  8
2
370
    50
100
AcDbLine
 10
-139.664411
 20
-190.045854
 30
0.0
 11
-146.264411
 21
-190.045854
 31
0.0
  0
ARC
  5
292
100
AcDbEntity
  8
2
370
    50
100
AcDbCircle
 10
-140.264411
 20
-190.845854
 30
0.0
 40
1.0
100
AcDbArc
 50
0.0
 51
53.130102
  0
LINE
  5
293
100
AcDbEntity
  8
2
370
    50
100
AcDbLine
 10
-139.264411
 20
-190.845854
 30
0.0
 11
-139.264411
 21
-194.245854
 31
0.0
  0
ARC
  5
294
100
AcDbEntity
  8
2
370
    50
100
AcDbCircle
 10
-140.264411
 20
-194.245854
 30
0.0
 40
1.0
100
AcDbArc
 50
306.869898
 51
0.0
  0
LINE
  5
295
100
AcDbEntity
  8
2
370
    50
100
AcDbLine
 10
-139.664411
 20
-195.045854
 30
0.0
 11
-146.264411
 21
-195.045854
 31
0.0
  0
LINE
  5
296
100
AcDbEntity
  8
2
370
    50
100
AcDbLine
 10
-139.664411
 20
-195.045854
 30
0.0
 11
-139.664411
 21
-197.045854
 31
0.0
  0
LINE
  5
297
100
AcDbEntity
  8
2
370
    50
100
AcDbLine
 10
-139.664411
 20
-197.045854
 30
0.0
 11
-146.264411
 21
-197.045854
 31
0.0
  0
ARC
  5
298
100
AcDbEntity
  8
2
370
    50
100
AcDbCircle
 10
-140.264411
 20
-197.845854
 30
0.0
 40
1.0
100
AcDbArc
 50
0.0
 51
53.130102
  0
LINE
  5
299
100
AcDbEntity
  8
2
370
    50
100
AcDbLine
 10
-139.264411
 20
-197.845854
 30
0.0
 11
-139.264411
 21
-203.745854
 31
0.0
  0
ARC
  5
29A
100
AcDbEntity
  8
2
370
    50
100
AcDbCircle
 10
-152.264411
 20
-203.745854
 30
0.0
 40
1.0
100
AcDbArc
 50
180.0
 51
233.130102
  0
ARC
  5
29B
100
AcDbEntity
  8
2
370
    50
100
AcDbCircle
 10
-140.264411
 20
-203.745854
 30
0.0
 40
1.0
100
AcDbArc
 50
306.869898
 51
0.0
  0
LINE
  5
29C
100
AcDbEntity
  8
2
370
    50
100
AcDbLine
 10
-152.514411
 20
-205.545854
 30
0.0
 11
-152.514411
 21
-204.545854
 31
0.0
  0
LINE
  5
29D
100
AcDbEntity
  8
2
370
    50
100
AcDbLine
 10
-140.014411
 20
-205.545854
 30
0.0
 11
-140.014411
 21
-204.545854
 31
0.0
  0
ARC
  5
29E
100
AcDbEntity
  8
2
370
    50
100
AcDbCircle
 10
-149.489411
 20
-152.735038
 30
0.0
 40
5.375
100
AcDbArc
 50
233.130102
 51
306.869898
  0
ARC
  5
29F
100
AcDbEntity
  8
2
370
    50
100
AcDbCircle
 10
-143.039411
 20
-161.335038
 30
0.0
 40
5.375
100
AcDbArc
 50
53.130102
 51
126.869898
  0
ARC
  5
2A0
100
AcDbEntity
  8
2
370
    50
100
AcDbCircle
 10
-143.039411
 20
-152.735038
 30
0.0
 40
5.375
100
AcDbArc
 50
233.130102
 51
306.869898
  0
LINE
  5
2A1
100
AcDbEntity
  8
2
370
    50
100
AcDbLine
 10
-267.864411
 20
-175.545854
 30
0.0
 11
-261.264411
 21
-175.545854
 31
0.0
  0
LINE
  5
2A2
100
AcDbEntity
  8
2
370
    50
100
AcDbLine
 10
-267.864411
 20
-181.045854
 30
0.0
 11
-261.264411
 21
-181.045854
 31
0.0
  0
LINE
  5
2A3
100
AcDbEntity
  8
2
370
    50
100
AcDbLine
 10
-267.864411
 20
-183.045854
 30
0.0
 11
-261.264411
 21
-183.045854
 31
0.0
  0
LINE
  5
2A4
100
AcDbEntity
  8
2
370
    50
100
AcDbLine
 10
-267.864411
 20
-188.045854
 30
0.0
 11
-261.264411
 21
-188.045854
 31
0.0
  0
LINE
  5
2A5
100
AcDbEntity
  8
2
370
    50
100
AcDbLine
 10
-267.864411
 20
-190.045854
 30
0.0
 11
-261.264411
 21
-190.045854
 31
0.0
  0
LINE
  5
2A6
100
AcDbEntity
  8
2
370
    50
100
AcDbLine
 10
-267.864411
 20
-195.045854
 30
0.0
 11
-261.264411
 21
-195.045854
 31
0.0
  0
LINE
  5
2A7
100
AcDbEntity
  8
2
370
    50
100
AcDbLine
 10
-267.864411
 20
-197.045854
 30
0.0
 11
-261.264411
 21
-197.045854
 31
0.0
  0
LINE
  5
2A8
100
AcDbEntity
  8
2
370
    50
100
AcDbLine
 10
-254.664411
 20
-175.545854
 30
0.0
 11
-261.264411
 21
-175.545854
 31
0.0
  0
ARC
  5
2A9
100
AcDbEntity
  8
2
370
    50
100
AcDbCircle
 10
-255.264411
 20
-176.345854
 30
0.0
 40
1.0
100
AcDbArc
 50
0.0
 51
53.130102
  0
LINE
  5
2AA
100
AcDbEntity
  8
2
370
    50
100
AcDbLine
 10
-254.264411
 20
-176.345854
 30
0.0
 11
-254.264411
 21
-180.245854
 31
0.0
  0
ARC
  5
2AB
100
AcDbEntity
  8
2
370
    50
100
AcDbCircle
 10
-255.264411
 20
-180.245854
 30
0.0
 40
1.0
100
AcDbArc
 50
306.869898
 51
0.0
  0
LINE
  5
2AC
100
AcDbEntity
  8
2
370
    50
100
AcDbLine
 10
-254.664411
 20
-181.045854
 30
0.0
 11
-254.664411
 21
-183.045854
 31
0.0
  0
LINE
  5
2AD
100
AcDbEntity
  8
2
370
    50
100
AcDbLine
 10
-254.664411
 20
-181.045854
 30
0.0
 11
-261.264411
 21
-181.045854
 31
0.0
  0
LINE
  5
2AE
100
AcDbEntity
  8
2
370
    50
100
AcDbLine
 10
-254.664411
 20
-183.045854
 30
0.0
 11
-261.264411
 21
-183.045854
 31
0.0
  0
ARC
  5
2AF
100
AcDbEntity
  8
2
370
    50
100
AcDbCircle
 10
-255.264411
 20
-183.845854
 30
0.0
 40
1.0
100
AcDbArc
 50
0.0
 51
53.130102
  0
LINE
  5
2B0
100
AcDbEntity
  8
2
370
    50
100
AcDbLine
 10
-254.264411
 20
-183.845854
 30
0.0
 11
-254.264411
 21
-187.245854
 31
0.0
  0
ARC
  5
2B1
100
AcDbEntity
  8
2
370
    50
100
AcDbCircle
 10
-255.264411
 20
-187.245854
 30
0.0
 40
1.0
100
AcDbArc
 50
306.869898
 51
0.0
  0
LINE
  5
2B2
100
AcDbEntity
  8
2
370
    50
100
AcDbLine
 10
-254.664411
 20
-188.045854
 30
0.0
 11
-261.264411
 21
-188.045854
 31
0.0
  0
LINE
  5
2B3
100
AcDbEntity
  8
2
370
    50
100
AcDbLine
 10
-254.664411
 20
-188.045854
 30
0.0
 11
-254.664411
 21
-190.045854
 31
0.0
  0
LINE
  5
2B4
100
AcDbEntity
  8
2
370
    50
100
AcDbLine
 10
-254.664411
 20
-190.045854
 30
0.0
 11
-261.264411
 21
-190.045854
 31
0.0
  0
ARC
  5
2B5
100
AcDbEntity
  8
2
370
    50
100
AcDbCircle
 10
-255.264411
 20
-190.845854
 30
0.0
 40
1.0
100
AcDbArc
 50
0.0
 51
53.130102
  0
LINE
  5
2B6
100
AcDbEntity
  8
2
370
    50
100
AcDbLine
 10
-254.264411
 20
-190.845854
 30
0.0
 11
-254.264411
 21
-194.245854
 31
0.0
  0
ARC
  5
2B7
100
AcDbEntity
  8
2
370
    50
100
AcDbCircle
 10
-255.264411
 20
-194.245854
 30
0.0
 40
1.0
100
AcDbArc
 50
306.869898
 51
0.0
  0
LINE
  5
2B8
100
AcDbEntity
  8
2
370
    50
100
AcDbLine
 10
-254.664411
 20
-195.045854
 30
0.0
 11
-261.264411
 21
-195.045854
 31
0.0
  0
LINE
  5
2B9
100
AcDbEntity
  8
2
370
    50
100
AcDbLine
 10
-254.664411
 20
-195.045854
 30
0.0
 11
-254.664411
 21
-197.045854
 31
0.0
  0
LINE
  5
2BA
100
AcDbEntity
  8
2
370
    50
100
AcDbLine
 10
-254.664411
 20
-197.045854
 30
0.0
 11
-261.264411
 21
-197.045854
 31
0.0
  0
ARC
  5
2BB
100
AcDbEntity
  8
2
370
    50
100
AcDbCircle
 10
-255.264411
 20
-197.845854
 30
0.0
 40
1.0
100
AcDbArc
 50
0.0
 51
53.130102
  0
LINE
  5
2BC
100
AcDbEntity
  8
2
370
    50
100
AcDbLine
 10
-254.264411
 20
-197.845854
 30
0.0
 11
-254.264411
 21
-203.745854
 31
0.0
  0
LINE
  5
2BD
100
AcDbEntity
  8
2
370
    50
100
AcDbLine
 10
-254.814411
 20
-175.545854
 30
0.0
 11
-254.814411
 21
-157.035038
 31
0.0
  0
ARC
  5
2BE
100
AcDbEntity
  8
2
370
    50
100
AcDbCircle
 10
-264.489411
 20
-152.735038
 30
0.0
 40
5.375
100
AcDbArc
 50
233.130102
 51
306.869898
  0
ARC
  5
2BF
100
AcDbEntity
  8
2
370
    50
100
AcDbCircle
 10
-258.039411
 20
-161.335038
 30
0.0
 40
5.375
100
AcDbArc
 50
53.130102
 51
126.869898
  0
ARC
  5
2C0
100
AcDbEntity
  8
2
370
    50
100
AcDbCircle
 10
-258.039411
 20
-152.735038
 30
0.0
 40
5.375
100
AcDbArc
 50
233.130102
 51
306.869898
  0
ARC
  5
2C1
100
AcDbEntity
  8
2
370
    50
100
AcDbCircle
 10
-267.064411
 20
-205.34627
 30
0.0
 40
0.2
100
AcDbArc
 50
180.0
 51
270.0
  0
ARC
  5
2C2
100
AcDbEntity
  8
2
370
    50
100
AcDbCircle
 10
-255.464411
 20
-205.34627
 30
0.0
 40
0.2
100
AcDbArc
 50
270.0
 51
360.0
  0
LINE
  5
2C3
100
AcDbEntity
  8
2
370
    50
100
AcDbLine
 10
-254.264411
 20
-205.54627
 30
0.0
 11
-268.264411
 21
-205.54627
 31
0.0
  0
LINE
  5
2C4
100
AcDbEntity
  8
2
370
    50
100
AcDbLine
 10
-253.764411
 20
-206.04627
 30
0.0
 11
-254.264411
 21
-205.54627
 31
0.0
  0
ARC
  5
2C5
100
AcDbEntity
  8
2
370
    50
100
AcDbCircle
 10
-247.764411
 20
-206.34627
 30
0.0
 40
1.0
100
AcDbArc
 50
0.0
 51
90.0
  0
LINE
  5
2C6
100
AcDbEntity
  8
2
370
    50
100
AcDbLine
 10
-247.764411
 20
-205.34627
 30
0.0
 11
-255.264411
 21
-205.34627
 31
0.0
  0
LINE
  5
2C7
100
AcDbEntity
  8
2
370
    50
100
AcDbLine
 10
-267.264411
 20
-205.34627
 30
0.0
 11
-274.764411
 21
-205.34627
 31
0.0
  0
ARC
  5
2C8
100
AcDbEntity
  8
2
370
    50
100
AcDbCircle
 10
-253.464411
 20
-206.34627
 30
0.0
 40
1.0
100
AcDbArc
 50
0.0
 51
90.0
  0
ARC
  5
2C9
100
AcDbEntity
  8
2
370
    50
100
AcDbCircle
 10
-269.064411
 20
-206.34627
 30
0.0
 40
1.0
100
AcDbArc
 50
90.0
 51
180.0
  0
ARC
  5
2CA
100
AcDbEntity
  8
2
370
    50
100
AcDbCircle
 10
-269.064411
 20
-206.34627
 30
0.0
 40
1.0
100
AcDbArc
 50
90.0
 51
180.0
  0
LINE
  5
2CB
100
AcDbEntity
  8
2
370
    50
100
AcDbLine
 10
-268.764411
 20
-206.04627
 30
0.0
 11
-268.264411
 21
-205.54627
 31
0.0
  0
LINE
  5
2CC
100
AcDbEntity
  8
2
370
    50
100
AcDbLine
 10
-261.264157
 20
-204.545854
 30
0.0
 11
-267.864411
 21
-204.545854
 31
0.0
  0
LINE
  5
2CD
100
AcDbEntity
  8
2
370
    50
100
AcDbLine
 10
-261.264157
 20
-204.545854
 30
0.0
 11
-254.664411
 21
-204.545854
 31
0.0
  0
LINE
  5
2CE
100
AcDbEntity
  8
2
370
    50
100
AcDbLine
 10
-268.264411
 20
-176.345854
 30
0.0
 11
-268.264411
 21
-180.245854
 31
0.0
  0
LINE
  5
2CF
100
AcDbEntity
  8
2
370
    50
100
AcDbLine
 10
-268.264411
 20
-183.845854
 30
0.0
 11
-268.264411
 21
-187.245854
 31
0.0
  0
LINE
  5
2D0
100
AcDbEntity
  8
2
370
    50
100
AcDbLine
 10
-268.264411
 20
-190.845854
 30
0.0
 11
-268.264411
 21
-194.245854
 31
0.0
  0
LINE
  5
2D1
100
AcDbEntity
  8
2
370
    50
100
AcDbLine
 10
-268.264411
 20
-197.845854
 30
0.0
 11
-268.264411
 21
-203.745854
 31
0.0
  0
LINE
  5
2D2
100
AcDbEntity
  8
2
370
    50
100
AcDbLine
 10
-267.864411
 20
-195.045854
 30
0.0
 11
-267.864411
 21
-197.045854
 31
0.0
  0
LINE
  5
2D3
100
AcDbEntity
  8
2
370
    50
100
AcDbLine
 10
-267.864411
 20
-181.045854
 30
0.0
 11
-267.864411
 21
-183.045854
 31
0.0
  0
LINE
  5
2D4
100
AcDbEntity
  8
2
370
    50
100
AcDbLine
 10
-267.864411
 20
-188.045854
 30
0.0
 11
-267.864411
 21
-190.045854
 31
0.0
  0
ARC
  5
2D5
100
AcDbEntity
  8
2
370
    50
100
AcDbCircle
 10
-267.264411
 20
-197.845854
 30
0.0
 40
1.0
100
AcDbArc
 50
126.869898
 51
180.0
  0
ARC
  5
2D6
100
AcDbEntity
  8
2
370
    50
100
AcDbCircle
 10
-267.264411
 20
-194.245854
 30
0.0
 40
1.0
100
AcDbArc
 50
180.0
 51
233.130102
  0
ARC
  5
2D7
100
AcDbEntity
  8
2
370
    50
100
AcDbCircle
 10
-267.264411
 20
-190.845854
 30
0.0
 40
1.0
100
AcDbArc
 50
126.869898
 51
180.0
  0
ARC
  5
2D8
100
AcDbEntity
  8
2
370
    50
100
AcDbCircle
 10
-267.264411
 20
-187.245854
 30
0.0
 40
1.0
100
AcDbArc
 50
180.0
 51
233.130102
  0
ARC
  5
2D9
100
AcDbEntity
  8
2
370
    50
100
AcDbCircle
 10
-267.264411
 20
-183.845854
 30
0.0
 40
1.0
100
AcDbArc
 50
126.869898
 51
180.0
  0
ARC
  5
2DA
100
AcDbEntity
  8
2
370
    50
100
AcDbCircle
 10
-267.264411
 20
-180.245854
 30
0.0
 40
1.0
100
AcDbArc
 50
180.0
 51
233.130102
  0
ARC
  5
2DB
100
AcDbEntity
  8
2
370
    50
100
AcDbCircle
 10
-267.264411
 20
-176.345854
 30
0.0
 40
1.0
100
AcDbArc
 50
126.869898
 51
180.0
  0
ARC
  5
2DC
100
AcDbEntity
  8
2
370
    50
100
AcDbCircle
 10
-267.264411
 20
-203.745854
 30
0.0
 40
1.0
100
AcDbArc
 50
180.0
 51
233.130102
  0
ARC
  5
2DD
100
AcDbEntity
  8
2
370
    50
100
AcDbCircle
 10
-255.264411
 20
-203.745854
 30
0.0
 40
1.0
100
AcDbArc
 50
306.869898
 51
0.0
  0
LINE
  5
2DE
100
AcDbEntity
  8
2
370
    50
100
AcDbLine
 10
-267.714411
 20
-175.545854
 30
0.0
 11
-267.714411
 21
-157.035038
 31
0.0
  0
LINE
  5
2DF
100
AcDbEntity
  8
2
370
    50
100
AcDbLine
 10
-267.514411
 20
-205.545854
 30
0.0
 11
-267.514411
 21
-204.545854
 31
0.0
  0
LINE
  5
2E0
100
AcDbEntity
  8
2
370
    50
100
AcDbLine
 10
-255.014411
 20
-205.545854
 30
0.0
 11
-255.014411
 21
-204.545854
 31
0.0
  0
LINE
  5
2E1
100
AcDbEntity
  8
2
370
    25
100
AcDbLine
 10
-254.76455
 20
-219.345647
 30
0.0
 11
-254.76455
 21
-216.345647
 31
0.0
  0
LINE
  5
2E2
100
AcDbEntity
  8
2
370
    50
100
AcDbLine
 10
-252.364411
 20
-210.946905
 30
0.0
 11
-252.364411
 21
-213.346905
 31
0.0
  0
LINE
  5
2E3
100
AcDbEntity
  8
2
370
    50
100
AcDbLine
 10
-252.564411
 20
-210.746905
 30
0.0
 11
-252.364411
 21
-210.946905
 31
0.0
  0
LINE
  5
2E4
100
AcDbEntity
  8
2
370
    50
100
AcDbLine
 10
-252.564411
 20
-213.546905
 30
0.0
 11
-252.364411
 21
-213.346905
 31
0.0
  0
LINE
  5
2E5
100
AcDbEntity
  8
2
370
    50
100
AcDbLine
 10
-253.764411
 20
-210.746905
 30
0.0
 11
-253.764411
 21
-210.345647
 31
0.0
  0
LINE
  5
2E6
100
AcDbEntity
  8
2
370
    50
100
AcDbLine
 10
-253.764411
 20
-206.04627
 30
0.0
 11
-253.764411
 21
-207.345647
 31
0.0
  0
LINE
  5
2E7
100
AcDbEntity
  8
2
370
    50
100
AcDbLine
 10
-270.164411
 20
-210.94627
 30
0.0
 11
-270.164411
 21
-213.34627
 31
0.0
  0
LINE
  5
2E8
100
AcDbEntity
  8
2
370
    50
100
AcDbLine
 10
-252.364411
 20
-210.94627
 30
0.0
 11
-252.364411
 21
-213.34627
 31
0.0
  0
LINE
  5
2E9
100
AcDbEntity
  8
2
370
    50
100
AcDbLine
 10
-252.564411
 20
-210.74627
 30
0.0
 11
-252.364411
 21
-210.94627
 31
0.0
  0
LINE
  5
2EA
100
AcDbEntity
  8
2
370
    50
100
AcDbLine
 10
-269.964411
 20
-210.74627
 30
0.0
 11
-270.164411
 21
-210.94627
 31
0.0
  0
LINE
  5
2EB
100
AcDbEntity
  8
2
370
    50
100
AcDbLine
 10
-269.964411
 20
-213.54627
 30
0.0
 11
-270.164411
 21
-213.34627
 31
0.0
  0
LINE
  5
2EC
100
AcDbEntity
  8
2
370
    50
100
AcDbLine
 10
-270.264411
 20
-219.34627
 30
0.0
 11
-252.264411
 21
-219.34627
 31
0.0
  0
LINE
  5
2ED
100
AcDbEntity
  8
2
370
    50
100
AcDbLine
 10
-269.564411
 20
-207.34627
 30
0.0
 11
-252.964411
 21
-207.34627
 31
0.0
  0
LINE
  5
2EE
100
AcDbEntity
  8
2
370
    50
100
AcDbLine
 10
-257.264411
 20
-208.34627
 30
0.0
 11
-257.264411
 21
-218.34627
 31
0.0
  0
LINE
  5
2EF
100
AcDbEntity
  8
2
370
    50
100
AcDbLine
 10
-265.264411
 20
-208.34627
 30
0.0
 11
-265.264411
 21
-218.34627
 31
0.0
  0
ARC
  5
2F0
100
AcDbEntity
  8
2
370
    50
100
AcDbCircle
 10
-247.764411
 20
-218.34627
 30
0.0
 40
1.0
100
AcDbArc
 50
270.0
 51
360.0
  0
LINE
  5
2F1
100
AcDbEntity
  8
2
370
    50
100
AcDbLine
 10
-247.764411
 20
-219.34627
 30
0.0
 11
-253.764411
 21
-219.34627
 31
0.0
  0
LINE
  5
2F2
100
AcDbEntity
  8
2
370
    50
100
AcDbLine
 10
-269.564411
 20
-219.34627
 30
0.0
 11
-274.764411
 21
-219.34627
 31
0.0
  0
LINE
  5
2F3
100
AcDbEntity
  8
2
370
    50
100
AcDbLine
 10
-269.564411
 20
-210.34627
 30
0.0
 11
-265.264411
 21
-210.34627
 31
0.0
  0
LINE
  5
2F4
100
AcDbEntity
  8
2
370
    50
100
AcDbLine
 10
-257.264411
 20
-210.34627
 30
0.0
 11
-252.964411
 21
-210.34627
 31
0.0
  0
LINE
  5
2F5
100
AcDbEntity
  8
2
370
    50
100
AcDbLine
 10
-269.964411
 20
-210.74627
 30
0.0
 11
-265.264411
 21
-210.74627
 31
0.0
  0
LINE
  5
2F6
100
AcDbEntity
  8
2
370
    50
100
AcDbLine
 10
-257.264411
 20
-210.74627
 30
0.0
 11
-252.564411
 21
-210.74627
 31
0.0
  0
LINE
  5
2F7
100
AcDbEntity
  8
2
370
    50
100
AcDbLine
 10
-270.164411
 20
-210.94627
 30
0.0
 11
-265.264411
 21
-210.94627
 31
0.0
  0
LINE
  5
2F8
100
AcDbEntity
  8
2
370
    50
100
AcDbLine
 10
-257.264411
 20
-210.94627
 30
0.0
 11
-252.364411
 21
-210.94627
 31
0.0
  0
LINE
  5
2F9
100
AcDbEntity
  8
2
370
    50
100
AcDbLine
 10
-270.164411
 20
-213.34627
 30
0.0
 11
-265.264411
 21
-213.34627
 31
0.0
  0
LINE
  5
2FA
100
AcDbEntity
  8
2
370
    50
100
AcDbLine
 10
-257.264411
 20
-213.34627
 30
0.0
 11
-252.364411
 21
-213.34627
 31
0.0
  0
LINE
  5
2FB
100
AcDbEntity
  8
2
370
    50
100
AcDbLine
 10
-269.564411
 20
-216.34627
 30
0.0
 11
-265.264411
 21
-216.34627
 31
0.0
  0
LINE
  5
2FC
100
AcDbEntity
  8
2
370
    50
100
AcDbLine
 10
-257.264411
 20
-216.34627
 30
0.0
 11
-252.964411
 21
-216.34627
 31
0.0
  0
ARC
  5
2FD
100
AcDbEntity
  8
2
370
    50
100
AcDbCircle
 10
-264.264411
 20
-208.34627
 30
0.0
 40
1.0
100
AcDbArc
 50
90.0
 51
180.0
  0
ARC
  5
2FE
100
AcDbEntity
  8
2
370
    50
100
AcDbCircle
 10
-258.264411
 20
-208.34627
 30
0.0
 40
1.0
100
AcDbArc
 50
0.0
 51
90.0
  0
ARC
  5
2FF
100
AcDbEntity
  8
2
370
    50
100
AcDbCircle
 10
-258.264411
 20
-218.34627
 30
0.0
 40
1.0
100
AcDbArc
 50
270.0
 51
0.0
  0
ARC
  5
300
100
AcDbEntity
  8
2
370
    50
100
AcDbCircle
 10
-264.264411
 20
-218.34627
 30
0.0
 40
1.0
100
AcDbArc
 50
180.0
 51
270.0
  0
LINE
  5
301
100
AcDbEntity
  8
2
370
    50
100
AcDbLine
 10
-252.964411
 20
-207.34627
 30
0.0
 11
-252.964411
 21
-210.34627
 31
0.0
  0
LINE
  5
302
100
AcDbEntity
  8
2
370
    50
100
AcDbLine
 10
-269.564411
 20
-207.34627
 30
0.0
 11
-269.564411
 21
-210.34627
 31
0.0
  0
LINE
  5
303
100
AcDbEntity
  8
2
370
    50
100
AcDbLine
 10
-269.564411
 20
-216.34627
 30
0.0
 11
-269.564411
 21
-219.34627
 31
0.0
  0
LINE
  5
304
100
AcDbEntity
  8
2
370
    50
100
AcDbLine
 10
-252.964411
 20
-216.34627
 30
0.0
 11
-252.964411
 21
-219.34627
 31
0.0
  0
LINE
  5
305
100
AcDbEntity
  8
2
370
    50
100
AcDbLine
 10
-253.764411
 20
-210.74627
 30
0.0
 11
-253.764411
 21
-210.34627
 31
0.0
  0
LINE
  5
306
100
AcDbEntity
  8
2
370
    50
100
AcDbLine
 10
-268.764411
 20
-210.74627
 30
0.0
 11
-268.764411
 21
-210.34627
 31
0.0
  0
LINE
  5
307
100
AcDbEntity
  8
2
370
    25
100
AcDbLine
 10
-256.264411
 20
-219.046852
 30
0.0
 11
-256.264411
 21
-216.741631
 31
0.0
  0
LINE
  5
308
100
AcDbEntity
  8
2
370
    25
100
AcDbLine
 10
-256.264411
 20
-210.085083
 30
0.0
 11
-256.264411
 21
-207.652878
 31
0.0
  0
LINE
  5
309
100
AcDbEntity
  8
2
370
    25
100
AcDbLine
 10
-266.264411
 20
-219.046852
 30
0.0
 11
-266.264411
 21
-216.741631
 31
0.0
  0
LINE
  5
30A
100
AcDbEntity
  8
2
370
    25
100
AcDbLine
 10
-266.264411
 20
-210.042405
 30
0.0
 11
-266.264411
 21
-207.573357
 31
0.0
  0
LINE
  5
30B
100
AcDbEntity
  8
2
370
    50
100
AcDbLine
 10
-252.464411
 20
-218.34627
 30
0.0
 11
-252.464411
 21
-215.74627
 31
0.0
  0
LINE
  5
30C
100
AcDbEntity
  8
2
370
    50
100
AcDbLine
 10
-252.464411
 20
-210.84627
 30
0.0
 11
-252.464411
 21
-206.34627
 31
0.0
  0
LINE
  5
30D
100
AcDbEntity
  8
2
370
    50
100
AcDbLine
 10
-270.064411
 20
-218.34627
 30
0.0
 11
-270.064411
 21
-215.74627
 31
0.0
  0
LINE
  5
30E
100
AcDbEntity
  8
2
370
    50
100
AcDbLine
 10
-270.064411
 20
-210.84627
 30
0.0
 11
-270.064411
 21
-206.34627
 31
0.0
  0
ARC
  5
30F
100
AcDbEntity
  8
2
370
    50
100
AcDbCircle
 10
-251.464411
 20
-218.34627
 30
0.0
 40
1.0
100
AcDbArc
 50
180.0
 51
270.0
  0
ARC
  5
310
100
AcDbEntity
  8
2
370
    50
100
AcDbCircle
 10
-271.064411
 20
-218.34627
 30
0.0
 40
1.0
100
AcDbArc
 50
270.0
 51
360.0
  0
LINE
  5
311
100
AcDbEntity
  8
2
370
    50
100
AcDbLine
 10
-268.764411
 20
-206.04627
 30
0.0
 11
-268.764411
 21
-207.345647
 31
0.0
  0
LINE
  5
312
100
AcDbEntity
  8
2
370
    50
100
AcDbLine
 10
-270.264411
 20
-213.74627
 30
0.0
 11
-270.264411
 21
-215.54627
 31
0.0
  0
LINE
  5
313
100
AcDbEntity
  8
2
370
    50
100
AcDbLine
 10
-252.264411
 20
-213.74627
 30
0.0
 11
-252.264411
 21
-215.54627
 31
0.0
  0
LINE
  5
314
100
AcDbEntity
  8
2
370
    50
100
AcDbLine
 10
-270.064411
 20
-213.54627
 30
0.0
 11
-270.264411
 21
-213.74627
 31
0.0
  0
LINE
  5
315
100
AcDbEntity
  8
2
370
    50
100
AcDbLine
 10
-270.264411
 20
-215.54627
 30
0.0
 11
-270.064411
 21
-215.74627
 31
0.0
  0
LINE
  5
316
100
AcDbEntity
  8
2
370
    50
100
AcDbLine
 10
-252.464411
 20
-213.54627
 30
0.0
 11
-252.264411
 21
-213.74627
 31
0.0
  0
LINE
  5
317
100
AcDbEntity
  8
2
370
    50
100
AcDbLine
 10
-252.264411
 20
-215.54627
 30
0.0
 11
-252.464411
 21
-215.74627
 31
0.0
  0
LINE
  5
318
100
AcDbEntity
  8
2
370
    50
100
AcDbLine
 10
-253.764411
 20
-219.74627
 30
0.0
 11
-253.764411
 21
-219.34627
 31
0.0
  0
LINE
  5
319
100
AcDbEntity
  8
2
370
    50
100
AcDbLine
 10
-253.764411
 20
-216.34627
 30
0.0
 11
-253.764411
 21
-215.74627
 31
0.0
  0
LINE
  5
31A
100
AcDbEntity
  8
2
370
    50
100
AcDbLine
 10
-268.764411
 20
-219.74627
 30
0.0
 11
-268.764411
 21
-219.34627
 31
0.0
  0
LINE
  5
31B
100
AcDbEntity
  8
2
370
    50
100
AcDbLine
 10
-268.764411
 20
-216.34627
 30
0.0
 11
-268.764411
 21
-215.74627
 31
0.0
  0
LINE
  5
31C
100
AcDbEntity
  8
2
370
    50
100
AcDbLine
 10
-270.064411
 20
-215.74627
 30
0.0
 11
-265.264411
 21
-215.74627
 31
0.0
  0
LINE
  5
31D
100
AcDbEntity
  8
2
370
    50
100
AcDbLine
 10
-257.264411
 20
-215.74627
 30
0.0
 11
-252.464411
 21
-215.74627
 31
0.0
  0
LINE
  5
31E
100
AcDbEntity
  8
2
370
    50
100
AcDbLine
 10
-270.264411
 20
-215.54627
 30
0.0
 11
-265.264411
 21
-215.54627
 31
0.0
  0
LINE
  5
31F
100
AcDbEntity
  8
2
370
    50
100
AcDbLine
 10
-257.264411
 20
-215.54627
 30
0.0
 11
-252.264411
 21
-215.54627
 31
0.0
  0
LINE
  5
320
100
AcDbEntity
  8
2
370
    50
100
AcDbLine
 10
-270.264411
 20
-213.74627
 30
0.0
 11
-265.264411
 21
-213.74627
 31
0.0
  0
LINE
  5
321
100
AcDbEntity
  8
2
370
    50
100
AcDbLine
 10
-257.264411
 20
-213.74627
 30
0.0
 11
-252.264411
 21
-213.74627
 31
0.0
  0
LINE
  5
322
100
AcDbEntity
  8
2
370
    50
100
AcDbLine
 10
-270.064411
 20
-213.54627
 30
0.0
 11
-265.264411
 21
-213.54627
 31
0.0
  0
LINE
  5
323
100
AcDbEntity
  8
2
370
    50
100
AcDbLine
 10
-257.264411
 20
-213.54627
 30
0.0
 11
-252.464411
 21
-213.54627
 31
0.0
  0
LINE
  5
324
100
AcDbEntity
  8
2
370
    25
100
AcDbLine
 10
-267.764271
 20
-219.345647
 30
0.0
 11
-267.764271
 21
-216.345647
 31
0.0
  0
LINE
  5
325
100
AcDbEntity
  8
2
370
    25
100
AcDbLine
 10
-254.76455
 20
-210.34627
 30
0.0
 11
-254.76455
 21
-207.34627
 31
0.0
  0
LINE
  5
326
100
AcDbEntity
  8
2
370
    25
100
AcDbLine
 10
-267.764271
 20
-210.34627
 30
0.0
 11
-267.764271
 21
-207.34627
 31
0.0
  0
LINE
  5
327
100
AcDbEntity
  8
2
370
    50
100
AcDbLine
 10
-275.764411
 20
-206.34627
 30
0.0
 11
-275.764411
 21
-218.34627
 31
0.0
  0
ARC
  5
328
100
AcDbEntity
  8
2
370
    50
100
AcDbCircle
 10
-274.764411
 20
-206.34627
 30
0.0
 40
1.0
100
AcDbArc
 50
90.0
 51
180.0
  0
ARC
  5
329
100
AcDbEntity
  8
2
370
    50
100
AcDbCircle
 10
-274.764411
 20
-218.34627
 30
0.0
 40
1.0
100
AcDbArc
 50
180.0
 51
270.0
  0
LINE
  5
32A
100
AcDbEntity
  8
2
370
    25
  6
CENTER
100
AcDbLine
 10
-261.264411
 20
-139.544156
 30
0.0
 11
-261.264411
 21
-244.276459
 31
0.0
  0
LINE
  5
32B
100
AcDbEntity
  8
2
370
    50
100
AcDbLine
 10
-246.764411
 20
-206.34627
 30
0.0
 11
-246.764411
 21
-218.34627
 31
0.0
  0
LINE
  5
32C
100
AcDbEntity
  8
2
370
    50
100
AcDbLine
 10
-252.264205
 20
-219.745521
 30
0.0
 11
-251.264205
 21
-220.745521
 31
0.0
  0
LINE
  5
32D
100
AcDbEntity
  8
2
370
    50
100
AcDbLine
 10
-270.264205
 20
-219.745521
 30
0.0
 11
-271.264205
 21
-220.745521
 31
0.0
  0
LINE
  5
32E
100
AcDbEntity
  8
2
370
    50
100
AcDbLine
 10
-270.264205
 20
-219.745521
 30
0.0
 11
-252.264205
 21
-219.745521
 31
0.0
  0
LINE
  5
32F
100
AcDbEntity
  8
2
370
    50
100
AcDbLine
 10
-251.264205
 20
-220.745521
 30
0.0
 11
-271.264205
 21
-220.745521
 31
0.0
  0
LINE
  5
330
100
AcDbEntity
  8
2
370
    50
100
AcDbLine
 10
-253.764205
 20
-219.745521
 30
0.0
 11
-253.764205
 21
-219.345521
 31
0.0
  0
LINE
  5
331
100
AcDbEntity
  8
2
370
    50
100
AcDbLine
 10
-268.764205
 20
-219.745521
 30
0.0
 11
-268.764205
 21
-219.345521
 31
0.0
  0
LINE
  5
332
100
AcDbEntity
  8
2
370
    50
100
AcDbLine
 10
-251.264205
 20
-220.745521
 30
0.0
 11
-251.264205
 21
-229.545521
 31
0.0
  0
LINE
  5
333
100
AcDbEntity
  8
2
370
    50
100
AcDbLine
 10
-271.264205
 20
-220.745521
 30
0.0
 11
-271.264205
 21
-229.545521
 31
0.0
  0
LINE
  5
334
100
AcDbEntity
  8
2
370
    50
100
AcDbLine
 10
-271.591073
 20
-229.545521
 30
0.0
 11
-249.264205
 21
-229.545521
 31
0.0
  0
LINE
  5
335
100
AcDbEntity
  8
2
370
    50
100
AcDbLine
 10
-247.407799
 20
-231.401928
 30
0.0
 11
-247.407799
 21
-238.689115
 31
0.0
  0
LINE
  5
336
100
AcDbEntity
  8
2
370
    50
100
AcDbLine
 10
-275.120612
 20
-238.689115
 30
0.0
 11
-275.120612
 21
-231.401928
 31
0.0
  0
LINE
  5
337
100
AcDbEntity
  8
2
370
    50
100
AcDbLine
 10
-273.264205
 20
-240.545521
 30
0.0
 11
-249.264205
 21
-240.545521
 31
0.0
  0
LINE
  5
338
100
AcDbEntity
  8
2
370
    50
100
AcDbLine
 10
-254.336002
 20
-238.689115
 30
0.0
 11
-254.336002
 21
-231.401928
 31
0.0
  0
LINE
  5
339
100
AcDbEntity
  8
2
370
    50
100
AcDbLine
 10
-268.192408
 20
-238.689115
 30
0.0
 11
-268.192408
 21
-231.401928
 31
0.0
  0
LINE
  5
33A
100
AcDbEntity
  8
2
370
    50
100
AcDbLine
 10
-273.264205
 20
-229.545521
 30
0.0
 11
-249.264205
 21
-229.545521
 31
0.0
  0
LINE
  5
33B
100
AcDbEntity
  8
2
370
    50
100
AcDbLine
 10
-249.264205
 20
-229.545521
 30
0.0
 11
-247.407799
 21
-231.401928
 31
0.0
  0
LINE
  5
33C
100
AcDbEntity
  8
2
370
    50
100
AcDbLine
 10
-273.264205
 20
-240.545521
 30
0.0
 11
-275.120612
 21
-238.689115
 31
0.0
  0
LINE
  5
33D
100
AcDbEntity
  8
2
370
    50
100
AcDbLine
 10
-273.264205
 20
-229.545521
 30
0.0
 11
-275.120612
 21
-231.401928
 31
0.0
  0
LINE
  5
33E
100
AcDbEntity
  8
2
370
    50
100
AcDbLine
 10
-249.264205
 20
-240.545521
 30
0.0
 11
-247.407799
 21
-238.689115
 31
0.0
  0
ARC
  5
33F
100
AcDbEntity
  8
2
370
    50
100
AcDbCircle
 10
-261.264205
 20
-243.401928
 30
0.0
 40
13.856406
100
AcDbArc
 50
60.0
 51
120.0
  0
ARC
  5
340
100
AcDbEntity
  8
2
370
    50
100
AcDbCircle
 10
-261.264205
 20
-226.689115
 30
0.0
 40
13.856406
100
AcDbArc
 50
240.0
 51
300.0
  0
ARC
  5
341
100
AcDbEntity
  8
2
370
    50
100
AcDbCircle
 10
-250.937338
 20
-233.584821
 30
0.0
 40
4.039299
100
AcDbArc
 50
45.0
 51
147.288191
  0
ARC
  5
342
100
AcDbEntity
  8
2
370
    50
100
AcDbCircle
 10
-250.937338
 20
-236.506222
 30
0.0
 40
4.039299
100
AcDbArc
 50
212.711809
 51
315.0
  0
ARC
  5
343
100
AcDbEntity
  8
2
370
    50
100
AcDbCircle
 10
-271.591073
 20
-233.584821
 30
0.0
 40
4.039299
100
AcDbArc
 50
32.711809
 51
135.0
  0
ARC
  5
344
100
AcDbEntity
  8
2
370
    50
100
AcDbCircle
 10
-271.591073
 20
-236.506222
 30
0.0
 40
4.039299
100
AcDbArc
 50
225.0
 51
327.288191
  0
POINT
  5
345
100
AcDbEntity
  8
2
370
    50
100
AcDbPoint
 10
-261.264411
 20
-219.74627
 30
0.0
  0
POINT
  5
346
100
AcDbEntity
  8
2
370
    50
100
AcDbPoint
 10
-261.264205
 20
-219.745521
 30
0.0
  0
LINE
  5
347
100
AcDbEntity
  8
2
370
    50
100
AcDbLine
 10
-202.264411
 20
-121.676531
 30
0.0
 11
-202.264411
 21
-116.353882
 31
0.0
  0
LINE
  5
348
100
AcDbEntity
  8
2
370
    50
100
AcDbLine
 10
-190.264411
 20
-121.676531
 30
0.0
 11
-190.264411
 21
-116.353882
 31
0.0
  0
LINE
  5
349
100
AcDbEntity
  8
2
370
    50
100
AcDbLine
 10
-193.866495
 20
-116.353882
 30
0.0
 11
-193.866495
 21
-121.676531
 31
0.0
  0
LINE
  5
34A
100
AcDbEntity
  8
2
370
    50
100
AcDbLine
 10
-192.700229
 20
-116.353882
 30
0.0
 11
-192.700229
 21
-121.676531
 31
0.0
  0
LINE
  5
34B
100
AcDbEntity
  8
2
370
    50
100
AcDbLine
 10
-190.302313
 20
-116.353882
 30
0.0
 11
-190.302313
 21
-121.676531
 31
0.0
  0
LINE
  5
34C
100
AcDbEntity
  8
2
370
    50
100
AcDbLine
 10
-190.764411
 20
-121.965206
 30
0.0
 11
-190.264411
 21
-121.676531
 31
0.0
  0
LINE
  5
34D
100
AcDbEntity
  8
2
370
    50
100
AcDbLine
 10
-192.700229
 20
-121.676531
 30
0.0
 11
-193.866495
 21
-121.676531
 31
0.0
  0
LINE
  5
34E
100
AcDbEntity
  8
2
370
    50
100
AcDbLine
 10
-202.264411
 20
-121.676531
 30
0.0
 11
-201.764411
 21
-121.965206
 31
0.0
  0
LINE
  5
34F
100
AcDbEntity
  8
2
370
    50
100
AcDbLine
 10
-202.264411
 20
-116.353882
 30
0.0
 11
-201.764411
 21
-116.065206
 31
0.0
  0
ARC
  5
350
100
AcDbEntity
  8
2
370
    50
100
AcDbCircle
 10
-196.264411
 20
-111.861577
 30
0.0
 40
10.10363
100
AcDbArc
 50
270.0
 51
283.729133
  0
ARC
  5
351
100
AcDbEntity
  8
2
370
    50
100
AcDbCircle
 10
-196.264411
 20
-126.168836
 30
0.0
 40
10.10363
100
AcDbArc
 50
76.270867
 51
90.0
  0
LINE
  5
352
100
AcDbEntity
  8
2
370
    50
100
AcDbLine
 10
-192.700229
 20
-116.353882
 30
0.0
 11
-193.866495
 21
-116.353882
 31
0.0
  0
LINE
  5
353
100
AcDbEntity
  8
2
370
    50
100
AcDbLine
 10
-190.264411
 20
-121.676531
 30
0.0
 11
-190.302313
 21
-121.676531
 31
0.0
  0
ARC
  5
354
100
AcDbEntity
  8
2
370
    50
100
AcDbCircle
 10
-191.501271
 20
-119.331046
 30
0.0
 40
2.634161
100
AcDbArc
 50
242.924933
 51
297.075067
  0
ARC
  5
355
100
AcDbEntity
  8
2
370
    50
100
AcDbCircle
 10
-191.501271
 20
-118.699367
 30
0.0
 40
2.634161
100
AcDbArc
 50
62.924933
 51
117.075067
  0
ARC
  5
356
100
AcDbEntity
  8
2
370
    50
100
AcDbCircle
 10
-196.264411
 20
-111.861577
 30
0.0
 40
10.10363
100
AcDbArc
 50
256.270867
 51
270.0
  0
LINE
  5
357
100
AcDbEntity
  8
2
370
    50
100
AcDbLine
 10
-199.828593
 20
-121.676531
 30
0.0
 11
-198.662327
 21
-121.676531
 31
0.0
  0
ARC
  5
358
100
AcDbEntity
  8
2
370
    50
100
AcDbCircle
 10
-201.027551
 20
-119.331046
 30
0.0
 40
2.634161
100
AcDbArc
 50
242.924933
 51
297.075067
  0
LINE
  5
359
100
AcDbEntity
  8
2
370
    50
100
AcDbLine
 10
-202.226508
 20
-121.676531
 30
0.0
 11
-202.264411
 21
-121.676531
 31
0.0
  0
LINE
  5
35A
100
AcDbEntity
  8
2
370
    50
100
AcDbLine
 10
-201.764411
 20
-121.965206
 30
0.0
 11
-190.764411
 21
-121.965206
 31
0.0
  0
LINE
  5
35B
100
AcDbEntity
  8
2
370
    50
100
AcDbLine
 10
-202.864411
 20
-150.965206
 30
0.0
 11
-196.264411
 21
-150.965206
 31
0.0
  0
LINE
  5
35C
100
AcDbEntity
  8
2
370
    50
100
AcDbLine
 10
-202.864411
 20
-145.465206
 30
0.0
 11
-196.264411
 21
-145.465206
 31
0.0
  0
LINE
  5
35D
100
AcDbEntity
  8
2
370
    50
100
AcDbLine
 10
-202.864411
 20
-143.465206
 30
0.0
 11
-196.264411
 21
-143.465206
 31
0.0
  0
LINE
  5
35E
100
AcDbEntity
  8
2
370
    50
100
AcDbLine
 10
-202.864411
 20
-138.465206
 30
0.0
 11
-196.264411
 21
-138.465206
 31
0.0
  0
LINE
  5
35F
100
AcDbEntity
  8
2
370
    50
100
AcDbLine
 10
-202.864411
 20
-136.465206
 30
0.0
 11
-196.264411
 21
-136.465206
 31
0.0
  0
LINE
  5
360
100
AcDbEntity
  8
2
370
    50
100
AcDbLine
 10
-202.864411
 20
-131.465206
 30
0.0
 11
-196.264411
 21
-131.465206
 31
0.0
  0
LINE
  5
361
100
AcDbEntity
  8
2
370
    50
100
AcDbLine
 10
-202.864411
 20
-129.465206
 30
0.0
 11
-196.264411
 21
-129.465206
 31
0.0
  0
LINE
  5
362
100
AcDbEntity
  8
2
370
    50
100
AcDbLine
 10
-203.264411
 20
-150.165206
 30
0.0
 11
-203.264411
 21
-146.265206
 31
0.0
  0
LINE
  5
363
100
AcDbEntity
  8
2
370
    50
100
AcDbLine
 10
-203.264411
 20
-142.665206
 30
0.0
 11
-203.264411
 21
-139.265206
 31
0.0
  0
LINE
  5
364
100
AcDbEntity
  8
2
370
    50
100
AcDbLine
 10
-203.264411
 20
-135.665206
 30
0.0
 11
-203.264411
 21
-132.265206
 31
0.0
  0
LINE
  5
365
100
AcDbEntity
  8
2
370
    50
100
AcDbLine
 10
-203.264411
 20
-128.665206
 30
0.0
 11
-203.264411
 21
-122.765206
 31
0.0
  0
LINE
  5
366
100
AcDbEntity
  8
2
370
    50
100
AcDbLine
 10
-202.864411
 20
-131.465206
 30
0.0
 11
-202.864411
 21
-129.465206
 31
0.0
  0
LINE
  5
367
100
AcDbEntity
  8
2
370
    50
100
AcDbLine
 10
-202.864411
 20
-145.465206
 30
0.0
 11
-202.864411
 21
-143.465206
 31
0.0
  0
LINE
  5
368
100
AcDbEntity
  8
2
370
    50
100
AcDbLine
 10
-202.864411
 20
-138.465206
 30
0.0
 11
-202.864411
 21
-136.465206
 31
0.0
  0
ARC
  5
369
100
AcDbEntity
  8
2
370
    50
100
AcDbCircle
 10
-202.264411
 20
-128.665206
 30
0.0
 40
1.0
100
AcDbArc
 50
180.0
 51
233.130102
  0
ARC
  5
36A
100
AcDbEntity
  8
2
370
    50
100
AcDbCircle
 10
-202.264411
 20
-132.265206
 30
0.0
 40
1.0
100
AcDbArc
 50
126.869898
 51
180.0
  0
ARC
  5
36B
100
AcDbEntity
  8
2
370
    50
100
AcDbCircle
 10
-202.264411
 20
-135.665206
 30
0.0
 40
1.0
100
AcDbArc
 50
180.0
 51
233.130102
  0
ARC
  5
36C
100
AcDbEntity
  8
2
370
    50
100
AcDbCircle
 10
-202.264411
 20
-139.265206
 30
0.0
 40
1.0
100
AcDbArc
 50
126.869898
 51
180.0
  0
ARC
  5
36D
100
AcDbEntity
  8
2
370
    50
100
AcDbCircle
 10
-202.264411
 20
-142.665206
 30
0.0
 40
1.0
100
AcDbArc
 50
180.0
 51
233.130102
  0
ARC
  5
36E
100
AcDbEntity
  8
2
370
    50
100
AcDbCircle
 10
-202.264411
 20
-146.265206
 30
0.0
 40
1.0
100
AcDbArc
 50
126.869898
 51
180.0
  0
ARC
  5
36F
100
AcDbEntity
  8
2
370
    50
100
AcDbCircle
 10
-202.264411
 20
-150.165206
 30
0.0
 40
1.0
100
AcDbArc
 50
180.0
 51
233.130102
  0
LINE
  5
370
100
AcDbEntity
  8
2
370
    50
100
AcDbLine
 10
-189.664411
 20
-150.965206
 30
0.0
 11
-196.264411
 21
-150.965206
 31
0.0
  0
ARC
  5
371
100
AcDbEntity
  8
2
370
    50
100
AcDbCircle
 10
-190.264411
 20
-150.165206
 30
0.0
 40
1.0
100
AcDbArc
 50
306.869898
 51
360.0
  0
LINE
  5
372
100
AcDbEntity
  8
2
370
    50
100
AcDbLine
 10
-189.264411
 20
-150.165206
 30
0.0
 11
-189.264411
 21
-146.265206
 31
0.0
  0
ARC
  5
373
100
AcDbEntity
  8
2
370
    50
100
AcDbCircle
 10
-190.264411
 20
-146.265206
 30
0.0
 40
1.0
100
AcDbArc
 50
360.0
 51
53.130102
  0
LINE
  5
374
100
AcDbEntity
  8
2
370
    50
100
AcDbLine
 10
-189.664411
 20
-145.465206
 30
0.0
 11
-189.664411
 21
-143.465206
 31
0.0
  0
LINE
  5
375
100
AcDbEntity
  8
2
370
    50
100
AcDbLine
 10
-189.664411
 20
-145.465206
 30
0.0
 11
-196.264411
 21
-145.465206
 31
0.0
  0
LINE
  5
376
100
AcDbEntity
  8
2
370
    50
100
AcDbLine
 10
-189.664411
 20
-143.465206
 30
0.0
 11
-196.264411
 21
-143.465206
 31
0.0
  0
ARC
  5
377
100
AcDbEntity
  8
2
370
    50
100
AcDbCircle
 10
-190.264411
 20
-142.665206
 30
0.0
 40
1.0
100
AcDbArc
 50
306.869898
 51
360.0
  0
LINE
  5
378
100
AcDbEntity
  8
2
370
    50
100
AcDbLine
 10
-189.264411
 20
-142.665206
 30
0.0
 11
-189.264411
 21
-139.265206
 31
0.0
  0
ARC
  5
379
100
AcDbEntity
  8
2
370
    50
100
AcDbCircle
 10
-190.264411
 20
-139.265206
 30
0.0
 40
1.0
100
AcDbArc
 50
360.0
 51
53.130102
  0
LINE
  5
37A
100
AcDbEntity
  8
2
370
    50
100
AcDbLine
 10
-189.664411
 20
-138.465206
 30
0.0
 11
-196.264411
 21
-138.465206
 31
0.0
  0
LINE
  5
37B
100
AcDbEntity
  8
2
370
    50
100
AcDbLine
 10
-189.664411
 20
-138.465206
 30
0.0
 11
-189.664411
 21
-136.465206
 31
0.0
  0
LINE
  5
37C
100
AcDbEntity
  8
2
370
    50
100
AcDbLine
 10
-189.664411
 20
-136.465206
 30
0.0
 11
-196.264411
 21
-136.465206
 31
0.0
  0
ARC
  5
37D
100
AcDbEntity
  8
2
370
    50
100
AcDbCircle
 10
-190.264411
 20
-135.665206
 30
0.0
 40
1.0
100
AcDbArc
 50
306.869898
 51
360.0
  0
LINE
  5
37E
100
AcDbEntity
  8
2
370
    50
100
AcDbLine
 10
-189.264411
 20
-135.665206
 30
0.0
 11
-189.264411
 21
-132.265206
 31
0.0
  0
ARC
  5
37F
100
AcDbEntity
  8
2
370
    50
100
AcDbCircle
 10
-190.264411
 20
-132.265206
 30
0.0
 40
1.0
100
AcDbArc
 50
360.0
 51
53.130102
  0
LINE
  5
380
100
AcDbEntity
  8
2
370
    50
100
AcDbLine
 10
-189.664411
 20
-131.465206
 30
0.0
 11
-196.264411
 21
-131.465206
 31
0.0
  0
LINE
  5
381
100
AcDbEntity
  8
2
370
    50
100
AcDbLine
 10
-189.664411
 20
-131.465206
 30
0.0
 11
-189.664411
 21
-129.465206
 31
0.0
  0
LINE
  5
382
100
AcDbEntity
  8
2
370
    50
100
AcDbLine
 10
-189.664411
 20
-129.465206
 30
0.0
 11
-196.264411
 21
-129.465206
 31
0.0
  0
ARC
  5
383
100
AcDbEntity
  8
2
370
    50
100
AcDbCircle
 10
-190.264411
 20
-128.665206
 30
0.0
 40
1.0
100
AcDbArc
 50
306.869898
 51
360.0
  0
LINE
  5
384
100
AcDbEntity
  8
2
370
    50
100
AcDbLine
 10
-189.264411
 20
-128.665206
 30
0.0
 11
-189.264411
 21
-122.765206
 31
0.0
  0
ARC
  5
385
100
AcDbEntity
  8
2
370
    50
100
AcDbCircle
 10
-190.264411
 20
-122.765206
 30
0.0
 40
1.0
100
AcDbArc
 50
360.0
 51
53.130102
  0
LINE
  5
386
100
AcDbEntity
  8
2
370
    50
100
AcDbLine
 10
-202.864411
 20
-121.965206
 30
0.0
 11
-189.664411
 21
-121.965206
 31
0.0
  0
ARC
  5
387
100
AcDbEntity
  8
2
370
    50
100
AcDbCircle
 10
-202.264411
 20
-122.765206
 30
0.0
 40
1.0
100
AcDbArc
 50
126.869898
 51
180.0
  0
LINE
  5
388
100
AcDbEntity
  8
2
370
    50
100
AcDbLine
 10
-202.714411
 20
-187.705241
 30
0.0
 11
-202.714411
 21
-150.965206
 31
0.0
  0
LINE
  5
389
100
AcDbEntity
  8
2
370
    50
100
AcDbLine
 10
-189.814411
 20
-187.705241
 30
0.0
 11
-189.814411
 21
-150.965206
 31
0.0
  0
ARC
  5
38A
100
AcDbEntity
  8
2
370
    50
100
AcDbCircle
 10
-196.264411
 20
-126.168836
 30
0.0
 40
10.10363
100
AcDbArc
 50
90.0
 51
103.729133
  0
LINE
  5
38B
100
AcDbEntity
  8
2
370
    50
100
AcDbLine
 10
-199.828593
 20
-116.353882
 30
0.0
 11
-198.662327
 21
-116.353882
 31
0.0
  0
ARC
  5
38C
100
AcDbEntity
  8
2
370
    50
100
AcDbCircle
 10
-201.027551
 20
-118.699367
 30
0.0
 40
2.634161
100
AcDbArc
 50
62.924933
 51
117.075067
  0
LINE
  5
38D
100
AcDbEntity
  8
2
370
    50
100
AcDbLine
 10
-198.662327
 20
-116.353882
 30
0.0
 11
-198.662327
 21
-121.676531
 31
0.0
  0
LINE
  5
38E
100
AcDbEntity
  8
2
370
    50
100
AcDbLine
 10
-199.828593
 20
-116.353882
 30
0.0
 11
-199.828593
 21
-121.676531
 31
0.0
  0
LINE
  5
38F
100
AcDbEntity
  8
2
370
    50
100
AcDbLine
 10
-202.226508
 20
-116.353882
 30
0.0
 11
-202.226508
 21
-121.676531
 31
0.0
  0
ARC
  5
390
100
AcDbEntity
  8
2
370
    50
100
AcDbCircle
 10
-199.489366
 20
-183.405181
 30
0.0
 40
5.375075
100
AcDbArc
 50
233.130102
 51
306.869898
  0
ARC
  5
391
100
AcDbEntity
  8
2
370
    50
100
AcDbCircle
 10
-193.039275
 20
-192.005301
 30
0.0
 40
5.375075
100
AcDbArc
 50
53.130102
 51
126.869898
  0
ARC
  5
392
100
AcDbEntity
  8
2
370
    50
100
AcDbCircle
 10
-199.489366
 20
-192.005301
 30
0.0
 40
5.375075
100
AcDbArc
 50
53.130102
 51
126.869898
  0
LINE
  5
393
100
AcDbEntity
  8
2
370
    50
100
AcDbLine
 10
-217.264411
 20
-121.676531
 30
0.0
 11
-217.264411
 21
-116.353882
 31
0.0
  0
LINE
  5
394
100
AcDbEntity
  8
2
370
    50
100
AcDbLine
 10
-205.264411
 20
-121.676531
 30
0.0
 11
-205.264411
 21
-116.353882
 31
0.0
  0
LINE
  5
395
100
AcDbEntity
  8
2
370
    50
100
AcDbLine
 10
-208.866495
 20
-116.353882
 30
0.0
 11
-208.866495
 21
-121.676531
 31
0.0
  0
LINE
  5
396
100
AcDbEntity
  8
2
370
    50
100
AcDbLine
 10
-207.700229
 20
-116.353882
 30
0.0
 11
-207.700229
 21
-121.676531
 31
0.0
  0
LINE
  5
397
100
AcDbEntity
  8
2
370
    50
100
AcDbLine
 10
-205.302313
 20
-116.353882
 30
0.0
 11
-205.302313
 21
-121.676531
 31
0.0
  0
LINE
  5
398
100
AcDbEntity
  8
2
370
    50
100
AcDbLine
 10
-205.764411
 20
-121.965206
 30
0.0
 11
-205.264411
 21
-121.676531
 31
0.0
  0
LINE
  5
399
100
AcDbEntity
  8
2
370
    50
100
AcDbLine
 10
-207.700229
 20
-121.676531
 30
0.0
 11
-208.866495
 21
-121.676531
 31
0.0
  0
LINE
  5
39A
100
AcDbEntity
  8
2
370
    50
100
AcDbLine
 10
-217.264411
 20
-121.676531
 30
0.0
 11
-216.764411
 21
-121.965206
 31
0.0
  0
LINE
  5
39B
100
AcDbEntity
  8
2
370
    50
100
AcDbLine
 10
-217.264411
 20
-116.353882
 30
0.0
 11
-216.764411
 21
-116.065206
 31
0.0
  0
ARC
  5
39C
100
AcDbEntity
  8
2
370
    50
100
AcDbCircle
 10
-211.264411
 20
-111.861577
 30
0.0
 40
10.10363
100
AcDbArc
 50
270.0
 51
283.729133
  0
ARC
  5
39D
100
AcDbEntity
  8
2
370
    50
100
AcDbCircle
 10
-211.264411
 20
-126.168836
 30
0.0
 40
10.10363
100
AcDbArc
 50
76.270867
 51
90.0
  0
LINE
  5
39E
100
AcDbEntity
  8
2
370
    50
100
AcDbLine
 10
-207.700229
 20
-116.353882
 30
0.0
 11
-208.866495
 21
-116.353882
 31
0.0
  0
LINE
  5
39F
100
AcDbEntity
  8
2
370
    50
100
AcDbLine
 10
-205.264411
 20
-121.676531
 30
0.0
 11
-205.302313
 21
-121.676531
 31
0.0
  0
ARC
  5
3A0
100
AcDbEntity
  8
2
370
    50
100
AcDbCircle
 10
-206.501271
 20
-119.331046
 30
0.0
 40
2.634161
100
AcDbArc
 50
242.924933
 51
297.075067
  0
ARC
  5
3A1
100
AcDbEntity
  8
2
370
    50
100
AcDbCircle
 10
-206.501271
 20
-118.699367
 30
0.0
 40
2.634161
100
AcDbArc
 50
62.924933
 51
117.075067
  0
ARC
  5
3A2
100
AcDbEntity
  8
2
370
    50
100
AcDbCircle
 10
-211.264411
 20
-111.861577
 30
0.0
 40
10.10363
100
AcDbArc
 50
256.270867
 51
270.0
  0
LINE
  5
3A3
100
AcDbEntity
  8
2
370
    50
100
AcDbLine
 10
-214.828593
 20
-121.676531
 30
0.0
 11
-213.662327
 21
-121.676531
 31
0.0
  0
ARC
  5
3A4
100
AcDbEntity
  8
2
370
    50
100
AcDbCircle
 10
-216.027551
 20
-119.331046
 30
0.0
 40
2.634161
100
AcDbArc
 50
242.924933
 51
297.075067
  0
LINE
  5
3A5
100
AcDbEntity
  8
2
370
    50
100
AcDbLine
 10
-217.226508
 20
-121.676531
 30
0.0
 11
-217.264411
 21
-121.676531
 31
0.0
  0
LINE
  5
3A6
100
AcDbEntity
  8
2
370
    50
100
AcDbLine
 10
-216.764411
 20
-121.965206
 30
0.0
 11
-205.764411
 21
-121.965206
 31
0.0
  0
LINE
  5
3A7
100
AcDbEntity
  8
2
370
    50
100
AcDbLine
 10
-217.864411
 20
-150.965206
 30
0.0
 11
-211.264411
 21
-150.965206
 31
0.0
  0
LINE
  5
3A8
100
AcDbEntity
  8
2
370
    50
100
AcDbLine
 10
-217.864411
 20
-145.465206
 30
0.0
 11
-211.264411
 21
-145.465206
 31
0.0
  0
LINE
  5
3A9
100
AcDbEntity
  8
2
370
    50
100
AcDbLine
 10
-217.864411
 20
-143.465206
 30
0.0
 11
-211.264411
 21
-143.465206
 31
0.0
  0
LINE
  5
3AA
100
AcDbEntity
  8
2
370
    50
100
AcDbLine
 10
-217.864411
 20
-138.465206
 30
0.0
 11
-211.264411
 21
-138.465206
 31
0.0
  0
LINE
  5
3AB
100
AcDbEntity
  8
2
370
    50
100
AcDbLine
 10
-217.864411
 20
-136.465206
 30
0.0
 11
-211.264411
 21
-136.465206
 31
0.0
  0
LINE
  5
3AC
100
AcDbEntity
  8
2
370
    50
100
AcDbLine
 10
-217.864411
 20
-131.465206
 30
0.0
 11
-211.264411
 21
-131.465206
 31
0.0
  0
LINE
  5
3AD
100
AcDbEntity
  8
2
370
    50
100
AcDbLine
 10
-217.864411
 20
-129.465206
 30
0.0
 11
-211.264411
 21
-129.465206
 31
0.0
  0
LINE
  5
3AE
100
AcDbEntity
  8
2
370
    50
100
AcDbLine
 10
-218.264411
 20
-150.165206
 30
0.0
 11
-218.264411
 21
-146.265206
 31
0.0
  0
LINE
  5
3AF
100
AcDbEntity
  8
2
370
    50
100
AcDbLine
 10
-218.264411
 20
-142.665206
 30
0.0
 11
-218.264411
 21
-139.265206
 31
0.0
  0
LINE
  5
3B0
100
AcDbEntity
  8
2
370
    50
100
AcDbLine
 10
-218.264411
 20
-135.665206
 30
0.0
 11
-218.264411
 21
-132.265206
 31
0.0
  0
LINE
  5
3B1
100
AcDbEntity
  8
2
370
    50
100
AcDbLine
 10
-218.264411
 20
-128.665206
 30
0.0
 11
-218.264411
 21
-122.765206
 31
0.0
  0
LINE
  5
3B2
100
AcDbEntity
  8
2
370
    50
100
AcDbLine
 10
-217.864411
 20
-131.465206
 30
0.0
 11
-217.864411
 21
-129.465206
 31
0.0
  0
LINE
  5
3B3
100
AcDbEntity
  8
2
370
    50
100
AcDbLine
 10
-217.864411
 20
-145.465206
 30
0.0
 11
-217.864411
 21
-143.465206
 31
0.0
  0
LINE
  5
3B4
100
AcDbEntity
  8
2
370
    50
100
AcDbLine
 10
-217.864411
 20
-138.465206
 30
0.0
 11
-217.864411
 21
-136.465206
 31
0.0
  0
ARC
  5
3B5
100
AcDbEntity
  8
2
370
    50
100
AcDbCircle
 10
-217.264411
 20
-128.665206
 30
0.0
 40
1.0
100
AcDbArc
 50
180.0
 51
233.130102
  0
ARC
  5
3B6
100
AcDbEntity
  8
2
370
    50
100
AcDbCircle
 10
-217.264411
 20
-132.265206
 30
0.0
 40
1.0
100
AcDbArc
 50
126.869898
 51
180.0
  0
ARC
  5
3B7
100
AcDbEntity
  8
2
370
    50
100
AcDbCircle
 10
-217.264411
 20
-135.665206
 30
0.0
 40
1.0
100
AcDbArc
 50
180.0
 51
233.130102
  0
ARC
  5
3B8
100
AcDbEntity
  8
2
370
    50
100
AcDbCircle
 10
-217.264411
 20
-139.265206
 30
0.0
 40
1.0
100
AcDbArc
 50
126.869898
 51
180.0
  0
ARC
  5
3B9
100
AcDbEntity
  8
2
370
    50
100
AcDbCircle
 10
-217.264411
 20
-142.665206
 30
0.0
 40
1.0
100
AcDbArc
 50
180.0
 51
233.130102
  0
ARC
  5
3BA
100
AcDbEntity
  8
2
370
    50
100
AcDbCircle
 10
-217.264411
 20
-146.265206
 30
0.0
 40
1.0
100
AcDbArc
 50
126.869898
 51
180.0
  0
ARC
  5
3BB
100
AcDbEntity
  8
2
370
    50
100
AcDbCircle
 10
-217.264411
 20
-150.165206
 30
0.0
 40
1.0
100
AcDbArc
 50
180.0
 51
233.130102
  0
LINE
  5
3BC
100
AcDbEntity
  8
2
370
    50
100
AcDbLine
 10
-204.664411
 20
-150.965206
 30
0.0
 11
-211.264411
 21
-150.965206
 31
0.0
  0
ARC
  5
3BD
100
AcDbEntity
  8
2
370
    50
100
AcDbCircle
 10
-205.264411
 20
-150.165206
 30
0.0
 40
1.0
100
AcDbArc
 50
306.869898
 51
360.0
  0
LINE
  5
3BE
100
AcDbEntity
  8
2
370
    50
100
AcDbLine
 10
-204.264411
 20
-150.165206
 30
0.0
 11
-204.264411
 21
-146.265206
 31
0.0
  0
ARC
  5
3BF
100
AcDbEntity
  8
2
370
    50
100
AcDbCircle
 10
-205.264411
 20
-146.265206
 30
0.0
 40
1.0
100
AcDbArc
 50
360.0
 51
53.130102
  0
LINE
  5
3C0
100
AcDbEntity
  8
2
370
    50
100
AcDbLine
 10
-204.664411
 20
-145.465206
 30
0.0
 11
-204.664411
 21
-143.465206
 31
0.0
  0
LINE
  5
3C1
100
AcDbEntity
  8
2
370
    50
100
AcDbLine
 10
-204.664411
 20
-145.465206
 30
0.0
 11
-211.264411
 21
-145.465206
 31
0.0
  0
LINE
  5
3C2
100
AcDbEntity
  8
2
370
    50
100
AcDbLine
 10
-204.664411
 20
-143.465206
 30
0.0
 11
-211.264411
 21
-143.465206
 31
0.0
  0
ARC
  5
3C3
100
AcDbEntity
  8
2
370
    50
100
AcDbCircle
 10
-205.264411
 20
-142.665206
 30
0.0
 40
1.0
100
AcDbArc
 50
306.869898
 51
360.0
  0
LINE
  5
3C4
100
AcDbEntity
  8
2
370
    50
100
AcDbLine
 10
-204.264411
 20
-142.665206
 30
0.0
 11
-204.264411
 21
-139.265206
 31
0.0
  0
ARC
  5
3C5
100
AcDbEntity
  8
2
370
    50
100
AcDbCircle
 10
-205.264411
 20
-139.265206
 30
0.0
 40
1.0
100
AcDbArc
 50
360.0
 51
53.130102
  0
LINE
  5
3C6
100
AcDbEntity
  8
2
370
    50
100
AcDbLine
 10
-204.664411
 20
-138.465206
 30
0.0
 11
-211.264411
 21
-138.465206
 31
0.0
  0
LINE
  5
3C7
100
AcDbEntity
  8
2
370
    50
100
AcDbLine
 10
-204.664411
 20
-138.465206
 30
0.0
 11
-204.664411
 21
-136.465206
 31
0.0
  0
LINE
  5
3C8
100
AcDbEntity
  8
2
370
    50
100
AcDbLine
 10
-204.664411
 20
-136.465206
 30
0.0
 11
-211.264411
 21
-136.465206
 31
0.0
  0
ARC
  5
3C9
100
AcDbEntity
  8
2
370
    50
100
AcDbCircle
 10
-205.264411
 20
-135.665206
 30
0.0
 40
1.0
100
AcDbArc
 50
306.869898
 51
360.0
  0
LINE
  5
3CA
100
AcDbEntity
  8
2
370
    50
100
AcDbLine
 10
-204.264411
 20
-135.665206
 30
0.0
 11
-204.264411
 21
-132.265206
 31
0.0
  0
ARC
  5
3CB
100
AcDbEntity
  8
2
370
    50
100
AcDbCircle
 10
-205.264411
 20
-132.265206
 30
0.0
 40
1.0
100
AcDbArc
 50
360.0
 51
53.130102
  0
LINE
  5
3CC
100
AcDbEntity
  8
2
370
    50
100
AcDbLine
 10
-204.664411
 20
-131.465206
 30
0.0
 11
-211.264411
 21
-131.465206
 31
0.0
  0
LINE
  5
3CD
100
AcDbEntity
  8
2
370
    50
100
AcDbLine
 10
-204.664411
 20
-131.465206
 30
0.0
 11
-204.664411
 21
-129.465206
 31
0.0
  0
LINE
  5
3CE
100
AcDbEntity
  8
2
370
    50
100
AcDbLine
 10
-204.664411
 20
-129.465206
 30
0.0
 11
-211.264411
 21
-129.465206
 31
0.0
  0
ARC
  5
3CF
100
AcDbEntity
  8
2
370
    50
100
AcDbCircle
 10
-205.264411
 20
-128.665206
 30
0.0
 40
1.0
100
AcDbArc
 50
306.869898
 51
360.0
  0
LINE
  5
3D0
100
AcDbEntity
  8
2
370
    50
100
AcDbLine
 10
-204.264411
 20
-128.665206
 30
0.0
 11
-204.264411
 21
-122.765206
 31
0.0
  0
ARC
  5
3D1
100
AcDbEntity
  8
2
370
    50
100
AcDbCircle
 10
-205.264411
 20
-122.765206
 30
0.0
 40
1.0
100
AcDbArc
 50
360.0
 51
53.130102
  0
LINE
  5
3D2
100
AcDbEntity
  8
2
370
    50
100
AcDbLine
 10
-217.864411
 20
-121.965206
 30
0.0
 11
-204.664411
 21
-121.965206
 31
0.0
  0
ARC
  5
3D3
100
AcDbEntity
  8
2
370
    50
100
AcDbCircle
 10
-217.264411
 20
-122.765206
 30
0.0
 40
1.0
100
AcDbArc
 50
126.869898
 51
180.0
  0
LINE
  5
3D4
100
AcDbEntity
  8
2
370
    50
100
AcDbLine
 10
-217.714411
 20
-187.705241
 30
0.0
 11
-217.714411
 21
-150.965206
 31
0.0
  0
LINE
  5
3D5
100
AcDbEntity
  8
2
370
    50
100
AcDbLine
 10
-204.814411
 20
-187.705241
 30
0.0
 11
-204.814411
 21
-150.965206
 31
0.0
  0
ARC
  5
3D6
100
AcDbEntity
  8
2
370
    50
100
AcDbCircle
 10
-211.264411
 20
-126.168836
 30
0.0
 40
10.10363
100
AcDbArc
 50
90.0
 51
103.729133
  0
LINE
  5
3D7
100
AcDbEntity
  8
2
370
    50
100
AcDbLine
 10
-214.828593
 20
-116.353882
 30
0.0
 11
-213.662327
 21
-116.353882
 31
0.0
  0
ARC
  5
3D8
100
AcDbEntity
  8
2
370
    50
100
AcDbCircle
 10
-216.027551
 20
-118.699367
 30
0.0
 40
2.634161
100
AcDbArc
 50
62.924933
 51
117.075067
  0
LINE
  5
3D9
100
AcDbEntity
  8
2
370
    50
100
AcDbLine
 10
-213.662327
 20
-116.353882
 30
0.0
 11
-213.662327
 21
-121.676531
 31
0.0
  0
LINE
  5
3DA
100
AcDbEntity
  8
2
370
    50
100
AcDbLine
 10
-214.828593
 20
-116.353882
 30
0.0
 11
-214.828593
 21
-121.676531
 31
0.0
  0
LINE
  5
3DB
100
AcDbEntity
  8
2
370
    50
100
AcDbLine
 10
-217.226508
 20
-116.353882
 30
0.0
 11
-217.226508
 21
-121.676531
 31
0.0
  0
ARC
  5
3DC
100
AcDbEntity
  8
2
370
    50
100
AcDbCircle
 10
-214.489366
 20
-183.405181
 30
0.0
 40
5.375075
100
AcDbArc
 50
233.130102
 51
306.869898
  0
ARC
  5
3DD
100
AcDbEntity
  8
2
370
    50
100
AcDbCircle
 10
-208.039275
 20
-192.005301
 30
0.0
 40
5.375075
100
AcDbArc
 50
53.130102
 51
126.869898
  0
ARC
  5
3DE
100
AcDbEntity
  8
2
370
    50
100
AcDbCircle
 10
-214.489366
 20
-192.005301
 30
0.0
 40
5.375075
100
AcDbArc
 50
53.130102
 51
126.869898
  0
LINE
  5
3DF
100
AcDbEntity
  8
2
370
    50
100
AcDbLine
 10
-139.814411
 20
-175.545854
 30
0.0
 11
-139.814411
 21
-157.035038
 31
0.0
  0
LINE
  5
3E0
100
AcDbEntity
  8
2
370
    50
100
AcDbLine
 10
-152.714411
 20
-175.545854
 30
0.0
 11
-152.714411
 21
-157.035038
 31
0.0
  0
LINE
  5
3E1
100
AcDbEntity
  8
2
370
    50
100
AcDbLine
 10
-190.264411
 20
-116.353882
 30
0.0
 11
-190.76433
 21
-116.065206
 31
0.0
  0
LINE
  5
3E2
100
AcDbEntity
  8
2
370
    50
100
AcDbLine
 10
-217.226508
 20
-116.353882
 30
0.0
 11
-217.264411
 21
-116.353882
 31
0.0
  0
LINE
  5
3E3
100
AcDbEntity
  8
2
370
    50
100
AcDbLine
 10
-205.264411
 20
-116.353882
 30
0.0
 11
-205.302313
 21
-116.353882
 31
0.0
  0
LINE
  5
3E4
100
AcDbEntity
  8
2
370
    50
100
AcDbLine
 10
-205.264411
 20
-116.353882
 30
0.0
 11
-205.76433
 21
-116.065206
 31
0.0
  0
LINE
  5
3E5
100
AcDbEntity
  8
2
370
    50
100
AcDbLine
 10
-202.226508
 20
-116.353882
 30
0.0
 11
-202.264411
 21
-116.353882
 31
0.0
  0
LINE
  5
3E6
100
AcDbEntity
  8
2
370
    50
100
AcDbLine
 10
-190.264411
 20
-116.353882
 30
0.0
 11
-190.302313
 21
-116.353882
 31
0.0
  0
LINE
  5
3E7
100
AcDbEntity
  8
2
370
    25
  6
CENTER
100
AcDbLine
 10
115.160192
 20
122.934794
 30
0.0
 11
115.160192
 21
-116.065206
 31
0.0
  0
TEXT
  5
3E8
100
AcDbEntity
  8
3
370
    50
100
AcDbText
 10
143.996262
 20
-183.594681
 30
0.0
 40
6.0
  1
１３六角
 72
     5
 11
166.796262
 21
-183.594681
 31
0.0
100
AcDbText
  0
TEXT
  5
3E9
100
AcDbEntity
  8
3
370
    50
100
AcDbText
 10
142.636749
 20
25.562937
 30
0.0
 40
7.0
  1
湯側
 72
     5
 11
155.236749
 21
25.562937
 31
0.0
100
AcDbText
  0
TEXT
  5
3EA
100
AcDbEntity
  8
3
370
    50
100
AcDbText
 10
33.323111
 20
-24.946075
 30
0.0
 40
7.0
  1
水側
 72
     5
 11
45.923111
 21
-24.946075
 31
0.0
100
AcDbText
  0
DIMENSION
  5
3EB
100
AcDbEntity
  8
3
370
    25
100
AcDbDimension
  2
*D0
 10
248.27037
 20
-42.065206
 30
0.0
 11
240.27037
 21
-77.065206
 31
0.0
 71
     0
 72
     0
 41
0.0
 42
0.0
  3
Standard
100
AcDbAlignedDimension
 13
138.560192
 23
-112.065206
 33
0.0
 14
137.163086
 24
-42.065206
 34
0.0
 50
90.0
100
AcDbRotatedDimension
  0
DIMENSION
  5
3EC
100
AcDbEntity
  8
3
370
    25
100
AcDbDimension
  2
*D1
 10
-140.364411
 20
22.289969
 30
0.0
 11
-112.364219
 21
42.872473
 31
0.0
 70
     2
 71
     0
 72
     0
 41
0.0
 42
0.0
  3
Standard
100
AcDb2LineAngularDimension
 13
-120.844088
 23
2.167315
 33
0.0
 14
-140.364411
 24
-46.14718
 34
0.0
 15
-140.364411
 25
-46.14718
 35
0.0
 16
-122.862113
 26
43.89434
 36
0.0
1001
ACAD
1000
DSTYLE
1002
{
1070
   275
1070
     0
1070
   179
1070
     0
1002
}
  0
TEXT
  5
3ED
100
AcDbEntity
  8
3
370
    50
100
AcDbText
 10
-105.25415
 20
11.852744
 30
0.0
 40
7.0
  1
吐水
 72
     5
 11
-92.65415
 21
11.852744
 31
0.0
100
AcDbText
  0
TEXT
  5
3EE
100
AcDbEntity
  8
3
370
    50
100
AcDbText
 10
-165.230179
 20
36.259087
 30
0.0
 40
7.0
  1
止水
 72
     5
 11
-152.630179
 21
36.259087
 31
0.0
100
AcDbText
  0
POINT
  5
3EF
100
AcDbEntity
  8
3
370
    50
100
AcDbPoint
 10
115.160192
 20
-89.565206
 30
0.0
  0
ARC
  5
3F0
100
AcDbEntity
  8
3
370
    50
100
AcDbCircle
 10
113.660192
 20
237.028767
 30
0.0
 40
2.0
100
AcDbArc
 50
180.0
 51
270.0
  0
DIMENSION
  5
3F1
100
AcDbEntity
  8
3
370
    25
100
AcDbDimension
  2
*D2
 10
-227.664411
 20
-98.679977
 30
0.0
 11
-154.364411
 21
-94.179977
 31
0.0
 70
     1
 71
     0
 72
     0
 41
0.0
 42
0.0
  3
Standard
100
AcDbAlignedDimension
 13
-179.864411
 23
-111.565206
 33
0.0
 14
-227.664411
 24
-111.565206
 34
0.0
  0
TEXT
  5
3F2
100
AcDbEntity
  8
3
370
    50
100
AcDbText
 10
-172.355759
 20
-108.374985
 30
0.0
 40
7.0
  1
（取付穴φ３６±１）
 72
     5
 11
-103.755759
 21
-108.374985
 31
0.0
100
AcDbText
  0
TEXT
  5
3F3
100
AcDbEntity
  8
3
370
    50
100
AcDbText
 10
-6.488577
 20
-139.471114
 30
0.0
 40
7.0
  1
５～３０
 50
90.0
 72
     5
 11
-6.488577
 21
-112.871114
 31
0.0
100
AcDbText
  0
DIMENSION
  5
3F4
100
AcDbEntity
  8
3
370
    25
100
AcDbDimension
  2
*D3
 10
-5.488577
 20
-112.065206
 30
0.0
 11
-7.988577
 21
-125.471114
 31
0.0
 71
     0
 72
     0
 41
0.0
 42
0.0
  3
Standard
100
AcDbAlignedDimension
 13
97.960192
 23
-138.877021
 33
0.0
 14
91.760192
 24
-112.065206
 34
0.0
 50
90.0
100
AcDbRotatedDimension
  0
TEXT
  5
3F5
100
AcDbEntity
  8
3
370
    50
100
AcDbText
 10
290.832582
 20
-240.013492
 30
0.0
 40
6.0
  1
１　２
 72
     5
 11
307.632582
 21
-240.013492
 31
0.0
100
AcDbText
  0
TEXT
  5
3F6
100
AcDbEntity
  8
3
370
    50
100
AcDbText
 10
-59.392654
 20
-182.055364
 30
0.0
 40
7.0
  1
３５９
 50
90.0
 72
     5
 11
-59.392654
 21
-162.455364
 31
0.0
100
AcDbText
  0
DIMENSION
  5
3F7
100
AcDbEntity
  8
3
370
    25
100
AcDbDimension
  2
*D4
 10
-58.392654
 20
-112.065206
 30
0.0
 11
-60.892654
 21
-171.555364
 31
0.0
 71
     0
 72
     0
 41
0.0
 42
0.0
  3
Standard
100
AcDbAlignedDimension
 13
-146.264411
 23
-231.045521
 33
0.0
 14
-180.364411
 24
-112.065206
 34
0.0
 50
90.0
100
AcDbRotatedDimension
  0
LINE
  5
3F8
100
AcDbEntity
  8
3
370
    25
  6
CENTER
100
AcDbLine
 10
19.703333
 20
194.930952
 30
0.0
 11
115.160192
 21
275.028767
 31
0.0
  0
DIMENSION
  5
3F9
100
AcDbEntity
  8
3
370
    25
100
AcDbDimension
  2
*D5
 10
47.241625
 20
218.038323
 30
0.0
 11
-32.124484
 21
210.247662
 31
0.0
 70
     2
 71
     0
 72
     0
 41
0.0
 42
0.0
  3
Standard
100
AcDb2LineAngularDimension
 13
6.385711
 23
275.028767
 33
0.0
 14
115.160192
 24
275.028767
 34
0.0
 15
115.160192
 25
275.028767
 35
0.0
 16
-35.715696
 26
220.114435
 36
0.0
1001
ACAD
1000
DSTYLE
1002
{
1070
   275
1070
     0
1070
   179
1070
     0
1002
}
  0
TEXT
  5
3FA
100
AcDbEntity
  8
3
370
    50
100
AcDbText
 10
-61.374466
 20
244.522934
 30
0.0
 40
7.0
  1
（左右合計８０°）
 50
295.0
 72
     5
 11
-35.341181
 21
188.694374
 31
0.0
100
AcDbText
  0
CIRCLE
  5
3FB
100
AcDbEntity
  8
3
370
    50
100
AcDbCircle
 10
-166.264411
 20
-26.909762
 30
0.0
 40
1.0
  0
CIRCLE
  5
3FC
100
AcDbEntity
  8
3
370
    50
100
AcDbCircle
 10
-166.264411
 20
-33.315207
 30
0.0
 40
1.0
  0
TEXT
  5
3FD
100
AcDbEntity
  8
3
370
    50
100
AcDbText
 10
-264.537506
 20
-37.940807
 30
0.0
 40
7.0
  1
青色
 72
     5
 11
-251.937506
 21
-37.940807
 31
0.0
100
AcDbText
  0
TEXT
  5
3FE
100
AcDbEntity
  8
3
370
    50
100
AcDbText
 10
-265.232534
 20
-46.724646
 30
0.0
 40
7.0
  1
（水表示）
 72
     5
 11
-231.632534
 21
-46.724646
 31
0.0
100
AcDbText
  0
TEXT
  5
3FF
100
AcDbEntity
  8
3
370
    50
100
AcDbText
 10
-263.937485
 20
-22.175264
 30
0.0
 40
7.0
  1
（湯表示）
 72
     5
 11
-230.337485
 21
-22.175264
 31
0.0
100
AcDbText
  0
TEXT
  5
400
100
AcDbEntity
  8
3
370
    50
100
AcDbText
 10
-264.559326
 20
-13.261343
 30
0.0
 40
7.0
  1
赤色
 72
     5
 11
-251.959326
 21
-13.261343
 31
0.0
100
AcDbText
  0
LWPOLYLINE
  5
401
100
AcDbEntity
  8
3
370
    25
100
AcDbPolyline
 90
        3
 70
     0
 10
-167.104115
 20
-26.366717
 10
-176.954727
 20
-13.206251
 10
-229.716873
 20
-13.206251
  0
LINE
  5
406
100
AcDbEntity
  8
3
370
    25
100
AcDbLine
 10
-169.419367
 20
-23.27353
 30
0.0
 11
-170.248184
 21
-23.893899
 31
0.0
  0
LINE
  5
407
100
AcDbEntity
  8
3
370
    25
100
AcDbLine
 10
-170.248184
 20
-23.893899
 30
0.0
 11
-167.104115
 21
-26.366717
 31
0.0
  0
LINE
  5
408
100
AcDbEntity
  8
3
370
    25
100
AcDbLine
 10
-167.104115
 20
-26.366717
 30
0.0
 11
-168.59055
 21
-22.65316
 31
0.0
  0
LINE
  5
409
100
AcDbEntity
  8
3
370
    25
100
AcDbLine
 10
-168.59055
 20
-22.65316
 30
0.0
 11
-169.419367
 21
-23.27353
 31
0.0
  0
LWPOLYLINE
  5
40A
100
AcDbEntity
  8
3
370
    25
100
AcDbPolyline
 90
        3
 70
     0
 10
-166.688911
 20
-34.220635
 10
-171.867874
 20
-38.081905
 10
-229.78775
 20
-38.081905
  0
LINE
  5
40F
100
AcDbEntity
  8
3
370
    25
100
AcDbLine
 10
-169.78645
 20
-36.530062
 30
0.0
 11
-169.167641
 21
-37.360045
 31
0.0
  0
LINE
  5
410
100
AcDbEntity
  8
3
370
    25
100
AcDbLine
 10
-169.167641
 20
-37.360045
 30
0.0
 11
-166.688911
 21
-34.220635
 31
0.0
  0
LINE
  5
411
100
AcDbEntity
  8
3
370
    25
100
AcDbLine
 10
-166.688911
 20
-34.220635
 30
0.0
 11
-170.405259
 21
-35.700079
 31
0.0
  0
LINE
  5
412
100
AcDbEntity
  8
3
370
    25
100
AcDbLine
 10
-170.405259
 20
-35.700079
 30
0.0
 11
-169.78645
 21
-36.530062
 31
0.0
  0
LWPOLYLINE
  5
413
100
AcDbEntity
  8
3
370
    25
100
AcDbPolyline
 90
        3
 70
     0
 10
132.165746
 20
-175.047882
 10
141.365891
 20
-184.580811
 10
169.314056
 20
-184.580811
  0
LINE
  5
418
100
AcDbEntity
  8
3
370
    25
100
AcDbLine
 10
134.84884
 20
-177.828028
 30
0.0
 11
135.593778
 21
-177.109095
 31
0.0
  0
LINE
  5
419
100
AcDbEntity
  8
3
370
    25
100
AcDbLine
 10
135.593778
 20
-177.109095
 30
0.0
 11
132.165746
 21
-175.047882
 31
0.0
  0
LINE
  5
41A
100
AcDbEntity
  8
3
370
    25
100
AcDbLine
 10
132.165746
 20
-175.047882
 30
0.0
 11
134.103902
 21
-178.546961
 31
0.0
  0
LINE
  5
41B
100
AcDbEntity
  8
3
370
    25
100
AcDbLine
 10
134.103902
 20
-178.546961
 30
0.0
 11
134.84884
 21
-177.828028
 31
0.0
  0
DIMENSION
  5
41C
100
AcDbEntity
  8
3
370
    25
100
AcDbDimension
  2
*D6
 10
268.339569
 20
167.459794
 30
0.0
 11
249.839569
 21
17.197294
 31
0.0
 71
     0
 72
     0
 41
0.0
 42
0.0
  3
Standard
100
AcDbAlignedDimension
 13
138.560192
 23
-112.065206
 33
0.0
 14
80.160192
 24
167.459794
 34
0.0
 50
90.0
100
AcDbRotatedDimension
  0
TEXT
  5
41D
100
AcDbEntity
  8
3
370
    50
100
AcDbText
 10
4.660193
 20
-98.287415
 30
0.0
 40
7.0
  1
２００
 72
     5
 11
24.260193
 21
-98.287415
 31
0.0
100
AcDbText
  0
DIMENSION
  5
41E
100
AcDbEntity
  8
3
370
    25
100
AcDbDimension
  2
*D7
 10
-5.488577
 20
87.934794
 30
0.0
 11
-16.988577
 21
-15.565206
 31
0.0
 71
     0
 72
     0
 41
0.0
 42
0.0
  3
Standard
100
AcDbAlignedDimension
 13
91.760192
 23
-112.065206
 33
0.0
 14
-75.839808
 24
87.934794
 34
0.0
 50
90.0
100
AcDbRotatedDimension
  0
TEXT
  5
41F
100
AcDbEntity
  8
3
370
    50
100
AcDbText
 10
228.578979
 20
-272.715088
 30
0.0
 40
7.0
  1
外観寸法図
 72
     5
 11
262.178979
 21
-272.715088
 31
0.0
100
AcDbText
  0
POINT
  5
420
100
AcDbEntity
  8
3
370
    50
100
AcDbPoint
 10
-113.423518
 20
20.533872
 30
0.0
  0
TEXT
  5
421
100
AcDbEntity
  8
3
370
    50
100
AcDbText
 10
-183.964411
 20
-72.727226
 30
0.0
 40
7.0
  1
６８．１
 72
     5
 11
-157.364411
 21
-72.727226
 31
0.0
100
AcDbText
  0
DIMENSION
  5
422
100
AcDbEntity
  8
3
370
    25
100
AcDbDimension
  2
*D8
 10
-136.16441
 20
-73.727226
 30
0.0
 11
-169.964411
 21
-71.727226
 31
0.0
 71
     0
 72
     0
 41
0.0
 42
0.0
  3
Standard
100
AcDbAlignedDimension
 13
-203.764411
 23
-94.474976
 33
0.0
 14
-136.16441
 24
-58.565206
 34
0.0
100
AcDbRotatedDimension
  0
TEXT
  5
423
100
AcDbEntity
  8
3
370
    50
100
AcDbText
 10
-165.493964
 20
-85.12809
 30
0.0
 40
7.0
  1
９１
 72
     5
 11
-152.893964
 21
-85.12809
 31
0.0
100
AcDbText
  0
DIMENSION
  5
424
100
AcDbEntity
  8
3
370
    25
100
AcDbDimension
  2
*D9
 10
-113.223518
 20
-86.12809
 30
0.0
 11
-158.493964
 21
-84.12809
 31
0.0
 71
     0
 72
     0
 41
0.0
 42
0.0
  3
Standard
100
AcDbAlignedDimension
 13
-203.764411
 23
-98.470032
 33
0.0
 14
-113.223518
 24
20.533872
 34
0.0
100
AcDbRotatedDimension
  0
DIMENSION
  5
425
100
AcDbEntity
  8
3
370
    25
100
AcDbDimension
  2
*D10
 10
47.431232
 20
-10.482674
 30
0.0
 11
45.60813
 21
19.453805
 31
0.0
 70
     2
 71
     0
 72
     0
 41
0.0
 42
0.0
  3
Standard
100
AcDb2LineAngularDimension
 13
61.551649
 23
11.543337
 33
0.0
 14
115.160192
 24
-42.065206
 34
0.0
 15
115.160192
 25
-42.065206
 35
0.0
 16
39.585577
 26
10.852708
 36
0.0
1001
ACAD
1000
DSTYLE
1002
{
1070
   275
1070
     0
1070
   179
1070
     0
1002
}
  0
DIMENSION
  5
426
100
AcDbEntity
  8
3
370
    25
100
AcDbDimension
  2
*D11
 10
61.551649
 20
11.543337
 30
0.0
 11
101.165061
 21
50.734219
 31
0.0
 70
     2
 71
     0
 72
     0
 41
0.0
 42
0.0
  3
Standard
100
AcDb2LineAngularDimension
 13
133.129254
 23
24.996245
 33
0.0
 14
115.160192
 24
-42.065207
 34
0.0
 15
115.160192
 25
-42.065207
 35
0.0
 16
91.281659
 26
47.050694
 36
0.0
1001
ACAD
1000
DSTYLE
1002
{
1070
   275
1070
     0
1070
   179
1070
     0
1002
}
  0
TEXT
  5
427
100
AcDbEntity
  8
3
370
    50
100
AcDbText
 10
16.265536
 20
69.082074
 30
0.0
 40
7.0
  1
ハンドル回転角度：
 72
     5
 11
77.865536
 21
69.082074
 31
0.0
100
AcDbText
  0
TEXT
  5
428
100
AcDbEntity
  8
3
370
    50
100
AcDbText
 10
22.956093
 20
60.838867
 30
0.0
 40
7.0
  1
水側２０°湯側６０°
 72
     5
 11
91.556093
 21
60.838867
 31
0.0
100
AcDbText
  0
TEXT
  5
429
100
AcDbEntity
  8
3
370
    50
100
AcDbText
 10
65.541636
 20
-234.66204
 30
0.0
 40
5.67
  1
ＭＫＺ５４７ＭＭＥ－ＢＬ
 72
     5
 11
132.447636
 21
-234.66204
 31
0.0
100
AcDbText
  0
TEXT
  5
42A
100
AcDbEntity
  8
3
370
    50
100
AcDbText
 10
336.070276
 20
-271.880939
 30
0.0
 40
6.4
  1
１１０２６６
 72
     5
 11
373.190276
 21
-271.880939
 31
0.0
100
AcDbText
  0
TEXT
  5
42B
100
AcDbEntity
  8
3
370
    50
100
AcDbText
 10
345.098131
 20
-256.100293
 30
0.0
 40
6.0
  1
２１　　９　１５
 72
     5
 11
391.898131
 21
-256.100293
 31
0.0
100
AcDbText
  0
TEXT
  5
42C
100
AcDbEntity
  8
3
370
    50
100
AcDbText
 10
65.541636
 20
-228.18204
 30
0.0
 40
5.67
  1
台付シングルレバー湯水混合水栓（共・節湯）
 72
     5
 11
183.477636
 21
-228.18204
 31
0.0
100
AcDbText
  0
LWPOLYLINE
  5
42D
100
AcDbEntity
  8
3
370
    25
100
AcDbPolyline
 90
        3
 70
     0
 10
-139.893391
 20
-240.545521
 10
-125.483434
 20
-268.682762
 10
-101.495171
 20
-268.682762
  0
LINE
  5
432
100
AcDbEntity
  8
3
370
    25
100
AcDbLine
 10
-138.132197
 20
-243.984474
 30
0.0
 11
-137.210732
 21
-243.512563
 31
0.0
  0
LINE
  5
433
100
AcDbEntity
  8
3
370
    25
100
AcDbLine
 10
-137.210732
 20
-243.512563
 30
0.0
 11
-139.893391
 21
-240.545521
 31
0.0
  0
LINE
  5
434
100
AcDbEntity
  8
3
370
    25
100
AcDbLine
 10
-139.893391
 20
-240.545521
 30
0.0
 11
-139.053661
 21
-244.456385
 31
0.0
  0
LINE
  5
435
100
AcDbEntity
  8
3
370
    25
100
AcDbLine
 10
-139.053661
 20
-244.456385
 30
0.0
 11
-138.132197
 21
-243.984474
 31
0.0
  0
TEXT
  5
436
100
AcDbEntity
  8
3
370
    50
100
AcDbText
 10
-123.32418
 20
-248.482779
 30
0.0
 40
7.0
  1
２４六角
 72
     5
 11
-96.72418
 21
-248.482779
 31
0.0
100
AcDbText
  0
TEXT
  5
437
100
AcDbEntity
  8
3
370
    50
100
AcDbText
 10
-126.413024
 20
-267.325278
 30
0.0
 40
7.0
  1
Ｇ１/２
 72
     5
 11
-103.313024
 21
-267.325278
 31
0.0
100
AcDbText
  0
LWPOLYLINE
  5
438
100
AcDbEntity
  8
3
370
    25
100
AcDbPolyline
 90
        3
 70
     0
 10
-132.407799
 20
-234.957741
 10
-122.290143
 20
-250.041779
 10
-94.173332
 20
-250.041779
  0
LINE
  5
43D
100
AcDbEntity
  8
3
370
    25
100
AcDbLine
 10
-130.255534
 20
-238.166473
 30
0.0
 11
-129.395757
 21
-237.589775
 31
0.0
  0
LINE
  5
43E
100
AcDbEntity
  8
3
370
    25
100
AcDbLine
 10
-129.395757
 20
-237.589775
 30
0.0
 11
-132.407799
 21
-234.957741
 31
0.0
  0
LINE
  5
43F
100
AcDbEntity
  8
3
370
    25
100
AcDbLine
 10
-132.407799
 20
-234.957741
 30
0.0
 11
-131.115311
 21
-238.74317
 31
0.0
  0
LINE
  5
440
100
AcDbEntity
  8
3
370
    25
100
AcDbLine
 10
-131.115311
 20
-238.74317
 30
0.0
 11
-130.255534
 21
-238.166473
 31
0.0
  0
ENDSEC
  0
SECTION
  2
OBJECTS
  0
DICTIONARY
  5
4CD
100
AcDbDictionary
280
     0
281
     1
  3
ACAD_GROUP
350
4CE
  3
ACAD_MLINESTYLE
350
4CF
  0
DICTIONARY
  5
4CE
102
{ACAD_REACTORS
330
4CD
102
}
100
AcDbDictionary
280
     0
281
     1
  0
DICTIONARY
  5
4CF
102
{ACAD_REACTORS
330
4CD
102
}
100
AcDbDictionary
280
     0
281
     1
  3
Standard
350
4D0
  0
MLINESTYLE
  5
4D0
102
{ACAD_REACTORS
330
4CF
102
}
100
AcDbMlineStyle
  2
Standard
 70
     0
  3

 62
     0
 51
90.0
 52
90.0
 71
     2
 49
0.5
 62
   256
  6
ByLayer
 49
-0.5
 62
   256
  6
ByLayer
  0
ENDSEC
  0
EOF
