  0
SECTION
  2
HEADER
  9
$ACADVER
  1
AC1015
  9
$ACADMAINTVER
 70
     6
  9
$DWGCODEPAGE
  3
ANSI_932
  9
$INSBASE
 10
0.0
 20
0.0
 30
0.0
  9
$EXTMIN
 10
-1261.5
 20
-891.0
 30
1.000000E+20
  9
$EXTMAX
 10
1261.5
 20
891.0
 30
-1.000000E+20
  9
$LIMMIN
 10
-1261.5
 20
-891.0
  9
$LIMMAX
 10
1261.5
 20
891.0
  9
$ORTHOMODE
 70
     0
  9
$REGENMODE
 70
     1
  9
$FILLMODE
 70
     1
  9
$QTEXTMODE
 70
     0
  9
$MIRRTEXT
 70
     1
  9
$LTSCALE
 40
1.0
  9
$ATTMODE
 70
     1
  9
$TEXTSIZE
 40
0.2
  9
$TRACEWID
 40
0.05
  9
$TEXTSTYLE
  7
STANDARD
  9
$CLAYER
  8
0
  9
$CELTYPE
  6
CONTINUOUS
  9
$CECOLOR
 62
   256
  9
$CELTSCALE
 40
1.0
  9
$DISPSILH
 70
     0
  9
$DIMSCALE
 40
3.0
  9
$DIMASZ
 40
2.0
  9
$DIMEXO
 40
1.0
  9
$DIMDLI
 40
0.38
  9
$DIMRND
 40
0.0
  9
$DIMDLE
 40
0.0
  9
$DIMEXE
 40
2.0
  9
$DIMTP
 40
0.0
  9
$DIMTM
 40
0.0
  9
$DIMTXT
 40
3.5
  9
$DIMCEN
 40
0.09
  9
$DIMTSZ
 40
0.0
  9
$DIMTOL
 70
     0
  9
$DIMLIM
 70
     0
  9
$DIMTIH
 70
     0
  9
$DIMTOH
 70
     0
  9
$DIMSE1
 70
     0
  9
$DIMSE2
 70
     0
  9
$DIMTAD
 70
     1
  9
$DIMZIN
 70
     0
  9
$DIMBLK
  1

  9
$DIMASO
 70
     1
  9
$DIMSHO
 70
     1
  9
$DIMPOST
  1

  9
$DIMAPOST
  1

  9
$DIMALT
 70
     0
  9
$DIMALTD
 70
     2
  9
$DIMALTF
 40
25.4
  9
$DIMLFAC
 40
1.0
  9
$DIMTOFL
 70
     0
  9
$DIMTVP
 40
0.0
  9
$DIMTIX
 70
     0
  9
$DIMSOXD
 70
     0
  9
$DIMSAH
 70
     0
  9
$DIMBLK1
  1

  9
$DIMBLK2
  1

  9
$DIMSTYLE
  2
Standard
  9
$DIMCLRD
 70
     0
  9
$DIMCLRE
 70
     0
  9
$DIMCLRT
 70
     0
  9
$DIMTFAC
 40
1.0
  9
$DIMGAP
 40
0.5
  9
$DIMJUST
 70
     0
  9
$DIMSD1
 70
     0
  9
$DIMSD2
 70
     0
  9
$DIMTOLJ
 70
     1
  9
$DIMTZIN
 70
     0
  9
$DIMALTZ
 70
     0
  9
$DIMALTTZ
 70
     0
  9
$DIMUPT
 70
     0
  9
$DIMDEC
 70
     3
  9
$DIMTDEC
 70
     4
  9
$DIMALTU
 70
     2
  9
$DIMALTTD
 70
     2
  9
$DIMTXSTY
  7
STANDARD
  9
$DIMAUNIT
 70
     0
  9
$DIMADEC
 70
     2
  9
$DIMALTRND
 40
0.0
  9
$DIMAZIN
 70
     0
  9
$DIMDSEP
 70
     0
  9
$DIMATFIT
 70
     3
  9
$DIMFRAC
 70
     0
  9
$DIMLDRBLK
  1

  9
$DIMLUNIT
 70
     2
  9
$DIMLWD
 70
     0
  9
$DIMLWE
 70
     0
  9
$DIMTMOVE
 70
     0
  9
$LUNITS
 70
     2
  9
$LUPREC
 70
     4
  9
$SKETCHINC
 40
0.1
  9
$FILLETRAD
 40
0.0
  9
$AUNITS
 70
     0
  9
$AUPREC
 70
     0
  9
$MENU
  1
acad
  9
$ELEVATION
 40
0.0
  9
$PELEVATION
 40
0.0
  9
$THICKNESS
 40
0.0
  9
$LIMCHECK
 70
     0
  9
$CHAMFERA
 40
0.0
  9
$CHAMFERB
 40
0.0
  9
$CHAMFERC
 40
0.0
  9
$CHAMFERD
 40
0.0
  9
$SKPOLY
 70
     0
  9
$TDCREATE
 40
2456442.000000000
  9
$TDUCREATE
 40
0.000000000
  9
$TDUPDATE
 40
0.000000000
  9
$TDUUPDATE
 40
2447892.625000000
  9
$TDINDWG
 40
0.0000000000
  9
$TDUSRTIMER
 40
0.0000000000
  9
$USRTIMER
 70
     1
  9
$ANGBASE
 50
0.0
  9
$ANGDIR
 70
     0
  9
$PDMODE
 70
     0
  9
$PDSIZE
 40
0.0
  9
$PLINEWID
 40
0.0
  9
$SPLFRAME
 70
     0
  9
$SPLINETYPE
 70
     6
  9
$SPLINESEGS
 70
     8
  9
$HANDSEED
  5
885
  9
$SURFTAB1
 70
     6
  9
$SURFTAB2
 70
     6
  9
$SURFTYPE
 70
     6
  9
$SURFU
 70
     6
  9
$SURFV
 70
     6
  9
$UCSBASE
  2

  9
$UCSNAME
  2

  9
$UCSORG
 10
0.0
 20
0.0
 30
0.0
  9
$UCSXDIR
 10
1.0
 20
0.0
 30
0.0
  9
$UCSYDIR
 10
0.0
 20
1.0
 30
0.0
  9
$UCSORTHOREF
  2

  9
$UCSORTHOVIEW
 70
     0
  9
$UCSORGTOP
 10
0.0
 20
0.0
 30
0.0
  9
$UCSORGBOTTOM
 10
0.0
 20
0.0
 30
0.0
  9
$UCSORGLEFT
 10
0.0
 20
0.0
 30
0.0
  9
$UCSORGRIGHT
 10
0.0
 20
0.0
 30
0.0
  9
$UCSORGFRONT
 10
0.0
 20
0.0
 30
0.0
  9
$UCSORGBACK
 10
0.0
 20
0.0
 30
0.0
  9
$PUCSBASE
  2

  9
$PUCSNAME
  2

  9
$PUCSORG
 10
0.0
 20
0.0
 30
0.0
  9
$PUCSXDIR
 10
1.0
 20
0.0
 30
0.0
  9
$PUCSYDIR
 10
0.0
 20
1.0
 30
0.0
  9
$PUCSORTHOREF
  2

  9
$PUCSORTHOVIEW
 70
     0
  9
$PUCSORGTOP
 10
0.0
 20
0.0
 30
0.0
  9
$PUCSORGBOTTOM
 10
0.0
 20
0.0
 30
0.0
  9
$PUCSORGLEFT
 10
0.0
 20
0.0
 30
0.0
  9
$PUCSORGRIGHT
 10
0.0
 20
0.0
 30
0.0
  9
$PUCSORGFRONT
 10
0.0
 20
0.0
 30
0.0
  9
$PUCSORGBACK
 10
0.0
 20
0.0
 30
0.0
  9
$USERI1
 70
     0
  9
$USERI2
 70
     0
  9
$USERI3
 70
     0
  9
$USERI4
 70
     0
  9
$USERI5
 70
     0
  9
$USERR1
 40
0.0
  9
$USERR2
 40
0.0
  9
$USERR3
 40
0.0
  9
$USERR4
 40
0.0
  9
$USERR5
 40
0.0
  9
$WORLDVIEW
 70
     1
  9
$SHADEDGE
 70
     3
  9
$SHADEDIF
 70
    70
  9
$TILEMODE
 70
     1
  9
$MAXACTVP
 70
    16
  9
$PINSBASE
 10
0.0
 20
0.0
 30
0.0
  9
$PLIMCHECK
 70
     0
  9
$PEXTMIN
 10
1.000000E+20
 20
1.000000E+20
 30
1.000000E+20
  9
$PEXTMAX
 10
-1.000000E+20
 20
-1.000000E+20
 30
-1.000000E+20
  9
$PLIMMIN
 10
0.0
 20
0.0
  9
$PLIMMAX
 10
12.0
 20
9.0
  9
$UNITMODE
 70
     0
  9
$VISRETAIN
 70
     0
  9
$PLINEGEN
 70
     1
  9
$PSLTSCALE
 70
     0
  9
$TREEDEPTH
 70
  3020
  9
$CMLSTYLE
  2
Standard
  9
$CMLJUST
 70
     0
  9
$CMLSCALE
 40
1.0
  9
$PROXYGRAPHICS
 70
     0
  9
$MEASUREMENT
 70
     0
  9
$CELWEIGHT
370
     0
  9
$ENDCAPS
280
     0
  9
$JOINSTYLE
280
     0
  9
$LWDISPLAY
290
     0
  9
$INSUNITS
 70
     0
  9
$HYPERLINKBASE
  1

  9
$STYLESHEET
  1

  9
$XEDIT
290
     1
  9
$CEPSNTYPE
380
     0
  9
$PSTYLEMODE
290
     1
  9
$FINGERPRINTGUID
  2

  9
$VERSIONGUID
  2

  9
$EXTNAMES
290
     1
  9
$PSVPSCALE
 40
0.0
  0
ENDSEC
  0
SECTION
  2
CLASSES
  0
CLASS
  1
LWPOLYLINE
  2
AcDbPolyline
  3
AutoCAD 2000
 90
        0
280
     0
281
     1
  0
CLASS
  1
IMAGE
  2
AcDbRasterImage
  3
ISM
 90
      127
280
     0
281
     1
  0
CLASS
  1
OLE2FRAME
  2
AcDbOle2Frame
  3
AutoCAD 2000
 90
        0
280
     0
281
     1
  0
CLASS
  1
HATCH
  2
AcDbHatch
  3
AutoCAD 2000
 90
        0
280
     0
281
     1
  0
CLASS
  1
DICTIONARYVAR
  2
AcDbDictionaryVar
  3
AutoCAD 2000
 90
        0
280
     0
281
     0
  0
CLASS
  1
RASTERVARIABLES
  2
AcDbRasterVariables
  3
ISM
 90
        0
280
     0
281
     0
  0
CLASS
  1
IMAGEDEF
  2
AcDbRasterImageDef
  3
ISM
 90
        0
280
     0
281
     0
  0
CLASS
  1
IMAGEDEF_REACTOR
  2
AcDbRasterImageDefReactor
  3
ISM
 90
        1
280
     0
281
     0
  0
CLASS
  1
IDBUFFER
  2
AcDbIdBuffer
  3
AutoCAD 2000
 90
        0
280
     0
281
     0
  0
CLASS
  1
SPATIAL_FILTER
  2
AcDbSpatialFilter
  3
AutoCAD 2000
 90
        0
280
     0
281
     0
  0
CLASS
  1
XRECORD
  2
AcDbXrecord
  3
AutoCAD 2000
 90
        0
280
     0
281
     0
  0
CLASS
  1
SORTENTSTABLE
  2
AcDbSortentsTable
  3
AutoCAD 2000
 90
        0
280
     0
281
     0
  0
CLASS
  1
LAYER_INDEX
  2
AcDbLayerIndex
  3
AutoCAD 2000
 90
        0
280
     0
281
     0
  0
CLASS
  1
SPATIAL_INDEX
  2
AcDbSpatialIndex
  3
AutoCAD 2000
 90
        0
280
     0
281
     0
  0
CLASS
  1
OBJECT_PTR
  2
CAseDLPNTableRecord
  3
"ASE-LPNTableRecord"
 90
        1
280
     0
281
     0
  0
CLASS
  1
LAYOUT
  2
AcDbLayout
  3
AutoCAD 2000
 90
        0
280
     0
281
     0
  0
CLASS
  1
PLOTSETTINGS
  2
AcDbPlotSettings
  3
AutoCAD 2000
 90
        0
280
     0
281
     0
  0
CLASS
  1
ACDBDICTIONARYWDFLT
  2
AcDbDictionaryWithDefault
  3
AutoCAD 2000
 90
        0
280
     0
281
     0
  0
CLASS
  1
ACDBPLACEHOLDER
  2
AcDbPlaceHolder
  3
AutoCAD 2000
 90
        0
280
     0
281
     0
  0
CLASS
  1
VBA_PROJECT
  2
AcDbVbaProject
  3
acadvba
 90
        0
280
     0
281
     0
  0
CLASS
  1
WIPEOUT
  2
AcDbWipeout
  3
WipeOut|AutoCAD Express Tool|expresstools@autodesk.com
 90
      127
280
     0
281
     1
  0
CLASS
  1
WIPEOUTVARIABLES
  2
AcDbWipeoutVariables
  3
WipeOut|AutoCAD Express Tool|expresstools@autodesk.com
 90
        0
280
     0
281
     0
  0
CLASS
  1
RTEXT
  2
RText
  3
RText|AutoCAD Express Tool|expresstools@autodesk.com
 90
        0
280
     0
281
     1
  0
CLASS
  1
ARCALIGNEDTEXT
  2
AcDbArcAlignedText
  3
ATEXT|AutoCAD Express Tool|expresstools@autodesk.com
 90
        0
280
     0
281
     1
  0
ENDSEC
  0
SECTION
  2
TABLES
  0
TABLE
  2
VPORT
  5
6
100
AcDbSymbolTable
 70
     1
  0
VPORT
  5
19
100
AcDbSymbolTableRecord
100
AcDbViewportTableRecord
  2
*ACTIVE
 70
     0
 10
0.0
 20
0.0
 11
1.0
 21
1.0
 12
0.0
 22
0.0
 13
0.0
 23
0.0
 14
1.0
 24
1.0
 15
0.0
 25
0.0
 16
0.0
 26
0.0
 36
1.0
 17
0.0
 27
0.0
 37
0.0
 40
1782.0
 41
1.415825
 42
50.0
 43
0.0
 44
0.0
 50
0.0
 51
0.0
 71
     0
 72
   500
 73
     1
 74
     1
 75
     0
 76
     0
 77
     0
 78
     0
281
     0
 65
     0
110
0.0
120
0.0
130
0.0
111
1.0
121
0.0
131
0.0
112
0.0
122
1.0
132
0.0
345
0
346
0
 79
     0
146
0.0
  0
ENDTAB
  0
TABLE
  2
LTYPE
  5
3
100
AcDbSymbolTable
 70
     9
  0
LTYPE
  5
C
100
AcDbSymbolTableRecord
100
AcDbLinetypeTableRecord
  2
ByBlock
 70
    64
  3

 72
    65
 73
     0
 40
0.0
  0
LTYPE
  5
D
100
AcDbSymbolTableRecord
100
AcDbLinetypeTableRecord
  2
ByLayer
 70
    64
  3

 72
    65
 73
     0
 40
0.0
  0
LTYPE
  5
E
100
AcDbSymbolTableRecord
100
AcDbLinetypeTableRecord
  2
CONTINUOUS
 70
     0
  3
Solid line
 72
    65
 73
     0
 40
0.0
  0
LTYPE
  5
F
100
AcDbSymbolTableRecord
100
AcDbLinetypeTableRecord
  2
DASHED
 70
     0
  3
__ __ __ __ __ __ __ __ __ __ __ __ __ __ __
 72
    65
 73
     2
 40
2.0
 49
1.2
 74
     0
 49
-0.8
 74
     0
  0
LTYPE
  5
10
100
AcDbSymbolTableRecord
100
AcDbLinetypeTableRecord
  2
CENTER
 70
     0
  3
____ _ ____ _ ____ _ ____ _ ____ _ ____ _ ____
 72
    65
 73
     4
 40
12.0
 49
9.0
 74
     0
 49
-1.0
 74
     0
 49
1.0
 74
     0
 49
-1.0
 74
     0
  0
LTYPE
  5
11
100
AcDbSymbolTableRecord
100
AcDbLinetypeTableRecord
  2
HIDDEN
 70
     0
  3
_ _ _ _ _ _ _ _ _ _ _ _ _ _ _ _ _ _ _ _ _ _ _
 72
    65
 73
     2
 40
3.2
 49
2.4
 74
     0
 49
-0.8
 74
     0
  0
LTYPE
  5
12
100
AcDbSymbolTableRecord
100
AcDbLinetypeTableRecord
  2
PHANTOM
 70
     0
  3
_____ _ _ _____ _ _ _____ _ _ _____ _ _ _____
 72
    65
 73
     6
 40
13.5
 49
9.0
 74
     0
 49
-1.0
 74
     0
 49
1.0
 74
     0
 49
-0.5
 74
     0
 49
1.0
 74
     0
 49
-1.0
 74
     0
  0
LTYPE
  5
13
100
AcDbSymbolTableRecord
100
AcDbLinetypeTableRecord
  2
DOT
 70
     0
  3
...............................................
 72
    65
 73
     2
 40
1.0
 49
0.5
 74
     0
 49
-0.5
 74
     0
  0
LTYPE
  5
14
100
AcDbSymbolTableRecord
100
AcDbLinetypeTableRecord
  2
DASHDOT
 70
     0
  3
__ . __ . __ . __ . __ . __ . __ . __ . __ . __
 72
    65
 73
     4
 40
8.0
 49
5.0
 74
     0
 49
-1.0
 74
     0
 49
1.0
 74
     0
 49
-1.0
 74
     0
  0
ENDTAB
  0
TABLE
  2
LAYER
  5
1
100
AcDbSymbolTable
 70
     4
  0
LAYER
  5
15
100
AcDbSymbolTableRecord
100
AcDbLayerTableRecord
  2
0
 70
     0
 62
   225
  6
CONTINUOUS
290
     1
370
    -3
390
0
  0
LAYER
  5
16
100
AcDbSymbolTableRecord
100
AcDbLayerTableRecord
  2
1
 70
     0
 62
     2
  6
CONTINUOUS
290
     1
370
    -3
390
0
  0
LAYER
  5
17
100
AcDbSymbolTableRecord
100
AcDbLayerTableRecord
  2
2
 70
     0
 62
     3
  6
CONTINUOUS
290
     1
370
    -3
390
0
  0
LAYER
  5
18
100
AcDbSymbolTableRecord
100
AcDbLayerTableRecord
  2
3
 70
     0
 62
     4
  6
CONTINUOUS
290
     1
370
    -3
390
0
  0
ENDTAB
  0
TABLE
  2
STYLE
  5
2
100
AcDbSymbolTable
 70
     1
  0
STYLE
  5
1B
100
AcDbSymbolTableRecord
100
AcDbTextStyleTableRecord
  2
STANDARD
 70
    64
 40
0.0
 41
1.0
 50
0.0
 71
     0
 42
1.0
  3
txt
  4
BIGFONT
  0
ENDTAB
  0
TABLE
  2
VIEW
  5
4
100
AcDbSymbolTable
 70
     0
  0
ENDTAB
  0
TABLE
  2
UCS
  5
5
100
AcDbSymbolTable
 70
     0
  0
ENDTAB
  0
TABLE
  2
APPID
  5
7
100
AcDbSymbolTable
 70
     1
  0
APPID
  5
1A
100
AcDbSymbolTableRecord
100
AcDbRegAppTableRecord
  2
ACAD
 70
     0
  0
ENDTAB
  0
TABLE
  2
DIMSTYLE
  5
8
100
AcDbSymbolTable
 70
     1
100
AcDbDimStyleTable
 71
     0
  0
DIMSTYLE
105
31
100
AcDbSymbolTableRecord
100
AcDbDimStyleTableRecord
  2
Standard
 70
     0
  3

  4

 40
3.0
 41
2.0
 42
1.0
 43
0.38
 44
2.0
 45
0.0
 46
0.0
 47
0.0
 48
0.0
 71
     0
 72
     0
 73
     0
 74
     0
 75
     0
 76
     0
 77
     1
 78
     0
 79
     0
140
3.5
141
0.09
142
0.0
143
25.4
144
1.0
145
0.0
146
1.0
147
0.5
148
0.0
170
     0
171
     2
172
     0
173
     0
174
     0
175
     0
176
     0
177
     0
178
     0
179
     0
271
     3
272
     4
273
     2
274
     2
275
     0
276
     0
277
     2
278
    46
279
     0
280
     0
281
     0
282
     0
283
     1
284
     0
285
     0
286
     0
288
     0
289
     3
340
1B
341
0
342
0
343
0
344
0
371
    -2
372
    -2
  0
ENDTAB
  0
TABLE
  2
BLOCK_RECORD
  5
2C
100
AcDbSymbolTable
 70
    14
  0
BLOCK_RECORD
  5
2A
100
AcDbSymbolTableRecord
100
AcDbBlockTableRecord
  2
*Model_Space
340
0
  0
BLOCK_RECORD
  5
2B
100
AcDbSymbolTableRecord
100
AcDbBlockTableRecord
  2
*Paper_Space
340
0
  0
BLOCK_RECORD
  5
1C
100
AcDbSymbolTableRecord
100
AcDbBlockTableRecord
  2
*D0
340
0
  0
BLOCK_RECORD
  5
1D
100
AcDbSymbolTableRecord
100
AcDbBlockTableRecord
  2
*D1
340
0
  0
BLOCK_RECORD
  5
1E
100
AcDbSymbolTableRecord
100
AcDbBlockTableRecord
  2
*D2
340
0
  0
BLOCK_RECORD
  5
1F
100
AcDbSymbolTableRecord
100
AcDbBlockTableRecord
  2
*D3
340
0
  0
BLOCK_RECORD
  5
20
100
AcDbSymbolTableRecord
100
AcDbBlockTableRecord
  2
*D4
340
0
  0
BLOCK_RECORD
  5
21
100
AcDbSymbolTableRecord
100
AcDbBlockTableRecord
  2
*D5
340
0
  0
BLOCK_RECORD
  5
22
100
AcDbSymbolTableRecord
100
AcDbBlockTableRecord
  2
*D6
340
0
  0
BLOCK_RECORD
  5
23
100
AcDbSymbolTableRecord
100
AcDbBlockTableRecord
  2
*D7
340
0
  0
BLOCK_RECORD
  5
24
100
AcDbSymbolTableRecord
100
AcDbBlockTableRecord
  2
*D8
340
0
  0
BLOCK_RECORD
  5
25
100
AcDbSymbolTableRecord
100
AcDbBlockTableRecord
  2
*D9
340
0
  0
BLOCK_RECORD
  5
26
100
AcDbSymbolTableRecord
100
AcDbBlockTableRecord
  2
*D10
340
0
  0
BLOCK_RECORD
  5
27
100
AcDbSymbolTableRecord
100
AcDbBlockTableRecord
  2
*D11
340
0
  0
BLOCK_RECORD
  5
28
100
AcDbSymbolTableRecord
100
AcDbBlockTableRecord
  2
*D12
340
0
  0
BLOCK_RECORD
  5
29
100
AcDbSymbolTableRecord
100
AcDbBlockTableRecord
  2
*D13
340
0
  0
ENDTAB
  0
ENDSEC
  0
SECTION
  2
BLOCKS
  0
BLOCK
  5
2D
100
AcDbEntity
  8
0
390
0
100
AcDbBlockBegin
  2
*Model_Space
 70
     0
 10
0.0
 20
0.0
 30
0.0
  3
*Model_Space
  1

  0
ENDBLK
  5
2E
100
AcDbEntity
  8
0
390
0
100
AcDbBlockEnd
  0
BLOCK
  5
2F
100
AcDbEntity
 67
     1
  8
0
390
0
100
AcDbBlockBegin
  2
*Paper_Space
 70
     0
 10
0.0
 20
0.0
 30
0.0
  3
*Paper_Space
  1

  0
ENDBLK
  5
30
100
AcDbEntity
 67
     1
  8
0
390
0
100
AcDbBlockEnd
  0
BLOCK
  5
7E2
100
AcDbEntity
  8
3
100
AcDbBlockBegin
  2
*D0
 70
     1
 10
0.0
 20
0.0
 30
0.0
  3
*D0
  1

  0
LINE
  5
7E3
100
AcDbEntity
  8
3
370
    25
100
AcDbLine
 10
288.735376
 20
-183.13992
 30
0.0
 11
367.247223
 21
-183.13992
 31
0.0
  0
LINE
  5
7E4
100
AcDbEntity
  8
3
370
    25
100
AcDbLine
 10
364.247223
 20
-183.13992
 30
0.0
 11
365.800137
 21
-177.344365
 31
0.0
  0
LINE
  5
7E5
100
AcDbEntity
  8
3
370
    25
100
AcDbLine
 10
364.247223
 20
-183.13992
 30
0.0
 11
362.694309
 21
-177.344365
 31
0.0
  0
LINE
  5
7E6
100
AcDbEntity
  8
3
370
    25
100
AcDbLine
 10
365.800137
 20
-177.344365
 30
0.0
 11
362.694309
 21
-177.344365
 31
0.0
  0
LINE
  5
7E7
100
AcDbEntity
  8
3
370
    25
100
AcDbLine
 10
364.247223
 20
-183.13992
 30
0.0
 11
364.247223
 21
-90.144944
 31
0.0
  0
LINE
  5
7E8
100
AcDbEntity
  8
3
370
    25
100
AcDbLine
 10
364.247223
 20
-90.144944
 30
0.0
 11
362.694309
 21
-95.940499
 31
0.0
  0
LINE
  5
7E9
100
AcDbEntity
  8
3
370
    25
100
AcDbLine
 10
364.247223
 20
-90.144944
 30
0.0
 11
365.800137
 21
-95.940499
 31
0.0
  0
LINE
  5
7EA
100
AcDbEntity
  8
3
370
    25
100
AcDbLine
 10
362.694309
 20
-95.940499
 30
0.0
 11
365.800137
 21
-95.940499
 31
0.0
  0
LINE
  5
7EB
100
AcDbEntity
  8
3
370
    25
100
AcDbLine
 10
237.157388
 20
-90.144944
 30
0.0
 11
367.247223
 21
-90.144944
 31
0.0
  0
ENDBLK
  5
7EC
100
AcDbEntity
  8
3
100
AcDbBlockEnd
  0
BLOCK
  5
7ED
100
AcDbEntity
  8
3
100
AcDbBlockBegin
  2
*D1
 70
     1
 10
0.0
 20
0.0
 30
0.0
  3
*D1
  1

  0
TEXT
  5
7EE
100
AcDbEntity
  8
3
370
    25
100
AcDbText
 10
93.714506
 20
108.74265
 30
0.0
 40
10.5
  1
２５゜
 50
69.766066
 72
     5
 11
103.882613
 21
136.328328
 31
0.0
100
AcDbText
  0
LINE
  5
7EF
100
AcDbEntity
  8
3
370
    25
100
AcDbLine
 10
196.197263
 20
95.918688
 30
0.0
 11
111.0229
 21
150.670918
 31
0.0
  0
LINE
  5
7F0
100
AcDbEntity
  8
3
370
    25
100
AcDbLine
 10
130.933882
 20
89.684904
 30
0.0
 11
90.564266
 21
95.167439
 31
0.0
  0
LINE
  5
7F1
100
AcDbEntity
  8
3
370
    25
100
AcDbLine
 10
113.546472
 20
149.048702
 30
0.0
 11
109.194833
 21
144.917935
 31
0.0
  0
LINE
  5
7F2
100
AcDbEntity
  8
3
370
    25
100
AcDbLine
 10
113.546472
 20
149.048702
 30
0.0
 11
111.843225
 21
143.295533
 31
0.0
  0
LINE
  5
7F3
100
AcDbEntity
  8
3
370
    25
100
AcDbLine
 10
109.194833
 20
144.917935
 30
0.0
 11
111.843225
 21
143.295533
 31
0.0
  0
LINE
  5
7F4
100
AcDbEntity
  8
3
370
    25
100
AcDbLine
 10
93.536977
 20
94.76372
 30
0.0
 11
95.975128
 21
100.246002
 31
0.0
  0
LINE
  5
7F5
100
AcDbEntity
  8
3
370
    25
100
AcDbLine
 10
93.536977
 20
94.76372
 30
0.0
 11
92.907337
 21
100.730591
 31
0.0
  0
LINE
  5
7F6
100
AcDbEntity
  8
3
370
    25
100
AcDbLine
 10
95.975128
 20
100.246002
 30
0.0
 11
92.907337
 21
100.730591
 31
0.0
  0
ARC
  5
7F7
100
AcDbEntity
  8
3
370
    25
100
AcDbCircle
 10
225.973599
 20
76.777708
 30
0.0
 40
133.652368
100
AcDbArc
 50
147.266068
 51
172.266066
  0
ENDBLK
  5
7F8
100
AcDbEntity
  8
3
100
AcDbBlockEnd
  0
BLOCK
  5
7F9
100
AcDbEntity
  8
3
100
AcDbBlockBegin
  2
*D2
 70
     1
 10
0.0
 20
0.0
 30
0.0
  3
*D2
  1

  0
LINE
  5
7FA
100
AcDbEntity
  8
3
370
    25
100
AcDbLine
 10
237.157388
 20
-90.144944
 30
0.0
 11
367.247223
 21
-90.144944
 31
0.0
  0
LINE
  5
7FB
100
AcDbEntity
  8
3
370
    25
100
AcDbLine
 10
364.247223
 20
-90.144944
 30
0.0
 11
365.800137
 21
-84.349389
 31
0.0
  0
LINE
  5
7FC
100
AcDbEntity
  8
3
370
    25
100
AcDbLine
 10
364.247223
 20
-90.144944
 30
0.0
 11
362.694309
 21
-84.349389
 31
0.0
  0
LINE
  5
7FD
100
AcDbEntity
  8
3
370
    25
100
AcDbLine
 10
365.800137
 20
-84.349389
 30
0.0
 11
362.694309
 21
-84.349389
 31
0.0
  0
LINE
  5
7FE
100
AcDbEntity
  8
3
370
    25
100
AcDbLine
 10
364.247223
 20
-90.144944
 30
0.0
 11
364.247223
 21
92.411473
 31
0.0
  0
LINE
  5
7FF
100
AcDbEntity
  8
3
370
    25
100
AcDbLine
 10
364.247223
 20
92.411473
 30
0.0
 11
362.694309
 21
86.615918
 31
0.0
  0
LINE
  5
800
100
AcDbEntity
  8
3
370
    25
100
AcDbLine
 10
364.247223
 20
92.411473
 30
0.0
 11
365.800137
 21
86.615918
 31
0.0
  0
LINE
  5
801
100
AcDbEntity
  8
3
370
    25
100
AcDbLine
 10
362.694309
 20
86.615918
 30
0.0
 11
365.800137
 21
86.615918
 31
0.0
  0
LINE
  5
802
100
AcDbEntity
  8
3
370
    25
100
AcDbLine
 10
113.857302
 20
92.411473
 30
0.0
 11
367.247223
 21
92.411473
 31
0.0
  0
ENDBLK
  5
803
100
AcDbEntity
  8
3
100
AcDbBlockEnd
  0
BLOCK
  5
804
100
AcDbEntity
  8
3
100
AcDbBlockBegin
  2
*D3
 70
     1
 10
0.0
 20
0.0
 30
0.0
  3
*D3
  1

  0
LINE
  5
805
100
AcDbEntity
  8
3
370
    25
100
AcDbLine
 10
237.157388
 20
-90.144944
 30
0.0
 11
386.190903
 21
-90.144944
 31
0.0
  0
LINE
  5
806
100
AcDbEntity
  8
3
370
    25
100
AcDbLine
 10
383.190903
 20
-90.144944
 30
0.0
 11
384.743817
 21
-84.349389
 31
0.0
  0
LINE
  5
807
100
AcDbEntity
  8
3
370
    25
100
AcDbLine
 10
383.190903
 20
-90.144944
 30
0.0
 11
381.637989
 21
-84.349389
 31
0.0
  0
LINE
  5
808
100
AcDbEntity
  8
3
370
    25
100
AcDbLine
 10
384.743817
 20
-84.349389
 30
0.0
 11
381.637989
 21
-84.349389
 31
0.0
  0
LINE
  5
809
100
AcDbEntity
  8
3
370
    25
100
AcDbLine
 10
383.190903
 20
-90.144944
 30
0.0
 11
383.190903
 21
128.689484
 31
0.0
  0
LINE
  5
80A
100
AcDbEntity
  8
3
370
    25
100
AcDbLine
 10
383.190903
 20
128.689484
 30
0.0
 11
381.637989
 21
122.893929
 31
0.0
  0
LINE
  5
80B
100
AcDbEntity
  8
3
370
    25
100
AcDbLine
 10
383.190903
 20
128.689484
 30
0.0
 11
384.743817
 21
122.893929
 31
0.0
  0
LINE
  5
80C
100
AcDbEntity
  8
3
370
    25
100
AcDbLine
 10
381.637989
 20
122.893929
 30
0.0
 11
384.743817
 21
122.893929
 31
0.0
  0
LINE
  5
80D
100
AcDbEntity
  8
3
370
    25
100
AcDbLine
 10
148.217945
 20
128.689484
 30
0.0
 11
386.190903
 21
128.689484
 31
0.0
  0
ENDBLK
  5
80E
100
AcDbEntity
  8
3
100
AcDbBlockEnd
  0
BLOCK
  5
80F
100
AcDbEntity
  8
3
100
AcDbBlockBegin
  2
*D4
 70
     1
 10
0.0
 20
0.0
 30
0.0
  3
*D4
  1

  0
TEXT
  5
810
100
AcDbEntity
  8
3
370
    25
100
AcDbText
 10
-262.127218
 20
-28.963268
 30
0.0
 40
10.5
  1
φ５２
 72
     5
 11
-232.727218
 21
-28.963268
 31
0.0
100
AcDbText
  0
LINE
  5
811
100
AcDbEntity
  8
3
370
    25
100
AcDbLine
 10
-274.127218
 20
-30.463268
 30
0.0
 11
-268.331663
 21
-32.016182
 31
0.0
  0
LINE
  5
812
100
AcDbEntity
  8
3
370
    25
100
AcDbLine
 10
-274.127218
 20
-30.463268
 30
0.0
 11
-268.331663
 21
-28.910354
 31
0.0
  0
LINE
  5
813
100
AcDbEntity
  8
3
370
    25
100
AcDbLine
 10
-268.331663
 20
-32.016182
 30
0.0
 11
-268.331663
 21
-28.910354
 31
0.0
  0
LINE
  5
814
100
AcDbEntity
  8
3
370
    25
100
AcDbLine
 10
-230.627218
 20
-30.463268
 30
0.0
 11
-341.127218
 21
-30.463268
 31
0.0
  0
LINE
  5
815
100
AcDbEntity
  8
3
370
    25
100
AcDbLine
 10
-326.127218
 20
-30.463268
 30
0.0
 11
-331.922773
 21
-28.910354
 31
0.0
  0
LINE
  5
816
100
AcDbEntity
  8
3
370
    25
100
AcDbLine
 10
-326.127218
 20
-30.463268
 30
0.0
 11
-331.922773
 21
-32.016182
 31
0.0
  0
LINE
  5
817
100
AcDbEntity
  8
3
370
    25
100
AcDbLine
 10
-331.922773
 20
-28.910354
 30
0.0
 11
-331.922773
 21
-32.016182
 31
0.0
  0
ENDBLK
  5
818
100
AcDbEntity
  8
3
100
AcDbBlockEnd
  0
BLOCK
  5
819
100
AcDbEntity
  8
3
100
AcDbBlockBegin
  2
*D5
 70
     1
 10
0.0
 20
0.0
 30
0.0
  3
*D5
  1

  0
LINE
  5
81A
100
AcDbEntity
  8
3
370
    25
100
AcDbLine
 10
-328.179218
 20
-106.444836
 30
0.0
 11
-368.860031
 21
-106.444836
 31
0.0
  0
LINE
  5
81B
100
AcDbEntity
  8
3
370
    25
100
AcDbLine
 10
-365.860031
 20
-106.444836
 30
0.0
 11
-367.412945
 21
-112.240391
 31
0.0
  0
LINE
  5
81C
100
AcDbEntity
  8
3
370
    25
100
AcDbLine
 10
-365.860031
 20
-106.444836
 30
0.0
 11
-364.307117
 21
-112.240391
 31
0.0
  0
LINE
  5
81D
100
AcDbEntity
  8
3
370
    25
100
AcDbLine
 10
-367.412945
 20
-112.240391
 30
0.0
 11
-364.307117
 21
-112.240391
 31
0.0
  0
LINE
  5
81E
100
AcDbEntity
  8
3
370
    25
100
AcDbLine
 10
-365.860031
 20
-121.444836
 30
0.0
 11
-365.860031
 21
16.355164
 31
0.0
  0
LINE
  5
81F
100
AcDbEntity
  8
3
370
    25
100
AcDbLine
 10
-365.860031
 20
-90.144836
 30
0.0
 11
-364.307117
 21
-84.349281
 31
0.0
  0
LINE
  5
820
100
AcDbEntity
  8
3
370
    25
100
AcDbLine
 10
-365.860031
 20
-90.144836
 30
0.0
 11
-367.412945
 21
-84.349281
 31
0.0
  0
LINE
  5
821
100
AcDbEntity
  8
3
370
    25
100
AcDbLine
 10
-364.307117
 20
-84.349281
 30
0.0
 11
-367.412945
 21
-84.349281
 31
0.0
  0
LINE
  5
822
100
AcDbEntity
  8
3
370
    25
100
AcDbLine
 10
-325.127218
 20
-90.144836
 30
0.0
 11
-368.860031
 21
-90.144836
 31
0.0
  0
ENDBLK
  5
823
100
AcDbEntity
  8
3
100
AcDbBlockEnd
  0
BLOCK
  5
824
100
AcDbEntity
  8
3
100
AcDbBlockBegin
  2
*D6
 70
     1
 10
0.0
 20
0.0
 30
0.0
  3
*D6
  1

  0
TEXT
  5
825
100
AcDbEntity
  8
3
370
    25
100
AcDbText
 10
-47.402082
 20
27.199544
 30
0.0
 40
10.5
  1
７゜
 50
356.5
 72
     5
 11
-28.537334
 21
26.045727
 31
0.0
100
AcDbText
  0
LINE
  5
826
100
AcDbEntity
  8
3
370
    25
100
AcDbLine
 10
-35.512676
 20
52.589966
 30
0.0
 11
-39.232206
 21
22.253818
 31
0.0
  0
LINE
  5
827
100
AcDbEntity
  8
3
370
    25
100
AcDbLine
 10
-35.147207
 20
52.567644
 30
0.0
 11
-35.147207
 21
22.00432
 31
0.0
  0
LINE
  5
828
100
AcDbEntity
  8
3
370
    25
100
AcDbLine
 10
-38.867108
 20
25.231519
 30
0.0
 11
-44.192547
 21
27.995519
 31
0.0
  0
LINE
  5
829
100
AcDbEntity
  8
3
370
    25
100
AcDbLine
 10
-38.867108
 20
25.231519
 30
0.0
 11
-44.861074
 21
24.962494
 31
0.0
  0
LINE
  5
82A
100
AcDbEntity
  8
3
370
    25
100
AcDbLine
 10
-44.192547
 20
27.995519
 30
0.0
 11
-44.861074
 21
24.962494
 31
0.0
  0
LINE
  5
82B
100
AcDbEntity
  8
3
370
    25
100
AcDbLine
 10
-35.147207
 20
25.00432
 30
0.0
 11
-29.230534
 21
24.007835
 31
0.0
  0
LINE
  5
82C
100
AcDbEntity
  8
3
370
    25
100
AcDbLine
 10
-35.147207
 20
25.00432
 30
0.0
 11
-29.524975
 21
27.099675
 31
0.0
  0
LINE
  5
82D
100
AcDbEntity
  8
3
370
    25
100
AcDbLine
 10
-29.230534
 20
24.007835
 30
0.0
 11
-29.524975
 21
27.099675
 31
0.0
  0
ARC
  5
82E
100
AcDbEntity
  8
3
370
    25
100
AcDbCircle
 10
-35.147207
 20
55.570701
 30
0.0
 40
30.566381
100
AcDbArc
 50
236.871013
 51
296.138814
  0
ENDBLK
  5
82F
100
AcDbEntity
  8
3
100
AcDbBlockEnd
  0
BLOCK
  5
830
100
AcDbEntity
  8
3
100
AcDbBlockBegin
  2
*D7
 70
     1
 10
0.0
 20
0.0
 30
0.0
  3
*D7
  1

  0
LINE
  5
831
100
AcDbEntity
  8
3
370
    25
100
AcDbLine
 10
-35.147207
 20
52.570701
 30
0.0
 11
-35.147207
 21
-106.437973
 31
0.0
  0
LINE
  5
832
100
AcDbEntity
  8
3
370
    25
100
AcDbLine
 10
-35.147207
 20
-103.437973
 30
0.0
 11
-29.351652
 21
-104.990887
 31
0.0
  0
LINE
  5
833
100
AcDbEntity
  8
3
370
    25
100
AcDbLine
 10
-35.147207
 20
-103.437973
 30
0.0
 11
-29.351652
 21
-101.885059
 31
0.0
  0
LINE
  5
834
100
AcDbEntity
  8
3
370
    25
100
AcDbLine
 10
-29.351652
 20
-104.990887
 30
0.0
 11
-29.351652
 21
-101.885059
 31
0.0
  0
LINE
  5
835
100
AcDbEntity
  8
3
370
    25
100
AcDbLine
 10
-35.147207
 20
-103.437973
 30
0.0
 11
209.857388
 21
-103.437973
 31
0.0
  0
LINE
  5
836
100
AcDbEntity
  8
3
370
    25
100
AcDbLine
 10
209.857388
 20
-103.437973
 30
0.0
 11
204.061833
 21
-101.885059
 31
0.0
  0
LINE
  5
837
100
AcDbEntity
  8
3
370
    25
100
AcDbLine
 10
209.857388
 20
-103.437973
 30
0.0
 11
204.061833
 21
-104.990887
 31
0.0
  0
LINE
  5
838
100
AcDbEntity
  8
3
370
    25
100
AcDbLine
 10
204.061833
 20
-101.885059
 30
0.0
 11
204.061833
 21
-104.990887
 31
0.0
  0
LINE
  5
839
100
AcDbEntity
  8
3
370
    25
100
AcDbLine
 10
209.857388
 20
-105.365696
 30
0.0
 11
209.857388
 21
-100.437973
 31
0.0
  0
ENDBLK
  5
83A
100
AcDbEntity
  8
3
100
AcDbBlockEnd
  0
BLOCK
  5
83B
100
AcDbEntity
  8
3
100
AcDbBlockBegin
  2
*D8
 70
     1
 10
0.0
 20
0.0
 30
0.0
  3
*D8
  1

  0
LINE
  5
83C
100
AcDbEntity
  8
3
370
    25
100
AcDbLine
 10
183.357388
 20
-90.144944
 30
0.0
 11
-75.593048
 21
-90.144944
 31
0.0
  0
LINE
  5
83D
100
AcDbEntity
  8
3
370
    25
100
AcDbLine
 10
-72.593048
 20
-90.144944
 30
0.0
 11
-71.040134
 21
-84.349389
 31
0.0
  0
LINE
  5
83E
100
AcDbEntity
  8
3
370
    25
100
AcDbLine
 10
-72.593048
 20
-90.144944
 30
0.0
 11
-74.145962
 21
-84.349389
 31
0.0
  0
LINE
  5
83F
100
AcDbEntity
  8
3
370
    25
100
AcDbLine
 10
-71.040134
 20
-84.349389
 30
0.0
 11
-74.145962
 21
-84.349389
 31
0.0
  0
LINE
  5
840
100
AcDbEntity
  8
3
370
    25
100
AcDbLine
 10
-72.593048
 20
-90.144944
 30
0.0
 11
-72.593048
 21
55.570701
 31
0.0
  0
LINE
  5
841
100
AcDbEntity
  8
3
370
    25
100
AcDbLine
 10
-72.593048
 20
55.570701
 30
0.0
 11
-74.145962
 21
49.775146
 31
0.0
  0
LINE
  5
842
100
AcDbEntity
  8
3
370
    25
100
AcDbLine
 10
-72.593048
 20
55.570701
 30
0.0
 11
-71.040134
 21
49.775146
 31
0.0
  0
LINE
  5
843
100
AcDbEntity
  8
3
370
    25
100
AcDbLine
 10
-74.145962
 20
49.775146
 30
0.0
 11
-71.040134
 21
49.775146
 31
0.0
  0
LINE
  5
844
100
AcDbEntity
  8
3
370
    25
100
AcDbLine
 10
-38.147207
 20
55.570701
 30
0.0
 11
-75.593048
 21
55.570701
 31
0.0
  0
ENDBLK
  5
845
100
AcDbEntity
  8
3
100
AcDbBlockEnd
  0
BLOCK
  5
846
100
AcDbEntity
  8
3
100
AcDbBlockBegin
  2
*D9
 70
     1
 10
0.0
 20
0.0
 30
0.0
  3
*D9
  1

  0
LINE
  5
847
100
AcDbEntity
  8
3
370
    25
100
AcDbLine
 10
182.557388
 20
-90.144944
 30
0.0
 11
-98.573151
 21
-90.144944
 31
0.0
  0
LINE
  5
848
100
AcDbEntity
  8
3
370
    25
100
AcDbLine
 10
-95.573151
 20
-90.144944
 30
0.0
 11
-94.020237
 21
-84.349389
 31
0.0
  0
LINE
  5
849
100
AcDbEntity
  8
3
370
    25
100
AcDbLine
 10
-95.573151
 20
-90.144944
 30
0.0
 11
-97.126065
 21
-84.349389
 31
0.0
  0
LINE
  5
84A
100
AcDbEntity
  8
3
370
    25
100
AcDbLine
 10
-94.020237
 20
-84.349389
 30
0.0
 11
-97.126065
 21
-84.349389
 31
0.0
  0
LINE
  5
84B
100
AcDbEntity
  8
3
370
    25
100
AcDbLine
 10
-95.573151
 20
-90.144944
 30
0.0
 11
-95.573151
 21
116.938023
 31
0.0
  0
LINE
  5
84C
100
AcDbEntity
  8
3
370
    25
100
AcDbLine
 10
-95.573151
 20
116.938023
 30
0.0
 11
-97.126065
 21
111.142468
 31
0.0
  0
LINE
  5
84D
100
AcDbEntity
  8
3
370
    25
100
AcDbLine
 10
-95.573151
 20
116.938023
 30
0.0
 11
-94.020237
 21
111.142468
 31
0.0
  0
LINE
  5
84E
100
AcDbEntity
  8
3
370
    25
100
AcDbLine
 10
-97.126065
 20
111.142468
 30
0.0
 11
-94.020237
 21
111.142468
 31
0.0
  0
LINE
  5
84F
100
AcDbEntity
  8
3
370
    25
100
AcDbLine
 10
-42.386271
 20
116.938023
 30
0.0
 11
-98.573151
 21
116.938023
 31
0.0
  0
ENDBLK
  5
850
100
AcDbEntity
  8
3
100
AcDbBlockEnd
  0
BLOCK
  5
851
100
AcDbEntity
  8
3
100
AcDbBlockBegin
  2
*D10
 70
     1
 10
0.0
 20
0.0
 30
0.0
  3
*D10
  1

  0
LINE
  5
852
100
AcDbEntity
  8
3
370
    25
100
AcDbLine
 10
141.224244
 20
-278.052857
 30
0.0
 11
-75.593048
 21
-278.052857
 31
0.0
  0
LINE
  5
853
100
AcDbEntity
  8
3
370
    25
100
AcDbLine
 10
-72.593048
 20
-278.052857
 30
0.0
 11
-71.040134
 21
-272.257302
 31
0.0
  0
LINE
  5
854
100
AcDbEntity
  8
3
370
    25
100
AcDbLine
 10
-72.593048
 20
-278.052857
 30
0.0
 11
-74.145962
 21
-272.257302
 31
0.0
  0
LINE
  5
855
100
AcDbEntity
  8
3
370
    25
100
AcDbLine
 10
-71.040134
 20
-272.257302
 30
0.0
 11
-74.145962
 21
-272.257302
 31
0.0
  0
LINE
  5
856
100
AcDbEntity
  8
3
370
    25
100
AcDbLine
 10
-72.593048
 20
-278.052857
 30
0.0
 11
-72.593048
 21
-90.144944
 31
0.0
  0
LINE
  5
857
100
AcDbEntity
  8
3
370
    25
100
AcDbLine
 10
-72.593048
 20
-90.144944
 30
0.0
 11
-74.145962
 21
-95.940499
 31
0.0
  0
LINE
  5
858
100
AcDbEntity
  8
3
370
    25
100
AcDbLine
 10
-72.593048
 20
-90.144944
 30
0.0
 11
-71.040134
 21
-95.940499
 31
0.0
  0
LINE
  5
859
100
AcDbEntity
  8
3
370
    25
100
AcDbLine
 10
-74.145962
 20
-95.940499
 30
0.0
 11
-71.040134
 21
-95.940499
 31
0.0
  0
LINE
  5
85A
100
AcDbEntity
  8
3
370
    25
100
AcDbLine
 10
182.557388
 20
-90.144944
 30
0.0
 11
-75.593048
 21
-90.144944
 31
0.0
  0
ENDBLK
  5
85B
100
AcDbEntity
  8
3
100
AcDbBlockEnd
  0
BLOCK
  5
85C
100
AcDbEntity
  8
3
100
AcDbBlockBegin
  2
*D11
 70
     1
 10
0.0
 20
0.0
 30
0.0
  3
*D11
  1

  0
TEXT
  5
85D
100
AcDbEntity
  8
3
370
    25
100
AcDbText
 10
-321.127707
 20
163.594144
 30
0.0
 40
10.5
  1
１２０゜
 72
     5
 11
-281.227707
 21
163.594144
 31
0.0
100
AcDbText
  0
LINE
  5
85E
100
AcDbEntity
  8
3
370
    25
100
AcDbLine
 10
-354.881214
 20
340.839498
 30
0.0
 11
-483.601517
 21
266.522797
 31
0.0
  0
LINE
  5
85F
100
AcDbEntity
  8
3
370
    25
100
AcDbLine
 10
-245.374199
 20
340.839497
 30
0.0
 11
-116.653897
 21
266.522797
 31
0.0
  0
LINE
  5
860
100
AcDbEntity
  8
3
370
    25
100
AcDbLine
 10
-481.003441
 20
268.022797
 30
0.0
 11
-479.370266
 21
262.249345
 31
0.0
  0
LINE
  5
861
100
AcDbEntity
  8
3
370
    25
100
AcDbLine
 10
-481.003441
 20
268.022797
 30
0.0
 11
-476.702344
 21
263.839428
 31
0.0
  0
LINE
  5
862
100
AcDbEntity
  8
3
370
    25
100
AcDbLine
 10
-479.370266
 20
262.249345
 30
0.0
 11
-476.702344
 21
263.839428
 31
0.0
  0
LINE
  5
863
100
AcDbEntity
  8
3
370
    25
100
AcDbLine
 10
-119.251973
 20
268.022797
 30
0.0
 11
-123.55307
 21
263.839428
 31
0.0
  0
LINE
  5
864
100
AcDbEntity
  8
3
370
    25
100
AcDbLine
 10
-119.251973
 20
268.022797
 30
0.0
 11
-120.885148
 21
262.249345
 31
0.0
  0
LINE
  5
865
100
AcDbEntity
  8
3
370
    25
100
AcDbLine
 10
-123.55307
 20
263.839428
 30
0.0
 11
-120.885148
 21
262.249345
 31
0.0
  0
ARC
  5
866
100
AcDbEntity
  8
3
370
    25
100
AcDbCircle
 10
-300.127707
 20
372.45145
 30
0.0
 40
208.857307
100
AcDbArc
 50
210.0
 51
330.0
  0
ENDBLK
  5
867
100
AcDbEntity
  8
3
100
AcDbBlockEnd
  0
BLOCK
  5
868
100
AcDbEntity
  8
3
100
AcDbBlockBegin
  2
*D12
 70
     1
 10
0.0
 20
0.0
 30
0.0
  3
*D12
  1

  0
TEXT
  5
869
100
AcDbEntity
  8
3
370
    25
100
AcDbText
 10
-273.156474
 20
210.940111
 30
0.0
 40
10.5
  1
３０゜
 50
15.0
 72
     5
 11
-244.758255
 21
218.549391
 31
0.0
100
AcDbText
  0
LINE
  5
86A
100
AcDbEntity
  8
3
370
    25
100
AcDbLine
 10
-300.127707
 20
220.490217
 30
0.0
 11
-300.127707
 21
204.962807
 31
0.0
  0
LINE
  5
86B
100
AcDbEntity
  8
3
370
    25
100
AcDbLine
 10
-298.619394
 20
369.83918
 30
0.0
 11
-216.37846
 21
227.404874
 31
0.0
  0
LINE
  5
86C
100
AcDbEntity
  8
3
370
    25
100
AcDbLine
 10
-300.127707
 20
207.962807
 30
0.0
 11
-294.305694
 21
206.512233
 31
0.0
  0
LINE
  5
86D
100
AcDbEntity
  8
3
370
    25
100
AcDbLine
 10
-300.127707
 20
207.962807
 30
0.0
 11
-294.360409
 21
209.61758
 31
0.0
  0
LINE
  5
86E
100
AcDbEntity
  8
3
370
    25
100
AcDbLine
 10
-294.305694
 20
206.512233
 30
0.0
 11
-294.360409
 21
209.61758
 31
0.0
  0
LINE
  5
86F
100
AcDbEntity
  8
3
370
    25
100
AcDbLine
 10
-217.878549
 20
230.002899
 30
0.0
 11
-223.700512
 21
228.552128
 31
0.0
  0
LINE
  5
870
100
AcDbEntity
  8
3
370
    25
100
AcDbLine
 10
-217.878549
 20
230.002899
 30
0.0
 11
-222.195131
 21
225.835513
 31
0.0
  0
LINE
  5
871
100
AcDbEntity
  8
3
370
    25
100
AcDbLine
 10
-223.700512
 20
228.552128
 30
0.0
 11
-222.195131
 21
225.835513
 31
0.0
  0
ARC
  5
872
100
AcDbEntity
  8
3
370
    25
100
AcDbCircle
 10
-300.127707
 20
372.45145
 30
0.0
 40
164.488643
100
AcDbArc
 50
270.0
 51
300.001945
  0
ENDBLK
  5
873
100
AcDbEntity
  8
3
100
AcDbBlockEnd
  0
BLOCK
  5
874
100
AcDbEntity
  8
3
100
AcDbBlockBegin
  2
*D13
 70
     1
 10
0.0
 20
0.0
 30
0.0
  3
*D13
  1

  0
TEXT
  5
875
100
AcDbEntity
  8
3
370
    25
100
AcDbText
 10
-396.011928
 20
237.875107
 30
0.0
 40
10.5
  1
６０゜
 50
330.0
 72
     5
 11
-370.550781
 21
223.175107
 31
0.0
100
AcDbText
  0
LINE
  5
876
100
AcDbEntity
  8
3
370
    25
100
AcDbLine
 10
-302.740056
 20
370.943275
 30
0.0
 11
-445.178691
 21
288.709837
 31
0.0
  0
LINE
  5
877
100
AcDbEntity
  8
3
370
    25
100
AcDbLine
 10
-300.127707
 20
220.490217
 30
0.0
 11
-300.127707
 21
204.962807
 31
0.0
  0
LINE
  5
878
100
AcDbEntity
  8
3
370
    25
100
AcDbLine
 10
-442.580586
 20
290.209789
 30
0.0
 11
-440.925921
 21
284.44246
 31
0.0
  0
LINE
  5
879
100
AcDbEntity
  8
3
370
    25
100
AcDbLine
 10
-442.580586
 20
290.209789
 30
0.0
 11
-438.26394
 21
286.042468
 31
0.0
  0
LINE
  5
87A
100
AcDbEntity
  8
3
370
    25
100
AcDbLine
 10
-440.925921
 20
284.44246
 30
0.0
 11
-438.26394
 21
286.042468
 31
0.0
  0
LINE
  5
87B
100
AcDbEntity
  8
3
370
    25
100
AcDbLine
 10
-300.127707
 20
207.962807
 30
0.0
 11
-305.895005
 21
209.61758
 31
0.0
  0
LINE
  5
87C
100
AcDbEntity
  8
3
370
    25
100
AcDbLine
 10
-300.127707
 20
207.962807
 30
0.0
 11
-305.94972
 21
206.512233
 31
0.0
  0
LINE
  5
87D
100
AcDbEntity
  8
3
370
    25
100
AcDbLine
 10
-305.895005
 20
209.61758
 30
0.0
 11
-305.94972
 21
206.512233
 31
0.0
  0
ARC
  5
87E
100
AcDbEntity
  8
3
370
    25
100
AcDbCircle
 10
-300.127707
 20
372.45145
 30
0.0
 40
164.488643
100
AcDbArc
 50
209.99893
 51
270.0
  0
ENDBLK
  5
87F
100
AcDbEntity
  8
3
100
AcDbBlockEnd
  0
ENDSEC
  0
SECTION
  2
ENTITIES
  0
LINE
  5
32
100
AcDbEntity
  8
1
370
    25
100
AcDbLine
 10
-559.532355
 20
412.543151
 30
0.0
 11
592.473578
 21
412.543151
 31
0.0
  0
LINE
  5
33
100
AcDbEntity
  8
1
370
    25
100
AcDbLine
 10
-559.532355
 20
412.543151
 30
0.0
 11
-559.532355
 21
-416.957822
 31
0.0
  0
LINE
  5
34
100
AcDbEntity
  8
1
370
    25
100
AcDbLine
 10
-559.532355
 20
-416.957822
 30
0.0
 11
592.473578
 21
-416.957822
 31
0.0
  0
LINE
  5
35
100
AcDbEntity
  8
1
370
    25
100
AcDbLine
 10
592.473578
 20
-416.957822
 30
0.0
 11
592.473578
 21
412.543151
 31
0.0
  0
TEXT
  5
36
100
AcDbEntity
  8
1
370
    25
100
AcDbText
 10
539.442664
 20
-339.379285
 30
0.0
 40
9.0
  1
設計
 41
0.9
 72
     5
 11
554.022664
 21
-339.379285
 31
0.0
100
AcDbText
  0
TEXT
  5
37
100
AcDbEntity
  8
1
370
    25
100
AcDbText
 10
568.691217
 20
-339.149488
 30
0.0
 40
9.0
  1
製図
 41
0.89
 72
     5
 11
583.109217
 21
-339.149488
 31
0.0
100
AcDbText
  0
TEXT
  5
38
100
AcDbEntity
  8
1
370
    25
100
AcDbText
 10
478.508617
 20
-339.379285
 30
0.0
 40
9.0
  1
承認
 41
0.89
 72
     5
 11
492.926617
 21
-339.379285
 31
0.0
100
AcDbText
  0
TEXT
  5
39
100
AcDbEntity
  8
1
370
    25
100
AcDbText
 10
508.484518
 20
-339.297029
 30
0.0
 40
9.0
  1
検図
 41
0.9
 72
     5
 11
523.064518
 21
-339.297029
 31
0.0
100
AcDbText
  0
LINE
  5
3A
100
AcDbEntity
  8
1
370
    25
100
AcDbLine
 10
427.473578
 20
-341.957822
 30
0.0
 11
592.473578
 21
-341.957822
 31
0.0
  0
LINE
  5
3B
100
AcDbEntity
  8
1
370
    25
100
AcDbLine
 10
513.723578
 20
-368.957822
 30
0.0
 11
513.723578
 21
-389.957822
 31
0.0
  0
TEXT
  5
3C
100
AcDbEntity
  8
1
370
    25
100
AcDbText
 10
479.327385
 20
-384.018792
 30
0.0
 40
9.0
  1
日　付
 41
0.93
 72
     5
 11
502.763385
 21
-384.018792
 31
0.0
100
AcDbText
  0
LINE
  5
3D
100
AcDbEntity
  8
1
370
    25
100
AcDbLine
 10
61.473578
 20
-389.957822
 30
0.0
 11
592.473578
 21
-389.957822
 31
0.0
  0
TEXT
  5
3E
100
AcDbEntity
  8
1
370
    25
100
AcDbText
 10
431.662516
 20
-384.483609
 30
0.0
 40
9.0
  1
第三角法
 41
0.94
 72
     5
 11
463.810516
 21
-384.483609
 31
0.0
100
AcDbText
  0
TEXT
  5
3F
100
AcDbEntity
  8
1
370
    25
100
AcDbText
 10
436.631129
 20
-338.997029
 30
0.0
 40
9.0
  1
尺　度
 41
0.93
 72
     5
 11
460.067129
 21
-338.997029
 31
0.0
100
AcDbText
  0
LINE
  5
40
100
AcDbEntity
  8
1
370
    25
100
AcDbLine
 10
61.473578
 20
-326.957822
 30
0.0
 11
592.473578
 21
-326.957822
 31
0.0
  0
LINE
  5
41
100
AcDbEntity
  8
1
370
    25
100
AcDbLine
 10
317.973578
 20
-326.957822
 30
0.0
 11
317.973578
 21
-416.957822
 31
0.0
  0
LINE
  5
42
100
AcDbEntity
  8
1
370
    25
100
AcDbLine
 10
562.473578
 20
-368.957822
 30
0.0
 11
562.473578
 21
-326.957822
 31
0.0
  0
LINE
  5
43
100
AcDbEntity
  8
1
370
    25
100
AcDbLine
 10
532.473578
 20
-368.957822
 30
0.0
 11
532.473578
 21
-326.957822
 31
0.0
  0
LINE
  5
44
100
AcDbEntity
  8
1
370
    25
100
AcDbLine
 10
502.473578
 20
-368.957822
 30
0.0
 11
502.473578
 21
-326.957822
 31
0.0
  0
LINE
  5
45
100
AcDbEntity
  8
1
370
    25
100
AcDbLine
 10
427.473578
 20
-416.957822
 30
0.0
 11
427.473578
 21
-326.957822
 31
0.0
  0
LINE
  5
46
100
AcDbEntity
  8
1
370
    25
100
AcDbLine
 10
284.973578
 20
-326.957822
 30
0.0
 11
284.973578
 21
-416.957822
 31
0.0
  0
LINE
  5
47
100
AcDbEntity
  8
1
370
    25
100
AcDbLine
 10
94.473578
 20
-326.957822
 30
0.0
 11
94.473578
 21
-389.957822
 31
0.0
  0
LINE
  5
48
100
AcDbEntity
  8
1
370
    25
100
AcDbLine
 10
427.473578
 20
-368.957822
 30
0.0
 11
592.473578
 21
-368.957822
 31
0.0
  0
TEXT
  5
49
100
AcDbEntity
  8
1
370
    25
100
AcDbText
 10
430.651694
 20
-407.821408
 30
0.0
 40
9.0
  1
コードＮｏ
 41
0.86
 72
     5
 11
467.803694
 21
-407.821408
 31
0.0
100
AcDbText
  0
TEXT
  5
4A
100
AcDbEntity
  8
1
370
    25
100
AcDbText
 10
79.330161
 20
-409.313489
 30
0.0
 40
12.0
  1
ミズタニバルブ工業株式会社
 41
1.18
 72
     5
 11
260.578161
 21
-409.313489
 31
0.0
100
AcDbText
  0
LINE
  5
4B
100
AcDbEntity
  8
1
370
    25
100
AcDbLine
 10
61.473578
 20
-358.457822
 30
0.0
 11
427.473578
 21
-358.457822
 31
0.0
  0
LINE
  5
4C
100
AcDbEntity
  8
1
370
    25
100
AcDbLine
 10
173.223578
 20
-358.457822
 30
0.0
 11
173.223578
 21
-389.957822
 31
0.0
  0
LINE
  5
4D
100
AcDbEntity
  8
1
370
    25
100
AcDbLine
 10
206.223578
 20
-358.457822
 30
0.0
 11
206.223578
 21
-389.957822
 31
0.0
  0
LINE
  5
4E
100
AcDbEntity
  8
1
370
    25
100
AcDbLine
 10
472.473578
 20
-416.957822
 30
0.0
 11
472.473578
 21
-326.957822
 31
0.0
  0
TEXT
  5
4F
100
AcDbEntity
  8
1
370
    25
100
AcDbText
 10
517.647196
 20
-384.15044
 30
0.0
 40
9.0
  1
　　・　　・
 41
0.96
 72
     5
 11
567.759196
 21
-384.15044
 31
0.0
100
AcDbText
  0
LINE
  5
50
100
AcDbEntity
  8
1
370
    25
100
AcDbLine
 10
61.473578
 20
-326.957822
 30
0.0
 11
61.473578
 21
-416.957822
 31
0.0
  0
TEXT
  5
51
100
AcDbEntity
  8
1
370
    25
100
AcDbText
 10
436.248873
 20
-360.020238
 30
0.0
 40
9.0
  1
　／　
 41
0.59
 72
     5
 11
445.806873
 21
-360.020238
 31
0.0
100
AcDbText
  0
TEXT
  5
52
100
AcDbEntity
  8
1
370
    25
100
AcDbText
 10
290.856184
 20
-408.037363
 30
0.0
 40
9.0
  1
備　考　
 41
0.57
 72
     5
 11
305.220184
 21
-408.037363
 31
0.0
100
AcDbText
  0
TEXT
  5
53
100
AcDbEntity
  8
1
370
    25
100
AcDbText
 10
290.2688
 20
-346.33776
 30
0.0
 40
9.0
  1
仕　上
 41
0.76
 72
     5
 11
309.4208
 21
-346.33776
 31
0.0
100
AcDbText
  0
TEXT
  5
54
100
AcDbEntity
  8
1
370
    25
100
AcDbText
 10
290.170764
 20
-373.337499
 30
0.0
 40
9.0
  1
表　面
 41
0.76
 72
     5
 11
309.322764
 21
-373.337499
 31
0.0
100
AcDbText
  0
TEXT
  5
55
100
AcDbEntity
  8
1
370
    25
100
AcDbText
 10
290.170764
 20
-383.837499
 30
0.0
 40
9.0
  1
処　理
 41
0.76
 72
     5
 11
309.322764
 21
-383.837499
 31
0.0
100
AcDbText
  0
TEXT
  5
56
100
AcDbEntity
  8
1
370
    25
100
AcDbText
 10
67.190025
 20
-347.540099
 30
0.0
 40
9.0
  1
品　名
 41
0.76
 72
     5
 11
86.342025
 21
-347.540099
 31
0.0
100
AcDbText
  0
TEXT
  5
57
100
AcDbEntity
  8
1
370
    25
100
AcDbText
 10
66.596649
 20
-378.693801
 30
0.0
 40
9.0
  1
材　質
 41
0.76
 72
     5
 11
85.748649
 21
-378.693801
 31
0.0
100
AcDbText
  0
TEXT
  5
58
100
AcDbEntity
  8
1
370
    25
100
AcDbText
 10
178.346649
 20
-378.693801
 30
0.0
 40
9.0
  1
規　格
 41
0.76
 72
     5
 11
197.498649
 21
-378.693801
 31
0.0
100
AcDbText
  0
LINE
  5
59
100
AcDbEntity
  8
2
370
   100
100
AcDbLine
 10
185.557388
 20
-90.144944
 30
0.0
 11
209.857388
 21
-90.144944
 31
0.0
  0
LINE
  5
5A
100
AcDbEntity
  8
2
370
   100
100
AcDbLine
 10
185.357388
 20
-89.644944
 30
0.0
 11
185.357388
 21
-89.944944
 31
0.0
  0
LINE
  5
5B
100
AcDbEntity
  8
2
370
   100
100
AcDbLine
 10
185.357388
 20
-89.944944
 30
0.0
 11
185.557388
 21
-90.144944
 31
0.0
  0
LINE
  5
5C
100
AcDbEntity
  8
2
370
   100
100
AcDbLine
 10
234.157388
 20
-90.144944
 30
0.0
 11
209.857388
 21
-90.144944
 31
0.0
  0
LINE
  5
5D
100
AcDbEntity
  8
2
370
   100
100
AcDbLine
 10
234.357388
 20
-89.644944
 30
0.0
 11
234.357388
 21
-89.944944
 31
0.0
  0
LINE
  5
5E
100
AcDbEntity
  8
2
370
   100
100
AcDbLine
 10
234.357388
 20
-89.944944
 30
0.0
 11
234.157388
 21
-90.144944
 31
0.0
  0
LINE
  5
5F
100
AcDbEntity
  8
2
370
   100
100
AcDbLine
 10
193.151138
 20
-132.644944
 30
0.0
 11
209.857388
 21
-132.644944
 31
0.0
  0
LINE
  5
60
100
AcDbEntity
  8
2
370
   100
100
AcDbLine
 10
192.357388
 20
-131.850944
 30
0.0
 11
193.151388
 21
-132.644944
 31
0.0
  0
LINE
  5
61
100
AcDbEntity
  8
2
370
   100
100
AcDbLine
 10
187.857388
 20
-90.144944
 30
0.0
 11
192.357388
 21
-90.144944
 31
0.0
  0
LINE
  5
62
100
AcDbEntity
  8
2
370
   100
100
AcDbLine
 10
227.357388
 20
-131.850944
 30
0.0
 11
226.563388
 21
-132.644944
 31
0.0
  0
LINE
  5
63
100
AcDbEntity
  8
2
370
   100
100
AcDbLine
 10
209.857388
 20
-132.644944
 30
0.0
 11
220.357388
 21
-132.644944
 31
0.0
  0
LINE
  5
64
100
AcDbEntity
  8
2
370
   100
100
AcDbLine
 10
220.357388
 20
-132.644944
 30
0.0
 11
226.563638
 21
-132.644944
 31
0.0
  0
LINE
  5
65
100
AcDbEntity
  8
2
370
   100
100
AcDbLine
 10
-324.427218
 20
-90.144836
 30
0.0
 11
-300.127218
 21
-90.144836
 31
0.0
  0
LINE
  5
66
100
AcDbEntity
  8
2
370
   100
100
AcDbLine
 10
-324.627218
 20
-89.644836
 30
0.0
 11
-324.627218
 21
-89.944836
 31
0.0
  0
LINE
  5
67
100
AcDbEntity
  8
2
370
   100
100
AcDbLine
 10
-324.627218
 20
-89.944836
 30
0.0
 11
-324.427218
 21
-90.144836
 31
0.0
  0
LINE
  5
68
100
AcDbEntity
  8
2
370
   100
100
AcDbLine
 10
-322.127218
 20
-90.144836
 30
0.0
 11
-317.627218
 21
-90.144836
 31
0.0
  0
LINE
  5
69
100
AcDbEntity
  8
2
370
   100
100
AcDbLine
 10
-324.627218
 20
-89.944836
 30
0.0
 11
-300.127218
 21
-89.944836
 31
0.0
  0
LINE
  5
6A
100
AcDbEntity
  8
2
370
   100
100
AcDbLine
 10
-275.827218
 20
-90.144836
 30
0.0
 11
-300.127218
 21
-90.144836
 31
0.0
  0
LINE
  5
6B
100
AcDbEntity
  8
2
370
   100
100
AcDbLine
 10
-275.627218
 20
-89.644836
 30
0.0
 11
-275.627218
 21
-89.944836
 31
0.0
  0
LINE
  5
6C
100
AcDbEntity
  8
2
370
   100
100
AcDbLine
 10
-275.627218
 20
-89.944836
 30
0.0
 11
-275.827218
 21
-90.144836
 31
0.0
  0
LINE
  5
6D
100
AcDbEntity
  8
2
370
   100
100
AcDbLine
 10
-278.127218
 20
-90.144836
 30
0.0
 11
-282.627218
 21
-90.144836
 31
0.0
  0
LINE
  5
6E
100
AcDbEntity
  8
2
370
   100
100
AcDbLine
 10
-275.627218
 20
-89.944836
 30
0.0
 11
-300.127218
 21
-89.944836
 31
0.0
  0
LINE
  5
6F
100
AcDbEntity
  8
2
370
   100
100
AcDbLine
 10
-283.420968
 20
-132.644836
 30
0.0
 11
-300.127218
 21
-132.644836
 31
0.0
  0
LINE
  5
70
100
AcDbEntity
  8
2
370
   100
100
AcDbLine
 10
-282.627218
 20
-131.850836
 30
0.0
 11
-283.421218
 21
-132.644836
 31
0.0
  0
LINE
  5
71
100
AcDbEntity
  8
2
370
   100
100
AcDbLine
 10
-282.627218
 20
-131.850836
 30
0.0
 11
-300.127218
 21
-131.850836
 31
0.0
  0
LINE
  5
72
100
AcDbEntity
  8
2
370
   100
100
AcDbLine
 10
-316.833468
 20
-132.644836
 30
0.0
 11
-300.127218
 21
-132.644836
 31
0.0
  0
LINE
  5
73
100
AcDbEntity
  8
2
370
   100
100
AcDbLine
 10
-317.627218
 20
-131.850836
 30
0.0
 11
-316.833218
 21
-132.644836
 31
0.0
  0
LINE
  5
74
100
AcDbEntity
  8
2
370
   100
100
AcDbLine
 10
-317.627218
 20
-131.850836
 30
0.0
 11
-300.127218
 21
-131.850836
 31
0.0
  0
LINE
  5
75
100
AcDbEntity
  8
2
370
   100
  6
CENTER
100
AcDbLine
 10
220.357388
 20
-147.467503
 30
0.0
 11
220.357388
 21
-161.91073
 31
0.0
  0
LINE
  5
76
100
AcDbEntity
  8
2
370
   100
100
AcDbLine
 10
211.607388
 20
-203.144944
 30
0.0
 11
217.357388
 21
-203.144944
 31
0.0
  0
ARC
  5
77
100
AcDbEntity
  8
2
370
   100
100
AcDbCircle
 10
217.357388
 20
-206.457444
 30
0.0
 40
3.3125
100
AcDbArc
 50
90.0
 51
121.890792
  0
LINE
  5
78
100
AcDbEntity
  8
2
370
   100
100
AcDbLine
 10
215.607388
 20
-203.644944
 30
0.0
 11
215.607388
 21
-218.144944
 31
0.0
  0
ARC
  5
79
100
AcDbEntity
  8
2
370
   100
100
AcDbCircle
 10
217.357388
 20
-215.332444
 30
0.0
 40
3.3125
100
AcDbArc
 50
238.109208
 51
270.0
  0
LINE
  5
7A
100
AcDbEntity
  8
2
370
   100
100
AcDbLine
 10
213.036236
 20
-218.144944
 30
0.0
 11
215.607388
 21
-218.144944
 31
0.0
  0
LINE
  5
7B
100
AcDbEntity
  8
2
370
   100
100
AcDbLine
 10
213.036236
 20
-203.644944
 30
0.0
 11
215.607388
 21
-203.644944
 31
0.0
  0
LINE
  5
7C
100
AcDbEntity
  8
2
370
   100
100
AcDbLine
 10
213.036236
 20
-203.644944
 30
0.0
 11
213.036236
 21
-218.144944
 31
0.0
  0
ARC
  5
7D
100
AcDbEntity
  8
2
370
   100
100
AcDbCircle
 10
212.161236
 20
-204.160569
 30
0.0
 40
1.015625
100
AcDbArc
 50
30.510237
 51
149.489763
  0
LINE
  5
7E
100
AcDbEntity
  8
2
370
   100
100
AcDbLine
 10
211.107388
 20
-203.644944
 30
0.0
 11
211.107388
 21
-218.144944
 31
0.0
  0
LINE
  5
7F
100
AcDbEntity
  8
2
370
   100
100
AcDbLine
 10
211.286236
 20
-203.644944
 30
0.0
 11
211.286236
 21
-218.144944
 31
0.0
  0
LINE
  5
80
100
AcDbEntity
  8
2
370
   100
100
AcDbLine
 10
211.607388
 20
-203.144944
 30
0.0
 11
211.107388
 21
-203.644944
 31
0.0
  0
LINE
  5
81
100
AcDbEntity
  8
2
370
   100
100
AcDbLine
 10
211.107388
 20
-203.644944
 30
0.0
 11
211.286236
 21
-203.644944
 31
0.0
  0
LINE
  5
82
100
AcDbEntity
  8
2
370
   100
100
AcDbLine
 10
211.607388
 20
-218.644944
 30
0.0
 11
217.357388
 21
-218.644944
 31
0.0
  0
LINE
  5
83
100
AcDbEntity
  8
2
370
   100
100
AcDbLine
 10
211.607388
 20
-218.644944
 30
0.0
 11
211.107388
 21
-218.144944
 31
0.0
  0
LINE
  5
84
100
AcDbEntity
  8
2
370
   100
100
AcDbLine
 10
211.107388
 20
-218.144944
 30
0.0
 11
211.286236
 21
-218.144944
 31
0.0
  0
ARC
  5
85
100
AcDbEntity
  8
2
370
   100
100
AcDbCircle
 10
212.161236
 20
-217.629319
 30
0.0
 40
1.015625
100
AcDbArc
 50
210.510237
 51
329.489763
  0
LINE
  5
86
100
AcDbEntity
  8
2
370
   100
100
AcDbLine
 10
224.357388
 20
-132.644944
 30
0.0
 11
224.357388
 21
-149.685368
 31
0.0
  0
LINE
  5
87
100
AcDbEntity
  8
2
370
   100
100
AcDbLine
 10
216.357388
 20
-132.644944
 30
0.0
 11
216.357388
 21
-149.739223
 31
0.0
  0
LINE
  5
88
100
AcDbEntity
  8
2
370
   100
100
AcDbLine
 10
213.357388
 20
-132.644944
 30
0.0
 11
213.357388
 21
-203.144944
 31
0.0
  0
LINE
  5
89
100
AcDbEntity
  8
2
370
   100
100
AcDbLine
 10
-311.127218
 20
-132.644836
 30
0.0
 11
-311.127218
 21
-203.145033
 31
0.0
  0
LINE
  5
8A
100
AcDbEntity
  8
2
370
   100
100
AcDbLine
 10
-303.127218
 20
-166.491459
 30
0.0
 11
-303.127218
 21
-203.145033
 31
0.0
  0
LINE
  5
8B
100
AcDbEntity
  8
2
370
   100
100
AcDbLine
 10
-297.127218
 20
-164.241219
 30
0.0
 11
-297.127218
 21
-213.145033
 31
0.0
  0
LINE
  5
8C
100
AcDbEntity
  8
2
370
   100
100
AcDbLine
 10
-289.127218
 20
-132.644836
 30
0.0
 11
-289.127218
 21
-213.145033
 31
0.0
  0
LINE
  5
8D
100
AcDbEntity
  8
2
370
   100
100
AcDbLine
 10
-304.127218
 20
-266.184475
 30
0.0
 11
-304.127218
 21
-257.304256
 31
0.0
  0
LINE
  5
8E
100
AcDbEntity
  8
2
370
   100
100
AcDbLine
 10
-298.877218
 20
-228.645033
 30
0.0
 11
-292.627218
 21
-228.645033
 31
0.0
  0
ARC
  5
8F
100
AcDbEntity
  8
2
370
   100
100
AcDbCircle
 10
-293.127218
 20
-225.332533
 30
0.0
 40
3.3125
100
AcDbArc
 50
270.0
 51
301.890792
  0
LINE
  5
90
100
AcDbEntity
  8
2
370
   100
100
AcDbLine
 10
-299.377218
 20
-213.645033
 30
0.0
 11
-299.377218
 21
-228.145033
 31
0.0
  0
LINE
  5
91
100
AcDbEntity
  8
2
370
   100
100
AcDbLine
 10
-298.877218
 20
-228.645033
 30
0.0
 11
-299.377218
 21
-228.145033
 31
0.0
  0
LINE
  5
92
100
AcDbEntity
  8
2
370
   100
100
AcDbLine
 10
-294.877218
 20
-213.645033
 30
0.0
 11
-294.877218
 21
-228.145033
 31
0.0
  0
LINE
  5
93
100
AcDbEntity
  8
2
370
   100
100
AcDbLine
 10
-297.44837
 20
-213.645033
 30
0.0
 11
-297.44837
 21
-228.145033
 31
0.0
  0
LINE
  5
94
100
AcDbEntity
  8
2
370
   100
100
AcDbLine
 10
-299.19837
 20
-213.645033
 30
0.0
 11
-299.19837
 21
-228.145033
 31
0.0
  0
LINE
  5
95
100
AcDbEntity
  8
2
370
   100
100
AcDbLine
 10
-299.377218
 20
-228.145033
 30
0.0
 11
-299.19837
 21
-228.145033
 31
0.0
  0
LINE
  5
96
100
AcDbEntity
  8
2
370
   100
100
AcDbLine
 10
-297.44837
 20
-228.145033
 30
0.0
 11
-294.877218
 21
-228.145033
 31
0.0
  0
ARC
  5
97
100
AcDbEntity
  8
2
370
   100
100
AcDbCircle
 10
-293.127218
 20
-225.332533
 30
0.0
 40
3.3125
100
AcDbArc
 50
238.109208
 51
270.0
  0
ARC
  5
98
100
AcDbEntity
  8
2
370
   100
100
AcDbCircle
 10
-298.32337
 20
-227.629408
 30
0.0
 40
1.015625
100
AcDbArc
 50
210.510237
 51
329.489763
  0
ARC
  5
99
100
AcDbEntity
  8
2
370
   100
100
AcDbCircle
 10
-293.127218
 20
-216.457533
 30
0.0
 40
3.3125
100
AcDbArc
 50
58.109208
 51
90.0
  0
LINE
  5
9A
100
AcDbEntity
  8
2
370
   100
100
AcDbLine
 10
-297.44837
 20
-213.645033
 30
0.0
 11
-294.877218
 21
-213.645033
 31
0.0
  0
ARC
  5
9B
100
AcDbEntity
  8
2
370
   100
100
AcDbCircle
 10
-298.32337
 20
-214.160658
 30
0.0
 40
1.015625
100
AcDbArc
 50
30.510237
 51
149.489763
  0
ARC
  5
9C
100
AcDbEntity
  8
2
370
   100
100
AcDbCircle
 10
-293.127218
 20
-216.457533
 30
0.0
 40
3.3125
100
AcDbArc
 50
90.0
 51
121.890792
  0
LINE
  5
9D
100
AcDbEntity
  8
2
370
   100
100
AcDbLine
 10
-298.877218
 20
-213.145033
 30
0.0
 11
-299.377218
 21
-213.645033
 31
0.0
  0
LINE
  5
9E
100
AcDbEntity
  8
2
370
   100
100
AcDbLine
 10
-299.377218
 20
-213.645033
 30
0.0
 11
-299.19837
 21
-213.645033
 31
0.0
  0
LINE
  5
9F
100
AcDbEntity
  8
2
370
   100
100
AcDbLine
 10
-291.377218
 20
-213.645033
 30
0.0
 11
-291.377218
 21
-228.145033
 31
0.0
  0
LINE
  5
A0
100
AcDbEntity
  8
2
370
   100
100
AcDbLine
 10
-287.377218
 20
-228.645033
 30
0.0
 11
-293.627218
 21
-228.645033
 31
0.0
  0
LINE
  5
A1
100
AcDbEntity
  8
2
370
   100
100
AcDbLine
 10
-287.377218
 20
-228.645033
 30
0.0
 11
-293.627218
 21
-228.645033
 31
0.0
  0
LINE
  5
A2
100
AcDbEntity
  8
2
370
   100
100
AcDbLine
 10
-286.877218
 20
-213.645033
 30
0.0
 11
-286.877218
 21
-228.145033
 31
0.0
  0
LINE
  5
A3
100
AcDbEntity
  8
2
370
   100
100
AcDbLine
 10
-287.377218
 20
-228.645033
 30
0.0
 11
-286.877218
 21
-228.145033
 31
0.0
  0
LINE
  5
A4
100
AcDbEntity
  8
2
370
   100
100
AcDbLine
 10
-287.056065
 20
-213.645033
 30
0.0
 11
-287.056065
 21
-228.145033
 31
0.0
  0
LINE
  5
A5
100
AcDbEntity
  8
2
370
   100
100
AcDbLine
 10
-286.877218
 20
-228.145033
 30
0.0
 11
-287.056065
 21
-228.145033
 31
0.0
  0
ARC
  5
A6
100
AcDbEntity
  8
2
370
   100
100
AcDbCircle
 10
-287.931065
 20
-227.629408
 30
0.0
 40
1.015625
100
AcDbArc
 50
210.510237
 51
329.489763
  0
LINE
  5
A7
100
AcDbEntity
  8
2
370
   100
100
AcDbLine
 10
-286.877218
 20
-213.645033
 30
0.0
 11
-286.877218
 21
-228.145033
 31
0.0
  0
LINE
  5
A8
100
AcDbEntity
  8
2
370
   100
100
AcDbLine
 10
-287.056065
 20
-213.645033
 30
0.0
 11
-287.056065
 21
-228.145033
 31
0.0
  0
ARC
  5
A9
100
AcDbEntity
  8
2
370
   100
100
AcDbCircle
 10
-287.931065
 20
-214.160658
 30
0.0
 40
1.015625
100
AcDbArc
 50
30.510237
 51
149.489763
  0
LINE
  5
AA
100
AcDbEntity
  8
2
370
   100
100
AcDbLine
 10
-287.377218
 20
-213.145033
 30
0.0
 11
-286.877218
 21
-213.645033
 31
0.0
  0
LINE
  5
AB
100
AcDbEntity
  8
2
370
   100
100
AcDbLine
 10
-288.806065
 20
-213.645033
 30
0.0
 11
-291.377218
 21
-213.645033
 31
0.0
  0
LINE
  5
AC
100
AcDbEntity
  8
2
370
   100
100
AcDbLine
 10
-287.377218
 20
-213.145033
 30
0.0
 11
-298.877218
 21
-213.145033
 31
0.0
  0
LINE
  5
AD
100
AcDbEntity
  8
2
370
   100
100
AcDbLine
 10
-288.806065
 20
-213.645033
 30
0.0
 11
-288.806065
 21
-228.145033
 31
0.0
  0
LINE
  5
AE
100
AcDbEntity
  8
2
370
   100
100
AcDbLine
 10
-288.806065
 20
-228.145033
 30
0.0
 11
-291.377218
 21
-228.145033
 31
0.0
  0
LINE
  5
AF
100
AcDbEntity
  8
2
370
   100
100
AcDbLine
 10
-301.377218
 20
-218.645033
 30
0.0
 11
-307.627218
 21
-218.645033
 31
0.0
  0
ARC
  5
B0
100
AcDbEntity
  8
2
370
   100
100
AcDbCircle
 10
-307.127218
 20
-215.332533
 30
0.0
 40
3.3125
100
AcDbArc
 50
238.109208
 51
270.0
  0
LINE
  5
B1
100
AcDbEntity
  8
2
370
   100
100
AcDbLine
 10
-300.877218
 20
-203.645033
 30
0.0
 11
-300.877218
 21
-218.145033
 31
0.0
  0
LINE
  5
B2
100
AcDbEntity
  8
2
370
   100
100
AcDbLine
 10
-301.377218
 20
-218.645033
 30
0.0
 11
-300.877218
 21
-218.145033
 31
0.0
  0
LINE
  5
B3
100
AcDbEntity
  8
2
370
   100
100
AcDbLine
 10
-305.377218
 20
-203.645033
 30
0.0
 11
-305.377218
 21
-218.145033
 31
0.0
  0
LINE
  5
B4
100
AcDbEntity
  8
2
370
   100
100
AcDbLine
 10
-302.806065
 20
-203.645033
 30
0.0
 11
-302.806065
 21
-218.145033
 31
0.0
  0
LINE
  5
B5
100
AcDbEntity
  8
2
370
   100
100
AcDbLine
 10
-301.056065
 20
-203.645033
 30
0.0
 11
-301.056065
 21
-218.145033
 31
0.0
  0
LINE
  5
B6
100
AcDbEntity
  8
2
370
   100
100
AcDbLine
 10
-300.877218
 20
-218.145033
 30
0.0
 11
-301.056065
 21
-218.145033
 31
0.0
  0
LINE
  5
B7
100
AcDbEntity
  8
2
370
   100
100
AcDbLine
 10
-302.806065
 20
-218.145033
 30
0.0
 11
-305.377218
 21
-218.145033
 31
0.0
  0
ARC
  5
B8
100
AcDbEntity
  8
2
370
   100
100
AcDbCircle
 10
-307.127218
 20
-215.332533
 30
0.0
 40
3.3125
100
AcDbArc
 50
270.0
 51
301.890792
  0
ARC
  5
B9
100
AcDbEntity
  8
2
370
   100
100
AcDbCircle
 10
-301.931065
 20
-217.629408
 30
0.0
 40
1.015625
100
AcDbArc
 50
210.510237
 51
329.489763
  0
ARC
  5
BA
100
AcDbEntity
  8
2
370
   100
100
AcDbCircle
 10
-307.127218
 20
-206.457533
 30
0.0
 40
3.3125
100
AcDbArc
 50
90.0
 51
121.890792
  0
LINE
  5
BB
100
AcDbEntity
  8
2
370
   100
100
AcDbLine
 10
-302.806065
 20
-203.645033
 30
0.0
 11
-305.377218
 21
-203.645033
 31
0.0
  0
ARC
  5
BC
100
AcDbEntity
  8
2
370
   100
100
AcDbCircle
 10
-301.931065
 20
-204.160658
 30
0.0
 40
1.015625
100
AcDbArc
 50
30.510237
 51
149.489763
  0
ARC
  5
BD
100
AcDbEntity
  8
2
370
   100
100
AcDbCircle
 10
-307.127218
 20
-206.457533
 30
0.0
 40
3.3125
100
AcDbArc
 50
58.109208
 51
90.0
  0
LINE
  5
BE
100
AcDbEntity
  8
2
370
   100
100
AcDbLine
 10
-301.377218
 20
-203.145033
 30
0.0
 11
-300.877218
 21
-203.645033
 31
0.0
  0
LINE
  5
BF
100
AcDbEntity
  8
2
370
   100
100
AcDbLine
 10
-300.877218
 20
-203.645033
 30
0.0
 11
-301.056065
 21
-203.645033
 31
0.0
  0
LINE
  5
C0
100
AcDbEntity
  8
2
370
   100
100
AcDbLine
 10
-308.877218
 20
-203.645033
 30
0.0
 11
-308.877218
 21
-218.145033
 31
0.0
  0
LINE
  5
C1
100
AcDbEntity
  8
2
370
   100
100
AcDbLine
 10
-312.877218
 20
-218.645033
 30
0.0
 11
-306.627218
 21
-218.645033
 31
0.0
  0
LINE
  5
C2
100
AcDbEntity
  8
2
370
   100
100
AcDbLine
 10
-312.877218
 20
-218.645033
 30
0.0
 11
-306.627218
 21
-218.645033
 31
0.0
  0
LINE
  5
C3
100
AcDbEntity
  8
2
370
   100
100
AcDbLine
 10
-313.377218
 20
-203.645033
 30
0.0
 11
-313.377218
 21
-218.145033
 31
0.0
  0
LINE
  5
C4
100
AcDbEntity
  8
2
370
   100
100
AcDbLine
 10
-312.877218
 20
-218.645033
 30
0.0
 11
-313.377218
 21
-218.145033
 31
0.0
  0
LINE
  5
C5
100
AcDbEntity
  8
2
370
   100
100
AcDbLine
 10
-313.19837
 20
-203.645033
 30
0.0
 11
-313.19837
 21
-218.145033
 31
0.0
  0
LINE
  5
C6
100
AcDbEntity
  8
2
370
   100
100
AcDbLine
 10
-313.377218
 20
-218.145033
 30
0.0
 11
-313.19837
 21
-218.145033
 31
0.0
  0
ARC
  5
C7
100
AcDbEntity
  8
2
370
   100
100
AcDbCircle
 10
-312.32337
 20
-217.629408
 30
0.0
 40
1.015625
100
AcDbArc
 50
210.510237
 51
329.489763
  0
LINE
  5
C8
100
AcDbEntity
  8
2
370
   100
100
AcDbLine
 10
-313.377218
 20
-203.645033
 30
0.0
 11
-313.377218
 21
-218.145033
 31
0.0
  0
LINE
  5
C9
100
AcDbEntity
  8
2
370
   100
100
AcDbLine
 10
-313.19837
 20
-203.645033
 30
0.0
 11
-313.19837
 21
-218.145033
 31
0.0
  0
ARC
  5
CA
100
AcDbEntity
  8
2
370
   100
100
AcDbCircle
 10
-312.32337
 20
-204.160658
 30
0.0
 40
1.015625
100
AcDbArc
 50
30.510237
 51
149.489763
  0
LINE
  5
CB
100
AcDbEntity
  8
2
370
   100
100
AcDbLine
 10
-312.877218
 20
-203.145033
 30
0.0
 11
-313.377218
 21
-203.645033
 31
0.0
  0
LINE
  5
CC
100
AcDbEntity
  8
2
370
   100
100
AcDbLine
 10
-311.44837
 20
-203.645033
 30
0.0
 11
-308.877218
 21
-203.645033
 31
0.0
  0
LINE
  5
CD
100
AcDbEntity
  8
2
370
   100
100
AcDbLine
 10
-312.877218
 20
-203.145033
 30
0.0
 11
-301.377218
 21
-203.145033
 31
0.0
  0
LINE
  5
CE
100
AcDbEntity
  8
2
370
   100
100
AcDbLine
 10
-311.44837
 20
-203.645033
 30
0.0
 11
-311.44837
 21
-218.145033
 31
0.0
  0
LINE
  5
CF
100
AcDbEntity
  8
2
370
   100
100
AcDbLine
 10
-311.44837
 20
-218.145033
 30
0.0
 11
-308.877218
 21
-218.145033
 31
0.0
  0
LINE
  5
D0
100
AcDbEntity
  8
2
370
   100
  6
CENTER
100
AcDbLine
 10
205.357388
 20
33.055056
 30
0.0
 11
214.357388
 21
33.055056
 31
0.0
  0
POINT
  5
D1
100
AcDbEntity
  8
2
370
    50
100
AcDbPoint
 10
209.857388
 20
33.055056
 30
0.0
  0
LINE
  5
D2
100
AcDbEntity
  8
2
370
   100
100
AcDbLine
 10
193.357388
 20
30.055056
 30
0.0
 11
189.357388
 21
30.055056
 31
0.0
  0
LINE
  5
D3
100
AcDbEntity
  8
2
370
   100
100
AcDbLine
 10
191.857388
 20
30.055056
 30
0.0
 11
187.954487
 21
30.055056
 31
0.0
  0
ARC
  5
D4
100
AcDbEntity
  8
2
370
   100
100
AcDbCircle
 10
187.391615
 20
29.972717
 30
0.0
 40
1.0
100
AcDbArc
 50
175.27696
 51
179.5
  0
LINE
  5
D5
100
AcDbEntity
  8
2
370
   100
100
AcDbLine
 10
186.368733
 20
27.355056
 30
0.0
 11
186.391653
 21
29.981443
 31
0.0
  0
ARC
  5
D6
100
AcDbEntity
  8
2
370
   100
100
AcDbCircle
 10
139.342943
 20
-4.022563
 30
0.0
 40
100.0
100
AcDbArc
 50
20.083343
 51
25.621167
  0
ARC
  5
D7
100
AcDbEntity
  8
2
370
   100
100
AcDbCircle
 10
232.323161
 20
29.972717
 30
0.0
 40
1.0
100
AcDbArc
 50
0.5
 51
20.083343
  0
LINE
  5
D8
100
AcDbEntity
  8
2
370
   100
100
AcDbLine
 10
233.346043
 20
27.355056
 30
0.0
 11
233.323123
 21
29.981443
 31
0.0
  0
LINE
  5
D9
100
AcDbEntity
  8
2
370
   100
100
AcDbLine
 10
235.857388
 20
-89.344944
 30
0.0
 11
235.857388
 21
27.155056
 31
0.0
  0
LINE
  5
DA
100
AcDbEntity
  8
2
370
   100
100
AcDbLine
 10
235.857388
 20
-89.344944
 30
0.0
 11
235.557388
 21
-89.644944
 31
0.0
  0
LINE
  5
DB
100
AcDbEntity
  8
2
370
   100
100
AcDbLine
 10
209.857388
 20
27.355056
 30
0.0
 11
235.657388
 21
27.355056
 31
0.0
  0
LINE
  5
DC
100
AcDbEntity
  8
2
370
   100
100
AcDbLine
 10
235.557388
 20
-89.644944
 30
0.0
 11
209.857388
 21
-89.644944
 31
0.0
  0
LINE
  5
DD
100
AcDbEntity
  8
2
370
   100
100
AcDbLine
 10
235.657388
 20
27.355056
 30
0.0
 11
235.857388
 21
27.155056
 31
0.0
  0
LINE
  5
DE
100
AcDbEntity
  8
2
370
   100
100
AcDbLine
 10
209.857388
 20
27.355056
 30
0.0
 11
184.057388
 21
27.355056
 31
0.0
  0
LINE
  5
DF
100
AcDbEntity
  8
2
370
   100
100
AcDbLine
 10
184.057388
 20
27.355056
 30
0.0
 11
183.857388
 21
27.155056
 31
0.0
  0
LINE
  5
E0
100
AcDbEntity
  8
2
370
   100
100
AcDbLine
 10
183.857388
 20
-14.737784
 30
0.0
 11
183.857388
 21
27.155056
 31
0.0
  0
LINE
  5
E1
100
AcDbEntity
  8
2
370
   100
100
AcDbLine
 10
183.857388
 20
-89.344944
 30
0.0
 11
183.857388
 21
-77.310477
 31
0.0
  0
LINE
  5
E2
100
AcDbEntity
  8
2
370
   100
100
AcDbLine
 10
183.857388
 20
-89.344944
 30
0.0
 11
184.157388
 21
-89.644944
 31
0.0
  0
LINE
  5
E3
100
AcDbEntity
  8
2
370
   100
100
AcDbLine
 10
184.157388
 20
-89.644944
 30
0.0
 11
209.857388
 21
-89.644944
 31
0.0
  0
LINE
  5
E4
100
AcDbEntity
  8
2
370
   100
100
AcDbLine
 10
-274.127218
 20
-89.344836
 30
0.0
 11
-274.127218
 21
27.155164
 31
0.0
  0
LINE
  5
E5
100
AcDbEntity
  8
2
370
   100
100
AcDbLine
 10
-274.327218
 20
27.355164
 30
0.0
 11
-274.127218
 21
27.155164
 31
0.0
  0
LINE
  5
E6
100
AcDbEntity
  8
2
370
   100
100
AcDbLine
 10
-300.127218
 20
27.355164
 30
0.0
 11
-274.327218
 21
27.355164
 31
0.0
  0
LINE
  5
E7
100
AcDbEntity
  8
2
370
   100
100
AcDbLine
 10
-300.127218
 20
27.155164
 30
0.0
 11
-274.127218
 21
27.155164
 31
0.0
  0
LINE
  5
E8
100
AcDbEntity
  8
2
370
   100
100
AcDbLine
 10
-326.127218
 20
-89.344836
 30
0.0
 11
-326.127218
 21
27.155164
 31
0.0
  0
LINE
  5
E9
100
AcDbEntity
  8
2
370
   100
100
AcDbLine
 10
-326.127218
 20
27.155164
 30
0.0
 11
-325.927218
 21
27.355164
 31
0.0
  0
LINE
  5
EA
100
AcDbEntity
  8
2
370
   100
100
AcDbLine
 10
-325.927218
 20
27.355164
 30
0.0
 11
-300.127218
 21
27.355164
 31
0.0
  0
LINE
  5
EB
100
AcDbEntity
  8
2
370
   100
100
AcDbLine
 10
-326.127218
 20
27.155164
 30
0.0
 11
-300.127218
 21
27.155164
 31
0.0
  0
LINE
  5
EC
100
AcDbEntity
  8
2
370
   100
100
AcDbLine
 10
-274.127218
 20
-89.344836
 30
0.0
 11
-274.427218
 21
-89.644836
 31
0.0
  0
LINE
  5
ED
100
AcDbEntity
  8
2
370
   100
100
AcDbLine
 10
-274.427218
 20
-89.644836
 30
0.0
 11
-300.127218
 21
-89.644836
 31
0.0
  0
LINE
  5
EE
100
AcDbEntity
  8
2
370
   100
100
AcDbLine
 10
-274.127218
 20
-89.344836
 30
0.0
 11
-300.127218
 21
-89.344836
 31
0.0
  0
LINE
  5
EF
100
AcDbEntity
  8
2
370
   100
100
AcDbLine
 10
-326.127218
 20
-89.344836
 30
0.0
 11
-325.827218
 21
-89.644836
 31
0.0
  0
LINE
  5
F0
100
AcDbEntity
  8
2
370
   100
100
AcDbLine
 10
-325.827218
 20
-89.644836
 30
0.0
 11
-300.127218
 21
-89.644836
 31
0.0
  0
LINE
  5
F1
100
AcDbEntity
  8
2
370
   100
100
AcDbLine
 10
-326.127218
 20
-89.344836
 30
0.0
 11
-300.127218
 21
-89.344836
 31
0.0
  0
LINE
  5
F2
100
AcDbEntity
  8
2
370
   100
  6
CENTER
100
AcDbLine
 10
205.357388
 20
-181.150417
 30
0.0
 11
205.357388
 21
-305.157513
 31
0.0
  0
LINE
  5
F3
100
AcDbEntity
  8
2
370
   100
100
AcDbLine
 10
232.786466
 20
30.15357
 30
0.0
 11
210.068653
 21
30.15357
 31
0.0
  0
LINE
  5
F4
100
AcDbEntity
  8
2
370
   100
100
AcDbLine
 10
183.857388
 20
27.155056
 30
0.0
 11
235.857388
 21
27.155056
 31
0.0
  0
LINE
  5
F5
100
AcDbEntity
  8
2
370
   100
100
AcDbLine
 10
183.857388
 20
-89.344944
 30
0.0
 11
235.857388
 21
-89.344944
 31
0.0
  0
LINE
  5
F6
100
AcDbEntity
  8
2
370
   100
100
AcDbLine
 10
234.357388
 20
-89.944944
 30
0.0
 11
185.357388
 21
-89.944944
 31
0.0
  0
LINE
  5
F7
100
AcDbEntity
  8
2
370
   100
100
AcDbLine
 10
-318.127218
 20
30.055056
 30
0.0
 11
-322.030119
 21
30.055056
 31
0.0
  0
LINE
  5
F8
100
AcDbEntity
  8
2
370
   100
100
AcDbLine
 10
-323.615873
 20
27.355056
 30
0.0
 11
-323.593618
 21
29.905164
 31
0.0
  0
LINE
  5
F9
100
AcDbEntity
  8
2
370
   100
100
AcDbLine
 10
-282.127218
 20
30.055056
 30
0.0
 11
-278.224317
 21
30.055056
 31
0.0
  0
ARC
  5
FA
100
AcDbEntity
  8
2
370
   100
100
AcDbCircle
 10
-277.661445
 20
29.972717
 30
0.0
 40
1.0
100
AcDbArc
 50
0.5
 51
4.72304
  0
LINE
  5
FB
100
AcDbEntity
  8
2
370
   100
100
AcDbLine
 10
-276.638563
 20
27.355056
 30
0.0
 11
-276.661483
 21
29.981443
 31
0.0
  0
LINE
  5
FC
100
AcDbEntity
  8
2
370
   100
100
AcDbLine
 10
184.857388
 20
-108.444944
 30
0.0
 11
184.857388
 21
-106.444944
 31
0.0
  0
LINE
  5
FD
100
AcDbEntity
  8
2
370
   100
100
AcDbLine
 10
234.857388
 20
-108.444944
 30
0.0
 11
234.857388
 21
-106.444944
 31
0.0
  0
LINE
  5
FE
100
AcDbEntity
  8
2
370
   100
100
AcDbLine
 10
184.857388
 20
-107.944944
 30
0.0
 11
234.857388
 21
-107.944944
 31
0.0
  0
LINE
  5
FF
100
AcDbEntity
  8
2
370
   100
100
AcDbLine
 10
234.857388
 20
-106.444944
 30
0.0
 11
184.857388
 21
-106.444944
 31
0.0
  0
LINE
  5
100
100
AcDbEntity
  8
2
370
   100
100
AcDbLine
 10
183.857388
 20
-108.444944
 30
0.0
 11
235.857388
 21
-108.444944
 31
0.0
  0
LINE
  5
101
100
AcDbEntity
  8
2
370
   100
100
AcDbLine
 10
233.357388
 20
-90.144944
 30
0.0
 11
233.357388
 21
-93.144944
 31
0.0
  0
LINE
  5
102
100
AcDbEntity
  8
2
370
   100
100
AcDbLine
 10
186.357388
 20
-90.144944
 30
0.0
 11
186.357388
 21
-93.144944
 31
0.0
  0
LINE
  5
103
100
AcDbEntity
  8
2
370
   100
100
AcDbLine
 10
186.357388
 20
-93.144944
 30
0.0
 11
233.357388
 21
-93.144944
 31
0.0
  0
LINE
  5
104
100
AcDbEntity
  8
2
370
   100
100
AcDbLine
 10
227.357388
 20
-108.444944
 30
0.0
 11
235.857388
 21
-108.444944
 31
0.0
  0
HATCH
  5
105
100
AcDbEntity
  8
2
370
   100
100
AcDbHatch
 10
0.0
 20
0.0
 30
0.0
210
0.0
220
0.0
230
1.0
  2
_U
 70
     0
 71
     1
 91
        1
 92
        1
 93
        4
 72
     1
 10
234.85738799999999
 20
-106.44494400000001
 11
184.85738799999999
 21
-106.44494400000001
 72
     1
 10
184.85738799999999
 20
-106.44494400000001
 11
184.85738799999999
 21
-107.94494400000001
 72
     1
 10
184.85738799999999
 20
-107.94494400000001
 11
234.85738799999999
 21
-107.94494400000001
 72
     1
 10
234.85738799999999
 20
-107.94494400000001
 11
234.85738799999999
 21
-106.44494400000001
 97
        4
330
0
330
0
330
0
330
0
 75
     0
 76
     0
 52
45.0
 41
1.0
 77
     0
 78
     1
 53
45.0
 43
0.0
 44
0.0
 45
-0.424264
 46
0.424264
 79
     0
 98
        1
 10
0.0
 20
0.0
  0
HATCH
  5
106
100
AcDbEntity
  8
2
370
   100
100
AcDbHatch
 10
0.0
 20
0.0
 30
0.0
210
0.0
220
0.0
230
1.0
  2
_U
 70
     0
 71
     1
 91
        1
 92
        1
 93
        6
 72
     1
 10
233.35738799999999
 20
-90.144943999999995
 11
233.35738799999999
 21
-93.144943999999995
 72
     1
 10
233.35738799999999
 20
-93.144943999999995
 11
186.35738799999999
 21
-93.144943999999995
 72
     1
 10
186.35738799999999
 20
-93.144943999999995
 11
186.35738799999999
 21
-90.144943999999995
 72
     1
 10
186.35738799999999
 20
-90.144943999999995
 11
233.40753900000001
 21
-90.144943999999995
 72
     1
 10
233.40753900000001
 20
-90.144943999999995
 11
227.60738799999999
 21
-90.144943999999995
 72
     1
 10
227.60738799999999
 20
-90.144943999999995
 11
233.35738799999999
 21
-90.144943999999995
 97
        6
330
0
330
0
330
0
330
0
330
0
330
0
 75
     0
 76
     0
 52
45.0
 41
1.0
 77
     0
 78
     1
 53
45.0
 43
0.0
 44
0.0
 45
-1.0606599999999999
 46
1.0606599999999999
 79
     0
 98
        1
 10
0.0
 20
0.0
  0
LINE
  5
107
100
AcDbEntity
  8
2
370
   100
100
AcDbLine
 10
238.549059
 20
-108.444944
 30
0.0
 11
181.166019
 21
-108.444944
 31
0.0
  0
LINE
  5
108
100
AcDbEntity
  8
2
370
   100
100
AcDbLine
 10
181.166019
 20
-120.482239
 30
0.0
 11
181.166019
 21
-108.444944
 31
0.0
  0
LINE
  5
109
100
AcDbEntity
  8
2
370
   100
100
AcDbLine
 10
194.566718
 20
-110.651984
 30
0.0
 11
181.166019
 21
-110.651984
 31
0.0
  0
LINE
  5
10A
100
AcDbEntity
  8
2
370
   100
100
AcDbLine
 10
194.566718
 20
-120.482239
 30
0.0
 11
194.566718
 21
-110.651984
 31
0.0
  0
LINE
  5
10B
100
AcDbEntity
  8
2
370
   100
100
AcDbLine
 10
196.47807
 20
-120.482239
 30
0.0
 11
196.47807
 21
-110.651984
 31
0.0
  0
LINE
  5
10C
100
AcDbEntity
  8
2
370
   100
100
AcDbLine
 10
223.237008
 20
-110.651984
 30
0.0
 11
196.47807
 21
-110.651984
 31
0.0
  0
LINE
  5
10D
100
AcDbEntity
  8
2
370
   100
100
AcDbLine
 10
225.148361
 20
-120.482239
 30
0.0
 11
225.148361
 21
-110.651984
 31
0.0
  0
LINE
  5
10E
100
AcDbEntity
  8
2
370
   100
100
AcDbLine
 10
223.237008
 20
-120.482239
 30
0.0
 11
223.237008
 21
-110.651984
 31
0.0
  0
LINE
  5
10F
100
AcDbEntity
  8
2
370
   100
100
AcDbLine
 10
238.549059
 20
-110.651984
 30
0.0
 11
225.148361
 21
-110.651984
 31
0.0
  0
LINE
  5
110
100
AcDbEntity
  8
2
370
   100
100
AcDbLine
 10
238.549059
 20
-120.482239
 30
0.0
 11
238.549059
 21
-108.444944
 31
0.0
  0
ARC
  5
111
100
AcDbEntity
  8
2
370
   100
100
AcDbCircle
 10
231.84871
 20
-102.455368
 30
0.0
 40
19.231816
100
AcDbArc
 50
249.610566
 51
290.389434
  0
ARC
  5
112
100
AcDbEntity
  8
2
370
   100
100
AcDbCircle
 10
209.857539
 20
-46.803253
 30
0.0
 40
74.883932
100
AcDbArc
 50
259.707733
 51
280.292267
  0
LINE
  5
113
100
AcDbEntity
  8
2
370
   100
100
AcDbLine
 10
225.148361
 20
-120.482239
 30
0.0
 11
223.237008
 21
-120.482239
 31
0.0
  0
LINE
  5
114
100
AcDbEntity
  8
2
370
   100
100
AcDbLine
 10
196.47807
 20
-120.482239
 30
0.0
 11
194.566718
 21
-120.482239
 31
0.0
  0
ARC
  5
115
100
AcDbEntity
  8
2
370
   100
100
AcDbCircle
 10
209.857539
 20
-46.803253
 30
0.0
 40
74.883932
100
AcDbArc
 50
259.707733
 51
280.292267
  0
ARC
  5
116
100
AcDbEntity
  8
2
370
   100
100
AcDbCircle
 10
187.866369
 20
-102.455368
 30
0.0
 40
19.231816
100
AcDbArc
 50
249.610566
 51
290.389434
  0
LINE
  5
117
100
AcDbEntity
  8
2
370
   100
100
AcDbLine
 10
235.238499
 20
-121.687184
 30
0.0
 11
184.476579
 21
-121.687184
 31
0.0
  0
LINE
  5
118
100
AcDbEntity
  8
2
370
   100
100
AcDbLine
 10
184.476579
 20
-121.687184
 30
0.0
 11
181.166019
 21
-120.482239
 31
0.0
  0
LINE
  5
119
100
AcDbEntity
  8
2
370
   100
100
AcDbLine
 10
235.238499
 20
-121.687184
 30
0.0
 11
238.549059
 21
-120.482239
 31
0.0
  0
LINE
  5
11A
100
AcDbEntity
  8
2
370
   100
100
AcDbLine
 10
227.357388
 20
-131.850944
 30
0.0
 11
227.357388
 21
-121.687184
 31
0.0
  0
LINE
  5
11B
100
AcDbEntity
  8
2
370
   100
100
AcDbLine
 10
227.357388
 20
-106.444944
 30
0.0
 11
227.357388
 21
-93.144944
 31
0.0
  0
LINE
  5
11C
100
AcDbEntity
  8
2
370
   100
100
AcDbLine
 10
226.563638
 20
-132.644694
 30
0.0
 11
226.563638
 21
-121.687184
 31
0.0
  0
LINE
  5
11D
100
AcDbEntity
  8
2
370
   100
100
AcDbLine
 10
226.563638
 20
-106.444944
 30
0.0
 11
226.563638
 21
-93.144944
 31
0.0
  0
LINE
  5
11E
100
AcDbEntity
  8
2
370
   100
100
AcDbLine
 10
193.151138
 20
-132.644694
 30
0.0
 11
193.151138
 21
-121.687184
 31
0.0
  0
LINE
  5
11F
100
AcDbEntity
  8
2
370
   100
100
AcDbLine
 10
193.151138
 20
-106.444944
 30
0.0
 11
193.151138
 21
-93.144944
 31
0.0
  0
LINE
  5
120
100
AcDbEntity
  8
2
370
   100
100
AcDbLine
 10
192.357388
 20
-131.850944
 30
0.0
 11
192.357388
 21
-121.687184
 31
0.0
  0
LINE
  5
121
100
AcDbEntity
  8
2
370
   100
100
AcDbLine
 10
192.357388
 20
-106.444944
 30
0.0
 11
192.357388
 21
-93.144944
 31
0.0
  0
LINE
  5
122
100
AcDbEntity
  8
2
370
   100
100
AcDbLine
 10
192.357388
 20
-131.850944
 30
0.0
 11
227.357388
 21
-131.850944
 31
0.0
  0
LINE
  5
123
100
AcDbEntity
  8
2
370
   100
  6
CENTER
100
AcDbLine
 10
281.735142
 20
-98.220425
 30
0.0
 11
281.735142
 21
-126.074421
 31
0.0
  0
LINE
  5
124
100
AcDbEntity
  8
2
370
   100
  6
DASHED
100
AcDbLine
 10
281.735142
 20
-183.13992
 30
0.0
 11
285.735376
 21
-183.13992
 31
0.0
  0
LINE
  5
125
100
AcDbEntity
  8
2
370
   100
100
AcDbLine
 10
285.735142
 20
-121.376938
 30
0.0
 11
285.735142
 21
-157.63992
 31
0.0
  0
LINE
  5
126
100
AcDbEntity
  8
2
370
   100
100
AcDbLine
 10
277.735142
 20
-121.401764
 30
0.0
 11
277.735142
 21
-157.63992
 31
0.0
  0
ARC
  5
127
100
AcDbEntity
  8
2
370
   100
100
AcDbCircle
 10
218.357388
 20
-147.039171
 30
0.0
 40
3.333333
100
AcDbArc
 50
233.130102
 51
306.869898
  0
ARC
  5
128
100
AcDbEntity
  8
2
370
   100
100
AcDbCircle
 10
222.357388
 20
-152.372504
 30
0.0
 40
3.333333
100
AcDbArc
 50
53.130102
 51
126.869898
  0
ARC
  5
129
100
AcDbEntity
  8
2
370
   100
100
AcDbCircle
 10
218.357388
 20
-152.372504
 30
0.0
 40
3.333333
100
AcDbArc
 50
53.130102
 51
126.869898
  0
ARC
  5
12A
100
AcDbEntity
  8
2
370
   100
100
AcDbCircle
 10
279.735142
 20
-118.746343
 30
0.0
 40
3.333333
100
AcDbArc
 50
233.130102
 51
306.869898
  0
ARC
  5
12B
100
AcDbEntity
  8
2
370
   100
100
AcDbCircle
 10
283.735142
 20
-124.079676
 30
0.0
 40
3.333333
100
AcDbArc
 50
53.130102
 51
126.869898
  0
ARC
  5
12C
100
AcDbEntity
  8
2
370
   100
100
AcDbCircle
 10
283.735142
 20
-118.746343
 30
0.0
 40
3.333333
100
AcDbArc
 50
233.130102
 51
306.869898
  0
LINE
  5
12D
100
AcDbEntity
  8
2
370
   100
100
AcDbLine
 10
223.107388
 20
-203.144944
 30
0.0
 11
217.357388
 21
-203.144944
 31
0.0
  0
ARC
  5
12E
100
AcDbEntity
  8
2
370
   100
100
AcDbCircle
 10
217.357388
 20
-206.457444
 30
0.0
 40
3.3125
100
AcDbArc
 50
58.109208
 51
90.0
  0
LINE
  5
12F
100
AcDbEntity
  8
2
370
   100
100
AcDbLine
 10
219.107388
 20
-203.644944
 30
0.0
 11
219.107388
 21
-218.144944
 31
0.0
  0
ARC
  5
130
100
AcDbEntity
  8
2
370
   100
100
AcDbCircle
 10
217.357388
 20
-215.332444
 30
0.0
 40
3.3125
100
AcDbArc
 50
270.0
 51
301.890792
  0
LINE
  5
131
100
AcDbEntity
  8
2
370
   100
100
AcDbLine
 10
221.678541
 20
-218.144944
 30
0.0
 11
219.107388
 21
-218.144944
 31
0.0
  0
LINE
  5
132
100
AcDbEntity
  8
2
370
   100
100
AcDbLine
 10
221.678541
 20
-203.644944
 30
0.0
 11
219.107388
 21
-203.644944
 31
0.0
  0
LINE
  5
133
100
AcDbEntity
  8
2
370
   100
100
AcDbLine
 10
221.678541
 20
-203.644944
 30
0.0
 11
221.678541
 21
-218.144944
 31
0.0
  0
ARC
  5
134
100
AcDbEntity
  8
2
370
   100
100
AcDbCircle
 10
222.553541
 20
-204.160569
 30
0.0
 40
1.015625
100
AcDbArc
 50
30.510237
 51
149.489763
  0
LINE
  5
135
100
AcDbEntity
  8
2
370
   100
100
AcDbLine
 10
223.607388
 20
-203.644944
 30
0.0
 11
223.607388
 21
-218.144944
 31
0.0
  0
LINE
  5
136
100
AcDbEntity
  8
2
370
   100
100
AcDbLine
 10
223.428541
 20
-203.644944
 30
0.0
 11
223.428541
 21
-218.144944
 31
0.0
  0
LINE
  5
137
100
AcDbEntity
  8
2
370
   100
100
AcDbLine
 10
223.107388
 20
-203.144944
 30
0.0
 11
223.607388
 21
-203.644944
 31
0.0
  0
LINE
  5
138
100
AcDbEntity
  8
2
370
   100
100
AcDbLine
 10
223.607388
 20
-203.644944
 30
0.0
 11
223.428541
 21
-203.644944
 31
0.0
  0
LINE
  5
139
100
AcDbEntity
  8
2
370
   100
100
AcDbLine
 10
223.107388
 20
-218.644944
 30
0.0
 11
217.357388
 21
-218.644944
 31
0.0
  0
LINE
  5
13A
100
AcDbEntity
  8
2
370
   100
100
AcDbLine
 10
223.107388
 20
-218.644944
 30
0.0
 11
223.607388
 21
-218.144944
 31
0.0
  0
LINE
  5
13B
100
AcDbEntity
  8
2
370
   100
100
AcDbLine
 10
223.607388
 20
-218.144944
 30
0.0
 11
223.428541
 21
-218.144944
 31
0.0
  0
ARC
  5
13C
100
AcDbEntity
  8
2
370
   100
100
AcDbCircle
 10
222.553541
 20
-217.629319
 30
0.0
 40
1.015625
100
AcDbArc
 50
210.510237
 51
329.489763
  0
LINE
  5
13D
100
AcDbEntity
  8
2
370
   100
100
AcDbLine
 10
221.357388
 20
-149.156235
 30
0.0
 11
221.357388
 21
-203.144944
 31
0.0
  0
LINE
  5
13E
100
AcDbEntity
  8
2
370
   100
100
AcDbLine
 10
198.357388
 20
-179.83938
 30
0.0
 11
198.357388
 21
-177.203226
 31
0.0
  0
ARC
  5
13F
100
AcDbEntity
  8
2
370
   100
100
AcDbCircle
 10
198.557388
 20
-177.203226
 30
0.0
 40
0.2
100
AcDbArc
 50
99.5
 51
180.0
  0
LINE
  5
140
100
AcDbEntity
  8
2
370
   100
100
AcDbLine
 10
199.157388
 20
-176.89966
 30
0.0
 11
199.157388
 21
-175.885755
 31
0.0
  0
LINE
  5
141
100
AcDbEntity
  8
2
370
   100
100
AcDbLine
 10
212.124373
 20
-174.729731
 30
0.0
 11
198.524376
 21
-177.005988
 31
0.0
  0
LINE
  5
142
100
AcDbEntity
  8
2
370
   100
100
AcDbLine
 10
198.357388
 20
-175.78338
 30
0.0
 11
198.357388
 21
-173.147226
 31
0.0
  0
ARC
  5
143
100
AcDbEntity
  8
2
370
   100
100
AcDbCircle
 10
198.557388
 20
-173.147226
 30
0.0
 40
0.2
100
AcDbArc
 50
99.5
 51
180.0
  0
LINE
  5
144
100
AcDbEntity
  8
2
370
   100
100
AcDbLine
 10
198.590398
 20
-175.980637
 30
0.0
 11
212.190398
 21
-173.704777
 31
0.0
  0
ARC
  5
145
100
AcDbEntity
  8
2
370
   100
100
AcDbCircle
 10
198.557388
 20
-175.78338
 30
0.0
 40
0.2
100
AcDbArc
 50
180.0
 51
279.5
  0
LINE
  5
146
100
AcDbEntity
  8
2
370
   100
100
AcDbLine
 10
199.157388
 20
-172.84366
 30
0.0
 11
199.157388
 21
-171.829755
 31
0.0
  0
LINE
  5
147
100
AcDbEntity
  8
2
370
   100
100
AcDbLine
 10
212.124373
 20
-170.673731
 30
0.0
 11
198.524376
 21
-172.949988
 31
0.0
  0
LINE
  5
148
100
AcDbEntity
  8
2
370
   100
100
AcDbLine
 10
198.357388
 20
-171.72738
 30
0.0
 11
198.357388
 21
-169.091226
 31
0.0
  0
ARC
  5
149
100
AcDbEntity
  8
2
370
   100
100
AcDbCircle
 10
198.557388
 20
-169.091226
 30
0.0
 40
0.2
100
AcDbArc
 50
99.5
 51
180.0
  0
LINE
  5
14A
100
AcDbEntity
  8
2
370
   100
100
AcDbLine
 10
198.590398
 20
-171.924637
 30
0.0
 11
212.190398
 21
-169.648777
 31
0.0
  0
ARC
  5
14B
100
AcDbEntity
  8
2
370
   100
100
AcDbCircle
 10
198.557388
 20
-171.72738
 30
0.0
 40
0.2
100
AcDbArc
 50
180.0
 51
279.5
  0
LINE
  5
14C
100
AcDbEntity
  8
2
370
   100
100
AcDbLine
 10
199.157388
 20
-168.78766
 30
0.0
 11
199.157388
 21
-167.773755
 31
0.0
  0
LINE
  5
14D
100
AcDbEntity
  8
2
370
   100
100
AcDbLine
 10
212.124373
 20
-166.617731
 30
0.0
 11
198.524376
 21
-168.893988
 31
0.0
  0
LINE
  5
14E
100
AcDbEntity
  8
2
370
   100
100
AcDbLine
 10
198.357388
 20
-167.67138
 30
0.0
 11
198.357388
 21
-165.035226
 31
0.0
  0
ARC
  5
14F
100
AcDbEntity
  8
2
370
   100
100
AcDbCircle
 10
198.557388
 20
-165.035226
 30
0.0
 40
0.2
100
AcDbArc
 50
99.5
 51
180.0
  0
LINE
  5
150
100
AcDbEntity
  8
2
370
   100
100
AcDbLine
 10
198.590398
 20
-167.868637
 30
0.0
 11
212.190398
 21
-165.592777
 31
0.0
  0
ARC
  5
151
100
AcDbEntity
  8
2
370
   100
100
AcDbCircle
 10
198.557388
 20
-167.67138
 30
0.0
 40
0.2
100
AcDbArc
 50
180.0
 51
279.5
  0
LINE
  5
152
100
AcDbEntity
  8
2
370
   100
100
AcDbLine
 10
199.157388
 20
-164.73166
 30
0.0
 11
199.157388
 21
-163.717755
 31
0.0
  0
LINE
  5
153
100
AcDbEntity
  8
2
370
   100
100
AcDbLine
 10
212.124373
 20
-162.561731
 30
0.0
 11
198.524376
 21
-164.837988
 31
0.0
  0
LINE
  5
154
100
AcDbEntity
  8
2
370
   100
100
AcDbLine
 10
198.357388
 20
-163.61538
 30
0.0
 11
198.357388
 21
-160.979226
 31
0.0
  0
ARC
  5
155
100
AcDbEntity
  8
2
370
   100
100
AcDbCircle
 10
198.557388
 20
-160.979226
 30
0.0
 40
0.2
100
AcDbArc
 50
99.5
 51
180.0
  0
LINE
  5
156
100
AcDbEntity
  8
2
370
   100
100
AcDbLine
 10
198.590398
 20
-163.812637
 30
0.0
 11
212.190398
 21
-161.536777
 31
0.0
  0
ARC
  5
157
100
AcDbEntity
  8
2
370
   100
100
AcDbCircle
 10
198.557388
 20
-163.61538
 30
0.0
 40
0.2
100
AcDbArc
 50
180.0
 51
279.5
  0
LINE
  5
158
100
AcDbEntity
  8
2
370
   100
100
AcDbLine
 10
199.157388
 20
-160.67566
 30
0.0
 11
199.157388
 21
-159.661755
 31
0.0
  0
LINE
  5
159
100
AcDbEntity
  8
2
370
   100
100
AcDbLine
 10
212.124373
 20
-158.505731
 30
0.0
 11
198.524376
 21
-160.781988
 31
0.0
  0
LINE
  5
15A
100
AcDbEntity
  8
2
370
   100
100
AcDbLine
 10
198.357388
 20
-159.55938
 30
0.0
 11
198.357388
 21
-156.923226
 31
0.0
  0
ARC
  5
15B
100
AcDbEntity
  8
2
370
   100
100
AcDbCircle
 10
198.557388
 20
-156.923226
 30
0.0
 40
0.2
100
AcDbArc
 50
99.5
 51
180.0
  0
LINE
  5
15C
100
AcDbEntity
  8
2
370
   100
100
AcDbLine
 10
198.590398
 20
-159.756637
 30
0.0
 11
212.190398
 21
-157.480777
 31
0.0
  0
ARC
  5
15D
100
AcDbEntity
  8
2
370
   100
100
AcDbCircle
 10
198.557388
 20
-159.55938
 30
0.0
 40
0.2
100
AcDbArc
 50
180.0
 51
279.5
  0
LINE
  5
15E
100
AcDbEntity
  8
2
370
   100
100
AcDbLine
 10
199.157388
 20
-156.61966
 30
0.0
 11
199.157388
 21
-155.605755
 31
0.0
  0
LINE
  5
15F
100
AcDbEntity
  8
2
370
   100
100
AcDbLine
 10
212.124373
 20
-154.449731
 30
0.0
 11
198.524376
 21
-156.725988
 31
0.0
  0
LINE
  5
160
100
AcDbEntity
  8
2
370
   100
100
AcDbLine
 10
198.357388
 20
-155.50338
 30
0.0
 11
198.357388
 21
-152.867226
 31
0.0
  0
ARC
  5
161
100
AcDbEntity
  8
2
370
   100
100
AcDbCircle
 10
198.557388
 20
-152.867226
 30
0.0
 40
0.2
100
AcDbArc
 50
99.5
 51
180.0
  0
LINE
  5
162
100
AcDbEntity
  8
2
370
   100
100
AcDbLine
 10
198.590398
 20
-155.700637
 30
0.0
 11
212.190398
 21
-153.424777
 31
0.0
  0
ARC
  5
163
100
AcDbEntity
  8
2
370
   100
100
AcDbCircle
 10
198.557388
 20
-155.50338
 30
0.0
 40
0.2
100
AcDbArc
 50
180.0
 51
279.5
  0
LINE
  5
164
100
AcDbEntity
  8
2
370
   100
100
AcDbLine
 10
199.157388
 20
-152.56366
 30
0.0
 11
199.157388
 21
-151.549755
 31
0.0
  0
LINE
  5
165
100
AcDbEntity
  8
2
370
   100
100
AcDbLine
 10
212.124373
 20
-150.393731
 30
0.0
 11
198.524376
 21
-152.669988
 31
0.0
  0
LINE
  5
166
100
AcDbEntity
  8
2
370
   100
100
AcDbLine
 10
198.357388
 20
-151.44738
 30
0.0
 11
198.357388
 21
-148.811226
 31
0.0
  0
ARC
  5
167
100
AcDbEntity
  8
2
370
   100
100
AcDbCircle
 10
198.557388
 20
-148.811226
 30
0.0
 40
0.2
100
AcDbArc
 50
99.5
 51
180.0
  0
LINE
  5
168
100
AcDbEntity
  8
2
370
   100
100
AcDbLine
 10
198.590398
 20
-151.644637
 30
0.0
 11
212.190398
 21
-149.368777
 31
0.0
  0
ARC
  5
169
100
AcDbEntity
  8
2
370
   100
100
AcDbCircle
 10
198.557388
 20
-151.44738
 30
0.0
 40
0.2
100
AcDbArc
 50
180.0
 51
279.5
  0
LINE
  5
16A
100
AcDbEntity
  8
2
370
   100
100
AcDbLine
 10
199.157388
 20
-148.50766
 30
0.0
 11
199.157388
 21
-147.493755
 31
0.0
  0
LINE
  5
16B
100
AcDbEntity
  8
2
370
   100
100
AcDbLine
 10
212.124373
 20
-146.337731
 30
0.0
 11
198.524376
 21
-148.613988
 31
0.0
  0
LINE
  5
16C
100
AcDbEntity
  8
2
370
   100
100
AcDbLine
 10
198.590398
 20
-147.588637
 30
0.0
 11
212.190398
 21
-145.312777
 31
0.0
  0
LINE
  5
16D
100
AcDbEntity
  8
2
370
   100
100
AcDbLine
 10
198.357388
 20
-147.39138
 30
0.0
 11
198.357388
 21
-144.755226
 31
0.0
  0
ARC
  5
16E
100
AcDbEntity
  8
2
370
   100
100
AcDbCircle
 10
198.557388
 20
-147.39138
 30
0.0
 40
0.2
100
AcDbArc
 50
180.0
 51
279.5
  0
LINE
  5
16F
100
AcDbEntity
  8
2
370
   100
100
AcDbLine
 10
212.124373
 20
-142.281731
 30
0.0
 11
198.524376
 21
-144.557988
 31
0.0
  0
ARC
  5
170
100
AcDbEntity
  8
2
370
   100
100
AcDbCircle
 10
198.557388
 20
-144.755226
 30
0.0
 40
0.2
100
AcDbArc
 50
99.5
 51
180.0
  0
LINE
  5
171
100
AcDbEntity
  8
2
370
   100
100
AcDbLine
 10
199.157388
 20
-144.45166
 30
0.0
 11
199.157388
 21
-143.437755
 31
0.0
  0
LINE
  5
172
100
AcDbEntity
  8
2
370
   100
100
AcDbLine
 10
199.157388
 20
-140.39566
 30
0.0
 11
199.157388
 21
-139.381755
 31
0.0
  0
ARC
  5
173
100
AcDbEntity
  8
2
370
   100
100
AcDbCircle
 10
198.557388
 20
-140.699226
 30
0.0
 40
0.2
100
AcDbArc
 50
99.5
 51
180.0
  0
LINE
  5
174
100
AcDbEntity
  8
2
370
   100
100
AcDbLine
 10
198.357388
 20
-143.33538
 30
0.0
 11
198.357388
 21
-140.699226
 31
0.0
  0
ARC
  5
175
100
AcDbEntity
  8
2
370
   100
100
AcDbCircle
 10
198.557388
 20
-143.33538
 30
0.0
 40
0.2
100
AcDbArc
 50
180.0
 51
279.5
  0
LINE
  5
176
100
AcDbEntity
  8
2
370
   100
100
AcDbLine
 10
198.590398
 20
-143.532637
 30
0.0
 11
212.190398
 21
-141.256777
 31
0.0
  0
LINE
  5
177
100
AcDbEntity
  8
2
370
   100
100
AcDbLine
 10
198.357388
 20
-139.27938
 30
0.0
 11
198.357388
 21
-136.643226
 31
0.0
  0
ARC
  5
178
100
AcDbEntity
  8
2
370
   100
100
AcDbCircle
 10
198.557388
 20
-139.27938
 30
0.0
 40
0.2
100
AcDbArc
 50
180.0
 51
279.5
  0
ARC
  5
179
100
AcDbEntity
  8
2
370
   100
100
AcDbCircle
 10
198.557388
 20
-136.643226
 30
0.0
 40
0.2
100
AcDbArc
 50
99.5
 51
180.0
  0
LINE
  5
17A
100
AcDbEntity
  8
2
370
   100
100
AcDbLine
 10
199.157388
 20
-136.33966
 30
0.0
 11
199.157388
 21
-135.325755
 31
0.0
  0
LINE
  5
17B
100
AcDbEntity
  8
2
370
   100
100
AcDbLine
 10
212.124373
 20
-138.225731
 30
0.0
 11
198.524376
 21
-140.501988
 31
0.0
  0
LINE
  5
17C
100
AcDbEntity
  8
2
370
   100
100
AcDbLine
 10
198.590398
 20
-139.476637
 30
0.0
 11
212.190398
 21
-137.200777
 31
0.0
  0
LINE
  5
17D
100
AcDbEntity
  8
2
370
   100
100
AcDbLine
 10
198.524376
 20
-136.445988
 30
0.0
 11
212.124373
 21
-134.169731
 31
0.0
  0
ARC
  5
17E
100
AcDbEntity
  8
2
370
   100
100
AcDbCircle
 10
198.557388
 20
-135.22338
 30
0.0
 40
0.2
100
AcDbArc
 50
180.0
 51
279.5
  0
LINE
  5
17F
100
AcDbEntity
  8
2
370
   100
100
AcDbLine
 10
198.590398
 20
-135.420637
 30
0.0
 11
212.190398
 21
-133.144777
 31
0.0
  0
LINE
  5
180
100
AcDbEntity
  8
2
370
   100
  6
PHANTOM
100
AcDbLine
 10
198.357388
 20
-179.83938
 30
0.0
 11
198.357388
 21
-187.560467
 31
0.0
  0
LINE
  5
181
100
AcDbEntity
  8
2
370
   100
100
AcDbLine
 10
198.357388
 20
-135.27938
 30
0.0
 11
198.357388
 21
-132.644944
 31
0.0
  0
LINE
  5
182
100
AcDbEntity
  8
2
370
   100
100
AcDbLine
 10
212.357388
 20
-173.50752
 30
0.0
 11
212.357388
 21
-170.870987
 31
0.0
  0
LINE
  5
183
100
AcDbEntity
  8
2
370
   100
100
AcDbLine
 10
212.357388
 20
-169.45152
 30
0.0
 11
212.357388
 21
-166.814987
 31
0.0
  0
LINE
  5
184
100
AcDbEntity
  8
2
370
   100
100
AcDbLine
 10
212.357388
 20
-165.39552
 30
0.0
 11
212.357388
 21
-162.758987
 31
0.0
  0
LINE
  5
185
100
AcDbEntity
  8
2
370
   100
100
AcDbLine
 10
212.357388
 20
-161.33952
 30
0.0
 11
212.357388
 21
-158.702987
 31
0.0
  0
LINE
  5
186
100
AcDbEntity
  8
2
370
   100
100
AcDbLine
 10
212.357388
 20
-157.28352
 30
0.0
 11
212.357388
 21
-154.646987
 31
0.0
  0
LINE
  5
187
100
AcDbEntity
  8
2
370
   100
100
AcDbLine
 10
212.357388
 20
-153.22752
 30
0.0
 11
212.357388
 21
-150.590987
 31
0.0
  0
LINE
  5
188
100
AcDbEntity
  8
2
370
   100
100
AcDbLine
 10
212.357388
 20
-149.17152
 30
0.0
 11
212.357388
 21
-146.534987
 31
0.0
  0
LINE
  5
189
100
AcDbEntity
  8
2
370
   100
100
AcDbLine
 10
212.357388
 20
-145.11552
 30
0.0
 11
212.357388
 21
-142.478987
 31
0.0
  0
LINE
  5
18A
100
AcDbEntity
  8
2
370
   100
100
AcDbLine
 10
212.357388
 20
-141.05952
 30
0.0
 11
212.357388
 21
-138.422987
 31
0.0
  0
LINE
  5
18B
100
AcDbEntity
  8
2
370
   100
100
AcDbLine
 10
212.357388
 20
-137.00352
 30
0.0
 11
212.357388
 21
-134.366987
 31
0.0
  0
LINE
  5
18C
100
AcDbEntity
  8
2
370
   100
100
AcDbLine
 10
212.357388
 20
-132.94752
 30
0.0
 11
212.357388
 21
-132.644944
 31
0.0
  0
LINE
  5
18D
100
AcDbEntity
  8
2
370
   100
100
AcDbLine
 10
211.557388
 20
-134.264628
 30
0.0
 11
211.557388
 21
-133.250707
 31
0.0
  0
LINE
  5
18E
100
AcDbEntity
  8
2
370
   100
100
AcDbLine
 10
211.557388
 20
-138.320628
 30
0.0
 11
211.557388
 21
-137.306707
 31
0.0
  0
LINE
  5
18F
100
AcDbEntity
  8
2
370
   100
100
AcDbLine
 10
211.557388
 20
-142.376628
 30
0.0
 11
211.557388
 21
-141.362707
 31
0.0
  0
LINE
  5
190
100
AcDbEntity
  8
2
370
   100
100
AcDbLine
 10
211.557388
 20
-146.432628
 30
0.0
 11
211.557388
 21
-145.418707
 31
0.0
  0
LINE
  5
191
100
AcDbEntity
  8
2
370
   100
100
AcDbLine
 10
211.557388
 20
-150.488628
 30
0.0
 11
211.557388
 21
-149.474707
 31
0.0
  0
LINE
  5
192
100
AcDbEntity
  8
2
370
   100
100
AcDbLine
 10
211.557388
 20
-154.544628
 30
0.0
 11
211.557388
 21
-153.530707
 31
0.0
  0
LINE
  5
193
100
AcDbEntity
  8
2
370
   100
100
AcDbLine
 10
211.557388
 20
-158.600628
 30
0.0
 11
211.557388
 21
-157.586707
 31
0.0
  0
LINE
  5
194
100
AcDbEntity
  8
2
370
   100
100
AcDbLine
 10
211.557388
 20
-162.656628
 30
0.0
 11
211.557388
 21
-161.642707
 31
0.0
  0
LINE
  5
195
100
AcDbEntity
  8
2
370
   100
100
AcDbLine
 10
211.557388
 20
-166.712628
 30
0.0
 11
211.557388
 21
-165.698707
 31
0.0
  0
LINE
  5
196
100
AcDbEntity
  8
2
370
   100
100
AcDbLine
 10
211.557388
 20
-174.824628
 30
0.0
 11
211.557388
 21
-173.810707
 31
0.0
  0
LINE
  5
197
100
AcDbEntity
  8
2
370
   100
100
AcDbLine
 10
211.557388
 20
-170.768628
 30
0.0
 11
211.557388
 21
-169.754707
 31
0.0
  0
ARC
  5
198
100
AcDbEntity
  8
2
370
   100
100
AcDbCircle
 10
212.157388
 20
-132.94752
 30
0.0
 40
0.2
100
AcDbArc
 50
279.5
 51
360.0
  0
ARC
  5
199
100
AcDbEntity
  8
2
370
   100
100
AcDbCircle
 10
212.157388
 20
-134.366987
 30
0.0
 40
0.2
100
AcDbArc
 50
0.0
 51
99.501632
  0
ARC
  5
19A
100
AcDbEntity
  8
2
370
   100
100
AcDbCircle
 10
212.157388
 20
-137.00352
 30
0.0
 40
0.2
100
AcDbArc
 50
279.5
 51
360.0
  0
ARC
  5
19B
100
AcDbEntity
  8
2
370
   100
100
AcDbCircle
 10
212.157388
 20
-138.422987
 30
0.0
 40
0.2
100
AcDbArc
 50
0.0
 51
99.501632
  0
ARC
  5
19C
100
AcDbEntity
  8
2
370
   100
100
AcDbCircle
 10
212.157388
 20
-141.05952
 30
0.0
 40
0.2
100
AcDbArc
 50
279.5
 51
360.0
  0
ARC
  5
19D
100
AcDbEntity
  8
2
370
   100
100
AcDbCircle
 10
212.157388
 20
-142.478987
 30
0.0
 40
0.2
100
AcDbArc
 50
0.0
 51
99.501632
  0
ARC
  5
19E
100
AcDbEntity
  8
2
370
   100
100
AcDbCircle
 10
212.157388
 20
-145.11552
 30
0.0
 40
0.2
100
AcDbArc
 50
279.5
 51
360.0
  0
ARC
  5
19F
100
AcDbEntity
  8
2
370
   100
100
AcDbCircle
 10
212.157388
 20
-146.534987
 30
0.0
 40
0.2
100
AcDbArc
 50
0.0
 51
99.501632
  0
ARC
  5
1A0
100
AcDbEntity
  8
2
370
   100
100
AcDbCircle
 10
212.157388
 20
-149.17152
 30
0.0
 40
0.2
100
AcDbArc
 50
279.5
 51
360.0
  0
ARC
  5
1A1
100
AcDbEntity
  8
2
370
   100
100
AcDbCircle
 10
212.157388
 20
-150.590987
 30
0.0
 40
0.2
100
AcDbArc
 50
0.0
 51
99.501632
  0
ARC
  5
1A2
100
AcDbEntity
  8
2
370
   100
100
AcDbCircle
 10
212.157388
 20
-153.22752
 30
0.0
 40
0.2
100
AcDbArc
 50
279.5
 51
360.0
  0
ARC
  5
1A3
100
AcDbEntity
  8
2
370
   100
100
AcDbCircle
 10
212.157388
 20
-154.646987
 30
0.0
 40
0.2
100
AcDbArc
 50
0.0
 51
99.501632
  0
ARC
  5
1A4
100
AcDbEntity
  8
2
370
   100
100
AcDbCircle
 10
212.157388
 20
-157.28352
 30
0.0
 40
0.2
100
AcDbArc
 50
279.5
 51
360.0
  0
ARC
  5
1A5
100
AcDbEntity
  8
2
370
   100
100
AcDbCircle
 10
212.157388
 20
-158.702987
 30
0.0
 40
0.2
100
AcDbArc
 50
0.0
 51
99.501632
  0
ARC
  5
1A6
100
AcDbEntity
  8
2
370
   100
100
AcDbCircle
 10
212.157388
 20
-161.33952
 30
0.0
 40
0.2
100
AcDbArc
 50
279.5
 51
360.0
  0
ARC
  5
1A7
100
AcDbEntity
  8
2
370
   100
100
AcDbCircle
 10
212.157388
 20
-162.758987
 30
0.0
 40
0.2
100
AcDbArc
 50
0.0
 51
99.501632
  0
ARC
  5
1A8
100
AcDbEntity
  8
2
370
   100
100
AcDbCircle
 10
212.157388
 20
-165.39552
 30
0.0
 40
0.2
100
AcDbArc
 50
279.5
 51
360.0
  0
ARC
  5
1A9
100
AcDbEntity
  8
2
370
   100
100
AcDbCircle
 10
212.157388
 20
-166.814987
 30
0.0
 40
0.2
100
AcDbArc
 50
0.0
 51
99.501632
  0
ARC
  5
1AA
100
AcDbEntity
  8
2
370
   100
100
AcDbCircle
 10
212.157388
 20
-169.45152
 30
0.0
 40
0.2
100
AcDbArc
 50
279.5
 51
360.0
  0
ARC
  5
1AB
100
AcDbEntity
  8
2
370
   100
100
AcDbCircle
 10
212.157388
 20
-170.870987
 30
0.0
 40
0.2
100
AcDbArc
 50
0.0
 51
99.501632
  0
ARC
  5
1AC
100
AcDbEntity
  8
2
370
   100
100
AcDbCircle
 10
212.157388
 20
-173.50752
 30
0.0
 40
0.2
100
AcDbArc
 50
279.5
 51
360.0
  0
ARC
  5
1AD
100
AcDbEntity
  8
2
370
   100
100
AcDbCircle
 10
212.157388
 20
-174.926987
 30
0.0
 40
0.2
100
AcDbArc
 50
0.0
 51
99.501632
  0
LINE
  5
1AE
100
AcDbEntity
  8
2
370
   100
  6
PHANTOM
100
AcDbLine
 10
212.357388
 20
-187.669651
 30
0.0
 11
212.357388
 21
-178.40134
 31
0.0
  0
LINE
  5
1AF
100
AcDbEntity
  8
2
370
   100
100
AcDbLine
 10
212.357388
 20
-178.40134
 30
0.0
 11
212.357388
 21
-174.926987
 31
0.0
  0
LINE
  5
1B0
100
AcDbEntity
  8
2
370
   100
100
AcDbLine
 10
290.735712
 20
-165.83992
 30
0.0
 11
290.735712
 21
-167.63992
 31
0.0
  0
LINE
  5
1B1
100
AcDbEntity
  8
2
370
   100
100
AcDbLine
 10
281.735142
 20
-167.83992
 30
0.0
 11
290.535712
 21
-167.83992
 31
0.0
  0
LINE
  5
1B2
100
AcDbEntity
  8
2
370
   100
100
AcDbLine
 10
281.735142
 20
-171.83992
 30
0.0
 11
291.135142
 21
-171.83992
 31
0.0
  0
LINE
  5
1B3
100
AcDbEntity
  8
2
370
   100
100
AcDbLine
 10
290.535712
 20
-165.63992
 30
0.0
 11
290.735712
 21
-165.83992
 31
0.0
  0
LINE
  5
1B4
100
AcDbEntity
  8
2
370
   100
100
AcDbLine
 10
281.735142
 20
-165.63992
 30
0.0
 11
290.535712
 21
-165.63992
 31
0.0
  0
LINE
  5
1B5
100
AcDbEntity
  8
2
370
   100
100
AcDbLine
 10
291.635142
 20
-172.33992
 30
0.0
 11
291.635142
 21
-210.13992
 31
0.0
  0
LINE
  5
1B6
100
AcDbEntity
  8
2
370
   100
100
AcDbLine
 10
291.135142
 20
-210.63992
 30
0.0
 11
281.735142
 21
-210.63992
 31
0.0
  0
LINE
  5
1B7
100
AcDbEntity
  8
2
370
   100
100
AcDbLine
 10
291.135142
 20
-210.63992
 30
0.0
 11
291.635142
 21
-210.13992
 31
0.0
  0
LINE
  5
1B8
100
AcDbEntity
  8
2
370
   100
100
AcDbLine
 10
290.735712
 20
-165.83992
 30
0.0
 11
281.735142
 21
-165.83992
 31
0.0
  0
LINE
  5
1B9
100
AcDbEntity
  8
2
370
   100
100
AcDbLine
 10
290.735712
 20
-167.63992
 30
0.0
 11
290.535712
 21
-167.83992
 31
0.0
  0
LINE
  5
1BA
100
AcDbEntity
  8
2
370
   100
100
AcDbLine
 10
290.735712
 20
-167.63992
 30
0.0
 11
281.735142
 21
-167.63992
 31
0.0
  0
LINE
  5
1BB
100
AcDbEntity
  8
2
370
   100
100
AcDbLine
 10
291.135142
 20
-171.83992
 30
0.0
 11
291.635142
 21
-172.33992
 31
0.0
  0
LINE
  5
1BC
100
AcDbEntity
  8
2
370
   100
100
AcDbLine
 10
291.635142
 20
-172.33992
 30
0.0
 11
285.859461
 21
-172.33992
 31
0.0
  0
LINE
  5
1BD
100
AcDbEntity
  8
2
370
   100
100
AcDbLine
 10
291.635142
 20
-210.13992
 30
0.0
 11
281.735142
 21
-210.13992
 31
0.0
  0
LINE
  5
1BE
100
AcDbEntity
  8
2
370
   100
100
AcDbLine
 10
281.735142
 20
-181.83992
 30
0.0
 11
285.859461
 21
-181.83992
 31
0.0
  0
LINE
  5
1BF
100
AcDbEntity
  8
2
370
   100
100
AcDbLine
 10
285.859461
 20
-171.83992
 30
0.0
 11
285.859461
 21
-181.83992
 31
0.0
  0
LINE
  5
1C0
100
AcDbEntity
  8
2
370
   100
100
AcDbLine
 10
272.734573
 20
-165.83992
 30
0.0
 11
272.734573
 21
-167.63992
 31
0.0
  0
LINE
  5
1C1
100
AcDbEntity
  8
2
370
   100
100
AcDbLine
 10
281.735142
 20
-167.83992
 30
0.0
 11
272.934573
 21
-167.83992
 31
0.0
  0
LINE
  5
1C2
100
AcDbEntity
  8
2
370
   100
100
AcDbLine
 10
281.735142
 20
-171.83992
 30
0.0
 11
272.335142
 21
-171.83992
 31
0.0
  0
LINE
  5
1C3
100
AcDbEntity
  8
2
370
   100
100
AcDbLine
 10
272.934573
 20
-165.63992
 30
0.0
 11
272.734573
 21
-165.83992
 31
0.0
  0
LINE
  5
1C4
100
AcDbEntity
  8
2
370
   100
100
AcDbLine
 10
281.735142
 20
-165.63992
 30
0.0
 11
272.934573
 21
-165.63992
 31
0.0
  0
LINE
  5
1C5
100
AcDbEntity
  8
2
370
   100
100
AcDbLine
 10
271.835142
 20
-172.33992
 30
0.0
 11
271.835142
 21
-210.13992
 31
0.0
  0
LINE
  5
1C6
100
AcDbEntity
  8
2
370
   100
100
AcDbLine
 10
272.335142
 20
-210.63992
 30
0.0
 11
281.735142
 21
-210.63992
 31
0.0
  0
LINE
  5
1C7
100
AcDbEntity
  8
2
370
   100
100
AcDbLine
 10
272.335142
 20
-210.63992
 30
0.0
 11
271.835142
 21
-210.13992
 31
0.0
  0
LINE
  5
1C8
100
AcDbEntity
  8
2
370
   100
100
AcDbLine
 10
272.734573
 20
-165.83992
 30
0.0
 11
281.735142
 21
-165.83992
 31
0.0
  0
LINE
  5
1C9
100
AcDbEntity
  8
2
370
   100
100
AcDbLine
 10
272.734573
 20
-167.63992
 30
0.0
 11
272.934573
 21
-167.83992
 31
0.0
  0
LINE
  5
1CA
100
AcDbEntity
  8
2
370
   100
100
AcDbLine
 10
272.734573
 20
-167.63992
 30
0.0
 11
281.735142
 21
-167.63992
 31
0.0
  0
LINE
  5
1CB
100
AcDbEntity
  8
2
370
   100
100
AcDbLine
 10
272.335142
 20
-171.83992
 30
0.0
 11
271.835142
 21
-172.33992
 31
0.0
  0
LINE
  5
1CC
100
AcDbEntity
  8
2
370
   100
100
AcDbLine
 10
271.835142
 20
-172.33992
 30
0.0
 11
277.610824
 21
-172.33992
 31
0.0
  0
LINE
  5
1CD
100
AcDbEntity
  8
2
370
   100
100
AcDbLine
 10
271.835142
 20
-210.13992
 30
0.0
 11
281.735142
 21
-210.13992
 31
0.0
  0
LINE
  5
1CE
100
AcDbEntity
  8
2
370
   100
100
AcDbLine
 10
281.735142
 20
-181.83992
 30
0.0
 11
277.610824
 21
-181.83992
 31
0.0
  0
LINE
  5
1CF
100
AcDbEntity
  8
2
370
   100
100
AcDbLine
 10
277.610824
 20
-171.83992
 30
0.0
 11
277.610824
 21
-181.83992
 31
0.0
  0
LINE
  5
1D0
100
AcDbEntity
  8
2
370
   100
100
AcDbLine
 10
273.135142
 20
-165.43992
 30
0.0
 11
273.135142
 21
-163.03992
 31
0.0
  0
LINE
  5
1D1
100
AcDbEntity
  8
2
370
   100
100
AcDbLine
 10
288.735142
 20
-157.63992
 30
0.0
 11
274.735142
 21
-157.63992
 31
0.0
  0
LINE
  5
1D2
100
AcDbEntity
  8
2
370
   100
100
AcDbLine
 10
274.735142
 20
-157.63992
 30
0.0
 11
274.235142
 21
-158.13992
 31
0.0
  0
LINE
  5
1D3
100
AcDbEntity
  8
2
370
   100
100
AcDbLine
 10
289.235142
 20
-158.13992
 30
0.0
 11
288.735142
 21
-157.63992
 31
0.0
  0
LINE
  5
1D4
100
AcDbEntity
  8
2
370
   100
100
AcDbLine
 10
274.235142
 20
-162.83992
 30
0.0
 11
273.335142
 21
-162.83992
 31
0.0
  0
LINE
  5
1D5
100
AcDbEntity
  8
2
370
   100
100
AcDbLine
 10
290.334675
 20
-165.43992
 30
0.0
 11
290.334675
 21
-163.03992
 31
0.0
  0
LINE
  5
1D6
100
AcDbEntity
  8
2
370
   100
100
AcDbLine
 10
281.735142
 20
-162.83992
 30
0.0
 11
290.134675
 21
-162.83992
 31
0.0
  0
LINE
  5
1D7
100
AcDbEntity
  8
2
370
   100
100
AcDbLine
 10
273.335142
 20
-165.63992
 30
0.0
 11
276.735142
 21
-165.63992
 31
0.0
  0
LINE
  5
1D8
100
AcDbEntity
  8
2
370
   100
100
AcDbLine
 10
281.735142
 20
-165.63992
 30
0.0
 11
290.134675
 21
-165.63992
 31
0.0
  0
LINE
  5
1D9
100
AcDbEntity
  8
2
370
   100
100
AcDbLine
 10
290.134675
 20
-162.83992
 30
0.0
 11
290.334675
 21
-163.03992
 31
0.0
  0
LINE
  5
1DA
100
AcDbEntity
  8
2
370
   100
100
AcDbLine
 10
290.334675
 20
-165.43992
 30
0.0
 11
290.134675
 21
-165.63992
 31
0.0
  0
LINE
  5
1DB
100
AcDbEntity
  8
2
370
   100
100
AcDbLine
 10
273.135142
 20
-163.03992
 30
0.0
 11
273.335142
 21
-162.83992
 31
0.0
  0
LINE
  5
1DC
100
AcDbEntity
  8
2
370
   100
100
AcDbLine
 10
273.135142
 20
-165.43992
 30
0.0
 11
273.335142
 21
-165.63992
 31
0.0
  0
LINE
  5
1DD
100
AcDbEntity
  8
2
370
   100
100
AcDbLine
 10
289.235142
 20
-158.13992
 30
0.0
 11
281.735142
 21
-158.13992
 31
0.0
  0
LINE
  5
1DE
100
AcDbEntity
  8
2
370
   100
100
AcDbLine
 10
290.334675
 20
-163.03992
 30
0.0
 11
281.735142
 21
-163.03992
 31
0.0
  0
LINE
  5
1DF
100
AcDbEntity
  8
2
370
   100
100
AcDbLine
 10
290.334675
 20
-165.43992
 30
0.0
 11
281.735142
 21
-165.43992
 31
0.0
  0
LINE
  5
1E0
100
AcDbEntity
  8
2
370
   100
100
AcDbLine
 10
274.235142
 20
-158.13992
 30
0.0
 11
281.735142
 21
-158.13992
 31
0.0
  0
LINE
  5
1E1
100
AcDbEntity
  8
2
370
   100
100
AcDbLine
 10
281.735142
 20
-162.83992
 30
0.0
 11
273.33561
 21
-162.83992
 31
0.0
  0
LINE
  5
1E2
100
AcDbEntity
  8
2
370
   100
100
AcDbLine
 10
273.13561
 20
-163.03992
 30
0.0
 11
281.735142
 21
-163.03992
 31
0.0
  0
LINE
  5
1E3
100
AcDbEntity
  8
2
370
   100
100
AcDbLine
 10
273.13561
 20
-165.43992
 30
0.0
 11
281.735142
 21
-165.43992
 31
0.0
  0
LINE
  5
1E4
100
AcDbEntity
  8
2
370
   100
100
AcDbLine
 10
281.735142
 20
-165.63992
 30
0.0
 11
273.33561
 21
-165.63992
 31
0.0
  0
POINT
  5
1E5
100
AcDbEntity
  8
2
370
    50
100
AcDbPoint
 10
281.735142
 20
-183.13992
 30
0.0
  0
LINE
  5
1E6
100
AcDbEntity
  8
2
370
   100
100
AcDbLine
 10
275.535142
 20
-233.351598
 30
0.0
 11
275.535142
 21
-232.337693
 31
0.0
  0
ARC
  5
1E7
100
AcDbEntity
  8
2
370
   100
100
AcDbCircle
 10
274.935142
 20
-233.655165
 30
0.0
 40
0.2
100
AcDbArc
 50
99.5
 51
180.0
  0
LINE
  5
1E8
100
AcDbEntity
  8
2
370
   100
100
AcDbLine
 10
287.935142
 20
-231.276567
 30
0.0
 11
287.935142
 21
-230.262645
 31
0.0
  0
ARC
  5
1E9
100
AcDbEntity
  8
2
370
   100
100
AcDbCircle
 10
288.535142
 20
-231.379305
 30
0.0
 40
0.2
100
AcDbArc
 50
0.0
 51
99.5
  0
LINE
  5
1EA
100
AcDbEntity
  8
2
370
   100
100
AcDbLine
 10
274.90213
 20
-233.457927
 30
0.0
 11
288.502133
 21
-231.181668
 31
0.0
  0
LINE
  5
1EB
100
AcDbEntity
  8
2
370
   100
100
AcDbLine
 10
288.735142
 20
-233.287411
 30
0.0
 11
288.735142
 21
-231.379305
 31
0.0
  0
LINE
  5
1EC
100
AcDbEntity
  8
2
370
   100
100
AcDbLine
 10
274.735142
 20
-232.235318
 30
0.0
 11
274.735142
 21
-229.599165
 31
0.0
  0
ARC
  5
1ED
100
AcDbEntity
  8
2
370
   100
100
AcDbCircle
 10
274.935142
 20
-232.235318
 30
0.0
 40
0.2
100
AcDbArc
 50
180.0
 51
279.5
  0
ARC
  5
1EE
100
AcDbEntity
  8
2
370
   100
100
AcDbCircle
 10
274.935142
 20
-229.599165
 30
0.0
 40
0.2
100
AcDbArc
 50
99.5
 51
180.0
  0
LINE
  5
1EF
100
AcDbEntity
  8
2
370
   100
100
AcDbLine
 10
275.535142
 20
-229.295598
 30
0.0
 11
275.535142
 21
-228.281693
 31
0.0
  0
LINE
  5
1F0
100
AcDbEntity
  8
2
370
   100
100
AcDbLine
 10
287.935142
 20
-227.220567
 30
0.0
 11
287.935142
 21
-226.206645
 31
0.0
  0
ARC
  5
1F1
100
AcDbEntity
  8
2
370
   100
100
AcDbCircle
 10
288.535142
 20
-227.323305
 30
0.0
 40
0.2
100
AcDbArc
 50
0.0
 51
99.5
  0
LINE
  5
1F2
100
AcDbEntity
  8
2
370
   100
100
AcDbLine
 10
288.735142
 20
-229.959458
 30
0.0
 11
288.735142
 21
-227.323305
 31
0.0
  0
ARC
  5
1F3
100
AcDbEntity
  8
2
370
   100
100
AcDbCircle
 10
288.535142
 20
-229.959458
 30
0.0
 40
0.2
100
AcDbArc
 50
279.5
 51
360.0
  0
LINE
  5
1F4
100
AcDbEntity
  8
2
370
   100
100
AcDbLine
 10
274.968152
 20
-232.432575
 30
0.0
 11
288.568152
 21
-230.156716
 31
0.0
  0
LINE
  5
1F5
100
AcDbEntity
  8
2
370
   100
100
AcDbLine
 10
274.90213
 20
-229.401927
 30
0.0
 11
288.502133
 21
-227.125668
 31
0.0
  0
LINE
  5
1F6
100
AcDbEntity
  8
2
370
   100
100
AcDbLine
 10
274.735142
 20
-228.179318
 30
0.0
 11
274.735142
 21
-225.543165
 31
0.0
  0
ARC
  5
1F7
100
AcDbEntity
  8
2
370
   100
100
AcDbCircle
 10
274.935142
 20
-228.179318
 30
0.0
 40
0.2
100
AcDbArc
 50
180.0
 51
279.5
  0
ARC
  5
1F8
100
AcDbEntity
  8
2
370
   100
100
AcDbCircle
 10
274.935142
 20
-225.543165
 30
0.0
 40
0.2
100
AcDbArc
 50
99.5
 51
180.0
  0
LINE
  5
1F9
100
AcDbEntity
  8
2
370
   100
100
AcDbLine
 10
275.535142
 20
-225.239598
 30
0.0
 11
275.535142
 21
-224.225693
 31
0.0
  0
LINE
  5
1FA
100
AcDbEntity
  8
2
370
   100
100
AcDbLine
 10
288.735142
 20
-225.903458
 30
0.0
 11
288.735142
 21
-223.89016
 31
0.0
  0
ARC
  5
1FB
100
AcDbEntity
  8
2
370
   100
100
AcDbCircle
 10
288.535142
 20
-225.903458
 30
0.0
 40
0.2
100
AcDbArc
 50
279.5
 51
360.0
  0
LINE
  5
1FC
100
AcDbEntity
  8
2
370
   100
100
AcDbLine
 10
274.968152
 20
-228.376575
 30
0.0
 11
288.568152
 21
-226.100716
 31
0.0
  0
LINE
  5
1FD
100
AcDbEntity
  8
2
370
   100
100
AcDbLine
 10
274.90213
 20
-225.345927
 30
0.0
 11
283.599928
 21
-223.89016
 31
0.0
  0
ARC
  5
1FE
100
AcDbEntity
  8
2
370
   100
100
AcDbCircle
 10
274.935142
 20
-224.123318
 30
0.0
 40
0.2
100
AcDbArc
 50
180.0
 51
279.5
  0
LINE
  5
1FF
100
AcDbEntity
  8
2
370
   100
100
AcDbLine
 10
274.968152
 20
-224.320575
 30
0.0
 11
277.540212
 21
-223.89016
 31
0.0
  0
LINE
  5
200
100
AcDbEntity
  8
2
370
   100
100
AcDbLine
 10
281.735142
 20
-210.63992
 30
0.0
 11
281.735142
 21
-215.59016
 31
0.0
  0
LINE
  5
201
100
AcDbEntity
  8
2
370
   100
100
AcDbLine
 10
273.735142
 20
-215.59016
 30
0.0
 11
273.735142
 21
-210.63992
 31
0.0
  0
LINE
  5
202
100
AcDbEntity
  8
2
370
   100
100
AcDbLine
 10
282.735142
 20
-210.63992
 30
0.0
 11
282.735142
 21
-215.59016
 31
0.0
  0
LINE
  5
203
100
AcDbEntity
  8
2
370
   100
100
AcDbLine
 10
283.735142
 20
-210.63992
 30
0.0
 11
283.735142
 21
-215.59016
 31
0.0
  0
LINE
  5
204
100
AcDbEntity
  8
2
370
   100
100
AcDbLine
 10
284.735142
 20
-210.63992
 30
0.0
 11
284.735142
 21
-215.59016
 31
0.0
  0
LINE
  5
205
100
AcDbEntity
  8
2
370
   100
100
AcDbLine
 10
285.735142
 20
-210.63992
 30
0.0
 11
285.735142
 21
-215.59016
 31
0.0
  0
LINE
  5
206
100
AcDbEntity
  8
2
370
   100
100
AcDbLine
 10
286.485142
 20
-210.63992
 30
0.0
 11
286.485142
 21
-215.59016
 31
0.0
  0
LINE
  5
207
100
AcDbEntity
  8
2
370
   100
100
AcDbLine
 10
287.235142
 20
-210.63992
 30
0.0
 11
287.235142
 21
-215.59016
 31
0.0
  0
LINE
  5
208
100
AcDbEntity
  8
2
370
   100
100
AcDbLine
 10
287.985142
 20
-210.63992
 30
0.0
 11
287.985142
 21
-215.59016
 31
0.0
  0
LINE
  5
209
100
AcDbEntity
  8
2
370
   100
100
AcDbLine
 10
288.485142
 20
-210.63992
 30
0.0
 11
288.485142
 21
-215.59016
 31
0.0
  0
LINE
  5
20A
100
AcDbEntity
  8
2
370
   100
100
AcDbLine
 10
288.985142
 20
-210.63992
 30
0.0
 11
288.985142
 21
-215.59016
 31
0.0
  0
LINE
  5
20B
100
AcDbEntity
  8
2
370
   100
100
AcDbLine
 10
289.485142
 20
-210.63992
 30
0.0
 11
289.485142
 21
-215.59016
 31
0.0
  0
LINE
  5
20C
100
AcDbEntity
  8
2
370
   100
100
AcDbLine
 10
289.735142
 20
-210.63992
 30
0.0
 11
289.735142
 21
-215.59016
 31
0.0
  0
LINE
  5
20D
100
AcDbEntity
  8
2
370
   100
100
AcDbLine
 10
289.435142
 20
-215.89016
 30
0.0
 11
281.735142
 21
-215.89016
 31
0.0
  0
LINE
  5
20E
100
AcDbEntity
  8
2
370
   100
100
AcDbLine
 10
273.735142
 20
-215.59016
 30
0.0
 11
274.035142
 21
-215.89016
 31
0.0
  0
LINE
  5
20F
100
AcDbEntity
  8
2
370
   100
100
AcDbLine
 10
289.435142
 20
-215.89016
 30
0.0
 11
289.735142
 21
-215.59016
 31
0.0
  0
LINE
  5
210
100
AcDbEntity
  8
2
370
   100
100
AcDbLine
 10
289.735142
 20
-215.59016
 30
0.0
 11
273.735142
 21
-215.59016
 31
0.0
  0
LINE
  5
211
100
AcDbEntity
  8
2
370
   100
100
AcDbLine
 10
273.735142
 20
-223.69016
 30
0.0
 11
273.735142
 21
-216.09016
 31
0.0
  0
LINE
  5
212
100
AcDbEntity
  8
2
370
   100
100
AcDbLine
 10
289.735142
 20
-223.69016
 30
0.0
 11
289.735142
 21
-216.09016
 31
0.0
  0
LINE
  5
213
100
AcDbEntity
  8
2
370
   100
100
AcDbLine
 10
274.735142
 20
-223.89016
 30
0.0
 11
274.735142
 21
-224.123318
 31
0.0
  0
LINE
  5
214
100
AcDbEntity
  8
2
370
   100
100
AcDbLine
 10
273.735142
 20
-216.09016
 30
0.0
 11
273.935142
 21
-215.89016
 31
0.0
  0
LINE
  5
215
100
AcDbEntity
  8
2
370
   100
100
AcDbLine
 10
273.735142
 20
-223.69016
 30
0.0
 11
273.935142
 21
-223.89016
 31
0.0
  0
LINE
  5
216
100
AcDbEntity
  8
2
370
   100
100
AcDbLine
 10
289.535142
 20
-223.89016
 30
0.0
 11
289.735142
 21
-223.69016
 31
0.0
  0
LINE
  5
217
100
AcDbEntity
  8
2
370
   100
100
AcDbLine
 10
289.735142
 20
-216.09016
 30
0.0
 11
289.535142
 21
-215.89016
 31
0.0
  0
LINE
  5
218
100
AcDbEntity
  8
2
370
   100
100
AcDbLine
 10
289.535142
 20
-223.89016
 30
0.0
 11
273.935142
 21
-223.89016
 31
0.0
  0
LINE
  5
219
100
AcDbEntity
  8
2
370
   100
100
AcDbLine
 10
289.535142
 20
-215.89016
 30
0.0
 11
273.935142
 21
-215.89016
 31
0.0
  0
LINE
  5
21A
100
AcDbEntity
  8
2
370
   100
100
AcDbLine
 10
289.735142
 20
-216.09016
 30
0.0
 11
273.735142
 21
-216.09016
 31
0.0
  0
LINE
  5
21B
100
AcDbEntity
  8
2
370
   100
100
AcDbLine
 10
289.735142
 20
-223.69016
 30
0.0
 11
273.735142
 21
-223.69016
 31
0.0
  0
LINE
  5
21C
100
AcDbEntity
  8
2
370
   100
100
AcDbLine
 10
280.735142
 20
-210.63992
 30
0.0
 11
280.735142
 21
-215.59016
 31
0.0
  0
LINE
  5
21D
100
AcDbEntity
  8
2
370
   100
100
AcDbLine
 10
279.735142
 20
-210.63992
 30
0.0
 11
279.735142
 21
-215.59016
 31
0.0
  0
LINE
  5
21E
100
AcDbEntity
  8
2
370
   100
100
AcDbLine
 10
278.735142
 20
-210.63992
 30
0.0
 11
278.735142
 21
-215.59016
 31
0.0
  0
LINE
  5
21F
100
AcDbEntity
  8
2
370
   100
100
AcDbLine
 10
277.735142
 20
-210.63992
 30
0.0
 11
277.735142
 21
-215.59016
 31
0.0
  0
LINE
  5
220
100
AcDbEntity
  8
2
370
   100
100
AcDbLine
 10
276.985142
 20
-210.63992
 30
0.0
 11
276.985142
 21
-215.59016
 31
0.0
  0
LINE
  5
221
100
AcDbEntity
  8
2
370
   100
100
AcDbLine
 10
276.235142
 20
-210.63992
 30
0.0
 11
276.235142
 21
-215.59016
 31
0.0
  0
LINE
  5
222
100
AcDbEntity
  8
2
370
   100
100
AcDbLine
 10
275.485142
 20
-210.63992
 30
0.0
 11
275.485142
 21
-215.59016
 31
0.0
  0
LINE
  5
223
100
AcDbEntity
  8
2
370
   100
100
AcDbLine
 10
274.985142
 20
-210.63992
 30
0.0
 11
274.985142
 21
-215.59016
 31
0.0
  0
LINE
  5
224
100
AcDbEntity
  8
2
370
   100
100
AcDbLine
 10
274.485142
 20
-210.63992
 30
0.0
 11
274.485142
 21
-215.59016
 31
0.0
  0
LINE
  5
225
100
AcDbEntity
  8
2
370
   100
100
AcDbLine
 10
273.985142
 20
-210.63992
 30
0.0
 11
273.985142
 21
-215.59016
 31
0.0
  0
LINE
  5
226
100
AcDbEntity
  8
2
370
   100
100
AcDbLine
 10
267.236028
 20
-170.93992
 30
0.0
 11
267.236028
 21
-159.93992
 31
0.0
  0
LINE
  5
227
100
AcDbEntity
  8
2
370
   100
100
AcDbLine
 10
270.736028
 20
-163.43992
 30
0.0
 11
270.736028
 21
-167.43992
 31
0.0
  0
LINE
  5
228
100
AcDbEntity
  8
2
370
   100
100
AcDbLine
 10
297.236028
 20
-170.43992
 30
0.0
 11
297.236028
 21
-158.43992
 31
0.0
  0
ARC
  5
229
100
AcDbEntity
  8
2
370
   100
100
AcDbCircle
 10
271.736028
 20
-163.43992
 30
0.0
 40
1.0
100
AcDbArc
 50
90.0
 51
180.0
  0
ARC
  5
22A
100
AcDbEntity
  8
2
370
   100
100
AcDbCircle
 10
271.736028
 20
-167.43992
 30
0.0
 40
1.0
100
AcDbArc
 50
180.0
 51
270.0
  0
ARC
  5
22B
100
AcDbEntity
  8
2
370
   100
100
AcDbCircle
 10
296.236028
 20
-170.43992
 30
0.0
 40
1.0
100
AcDbArc
 50
270.0
 51
360.0
  0
ARC
  5
22C
100
AcDbEntity
  8
2
370
   100
100
AcDbCircle
 10
267.736028
 20
-159.93992
 30
0.0
 40
0.5
100
AcDbArc
 50
90.0
 51
180.0
  0
ARC
  5
22D
100
AcDbEntity
  8
2
370
   100
100
AcDbCircle
 10
267.736028
 20
-170.93992
 30
0.0
 40
0.5
100
AcDbArc
 50
180.0
 51
270.0
  0
LINE
  5
22E
100
AcDbEntity
  8
2
370
   100
100
AcDbLine
 10
291.236028
 20
-159.43992
 30
0.0
 11
267.736028
 21
-159.43992
 31
0.0
  0
LINE
  5
22F
100
AcDbEntity
  8
2
370
   100
100
AcDbLine
 10
296.236028
 20
-171.43992
 30
0.0
 11
267.736028
 21
-171.43992
 31
0.0
  0
LINE
  5
230
100
AcDbEntity
  8
2
370
   100
100
AcDbLine
 10
291.236028
 20
-162.43992
 30
0.0
 11
271.736028
 21
-162.43992
 31
0.0
  0
LINE
  5
231
100
AcDbEntity
  8
2
370
   100
100
AcDbLine
 10
291.236028
 20
-168.43992
 30
0.0
 11
271.736028
 21
-168.43992
 31
0.0
  0
LINE
  5
232
100
AcDbEntity
  8
2
370
   100
100
AcDbLine
 10
289.235142
 20
-162.83992
 30
0.0
 11
289.235142
 21
-162.43992
 31
0.0
  0
LINE
  5
233
100
AcDbEntity
  8
2
370
   100
100
AcDbLine
 10
289.235142
 20
-159.43992
 30
0.0
 11
289.235142
 21
-158.13992
 31
0.0
  0
LINE
  5
234
100
AcDbEntity
  8
2
370
   100
100
AcDbLine
 10
274.235142
 20
-162.83992
 30
0.0
 11
274.235142
 21
-162.43992
 31
0.0
  0
LINE
  5
235
100
AcDbEntity
  8
2
370
   100
100
AcDbLine
 10
274.235142
 20
-159.43992
 30
0.0
 11
274.235142
 21
-158.13992
 31
0.0
  0
LINE
  5
236
100
AcDbEntity
  8
2
370
   100
100
AcDbLine
 10
274.234573
 20
-171.83992
 30
0.0
 11
274.234573
 21
-171.43992
 31
0.0
  0
LINE
  5
237
100
AcDbEntity
  8
2
370
   100
100
AcDbLine
 10
274.234573
 20
-168.43992
 30
0.0
 11
274.234573
 21
-167.83992
 31
0.0
  0
LINE
  5
238
100
AcDbEntity
  8
2
370
   100
100
AcDbLine
 10
289.235712
 20
-171.83992
 30
0.0
 11
289.235712
 21
-171.43992
 31
0.0
  0
LINE
  5
239
100
AcDbEntity
  8
2
370
   100
100
AcDbLine
 10
289.235712
 20
-168.43992
 30
0.0
 11
289.235712
 21
-167.83992
 31
0.0
  0
LINE
  5
23A
100
AcDbEntity
  8
2
370
   100
100
AcDbLine
 10
290.234909
 20
-171.43992
 30
0.0
 11
290.234909
 21
-168.43992
 31
0.0
  0
LINE
  5
23B
100
AcDbEntity
  8
2
370
   100
100
AcDbLine
 10
290.234909
 20
-162.43992
 30
0.0
 11
290.234909
 21
-159.43992
 31
0.0
  0
LINE
  5
23C
100
AcDbEntity
  8
2
370
   100
100
AcDbLine
 10
273.234909
 20
-171.43992
 30
0.0
 11
273.234909
 21
-168.43992
 31
0.0
  0
LINE
  5
23D
100
AcDbEntity
  8
2
370
   100
100
AcDbLine
 10
273.234909
 20
-162.43992
 30
0.0
 11
273.234909
 21
-159.43992
 31
0.0
  0
LINE
  5
23E
100
AcDbEntity
  8
2
370
   100
100
AcDbLine
 10
296.236028
 20
-157.43992
 30
0.0
 11
292.236028
 21
-157.43992
 31
0.0
  0
LINE
  5
23F
100
AcDbEntity
  8
2
370
   100
100
AcDbLine
 10
291.236028
 20
-170.43992
 30
0.0
 11
291.236028
 21
-158.43992
 31
0.0
  0
ARC
  5
240
100
AcDbEntity
  8
2
370
   100
100
AcDbCircle
 10
292.236028
 20
-158.43992
 30
0.0
 40
1.0
100
AcDbArc
 50
90.0
 51
180.0
  0
ARC
  5
241
100
AcDbEntity
  8
2
370
   100
100
AcDbCircle
 10
296.236028
 20
-158.43992
 30
0.0
 40
1.0
100
AcDbArc
 50
0.0
 51
90.0
  0
ARC
  5
242
100
AcDbEntity
  8
2
370
   100
100
AcDbCircle
 10
292.236028
 20
-170.43992
 30
0.0
 40
1.0
100
AcDbArc
 50
180.0
 51
270.0
  0
POINT
  5
243
100
AcDbEntity
  8
2
370
    50
100
AcDbPoint
 10
281.735142
 20
-157.63992
 30
0.0
  0
POINT
  5
244
100
AcDbEntity
  8
2
370
    50
100
AcDbPoint
 10
281.735142
 20
-157.63992
 30
0.0
  0
LINE
  5
245
100
AcDbEntity
  8
2
370
   100
  6
PHANTOM
100
AcDbLine
 10
288.735142
 20
-233.476238
 30
0.0
 11
288.735142
 21
-239.769772
 31
0.0
  0
LINE
  5
246
100
AcDbEntity
  8
2
370
   100
  6
PHANTOM
100
AcDbLine
 10
274.735142
 20
-235.490536
 30
0.0
 11
274.735142
 21
-239.77087
 31
0.0
  0
LINE
  5
247
100
AcDbEntity
  8
2
370
   100
100
AcDbLine
 10
-276.627218
 20
-93.144836
 30
0.0
 11
-323.627218
 21
-93.144836
 31
0.0
  0
LINE
  5
248
100
AcDbEntity
  8
2
370
   100
100
AcDbLine
 10
-276.627218
 20
-90.144836
 30
0.0
 11
-276.627218
 21
-93.144836
 31
0.0
  0
LINE
  5
249
100
AcDbEntity
  8
2
370
   100
100
AcDbLine
 10
-323.627218
 20
-90.144836
 30
0.0
 11
-323.627218
 21
-93.144836
 31
0.0
  0
HATCH
  5
24A
100
AcDbEntity
  8
2
370
   100
100
AcDbHatch
 10
0.0
 20
0.0
 30
0.0
210
0.0
220
0.0
230
1.0
  2
_U
 70
     0
 71
     1
 91
        1
 92
        1
 93
        4
 72
     1
 10
-276.62721800000003
 20
-93.144835999999998
 11
-323.62721800000003
 21
-93.144835999999998
 72
     1
 10
-323.62721800000003
 20
-93.144835999999998
 11
-323.62721800000003
 21
-90.144835999999998
 72
     1
 10
-323.62721800000003
 20
-90.144835999999998
 11
-276.62721800000003
 21
-90.144835999999998
 72
     1
 10
-276.62721800000003
 20
-90.144835999999998
 11
-276.62721800000003
 21
-93.144835999999998
 97
        4
330
0
330
0
330
0
330
0
 75
     0
 76
     0
 52
45.0
 41
1.0
 77
     0
 78
     1
 53
45.0
 43
0.0
 44
0.0
 45
-1.0606599999999999
 46
1.0606599999999999
 79
     0
 98
        1
 10
0.0
 20
0.0
  0
LINE
  5
24B
100
AcDbEntity
  8
2
370
   100
100
AcDbLine
 10
-325.179218
 20
-106.444836
 30
0.0
 11
-325.179218
 21
-108.444836
 31
0.0
  0
LINE
  5
24C
100
AcDbEntity
  8
2
370
   100
100
AcDbLine
 10
-275.179218
 20
-106.444836
 30
0.0
 11
-275.179218
 21
-108.444836
 31
0.0
  0
LINE
  5
24D
100
AcDbEntity
  8
2
370
   100
100
AcDbLine
 10
-275.179218
 20
-106.444836
 30
0.0
 11
-325.179218
 21
-106.444836
 31
0.0
  0
LINE
  5
24E
100
AcDbEntity
  8
2
370
   100
100
AcDbLine
 10
-325.179218
 20
-107.944836
 30
0.0
 11
-275.179218
 21
-107.944836
 31
0.0
  0
HATCH
  5
24F
100
AcDbEntity
  8
2
370
   100
100
AcDbHatch
 10
0.0
 20
0.0
 30
0.0
210
0.0
220
0.0
230
1.0
  2
_U
 70
     0
 71
     1
 91
        1
 92
        1
 93
        4
 72
     1
 10
-275.17921799999999
 20
-106.444836
 11
-325.17921799999999
 21
-106.444836
 72
     1
 10
-325.17921799999999
 20
-106.444836
 11
-325.17921799999999
 21
-107.944836
 72
     1
 10
-325.17921799999999
 20
-107.944836
 11
-275.17921799999999
 21
-107.944836
 72
     1
 10
-275.17921799999999
 20
-107.944836
 11
-275.17921799999999
 21
-106.444836
 97
        4
330
0
330
0
330
0
330
0
 75
     0
 76
     0
 52
45.0
 41
1.0
 77
     0
 78
     1
 53
45.0
 43
0.0
 44
0.0
 45
-0.424264
 46
0.424264
 79
     0
 98
        1
 10
0.0
 20
0.0
  0
LINE
  5
250
100
AcDbEntity
  8
2
370
   100
100
AcDbLine
 10
-323.627218
 20
-90.144836
 30
0.0
 11
-276.627218
 21
-90.144836
 31
0.0
  0
LINE
  5
251
100
AcDbEntity
  8
2
370
   100
100
AcDbLine
 10
-274.179886
 20
-108.444836
 30
0.0
 11
-326.179886
 21
-108.444836
 31
0.0
  0
LINE
  5
252
100
AcDbEntity
  8
2
370
   100
100
AcDbLine
 10
-277.179886
 20
-120.444836
 30
0.0
 11
-323.179886
 21
-120.444836
 31
0.0
  0
LINE
  5
253
100
AcDbEntity
  8
2
370
   100
100
AcDbLine
 10
-326.179886
 20
-110.444836
 30
0.0
 11
-326.179886
 21
-108.444836
 31
0.0
  0
LINE
  5
254
100
AcDbEntity
  8
2
370
   100
100
AcDbLine
 10
-274.179886
 20
-110.444836
 30
0.0
 11
-274.179886
 21
-108.444836
 31
0.0
  0
LINE
  5
255
100
AcDbEntity
  8
2
370
   100
100
AcDbLine
 10
-323.179886
 20
-120.444836
 30
0.0
 11
-323.179886
 21
-112.444836
 31
0.0
  0
LINE
  5
256
100
AcDbEntity
  8
2
370
   100
100
AcDbLine
 10
-277.179886
 20
-120.444836
 30
0.0
 11
-277.179886
 21
-112.444836
 31
0.0
  0
LINE
  5
257
100
AcDbEntity
  8
2
370
   100
100
AcDbLine
 10
-275.179886
 20
-111.444836
 30
0.0
 11
-325.179886
 21
-111.444836
 31
0.0
  0
LINE
  5
258
100
AcDbEntity
  8
2
370
   100
100
AcDbLine
 10
-322.179886
 20
-119.352836
 30
0.0
 11
-322.179886
 21
-111.444836
 31
0.0
  0
LINE
  5
259
100
AcDbEntity
  8
2
370
   100
100
AcDbLine
 10
-278.179886
 20
-119.352836
 30
0.0
 11
-278.179886
 21
-111.444836
 31
0.0
  0
LINE
  5
25A
100
AcDbEntity
  8
2
370
   100
100
AcDbLine
 10
-299.179886
 20
-119.352836
 30
0.0
 11
-299.179886
 21
-111.444836
 31
0.0
  0
LINE
  5
25B
100
AcDbEntity
  8
2
370
   100
100
AcDbLine
 10
-301.179886
 20
-119.352836
 30
0.0
 11
-301.179886
 21
-111.444836
 31
0.0
  0
LINE
  5
25C
100
AcDbEntity
  8
2
370
   100
100
AcDbLine
 10
-322.179886
 20
-119.352836
 30
0.0
 11
-323.179886
 21
-119.352836
 31
0.0
  0
LINE
  5
25D
100
AcDbEntity
  8
2
370
   100
100
AcDbLine
 10
-277.179886
 20
-119.352836
 30
0.0
 11
-278.179886
 21
-119.352836
 31
0.0
  0
LINE
  5
25E
100
AcDbEntity
  8
2
370
   100
100
AcDbLine
 10
-299.179886
 20
-119.352836
 30
0.0
 11
-301.179886
 21
-119.352836
 31
0.0
  0
ARC
  5
25F
100
AcDbEntity
  8
2
370
   100
100
AcDbCircle
 10
-311.679886
 20
-69.418067
 30
0.0
 40
51.026769
100
AcDbArc
 50
258.125168
 51
281.874832
  0
ARC
  5
260
100
AcDbEntity
  8
2
370
   100
100
AcDbCircle
 10
-288.679886
 20
-69.418067
 30
0.0
 40
51.026769
100
AcDbArc
 50
258.125168
 51
281.874832
  0
ARC
  5
261
100
AcDbEntity
  8
2
370
   100
100
AcDbCircle
 10
-324.179886
 20
-112.444836
 30
0.0
 40
1.0
100
AcDbArc
 50
0.0
 51
90.0
  0
ARC
  5
262
100
AcDbEntity
  8
2
370
   100
100
AcDbCircle
 10
-276.179886
 20
-112.444836
 30
0.0
 40
1.0
100
AcDbArc
 50
90.0
 51
180.0
  0
ARC
  5
263
100
AcDbEntity
  8
2
370
   100
100
AcDbCircle
 10
-325.179886
 20
-110.444836
 30
0.0
 40
1.0
100
AcDbArc
 50
180.0
 51
270.0
  0
ARC
  5
264
100
AcDbEntity
  8
2
370
   100
100
AcDbCircle
 10
-275.179886
 20
-110.444836
 30
0.0
 40
1.0
100
AcDbArc
 50
270.0
 51
360.0
  0
LINE
  5
265
100
AcDbEntity
  8
2
370
   100
100
AcDbLine
 10
-282.627218
 20
-131.850836
 30
0.0
 11
-282.627218
 21
-120.444836
 31
0.0
  0
LINE
  5
266
100
AcDbEntity
  8
2
370
   100
100
AcDbLine
 10
-282.627218
 20
-106.444836
 30
0.0
 11
-282.627218
 21
-93.144836
 31
0.0
  0
LINE
  5
267
100
AcDbEntity
  8
2
370
   100
100
AcDbLine
 10
-283.420968
 20
-132.644586
 30
0.0
 11
-283.420968
 21
-120.444836
 31
0.0
  0
LINE
  5
268
100
AcDbEntity
  8
2
370
   100
100
AcDbLine
 10
-283.420968
 20
-106.444836
 30
0.0
 11
-283.420968
 21
-93.144836
 31
0.0
  0
LINE
  5
269
100
AcDbEntity
  8
2
370
   100
100
AcDbLine
 10
-316.833468
 20
-132.644586
 30
0.0
 11
-316.833468
 21
-120.444836
 31
0.0
  0
LINE
  5
26A
100
AcDbEntity
  8
2
370
   100
100
AcDbLine
 10
-316.833468
 20
-106.444836
 30
0.0
 11
-316.833468
 21
-93.144836
 31
0.0
  0
LINE
  5
26B
100
AcDbEntity
  8
2
370
   100
100
AcDbLine
 10
-317.627218
 20
-131.850836
 30
0.0
 11
-317.627218
 21
-120.444836
 31
0.0
  0
LINE
  5
26C
100
AcDbEntity
  8
2
370
   100
100
AcDbLine
 10
-317.627218
 20
-106.444836
 30
0.0
 11
-317.627218
 21
-93.144836
 31
0.0
  0
LINE
  5
26D
100
AcDbEntity
  8
2
370
   100
  6
CENTER
100
AcDbLine
 10
-307.127218
 20
-256.557678
 30
0.0
 11
-307.127218
 21
-290.145036
 31
0.0
  0
LINE
  5
26E
100
AcDbEntity
  8
2
370
   100
  6
CENTER
100
AcDbLine
 10
-365.260955
 20
-183.982261
 30
0.0
 11
-365.260955
 21
-204.261681
 31
0.0
  0
LINE
  5
26F
100
AcDbEntity
  8
2
370
   100
100
AcDbLine
 10
-371.760955
 20
-233.053628
 30
0.0
 11
-358.760955
 21
-233.053628
 31
0.0
  0
LINE
  5
270
100
AcDbEntity
  8
2
370
   100
100
AcDbLine
 10
-369.842392
 20
-247.053628
 30
0.0
 11
-371.260955
 21
-247.053628
 31
0.0
  0
LINE
  5
271
100
AcDbEntity
  8
2
370
   100
100
AcDbLine
 10
-369.842392
 20
-249.553628
 30
0.0
 11
-371.260955
 21
-249.553628
 31
0.0
  0
ARC
  5
272
100
AcDbEntity
  8
2
370
   100
100
AcDbCircle
 10
-371.060955
 20
-249.853628
 30
0.0
 40
0.2
100
AcDbArc
 50
180.0
 51
270.0
  0
LINE
  5
273
100
AcDbEntity
  8
2
370
   100
100
AcDbLine
 10
-365.760955
 20
-249.553628
 30
0.0
 11
-369.135286
 21
-249.553628
 31
0.0
  0
LINE
  5
274
100
AcDbEntity
  8
2
370
   100
100
AcDbLine
 10
-365.760955
 20
-247.053628
 30
0.0
 11
-369.135286
 21
-247.053628
 31
0.0
  0
LINE
  5
275
100
AcDbEntity
  8
2
370
   100
100
AcDbLine
 10
-361.386625
 20
-249.553628
 30
0.0
 11
-364.760955
 21
-249.553628
 31
0.0
  0
LINE
  5
276
100
AcDbEntity
  8
2
370
   100
100
AcDbLine
 10
-361.386625
 20
-247.053628
 30
0.0
 11
-364.760955
 21
-247.053628
 31
0.0
  0
LINE
  5
277
100
AcDbEntity
  8
2
370
   100
100
AcDbLine
 10
-359.260955
 20
-249.553628
 30
0.0
 11
-360.679518
 21
-249.553628
 31
0.0
  0
LINE
  5
278
100
AcDbEntity
  8
2
370
   100
100
AcDbLine
 10
-359.260955
 20
-247.053628
 30
0.0
 11
-360.679518
 21
-247.053628
 31
0.0
  0
ARC
  5
279
100
AcDbEntity
  8
2
370
   100
100
AcDbCircle
 10
-359.460955
 20
-249.853628
 30
0.0
 40
0.2
100
AcDbArc
 50
270.0
 51
360.0
  0
LINE
  5
27A
100
AcDbEntity
  8
2
370
   100
100
AcDbLine
 10
-359.260955
 20
-247.053628
 30
0.0
 11
-359.260955
 21
-249.853628
 31
0.0
  0
LINE
  5
27B
100
AcDbEntity
  8
2
370
   100
100
AcDbLine
 10
-359.281825
 20
-247.053628
 30
0.0
 11
-359.281825
 21
-249.553628
 31
0.0
  0
ARC
  5
27C
100
AcDbEntity
  8
2
370
   100
100
AcDbCircle
 10
-361.260955
 20
-245.553628
 30
0.0
 40
2.5
100
AcDbArc
 50
323.130102
 51
360.0
  0
LINE
  5
27D
100
AcDbEntity
  8
2
370
   100
100
AcDbLine
 10
-360.679518
 20
-247.053628
 30
0.0
 11
-360.679518
 21
-249.553628
 31
0.0
  0
LINE
  5
27E
100
AcDbEntity
  8
2
370
   100
100
AcDbLine
 10
-361.386625
 20
-247.053628
 30
0.0
 11
-361.386625
 21
-249.553628
 31
0.0
  0
LINE
  5
27F
100
AcDbEntity
  8
2
370
   100
100
AcDbLine
 10
-364.760955
 20
-247.053628
 30
0.0
 11
-364.760955
 21
-249.553628
 31
0.0
  0
LINE
  5
280
100
AcDbEntity
  8
2
370
   100
100
AcDbLine
 10
-365.760955
 20
-247.053628
 30
0.0
 11
-365.760955
 21
-249.553628
 31
0.0
  0
LINE
  5
281
100
AcDbEntity
  8
2
370
   100
100
AcDbLine
 10
-369.842392
 20
-247.053628
 30
0.0
 11
-369.842392
 21
-249.553628
 31
0.0
  0
LINE
  5
282
100
AcDbEntity
  8
2
370
   100
100
AcDbLine
 10
-369.135286
 20
-247.053628
 30
0.0
 11
-369.135286
 21
-249.553628
 31
0.0
  0
LINE
  5
283
100
AcDbEntity
  8
2
370
   100
100
AcDbLine
 10
-371.260955
 20
-247.053628
 30
0.0
 11
-371.260955
 21
-249.853628
 31
0.0
  0
LINE
  5
284
100
AcDbEntity
  8
2
370
   100
100
AcDbLine
 10
-371.240086
 20
-247.053628
 30
0.0
 11
-371.240086
 21
-249.553628
 31
0.0
  0
ARC
  5
285
100
AcDbEntity
  8
2
370
   100
100
AcDbCircle
 10
-369.260955
 20
-245.553628
 30
0.0
 40
2.5
100
AcDbArc
 50
180.0
 51
216.869898
  0
LINE
  5
286
100
AcDbEntity
  8
2
370
   100
100
AcDbLine
 10
-371.760955
 20
-233.053628
 30
0.0
 11
-371.760955
 21
-245.553628
 31
0.0
  0
LINE
  5
287
100
AcDbEntity
  8
2
370
   100
100
AcDbLine
 10
-371.741696
 20
-233.053628
 30
0.0
 11
-371.741696
 21
-245.553628
 31
0.0
  0
LINE
  5
288
100
AcDbEntity
  8
2
370
   100
100
AcDbLine
 10
-358.780215
 20
-233.053628
 30
0.0
 11
-358.780215
 21
-245.553628
 31
0.0
  0
LINE
  5
289
100
AcDbEntity
  8
2
370
   100
100
AcDbLine
 10
-358.760955
 20
-233.053628
 30
0.0
 11
-358.760955
 21
-245.553628
 31
0.0
  0
LINE
  5
28A
100
AcDbEntity
  8
2
370
   100
100
AcDbLine
 10
-358.260955
 20
-250.053628
 30
0.0
 11
-372.260955
 21
-250.053628
 31
0.0
  0
LINE
  5
28B
100
AcDbEntity
  8
2
370
   100
100
AcDbLine
 10
-361.195091
 20
-223.170009
 30
0.0
 11
-369.326819
 21
-215.038281
 31
0.0
  0
LINE
  5
28C
100
AcDbEntity
  8
2
370
   100
100
AcDbLine
 10
-361.195091
 20
-215.038281
 30
0.0
 11
-369.326819
 21
-223.170009
 31
0.0
  0
LINE
  5
28D
100
AcDbEntity
  8
2
370
   100
100
AcDbLine
 10
-361.964158
 20
-223.815156
 30
0.0
 11
-369.971966
 21
-215.807348
 31
0.0
  0
LINE
  5
28E
100
AcDbEntity
  8
2
370
   100
100
AcDbLine
 10
-362.863181
 20
-224.330347
 30
0.0
 11
-370.487157
 21
-216.706371
 31
0.0
  0
LINE
  5
28F
100
AcDbEntity
  8
2
370
   100
100
AcDbLine
 10
-363.913666
 20
-224.694075
 30
0.0
 11
-370.850885
 21
-217.756856
 31
0.0
  0
LINE
  5
290
100
AcDbEntity
  8
2
370
   100
100
AcDbLine
 10
-365.168552
 20
-224.853403
 30
0.0
 11
-371.010213
 21
-219.011742
 31
0.0
  0
LINE
  5
291
100
AcDbEntity
  8
2
370
   100
100
AcDbLine
 10
-366.788692
 20
-224.647477
 30
0.0
 11
-370.804286
 21
-220.631882
 31
0.0
  0
LINE
  5
292
100
AcDbEntity
  8
2
370
   100
100
AcDbLine
 10
-360.549944
 20
-222.400943
 30
0.0
 11
-368.557753
 21
-214.393134
 31
0.0
  0
LINE
  5
293
100
AcDbEntity
  8
2
370
   100
100
AcDbLine
 10
-360.034754
 20
-221.501919
 30
0.0
 11
-367.658729
 21
-213.877944
 31
0.0
  0
LINE
  5
294
100
AcDbEntity
  8
2
370
   100
100
AcDbLine
 10
-359.671026
 20
-220.451434
 30
0.0
 11
-366.608244
 21
-213.514216
 31
0.0
  0
LINE
  5
295
100
AcDbEntity
  8
2
370
   100
100
AcDbLine
 10
-359.511698
 20
-219.196549
 30
0.0
 11
-365.353359
 21
-213.354888
 31
0.0
  0
LINE
  5
296
100
AcDbEntity
  8
2
370
   100
100
AcDbLine
 10
-359.717624
 20
-217.576409
 30
0.0
 11
-363.733219
 21
-213.560814
 31
0.0
  0
LINE
  5
297
100
AcDbEntity
  8
2
370
   100
100
AcDbLine
 10
-361.964158
 20
-214.393134
 30
0.0
 11
-369.971966
 21
-222.400943
 31
0.0
  0
LINE
  5
298
100
AcDbEntity
  8
2
370
   100
100
AcDbLine
 10
-362.863181
 20
-213.877944
 30
0.0
 11
-370.487157
 21
-221.501919
 31
0.0
  0
LINE
  5
299
100
AcDbEntity
  8
2
370
   100
100
AcDbLine
 10
-363.913666
 20
-213.514216
 30
0.0
 11
-370.850885
 21
-220.451434
 31
0.0
  0
LINE
  5
29A
100
AcDbEntity
  8
2
370
   100
100
AcDbLine
 10
-365.168552
 20
-213.354888
 30
0.0
 11
-371.010213
 21
-219.196549
 31
0.0
  0
LINE
  5
29B
100
AcDbEntity
  8
2
370
   100
100
AcDbLine
 10
-366.788692
 20
-213.560814
 30
0.0
 11
-370.804286
 21
-217.576409
 31
0.0
  0
LINE
  5
29C
100
AcDbEntity
  8
2
370
   100
100
AcDbLine
 10
-360.549944
 20
-215.807348
 30
0.0
 11
-368.557753
 21
-223.815156
 31
0.0
  0
LINE
  5
29D
100
AcDbEntity
  8
2
370
   100
100
AcDbLine
 10
-360.034754
 20
-216.706371
 30
0.0
 11
-367.658729
 21
-224.330347
 31
0.0
  0
LINE
  5
29E
100
AcDbEntity
  8
2
370
   100
100
AcDbLine
 10
-359.671026
 20
-217.756856
 30
0.0
 11
-366.608244
 21
-224.694075
 31
0.0
  0
LINE
  5
29F
100
AcDbEntity
  8
2
370
   100
100
AcDbLine
 10
-359.511698
 20
-219.011742
 30
0.0
 11
-365.353359
 21
-224.853403
 31
0.0
  0
LINE
  5
2A0
100
AcDbEntity
  8
2
370
   100
100
AcDbLine
 10
-359.717624
 20
-220.631882
 30
0.0
 11
-363.733219
 21
-224.647477
 31
0.0
  0
LINE
  5
2A1
100
AcDbEntity
  8
2
370
   100
100
AcDbLine
 10
-359.510955
 20
-233.053628
 30
0.0
 11
-359.510955
 21
-199.767021
 31
0.0
  0
LINE
  5
2A2
100
AcDbEntity
  8
2
370
   100
100
AcDbLine
 10
-371.010955
 20
-199.767021
 30
0.0
 11
-371.010955
 21
-233.053628
 31
0.0
  0
ARC
  5
2A3
100
AcDbEntity
  8
2
370
   100
100
AcDbCircle
 10
-368.135914
 20
-195.933478
 30
0.0
 40
4.791667
100
AcDbArc
 50
233.130102
 51
306.869898
  0
ARC
  5
2A4
100
AcDbEntity
  8
2
370
   100
100
AcDbCircle
 10
-362.385914
 20
-203.600144
 30
0.0
 40
4.791667
100
AcDbArc
 50
53.130102
 51
126.869898
  0
ARC
  5
2A5
100
AcDbEntity
  8
2
370
   100
100
AcDbCircle
 10
-362.385914
 20
-195.933478
 30
0.0
 40
4.791667
100
AcDbArc
 50
233.130102
 51
306.869898
  0
ARC
  5
2A6
100
AcDbEntity
  8
2
370
   100
100
AcDbCircle
 10
-359.460362
 20
-249.852946
 30
0.0
 40
0.2
100
AcDbArc
 50
270.0
 51
360.0
  0
ARC
  5
2A7
100
AcDbEntity
  8
2
370
   100
100
AcDbCircle
 10
-371.060362
 20
-249.852946
 30
0.0
 40
0.2
100
AcDbArc
 50
180.0
 51
270.0
  0
LINE
  5
2A8
100
AcDbEntity
  8
2
370
   100
100
AcDbLine
 10
-372.260362
 20
-250.052946
 30
0.0
 11
-358.260362
 21
-250.052946
 31
0.0
  0
LINE
  5
2A9
100
AcDbEntity
  8
2
370
   100
100
AcDbLine
 10
-372.760362
 20
-250.552946
 30
0.0
 11
-372.260362
 21
-250.052946
 31
0.0
  0
LINE
  5
2AA
100
AcDbEntity
  8
2
370
   100
100
AcDbLine
 10
-371.760222
 20
-263.852324
 30
0.0
 11
-371.760222
 21
-260.852324
 31
0.0
  0
LINE
  5
2AB
100
AcDbEntity
  8
2
370
   100
100
AcDbLine
 10
-374.160362
 20
-255.453581
 30
0.0
 11
-374.160362
 21
-257.853581
 31
0.0
  0
LINE
  5
2AC
100
AcDbEntity
  8
2
370
   100
100
AcDbLine
 10
-373.960362
 20
-255.253581
 30
0.0
 11
-374.160362
 21
-255.453581
 31
0.0
  0
LINE
  5
2AD
100
AcDbEntity
  8
2
370
   100
100
AcDbLine
 10
-373.960362
 20
-258.053581
 30
0.0
 11
-374.160362
 21
-257.853581
 31
0.0
  0
LINE
  5
2AE
100
AcDbEntity
  8
2
370
   100
100
AcDbLine
 10
-372.760362
 20
-255.253581
 30
0.0
 11
-372.760362
 21
-254.852324
 31
0.0
  0
LINE
  5
2AF
100
AcDbEntity
  8
2
370
   100
100
AcDbLine
 10
-372.760362
 20
-250.552946
 30
0.0
 11
-372.760362
 21
-251.852324
 31
0.0
  0
LINE
  5
2B0
100
AcDbEntity
  8
2
370
   100
100
AcDbLine
 10
-356.360362
 20
-255.452946
 30
0.0
 11
-356.360362
 21
-257.852946
 31
0.0
  0
LINE
  5
2B1
100
AcDbEntity
  8
2
370
   100
100
AcDbLine
 10
-374.160362
 20
-255.452946
 30
0.0
 11
-374.160362
 21
-257.852946
 31
0.0
  0
LINE
  5
2B2
100
AcDbEntity
  8
2
370
   100
100
AcDbLine
 10
-373.960362
 20
-255.252946
 30
0.0
 11
-374.160362
 21
-255.452946
 31
0.0
  0
LINE
  5
2B3
100
AcDbEntity
  8
2
370
   100
100
AcDbLine
 10
-356.560362
 20
-255.252946
 30
0.0
 11
-356.360362
 21
-255.452946
 31
0.0
  0
LINE
  5
2B4
100
AcDbEntity
  8
2
370
   100
100
AcDbLine
 10
-356.560362
 20
-258.052946
 30
0.0
 11
-356.360362
 21
-257.852946
 31
0.0
  0
LINE
  5
2B5
100
AcDbEntity
  8
2
370
   100
100
AcDbLine
 10
-356.260362
 20
-263.852946
 30
0.0
 11
-374.260362
 21
-263.852946
 31
0.0
  0
LINE
  5
2B6
100
AcDbEntity
  8
2
370
   100
100
AcDbLine
 10
-356.960362
 20
-251.852946
 30
0.0
 11
-373.560362
 21
-251.852946
 31
0.0
  0
LINE
  5
2B7
100
AcDbEntity
  8
2
370
   100
100
AcDbLine
 10
-369.260362
 20
-252.852946
 30
0.0
 11
-369.260362
 21
-262.852946
 31
0.0
  0
LINE
  5
2B8
100
AcDbEntity
  8
2
370
   100
100
AcDbLine
 10
-361.260362
 20
-252.852946
 30
0.0
 11
-361.260362
 21
-262.852946
 31
0.0
  0
LINE
  5
2B9
100
AcDbEntity
  8
2
370
   100
100
AcDbLine
 10
-379.760362
 20
-250.852946
 30
0.0
 11
-379.760362
 21
-262.852946
 31
0.0
  0
LINE
  5
2BA
100
AcDbEntity
  8
2
370
   100
100
AcDbLine
 10
-350.760362
 20
-250.852946
 30
0.0
 11
-350.760362
 21
-262.852946
 31
0.0
  0
ARC
  5
2BB
100
AcDbEntity
  8
2
370
   100
100
AcDbCircle
 10
-351.760362
 20
-250.852946
 30
0.0
 40
1.0
100
AcDbArc
 50
0.0
 51
90.0
  0
ARC
  5
2BC
100
AcDbEntity
  8
2
370
   100
100
AcDbCircle
 10
-378.760362
 20
-250.852946
 30
0.0
 40
1.0
100
AcDbArc
 50
90.0
 51
180.0
  0
ARC
  5
2BD
100
AcDbEntity
  8
2
370
   100
100
AcDbCircle
 10
-378.760362
 20
-262.852946
 30
0.0
 40
1.0
100
AcDbArc
 50
180.0
 51
270.0
  0
ARC
  5
2BE
100
AcDbEntity
  8
2
370
   100
100
AcDbCircle
 10
-351.760362
 20
-262.852946
 30
0.0
 40
1.0
100
AcDbArc
 50
270.0
 51
360.0
  0
LINE
  5
2BF
100
AcDbEntity
  8
2
370
   100
100
AcDbLine
 10
-378.760362
 20
-249.852946
 30
0.0
 11
-371.260362
 21
-249.852946
 31
0.0
  0
LINE
  5
2C0
100
AcDbEntity
  8
2
370
   100
100
AcDbLine
 10
-359.260362
 20
-249.852946
 30
0.0
 11
-351.760362
 21
-249.852946
 31
0.0
  0
LINE
  5
2C1
100
AcDbEntity
  8
2
370
   100
100
AcDbLine
 10
-378.760362
 20
-263.852946
 30
0.0
 11
-372.760362
 21
-263.852946
 31
0.0
  0
LINE
  5
2C2
100
AcDbEntity
  8
2
370
   100
100
AcDbLine
 10
-356.960362
 20
-263.852946
 30
0.0
 11
-351.760362
 21
-263.852946
 31
0.0
  0
LINE
  5
2C3
100
AcDbEntity
  8
2
370
   100
100
AcDbLine
 10
-356.960362
 20
-254.852946
 30
0.0
 11
-361.260362
 21
-254.852946
 31
0.0
  0
LINE
  5
2C4
100
AcDbEntity
  8
2
370
   100
100
AcDbLine
 10
-369.260362
 20
-254.852946
 30
0.0
 11
-373.560362
 21
-254.852946
 31
0.0
  0
LINE
  5
2C5
100
AcDbEntity
  8
2
370
   100
100
AcDbLine
 10
-356.560362
 20
-255.252946
 30
0.0
 11
-361.260362
 21
-255.252946
 31
0.0
  0
LINE
  5
2C6
100
AcDbEntity
  8
2
370
   100
100
AcDbLine
 10
-369.260362
 20
-255.252946
 30
0.0
 11
-373.960362
 21
-255.252946
 31
0.0
  0
LINE
  5
2C7
100
AcDbEntity
  8
2
370
   100
100
AcDbLine
 10
-356.360362
 20
-255.452946
 30
0.0
 11
-361.260362
 21
-255.452946
 31
0.0
  0
LINE
  5
2C8
100
AcDbEntity
  8
2
370
   100
100
AcDbLine
 10
-369.260362
 20
-255.452946
 30
0.0
 11
-374.160362
 21
-255.452946
 31
0.0
  0
LINE
  5
2C9
100
AcDbEntity
  8
2
370
   100
100
AcDbLine
 10
-356.360362
 20
-257.852946
 30
0.0
 11
-361.260362
 21
-257.852946
 31
0.0
  0
LINE
  5
2CA
100
AcDbEntity
  8
2
370
   100
100
AcDbLine
 10
-369.260362
 20
-257.852946
 30
0.0
 11
-374.160362
 21
-257.852946
 31
0.0
  0
LINE
  5
2CB
100
AcDbEntity
  8
2
370
   100
100
AcDbLine
 10
-356.960362
 20
-260.852946
 30
0.0
 11
-361.260362
 21
-260.852946
 31
0.0
  0
LINE
  5
2CC
100
AcDbEntity
  8
2
370
   100
100
AcDbLine
 10
-369.260362
 20
-260.852946
 30
0.0
 11
-373.560362
 21
-260.852946
 31
0.0
  0
ARC
  5
2CD
100
AcDbEntity
  8
2
370
   100
100
AcDbCircle
 10
-362.260362
 20
-252.852946
 30
0.0
 40
1.0
100
AcDbArc
 50
0.0
 51
90.0
  0
ARC
  5
2CE
100
AcDbEntity
  8
2
370
   100
100
AcDbCircle
 10
-368.260362
 20
-252.852946
 30
0.0
 40
1.0
100
AcDbArc
 50
90.0
 51
180.0
  0
ARC
  5
2CF
100
AcDbEntity
  8
2
370
   100
100
AcDbCircle
 10
-368.260362
 20
-262.852946
 30
0.0
 40
1.0
100
AcDbArc
 50
180.0
 51
270.0
  0
ARC
  5
2D0
100
AcDbEntity
  8
2
370
   100
100
AcDbCircle
 10
-362.260362
 20
-262.852946
 30
0.0
 40
1.0
100
AcDbArc
 50
270.0
 51
360.0
  0
LINE
  5
2D1
100
AcDbEntity
  8
2
370
   100
100
AcDbLine
 10
-373.560362
 20
-251.852946
 30
0.0
 11
-373.560362
 21
-254.852946
 31
0.0
  0
LINE
  5
2D2
100
AcDbEntity
  8
2
370
   100
100
AcDbLine
 10
-356.960362
 20
-251.852946
 30
0.0
 11
-356.960362
 21
-254.852946
 31
0.0
  0
LINE
  5
2D3
100
AcDbEntity
  8
2
370
   100
100
AcDbLine
 10
-356.960362
 20
-260.852946
 30
0.0
 11
-356.960362
 21
-263.852946
 31
0.0
  0
LINE
  5
2D4
100
AcDbEntity
  8
2
370
   100
100
AcDbLine
 10
-373.560362
 20
-260.852946
 30
0.0
 11
-373.560362
 21
-263.852946
 31
0.0
  0
LINE
  5
2D5
100
AcDbEntity
  8
2
370
   100
100
AcDbLine
 10
-372.760362
 20
-255.252946
 30
0.0
 11
-372.760362
 21
-254.852946
 31
0.0
  0
LINE
  5
2D6
100
AcDbEntity
  8
2
370
   100
100
AcDbLine
 10
-357.760362
 20
-255.252946
 30
0.0
 11
-357.760362
 21
-254.852946
 31
0.0
  0
LINE
  5
2D7
100
AcDbEntity
  8
2
370
   100
100
AcDbLine
 10
-370.260362
 20
-263.553529
 30
0.0
 11
-370.260362
 21
-261.248307
 31
0.0
  0
LINE
  5
2D8
100
AcDbEntity
  8
2
370
   100
100
AcDbLine
 10
-370.260362
 20
-254.59176
 30
0.0
 11
-370.260362
 21
-252.159554
 31
0.0
  0
LINE
  5
2D9
100
AcDbEntity
  8
2
370
   100
100
AcDbLine
 10
-360.260362
 20
-263.553529
 30
0.0
 11
-360.260362
 21
-261.248307
 31
0.0
  0
LINE
  5
2DA
100
AcDbEntity
  8
2
370
   100
100
AcDbLine
 10
-360.260362
 20
-254.549081
 30
0.0
 11
-360.260362
 21
-252.080033
 31
0.0
  0
LINE
  5
2DB
100
AcDbEntity
  8
2
370
   100
100
AcDbLine
 10
-374.060362
 20
-262.852946
 30
0.0
 11
-374.060362
 21
-260.252946
 31
0.0
  0
LINE
  5
2DC
100
AcDbEntity
  8
2
370
   100
100
AcDbLine
 10
-374.060362
 20
-255.352946
 30
0.0
 11
-374.060362
 21
-250.852946
 31
0.0
  0
LINE
  5
2DD
100
AcDbEntity
  8
2
370
   100
100
AcDbLine
 10
-356.460362
 20
-262.852946
 30
0.0
 11
-356.460362
 21
-260.252946
 31
0.0
  0
LINE
  5
2DE
100
AcDbEntity
  8
2
370
   100
100
AcDbLine
 10
-356.460362
 20
-255.352946
 30
0.0
 11
-356.460362
 21
-250.852946
 31
0.0
  0
ARC
  5
2DF
100
AcDbEntity
  8
2
370
   100
100
AcDbCircle
 10
-373.060362
 20
-250.852946
 30
0.0
 40
1.0
100
AcDbArc
 50
90.0
 51
180.0
  0
ARC
  5
2E0
100
AcDbEntity
  8
2
370
   100
100
AcDbCircle
 10
-357.460362
 20
-250.852946
 30
0.0
 40
1.0
100
AcDbArc
 50
0.0
 51
90.0
  0
ARC
  5
2E1
100
AcDbEntity
  8
2
370
   100
100
AcDbCircle
 10
-375.060362
 20
-262.852946
 30
0.0
 40
1.0
100
AcDbArc
 50
270.0
 51
360.0
  0
ARC
  5
2E2
100
AcDbEntity
  8
2
370
   100
100
AcDbCircle
 10
-355.460362
 20
-262.852946
 30
0.0
 40
1.0
100
AcDbArc
 50
180.0
 51
270.0
  0
LINE
  5
2E3
100
AcDbEntity
  8
2
370
   100
100
AcDbLine
 10
-357.760362
 20
-250.552946
 30
0.0
 11
-357.760362
 21
-251.852324
 31
0.0
  0
ARC
  5
2E4
100
AcDbEntity
  8
2
370
   100
100
AcDbCircle
 10
-357.460362
 20
-250.852946
 30
0.0
 40
1.0
100
AcDbArc
 50
0.0
 51
90.0
  0
LINE
  5
2E5
100
AcDbEntity
  8
2
370
   100
100
AcDbLine
 10
-357.760362
 20
-250.552946
 30
0.0
 11
-358.260362
 21
-250.052946
 31
0.0
  0
LINE
  5
2E6
100
AcDbEntity
  8
2
370
   100
100
AcDbLine
 10
-356.260362
 20
-258.252946
 30
0.0
 11
-356.260362
 21
-260.052946
 31
0.0
  0
LINE
  5
2E7
100
AcDbEntity
  8
2
370
   100
100
AcDbLine
 10
-374.260362
 20
-258.252946
 30
0.0
 11
-374.260362
 21
-260.052946
 31
0.0
  0
LINE
  5
2E8
100
AcDbEntity
  8
2
370
   100
100
AcDbLine
 10
-374.260362
 20
-264.252946
 30
0.0
 11
-375.260362
 21
-265.252946
 31
0.0
  0
LINE
  5
2E9
100
AcDbEntity
  8
2
370
   100
100
AcDbLine
 10
-356.260362
 20
-264.252946
 30
0.0
 11
-355.260362
 21
-265.252946
 31
0.0
  0
LINE
  5
2EA
100
AcDbEntity
  8
2
370
   100
100
AcDbLine
 10
-356.260362
 20
-264.252946
 30
0.0
 11
-374.260362
 21
-264.252946
 31
0.0
  0
LINE
  5
2EB
100
AcDbEntity
  8
2
370
   100
100
AcDbLine
 10
-356.460362
 20
-258.052946
 30
0.0
 11
-356.260362
 21
-258.252946
 31
0.0
  0
LINE
  5
2EC
100
AcDbEntity
  8
2
370
   100
100
AcDbLine
 10
-356.260362
 20
-260.052946
 30
0.0
 11
-356.460362
 21
-260.252946
 31
0.0
  0
LINE
  5
2ED
100
AcDbEntity
  8
2
370
   100
100
AcDbLine
 10
-374.060362
 20
-258.052946
 30
0.0
 11
-374.260362
 21
-258.252946
 31
0.0
  0
LINE
  5
2EE
100
AcDbEntity
  8
2
370
   100
100
AcDbLine
 10
-374.260362
 20
-260.052946
 30
0.0
 11
-374.060362
 21
-260.252946
 31
0.0
  0
LINE
  5
2EF
100
AcDbEntity
  8
2
370
   100
100
AcDbLine
 10
-375.260362
 20
-265.252946
 30
0.0
 11
-355.260362
 21
-265.252946
 31
0.0
  0
LINE
  5
2F0
100
AcDbEntity
  8
2
370
   100
100
AcDbLine
 10
-372.760362
 20
-264.252946
 30
0.0
 11
-372.760362
 21
-263.852946
 31
0.0
  0
LINE
  5
2F1
100
AcDbEntity
  8
2
370
   100
100
AcDbLine
 10
-372.760362
 20
-260.852946
 30
0.0
 11
-372.760362
 21
-260.252946
 31
0.0
  0
LINE
  5
2F2
100
AcDbEntity
  8
2
370
   100
100
AcDbLine
 10
-357.760362
 20
-264.252946
 30
0.0
 11
-357.760362
 21
-263.852946
 31
0.0
  0
LINE
  5
2F3
100
AcDbEntity
  8
2
370
   100
100
AcDbLine
 10
-357.760362
 20
-260.852946
 30
0.0
 11
-357.760362
 21
-260.252946
 31
0.0
  0
LINE
  5
2F4
100
AcDbEntity
  8
2
370
   100
100
AcDbLine
 10
-356.460362
 20
-260.252946
 30
0.0
 11
-361.260362
 21
-260.252946
 31
0.0
  0
LINE
  5
2F5
100
AcDbEntity
  8
2
370
   100
100
AcDbLine
 10
-369.260362
 20
-260.252946
 30
0.0
 11
-374.060362
 21
-260.252946
 31
0.0
  0
LINE
  5
2F6
100
AcDbEntity
  8
2
370
   100
100
AcDbLine
 10
-356.260362
 20
-260.052946
 30
0.0
 11
-361.260362
 21
-260.052946
 31
0.0
  0
LINE
  5
2F7
100
AcDbEntity
  8
2
370
   100
100
AcDbLine
 10
-369.260362
 20
-260.052946
 30
0.0
 11
-374.260362
 21
-260.052946
 31
0.0
  0
LINE
  5
2F8
100
AcDbEntity
  8
2
370
   100
100
AcDbLine
 10
-356.260362
 20
-258.252946
 30
0.0
 11
-361.260362
 21
-258.252946
 31
0.0
  0
LINE
  5
2F9
100
AcDbEntity
  8
2
370
   100
100
AcDbLine
 10
-369.260362
 20
-258.252946
 30
0.0
 11
-374.260362
 21
-258.252946
 31
0.0
  0
LINE
  5
2FA
100
AcDbEntity
  8
2
370
   100
100
AcDbLine
 10
-356.460362
 20
-258.052946
 30
0.0
 11
-361.260362
 21
-258.052946
 31
0.0
  0
LINE
  5
2FB
100
AcDbEntity
  8
2
370
   100
100
AcDbLine
 10
-369.260362
 20
-258.052946
 30
0.0
 11
-374.060362
 21
-258.052946
 31
0.0
  0
LINE
  5
2FC
100
AcDbEntity
  8
2
370
   100
100
AcDbLine
 10
-358.760502
 20
-263.852324
 30
0.0
 11
-358.760502
 21
-260.852324
 31
0.0
  0
LINE
  5
2FD
100
AcDbEntity
  8
2
370
   100
100
AcDbLine
 10
-371.760222
 20
-254.852946
 30
0.0
 11
-371.760222
 21
-251.852946
 31
0.0
  0
LINE
  5
2FE
100
AcDbEntity
  8
2
370
   100
100
AcDbLine
 10
-358.760502
 20
-254.852946
 30
0.0
 11
-358.760502
 21
-251.852946
 31
0.0
  0
LINE
  5
2FF
100
AcDbEntity
  8
2
370
   100
100
AcDbLine
 10
-369.489978
 20
-245.553628
 30
0.0
 11
-369.489978
 21
-244.303628
 31
0.0
  0
LINE
  5
300
100
AcDbEntity
  8
2
370
   100
100
AcDbLine
 10
-369.489978
 20
-234.303628
 30
0.0
 11
-369.489978
 21
-233.053628
 31
0.0
  0
LINE
  5
301
100
AcDbEntity
  8
2
370
   100
100
AcDbLine
 10
-370.197084
 20
-245.553628
 30
0.0
 11
-370.197084
 21
-244.303628
 31
0.0
  0
LINE
  5
302
100
AcDbEntity
  8
2
370
   100
100
AcDbLine
 10
-370.197084
 20
-234.303628
 30
0.0
 11
-370.197084
 21
-233.053628
 31
0.0
  0
LINE
  5
303
100
AcDbEntity
  8
2
370
   100
100
AcDbLine
 10
-365.760955
 20
-245.553628
 30
0.0
 11
-365.760955
 21
-244.303628
 31
0.0
  0
LINE
  5
304
100
AcDbEntity
  8
2
370
   100
100
AcDbLine
 10
-365.760955
 20
-234.303628
 30
0.0
 11
-365.760955
 21
-233.053628
 31
0.0
  0
LINE
  5
305
100
AcDbEntity
  8
2
370
   100
100
AcDbLine
 10
-364.760955
 20
-245.553628
 30
0.0
 11
-364.760955
 21
-244.303628
 31
0.0
  0
LINE
  5
306
100
AcDbEntity
  8
2
370
   100
100
AcDbLine
 10
-364.760955
 20
-234.303628
 30
0.0
 11
-364.760955
 21
-233.053628
 31
0.0
  0
LINE
  5
307
100
AcDbEntity
  8
2
370
   100
100
AcDbLine
 10
-361.031933
 20
-245.553628
 30
0.0
 11
-361.031933
 21
-244.303628
 31
0.0
  0
LINE
  5
308
100
AcDbEntity
  8
2
370
   100
100
AcDbLine
 10
-361.031933
 20
-234.303628
 30
0.0
 11
-361.031933
 21
-233.053628
 31
0.0
  0
LINE
  5
309
100
AcDbEntity
  8
2
370
   100
100
AcDbLine
 10
-360.324826
 20
-245.553628
 30
0.0
 11
-360.324826
 21
-244.303628
 31
0.0
  0
LINE
  5
30A
100
AcDbEntity
  8
2
370
   100
100
AcDbLine
 10
-360.324826
 20
-234.303628
 30
0.0
 11
-360.324826
 21
-233.053628
 31
0.0
  0
LINE
  5
30B
100
AcDbEntity
  8
2
370
   100
100
AcDbLine
 10
-355.260362
 20
-265.252946
 30
0.0
 11
-355.260362
 21
-274.052946
 31
0.0
  0
LINE
  5
30C
100
AcDbEntity
  8
2
370
   100
100
AcDbLine
 10
-375.260362
 20
-265.252946
 30
0.0
 11
-375.260362
 21
-274.052946
 31
0.0
  0
LINE
  5
30D
100
AcDbEntity
  8
2
370
   100
100
AcDbLine
 10
-353.260362
 20
-274.052946
 30
0.0
 11
-377.260362
 21
-274.052946
 31
0.0
  0
LINE
  5
30E
100
AcDbEntity
  8
2
370
   100
100
AcDbLine
 10
-352.260362
 20
-275.052946
 30
0.0
 11
-352.260362
 21
-284.052946
 31
0.0
  0
LINE
  5
30F
100
AcDbEntity
  8
2
370
   100
100
AcDbLine
 10
-353.260362
 20
-274.052946
 30
0.0
 11
-352.260362
 21
-275.052946
 31
0.0
  0
LINE
  5
310
100
AcDbEntity
  8
2
370
   100
100
AcDbLine
 10
-378.260362
 20
-275.052946
 30
0.0
 11
-378.260362
 21
-284.052946
 31
0.0
  0
LINE
  5
311
100
AcDbEntity
  8
2
370
   100
100
AcDbLine
 10
-377.260362
 20
-274.052946
 30
0.0
 11
-378.260362
 21
-275.052946
 31
0.0
  0
LINE
  5
312
100
AcDbEntity
  8
2
370
   100
100
AcDbLine
 10
-372.188752
 20
-284.052946
 30
0.0
 11
-372.188752
 21
-275.052946
 31
0.0
  0
LINE
  5
313
100
AcDbEntity
  8
2
370
   100
100
AcDbLine
 10
-358.331972
 20
-284.052946
 30
0.0
 11
-358.331972
 21
-275.052946
 31
0.0
  0
ARC
  5
314
100
AcDbEntity
  8
2
370
   100
100
AcDbCircle
 10
-365.260362
 20
-298.554242
 30
0.0
 40
24.501296
100
AcDbArc
 50
73.574016
 51
106.425984
  0
ARC
  5
315
100
AcDbEntity
  8
2
370
   100
100
AcDbCircle
 10
-355.296167
 20
-279.161001
 30
0.0
 40
5.108056
100
AcDbArc
 50
53.536034
 51
126.463966
  0
ARC
  5
316
100
AcDbEntity
  8
2
370
   100
100
AcDbCircle
 10
-375.224557
 20
-279.161001
 30
0.0
 40
5.108056
100
AcDbArc
 50
53.536034
 51
126.463966
  0
LINE
  5
317
100
AcDbEntity
  8
2
370
   100
100
AcDbLine
 10
-352.260362
 20
-275.052946
 30
0.0
 11
-352.260362
 21
-283.052946
 31
0.0
  0
LINE
  5
318
100
AcDbEntity
  8
2
370
   100
100
AcDbLine
 10
-353.260362
 20
-285.052946
 30
0.0
 11
-352.260362
 21
-284.052946
 31
0.0
  0
LINE
  5
319
100
AcDbEntity
  8
2
370
   100
100
AcDbLine
 10
-378.260362
 20
-275.052946
 30
0.0
 11
-378.260362
 21
-283.052946
 31
0.0
  0
LINE
  5
31A
100
AcDbEntity
  8
2
370
   100
100
AcDbLine
 10
-377.260362
 20
-285.052946
 30
0.0
 11
-378.260362
 21
-284.052946
 31
0.0
  0
LINE
  5
31B
100
AcDbEntity
  8
2
370
   100
100
AcDbLine
 10
-353.260362
 20
-285.052946
 30
0.0
 11
-377.260362
 21
-285.052946
 31
0.0
  0
LINE
  5
31C
100
AcDbEntity
  8
2
370
   100
100
AcDbLine
 10
-372.188752
 20
-283.052946
 30
0.0
 11
-372.188752
 21
-275.052946
 31
0.0
  0
LINE
  5
31D
100
AcDbEntity
  8
2
370
   100
100
AcDbLine
 10
-358.331972
 20
-283.052946
 30
0.0
 11
-358.331972
 21
-275.052946
 31
0.0
  0
ARC
  5
31E
100
AcDbEntity
  8
2
370
   100
100
AcDbCircle
 10
-365.260362
 20
-260.55165
 30
0.0
 40
24.501296
100
AcDbArc
 50
253.574016
 51
286.425984
  0
ARC
  5
31F
100
AcDbEntity
  8
2
370
   100
100
AcDbCircle
 10
-375.224557
 20
-279.94489
 30
0.0
 40
5.108056
100
AcDbArc
 50
233.536034
 51
306.463966
  0
ARC
  5
320
100
AcDbEntity
  8
2
370
   100
100
AcDbCircle
 10
-355.296167
 20
-279.94489
 30
0.0
 40
5.108056
100
AcDbArc
 50
233.536034
 51
306.463966
  0
LINE
  5
321
100
AcDbEntity
  8
2
370
   100
100
AcDbLine
 10
-299.127218
 20
-228.645033
 30
0.0
 11
-287.127218
 21
-228.645033
 31
0.0
  0
LINE
  5
322
100
AcDbEntity
  8
2
370
   100
100
AcDbLine
 10
-299.127218
 20
-234.545033
 30
0.0
 11
-287.127218
 21
-234.545033
 31
0.0
  0
LINE
  5
323
100
AcDbEntity
  8
2
370
   100
100
AcDbLine
 10
-299.127218
 20
-234.545033
 30
0.0
 11
-299.127218
 21
-228.645033
 31
0.0
  0
LINE
  5
324
100
AcDbEntity
  8
2
370
   100
100
AcDbLine
 10
-287.127218
 20
-234.545033
 30
0.0
 11
-287.127218
 21
-228.645033
 31
0.0
  0
LINE
  5
325
100
AcDbEntity
  8
2
370
   100
100
AcDbLine
 10
-296.691399
 20
-234.545033
 30
0.0
 11
-296.691399
 21
-228.645033
 31
0.0
  0
LINE
  5
326
100
AcDbEntity
  8
2
370
   100
100
AcDbLine
 10
-295.525133
 20
-234.545033
 30
0.0
 11
-295.525133
 21
-228.645033
 31
0.0
  0
LINE
  5
327
100
AcDbEntity
  8
2
370
   100
100
AcDbLine
 10
-290.729302
 20
-234.545033
 30
0.0
 11
-290.729302
 21
-228.645033
 31
0.0
  0
LINE
  5
328
100
AcDbEntity
  8
2
370
   100
100
AcDbLine
 10
-289.563036
 20
-234.545033
 30
0.0
 11
-289.563036
 21
-228.645033
 31
0.0
  0
LINE
  5
329
100
AcDbEntity
  8
2
370
   100
100
AcDbLine
 10
-287.327218
 20
-234.545033
 30
0.0
 11
-298.927218
 21
-234.545033
 31
0.0
  0
LINE
  5
32A
100
AcDbEntity
  8
2
370
   100
100
AcDbLine
 10
-299.627218
 20
-251.545033
 30
0.0
 11
-286.627218
 21
-251.545033
 31
0.0
  0
LINE
  5
32B
100
AcDbEntity
  8
2
370
   100
100
AcDbLine
 10
-299.627218
 20
-251.545033
 30
0.0
 11
-299.627218
 21
-239.045033
 31
0.0
  0
LINE
  5
32C
100
AcDbEntity
  8
2
370
   100
100
AcDbLine
 10
-286.627218
 20
-251.545033
 30
0.0
 11
-286.627218
 21
-239.045033
 31
0.0
  0
LINE
  5
32D
100
AcDbEntity
  8
2
370
   100
100
AcDbLine
 10
-297.001548
 20
-237.545033
 30
0.0
 11
-297.001548
 21
-235.045033
 31
0.0
  0
LINE
  5
32E
100
AcDbEntity
  8
2
370
   100
100
AcDbLine
 10
-297.708655
 20
-237.545033
 30
0.0
 11
-297.708655
 21
-235.045033
 31
0.0
  0
LINE
  5
32F
100
AcDbEntity
  8
2
370
   100
100
AcDbLine
 10
-299.106348
 20
-237.545033
 30
0.0
 11
-299.106348
 21
-235.045033
 31
0.0
  0
LINE
  5
330
100
AcDbEntity
  8
2
370
   100
100
AcDbLine
 10
-299.127218
 20
-237.545033
 30
0.0
 11
-299.127218
 21
-234.745033
 31
0.0
  0
LINE
  5
331
100
AcDbEntity
  8
2
370
   100
100
AcDbLine
 10
-293.627218
 20
-237.545033
 30
0.0
 11
-293.627218
 21
-235.045033
 31
0.0
  0
LINE
  5
332
100
AcDbEntity
  8
2
370
   100
100
AcDbLine
 10
-292.627218
 20
-237.545033
 30
0.0
 11
-292.627218
 21
-235.045033
 31
0.0
  0
LINE
  5
333
100
AcDbEntity
  8
2
370
   100
100
AcDbLine
 10
-289.252887
 20
-237.545033
 30
0.0
 11
-289.252887
 21
-235.045033
 31
0.0
  0
LINE
  5
334
100
AcDbEntity
  8
2
370
   100
100
AcDbLine
 10
-288.545781
 20
-237.545033
 30
0.0
 11
-288.545781
 21
-235.045033
 31
0.0
  0
LINE
  5
335
100
AcDbEntity
  8
2
370
   100
100
AcDbLine
 10
-287.127218
 20
-237.545033
 30
0.0
 11
-287.127218
 21
-234.745033
 31
0.0
  0
LINE
  5
336
100
AcDbEntity
  8
2
370
   100
100
AcDbLine
 10
-287.148087
 20
-237.545033
 30
0.0
 11
-287.148087
 21
-235.045033
 31
0.0
  0
LINE
  5
337
100
AcDbEntity
  8
2
370
   100
100
AcDbLine
 10
-297.708655
 20
-235.045033
 30
0.0
 11
-299.127218
 21
-235.045033
 31
0.0
  0
LINE
  5
338
100
AcDbEntity
  8
2
370
   100
100
AcDbLine
 10
-293.627218
 20
-235.045033
 30
0.0
 11
-297.001548
 21
-235.045033
 31
0.0
  0
LINE
  5
339
100
AcDbEntity
  8
2
370
   100
100
AcDbLine
 10
-287.127218
 20
-235.045033
 30
0.0
 11
-288.545781
 21
-235.045033
 31
0.0
  0
LINE
  5
33A
100
AcDbEntity
  8
2
370
   100
100
AcDbLine
 10
-289.252887
 20
-235.045033
 30
0.0
 11
-292.627218
 21
-235.045033
 31
0.0
  0
LINE
  5
33B
100
AcDbEntity
  8
2
370
   100
100
AcDbLine
 10
-297.708655
 20
-237.545033
 30
0.0
 11
-299.127218
 21
-237.545033
 31
0.0
  0
LINE
  5
33C
100
AcDbEntity
  8
2
370
   100
100
AcDbLine
 10
-293.627218
 20
-237.545033
 30
0.0
 11
-297.001548
 21
-237.545033
 31
0.0
  0
LINE
  5
33D
100
AcDbEntity
  8
2
370
   100
100
AcDbLine
 10
-287.127218
 20
-237.545033
 30
0.0
 11
-288.545781
 21
-237.545033
 31
0.0
  0
LINE
  5
33E
100
AcDbEntity
  8
2
370
   100
100
AcDbLine
 10
-289.252887
 20
-237.545033
 30
0.0
 11
-292.627218
 21
-237.545033
 31
0.0
  0
ARC
  5
33F
100
AcDbEntity
  8
2
370
   100
100
AcDbCircle
 10
-287.327218
 20
-234.745033
 30
0.0
 40
0.2
100
AcDbArc
 50
0.0
 51
90.0
  0
ARC
  5
340
100
AcDbEntity
  8
2
370
   100
100
AcDbCircle
 10
-298.927218
 20
-234.745033
 30
0.0
 40
0.2
100
AcDbArc
 50
90.0
 51
180.0
  0
ARC
  5
341
100
AcDbEntity
  8
2
370
   100
100
AcDbCircle
 10
-297.127218
 20
-239.045033
 30
0.0
 40
2.5
100
AcDbArc
 50
143.130102
 51
180.0
  0
ARC
  5
342
100
AcDbEntity
  8
2
370
   100
100
AcDbCircle
 10
-289.127218
 20
-239.045033
 30
0.0
 40
2.5
100
AcDbArc
 50
0.0
 51
36.869898
  0
LINE
  5
343
100
AcDbEntity
  8
2
370
   100
100
AcDbLine
 10
-299.607958
 20
-251.545033
 30
0.0
 11
-299.607958
 21
-239.045033
 31
0.0
  0
LINE
  5
344
100
AcDbEntity
  8
2
370
   100
100
AcDbLine
 10
-298.063347
 20
-251.545033
 30
0.0
 11
-298.063347
 21
-239.045033
 31
0.0
  0
LINE
  5
345
100
AcDbEntity
  8
2
370
   100
100
AcDbLine
 10
-297.35624
 20
-251.545033
 30
0.0
 11
-297.35624
 21
-239.045033
 31
0.0
  0
LINE
  5
346
100
AcDbEntity
  8
2
370
   100
100
AcDbLine
 10
-293.627218
 20
-251.545033
 30
0.0
 11
-293.627218
 21
-239.045033
 31
0.0
  0
LINE
  5
347
100
AcDbEntity
  8
2
370
   100
100
AcDbLine
 10
-292.627218
 20
-251.545033
 30
0.0
 11
-292.627218
 21
-239.045033
 31
0.0
  0
LINE
  5
348
100
AcDbEntity
  8
2
370
   100
100
AcDbLine
 10
-288.898195
 20
-251.545033
 30
0.0
 11
-288.898195
 21
-239.045033
 31
0.0
  0
LINE
  5
349
100
AcDbEntity
  8
2
370
   100
100
AcDbLine
 10
-288.191089
 20
-251.545033
 30
0.0
 11
-288.191089
 21
-239.045033
 31
0.0
  0
LINE
  5
34A
100
AcDbEntity
  8
2
370
   100
100
AcDbLine
 10
-286.646477
 20
-251.545033
 30
0.0
 11
-286.646477
 21
-239.045033
 31
0.0
  0
LINE
  5
34B
100
AcDbEntity
  8
2
370
   100
100
AcDbLine
 10
-289.061354
 20
-267.761391
 30
0.0
 11
-297.193082
 21
-259.629663
 31
0.0
  0
LINE
  5
34C
100
AcDbEntity
  8
2
370
   100
100
AcDbLine
 10
-289.061354
 20
-259.629663
 30
0.0
 11
-297.193082
 21
-267.761391
 31
0.0
  0
LINE
  5
34D
100
AcDbEntity
  8
2
370
   100
100
AcDbLine
 10
-289.83042
 20
-268.406538
 30
0.0
 11
-297.838229
 21
-260.398729
 31
0.0
  0
LINE
  5
34E
100
AcDbEntity
  8
2
370
   100
100
AcDbLine
 10
-290.729444
 20
-268.921728
 30
0.0
 11
-298.353419
 21
-261.297753
 31
0.0
  0
LINE
  5
34F
100
AcDbEntity
  8
2
370
   100
100
AcDbLine
 10
-291.779929
 20
-269.285456
 30
0.0
 11
-298.717147
 21
-262.348238
 31
0.0
  0
LINE
  5
350
100
AcDbEntity
  8
2
370
   100
100
AcDbLine
 10
-293.034814
 20
-269.444784
 30
0.0
 11
-298.876475
 21
-263.603124
 31
0.0
  0
LINE
  5
351
100
AcDbEntity
  8
2
370
   100
100
AcDbLine
 10
-294.654954
 20
-269.238858
 30
0.0
 11
-298.670549
 21
-265.223264
 31
0.0
  0
LINE
  5
352
100
AcDbEntity
  8
2
370
   100
100
AcDbLine
 10
-288.416207
 20
-266.992324
 30
0.0
 11
-296.424015
 21
-258.984516
 31
0.0
  0
LINE
  5
353
100
AcDbEntity
  8
2
370
   100
100
AcDbLine
 10
-287.901016
 20
-266.093301
 30
0.0
 11
-295.524992
 21
-258.469326
 31
0.0
  0
LINE
  5
354
100
AcDbEntity
  8
2
370
   100
100
AcDbLine
 10
-287.537288
 20
-265.042816
 30
0.0
 11
-294.474507
 21
-258.105597
 31
0.0
  0
LINE
  5
355
100
AcDbEntity
  8
2
370
   100
100
AcDbLine
 10
-287.37796
 20
-263.78793
 30
0.0
 11
-293.219621
 21
-257.946269
 31
0.0
  0
LINE
  5
356
100
AcDbEntity
  8
2
370
   100
100
AcDbLine
 10
-287.583886
 20
-262.16779
 30
0.0
 11
-291.599481
 21
-258.152196
 31
0.0
  0
LINE
  5
357
100
AcDbEntity
  8
2
370
   100
100
AcDbLine
 10
-289.83042
 20
-258.984516
 30
0.0
 11
-297.838229
 21
-266.992324
 31
0.0
  0
LINE
  5
358
100
AcDbEntity
  8
2
370
   100
100
AcDbLine
 10
-290.729444
 20
-258.469326
 30
0.0
 11
-298.353419
 21
-266.093301
 31
0.0
  0
LINE
  5
359
100
AcDbEntity
  8
2
370
   100
100
AcDbLine
 10
-291.779929
 20
-258.105597
 30
0.0
 11
-298.717147
 21
-265.042816
 31
0.0
  0
LINE
  5
35A
100
AcDbEntity
  8
2
370
   100
100
AcDbLine
 10
-293.034814
 20
-257.946269
 30
0.0
 11
-298.876475
 21
-263.78793
 31
0.0
  0
LINE
  5
35B
100
AcDbEntity
  8
2
370
   100
100
AcDbLine
 10
-294.654954
 20
-258.152196
 30
0.0
 11
-298.670549
 21
-262.16779
 31
0.0
  0
LINE
  5
35C
100
AcDbEntity
  8
2
370
   100
100
AcDbLine
 10
-288.416207
 20
-260.398729
 30
0.0
 11
-296.424015
 21
-268.406538
 31
0.0
  0
LINE
  5
35D
100
AcDbEntity
  8
2
370
   100
100
AcDbLine
 10
-287.901016
 20
-261.297753
 30
0.0
 11
-295.524992
 21
-268.921728
 31
0.0
  0
LINE
  5
35E
100
AcDbEntity
  8
2
370
   100
100
AcDbLine
 10
-287.537288
 20
-262.348238
 30
0.0
 11
-294.474507
 21
-269.285456
 31
0.0
  0
LINE
  5
35F
100
AcDbEntity
  8
2
370
   100
100
AcDbLine
 10
-287.37796
 20
-263.603124
 30
0.0
 11
-293.219621
 21
-269.444784
 31
0.0
  0
LINE
  5
360
100
AcDbEntity
  8
2
370
   100
100
AcDbLine
 10
-287.583886
 20
-265.223264
 30
0.0
 11
-291.599481
 21
-269.238858
 31
0.0
  0
LINE
  5
361
100
AcDbEntity
  8
2
370
   100
100
AcDbLine
 10
-287.377218
 20
-283.26636
 30
0.0
 11
-287.377218
 21
-251.545033
 31
0.0
  0
LINE
  5
362
100
AcDbEntity
  8
2
370
   100
100
AcDbLine
 10
-298.877218
 20
-251.545033
 30
0.0
 11
-298.877218
 21
-283.26636
 31
0.0
  0
ARC
  5
363
100
AcDbEntity
  8
2
370
   100
100
AcDbCircle
 10
-296.002218
 20
-279.434279
 30
0.0
 40
4.791667
100
AcDbArc
 50
233.130102
 51
306.869898
  0
ARC
  5
364
100
AcDbEntity
  8
2
370
   100
100
AcDbCircle
 10
-290.252218
 20
-287.100946
 30
0.0
 40
4.791667
100
AcDbArc
 50
53.130102
 51
126.869898
  0
ARC
  5
365
100
AcDbEntity
  8
2
370
   100
100
AcDbCircle
 10
-296.002218
 20
-287.100946
 30
0.0
 40
4.791667
100
AcDbArc
 50
53.130102
 51
126.869898
  0
LINE
  5
366
100
AcDbEntity
  8
2
370
   100
  6
CENTER
100
AcDbLine
 10
-293.127218
 20
-298.648373
 30
0.0
 11
-293.127218
 21
-280.166267
 31
0.0
  0
LINE
  5
367
100
AcDbEntity
  8
2
370
   100
100
AcDbLine
 10
-306.379667
 20
-140.092976
 30
0.0
 11
-306.379667
 21
-139.079071
 31
0.0
  0
LINE
  5
368
100
AcDbEntity
  8
2
370
   100
100
AcDbLine
 10
-293.979667
 20
-138.017945
 30
0.0
 11
-293.979667
 21
-137.004023
 31
0.0
  0
LINE
  5
369
100
AcDbEntity
  8
2
370
   100
100
AcDbLine
 10
-307.179667
 20
-138.976696
 30
0.0
 11
-307.179667
 21
-136.340543
 31
0.0
  0
LINE
  5
36A
100
AcDbEntity
  8
2
370
   100
100
AcDbLine
 10
-306.946658
 20
-139.173953
 30
0.0
 11
-293.346658
 21
-136.898094
 31
0.0
  0
ARC
  5
36B
100
AcDbEntity
  8
2
370
   100
100
AcDbCircle
 10
-306.979667
 20
-138.976696
 30
0.0
 40
0.2
100
AcDbArc
 50
180.0
 51
279.5
  0
LINE
  5
36C
100
AcDbEntity
  8
2
370
   100
100
AcDbLine
 10
-293.179667
 20
-136.700836
 30
0.0
 11
-293.179667
 21
-134.064683
 31
0.0
  0
ARC
  5
36D
100
AcDbEntity
  8
2
370
   100
100
AcDbCircle
 10
-293.379667
 20
-136.700836
 30
0.0
 40
0.2
100
AcDbArc
 50
279.5
 51
360.0
  0
ARC
  5
36E
100
AcDbEntity
  8
2
370
   100
100
AcDbCircle
 10
-293.379667
 20
-134.064683
 30
0.0
 40
0.2
100
AcDbArc
 50
0.0
 51
99.5
  0
LINE
  5
36F
100
AcDbEntity
  8
2
370
   100
100
AcDbLine
 10
-293.412677
 20
-133.867046
 30
0.0
 11
-307.012679
 21
-136.143304
 31
0.0
  0
LINE
  5
370
100
AcDbEntity
  8
2
370
   100
100
AcDbLine
 10
-306.379667
 20
-144.148976
 30
0.0
 11
-306.379667
 21
-143.135071
 31
0.0
  0
LINE
  5
371
100
AcDbEntity
  8
2
370
   100
100
AcDbLine
 10
-293.979667
 20
-142.073945
 30
0.0
 11
-293.979667
 21
-141.060023
 31
0.0
  0
LINE
  5
372
100
AcDbEntity
  8
2
370
   100
100
AcDbLine
 10
-307.179667
 20
-143.032696
 30
0.0
 11
-307.179667
 21
-140.396543
 31
0.0
  0
LINE
  5
373
100
AcDbEntity
  8
2
370
   100
100
AcDbLine
 10
-306.946658
 20
-143.229953
 30
0.0
 11
-293.346658
 21
-140.954094
 31
0.0
  0
ARC
  5
374
100
AcDbEntity
  8
2
370
   100
100
AcDbCircle
 10
-306.979667
 20
-143.032696
 30
0.0
 40
0.2
100
AcDbArc
 50
180.0
 51
279.5
  0
LINE
  5
375
100
AcDbEntity
  8
2
370
   100
100
AcDbLine
 10
-293.179667
 20
-140.756836
 30
0.0
 11
-293.179667
 21
-138.120683
 31
0.0
  0
ARC
  5
376
100
AcDbEntity
  8
2
370
   100
100
AcDbCircle
 10
-293.379667
 20
-140.756836
 30
0.0
 40
0.2
100
AcDbArc
 50
279.5
 51
360.0
  0
ARC
  5
377
100
AcDbEntity
  8
2
370
   100
100
AcDbCircle
 10
-293.379667
 20
-138.120683
 30
0.0
 40
0.2
100
AcDbArc
 50
0.0
 51
99.5
  0
LINE
  5
378
100
AcDbEntity
  8
2
370
   100
100
AcDbLine
 10
-293.412677
 20
-137.923046
 30
0.0
 11
-307.012679
 21
-140.199304
 31
0.0
  0
LINE
  5
379
100
AcDbEntity
  8
2
370
   100
100
AcDbLine
 10
-306.379667
 20
-148.204976
 30
0.0
 11
-306.379667
 21
-147.191071
 31
0.0
  0
LINE
  5
37A
100
AcDbEntity
  8
2
370
   100
100
AcDbLine
 10
-293.979667
 20
-146.129945
 30
0.0
 11
-293.979667
 21
-145.116023
 31
0.0
  0
LINE
  5
37B
100
AcDbEntity
  8
2
370
   100
100
AcDbLine
 10
-307.179667
 20
-147.088696
 30
0.0
 11
-307.179667
 21
-144.452543
 31
0.0
  0
LINE
  5
37C
100
AcDbEntity
  8
2
370
   100
100
AcDbLine
 10
-306.946658
 20
-147.285953
 30
0.0
 11
-293.346658
 21
-145.010094
 31
0.0
  0
ARC
  5
37D
100
AcDbEntity
  8
2
370
   100
100
AcDbCircle
 10
-306.979667
 20
-147.088696
 30
0.0
 40
0.2
100
AcDbArc
 50
180.0
 51
279.5
  0
LINE
  5
37E
100
AcDbEntity
  8
2
370
   100
100
AcDbLine
 10
-293.179667
 20
-144.812836
 30
0.0
 11
-293.179667
 21
-142.176683
 31
0.0
  0
ARC
  5
37F
100
AcDbEntity
  8
2
370
   100
100
AcDbCircle
 10
-293.379667
 20
-144.812836
 30
0.0
 40
0.2
100
AcDbArc
 50
279.5
 51
360.0
  0
ARC
  5
380
100
AcDbEntity
  8
2
370
   100
100
AcDbCircle
 10
-293.379667
 20
-142.176683
 30
0.0
 40
0.2
100
AcDbArc
 50
0.0
 51
99.5
  0
LINE
  5
381
100
AcDbEntity
  8
2
370
   100
100
AcDbLine
 10
-293.412677
 20
-141.979046
 30
0.0
 11
-307.012679
 21
-144.255304
 31
0.0
  0
LINE
  5
382
100
AcDbEntity
  8
2
370
   100
100
AcDbLine
 10
-306.379667
 20
-152.260976
 30
0.0
 11
-306.379667
 21
-151.247071
 31
0.0
  0
LINE
  5
383
100
AcDbEntity
  8
2
370
   100
100
AcDbLine
 10
-293.979667
 20
-150.185945
 30
0.0
 11
-293.979667
 21
-149.172023
 31
0.0
  0
LINE
  5
384
100
AcDbEntity
  8
2
370
   100
100
AcDbLine
 10
-307.179667
 20
-151.144696
 30
0.0
 11
-307.179667
 21
-148.508543
 31
0.0
  0
LINE
  5
385
100
AcDbEntity
  8
2
370
   100
100
AcDbLine
 10
-306.946658
 20
-151.341953
 30
0.0
 11
-293.346658
 21
-149.066094
 31
0.0
  0
ARC
  5
386
100
AcDbEntity
  8
2
370
   100
100
AcDbCircle
 10
-306.979667
 20
-151.144696
 30
0.0
 40
0.2
100
AcDbArc
 50
180.0
 51
279.5
  0
LINE
  5
387
100
AcDbEntity
  8
2
370
   100
100
AcDbLine
 10
-293.179667
 20
-148.868836
 30
0.0
 11
-293.179667
 21
-146.232683
 31
0.0
  0
ARC
  5
388
100
AcDbEntity
  8
2
370
   100
100
AcDbCircle
 10
-293.379667
 20
-148.868836
 30
0.0
 40
0.2
100
AcDbArc
 50
279.5
 51
360.0
  0
ARC
  5
389
100
AcDbEntity
  8
2
370
   100
100
AcDbCircle
 10
-293.379667
 20
-146.232683
 30
0.0
 40
0.2
100
AcDbArc
 50
0.0
 51
99.5
  0
LINE
  5
38A
100
AcDbEntity
  8
2
370
   100
100
AcDbLine
 10
-293.412677
 20
-146.035046
 30
0.0
 11
-307.012679
 21
-148.311304
 31
0.0
  0
LINE
  5
38B
100
AcDbEntity
  8
2
370
   100
100
AcDbLine
 10
-306.379667
 20
-156.316976
 30
0.0
 11
-306.379667
 21
-155.303071
 31
0.0
  0
LINE
  5
38C
100
AcDbEntity
  8
2
370
   100
100
AcDbLine
 10
-293.979667
 20
-154.241945
 30
0.0
 11
-293.979667
 21
-153.228023
 31
0.0
  0
LINE
  5
38D
100
AcDbEntity
  8
2
370
   100
100
AcDbLine
 10
-307.179667
 20
-155.200696
 30
0.0
 11
-307.179667
 21
-152.564543
 31
0.0
  0
LINE
  5
38E
100
AcDbEntity
  8
2
370
   100
100
AcDbLine
 10
-306.946658
 20
-155.397953
 30
0.0
 11
-293.346658
 21
-153.122094
 31
0.0
  0
ARC
  5
38F
100
AcDbEntity
  8
2
370
   100
100
AcDbCircle
 10
-306.979667
 20
-155.200696
 30
0.0
 40
0.2
100
AcDbArc
 50
180.0
 51
279.5
  0
LINE
  5
390
100
AcDbEntity
  8
2
370
   100
100
AcDbLine
 10
-293.179667
 20
-152.924836
 30
0.0
 11
-293.179667
 21
-150.288683
 31
0.0
  0
ARC
  5
391
100
AcDbEntity
  8
2
370
   100
100
AcDbCircle
 10
-293.379667
 20
-152.924836
 30
0.0
 40
0.2
100
AcDbArc
 50
279.5
 51
360.0
  0
ARC
  5
392
100
AcDbEntity
  8
2
370
   100
100
AcDbCircle
 10
-293.379667
 20
-150.288683
 30
0.0
 40
0.2
100
AcDbArc
 50
0.0
 51
99.5
  0
LINE
  5
393
100
AcDbEntity
  8
2
370
   100
100
AcDbLine
 10
-293.412677
 20
-150.091046
 30
0.0
 11
-307.012679
 21
-152.367304
 31
0.0
  0
ARC
  5
394
100
AcDbEntity
  8
2
370
   100
100
AcDbCircle
 10
-306.979667
 20
-152.564543
 30
0.0
 40
0.2
100
AcDbArc
 50
99.5
 51
180.0
  0
ARC
  5
395
100
AcDbEntity
  8
2
370
   100
100
AcDbCircle
 10
-306.979667
 20
-148.508543
 30
0.0
 40
0.2
100
AcDbArc
 50
99.5
 51
180.0
  0
ARC
  5
396
100
AcDbEntity
  8
2
370
   100
100
AcDbCircle
 10
-306.979667
 20
-144.452543
 30
0.0
 40
0.2
100
AcDbArc
 50
99.5
 51
180.0
  0
ARC
  5
397
100
AcDbEntity
  8
2
370
   100
100
AcDbCircle
 10
-306.979667
 20
-140.396543
 30
0.0
 40
0.2
100
AcDbArc
 50
99.5
 51
180.0
  0
ARC
  5
398
100
AcDbEntity
  8
2
370
   100
100
AcDbCircle
 10
-306.979667
 20
-136.340543
 30
0.0
 40
0.2
100
AcDbArc
 50
99.5
 51
180.0
  0
LINE
  5
399
100
AcDbEntity
  8
2
370
   100
100
AcDbLine
 10
-306.379667
 20
-136.036976
 30
0.0
 11
-306.379667
 21
-135.023071
 31
0.0
  0
LINE
  5
39A
100
AcDbEntity
  8
2
370
   100
100
AcDbLine
 10
-293.979667
 20
-133.961945
 30
0.0
 11
-293.979667
 21
-132.948023
 31
0.0
  0
LINE
  5
39B
100
AcDbEntity
  8
2
370
   100
100
AcDbLine
 10
-307.179667
 20
-134.920696
 30
0.0
 11
-307.179667
 21
-132.644836
 31
0.0
  0
LINE
  5
39C
100
AcDbEntity
  8
2
370
   100
100
AcDbLine
 10
-306.946658
 20
-135.117953
 30
0.0
 11
-293.346658
 21
-132.842094
 31
0.0
  0
ARC
  5
39D
100
AcDbEntity
  8
2
370
   100
100
AcDbCircle
 10
-306.979667
 20
-134.920696
 30
0.0
 40
0.2
100
AcDbArc
 50
180.0
 51
279.5
  0
LINE
  5
39E
100
AcDbEntity
  8
2
370
   100
100
AcDbLine
 10
-307.179667
 20
-159.814861
 30
0.0
 11
-307.179667
 21
-156.620543
 31
0.0
  0
ARC
  5
39F
100
AcDbEntity
  8
2
370
   100
100
AcDbCircle
 10
-293.379667
 20
-154.344683
 30
0.0
 40
0.2
100
AcDbArc
 50
0.0
 51
99.5
  0
LINE
  5
3A0
100
AcDbEntity
  8
2
370
   100
100
AcDbLine
 10
-293.412677
 20
-154.147046
 30
0.0
 11
-307.012679
 21
-156.423304
 31
0.0
  0
ARC
  5
3A1
100
AcDbEntity
  8
2
370
   100
100
AcDbCircle
 10
-306.979667
 20
-156.620543
 30
0.0
 40
0.2
100
AcDbArc
 50
99.5
 51
180.0
  0
ARC
  5
3A2
100
AcDbEntity
  8
2
370
   100
100
AcDbCircle
 10
-293.379667
 20
-132.644836
 30
0.0
 40
0.2
100
AcDbArc
 50
279.5
 51
360.0
  0
LINE
  5
3A3
100
AcDbEntity
  8
2
370
   100
100
AcDbLine
 10
-313.127218
 20
-218.645033
 30
0.0
 11
-301.127218
 21
-218.645033
 31
0.0
  0
LINE
  5
3A4
100
AcDbEntity
  8
2
370
   100
100
AcDbLine
 10
-313.127218
 20
-224.545033
 30
0.0
 11
-301.127218
 21
-224.545033
 31
0.0
  0
LINE
  5
3A5
100
AcDbEntity
  8
2
370
   100
100
AcDbLine
 10
-313.127218
 20
-224.545033
 30
0.0
 11
-313.127218
 21
-218.645033
 31
0.0
  0
LINE
  5
3A6
100
AcDbEntity
  8
2
370
   100
100
AcDbLine
 10
-301.127218
 20
-224.545033
 30
0.0
 11
-301.127218
 21
-218.645033
 31
0.0
  0
LINE
  5
3A7
100
AcDbEntity
  8
2
370
   100
100
AcDbLine
 10
-310.691399
 20
-224.545033
 30
0.0
 11
-310.691399
 21
-218.645033
 31
0.0
  0
LINE
  5
3A8
100
AcDbEntity
  8
2
370
   100
100
AcDbLine
 10
-309.525133
 20
-224.545033
 30
0.0
 11
-309.525133
 21
-218.645033
 31
0.0
  0
LINE
  5
3A9
100
AcDbEntity
  8
2
370
   100
100
AcDbLine
 10
-304.729302
 20
-224.545033
 30
0.0
 11
-304.729302
 21
-218.645033
 31
0.0
  0
LINE
  5
3AA
100
AcDbEntity
  8
2
370
   100
100
AcDbLine
 10
-303.563036
 20
-224.545033
 30
0.0
 11
-303.563036
 21
-218.645033
 31
0.0
  0
LINE
  5
3AB
100
AcDbEntity
  8
2
370
   100
100
AcDbLine
 10
-301.327218
 20
-224.545033
 30
0.0
 11
-312.927218
 21
-224.545033
 31
0.0
  0
LINE
  5
3AC
100
AcDbEntity
  8
2
370
   100
100
AcDbLine
 10
-313.627218
 20
-241.545033
 30
0.0
 11
-300.627218
 21
-241.545033
 31
0.0
  0
LINE
  5
3AD
100
AcDbEntity
  8
2
370
   100
100
AcDbLine
 10
-313.627218
 20
-241.545033
 30
0.0
 11
-313.627218
 21
-229.045033
 31
0.0
  0
LINE
  5
3AE
100
AcDbEntity
  8
2
370
   100
100
AcDbLine
 10
-300.627218
 20
-241.545033
 30
0.0
 11
-300.627218
 21
-229.045033
 31
0.0
  0
LINE
  5
3AF
100
AcDbEntity
  8
2
370
   100
100
AcDbLine
 10
-311.001548
 20
-227.545033
 30
0.0
 11
-311.001548
 21
-225.045033
 31
0.0
  0
LINE
  5
3B0
100
AcDbEntity
  8
2
370
   100
100
AcDbLine
 10
-311.708655
 20
-227.545033
 30
0.0
 11
-311.708655
 21
-225.045033
 31
0.0
  0
LINE
  5
3B1
100
AcDbEntity
  8
2
370
   100
100
AcDbLine
 10
-313.106348
 20
-227.545033
 30
0.0
 11
-313.106348
 21
-225.045033
 31
0.0
  0
LINE
  5
3B2
100
AcDbEntity
  8
2
370
   100
100
AcDbLine
 10
-313.127218
 20
-227.545033
 30
0.0
 11
-313.127218
 21
-224.745033
 31
0.0
  0
LINE
  5
3B3
100
AcDbEntity
  8
2
370
   100
100
AcDbLine
 10
-307.627218
 20
-227.545033
 30
0.0
 11
-307.627218
 21
-225.045033
 31
0.0
  0
LINE
  5
3B4
100
AcDbEntity
  8
2
370
   100
100
AcDbLine
 10
-306.627218
 20
-227.545033
 30
0.0
 11
-306.627218
 21
-225.045033
 31
0.0
  0
LINE
  5
3B5
100
AcDbEntity
  8
2
370
   100
100
AcDbLine
 10
-303.252887
 20
-227.545033
 30
0.0
 11
-303.252887
 21
-225.045033
 31
0.0
  0
LINE
  5
3B6
100
AcDbEntity
  8
2
370
   100
100
AcDbLine
 10
-302.545781
 20
-227.545033
 30
0.0
 11
-302.545781
 21
-225.045033
 31
0.0
  0
LINE
  5
3B7
100
AcDbEntity
  8
2
370
   100
100
AcDbLine
 10
-301.127218
 20
-227.545033
 30
0.0
 11
-301.127218
 21
-224.745033
 31
0.0
  0
LINE
  5
3B8
100
AcDbEntity
  8
2
370
   100
100
AcDbLine
 10
-301.148087
 20
-227.545033
 30
0.0
 11
-301.148087
 21
-225.045033
 31
0.0
  0
LINE
  5
3B9
100
AcDbEntity
  8
2
370
   100
100
AcDbLine
 10
-311.708655
 20
-225.045033
 30
0.0
 11
-313.127218
 21
-225.045033
 31
0.0
  0
LINE
  5
3BA
100
AcDbEntity
  8
2
370
   100
100
AcDbLine
 10
-307.627218
 20
-225.045033
 30
0.0
 11
-311.001548
 21
-225.045033
 31
0.0
  0
LINE
  5
3BB
100
AcDbEntity
  8
2
370
   100
100
AcDbLine
 10
-301.127218
 20
-225.045033
 30
0.0
 11
-302.545781
 21
-225.045033
 31
0.0
  0
LINE
  5
3BC
100
AcDbEntity
  8
2
370
   100
100
AcDbLine
 10
-303.252887
 20
-225.045033
 30
0.0
 11
-306.627218
 21
-225.045033
 31
0.0
  0
LINE
  5
3BD
100
AcDbEntity
  8
2
370
   100
100
AcDbLine
 10
-311.708655
 20
-227.545033
 30
0.0
 11
-313.127218
 21
-227.545033
 31
0.0
  0
LINE
  5
3BE
100
AcDbEntity
  8
2
370
   100
100
AcDbLine
 10
-307.627218
 20
-227.545033
 30
0.0
 11
-311.001548
 21
-227.545033
 31
0.0
  0
LINE
  5
3BF
100
AcDbEntity
  8
2
370
   100
100
AcDbLine
 10
-301.127218
 20
-227.545033
 30
0.0
 11
-302.545781
 21
-227.545033
 31
0.0
  0
LINE
  5
3C0
100
AcDbEntity
  8
2
370
   100
100
AcDbLine
 10
-303.252887
 20
-227.545033
 30
0.0
 11
-306.627218
 21
-227.545033
 31
0.0
  0
ARC
  5
3C1
100
AcDbEntity
  8
2
370
   100
100
AcDbCircle
 10
-301.327218
 20
-224.745033
 30
0.0
 40
0.2
100
AcDbArc
 50
0.0
 51
90.0
  0
ARC
  5
3C2
100
AcDbEntity
  8
2
370
   100
100
AcDbCircle
 10
-312.927218
 20
-224.745033
 30
0.0
 40
0.2
100
AcDbArc
 50
90.0
 51
180.0
  0
ARC
  5
3C3
100
AcDbEntity
  8
2
370
   100
100
AcDbCircle
 10
-311.127218
 20
-229.045033
 30
0.0
 40
2.5
100
AcDbArc
 50
143.130102
 51
180.0
  0
ARC
  5
3C4
100
AcDbEntity
  8
2
370
   100
100
AcDbCircle
 10
-303.127218
 20
-229.045033
 30
0.0
 40
2.5
100
AcDbArc
 50
0.0
 51
36.869898
  0
LINE
  5
3C5
100
AcDbEntity
  8
2
370
   100
100
AcDbLine
 10
-313.607958
 20
-241.545033
 30
0.0
 11
-313.607958
 21
-229.045033
 31
0.0
  0
LINE
  5
3C6
100
AcDbEntity
  8
2
370
   100
100
AcDbLine
 10
-312.063347
 20
-241.545033
 30
0.0
 11
-312.063347
 21
-229.045033
 31
0.0
  0
LINE
  5
3C7
100
AcDbEntity
  8
2
370
   100
100
AcDbLine
 10
-311.35624
 20
-241.545033
 30
0.0
 11
-311.35624
 21
-229.045033
 31
0.0
  0
LINE
  5
3C8
100
AcDbEntity
  8
2
370
   100
100
AcDbLine
 10
-307.627218
 20
-241.545033
 30
0.0
 11
-307.627218
 21
-229.045033
 31
0.0
  0
LINE
  5
3C9
100
AcDbEntity
  8
2
370
   100
100
AcDbLine
 10
-306.627218
 20
-241.545033
 30
0.0
 11
-306.627218
 21
-229.045033
 31
0.0
  0
LINE
  5
3CA
100
AcDbEntity
  8
2
370
   100
100
AcDbLine
 10
-302.898195
 20
-241.545033
 30
0.0
 11
-302.898195
 21
-229.045033
 31
0.0
  0
LINE
  5
3CB
100
AcDbEntity
  8
2
370
   100
100
AcDbLine
 10
-302.191089
 20
-241.545033
 30
0.0
 11
-302.191089
 21
-229.045033
 31
0.0
  0
LINE
  5
3CC
100
AcDbEntity
  8
2
370
   100
100
AcDbLine
 10
-300.646477
 20
-241.545033
 30
0.0
 11
-300.646477
 21
-229.045033
 31
0.0
  0
LINE
  5
3CD
100
AcDbEntity
  8
2
370
   100
100
AcDbLine
 10
-303.061354
 20
-253.761391
 30
0.0
 11
-311.193082
 21
-245.629663
 31
0.0
  0
LINE
  5
3CE
100
AcDbEntity
  8
2
370
   100
100
AcDbLine
 10
-303.061354
 20
-245.629663
 30
0.0
 11
-311.193082
 21
-253.761391
 31
0.0
  0
LINE
  5
3CF
100
AcDbEntity
  8
2
370
   100
100
AcDbLine
 10
-303.83042
 20
-254.406538
 30
0.0
 11
-311.838229
 21
-246.398729
 31
0.0
  0
LINE
  5
3D0
100
AcDbEntity
  8
2
370
   100
100
AcDbLine
 10
-304.729444
 20
-254.921728
 30
0.0
 11
-312.353419
 21
-247.297753
 31
0.0
  0
LINE
  5
3D1
100
AcDbEntity
  8
2
370
   100
100
AcDbLine
 10
-305.779929
 20
-255.285456
 30
0.0
 11
-312.717147
 21
-248.348238
 31
0.0
  0
LINE
  5
3D2
100
AcDbEntity
  8
2
370
   100
100
AcDbLine
 10
-307.034814
 20
-255.444784
 30
0.0
 11
-312.876475
 21
-249.603124
 31
0.0
  0
LINE
  5
3D3
100
AcDbEntity
  8
2
370
   100
100
AcDbLine
 10
-308.654954
 20
-255.238858
 30
0.0
 11
-312.670549
 21
-251.223264
 31
0.0
  0
LINE
  5
3D4
100
AcDbEntity
  8
2
370
   100
100
AcDbLine
 10
-302.416207
 20
-252.992324
 30
0.0
 11
-310.424015
 21
-244.984516
 31
0.0
  0
LINE
  5
3D5
100
AcDbEntity
  8
2
370
   100
100
AcDbLine
 10
-301.901016
 20
-252.093301
 30
0.0
 11
-309.524992
 21
-244.469326
 31
0.0
  0
LINE
  5
3D6
100
AcDbEntity
  8
2
370
   100
100
AcDbLine
 10
-301.537288
 20
-251.042816
 30
0.0
 11
-308.474507
 21
-244.105597
 31
0.0
  0
LINE
  5
3D7
100
AcDbEntity
  8
2
370
   100
100
AcDbLine
 10
-301.37796
 20
-249.78793
 30
0.0
 11
-307.219621
 21
-243.946269
 31
0.0
  0
LINE
  5
3D8
100
AcDbEntity
  8
2
370
   100
100
AcDbLine
 10
-301.583886
 20
-248.16779
 30
0.0
 11
-305.599481
 21
-244.152196
 31
0.0
  0
LINE
  5
3D9
100
AcDbEntity
  8
2
370
   100
100
AcDbLine
 10
-303.83042
 20
-244.984516
 30
0.0
 11
-311.838229
 21
-252.992324
 31
0.0
  0
LINE
  5
3DA
100
AcDbEntity
  8
2
370
   100
100
AcDbLine
 10
-304.729444
 20
-244.469326
 30
0.0
 11
-312.353419
 21
-252.093301
 31
0.0
  0
LINE
  5
3DB
100
AcDbEntity
  8
2
370
   100
100
AcDbLine
 10
-305.779929
 20
-244.105597
 30
0.0
 11
-312.717147
 21
-251.042816
 31
0.0
  0
LINE
  5
3DC
100
AcDbEntity
  8
2
370
   100
100
AcDbLine
 10
-307.034814
 20
-243.946269
 30
0.0
 11
-312.876475
 21
-249.78793
 31
0.0
  0
LINE
  5
3DD
100
AcDbEntity
  8
2
370
   100
100
AcDbLine
 10
-308.654954
 20
-244.152196
 30
0.0
 11
-312.670549
 21
-248.16779
 31
0.0
  0
LINE
  5
3DE
100
AcDbEntity
  8
2
370
   100
100
AcDbLine
 10
-302.416207
 20
-246.398729
 30
0.0
 11
-310.424015
 21
-254.406538
 31
0.0
  0
LINE
  5
3DF
100
AcDbEntity
  8
2
370
   100
100
AcDbLine
 10
-301.901016
 20
-247.297753
 30
0.0
 11
-309.524992
 21
-254.921728
 31
0.0
  0
LINE
  5
3E0
100
AcDbEntity
  8
2
370
   100
100
AcDbLine
 10
-301.537288
 20
-248.348238
 30
0.0
 11
-308.474507
 21
-255.285456
 31
0.0
  0
LINE
  5
3E1
100
AcDbEntity
  8
2
370
   100
100
AcDbLine
 10
-301.37796
 20
-249.603124
 30
0.0
 11
-307.219621
 21
-255.444784
 31
0.0
  0
LINE
  5
3E2
100
AcDbEntity
  8
2
370
   100
100
AcDbLine
 10
-301.583886
 20
-251.223264
 30
0.0
 11
-305.599481
 21
-255.238858
 31
0.0
  0
LINE
  5
3E3
100
AcDbEntity
  8
2
370
   100
100
AcDbLine
 10
-301.377218
 20
-258.268139
 30
0.0
 11
-301.377218
 21
-241.545033
 31
0.0
  0
LINE
  5
3E4
100
AcDbEntity
  8
2
370
   100
100
AcDbLine
 10
-312.877218
 20
-241.545033
 30
0.0
 11
-312.877218
 21
-258.326855
 31
0.0
  0
ARC
  5
3E5
100
AcDbEntity
  8
2
370
   100
100
AcDbCircle
 10
-310.002218
 20
-254.434279
 30
0.0
 40
4.791667
100
AcDbArc
 50
233.130102
 51
306.869898
  0
ARC
  5
3E6
100
AcDbEntity
  8
2
370
   100
100
AcDbCircle
 10
-304.252218
 20
-262.100946
 30
0.0
 40
4.791667
100
AcDbArc
 50
53.130102
 51
126.869898
  0
ARC
  5
3E7
100
AcDbEntity
  8
2
370
   100
100
AcDbCircle
 10
-310.002218
 20
-262.100946
 30
0.0
 40
4.791667
100
AcDbArc
 50
53.130102
 51
126.869898
  0
ARC
  5
3E8
100
AcDbEntity
  8
2
370
   100
100
AcDbCircle
 10
-302.127218
 20
-263.948407
 30
0.0
 40
3.0
100
AcDbArc
 50
228.189685
 51
311.810315
  0
ARC
  5
3E9
100
AcDbEntity
  8
2
370
   100
100
AcDbCircle
 10
-302.127218
 20
-268.420543
 30
0.0
 40
3.0
100
AcDbArc
 50
48.189685
 51
131.810315
  0
ARC
  5
3EA
100
AcDbEntity
  8
2
370
   100
100
AcDbCircle
 10
-298.127218
 20
-268.420543
 30
0.0
 40
3.0
100
AcDbArc
 50
104.477512
 51
131.810315
  0
LINE
  5
3EB
100
AcDbEntity
  8
2
370
   100
100
AcDbLine
 10
-228.49348
 20
-243.053628
 30
0.0
 11
-241.49348
 21
-243.053628
 31
0.0
  0
LINE
  5
3EC
100
AcDbEntity
  8
2
370
   100
100
AcDbLine
 10
-230.412043
 20
-257.053628
 30
0.0
 11
-228.99348
 21
-257.053628
 31
0.0
  0
LINE
  5
3ED
100
AcDbEntity
  8
2
370
   100
100
AcDbLine
 10
-230.412043
 20
-259.553628
 30
0.0
 11
-228.99348
 21
-259.553628
 31
0.0
  0
ARC
  5
3EE
100
AcDbEntity
  8
2
370
   100
100
AcDbCircle
 10
-229.19348
 20
-259.853628
 30
0.0
 40
0.2
100
AcDbArc
 50
270.0
 51
360.0
  0
LINE
  5
3EF
100
AcDbEntity
  8
2
370
   100
100
AcDbLine
 10
-234.49348
 20
-259.553628
 30
0.0
 11
-231.11915
 21
-259.553628
 31
0.0
  0
LINE
  5
3F0
100
AcDbEntity
  8
2
370
   100
100
AcDbLine
 10
-234.49348
 20
-257.053628
 30
0.0
 11
-231.11915
 21
-257.053628
 31
0.0
  0
LINE
  5
3F1
100
AcDbEntity
  8
2
370
   100
100
AcDbLine
 10
-238.86781
 20
-259.553628
 30
0.0
 11
-235.49348
 21
-259.553628
 31
0.0
  0
LINE
  5
3F2
100
AcDbEntity
  8
2
370
   100
100
AcDbLine
 10
-238.86781
 20
-257.053628
 30
0.0
 11
-235.49348
 21
-257.053628
 31
0.0
  0
LINE
  5
3F3
100
AcDbEntity
  8
2
370
   100
100
AcDbLine
 10
-240.99348
 20
-259.553628
 30
0.0
 11
-239.574917
 21
-259.553628
 31
0.0
  0
LINE
  5
3F4
100
AcDbEntity
  8
2
370
   100
100
AcDbLine
 10
-240.99348
 20
-257.053628
 30
0.0
 11
-239.574917
 21
-257.053628
 31
0.0
  0
ARC
  5
3F5
100
AcDbEntity
  8
2
370
   100
100
AcDbCircle
 10
-240.79348
 20
-259.853628
 30
0.0
 40
0.2
100
AcDbArc
 50
180.0
 51
270.0
  0
LINE
  5
3F6
100
AcDbEntity
  8
2
370
   100
100
AcDbLine
 10
-240.99348
 20
-257.053628
 30
0.0
 11
-240.99348
 21
-259.853628
 31
0.0
  0
LINE
  5
3F7
100
AcDbEntity
  8
2
370
   100
100
AcDbLine
 10
-240.97261
 20
-257.053628
 30
0.0
 11
-240.97261
 21
-259.553628
 31
0.0
  0
ARC
  5
3F8
100
AcDbEntity
  8
2
370
   100
100
AcDbCircle
 10
-238.99348
 20
-255.553628
 30
0.0
 40
2.5
100
AcDbArc
 50
180.0
 51
216.869898
  0
LINE
  5
3F9
100
AcDbEntity
  8
2
370
   100
100
AcDbLine
 10
-239.574917
 20
-257.053628
 30
0.0
 11
-239.574917
 21
-259.553628
 31
0.0
  0
LINE
  5
3FA
100
AcDbEntity
  8
2
370
   100
100
AcDbLine
 10
-238.86781
 20
-257.053628
 30
0.0
 11
-238.86781
 21
-259.553628
 31
0.0
  0
LINE
  5
3FB
100
AcDbEntity
  8
2
370
   100
100
AcDbLine
 10
-235.49348
 20
-257.053628
 30
0.0
 11
-235.49348
 21
-259.553628
 31
0.0
  0
LINE
  5
3FC
100
AcDbEntity
  8
2
370
   100
100
AcDbLine
 10
-234.49348
 20
-257.053628
 30
0.0
 11
-234.49348
 21
-259.553628
 31
0.0
  0
LINE
  5
3FD
100
AcDbEntity
  8
2
370
   100
100
AcDbLine
 10
-230.412043
 20
-257.053628
 30
0.0
 11
-230.412043
 21
-259.553628
 31
0.0
  0
LINE
  5
3FE
100
AcDbEntity
  8
2
370
   100
100
AcDbLine
 10
-231.11915
 20
-257.053628
 30
0.0
 11
-231.11915
 21
-259.553628
 31
0.0
  0
LINE
  5
3FF
100
AcDbEntity
  8
2
370
   100
100
AcDbLine
 10
-228.99348
 20
-257.053628
 30
0.0
 11
-228.99348
 21
-259.853628
 31
0.0
  0
LINE
  5
400
100
AcDbEntity
  8
2
370
   100
100
AcDbLine
 10
-229.01435
 20
-257.053628
 30
0.0
 11
-229.01435
 21
-259.553628
 31
0.0
  0
ARC
  5
401
100
AcDbEntity
  8
2
370
   100
100
AcDbCircle
 10
-230.99348
 20
-255.553628
 30
0.0
 40
2.5
100
AcDbArc
 50
323.130102
 51
360.0
  0
LINE
  5
402
100
AcDbEntity
  8
2
370
   100
100
AcDbLine
 10
-228.49348
 20
-243.053628
 30
0.0
 11
-228.49348
 21
-255.553628
 31
0.0
  0
LINE
  5
403
100
AcDbEntity
  8
2
370
   100
100
AcDbLine
 10
-228.512739
 20
-243.053628
 30
0.0
 11
-228.512739
 21
-255.553628
 31
0.0
  0
LINE
  5
404
100
AcDbEntity
  8
2
370
   100
100
AcDbLine
 10
-241.474221
 20
-243.053628
 30
0.0
 11
-241.474221
 21
-255.553628
 31
0.0
  0
LINE
  5
405
100
AcDbEntity
  8
2
370
   100
100
AcDbLine
 10
-241.49348
 20
-243.053628
 30
0.0
 11
-241.49348
 21
-255.553628
 31
0.0
  0
LINE
  5
406
100
AcDbEntity
  8
2
370
   100
100
AcDbLine
 10
-241.99348
 20
-260.053628
 30
0.0
 11
-227.99348
 21
-260.053628
 31
0.0
  0
LINE
  5
407
100
AcDbEntity
  8
2
370
   100
100
AcDbLine
 10
-239.059344
 20
-233.170009
 30
0.0
 11
-230.927616
 21
-225.038281
 31
0.0
  0
LINE
  5
408
100
AcDbEntity
  8
2
370
   100
100
AcDbLine
 10
-239.059344
 20
-225.038281
 30
0.0
 11
-230.927616
 21
-233.170009
 31
0.0
  0
LINE
  5
409
100
AcDbEntity
  8
2
370
   100
100
AcDbLine
 10
-238.290278
 20
-233.815156
 30
0.0
 11
-230.282469
 21
-225.807348
 31
0.0
  0
LINE
  5
40A
100
AcDbEntity
  8
2
370
   100
100
AcDbLine
 10
-237.391254
 20
-234.330347
 30
0.0
 11
-229.767279
 21
-226.706371
 31
0.0
  0
LINE
  5
40B
100
AcDbEntity
  8
2
370
   100
100
AcDbLine
 10
-236.340769
 20
-234.694075
 30
0.0
 11
-229.40355
 21
-227.756856
 31
0.0
  0
LINE
  5
40C
100
AcDbEntity
  8
2
370
   100
100
AcDbLine
 10
-235.085883
 20
-234.853403
 30
0.0
 11
-229.244223
 21
-229.011742
 31
0.0
  0
LINE
  5
40D
100
AcDbEntity
  8
2
370
   100
100
AcDbLine
 10
-233.465743
 20
-234.647477
 30
0.0
 11
-229.450149
 21
-230.631882
 31
0.0
  0
LINE
  5
40E
100
AcDbEntity
  8
2
370
   100
100
AcDbLine
 10
-239.704491
 20
-232.400943
 30
0.0
 11
-231.696682
 21
-224.393134
 31
0.0
  0
LINE
  5
40F
100
AcDbEntity
  8
2
370
   100
100
AcDbLine
 10
-240.219681
 20
-231.501919
 30
0.0
 11
-232.595706
 21
-223.877944
 31
0.0
  0
LINE
  5
410
100
AcDbEntity
  8
2
370
   100
100
AcDbLine
 10
-240.58341
 20
-230.451434
 30
0.0
 11
-233.646191
 21
-223.514216
 31
0.0
  0
LINE
  5
411
100
AcDbEntity
  8
2
370
   100
100
AcDbLine
 10
-240.742738
 20
-229.196549
 30
0.0
 11
-234.901077
 21
-223.354888
 31
0.0
  0
LINE
  5
412
100
AcDbEntity
  8
2
370
   100
100
AcDbLine
 10
-240.536811
 20
-227.576409
 30
0.0
 11
-236.521217
 21
-223.560814
 31
0.0
  0
LINE
  5
413
100
AcDbEntity
  8
2
370
   100
100
AcDbLine
 10
-238.290278
 20
-224.393134
 30
0.0
 11
-230.282469
 21
-232.400943
 31
0.0
  0
LINE
  5
414
100
AcDbEntity
  8
2
370
   100
100
AcDbLine
 10
-237.391254
 20
-223.877944
 30
0.0
 11
-229.767279
 21
-231.501919
 31
0.0
  0
LINE
  5
415
100
AcDbEntity
  8
2
370
   100
100
AcDbLine
 10
-236.340769
 20
-223.514216
 30
0.0
 11
-229.40355
 21
-230.451434
 31
0.0
  0
LINE
  5
416
100
AcDbEntity
  8
2
370
   100
100
AcDbLine
 10
-235.085883
 20
-223.354888
 30
0.0
 11
-229.244223
 21
-229.196549
 31
0.0
  0
LINE
  5
417
100
AcDbEntity
  8
2
370
   100
100
AcDbLine
 10
-233.465743
 20
-223.560814
 30
0.0
 11
-229.450149
 21
-227.576409
 31
0.0
  0
LINE
  5
418
100
AcDbEntity
  8
2
370
   100
100
AcDbLine
 10
-239.704491
 20
-225.807348
 30
0.0
 11
-231.696682
 21
-233.815156
 31
0.0
  0
LINE
  5
419
100
AcDbEntity
  8
2
370
   100
100
AcDbLine
 10
-240.219681
 20
-226.706371
 30
0.0
 11
-232.595706
 21
-234.330347
 31
0.0
  0
LINE
  5
41A
100
AcDbEntity
  8
2
370
   100
100
AcDbLine
 10
-240.58341
 20
-227.756856
 30
0.0
 11
-233.646191
 21
-234.694075
 31
0.0
  0
LINE
  5
41B
100
AcDbEntity
  8
2
370
   100
100
AcDbLine
 10
-240.742738
 20
-229.011742
 30
0.0
 11
-234.901077
 21
-234.853403
 31
0.0
  0
LINE
  5
41C
100
AcDbEntity
  8
2
370
   100
100
AcDbLine
 10
-240.536811
 20
-230.631882
 30
0.0
 11
-236.521217
 21
-234.647477
 31
0.0
  0
LINE
  5
41D
100
AcDbEntity
  8
2
370
   100
100
AcDbLine
 10
-240.74348
 20
-243.053628
 30
0.0
 11
-240.74348
 21
-209.767021
 31
0.0
  0
LINE
  5
41E
100
AcDbEntity
  8
2
370
   100
100
AcDbLine
 10
-229.24348
 20
-209.767021
 30
0.0
 11
-229.24348
 21
-243.053628
 31
0.0
  0
ARC
  5
41F
100
AcDbEntity
  8
2
370
   100
100
AcDbCircle
 10
-237.868521
 20
-205.933478
 30
0.0
 40
4.791667
100
AcDbArc
 50
233.130102
 51
306.869898
  0
ARC
  5
420
100
AcDbEntity
  8
2
370
   100
100
AcDbCircle
 10
-232.118521
 20
-213.600144
 30
0.0
 40
4.791667
100
AcDbArc
 50
53.130102
 51
126.869898
  0
ARC
  5
421
100
AcDbEntity
  8
2
370
   100
100
AcDbCircle
 10
-232.118521
 20
-205.933478
 30
0.0
 40
4.791667
100
AcDbArc
 50
233.130102
 51
306.869898
  0
ARC
  5
422
100
AcDbEntity
  8
2
370
   100
100
AcDbCircle
 10
-240.794073
 20
-259.852946
 30
0.0
 40
0.2
100
AcDbArc
 50
180.0
 51
270.0
  0
ARC
  5
423
100
AcDbEntity
  8
2
370
   100
100
AcDbCircle
 10
-229.194073
 20
-259.852946
 30
0.0
 40
0.2
100
AcDbArc
 50
270.0
 51
360.0
  0
LINE
  5
424
100
AcDbEntity
  8
2
370
   100
100
AcDbLine
 10
-227.994073
 20
-260.052946
 30
0.0
 11
-241.994073
 21
-260.052946
 31
0.0
  0
LINE
  5
425
100
AcDbEntity
  8
2
370
   100
100
AcDbLine
 10
-227.494073
 20
-260.552946
 30
0.0
 11
-227.994073
 21
-260.052946
 31
0.0
  0
LINE
  5
426
100
AcDbEntity
  8
2
370
   100
100
AcDbLine
 10
-228.494213
 20
-273.852324
 30
0.0
 11
-228.494213
 21
-270.852324
 31
0.0
  0
LINE
  5
427
100
AcDbEntity
  8
2
370
   100
100
AcDbLine
 10
-226.094073
 20
-265.453581
 30
0.0
 11
-226.094073
 21
-267.853581
 31
0.0
  0
LINE
  5
428
100
AcDbEntity
  8
2
370
   100
100
AcDbLine
 10
-226.294073
 20
-265.253581
 30
0.0
 11
-226.094073
 21
-265.453581
 31
0.0
  0
LINE
  5
429
100
AcDbEntity
  8
2
370
   100
100
AcDbLine
 10
-226.294073
 20
-268.053581
 30
0.0
 11
-226.094073
 21
-267.853581
 31
0.0
  0
LINE
  5
42A
100
AcDbEntity
  8
2
370
   100
100
AcDbLine
 10
-227.494073
 20
-265.253581
 30
0.0
 11
-227.494073
 21
-264.852324
 31
0.0
  0
LINE
  5
42B
100
AcDbEntity
  8
2
370
   100
100
AcDbLine
 10
-227.494073
 20
-260.552946
 30
0.0
 11
-227.494073
 21
-261.852324
 31
0.0
  0
LINE
  5
42C
100
AcDbEntity
  8
2
370
   100
100
AcDbLine
 10
-243.894073
 20
-265.452946
 30
0.0
 11
-243.894073
 21
-267.852946
 31
0.0
  0
LINE
  5
42D
100
AcDbEntity
  8
2
370
   100
100
AcDbLine
 10
-226.094073
 20
-265.452946
 30
0.0
 11
-226.094073
 21
-267.852946
 31
0.0
  0
LINE
  5
42E
100
AcDbEntity
  8
2
370
   100
100
AcDbLine
 10
-226.294073
 20
-265.252946
 30
0.0
 11
-226.094073
 21
-265.452946
 31
0.0
  0
LINE
  5
42F
100
AcDbEntity
  8
2
370
   100
100
AcDbLine
 10
-243.694073
 20
-265.252946
 30
0.0
 11
-243.894073
 21
-265.452946
 31
0.0
  0
LINE
  5
430
100
AcDbEntity
  8
2
370
   100
100
AcDbLine
 10
-243.694073
 20
-268.052946
 30
0.0
 11
-243.894073
 21
-267.852946
 31
0.0
  0
LINE
  5
431
100
AcDbEntity
  8
2
370
   100
100
AcDbLine
 10
-243.994073
 20
-273.852946
 30
0.0
 11
-225.994073
 21
-273.852946
 31
0.0
  0
LINE
  5
432
100
AcDbEntity
  8
2
370
   100
100
AcDbLine
 10
-243.294073
 20
-261.852946
 30
0.0
 11
-226.694073
 21
-261.852946
 31
0.0
  0
LINE
  5
433
100
AcDbEntity
  8
2
370
   100
100
AcDbLine
 10
-230.994073
 20
-262.852946
 30
0.0
 11
-230.994073
 21
-272.852946
 31
0.0
  0
LINE
  5
434
100
AcDbEntity
  8
2
370
   100
100
AcDbLine
 10
-238.994073
 20
-262.852946
 30
0.0
 11
-238.994073
 21
-272.852946
 31
0.0
  0
LINE
  5
435
100
AcDbEntity
  8
2
370
   100
100
AcDbLine
 10
-220.494073
 20
-260.852946
 30
0.0
 11
-220.494073
 21
-272.852946
 31
0.0
  0
LINE
  5
436
100
AcDbEntity
  8
2
370
   100
100
AcDbLine
 10
-249.494073
 20
-260.852946
 30
0.0
 11
-249.494073
 21
-272.852946
 31
0.0
  0
ARC
  5
437
100
AcDbEntity
  8
2
370
   100
100
AcDbCircle
 10
-248.494073
 20
-260.852946
 30
0.0
 40
1.0
100
AcDbArc
 50
90.0
 51
180.0
  0
ARC
  5
438
100
AcDbEntity
  8
2
370
   100
100
AcDbCircle
 10
-221.494073
 20
-260.852946
 30
0.0
 40
1.0
100
AcDbArc
 50
0.0
 51
90.0
  0
ARC
  5
439
100
AcDbEntity
  8
2
370
   100
100
AcDbCircle
 10
-221.494073
 20
-272.852946
 30
0.0
 40
1.0
100
AcDbArc
 50
270.0
 51
360.0
  0
ARC
  5
43A
100
AcDbEntity
  8
2
370
   100
100
AcDbCircle
 10
-248.494073
 20
-272.852946
 30
0.0
 40
1.0
100
AcDbArc
 50
180.0
 51
270.0
  0
LINE
  5
43B
100
AcDbEntity
  8
2
370
   100
100
AcDbLine
 10
-221.494073
 20
-259.852946
 30
0.0
 11
-228.994073
 21
-259.852946
 31
0.0
  0
LINE
  5
43C
100
AcDbEntity
  8
2
370
   100
100
AcDbLine
 10
-240.994073
 20
-259.852946
 30
0.0
 11
-248.494073
 21
-259.852946
 31
0.0
  0
LINE
  5
43D
100
AcDbEntity
  8
2
370
   100
100
AcDbLine
 10
-221.494073
 20
-273.852946
 30
0.0
 11
-227.494073
 21
-273.852946
 31
0.0
  0
LINE
  5
43E
100
AcDbEntity
  8
2
370
   100
100
AcDbLine
 10
-243.294073
 20
-273.852946
 30
0.0
 11
-248.494073
 21
-273.852946
 31
0.0
  0
LINE
  5
43F
100
AcDbEntity
  8
2
370
   100
100
AcDbLine
 10
-243.294073
 20
-264.852946
 30
0.0
 11
-238.994073
 21
-264.852946
 31
0.0
  0
LINE
  5
440
100
AcDbEntity
  8
2
370
   100
100
AcDbLine
 10
-230.994073
 20
-264.852946
 30
0.0
 11
-226.694073
 21
-264.852946
 31
0.0
  0
LINE
  5
441
100
AcDbEntity
  8
2
370
   100
100
AcDbLine
 10
-243.694073
 20
-265.252946
 30
0.0
 11
-238.994073
 21
-265.252946
 31
0.0
  0
LINE
  5
442
100
AcDbEntity
  8
2
370
   100
100
AcDbLine
 10
-230.994073
 20
-265.252946
 30
0.0
 11
-226.294073
 21
-265.252946
 31
0.0
  0
LINE
  5
443
100
AcDbEntity
  8
2
370
   100
100
AcDbLine
 10
-243.894073
 20
-265.452946
 30
0.0
 11
-238.994073
 21
-265.452946
 31
0.0
  0
LINE
  5
444
100
AcDbEntity
  8
2
370
   100
100
AcDbLine
 10
-230.994073
 20
-265.452946
 30
0.0
 11
-226.094073
 21
-265.452946
 31
0.0
  0
LINE
  5
445
100
AcDbEntity
  8
2
370
   100
100
AcDbLine
 10
-243.894073
 20
-267.852946
 30
0.0
 11
-238.994073
 21
-267.852946
 31
0.0
  0
LINE
  5
446
100
AcDbEntity
  8
2
370
   100
100
AcDbLine
 10
-230.994073
 20
-267.852946
 30
0.0
 11
-226.094073
 21
-267.852946
 31
0.0
  0
LINE
  5
447
100
AcDbEntity
  8
2
370
   100
100
AcDbLine
 10
-243.294073
 20
-270.852946
 30
0.0
 11
-238.994073
 21
-270.852946
 31
0.0
  0
LINE
  5
448
100
AcDbEntity
  8
2
370
   100
100
AcDbLine
 10
-230.994073
 20
-270.852946
 30
0.0
 11
-226.694073
 21
-270.852946
 31
0.0
  0
ARC
  5
449
100
AcDbEntity
  8
2
370
   100
100
AcDbCircle
 10
-237.994073
 20
-262.852946
 30
0.0
 40
1.0
100
AcDbArc
 50
90.0
 51
180.0
  0
ARC
  5
44A
100
AcDbEntity
  8
2
370
   100
100
AcDbCircle
 10
-231.994073
 20
-262.852946
 30
0.0
 40
1.0
100
AcDbArc
 50
0.0
 51
90.0
  0
ARC
  5
44B
100
AcDbEntity
  8
2
370
   100
100
AcDbCircle
 10
-231.994073
 20
-272.852946
 30
0.0
 40
1.0
100
AcDbArc
 50
270.0
 51
360.0
  0
ARC
  5
44C
100
AcDbEntity
  8
2
370
   100
100
AcDbCircle
 10
-237.994073
 20
-272.852946
 30
0.0
 40
1.0
100
AcDbArc
 50
180.0
 51
270.0
  0
LINE
  5
44D
100
AcDbEntity
  8
2
370
   100
100
AcDbLine
 10
-226.694073
 20
-261.852946
 30
0.0
 11
-226.694073
 21
-264.852946
 31
0.0
  0
LINE
  5
44E
100
AcDbEntity
  8
2
370
   100
100
AcDbLine
 10
-243.294073
 20
-261.852946
 30
0.0
 11
-243.294073
 21
-264.852946
 31
0.0
  0
LINE
  5
44F
100
AcDbEntity
  8
2
370
   100
100
AcDbLine
 10
-243.294073
 20
-270.852946
 30
0.0
 11
-243.294073
 21
-273.852946
 31
0.0
  0
LINE
  5
450
100
AcDbEntity
  8
2
370
   100
100
AcDbLine
 10
-226.694073
 20
-270.852946
 30
0.0
 11
-226.694073
 21
-273.852946
 31
0.0
  0
LINE
  5
451
100
AcDbEntity
  8
2
370
   100
100
AcDbLine
 10
-227.494073
 20
-265.252946
 30
0.0
 11
-227.494073
 21
-264.852946
 31
0.0
  0
LINE
  5
452
100
AcDbEntity
  8
2
370
   100
100
AcDbLine
 10
-242.494073
 20
-265.252946
 30
0.0
 11
-242.494073
 21
-264.852946
 31
0.0
  0
LINE
  5
453
100
AcDbEntity
  8
2
370
   100
100
AcDbLine
 10
-229.994073
 20
-273.553529
 30
0.0
 11
-229.994073
 21
-271.248307
 31
0.0
  0
LINE
  5
454
100
AcDbEntity
  8
2
370
   100
100
AcDbLine
 10
-229.994073
 20
-264.59176
 30
0.0
 11
-229.994073
 21
-262.159554
 31
0.0
  0
LINE
  5
455
100
AcDbEntity
  8
2
370
   100
100
AcDbLine
 10
-239.994073
 20
-273.553529
 30
0.0
 11
-239.994073
 21
-271.248307
 31
0.0
  0
LINE
  5
456
100
AcDbEntity
  8
2
370
   100
100
AcDbLine
 10
-239.994073
 20
-264.549081
 30
0.0
 11
-239.994073
 21
-262.080033
 31
0.0
  0
LINE
  5
457
100
AcDbEntity
  8
2
370
   100
100
AcDbLine
 10
-226.194073
 20
-272.852946
 30
0.0
 11
-226.194073
 21
-270.252946
 31
0.0
  0
LINE
  5
458
100
AcDbEntity
  8
2
370
   100
100
AcDbLine
 10
-226.194073
 20
-265.352946
 30
0.0
 11
-226.194073
 21
-260.852946
 31
0.0
  0
LINE
  5
459
100
AcDbEntity
  8
2
370
   100
100
AcDbLine
 10
-243.794073
 20
-272.852946
 30
0.0
 11
-243.794073
 21
-270.252946
 31
0.0
  0
LINE
  5
45A
100
AcDbEntity
  8
2
370
   100
100
AcDbLine
 10
-243.794073
 20
-265.352946
 30
0.0
 11
-243.794073
 21
-260.852946
 31
0.0
  0
ARC
  5
45B
100
AcDbEntity
  8
2
370
   100
100
AcDbCircle
 10
-227.194073
 20
-260.852946
 30
0.0
 40
1.0
100
AcDbArc
 50
0.0
 51
90.0
  0
ARC
  5
45C
100
AcDbEntity
  8
2
370
   100
100
AcDbCircle
 10
-242.794073
 20
-260.852946
 30
0.0
 40
1.0
100
AcDbArc
 50
90.0
 51
180.0
  0
ARC
  5
45D
100
AcDbEntity
  8
2
370
   100
100
AcDbCircle
 10
-225.194073
 20
-272.852946
 30
0.0
 40
1.0
100
AcDbArc
 50
180.0
 51
270.0
  0
ARC
  5
45E
100
AcDbEntity
  8
2
370
   100
100
AcDbCircle
 10
-244.794073
 20
-272.852946
 30
0.0
 40
1.0
100
AcDbArc
 50
270.0
 51
360.0
  0
LINE
  5
45F
100
AcDbEntity
  8
2
370
   100
100
AcDbLine
 10
-242.494073
 20
-260.552946
 30
0.0
 11
-242.494073
 21
-261.852324
 31
0.0
  0
ARC
  5
460
100
AcDbEntity
  8
2
370
   100
100
AcDbCircle
 10
-242.794073
 20
-260.852946
 30
0.0
 40
1.0
100
AcDbArc
 50
90.0
 51
180.0
  0
LINE
  5
461
100
AcDbEntity
  8
2
370
   100
100
AcDbLine
 10
-242.494073
 20
-260.552946
 30
0.0
 11
-241.994073
 21
-260.052946
 31
0.0
  0
LINE
  5
462
100
AcDbEntity
  8
2
370
   100
100
AcDbLine
 10
-243.994073
 20
-268.252946
 30
0.0
 11
-243.994073
 21
-270.052946
 31
0.0
  0
LINE
  5
463
100
AcDbEntity
  8
2
370
   100
100
AcDbLine
 10
-225.994073
 20
-268.252946
 30
0.0
 11
-225.994073
 21
-270.052946
 31
0.0
  0
LINE
  5
464
100
AcDbEntity
  8
2
370
   100
100
AcDbLine
 10
-225.994073
 20
-274.252946
 30
0.0
 11
-224.994073
 21
-275.252946
 31
0.0
  0
LINE
  5
465
100
AcDbEntity
  8
2
370
   100
100
AcDbLine
 10
-243.994073
 20
-274.252946
 30
0.0
 11
-244.994073
 21
-275.252946
 31
0.0
  0
LINE
  5
466
100
AcDbEntity
  8
2
370
   100
100
AcDbLine
 10
-243.994073
 20
-274.252946
 30
0.0
 11
-225.994073
 21
-274.252946
 31
0.0
  0
LINE
  5
467
100
AcDbEntity
  8
2
370
   100
100
AcDbLine
 10
-243.794073
 20
-268.052946
 30
0.0
 11
-243.994073
 21
-268.252946
 31
0.0
  0
LINE
  5
468
100
AcDbEntity
  8
2
370
   100
100
AcDbLine
 10
-243.994073
 20
-270.052946
 30
0.0
 11
-243.794073
 21
-270.252946
 31
0.0
  0
LINE
  5
469
100
AcDbEntity
  8
2
370
   100
100
AcDbLine
 10
-226.194073
 20
-268.052946
 30
0.0
 11
-225.994073
 21
-268.252946
 31
0.0
  0
LINE
  5
46A
100
AcDbEntity
  8
2
370
   100
100
AcDbLine
 10
-225.994073
 20
-270.052946
 30
0.0
 11
-226.194073
 21
-270.252946
 31
0.0
  0
LINE
  5
46B
100
AcDbEntity
  8
2
370
   100
100
AcDbLine
 10
-224.994073
 20
-275.252946
 30
0.0
 11
-244.994073
 21
-275.252946
 31
0.0
  0
LINE
  5
46C
100
AcDbEntity
  8
2
370
   100
100
AcDbLine
 10
-227.494073
 20
-274.252946
 30
0.0
 11
-227.494073
 21
-273.852946
 31
0.0
  0
LINE
  5
46D
100
AcDbEntity
  8
2
370
   100
100
AcDbLine
 10
-227.494073
 20
-270.852946
 30
0.0
 11
-227.494073
 21
-270.252946
 31
0.0
  0
LINE
  5
46E
100
AcDbEntity
  8
2
370
   100
100
AcDbLine
 10
-242.494073
 20
-274.252946
 30
0.0
 11
-242.494073
 21
-273.852946
 31
0.0
  0
LINE
  5
46F
100
AcDbEntity
  8
2
370
   100
100
AcDbLine
 10
-242.494073
 20
-270.852946
 30
0.0
 11
-242.494073
 21
-270.252946
 31
0.0
  0
LINE
  5
470
100
AcDbEntity
  8
2
370
   100
100
AcDbLine
 10
-243.794073
 20
-270.252946
 30
0.0
 11
-238.994073
 21
-270.252946
 31
0.0
  0
LINE
  5
471
100
AcDbEntity
  8
2
370
   100
100
AcDbLine
 10
-230.994073
 20
-270.252946
 30
0.0
 11
-226.194073
 21
-270.252946
 31
0.0
  0
LINE
  5
472
100
AcDbEntity
  8
2
370
   100
100
AcDbLine
 10
-243.994073
 20
-270.052946
 30
0.0
 11
-238.994073
 21
-270.052946
 31
0.0
  0
LINE
  5
473
100
AcDbEntity
  8
2
370
   100
100
AcDbLine
 10
-230.994073
 20
-270.052946
 30
0.0
 11
-225.994073
 21
-270.052946
 31
0.0
  0
LINE
  5
474
100
AcDbEntity
  8
2
370
   100
100
AcDbLine
 10
-243.994073
 20
-268.252946
 30
0.0
 11
-238.994073
 21
-268.252946
 31
0.0
  0
LINE
  5
475
100
AcDbEntity
  8
2
370
   100
100
AcDbLine
 10
-230.994073
 20
-268.252946
 30
0.0
 11
-225.994073
 21
-268.252946
 31
0.0
  0
LINE
  5
476
100
AcDbEntity
  8
2
370
   100
100
AcDbLine
 10
-243.794073
 20
-268.052946
 30
0.0
 11
-238.994073
 21
-268.052946
 31
0.0
  0
LINE
  5
477
100
AcDbEntity
  8
2
370
   100
100
AcDbLine
 10
-230.994073
 20
-268.052946
 30
0.0
 11
-226.194073
 21
-268.052946
 31
0.0
  0
LINE
  5
478
100
AcDbEntity
  8
2
370
   100
100
AcDbLine
 10
-241.493934
 20
-273.852324
 30
0.0
 11
-241.493934
 21
-270.852324
 31
0.0
  0
LINE
  5
479
100
AcDbEntity
  8
2
370
   100
100
AcDbLine
 10
-228.494213
 20
-264.852946
 30
0.0
 11
-228.494213
 21
-261.852946
 31
0.0
  0
LINE
  5
47A
100
AcDbEntity
  8
2
370
   100
100
AcDbLine
 10
-241.493934
 20
-264.852946
 30
0.0
 11
-241.493934
 21
-261.852946
 31
0.0
  0
LINE
  5
47B
100
AcDbEntity
  8
2
370
   100
100
AcDbLine
 10
-230.764458
 20
-255.553628
 30
0.0
 11
-230.764458
 21
-254.303628
 31
0.0
  0
LINE
  5
47C
100
AcDbEntity
  8
2
370
   100
100
AcDbLine
 10
-230.764458
 20
-244.303628
 30
0.0
 11
-230.764458
 21
-243.053628
 31
0.0
  0
LINE
  5
47D
100
AcDbEntity
  8
2
370
   100
100
AcDbLine
 10
-230.057351
 20
-255.553628
 30
0.0
 11
-230.057351
 21
-254.303628
 31
0.0
  0
LINE
  5
47E
100
AcDbEntity
  8
2
370
   100
100
AcDbLine
 10
-230.057351
 20
-244.303628
 30
0.0
 11
-230.057351
 21
-243.053628
 31
0.0
  0
LINE
  5
47F
100
AcDbEntity
  8
2
370
   100
100
AcDbLine
 10
-234.49348
 20
-255.553628
 30
0.0
 11
-234.49348
 21
-254.303628
 31
0.0
  0
LINE
  5
480
100
AcDbEntity
  8
2
370
   100
100
AcDbLine
 10
-234.49348
 20
-244.303628
 30
0.0
 11
-234.49348
 21
-243.053628
 31
0.0
  0
LINE
  5
481
100
AcDbEntity
  8
2
370
   100
100
AcDbLine
 10
-235.49348
 20
-255.553628
 30
0.0
 11
-235.49348
 21
-254.303628
 31
0.0
  0
LINE
  5
482
100
AcDbEntity
  8
2
370
   100
100
AcDbLine
 10
-235.49348
 20
-244.303628
 30
0.0
 11
-235.49348
 21
-243.053628
 31
0.0
  0
LINE
  5
483
100
AcDbEntity
  8
2
370
   100
100
AcDbLine
 10
-239.222502
 20
-255.553628
 30
0.0
 11
-239.222502
 21
-254.303628
 31
0.0
  0
LINE
  5
484
100
AcDbEntity
  8
2
370
   100
100
AcDbLine
 10
-239.222502
 20
-244.303628
 30
0.0
 11
-239.222502
 21
-243.053628
 31
0.0
  0
LINE
  5
485
100
AcDbEntity
  8
2
370
   100
100
AcDbLine
 10
-239.929609
 20
-255.553628
 30
0.0
 11
-239.929609
 21
-254.303628
 31
0.0
  0
LINE
  5
486
100
AcDbEntity
  8
2
370
   100
100
AcDbLine
 10
-239.929609
 20
-244.303628
 30
0.0
 11
-239.929609
 21
-243.053628
 31
0.0
  0
LINE
  5
487
100
AcDbEntity
  8
2
370
   100
100
AcDbLine
 10
-244.994073
 20
-275.252946
 30
0.0
 11
-244.994073
 21
-284.052946
 31
0.0
  0
LINE
  5
488
100
AcDbEntity
  8
2
370
   100
100
AcDbLine
 10
-224.994073
 20
-275.252946
 30
0.0
 11
-224.994073
 21
-284.052946
 31
0.0
  0
LINE
  5
489
100
AcDbEntity
  8
2
370
   100
100
AcDbLine
 10
-246.994073
 20
-284.052946
 30
0.0
 11
-222.994073
 21
-284.052946
 31
0.0
  0
LINE
  5
48A
100
AcDbEntity
  8
2
370
   100
100
AcDbLine
 10
-247.994073
 20
-285.052946
 30
0.0
 11
-247.994073
 21
-294.052946
 31
0.0
  0
LINE
  5
48B
100
AcDbEntity
  8
2
370
   100
100
AcDbLine
 10
-246.994073
 20
-284.052946
 30
0.0
 11
-247.994073
 21
-285.052946
 31
0.0
  0
LINE
  5
48C
100
AcDbEntity
  8
2
370
   100
100
AcDbLine
 10
-221.994073
 20
-285.052946
 30
0.0
 11
-221.994073
 21
-294.052946
 31
0.0
  0
LINE
  5
48D
100
AcDbEntity
  8
2
370
   100
100
AcDbLine
 10
-222.994073
 20
-284.052946
 30
0.0
 11
-221.994073
 21
-285.052946
 31
0.0
  0
LINE
  5
48E
100
AcDbEntity
  8
2
370
   100
100
AcDbLine
 10
-228.065683
 20
-294.052946
 30
0.0
 11
-228.065683
 21
-285.052946
 31
0.0
  0
LINE
  5
48F
100
AcDbEntity
  8
2
370
   100
100
AcDbLine
 10
-241.922464
 20
-294.052946
 30
0.0
 11
-241.922464
 21
-285.052946
 31
0.0
  0
ARC
  5
490
100
AcDbEntity
  8
2
370
   100
100
AcDbCircle
 10
-234.994073
 20
-308.554242
 30
0.0
 40
24.501296
100
AcDbArc
 50
73.574016
 51
106.425984
  0
ARC
  5
491
100
AcDbEntity
  8
2
370
   100
100
AcDbCircle
 10
-244.958268
 20
-289.161001
 30
0.0
 40
5.108056
100
AcDbArc
 50
53.536034
 51
126.463966
  0
ARC
  5
492
100
AcDbEntity
  8
2
370
   100
100
AcDbCircle
 10
-225.029878
 20
-289.161001
 30
0.0
 40
5.108056
100
AcDbArc
 50
53.536034
 51
126.463966
  0
LINE
  5
493
100
AcDbEntity
  8
2
370
   100
100
AcDbLine
 10
-247.994073
 20
-285.052946
 30
0.0
 11
-247.994073
 21
-293.052946
 31
0.0
  0
LINE
  5
494
100
AcDbEntity
  8
2
370
   100
100
AcDbLine
 10
-246.994073
 20
-295.052946
 30
0.0
 11
-247.994073
 21
-294.052946
 31
0.0
  0
LINE
  5
495
100
AcDbEntity
  8
2
370
   100
100
AcDbLine
 10
-221.994073
 20
-285.052946
 30
0.0
 11
-221.994073
 21
-293.052946
 31
0.0
  0
LINE
  5
496
100
AcDbEntity
  8
2
370
   100
100
AcDbLine
 10
-222.994073
 20
-295.052946
 30
0.0
 11
-221.994073
 21
-294.052946
 31
0.0
  0
LINE
  5
497
100
AcDbEntity
  8
2
370
   100
100
AcDbLine
 10
-246.994073
 20
-295.052946
 30
0.0
 11
-222.994073
 21
-295.052946
 31
0.0
  0
LINE
  5
498
100
AcDbEntity
  8
2
370
   100
100
AcDbLine
 10
-228.065683
 20
-293.052946
 30
0.0
 11
-228.065683
 21
-285.052946
 31
0.0
  0
LINE
  5
499
100
AcDbEntity
  8
2
370
   100
100
AcDbLine
 10
-241.922464
 20
-293.052946
 30
0.0
 11
-241.922464
 21
-285.052946
 31
0.0
  0
ARC
  5
49A
100
AcDbEntity
  8
2
370
   100
100
AcDbCircle
 10
-234.994073
 20
-270.55165
 30
0.0
 40
24.501296
100
AcDbArc
 50
253.574016
 51
286.425984
  0
ARC
  5
49B
100
AcDbEntity
  8
2
370
   100
100
AcDbCircle
 10
-225.029878
 20
-289.94489
 30
0.0
 40
5.108056
100
AcDbArc
 50
233.536034
 51
306.463966
  0
ARC
  5
49C
100
AcDbEntity
  8
2
370
   100
100
AcDbCircle
 10
-244.958268
 20
-289.94489
 30
0.0
 40
5.108056
100
AcDbArc
 50
233.536034
 51
306.463966
  0
ARC
  5
49D
100
AcDbEntity
  8
2
370
   100
100
AcDbCircle
 10
-240.743705
 20
-242.554095
 30
0.0
 40
0.5
100
AcDbArc
 50
90.0
 51
270.0
  0
LINE
  5
49E
100
AcDbEntity
  8
2
370
   100
  6
CENTER
100
AcDbLine
 10
-234.99348
 20
-193.982261
 30
0.0
 11
-234.99348
 21
-213.041656
 31
0.0
  0
LINE
  5
49F
100
AcDbEntity
  8
2
370
   100
  6
CENTER
100
AcDbLine
 10
281.735142
 20
-98.220425
 30
0.0
 11
220.357388
 21
-161.91073
 31
0.0
  0
LINE
  5
4A0
100
AcDbEntity
  8
2
370
   100
  6
CENTER
100
AcDbLine
 10
281.735142
 20
-240.593868
 30
0.0
 11
281.735142
 21
-305.157513
 31
0.0
  0
LINE
  5
4A1
100
AcDbEntity
  8
2
370
   100
100
AcDbLine
 10
274.735142
 20
-233.655165
 30
0.0
 11
274.735142
 21
-235.364635
 31
0.0
  0
LINE
  5
4A2
100
AcDbEntity
  8
2
370
   100
  6
CENTER
100
AcDbLine
 10
-234.99348
 20
-193.982261
 30
0.0
 11
-293.127218
 21
-298.648373
 31
0.0
  0
LINE
  5
4A3
100
AcDbEntity
  8
2
370
   100
  6
CENTER
100
AcDbLine
 10
-365.260955
 20
-183.982261
 30
0.0
 11
-307.127218
 21
-290.145036
 31
0.0
  0
LINE
  5
4A4
100
AcDbEntity
  8
2
370
   100
  6
CENTER
100
AcDbLine
 10
-300.127218
 20
-305.157513
 30
0.0
 11
281.735142
 21
-305.157513
 31
0.0
  0
LINE
  5
4A5
100
AcDbEntity
  8
2
370
   100
100
AcDbLine
 10
497.981809
 20
-90.145282
 30
0.0
 11
522.281809
 21
-90.145282
 31
0.0
  0
LINE
  5
4A6
100
AcDbEntity
  8
2
370
   100
100
AcDbLine
 10
497.781809
 20
-89.645282
 30
0.0
 11
497.781809
 21
-89.945282
 31
0.0
  0
LINE
  5
4A7
100
AcDbEntity
  8
2
370
   100
100
AcDbLine
 10
497.781809
 20
-89.945282
 30
0.0
 11
497.981809
 21
-90.145282
 31
0.0
  0
LINE
  5
4A8
100
AcDbEntity
  8
2
370
   100
100
AcDbLine
 10
500.281809
 20
-90.145282
 30
0.0
 11
504.781809
 21
-90.145282
 31
0.0
  0
LINE
  5
4A9
100
AcDbEntity
  8
2
370
   100
100
AcDbLine
 10
497.781809
 20
-89.945282
 30
0.0
 11
522.281809
 21
-89.945282
 31
0.0
  0
LINE
  5
4AA
100
AcDbEntity
  8
2
370
   100
100
AcDbLine
 10
546.581809
 20
-90.145282
 30
0.0
 11
522.281809
 21
-90.145282
 31
0.0
  0
LINE
  5
4AB
100
AcDbEntity
  8
2
370
   100
100
AcDbLine
 10
546.781809
 20
-89.645282
 30
0.0
 11
546.781809
 21
-89.945282
 31
0.0
  0
LINE
  5
4AC
100
AcDbEntity
  8
2
370
   100
100
AcDbLine
 10
546.781809
 20
-89.945282
 30
0.0
 11
546.581809
 21
-90.145282
 31
0.0
  0
LINE
  5
4AD
100
AcDbEntity
  8
2
370
   100
100
AcDbLine
 10
544.281809
 20
-90.145282
 30
0.0
 11
539.781809
 21
-90.145282
 31
0.0
  0
LINE
  5
4AE
100
AcDbEntity
  8
2
370
   100
100
AcDbLine
 10
546.781809
 20
-89.945282
 30
0.0
 11
522.281809
 21
-89.945282
 31
0.0
  0
LINE
  5
4AF
100
AcDbEntity
  8
2
370
   100
100
AcDbLine
 10
538.988059
 20
-132.645282
 30
0.0
 11
522.281809
 21
-132.645282
 31
0.0
  0
LINE
  5
4B0
100
AcDbEntity
  8
2
370
   100
100
AcDbLine
 10
539.781809
 20
-131.851282
 30
0.0
 11
538.987809
 21
-132.645282
 31
0.0
  0
LINE
  5
4B1
100
AcDbEntity
  8
2
370
   100
100
AcDbLine
 10
539.781809
 20
-131.851282
 30
0.0
 11
522.281809
 21
-131.851282
 31
0.0
  0
LINE
  5
4B2
100
AcDbEntity
  8
2
370
   100
100
AcDbLine
 10
505.575559
 20
-132.645282
 30
0.0
 11
522.281809
 21
-132.645282
 31
0.0
  0
LINE
  5
4B3
100
AcDbEntity
  8
2
370
   100
100
AcDbLine
 10
504.781809
 20
-131.851282
 30
0.0
 11
505.575809
 21
-132.645282
 31
0.0
  0
LINE
  5
4B4
100
AcDbEntity
  8
2
370
   100
100
AcDbLine
 10
504.781809
 20
-131.851282
 30
0.0
 11
522.281809
 21
-131.851282
 31
0.0
  0
LINE
  5
4B5
100
AcDbEntity
  8
2
370
   100
100
AcDbLine
 10
548.281809
 20
-89.345282
 30
0.0
 11
548.281809
 21
27.154718
 31
0.0
  0
LINE
  5
4B6
100
AcDbEntity
  8
2
370
   100
100
AcDbLine
 10
548.081809
 20
27.354718
 30
0.0
 11
548.281809
 21
27.154718
 31
0.0
  0
LINE
  5
4B7
100
AcDbEntity
  8
2
370
   100
100
AcDbLine
 10
522.281809
 20
27.354718
 30
0.0
 11
548.081809
 21
27.354718
 31
0.0
  0
LINE
  5
4B8
100
AcDbEntity
  8
2
370
   100
100
AcDbLine
 10
522.281809
 20
27.154718
 30
0.0
 11
548.281809
 21
27.154718
 31
0.0
  0
LINE
  5
4B9
100
AcDbEntity
  8
2
370
   100
100
AcDbLine
 10
496.281809
 20
-89.345282
 30
0.0
 11
496.281809
 21
27.154718
 31
0.0
  0
LINE
  5
4BA
100
AcDbEntity
  8
2
370
   100
100
AcDbLine
 10
496.281809
 20
27.154718
 30
0.0
 11
496.481809
 21
27.354718
 31
0.0
  0
LINE
  5
4BB
100
AcDbEntity
  8
2
370
   100
100
AcDbLine
 10
496.481809
 20
27.354718
 30
0.0
 11
522.281809
 21
27.354718
 31
0.0
  0
LINE
  5
4BC
100
AcDbEntity
  8
2
370
   100
100
AcDbLine
 10
496.281809
 20
27.154718
 30
0.0
 11
522.281809
 21
27.154718
 31
0.0
  0
LINE
  5
4BD
100
AcDbEntity
  8
2
370
   100
100
AcDbLine
 10
548.281809
 20
-89.345282
 30
0.0
 11
547.981809
 21
-89.645282
 31
0.0
  0
LINE
  5
4BE
100
AcDbEntity
  8
2
370
   100
100
AcDbLine
 10
547.981809
 20
-89.645282
 30
0.0
 11
522.281809
 21
-89.645282
 31
0.0
  0
LINE
  5
4BF
100
AcDbEntity
  8
2
370
   100
100
AcDbLine
 10
548.281809
 20
-89.345282
 30
0.0
 11
522.281809
 21
-89.345282
 31
0.0
  0
LINE
  5
4C0
100
AcDbEntity
  8
2
370
   100
100
AcDbLine
 10
496.281809
 20
-89.345282
 30
0.0
 11
496.581809
 21
-89.645282
 31
0.0
  0
LINE
  5
4C1
100
AcDbEntity
  8
2
370
   100
100
AcDbLine
 10
496.581809
 20
-89.645282
 30
0.0
 11
522.281809
 21
-89.645282
 31
0.0
  0
LINE
  5
4C2
100
AcDbEntity
  8
2
370
   100
100
AcDbLine
 10
496.281809
 20
-89.345282
 30
0.0
 11
522.281809
 21
-89.345282
 31
0.0
  0
ARC
  5
4C3
100
AcDbEntity
  8
2
370
   100
100
AcDbCircle
 10
496.781809
 20
30.55461
 30
0.0
 40
0.5
100
AcDbArc
 50
180.0
 51
270.0
  0
POINT
  5
4C4
100
AcDbEntity
  8
2
370
    50
100
AcDbPoint
 10
522.281809
 20
29.904718
 30
0.0
  0
ARC
  5
4C5
100
AcDbEntity
  8
2
370
   100
100
AcDbCircle
 10
499.816036
 20
29.972271
 30
0.0
 40
1.0
100
AcDbArc
 50
159.916716
 51
179.5
  0
LINE
  5
4C6
100
AcDbEntity
  8
2
370
   100
100
AcDbLine
 10
498.793154
 20
27.35461
 30
0.0
 11
498.816075
 21
29.980998
 31
0.0
  0
ARC
  5
4C7
100
AcDbEntity
  8
2
370
   100
100
AcDbCircle
 10
544.747582
 20
29.972271
 30
0.0
 40
1.0
100
AcDbArc
 50
0.5
 51
20.083284
  0
LINE
  5
4C8
100
AcDbEntity
  8
2
370
   100
100
AcDbLine
 10
545.770465
 20
27.35461
 30
0.0
 11
545.747544
 21
29.980998
 31
0.0
  0
LINE
  5
4C9
100
AcDbEntity
  8
2
370
   100
100
AcDbLine
 10
545.781809
 20
-93.145282
 30
0.0
 11
498.781809
 21
-93.145282
 31
0.0
  0
LINE
  5
4CA
100
AcDbEntity
  8
2
370
   100
100
AcDbLine
 10
545.781809
 20
-90.145282
 30
0.0
 11
545.781809
 21
-93.145282
 31
0.0
  0
LINE
  5
4CB
100
AcDbEntity
  8
2
370
   100
100
AcDbLine
 10
498.781809
 20
-90.145282
 30
0.0
 11
498.781809
 21
-93.145282
 31
0.0
  0
HATCH
  5
4CC
100
AcDbEntity
  8
2
370
   100
100
AcDbHatch
 10
0.0
 20
0.0
 30
0.0
210
0.0
220
0.0
230
1.0
  2
_U
 70
     0
 71
     1
 91
        1
 92
        1
 93
        4
 72
     1
 10
545.78180899999995
 20
-93.145281999999995
 11
498.78180900000001
 21
-93.145281999999995
 72
     1
 10
498.78180900000001
 20
-93.145281999999995
 11
498.78180900000001
 21
-90.145281999999995
 72
     1
 10
498.78180900000001
 20
-90.145281999999995
 11
545.78180899999995
 21
-90.145281999999995
 72
     1
 10
545.78180899999995
 20
-90.145281999999995
 11
545.78180899999995
 21
-93.145281999999995
 97
        4
330
0
330
0
330
0
330
0
 75
     0
 76
     0
 52
45.0
 41
1.0
 77
     0
 78
     1
 53
45.0
 43
0.0
 44
0.0
 45
-1.0606599999999999
 46
1.0606599999999999
 79
     0
 98
        1
 10
0.0
 20
0.0
  0
LINE
  5
4CD
100
AcDbEntity
  8
2
370
   100
100
AcDbLine
 10
497.229809
 20
-106.445282
 30
0.0
 11
497.229809
 21
-108.445282
 31
0.0
  0
LINE
  5
4CE
100
AcDbEntity
  8
2
370
   100
100
AcDbLine
 10
547.229809
 20
-106.445282
 30
0.0
 11
547.229809
 21
-108.445282
 31
0.0
  0
LINE
  5
4CF
100
AcDbEntity
  8
2
370
   100
100
AcDbLine
 10
547.229809
 20
-106.445282
 30
0.0
 11
497.229809
 21
-106.445282
 31
0.0
  0
LINE
  5
4D0
100
AcDbEntity
  8
2
370
   100
100
AcDbLine
 10
497.229809
 20
-107.945282
 30
0.0
 11
547.229809
 21
-107.945282
 31
0.0
  0
HATCH
  5
4D1
100
AcDbEntity
  8
2
370
   100
100
AcDbHatch
 10
0.0
 20
0.0
 30
0.0
210
0.0
220
0.0
230
1.0
  2
_U
 70
     0
 71
     1
 91
        1
 92
        1
 93
        4
 72
     1
 10
547.22980900000005
 20
-106.44528200000001
 11
497.22980899999999
 21
-106.44528200000001
 72
     1
 10
497.22980899999999
 20
-106.44528200000001
 11
497.22980899999999
 21
-107.94528200000001
 72
     1
 10
497.22980899999999
 20
-107.94528200000001
 11
547.22980900000005
 21
-107.94528200000001
 72
     1
 10
547.22980900000005
 20
-107.94528200000001
 11
547.22980900000005
 21
-106.44528200000001
 97
        4
330
0
330
0
330
0
330
0
 75
     0
 76
     0
 52
45.0
 41
1.0
 77
     0
 78
     1
 53
45.0
 43
0.0
 44
0.0
 45
-0.424264
 46
0.424264
 79
     0
 98
        1
 10
0.0
 20
0.0
  0
LINE
  5
4D2
100
AcDbEntity
  8
2
370
   100
100
AcDbLine
 10
498.781809
 20
-90.145282
 30
0.0
 11
545.781809
 21
-90.145282
 31
0.0
  0
LINE
  5
4D3
100
AcDbEntity
  8
2
370
   100
100
AcDbLine
 10
548.229141
 20
-108.445282
 30
0.0
 11
496.229141
 21
-108.445282
 31
0.0
  0
LINE
  5
4D4
100
AcDbEntity
  8
2
370
   100
100
AcDbLine
 10
545.229141
 20
-120.445282
 30
0.0
 11
499.229141
 21
-120.445282
 31
0.0
  0
LINE
  5
4D5
100
AcDbEntity
  8
2
370
   100
100
AcDbLine
 10
496.229141
 20
-110.445282
 30
0.0
 11
496.229141
 21
-108.445282
 31
0.0
  0
LINE
  5
4D6
100
AcDbEntity
  8
2
370
   100
100
AcDbLine
 10
548.229141
 20
-110.445282
 30
0.0
 11
548.229141
 21
-108.445282
 31
0.0
  0
LINE
  5
4D7
100
AcDbEntity
  8
2
370
   100
100
AcDbLine
 10
499.229141
 20
-120.445282
 30
0.0
 11
499.229141
 21
-112.445282
 31
0.0
  0
LINE
  5
4D8
100
AcDbEntity
  8
2
370
   100
100
AcDbLine
 10
545.229141
 20
-120.445282
 30
0.0
 11
545.229141
 21
-112.445282
 31
0.0
  0
LINE
  5
4D9
100
AcDbEntity
  8
2
370
   100
100
AcDbLine
 10
547.229141
 20
-111.445282
 30
0.0
 11
497.229141
 21
-111.445282
 31
0.0
  0
LINE
  5
4DA
100
AcDbEntity
  8
2
370
   100
100
AcDbLine
 10
500.229141
 20
-119.353282
 30
0.0
 11
500.229141
 21
-111.445282
 31
0.0
  0
LINE
  5
4DB
100
AcDbEntity
  8
2
370
   100
100
AcDbLine
 10
544.229141
 20
-119.353282
 30
0.0
 11
544.229141
 21
-111.445282
 31
0.0
  0
LINE
  5
4DC
100
AcDbEntity
  8
2
370
   100
100
AcDbLine
 10
523.229141
 20
-119.353282
 30
0.0
 11
523.229141
 21
-111.445282
 31
0.0
  0
LINE
  5
4DD
100
AcDbEntity
  8
2
370
   100
100
AcDbLine
 10
521.229141
 20
-119.353282
 30
0.0
 11
521.229141
 21
-111.445282
 31
0.0
  0
LINE
  5
4DE
100
AcDbEntity
  8
2
370
   100
100
AcDbLine
 10
500.229141
 20
-119.353282
 30
0.0
 11
499.229141
 21
-119.353282
 31
0.0
  0
LINE
  5
4DF
100
AcDbEntity
  8
2
370
   100
100
AcDbLine
 10
545.229141
 20
-119.353282
 30
0.0
 11
544.229141
 21
-119.353282
 31
0.0
  0
LINE
  5
4E0
100
AcDbEntity
  8
2
370
   100
100
AcDbLine
 10
523.229141
 20
-119.353282
 30
0.0
 11
521.229141
 21
-119.353282
 31
0.0
  0
ARC
  5
4E1
100
AcDbEntity
  8
2
370
   100
100
AcDbCircle
 10
510.729141
 20
-69.418513
 30
0.0
 40
51.026769
100
AcDbArc
 50
258.125168
 51
281.874832
  0
ARC
  5
4E2
100
AcDbEntity
  8
2
370
   100
100
AcDbCircle
 10
533.729141
 20
-69.418513
 30
0.0
 40
51.026769
100
AcDbArc
 50
258.125168
 51
281.874832
  0
ARC
  5
4E3
100
AcDbEntity
  8
2
370
   100
100
AcDbCircle
 10
498.229141
 20
-112.445282
 30
0.0
 40
1.0
100
AcDbArc
 50
0.0
 51
90.0
  0
ARC
  5
4E4
100
AcDbEntity
  8
2
370
   100
100
AcDbCircle
 10
546.229141
 20
-112.445282
 30
0.0
 40
1.0
100
AcDbArc
 50
90.0
 51
180.0
  0
ARC
  5
4E5
100
AcDbEntity
  8
2
370
   100
100
AcDbCircle
 10
497.229141
 20
-110.445282
 30
0.0
 40
1.0
100
AcDbArc
 50
180.0
 51
270.0
  0
ARC
  5
4E6
100
AcDbEntity
  8
2
370
   100
100
AcDbCircle
 10
547.229141
 20
-110.445282
 30
0.0
 40
1.0
100
AcDbArc
 50
270.0
 51
360.0
  0
POINT
  5
4E7
100
AcDbEntity
  8
2
370
    50
100
AcDbPoint
 10
522.281809
 20
-90.145282
 30
0.0
  0
LINE
  5
4E8
100
AcDbEntity
  8
2
370
   100
100
AcDbLine
 10
539.781809
 20
-131.851282
 30
0.0
 11
539.781809
 21
-120.445282
 31
0.0
  0
LINE
  5
4E9
100
AcDbEntity
  8
2
370
   100
100
AcDbLine
 10
539.781809
 20
-106.445282
 30
0.0
 11
539.781809
 21
-93.145282
 31
0.0
  0
LINE
  5
4EA
100
AcDbEntity
  8
2
370
   100
100
AcDbLine
 10
538.988059
 20
-132.645032
 30
0.0
 11
538.988059
 21
-120.445282
 31
0.0
  0
LINE
  5
4EB
100
AcDbEntity
  8
2
370
   100
100
AcDbLine
 10
538.988059
 20
-106.445282
 30
0.0
 11
538.988059
 21
-93.145282
 31
0.0
  0
LINE
  5
4EC
100
AcDbEntity
  8
2
370
   100
100
AcDbLine
 10
505.575559
 20
-132.645032
 30
0.0
 11
505.575559
 21
-120.445282
 31
0.0
  0
LINE
  5
4ED
100
AcDbEntity
  8
2
370
   100
100
AcDbLine
 10
505.575559
 20
-106.445282
 30
0.0
 11
505.575559
 21
-93.145282
 31
0.0
  0
LINE
  5
4EE
100
AcDbEntity
  8
2
370
   100
100
AcDbLine
 10
504.781809
 20
-131.851282
 30
0.0
 11
504.781809
 21
-120.445282
 31
0.0
  0
LINE
  5
4EF
100
AcDbEntity
  8
2
370
   100
100
AcDbLine
 10
504.781809
 20
-106.445282
 30
0.0
 11
504.781809
 21
-93.145282
 31
0.0
  0
LINE
  5
4F0
100
AcDbEntity
  8
2
370
   100
  6
CENTER
100
AcDbLine
 10
522.281809
 20
94.024494
 30
0.0
 11
522.281809
 21
-139.095028
 31
0.0
  0
ARC
  5
4F1
100
AcDbEntity
  8
2
370
   100
100
AcDbCircle
 10
522.281809
 20
8.239267
 30
0.0
 40
33.939788
100
AcDbArc
 50
40.349781
 51
139.650219
  0
ARC
  5
4F2
100
AcDbEntity
  8
2
370
   100
100
AcDbCircle
 10
592.796254
 20
-4.022901
 30
0.0
 40
100.0
100
AcDbArc
 50
158.522374
 51
159.916657
  0
ARC
  5
4F3
100
AcDbEntity
  8
2
370
   100
100
AcDbCircle
 10
451.767364
 20
-4.022901
 30
0.0
 40
100.0
100
AcDbArc
 50
20.083343
 51
21.477626
  0
LINE
  5
4F4
100
AcDbEntity
  8
2
370
   100
100
AcDbLine
 10
499.59931
 20
30.153235
 30
0.0
 11
545.00646
 21
30.153235
 31
0.0
  0
LINE
  5
4F5
100
AcDbEntity
  8
2
370
   100
100
AcDbLine
 10
496.781809
 20
30.05461
 30
0.0
 11
498.816717
 21
30.05461
 31
0.0
  0
LINE
  5
4F6
100
AcDbEntity
  8
2
370
   100
100
AcDbLine
 10
547.781809
 20
30.05461
 30
0.0
 11
545.746902
 21
30.05461
 31
0.0
  0
ARC
  5
4F7
100
AcDbEntity
  8
2
370
   100
100
AcDbCircle
 10
547.781809
 20
30.55461
 30
0.0
 40
0.5
100
AcDbArc
 50
270.0
 51
360.0
  0
ARC
  5
4F8
100
AcDbEntity
  8
2
370
   100
100
AcDbCircle
 10
522.281809
 20
8.281972
 30
0.0
 40
33.15189
100
AcDbArc
 50
41.052788
 51
138.947212
  0
LINE
  5
4F9
100
AcDbEntity
  8
2
370
   100
100
AcDbLine
 10
518.281809
 20
-21.145141
 30
0.0
 11
526.281809
 21
-21.145141
 31
0.0
  0
CIRCLE
  5
4FA
100
AcDbEntity
  8
2
370
   100
100
AcDbCircle
 10
522.281809
 20
-80.145141
 30
0.0
 40
3.0
  0
LINE
  5
4FB
100
AcDbEntity
  8
2
370
   100
100
AcDbLine
 10
518.281809
 20
-19.145141
 30
0.0
 11
526.281809
 21
-19.145141
 31
0.0
  0
ARC
  5
4FC
100
AcDbEntity
  8
2
370
   100
100
AcDbCircle
 10
526.281809
 20
-20.145141
 30
0.0
 40
1.0
100
AcDbArc
 50
270.0
 51
90.0
  0
ARC
  5
4FD
100
AcDbEntity
  8
2
370
   100
100
AcDbCircle
 10
518.281809
 20
-20.145141
 30
0.0
 40
1.0
100
AcDbArc
 50
90.0
 51
270.0
  0
LINE
  5
4FE
100
AcDbEntity
  8
2
370
   100
100
AcDbLine
 10
223.107388
 20
-218.644944
 30
0.0
 11
216.857388
 21
-218.644944
 31
0.0
  0
LINE
  5
4FF
100
AcDbEntity
  8
2
370
   100
100
AcDbLine
 10
211.607388
 20
-218.644944
 30
0.0
 11
217.857388
 21
-218.644944
 31
0.0
  0
LINE
  5
500
100
AcDbEntity
  8
2
370
   100
100
AcDbLine
 10
211.607388
 20
-218.644944
 30
0.0
 11
217.857388
 21
-218.644944
 31
0.0
  0
LINE
  5
501
100
AcDbEntity
  8
2
370
   100
  6
CENTER
100
AcDbLine
 10
217.357388
 20
-256.276268
 30
0.0
 11
217.357388
 21
-272.879414
 31
0.0
  0
LINE
  5
502
100
AcDbEntity
  8
2
370
   100
100
AcDbLine
 10
137.723651
 20
-233.05354
 30
0.0
 11
150.723651
 21
-233.05354
 31
0.0
  0
LINE
  5
503
100
AcDbEntity
  8
2
370
   100
100
AcDbLine
 10
139.642214
 20
-247.05354
 30
0.0
 11
138.223651
 21
-247.05354
 31
0.0
  0
LINE
  5
504
100
AcDbEntity
  8
2
370
   100
100
AcDbLine
 10
139.642214
 20
-249.55354
 30
0.0
 11
138.223651
 21
-249.55354
 31
0.0
  0
ARC
  5
505
100
AcDbEntity
  8
2
370
   100
100
AcDbCircle
 10
138.423651
 20
-249.85354
 30
0.0
 40
0.2
100
AcDbArc
 50
180.0
 51
270.0
  0
LINE
  5
506
100
AcDbEntity
  8
2
370
   100
100
AcDbLine
 10
143.723651
 20
-249.55354
 30
0.0
 11
140.34932
 21
-249.55354
 31
0.0
  0
LINE
  5
507
100
AcDbEntity
  8
2
370
   100
100
AcDbLine
 10
143.723651
 20
-247.05354
 30
0.0
 11
140.34932
 21
-247.05354
 31
0.0
  0
LINE
  5
508
100
AcDbEntity
  8
2
370
   100
100
AcDbLine
 10
148.097981
 20
-249.55354
 30
0.0
 11
144.723651
 21
-249.55354
 31
0.0
  0
LINE
  5
509
100
AcDbEntity
  8
2
370
   100
100
AcDbLine
 10
148.097981
 20
-247.05354
 30
0.0
 11
144.723651
 21
-247.05354
 31
0.0
  0
LINE
  5
50A
100
AcDbEntity
  8
2
370
   100
100
AcDbLine
 10
150.223651
 20
-249.55354
 30
0.0
 11
148.805088
 21
-249.55354
 31
0.0
  0
LINE
  5
50B
100
AcDbEntity
  8
2
370
   100
100
AcDbLine
 10
150.223651
 20
-247.05354
 30
0.0
 11
148.805088
 21
-247.05354
 31
0.0
  0
ARC
  5
50C
100
AcDbEntity
  8
2
370
   100
100
AcDbCircle
 10
150.023651
 20
-249.85354
 30
0.0
 40
0.2
100
AcDbArc
 50
270.0
 51
360.0
  0
LINE
  5
50D
100
AcDbEntity
  8
2
370
   100
100
AcDbLine
 10
150.223651
 20
-247.05354
 30
0.0
 11
150.223651
 21
-249.85354
 31
0.0
  0
LINE
  5
50E
100
AcDbEntity
  8
2
370
   100
100
AcDbLine
 10
150.202781
 20
-247.05354
 30
0.0
 11
150.202781
 21
-249.55354
 31
0.0
  0
ARC
  5
50F
100
AcDbEntity
  8
2
370
   100
100
AcDbCircle
 10
148.223651
 20
-245.55354
 30
0.0
 40
2.5
100
AcDbArc
 50
323.130102
 51
360.0
  0
LINE
  5
510
100
AcDbEntity
  8
2
370
   100
100
AcDbLine
 10
148.805088
 20
-247.05354
 30
0.0
 11
148.805088
 21
-249.55354
 31
0.0
  0
LINE
  5
511
100
AcDbEntity
  8
2
370
   100
100
AcDbLine
 10
148.097981
 20
-247.05354
 30
0.0
 11
148.097981
 21
-249.55354
 31
0.0
  0
LINE
  5
512
100
AcDbEntity
  8
2
370
   100
100
AcDbLine
 10
144.723651
 20
-247.05354
 30
0.0
 11
144.723651
 21
-249.55354
 31
0.0
  0
LINE
  5
513
100
AcDbEntity
  8
2
370
   100
100
AcDbLine
 10
143.723651
 20
-247.05354
 30
0.0
 11
143.723651
 21
-249.55354
 31
0.0
  0
LINE
  5
514
100
AcDbEntity
  8
2
370
   100
100
AcDbLine
 10
139.642214
 20
-247.05354
 30
0.0
 11
139.642214
 21
-249.55354
 31
0.0
  0
LINE
  5
515
100
AcDbEntity
  8
2
370
   100
100
AcDbLine
 10
140.34932
 20
-247.05354
 30
0.0
 11
140.34932
 21
-249.55354
 31
0.0
  0
LINE
  5
516
100
AcDbEntity
  8
2
370
   100
100
AcDbLine
 10
138.223651
 20
-247.05354
 30
0.0
 11
138.223651
 21
-249.85354
 31
0.0
  0
LINE
  5
517
100
AcDbEntity
  8
2
370
   100
100
AcDbLine
 10
138.24452
 20
-247.05354
 30
0.0
 11
138.24452
 21
-249.55354
 31
0.0
  0
ARC
  5
518
100
AcDbEntity
  8
2
370
   100
100
AcDbCircle
 10
140.223651
 20
-245.55354
 30
0.0
 40
2.5
100
AcDbArc
 50
180.0
 51
216.869898
  0
LINE
  5
519
100
AcDbEntity
  8
2
370
   100
100
AcDbLine
 10
137.723651
 20
-233.05354
 30
0.0
 11
137.723651
 21
-245.55354
 31
0.0
  0
LINE
  5
51A
100
AcDbEntity
  8
2
370
   100
100
AcDbLine
 10
137.74291
 20
-233.05354
 30
0.0
 11
137.74291
 21
-245.55354
 31
0.0
  0
LINE
  5
51B
100
AcDbEntity
  8
2
370
   100
100
AcDbLine
 10
150.704391
 20
-233.05354
 30
0.0
 11
150.704391
 21
-245.55354
 31
0.0
  0
LINE
  5
51C
100
AcDbEntity
  8
2
370
   100
100
AcDbLine
 10
150.723651
 20
-233.05354
 30
0.0
 11
150.723651
 21
-245.55354
 31
0.0
  0
LINE
  5
51D
100
AcDbEntity
  8
2
370
   100
100
AcDbLine
 10
151.223651
 20
-250.05354
 30
0.0
 11
137.223651
 21
-250.05354
 31
0.0
  0
LINE
  5
51E
100
AcDbEntity
  8
2
370
   100
100
AcDbLine
 10
148.289515
 20
-223.169921
 30
0.0
 11
140.157787
 21
-215.038193
 31
0.0
  0
LINE
  5
51F
100
AcDbEntity
  8
2
370
   100
100
AcDbLine
 10
148.289515
 20
-215.038193
 30
0.0
 11
140.157787
 21
-223.169921
 31
0.0
  0
LINE
  5
520
100
AcDbEntity
  8
2
370
   100
100
AcDbLine
 10
147.520448
 20
-223.815068
 30
0.0
 11
139.51264
 21
-215.807259
 31
0.0
  0
LINE
  5
521
100
AcDbEntity
  8
2
370
   100
100
AcDbLine
 10
146.621425
 20
-224.330258
 30
0.0
 11
138.997449
 21
-216.706283
 31
0.0
  0
LINE
  5
522
100
AcDbEntity
  8
2
370
   100
100
AcDbLine
 10
145.57094
 20
-224.693987
 30
0.0
 11
138.633721
 21
-217.756768
 31
0.0
  0
LINE
  5
523
100
AcDbEntity
  8
2
370
   100
100
AcDbLine
 10
144.316054
 20
-224.853314
 30
0.0
 11
138.474393
 21
-219.011654
 31
0.0
  0
LINE
  5
524
100
AcDbEntity
  8
2
370
   100
100
AcDbLine
 10
142.695914
 20
-224.647388
 30
0.0
 11
138.680319
 21
-220.631794
 31
0.0
  0
LINE
  5
525
100
AcDbEntity
  8
2
370
   100
100
AcDbLine
 10
148.934662
 20
-222.400855
 30
0.0
 11
140.926853
 21
-214.393046
 31
0.0
  0
LINE
  5
526
100
AcDbEntity
  8
2
370
   100
100
AcDbLine
 10
149.449852
 20
-221.501831
 30
0.0
 11
141.825877
 21
-213.877856
 31
0.0
  0
LINE
  5
527
100
AcDbEntity
  8
2
370
   100
100
AcDbLine
 10
149.81358
 20
-220.451346
 30
0.0
 11
142.876362
 21
-213.514127
 31
0.0
  0
LINE
  5
528
100
AcDbEntity
  8
2
370
   100
100
AcDbLine
 10
149.972908
 20
-219.19646
 30
0.0
 11
144.131247
 21
-213.354799
 31
0.0
  0
LINE
  5
529
100
AcDbEntity
  8
2
370
   100
100
AcDbLine
 10
149.766982
 20
-217.57632
 30
0.0
 11
145.751387
 21
-213.560726
 31
0.0
  0
LINE
  5
52A
100
AcDbEntity
  8
2
370
   100
100
AcDbLine
 10
147.520448
 20
-214.393046
 30
0.0
 11
139.51264
 21
-222.400855
 31
0.0
  0
LINE
  5
52B
100
AcDbEntity
  8
2
370
   100
100
AcDbLine
 10
146.621425
 20
-213.877856
 30
0.0
 11
138.997449
 21
-221.501831
 31
0.0
  0
LINE
  5
52C
100
AcDbEntity
  8
2
370
   100
100
AcDbLine
 10
145.57094
 20
-213.514127
 30
0.0
 11
138.633721
 21
-220.451346
 31
0.0
  0
LINE
  5
52D
100
AcDbEntity
  8
2
370
   100
100
AcDbLine
 10
144.316054
 20
-213.354799
 30
0.0
 11
138.474393
 21
-219.19646
 31
0.0
  0
LINE
  5
52E
100
AcDbEntity
  8
2
370
   100
100
AcDbLine
 10
142.695914
 20
-213.560726
 30
0.0
 11
138.680319
 21
-217.57632
 31
0.0
  0
LINE
  5
52F
100
AcDbEntity
  8
2
370
   100
100
AcDbLine
 10
148.934662
 20
-215.807259
 30
0.0
 11
140.926853
 21
-223.815068
 31
0.0
  0
LINE
  5
530
100
AcDbEntity
  8
2
370
   100
100
AcDbLine
 10
149.449852
 20
-216.706283
 30
0.0
 11
141.825877
 21
-224.330258
 31
0.0
  0
LINE
  5
531
100
AcDbEntity
  8
2
370
   100
100
AcDbLine
 10
149.81358
 20
-217.756768
 30
0.0
 11
142.876362
 21
-224.693987
 31
0.0
  0
LINE
  5
532
100
AcDbEntity
  8
2
370
   100
100
AcDbLine
 10
149.972908
 20
-219.011654
 30
0.0
 11
144.131247
 21
-224.853314
 31
0.0
  0
LINE
  5
533
100
AcDbEntity
  8
2
370
   100
100
AcDbLine
 10
149.766982
 20
-220.631794
 30
0.0
 11
145.751387
 21
-224.647388
 31
0.0
  0
LINE
  5
534
100
AcDbEntity
  8
2
370
   100
100
AcDbLine
 10
149.973651
 20
-233.05354
 30
0.0
 11
149.973651
 21
-199.766933
 31
0.0
  0
LINE
  5
535
100
AcDbEntity
  8
2
370
   100
100
AcDbLine
 10
138.473651
 20
-199.766933
 30
0.0
 11
138.473651
 21
-233.05354
 31
0.0
  0
ARC
  5
536
100
AcDbEntity
  8
2
370
   100
100
AcDbCircle
 10
141.348692
 20
-195.933389
 30
0.0
 40
4.791667
100
AcDbArc
 50
233.130102
 51
306.869898
  0
ARC
  5
537
100
AcDbEntity
  8
2
370
   100
100
AcDbCircle
 10
147.098692
 20
-203.600056
 30
0.0
 40
4.791667
100
AcDbArc
 50
53.130102
 51
126.869898
  0
ARC
  5
538
100
AcDbEntity
  8
2
370
   100
100
AcDbCircle
 10
147.098692
 20
-195.933389
 30
0.0
 40
4.791667
100
AcDbArc
 50
233.130102
 51
306.869898
  0
ARC
  5
539
100
AcDbEntity
  8
2
370
   100
100
AcDbCircle
 10
150.024244
 20
-249.852857
 30
0.0
 40
0.2
100
AcDbArc
 50
270.0
 51
360.0
  0
ARC
  5
53A
100
AcDbEntity
  8
2
370
   100
100
AcDbCircle
 10
138.424244
 20
-249.852857
 30
0.0
 40
0.2
100
AcDbArc
 50
180.0
 51
270.0
  0
LINE
  5
53B
100
AcDbEntity
  8
2
370
   100
100
AcDbLine
 10
137.224244
 20
-250.052857
 30
0.0
 11
151.224244
 21
-250.052857
 31
0.0
  0
LINE
  5
53C
100
AcDbEntity
  8
2
370
   100
100
AcDbLine
 10
136.724244
 20
-250.552857
 30
0.0
 11
137.224244
 21
-250.052857
 31
0.0
  0
LINE
  5
53D
100
AcDbEntity
  8
2
370
   100
100
AcDbLine
 10
137.724383
 20
-263.852235
 30
0.0
 11
137.724383
 21
-260.852235
 31
0.0
  0
LINE
  5
53E
100
AcDbEntity
  8
2
370
   100
100
AcDbLine
 10
135.324244
 20
-255.453493
 30
0.0
 11
135.324244
 21
-257.853493
 31
0.0
  0
LINE
  5
53F
100
AcDbEntity
  8
2
370
   100
100
AcDbLine
 10
135.524244
 20
-255.253493
 30
0.0
 11
135.324244
 21
-255.453493
 31
0.0
  0
LINE
  5
540
100
AcDbEntity
  8
2
370
   100
100
AcDbLine
 10
135.524244
 20
-258.053493
 30
0.0
 11
135.324244
 21
-257.853493
 31
0.0
  0
LINE
  5
541
100
AcDbEntity
  8
2
370
   100
100
AcDbLine
 10
136.724244
 20
-255.253493
 30
0.0
 11
136.724244
 21
-254.852235
 31
0.0
  0
LINE
  5
542
100
AcDbEntity
  8
2
370
   100
100
AcDbLine
 10
136.724244
 20
-250.552857
 30
0.0
 11
136.724244
 21
-251.852235
 31
0.0
  0
LINE
  5
543
100
AcDbEntity
  8
2
370
   100
100
AcDbLine
 10
153.124244
 20
-255.452857
 30
0.0
 11
153.124244
 21
-257.852857
 31
0.0
  0
LINE
  5
544
100
AcDbEntity
  8
2
370
   100
100
AcDbLine
 10
135.324244
 20
-255.452857
 30
0.0
 11
135.324244
 21
-257.852857
 31
0.0
  0
LINE
  5
545
100
AcDbEntity
  8
2
370
   100
100
AcDbLine
 10
135.524244
 20
-255.252857
 30
0.0
 11
135.324244
 21
-255.452857
 31
0.0
  0
LINE
  5
546
100
AcDbEntity
  8
2
370
   100
100
AcDbLine
 10
152.924244
 20
-255.252857
 30
0.0
 11
153.124244
 21
-255.452857
 31
0.0
  0
LINE
  5
547
100
AcDbEntity
  8
2
370
   100
100
AcDbLine
 10
152.924244
 20
-258.052857
 30
0.0
 11
153.124244
 21
-257.852857
 31
0.0
  0
LINE
  5
548
100
AcDbEntity
  8
2
370
   100
100
AcDbLine
 10
153.224244
 20
-263.852857
 30
0.0
 11
135.224244
 21
-263.852857
 31
0.0
  0
LINE
  5
549
100
AcDbEntity
  8
2
370
   100
100
AcDbLine
 10
152.524244
 20
-251.852857
 30
0.0
 11
135.924244
 21
-251.852857
 31
0.0
  0
LINE
  5
54A
100
AcDbEntity
  8
2
370
   100
100
AcDbLine
 10
140.224244
 20
-252.852857
 30
0.0
 11
140.224244
 21
-262.852857
 31
0.0
  0
LINE
  5
54B
100
AcDbEntity
  8
2
370
   100
100
AcDbLine
 10
148.224244
 20
-252.852857
 30
0.0
 11
148.224244
 21
-262.852857
 31
0.0
  0
LINE
  5
54C
100
AcDbEntity
  8
2
370
   100
100
AcDbLine
 10
129.724244
 20
-250.852857
 30
0.0
 11
129.724244
 21
-262.852857
 31
0.0
  0
LINE
  5
54D
100
AcDbEntity
  8
2
370
   100
100
AcDbLine
 10
158.724244
 20
-250.852857
 30
0.0
 11
158.724244
 21
-262.852857
 31
0.0
  0
ARC
  5
54E
100
AcDbEntity
  8
2
370
   100
100
AcDbCircle
 10
157.724244
 20
-250.852857
 30
0.0
 40
1.0
100
AcDbArc
 50
0.0
 51
90.0
  0
ARC
  5
54F
100
AcDbEntity
  8
2
370
   100
100
AcDbCircle
 10
130.724244
 20
-250.852857
 30
0.0
 40
1.0
100
AcDbArc
 50
90.0
 51
180.0
  0
ARC
  5
550
100
AcDbEntity
  8
2
370
   100
100
AcDbCircle
 10
130.724244
 20
-262.852857
 30
0.0
 40
1.0
100
AcDbArc
 50
180.0
 51
270.0
  0
ARC
  5
551
100
AcDbEntity
  8
2
370
   100
100
AcDbCircle
 10
157.724244
 20
-262.852857
 30
0.0
 40
1.0
100
AcDbArc
 50
270.0
 51
360.0
  0
LINE
  5
552
100
AcDbEntity
  8
2
370
   100
100
AcDbLine
 10
130.724244
 20
-249.852857
 30
0.0
 11
138.224244
 21
-249.852857
 31
0.0
  0
LINE
  5
553
100
AcDbEntity
  8
2
370
   100
100
AcDbLine
 10
150.224244
 20
-249.852857
 30
0.0
 11
157.724244
 21
-249.852857
 31
0.0
  0
LINE
  5
554
100
AcDbEntity
  8
2
370
   100
100
AcDbLine
 10
130.724244
 20
-263.852857
 30
0.0
 11
136.724244
 21
-263.852857
 31
0.0
  0
LINE
  5
555
100
AcDbEntity
  8
2
370
   100
100
AcDbLine
 10
152.524244
 20
-263.852857
 30
0.0
 11
157.724244
 21
-263.852857
 31
0.0
  0
LINE
  5
556
100
AcDbEntity
  8
2
370
   100
100
AcDbLine
 10
152.524244
 20
-254.852857
 30
0.0
 11
148.224244
 21
-254.852857
 31
0.0
  0
LINE
  5
557
100
AcDbEntity
  8
2
370
   100
100
AcDbLine
 10
140.224244
 20
-254.852857
 30
0.0
 11
135.924244
 21
-254.852857
 31
0.0
  0
LINE
  5
558
100
AcDbEntity
  8
2
370
   100
100
AcDbLine
 10
152.924244
 20
-255.252857
 30
0.0
 11
148.224244
 21
-255.252857
 31
0.0
  0
LINE
  5
559
100
AcDbEntity
  8
2
370
   100
100
AcDbLine
 10
140.224244
 20
-255.252857
 30
0.0
 11
135.524244
 21
-255.252857
 31
0.0
  0
LINE
  5
55A
100
AcDbEntity
  8
2
370
   100
100
AcDbLine
 10
153.124244
 20
-255.452857
 30
0.0
 11
148.224244
 21
-255.452857
 31
0.0
  0
LINE
  5
55B
100
AcDbEntity
  8
2
370
   100
100
AcDbLine
 10
140.224244
 20
-255.452857
 30
0.0
 11
135.324244
 21
-255.452857
 31
0.0
  0
LINE
  5
55C
100
AcDbEntity
  8
2
370
   100
100
AcDbLine
 10
153.124244
 20
-257.852857
 30
0.0
 11
148.224244
 21
-257.852857
 31
0.0
  0
LINE
  5
55D
100
AcDbEntity
  8
2
370
   100
100
AcDbLine
 10
140.224244
 20
-257.852857
 30
0.0
 11
135.324244
 21
-257.852857
 31
0.0
  0
LINE
  5
55E
100
AcDbEntity
  8
2
370
   100
100
AcDbLine
 10
152.524244
 20
-260.852857
 30
0.0
 11
148.224244
 21
-260.852857
 31
0.0
  0
LINE
  5
55F
100
AcDbEntity
  8
2
370
   100
100
AcDbLine
 10
140.224244
 20
-260.852857
 30
0.0
 11
135.924244
 21
-260.852857
 31
0.0
  0
ARC
  5
560
100
AcDbEntity
  8
2
370
   100
100
AcDbCircle
 10
147.224244
 20
-252.852857
 30
0.0
 40
1.0
100
AcDbArc
 50
0.0
 51
90.0
  0
ARC
  5
561
100
AcDbEntity
  8
2
370
   100
100
AcDbCircle
 10
141.224244
 20
-252.852857
 30
0.0
 40
1.0
100
AcDbArc
 50
90.0
 51
180.0
  0
ARC
  5
562
100
AcDbEntity
  8
2
370
   100
100
AcDbCircle
 10
141.224244
 20
-262.852857
 30
0.0
 40
1.0
100
AcDbArc
 50
180.0
 51
270.0
  0
ARC
  5
563
100
AcDbEntity
  8
2
370
   100
100
AcDbCircle
 10
147.224244
 20
-262.852857
 30
0.0
 40
1.0
100
AcDbArc
 50
270.0
 51
360.0
  0
LINE
  5
564
100
AcDbEntity
  8
2
370
   100
100
AcDbLine
 10
135.924244
 20
-251.852857
 30
0.0
 11
135.924244
 21
-254.852857
 31
0.0
  0
LINE
  5
565
100
AcDbEntity
  8
2
370
   100
100
AcDbLine
 10
152.524244
 20
-251.852857
 30
0.0
 11
152.524244
 21
-254.852857
 31
0.0
  0
LINE
  5
566
100
AcDbEntity
  8
2
370
   100
100
AcDbLine
 10
152.524244
 20
-260.852857
 30
0.0
 11
152.524244
 21
-263.852857
 31
0.0
  0
LINE
  5
567
100
AcDbEntity
  8
2
370
   100
100
AcDbLine
 10
135.924244
 20
-260.852857
 30
0.0
 11
135.924244
 21
-263.852857
 31
0.0
  0
LINE
  5
568
100
AcDbEntity
  8
2
370
   100
100
AcDbLine
 10
136.724244
 20
-255.252857
 30
0.0
 11
136.724244
 21
-254.852857
 31
0.0
  0
LINE
  5
569
100
AcDbEntity
  8
2
370
   100
100
AcDbLine
 10
151.724244
 20
-255.252857
 30
0.0
 11
151.724244
 21
-254.852857
 31
0.0
  0
LINE
  5
56A
100
AcDbEntity
  8
2
370
   100
100
AcDbLine
 10
139.224244
 20
-263.55344
 30
0.0
 11
139.224244
 21
-261.248219
 31
0.0
  0
LINE
  5
56B
100
AcDbEntity
  8
2
370
   100
100
AcDbLine
 10
139.224244
 20
-254.591671
 30
0.0
 11
139.224244
 21
-252.159466
 31
0.0
  0
LINE
  5
56C
100
AcDbEntity
  8
2
370
   100
100
AcDbLine
 10
149.224244
 20
-263.55344
 30
0.0
 11
149.224244
 21
-261.248219
 31
0.0
  0
LINE
  5
56D
100
AcDbEntity
  8
2
370
   100
100
AcDbLine
 10
149.224244
 20
-254.548992
 30
0.0
 11
149.224244
 21
-252.079945
 31
0.0
  0
LINE
  5
56E
100
AcDbEntity
  8
2
370
   100
100
AcDbLine
 10
135.424244
 20
-262.852857
 30
0.0
 11
135.424244
 21
-260.252857
 31
0.0
  0
LINE
  5
56F
100
AcDbEntity
  8
2
370
   100
100
AcDbLine
 10
135.424244
 20
-255.352857
 30
0.0
 11
135.424244
 21
-250.852857
 31
0.0
  0
LINE
  5
570
100
AcDbEntity
  8
2
370
   100
100
AcDbLine
 10
153.024244
 20
-262.852857
 30
0.0
 11
153.024244
 21
-260.252857
 31
0.0
  0
LINE
  5
571
100
AcDbEntity
  8
2
370
   100
100
AcDbLine
 10
153.024244
 20
-255.352857
 30
0.0
 11
153.024244
 21
-250.852857
 31
0.0
  0
ARC
  5
572
100
AcDbEntity
  8
2
370
   100
100
AcDbCircle
 10
136.424244
 20
-250.852857
 30
0.0
 40
1.0
100
AcDbArc
 50
90.0
 51
180.0
  0
ARC
  5
573
100
AcDbEntity
  8
2
370
   100
100
AcDbCircle
 10
152.024244
 20
-250.852857
 30
0.0
 40
1.0
100
AcDbArc
 50
0.0
 51
90.0
  0
ARC
  5
574
100
AcDbEntity
  8
2
370
   100
100
AcDbCircle
 10
134.424244
 20
-262.852857
 30
0.0
 40
1.0
100
AcDbArc
 50
270.0
 51
360.0
  0
ARC
  5
575
100
AcDbEntity
  8
2
370
   100
100
AcDbCircle
 10
154.024244
 20
-262.852857
 30
0.0
 40
1.0
100
AcDbArc
 50
180.0
 51
270.0
  0
LINE
  5
576
100
AcDbEntity
  8
2
370
   100
100
AcDbLine
 10
151.724244
 20
-250.552857
 30
0.0
 11
151.724244
 21
-251.852235
 31
0.0
  0
ARC
  5
577
100
AcDbEntity
  8
2
370
   100
100
AcDbCircle
 10
152.024244
 20
-250.852857
 30
0.0
 40
1.0
100
AcDbArc
 50
0.0
 51
90.0
  0
LINE
  5
578
100
AcDbEntity
  8
2
370
   100
100
AcDbLine
 10
151.724244
 20
-250.552857
 30
0.0
 11
151.224244
 21
-250.052857
 31
0.0
  0
LINE
  5
579
100
AcDbEntity
  8
2
370
   100
100
AcDbLine
 10
153.224244
 20
-258.252857
 30
0.0
 11
153.224244
 21
-260.052857
 31
0.0
  0
LINE
  5
57A
100
AcDbEntity
  8
2
370
   100
100
AcDbLine
 10
135.224244
 20
-258.252857
 30
0.0
 11
135.224244
 21
-260.052857
 31
0.0
  0
LINE
  5
57B
100
AcDbEntity
  8
2
370
   100
100
AcDbLine
 10
135.224244
 20
-264.252857
 30
0.0
 11
134.224244
 21
-265.252857
 31
0.0
  0
LINE
  5
57C
100
AcDbEntity
  8
2
370
   100
100
AcDbLine
 10
153.224244
 20
-264.252857
 30
0.0
 11
154.224244
 21
-265.252857
 31
0.0
  0
LINE
  5
57D
100
AcDbEntity
  8
2
370
   100
100
AcDbLine
 10
153.224244
 20
-264.252857
 30
0.0
 11
135.224244
 21
-264.252857
 31
0.0
  0
LINE
  5
57E
100
AcDbEntity
  8
2
370
   100
100
AcDbLine
 10
153.024244
 20
-258.052857
 30
0.0
 11
153.224244
 21
-258.252857
 31
0.0
  0
LINE
  5
57F
100
AcDbEntity
  8
2
370
   100
100
AcDbLine
 10
153.224244
 20
-260.052857
 30
0.0
 11
153.024244
 21
-260.252857
 31
0.0
  0
LINE
  5
580
100
AcDbEntity
  8
2
370
   100
100
AcDbLine
 10
135.424244
 20
-258.052857
 30
0.0
 11
135.224244
 21
-258.252857
 31
0.0
  0
LINE
  5
581
100
AcDbEntity
  8
2
370
   100
100
AcDbLine
 10
135.224244
 20
-260.052857
 30
0.0
 11
135.424244
 21
-260.252857
 31
0.0
  0
LINE
  5
582
100
AcDbEntity
  8
2
370
   100
100
AcDbLine
 10
134.224244
 20
-265.252857
 30
0.0
 11
154.224244
 21
-265.252857
 31
0.0
  0
LINE
  5
583
100
AcDbEntity
  8
2
370
   100
100
AcDbLine
 10
136.724244
 20
-264.252857
 30
0.0
 11
136.724244
 21
-263.852857
 31
0.0
  0
LINE
  5
584
100
AcDbEntity
  8
2
370
   100
100
AcDbLine
 10
136.724244
 20
-260.852857
 30
0.0
 11
136.724244
 21
-260.252857
 31
0.0
  0
LINE
  5
585
100
AcDbEntity
  8
2
370
   100
100
AcDbLine
 10
151.724244
 20
-264.252857
 30
0.0
 11
151.724244
 21
-263.852857
 31
0.0
  0
LINE
  5
586
100
AcDbEntity
  8
2
370
   100
100
AcDbLine
 10
151.724244
 20
-260.852857
 30
0.0
 11
151.724244
 21
-260.252857
 31
0.0
  0
LINE
  5
587
100
AcDbEntity
  8
2
370
   100
100
AcDbLine
 10
153.024244
 20
-260.252857
 30
0.0
 11
148.224244
 21
-260.252857
 31
0.0
  0
LINE
  5
588
100
AcDbEntity
  8
2
370
   100
100
AcDbLine
 10
140.224244
 20
-260.252857
 30
0.0
 11
135.424244
 21
-260.252857
 31
0.0
  0
LINE
  5
589
100
AcDbEntity
  8
2
370
   100
100
AcDbLine
 10
153.224244
 20
-260.052857
 30
0.0
 11
148.224244
 21
-260.052857
 31
0.0
  0
LINE
  5
58A
100
AcDbEntity
  8
2
370
   100
100
AcDbLine
 10
140.224244
 20
-260.052857
 30
0.0
 11
135.224244
 21
-260.052857
 31
0.0
  0
LINE
  5
58B
100
AcDbEntity
  8
2
370
   100
100
AcDbLine
 10
153.224244
 20
-258.252857
 30
0.0
 11
148.224244
 21
-258.252857
 31
0.0
  0
LINE
  5
58C
100
AcDbEntity
  8
2
370
   100
100
AcDbLine
 10
140.224244
 20
-258.252857
 30
0.0
 11
135.224244
 21
-258.252857
 31
0.0
  0
LINE
  5
58D
100
AcDbEntity
  8
2
370
   100
100
AcDbLine
 10
153.024244
 20
-258.052857
 30
0.0
 11
148.224244
 21
-258.052857
 31
0.0
  0
LINE
  5
58E
100
AcDbEntity
  8
2
370
   100
100
AcDbLine
 10
140.224244
 20
-258.052857
 30
0.0
 11
135.424244
 21
-258.052857
 31
0.0
  0
LINE
  5
58F
100
AcDbEntity
  8
2
370
   100
100
AcDbLine
 10
150.724104
 20
-263.852235
 30
0.0
 11
150.724104
 21
-260.852235
 31
0.0
  0
LINE
  5
590
100
AcDbEntity
  8
2
370
   100
100
AcDbLine
 10
137.724383
 20
-254.852857
 30
0.0
 11
137.724383
 21
-251.852857
 31
0.0
  0
LINE
  5
591
100
AcDbEntity
  8
2
370
   100
100
AcDbLine
 10
150.724104
 20
-254.852857
 30
0.0
 11
150.724104
 21
-251.852857
 31
0.0
  0
LINE
  5
592
100
AcDbEntity
  8
2
370
   100
100
AcDbLine
 10
139.994628
 20
-245.55354
 30
0.0
 11
139.994628
 21
-244.30354
 31
0.0
  0
LINE
  5
593
100
AcDbEntity
  8
2
370
   100
100
AcDbLine
 10
139.994628
 20
-234.30354
 30
0.0
 11
139.994628
 21
-233.05354
 31
0.0
  0
LINE
  5
594
100
AcDbEntity
  8
2
370
   100
100
AcDbLine
 10
139.287522
 20
-245.55354
 30
0.0
 11
139.287522
 21
-244.30354
 31
0.0
  0
LINE
  5
595
100
AcDbEntity
  8
2
370
   100
100
AcDbLine
 10
139.287522
 20
-234.30354
 30
0.0
 11
139.287522
 21
-233.05354
 31
0.0
  0
LINE
  5
596
100
AcDbEntity
  8
2
370
   100
100
AcDbLine
 10
143.723651
 20
-245.55354
 30
0.0
 11
143.723651
 21
-244.30354
 31
0.0
  0
LINE
  5
597
100
AcDbEntity
  8
2
370
   100
100
AcDbLine
 10
143.723651
 20
-234.30354
 30
0.0
 11
143.723651
 21
-233.05354
 31
0.0
  0
LINE
  5
598
100
AcDbEntity
  8
2
370
   100
100
AcDbLine
 10
144.723651
 20
-245.55354
 30
0.0
 11
144.723651
 21
-244.30354
 31
0.0
  0
LINE
  5
599
100
AcDbEntity
  8
2
370
   100
100
AcDbLine
 10
144.723651
 20
-234.30354
 30
0.0
 11
144.723651
 21
-233.05354
 31
0.0
  0
LINE
  5
59A
100
AcDbEntity
  8
2
370
   100
100
AcDbLine
 10
148.452673
 20
-245.55354
 30
0.0
 11
148.452673
 21
-244.30354
 31
0.0
  0
LINE
  5
59B
100
AcDbEntity
  8
2
370
   100
100
AcDbLine
 10
148.452673
 20
-234.30354
 30
0.0
 11
148.452673
 21
-233.05354
 31
0.0
  0
LINE
  5
59C
100
AcDbEntity
  8
2
370
   100
100
AcDbLine
 10
149.15978
 20
-245.55354
 30
0.0
 11
149.15978
 21
-244.30354
 31
0.0
  0
LINE
  5
59D
100
AcDbEntity
  8
2
370
   100
100
AcDbLine
 10
149.15978
 20
-234.30354
 30
0.0
 11
149.15978
 21
-233.05354
 31
0.0
  0
LINE
  5
59E
100
AcDbEntity
  8
2
370
   100
100
AcDbLine
 10
154.224244
 20
-265.252857
 30
0.0
 11
154.224244
 21
-274.052857
 31
0.0
  0
LINE
  5
59F
100
AcDbEntity
  8
2
370
   100
100
AcDbLine
 10
134.224244
 20
-265.252857
 30
0.0
 11
134.224244
 21
-274.052857
 31
0.0
  0
LINE
  5
5A0
100
AcDbEntity
  8
2
370
   100
100
AcDbLine
 10
156.224244
 20
-274.052857
 30
0.0
 11
132.224244
 21
-274.052857
 31
0.0
  0
LINE
  5
5A1
100
AcDbEntity
  8
2
370
   100
100
AcDbLine
 10
157.224244
 20
-275.052857
 30
0.0
 11
157.224244
 21
-284.052857
 31
0.0
  0
LINE
  5
5A2
100
AcDbEntity
  8
2
370
   100
100
AcDbLine
 10
156.224244
 20
-274.052857
 30
0.0
 11
157.224244
 21
-275.052857
 31
0.0
  0
LINE
  5
5A3
100
AcDbEntity
  8
2
370
   100
100
AcDbLine
 10
131.224244
 20
-275.052857
 30
0.0
 11
131.224244
 21
-284.052857
 31
0.0
  0
LINE
  5
5A4
100
AcDbEntity
  8
2
370
   100
100
AcDbLine
 10
132.224244
 20
-274.052857
 30
0.0
 11
131.224244
 21
-275.052857
 31
0.0
  0
LINE
  5
5A5
100
AcDbEntity
  8
2
370
   100
100
AcDbLine
 10
137.295854
 20
-284.052857
 30
0.0
 11
137.295854
 21
-275.052857
 31
0.0
  0
LINE
  5
5A6
100
AcDbEntity
  8
2
370
   100
100
AcDbLine
 10
151.152634
 20
-284.052857
 30
0.0
 11
151.152634
 21
-275.052857
 31
0.0
  0
ARC
  5
5A7
100
AcDbEntity
  8
2
370
   100
100
AcDbCircle
 10
144.224244
 20
-298.554154
 30
0.0
 40
24.501296
100
AcDbArc
 50
73.574016
 51
106.425984
  0
ARC
  5
5A8
100
AcDbEntity
  8
2
370
   100
100
AcDbCircle
 10
154.188439
 20
-279.160913
 30
0.0
 40
5.108056
100
AcDbArc
 50
53.536034
 51
126.463966
  0
ARC
  5
5A9
100
AcDbEntity
  8
2
370
   100
100
AcDbCircle
 10
134.260049
 20
-279.160913
 30
0.0
 40
5.108056
100
AcDbArc
 50
53.536034
 51
126.463966
  0
LINE
  5
5AA
100
AcDbEntity
  8
2
370
   100
100
AcDbLine
 10
157.224244
 20
-275.052857
 30
0.0
 11
157.224244
 21
-283.052857
 31
0.0
  0
LINE
  5
5AB
100
AcDbEntity
  8
2
370
   100
100
AcDbLine
 10
156.224244
 20
-285.052857
 30
0.0
 11
157.224244
 21
-284.052857
 31
0.0
  0
LINE
  5
5AC
100
AcDbEntity
  8
2
370
   100
100
AcDbLine
 10
131.224244
 20
-275.052857
 30
0.0
 11
131.224244
 21
-283.052857
 31
0.0
  0
LINE
  5
5AD
100
AcDbEntity
  8
2
370
   100
100
AcDbLine
 10
132.224244
 20
-285.052857
 30
0.0
 11
131.224244
 21
-284.052857
 31
0.0
  0
LINE
  5
5AE
100
AcDbEntity
  8
2
370
   100
100
AcDbLine
 10
156.224244
 20
-285.052857
 30
0.0
 11
132.224244
 21
-285.052857
 31
0.0
  0
LINE
  5
5AF
100
AcDbEntity
  8
2
370
   100
100
AcDbLine
 10
137.295854
 20
-283.052857
 30
0.0
 11
137.295854
 21
-275.052857
 31
0.0
  0
LINE
  5
5B0
100
AcDbEntity
  8
2
370
   100
100
AcDbLine
 10
151.152634
 20
-283.052857
 30
0.0
 11
151.152634
 21
-275.052857
 31
0.0
  0
ARC
  5
5B1
100
AcDbEntity
  8
2
370
   100
100
AcDbCircle
 10
144.224244
 20
-260.551561
 30
0.0
 40
24.501296
100
AcDbArc
 50
253.574016
 51
286.425984
  0
ARC
  5
5B2
100
AcDbEntity
  8
2
370
   100
100
AcDbCircle
 10
134.260049
 20
-279.944802
 30
0.0
 40
5.108056
100
AcDbArc
 50
233.536034
 51
306.463966
  0
ARC
  5
5B3
100
AcDbEntity
  8
2
370
   100
100
AcDbCircle
 10
154.188439
 20
-279.944802
 30
0.0
 40
5.108056
100
AcDbArc
 50
233.536034
 51
306.463966
  0
LINE
  5
5B4
100
AcDbEntity
  8
2
370
   100
100
AcDbLine
 10
211.357388
 20
-218.644944
 30
0.0
 11
223.357388
 21
-218.644944
 31
0.0
  0
LINE
  5
5B5
100
AcDbEntity
  8
2
370
   100
100
AcDbLine
 10
211.357388
 20
-224.544944
 30
0.0
 11
223.357388
 21
-224.544944
 31
0.0
  0
LINE
  5
5B6
100
AcDbEntity
  8
2
370
   100
100
AcDbLine
 10
211.357388
 20
-224.544944
 30
0.0
 11
211.357388
 21
-218.644944
 31
0.0
  0
LINE
  5
5B7
100
AcDbEntity
  8
2
370
   100
100
AcDbLine
 10
223.357388
 20
-224.544944
 30
0.0
 11
223.357388
 21
-218.644944
 31
0.0
  0
LINE
  5
5B8
100
AcDbEntity
  8
2
370
   100
100
AcDbLine
 10
213.793206
 20
-224.544944
 30
0.0
 11
213.793206
 21
-218.644944
 31
0.0
  0
LINE
  5
5B9
100
AcDbEntity
  8
2
370
   100
100
AcDbLine
 10
214.959472
 20
-224.544944
 30
0.0
 11
214.959472
 21
-218.644944
 31
0.0
  0
LINE
  5
5BA
100
AcDbEntity
  8
2
370
   100
100
AcDbLine
 10
219.755304
 20
-224.544944
 30
0.0
 11
219.755304
 21
-218.644944
 31
0.0
  0
LINE
  5
5BB
100
AcDbEntity
  8
2
370
   100
100
AcDbLine
 10
220.92157
 20
-224.544944
 30
0.0
 11
220.92157
 21
-218.644944
 31
0.0
  0
LINE
  5
5BC
100
AcDbEntity
  8
2
370
   100
100
AcDbLine
 10
223.157388
 20
-224.544944
 30
0.0
 11
211.557388
 21
-224.544944
 31
0.0
  0
LINE
  5
5BD
100
AcDbEntity
  8
2
370
   100
100
AcDbLine
 10
210.857388
 20
-241.544944
 30
0.0
 11
223.857388
 21
-241.544944
 31
0.0
  0
LINE
  5
5BE
100
AcDbEntity
  8
2
370
   100
100
AcDbLine
 10
210.857388
 20
-241.544944
 30
0.0
 11
210.857388
 21
-229.044944
 31
0.0
  0
LINE
  5
5BF
100
AcDbEntity
  8
2
370
   100
100
AcDbLine
 10
223.857388
 20
-241.544944
 30
0.0
 11
223.857388
 21
-229.044944
 31
0.0
  0
LINE
  5
5C0
100
AcDbEntity
  8
2
370
   100
100
AcDbLine
 10
213.483058
 20
-227.544944
 30
0.0
 11
213.483058
 21
-225.044944
 31
0.0
  0
LINE
  5
5C1
100
AcDbEntity
  8
2
370
   100
100
AcDbLine
 10
212.775951
 20
-227.544944
 30
0.0
 11
212.775951
 21
-225.044944
 31
0.0
  0
LINE
  5
5C2
100
AcDbEntity
  8
2
370
   100
100
AcDbLine
 10
211.378258
 20
-227.544944
 30
0.0
 11
211.378258
 21
-225.044944
 31
0.0
  0
LINE
  5
5C3
100
AcDbEntity
  8
2
370
   100
100
AcDbLine
 10
211.357388
 20
-227.544944
 30
0.0
 11
211.357388
 21
-224.744944
 31
0.0
  0
LINE
  5
5C4
100
AcDbEntity
  8
2
370
   100
100
AcDbLine
 10
216.857388
 20
-227.544944
 30
0.0
 11
216.857388
 21
-225.044944
 31
0.0
  0
LINE
  5
5C5
100
AcDbEntity
  8
2
370
   100
100
AcDbLine
 10
217.857388
 20
-227.544944
 30
0.0
 11
217.857388
 21
-225.044944
 31
0.0
  0
LINE
  5
5C6
100
AcDbEntity
  8
2
370
   100
100
AcDbLine
 10
221.231718
 20
-227.544944
 30
0.0
 11
221.231718
 21
-225.044944
 31
0.0
  0
LINE
  5
5C7
100
AcDbEntity
  8
2
370
   100
100
AcDbLine
 10
221.938825
 20
-227.544944
 30
0.0
 11
221.938825
 21
-225.044944
 31
0.0
  0
LINE
  5
5C8
100
AcDbEntity
  8
2
370
   100
100
AcDbLine
 10
223.357388
 20
-227.544944
 30
0.0
 11
223.357388
 21
-224.744944
 31
0.0
  0
LINE
  5
5C9
100
AcDbEntity
  8
2
370
   100
100
AcDbLine
 10
223.336519
 20
-227.544944
 30
0.0
 11
223.336519
 21
-225.044944
 31
0.0
  0
LINE
  5
5CA
100
AcDbEntity
  8
2
370
   100
100
AcDbLine
 10
212.775951
 20
-225.044944
 30
0.0
 11
211.357388
 21
-225.044944
 31
0.0
  0
LINE
  5
5CB
100
AcDbEntity
  8
2
370
   100
100
AcDbLine
 10
216.857388
 20
-225.044944
 30
0.0
 11
213.483058
 21
-225.044944
 31
0.0
  0
LINE
  5
5CC
100
AcDbEntity
  8
2
370
   100
100
AcDbLine
 10
223.357388
 20
-225.044944
 30
0.0
 11
221.938825
 21
-225.044944
 31
0.0
  0
LINE
  5
5CD
100
AcDbEntity
  8
2
370
   100
100
AcDbLine
 10
221.231718
 20
-225.044944
 30
0.0
 11
217.857388
 21
-225.044944
 31
0.0
  0
LINE
  5
5CE
100
AcDbEntity
  8
2
370
   100
100
AcDbLine
 10
212.775951
 20
-227.544944
 30
0.0
 11
211.357388
 21
-227.544944
 31
0.0
  0
LINE
  5
5CF
100
AcDbEntity
  8
2
370
   100
100
AcDbLine
 10
216.857388
 20
-227.544944
 30
0.0
 11
213.483058
 21
-227.544944
 31
0.0
  0
LINE
  5
5D0
100
AcDbEntity
  8
2
370
   100
100
AcDbLine
 10
223.357388
 20
-227.544944
 30
0.0
 11
221.938825
 21
-227.544944
 31
0.0
  0
LINE
  5
5D1
100
AcDbEntity
  8
2
370
   100
100
AcDbLine
 10
221.231718
 20
-227.544944
 30
0.0
 11
217.857388
 21
-227.544944
 31
0.0
  0
ARC
  5
5D2
100
AcDbEntity
  8
2
370
   100
100
AcDbCircle
 10
223.157388
 20
-224.744944
 30
0.0
 40
0.2
100
AcDbArc
 50
0.0
 51
90.0
  0
ARC
  5
5D3
100
AcDbEntity
  8
2
370
   100
100
AcDbCircle
 10
211.557388
 20
-224.744944
 30
0.0
 40
0.2
100
AcDbArc
 50
90.0
 51
180.0
  0
ARC
  5
5D4
100
AcDbEntity
  8
2
370
   100
100
AcDbCircle
 10
213.357388
 20
-229.044944
 30
0.0
 40
2.5
100
AcDbArc
 50
143.130102
 51
180.0
  0
ARC
  5
5D5
100
AcDbEntity
  8
2
370
   100
100
AcDbCircle
 10
221.357388
 20
-229.044944
 30
0.0
 40
2.5
100
AcDbArc
 50
0.0
 51
36.869898
  0
LINE
  5
5D6
100
AcDbEntity
  8
2
370
   100
100
AcDbLine
 10
210.876648
 20
-241.544944
 30
0.0
 11
210.876648
 21
-229.044944
 31
0.0
  0
LINE
  5
5D7
100
AcDbEntity
  8
2
370
   100
100
AcDbLine
 10
212.421259
 20
-241.544944
 30
0.0
 11
212.421259
 21
-229.044944
 31
0.0
  0
LINE
  5
5D8
100
AcDbEntity
  8
2
370
   100
100
AcDbLine
 10
213.128366
 20
-241.544944
 30
0.0
 11
213.128366
 21
-229.044944
 31
0.0
  0
LINE
  5
5D9
100
AcDbEntity
  8
2
370
   100
100
AcDbLine
 10
216.857388
 20
-241.544944
 30
0.0
 11
216.857388
 21
-229.044944
 31
0.0
  0
LINE
  5
5DA
100
AcDbEntity
  8
2
370
   100
100
AcDbLine
 10
217.857388
 20
-241.544944
 30
0.0
 11
217.857388
 21
-229.044944
 31
0.0
  0
LINE
  5
5DB
100
AcDbEntity
  8
2
370
   100
100
AcDbLine
 10
221.586411
 20
-241.544944
 30
0.0
 11
221.586411
 21
-229.044944
 31
0.0
  0
LINE
  5
5DC
100
AcDbEntity
  8
2
370
   100
100
AcDbLine
 10
222.293517
 20
-241.544944
 30
0.0
 11
222.293517
 21
-229.044944
 31
0.0
  0
LINE
  5
5DD
100
AcDbEntity
  8
2
370
   100
100
AcDbLine
 10
223.838129
 20
-241.544944
 30
0.0
 11
223.838129
 21
-229.044944
 31
0.0
  0
LINE
  5
5DE
100
AcDbEntity
  8
2
370
   100
100
AcDbLine
 10
221.423252
 20
-253.761303
 30
0.0
 11
213.291524
 21
-245.629575
 31
0.0
  0
LINE
  5
5DF
100
AcDbEntity
  8
2
370
   100
100
AcDbLine
 10
221.423252
 20
-245.629575
 30
0.0
 11
213.291524
 21
-253.761303
 31
0.0
  0
LINE
  5
5E0
100
AcDbEntity
  8
2
370
   100
100
AcDbLine
 10
220.654186
 20
-254.40645
 30
0.0
 11
212.646377
 21
-246.398641
 31
0.0
  0
LINE
  5
5E1
100
AcDbEntity
  8
2
370
   100
100
AcDbLine
 10
219.755162
 20
-254.92164
 30
0.0
 11
212.131187
 21
-247.297664
 31
0.0
  0
LINE
  5
5E2
100
AcDbEntity
  8
2
370
   100
100
AcDbLine
 10
218.704677
 20
-255.285368
 30
0.0
 11
211.767459
 21
-248.34815
 31
0.0
  0
LINE
  5
5E3
100
AcDbEntity
  8
2
370
   100
100
AcDbLine
 10
217.449791
 20
-255.444696
 30
0.0
 11
211.608131
 21
-249.603035
 31
0.0
  0
LINE
  5
5E4
100
AcDbEntity
  8
2
370
   100
100
AcDbLine
 10
215.829652
 20
-255.23877
 30
0.0
 11
211.814057
 21
-251.223175
 31
0.0
  0
LINE
  5
5E5
100
AcDbEntity
  8
2
370
   100
100
AcDbLine
 10
222.068399
 20
-252.992236
 30
0.0
 11
214.060591
 21
-244.984427
 31
0.0
  0
LINE
  5
5E6
100
AcDbEntity
  8
2
370
   100
100
AcDbLine
 10
222.583589
 20
-252.093213
 30
0.0
 11
214.959614
 21
-244.469237
 31
0.0
  0
LINE
  5
5E7
100
AcDbEntity
  8
2
370
   100
100
AcDbLine
 10
222.947318
 20
-251.042727
 30
0.0
 11
216.010099
 21
-244.105509
 31
0.0
  0
LINE
  5
5E8
100
AcDbEntity
  8
2
370
   100
100
AcDbLine
 10
223.106646
 20
-249.787842
 30
0.0
 11
217.264985
 21
-243.946181
 31
0.0
  0
LINE
  5
5E9
100
AcDbEntity
  8
2
370
   100
100
AcDbLine
 10
222.900719
 20
-248.167702
 30
0.0
 11
218.885125
 21
-244.152107
 31
0.0
  0
LINE
  5
5EA
100
AcDbEntity
  8
2
370
   100
100
AcDbLine
 10
220.654186
 20
-244.984427
 30
0.0
 11
212.646377
 21
-252.992236
 31
0.0
  0
LINE
  5
5EB
100
AcDbEntity
  8
2
370
   100
100
AcDbLine
 10
219.755162
 20
-244.469237
 30
0.0
 11
212.131187
 21
-252.093213
 31
0.0
  0
LINE
  5
5EC
100
AcDbEntity
  8
2
370
   100
100
AcDbLine
 10
218.704677
 20
-244.105509
 30
0.0
 11
211.767459
 21
-251.042727
 31
0.0
  0
LINE
  5
5ED
100
AcDbEntity
  8
2
370
   100
100
AcDbLine
 10
217.449791
 20
-243.946181
 30
0.0
 11
211.608131
 21
-249.787842
 31
0.0
  0
LINE
  5
5EE
100
AcDbEntity
  8
2
370
   100
100
AcDbLine
 10
215.829652
 20
-244.152107
 30
0.0
 11
211.814057
 21
-248.167702
 31
0.0
  0
LINE
  5
5EF
100
AcDbEntity
  8
2
370
   100
100
AcDbLine
 10
222.068399
 20
-246.398641
 30
0.0
 11
214.060591
 21
-254.40645
 31
0.0
  0
LINE
  5
5F0
100
AcDbEntity
  8
2
370
   100
100
AcDbLine
 10
222.583589
 20
-247.297664
 30
0.0
 11
214.959614
 21
-254.92164
 31
0.0
  0
LINE
  5
5F1
100
AcDbEntity
  8
2
370
   100
100
AcDbLine
 10
222.947318
 20
-248.34815
 30
0.0
 11
216.010099
 21
-255.285368
 31
0.0
  0
LINE
  5
5F2
100
AcDbEntity
  8
2
370
   100
100
AcDbLine
 10
223.106646
 20
-249.603035
 30
0.0
 11
217.264985
 21
-255.444696
 31
0.0
  0
LINE
  5
5F3
100
AcDbEntity
  8
2
370
   100
100
AcDbLine
 10
222.900719
 20
-251.223175
 30
0.0
 11
218.885125
 21
-255.23877
 31
0.0
  0
LINE
  5
5F4
100
AcDbEntity
  8
2
370
   100
100
AcDbLine
 10
223.107388
 20
-258.268051
 30
0.0
 11
223.107388
 21
-241.544944
 31
0.0
  0
LINE
  5
5F5
100
AcDbEntity
  8
2
370
   100
100
AcDbLine
 10
211.607388
 20
-241.544944
 30
0.0
 11
211.607388
 21
-258.326766
 31
0.0
  0
ARC
  5
5F6
100
AcDbEntity
  8
2
370
   100
100
AcDbCircle
 10
214.482388
 20
-254.434191
 30
0.0
 40
4.791667
100
AcDbArc
 50
233.130102
 51
306.869898
  0
ARC
  5
5F7
100
AcDbEntity
  8
2
370
   100
100
AcDbCircle
 10
220.232388
 20
-262.100858
 30
0.0
 40
4.791667
100
AcDbArc
 50
53.130102
 51
126.869898
  0
ARC
  5
5F8
100
AcDbEntity
  8
2
370
   100
100
AcDbCircle
 10
214.482388
 20
-262.100858
 30
0.0
 40
4.791667
100
AcDbArc
 50
53.130102
 51
126.869898
  0
POINT
  5
5F9
100
AcDbEntity
  8
2
370
    50
100
AcDbPoint
 10
217.357388
 20
-218.644944
 30
0.0
  0
LINE
  5
5FA
100
AcDbEntity
  8
2
370
   100
  6
CENTER
100
AcDbLine
 10
144.223651
 20
-203.708885
 30
0.0
 11
144.223651
 21
-184.421284
 31
0.0
  0
LINE
  5
5FB
100
AcDbEntity
  8
2
370
   100
  6
CENTER
100
AcDbLine
 10
144.223651
 20
-184.421284
 30
0.0
 11
217.357388
 21
-272.879414
 31
0.0
  0
LINE
  5
5FC
100
AcDbEntity
  8
2
370
   100
  6
CENTER
100
AcDbLine
 10
-300.127218
 20
-159.933037
 30
0.0
 11
-300.127218
 21
-305.157513
 31
0.0
  0
LINE
  5
5FD
100
AcDbEntity
  8
2
370
   100
100
AcDbLine
 10
-293.179667
 20
-154.344683
 30
0.0
 11
-293.179667
 21
-157.476467
 31
0.0
  0
LINE
  5
5FE
100
AcDbEntity
  8
2
370
   100
  6
PHANTOM
100
AcDbLine
 10
-293.179667
 20
-157.476467
 30
0.0
 11
-293.179667
 21
-165.323097
 31
0.0
  0
LINE
  5
5FF
100
AcDbEntity
  8
2
370
   100
  6
PHANTOM
100
AcDbLine
 10
-307.179667
 20
-159.866844
 30
0.0
 11
-307.179667
 21
-165.323097
 31
0.0
  0
ARC
  5
600
100
AcDbEntity
  8
2
370
   100
100
AcDbCircle
 10
-303.653442
 20
-160.691788
 30
0.0
 40
5.877041
100
AcDbArc
 50
233.130102
 51
306.869898
  0
ARC
  5
601
100
AcDbEntity
  8
2
370
   100
100
AcDbCircle
 10
-296.600993
 20
-170.095054
 30
0.0
 40
5.877041
100
AcDbArc
 50
53.130102
 51
126.869898
  0
ARC
  5
602
100
AcDbEntity
  8
2
370
   100
100
AcDbCircle
 10
-303.653442
 20
-170.095054
 30
0.0
 40
5.877041
100
AcDbArc
 50
53.130102
 51
126.869898
  0
ARC
  5
603
100
AcDbEntity
  8
2
370
   100
100
AcDbCircle
 10
201.857388
 20
-183.002984
 30
0.0
 40
5.833333
100
AcDbArc
 50
233.130102
 51
306.869898
  0
ARC
  5
604
100
AcDbEntity
  8
2
370
   100
100
AcDbCircle
 10
208.857388
 20
-192.336318
 30
0.0
 40
5.833333
100
AcDbArc
 50
53.130102
 51
126.869898
  0
ARC
  5
605
100
AcDbEntity
  8
2
370
   100
100
AcDbCircle
 10
201.857388
 20
-192.336318
 30
0.0
 40
5.833333
100
AcDbArc
 50
53.130102
 51
126.869898
  0
ARC
  5
606
100
AcDbEntity
  8
2
370
   100
100
AcDbCircle
 10
278.235142
 20
-235.071382
 30
0.0
 40
5.833333
100
AcDbArc
 50
233.130102
 51
306.869898
  0
ARC
  5
607
100
AcDbEntity
  8
2
370
   100
100
AcDbCircle
 10
285.235142
 20
-244.404715
 30
0.0
 40
5.833333
100
AcDbArc
 50
53.130102
 51
126.869898
  0
ARC
  5
608
100
AcDbEntity
  8
2
370
   100
100
AcDbCircle
 10
278.235142
 20
-244.404715
 30
0.0
 40
5.833333
100
AcDbArc
 50
53.130102
 51
126.869898
  0
LINE
  5
609
100
AcDbEntity
  8
2
370
   100
100
AcDbLine
 10
175.893689
 20
-61.337767
 30
0.0
 11
54.674188
 21
30.007679
 31
0.0
  0
LINE
  5
60A
100
AcDbEntity
  8
2
370
   100
100
AcDbLine
 10
74.435673
 20
57.062876
 30
0.0
 11
54.575778
 21
30.707904
 31
0.0
  0
LINE
  5
60B
100
AcDbEntity
  8
2
370
   100
100
AcDbLine
 10
74.435673
 20
57.062876
 30
0.0
 11
75.135899
 21
57.161286
 31
0.0
  0
LINE
  5
60C
100
AcDbEntity
  8
2
370
   100
100
AcDbLine
 10
54.575778
 20
30.707904
 30
0.0
 11
54.674188
 21
30.007679
 31
0.0
  0
LINE
  5
60D
100
AcDbEntity
  8
2
370
   100
100
AcDbLine
 10
175.848313
 20
-18.730962
 30
0.0
 11
75.135899
 21
57.161286
 31
0.0
  0
ARC
  5
60E
100
AcDbEntity
  8
2
370
   100
100
AcDbCircle
 10
178.857388
 20
-14.737784
 30
0.0
 40
5.0
100
AcDbArc
 50
233.0
 51
360.0
  0
ARC
  5
60F
100
AcDbEntity
  8
2
370
   100
100
AcDbCircle
 10
163.857388
 20
-77.310477
 30
0.0
 40
20.0
100
AcDbArc
 50
0.0
 51
53.0
  0
LINE
  5
610
100
AcDbEntity
  8
2
370
   100
100
AcDbLine
 10
75.135899
 20
57.161286
 30
0.0
 11
54.674188
 21
30.007679
 31
0.0
  0
ARC
  5
611
100
AcDbEntity
  8
2
370
   100
100
AcDbCircle
 10
184.357569
 20
30.555056
 30
0.0
 40
0.5
100
AcDbArc
 50
180.0
 51
270.0
  0
ARC
  5
612
100
AcDbEntity
  8
2
370
   100
100
AcDbCircle
 10
158.317163
 20
48.555056
 30
0.0
 40
26.025225
100
AcDbArc
 50
348.923393
 51
11.076607
  0
LINE
  5
613
100
AcDbEntity
  8
2
370
   100
100
AcDbLine
 10
183.857569
 20
30.555056
 30
0.0
 11
183.857569
 21
48.555056
 31
0.0
  0
LINE
  5
614
100
AcDbEntity
  8
2
370
   100
100
AcDbLine
 10
183.857569
 20
53.555056
 30
0.0
 11
183.857569
 21
55.469015
 31
0.0
  0
LINE
  5
615
100
AcDbEntity
  8
2
370
   100
100
AcDbLine
 10
-275.127218
 20
30.055164
 30
0.0
 11
-325.127218
 21
30.055164
 31
0.0
  0
LINE
  5
616
100
AcDbEntity
  8
2
370
   100
100
AcDbLine
 10
-274.127218
 20
54.211783
 30
0.0
 11
-274.127218
 21
31.055164
 31
0.0
  0
LINE
  5
617
100
AcDbEntity
  8
2
370
   100
100
AcDbLine
 10
-326.127218
 20
54.211783
 30
0.0
 11
-326.127218
 21
31.055164
 31
0.0
  0
ARC
  5
618
100
AcDbEntity
  8
2
370
   100
100
AcDbCircle
 10
-275.127218
 20
31.055164
 30
0.0
 40
1.0
100
AcDbArc
 50
270.0
 51
360.0
  0
ARC
  5
619
100
AcDbEntity
  8
2
370
   100
100
AcDbCircle
 10
-325.127218
 20
31.055164
 30
0.0
 40
1.0
100
AcDbArc
 50
180.0
 51
270.0
  0
POINT
  5
61A
100
AcDbEntity
  8
2
370
    50
100
AcDbPoint
 10
-300.127218
 20
48.555164
 30
0.0
  0
CIRCLE
  5
61B
100
AcDbEntity
  8
2
370
   100
100
AcDbCircle
 10
-300.127218
 20
48.555164
 30
0.0
 40
5.0
  0
LINE
  5
61C
100
AcDbEntity
  8
2
370
   100
100
AcDbLine
 10
-277.117218
 20
46.785164
 30
0.0
 11
-279.896633
 21
52.054808
 31
0.0
  0
ARC
  5
61D
100
AcDbEntity
  8
2
370
   100
100
AcDbCircle
 10
-229.814673
 20
78.469984
 30
0.0
 40
56.621235
100
AcDbArc
 50
202.346672
 51
207.80891
  0
ARC
  5
61E
100
AcDbEntity
  8
2
370
   100
100
AcDbCircle
 10
-370.439762
 20
78.469984
 30
0.0
 40
56.621235
100
AcDbArc
 50
332.19109
 51
337.653328
  0
LINE
  5
61F
100
AcDbEntity
  8
2
370
   100
100
AcDbLine
 10
-323.137218
 20
46.785164
 30
0.0
 11
-320.357802
 21
52.054808
 31
0.0
  0
LINE
  5
620
100
AcDbEntity
  8
2
370
   100
  6
CENTER
100
AcDbLine
 10
-292.127218
 20
48.555164
 30
0.0
 11
-308.127218
 21
48.555164
 31
0.0
  0
LINE
  5
621
100
AcDbEntity
  8
2
370
   100
100
AcDbLine
 10
209.857388
 20
30.055056
 30
0.0
 11
235.857388
 21
42.179055
 31
0.0
  0
LINE
  5
622
100
AcDbEntity
  8
2
370
   100
100
AcDbLine
 10
209.857388
 20
30.055056
 30
0.0
 11
184.357569
 21
30.055056
 31
0.0
  0
LINE
  5
623
100
AcDbEntity
  8
2
370
   100
100
AcDbLine
 10
183.857569
 20
30.555056
 30
0.0
 11
183.857569
 21
43.555056
 31
0.0
  0
LINE
  5
624
100
AcDbEntity
  8
2
370
   100
100
AcDbLine
 10
183.857569
 20
48.555056
 30
0.0
 11
183.857569
 21
62.276421
 31
0.0
  0
ARC
  5
625
100
AcDbEntity
  8
2
370
   100
100
AcDbCircle
 10
81.688572
 20
-160.114828
 30
0.0
 40
252.44
100
AcDbArc
 50
65.240564
 51
81.76248
  0
ARC
  5
626
100
AcDbEntity
  8
2
370
   100
100
AcDbCircle
 10
120.968241
 20
111.208502
 30
0.0
 40
21.711859
100
AcDbArc
 50
241.97411
 51
261.76248
  0
ARC
  5
627
100
AcDbEntity
  8
2
370
   100
100
AcDbCircle
 10
228.236176
 20
98.974817
 30
0.0
 40
48.528347
100
AcDbArc
 50
225.293014
 51
277.643028
  0
ARC
  5
628
100
AcDbEntity
  8
2
370
   100
100
AcDbCircle
 10
177.578414
 20
47.796253
 30
0.0
 40
23.481751
100
AcDbArc
 50
45.293014
 51
65.240564
  0
ARC
  5
629
100
AcDbEntity
  8
2
370
   100
100
AcDbCircle
 10
62.592988
 20
-262.973745
 30
0.0
 40
358.656717
100
AcDbArc
 50
61.206953
 51
82.244507
  0
ARC
  5
62A
100
AcDbEntity
  8
2
370
   100
100
AcDbCircle
 10
234.857388
 20
50.464133
 30
0.0
 40
1.0
100
AcDbArc
 50
0.0
 51
61.206953
  0
LINE
  5
62B
100
AcDbEntity
  8
2
370
   100
100
AcDbLine
 10
235.857388
 20
50.464133
 30
0.0
 11
235.857388
 21
42.179055
 31
0.0
  0
ARC
  5
62C
100
AcDbEntity
  8
2
370
   100
100
AcDbCircle
 10
110.857302
 20
91.411473
 30
0.0
 40
1.0
100
AcDbArc
 50
82.244507
 51
180.001776
  0
LINE
  5
62D
100
AcDbEntity
  8
2
370
   100
100
AcDbLine
 10
109.857302
 20
91.411442
 30
0.0
 11
109.857387
 21
88.64633
 31
0.0
  0
ARC
  5
62E
100
AcDbEntity
  8
2
370
   100
100
AcDbCircle
 10
110.857387
 20
88.646361
 30
0.0
 40
1.0
100
AcDbArc
 50
180.001776
 51
275.0
  0
LINE
  5
62F
100
AcDbEntity
  8
2
370
   100
100
AcDbLine
 10
110.944543
 20
87.650167
 30
0.0
 11
115.248886
 21
88.026748
 31
0.0
  0
ARC
  5
630
100
AcDbEntity
  8
2
370
   100
100
AcDbCircle
 10
115.684665
 20
83.045774
 30
0.0
 40
5.0
100
AcDbArc
 50
81.010472
 51
95.0
  0
ARC
  5
631
100
AcDbEntity
  8
2
370
   100
100
AcDbCircle
 10
69.589754
 20
-208.330716
 30
0.0
 40
300.0
100
AcDbArc
 50
68.927794
 51
81.010472
  0
ARC
  5
632
100
AcDbEntity
  8
2
370
   100
100
AcDbCircle
 10
173.857569
 20
62.276421
 30
0.0
 40
10.0
100
AcDbArc
 50
0.0
 51
68.927794
  0
ARC
  5
633
100
AcDbEntity
  8
2
370
   100
100
AcDbCircle
 10
166.687362
 20
43.667523
 30
0.0
 40
29.942491
100
AcDbArc
 50
21.754367
 51
68.927794
  0
LINE
  5
634
100
AcDbEntity
  8
2
370
   100
100
AcDbLine
 10
548.281809
 20
54.061338
 30
0.0
 11
548.281809
 21
30.55461
 31
0.0
  0
LINE
  5
635
100
AcDbEntity
  8
2
370
   100
100
AcDbLine
 10
496.281809
 20
54.061338
 30
0.0
 11
496.281809
 21
30.55461
 31
0.0
  0
ARC
  5
636
100
AcDbEntity
  8
2
370
   100
100
AcDbCircle
 10
522.281809
 20
22.071676
 30
0.0
 40
70.0
100
AcDbArc
 50
80.345979
 51
99.654021
  0
LINE
  5
637
100
AcDbEntity
  8
2
370
   100
100
AcDbLine
 10
534.849837
 20
90.173907
 30
0.0
 11
536.151809
 21
73.824718
 31
0.0
  0
ARC
  5
638
100
AcDbEntity
  8
2
370
   100
100
AcDbCircle
 10
548.203529
 20
74.784461
 30
0.0
 40
12.089874
100
AcDbArc
 50
184.553159
 51
240.841006
  0
ARC
  5
639
100
AcDbEntity
  8
2
370
   100
100
AcDbCircle
 10
496.36009
 20
74.784461
 30
0.0
 40
12.089874
100
AcDbArc
 50
299.158994
 51
355.446841
  0
LINE
  5
63A
100
AcDbEntity
  8
2
370
   100
100
AcDbLine
 10
509.713782
 20
90.173907
 30
0.0
 11
508.411809
 21
73.824718
 31
0.0
  0
ARC
  5
63B
100
AcDbEntity
  8
2
370
   100
100
AcDbCircle
 10
510.710626
 20
90.094523
 30
0.0
 40
1.0
100
AcDbArc
 50
99.654021
 51
175.446841
  0
ARC
  5
63C
100
AcDbEntity
  8
2
370
   100
100
AcDbCircle
 10
533.852993
 20
90.094523
 30
0.0
 40
1.0
100
AcDbArc
 50
4.553159
 51
80.345979
  0
POINT
  5
63D
100
AcDbEntity
  8
2
370
    50
100
AcDbPoint
 10
522.281809
 20
54.061338
 30
0.0
  0
ELLIPSE
  5
63E
100
AcDbEntity
  8
2
370
   100
100
AcDbEllipse
 10
522.281809
 20
54.061338
 30
0.0
 11
26.0
 21
0.0
 31
0.0
210
0.0
220
0.0
230
1.0
 40
0.139038
 41
3.1415929999999999
 42
0.0
  0
POINT
  5
63F
100
AcDbEntity
  8
2
370
    50
100
AcDbPoint
 10
496.281809
 20
54.061338
 30
0.0
  0
ARC
  5
640
100
AcDbEntity
  8
2
370
   100
100
AcDbCircle
 10
507.922396
 20
54.061338
 30
0.0
 40
11.640587
100
AcDbArc
 50
119.158994
 51
180.0
  0
ARC
  5
641
100
AcDbEntity
  8
2
370
   100
100
AcDbCircle
 10
536.641223
 20
54.061338
 30
0.0
 40
11.640587
100
AcDbArc
 50
0.0
 51
60.841006
  0
ARC
  5
642
100
AcDbEntity
  8
2
370
   100
100
AcDbCircle
 10
-314.486631
 20
54.211783
 30
0.0
 40
11.640587
100
AcDbArc
 50
156.953098
 51
180.0
  0
ARC
  5
643
100
AcDbEntity
  8
2
370
   100
100
AcDbCircle
 10
-285.767804
 20
54.211783
 30
0.0
 40
11.640587
100
AcDbArc
 50
0.0
 51
23.046913
  0
POINT
  5
644
100
AcDbEntity
  8
2
370
    50
100
AcDbPoint
 10
-300.127218
 20
-89.644836
 30
0.0
  0
ELLIPSE
  5
645
100
AcDbEntity
  8
2
370
   100
100
AcDbEllipse
 10
-300.127218
 20
-63.733369
 30
0.0
 11
17.0
 21
0.0
 31
0.0
210
0.0
220
0.0
230
1.0
 40
0.798647
 41
3.6166040000000002
 42
5.7924730000000002
  0
LINE
  5
646
100
AcDbEntity
  8
2
370
   100
100
AcDbLine
 10
-302.327218
 20
20.884868
 30
0.0
 11
-302.327218
 21
22.605462
 31
0.0
  0
LINE
  5
647
100
AcDbEntity
  8
2
370
   100
100
AcDbLine
 10
-297.927218
 20
20.884868
 30
0.0
 11
-297.927218
 21
22.605462
 31
0.0
  0
ELLIPSE
  5
648
100
AcDbEntity
  8
2
370
   100
100
AcDbEllipse
 10
-300.127218
 20
22.605462
 30
0.0
 11
2.2000000000000002
 21
0.0
 31
0.0
210
0.0
220
0.0
230
1.0
 40
0.601818
 41
0.0
 42
3.1415929999999999
  0
ELLIPSE
  5
649
100
AcDbEntity
  8
2
370
   100
100
AcDbEllipse
 10
-300.127218
 20
18.874209
 30
0.0
 11
4.0
 21
0.0
 31
0.0
210
0.0
220
0.0
230
1.0
 40
0.601875
 41
2.1531609999999999
 42
0.988432
  0
ELLIPSE
  5
64A
100
AcDbEntity
  8
2
370
   100
100
AcDbEllipse
 10
-300.127218
 20
21.267394
 30
0.0
 11
4.0
 21
0.0
 31
0.0
210
0.0
220
0.0
230
1.0
 40
0.601875
 41
3.661762
 42
5.7630160000000004
  0
ARC
  5
64B
100
AcDbEntity
  8
2
370
   100
100
AcDbCircle
 10
-300.127218
 20
48.555164
 30
0.0
 40
4.9
100
AcDbArc
 50
305.281262
 51
234.718738
  0
LINE
  5
64C
100
AcDbEntity
  8
2
370
   100
100
AcDbLine
 10
-302.957412
 20
44.555164
 30
0.0
 11
-297.297023
 21
44.555164
 31
0.0
  0
LINE
  5
64D
100
AcDbEntity
  8
2
370
   100
100
AcDbLine
 10
-301.576059
 20
50.298683
 30
0.0
 11
-304.17139
 21
48.815637
 31
0.0
  0
ARC
  5
64E
100
AcDbEntity
  8
2
370
   100
100
AcDbCircle
 10
-301.427218
 20
50.03821
 30
0.0
 40
0.3
100
AcDbArc
 50
0.0
 51
119.744881
  0
LINE
  5
64F
100
AcDbEntity
  8
2
370
   100
100
AcDbLine
 10
-301.127218
 20
50.03821
 30
0.0
 11
-301.127218
 21
47.072118
 31
0.0
  0
ARC
  5
650
100
AcDbEntity
  8
2
370
   100
100
AcDbCircle
 10
-301.427218
 20
47.072118
 30
0.0
 40
0.3
100
AcDbArc
 50
240.255119
 51
360.0
  0
LINE
  5
651
100
AcDbEntity
  8
2
370
   100
100
AcDbLine
 10
-301.576059
 20
46.811645
 30
0.0
 11
-304.17139
 21
48.294691
 31
0.0
  0
ARC
  5
652
100
AcDbEntity
  8
2
370
   100
100
AcDbCircle
 10
-304.022548
 20
48.555164
 30
0.0
 40
0.3
100
AcDbArc
 50
119.744881
 51
240.255119
  0
ARC
  5
653
100
AcDbEntity
  8
2
370
   100
100
AcDbCircle
 10
-298.827218
 20
50.03821
 30
0.0
 40
0.3
100
AcDbArc
 50
60.255119
 51
180.0
  0
LINE
  5
654
100
AcDbEntity
  8
2
370
   100
100
AcDbLine
 10
-299.127218
 20
50.03821
 30
0.0
 11
-299.127218
 21
47.072118
 31
0.0
  0
LINE
  5
655
100
AcDbEntity
  8
2
370
   100
100
AcDbLine
 10
-298.678376
 20
50.298683
 30
0.0
 11
-296.083045
 21
48.815637
 31
0.0
  0
ARC
  5
656
100
AcDbEntity
  8
2
370
   100
100
AcDbCircle
 10
-296.231887
 20
48.555164
 30
0.0
 40
0.3
100
AcDbArc
 50
299.744881
 51
60.255119
  0
LINE
  5
657
100
AcDbEntity
  8
2
370
   100
100
AcDbLine
 10
-298.678376
 20
46.811645
 30
0.0
 11
-296.083045
 21
48.294691
 31
0.0
  0
ARC
  5
658
100
AcDbEntity
  8
2
370
   100
100
AcDbCircle
 10
-298.827218
 20
47.072118
 30
0.0
 40
0.3
100
AcDbArc
 50
180.0
 51
299.744881
  0
LINE
  5
659
100
AcDbEntity
  8
2
370
   100
100
AcDbLine
 10
-52.857471
 20
106.004496
 30
0.0
 11
-59.931678
 21
106.873099
 31
0.0
  0
ARC
  5
65A
100
AcDbEntity
  8
2
370
   100
100
AcDbCircle
 10
-60.053547
 20
105.880553
 30
0.0
 40
1.0
100
AcDbArc
 50
83.0
 51
173.0
  0
LINE
  5
65B
100
AcDbEntity
  8
2
370
   100
100
AcDbLine
 10
-61.046093
 20
106.002422
 30
0.0
 11
-62.264787
 21
96.076961
 31
0.0
  0
ARC
  5
65C
100
AcDbEntity
  8
2
370
   100
100
AcDbCircle
 10
-61.272241
 20
95.955091
 30
0.0
 40
1.0
100
AcDbArc
 50
173.0
 51
263.0
  0
LINE
  5
65D
100
AcDbEntity
  8
2
370
   100
100
AcDbLine
 10
-61.39411
 20
94.962545
 30
0.0
 11
-54.319903
 21
94.093942
 31
0.0
  0
ARC
  5
65E
100
AcDbEntity
  8
2
370
   100
100
AcDbCircle
 10
-57.335803
 20
95.471757
 30
0.0
 40
1.0
100
AcDbArc
 50
173.0
 51
263.0
  0
LINE
  5
65F
100
AcDbEntity
  8
2
370
   100
100
AcDbLine
 10
-57.109655
 20
105.519088
 30
0.0
 11
-58.328349
 21
95.593627
 31
0.0
  0
ARC
  5
660
100
AcDbEntity
  8
2
370
   100
100
AcDbCircle
 10
-56.117109
 20
105.397219
 30
0.0
 40
1.0
100
AcDbArc
 50
83.0
 51
173.0
  0
LINE
  5
661
100
AcDbEntity
  8
2
370
   100
100
AcDbLine
 10
-6.894881
 20
68.221436
 30
0.0
 11
-59.499827
 21
74.680512
 31
0.0
  0
LINE
  5
662
100
AcDbEntity
  8
2
370
   100
100
AcDbLine
 10
36.479773
 20
51.059487
 30
0.0
 11
32.829111
 21
46.214894
 31
0.0
  0
ARC
  5
663
100
AcDbEntity
  8
2
370
   100
100
AcDbCircle
 10
-1187.867104
 20
-1768.525906
 30
0.0
 40
2220.0
100
AcDbArc
 50
55.35047
 51
57.519825
  0
LINE
  5
664
100
AcDbEntity
  8
2
370
   100
100
AcDbLine
 10
-57.619648
 20
94.096096
 30
0.0
 11
-59.935166
 21
75.237719
 31
0.0
  0
ARC
  5
665
100
AcDbEntity
  8
2
370
   100
100
AcDbCircle
 10
-4.009541
 20
67.867161
 30
0.0
 40
2.407009
100
AcDbArc
 50
57.42838
 51
161.076634
  0
LINE
  5
666
100
AcDbEntity
  8
2
370
   100
100
AcDbLine
 10
-54.803017
 20
93.951759
 30
0.0
 11
-57.396765
 21
94.270232
 31
0.0
  0
LINE
  5
667
100
AcDbEntity
  8
2
370
   100
100
AcDbLine
 10
-53.291837
 20
106.259332
 30
0.0
 11
-54.920184
 21
106.459268
 31
0.0
  0
ARC
  5
668
100
AcDbEntity
  8
2
370
   100
100
AcDbCircle
 10
-39.386271
 20
35.605174
 30
0.0
 40
81.332849
100
AcDbArc
 50
57.519825
 51
95.473573
  0
ARC
  5
669
100
AcDbEntity
  8
2
370
   100
100
AcDbCircle
 10
-47.048949
 20
115.57173
 30
0.0
 40
1.0
100
AcDbArc
 50
95.473573
 51
135.938212
  0
ARC
  5
66A
100
AcDbEntity
  8
2
370
   100
100
AcDbCircle
 10
-9.969692
 20
79.687351
 30
0.0
 40
52.6
100
AcDbArc
 50
135.938212
 51
149.02241
  0
LINE
  5
66B
100
AcDbEntity
  8
2
370
   100
100
AcDbLine
 10
39.834043
 20
48.531864
 30
0.0
 11
36.259228
 21
43.787925
 31
0.0
  0
LINE
  5
66C
100
AcDbEntity
  8
2
370
   100
100
AcDbLine
 10
54.575695
 20
30.707795
 30
0.0
 11
53.875387
 21
30.609273
 31
0.0
  0
LINE
  5
66D
100
AcDbEntity
  8
2
370
   100
100
AcDbLine
 10
-59.499827
 20
74.680512
 30
0.0
 11
-59.935166
 21
75.237719
 31
0.0
  0
LINE
  5
66E
100
AcDbEntity
  8
2
370
   100
100
AcDbLine
 10
-6.894881
 20
68.221436
 30
0.0
 11
-6.286458
 21
68.647761
 31
0.0
  0
ARC
  5
66F
100
AcDbEntity
  8
2
370
   100
100
AcDbCircle
 10
-486.155103
 20
-686.866211
 30
0.0
 40
898.0
100
AcDbArc
 50
53.031902
 51
54.422653
  0
LINE
  5
670
100
AcDbEntity
  8
2
370
   100
100
AcDbLine
 10
39.834043
 20
48.531864
 30
0.0
 11
36.479773
 21
51.059487
 31
0.0
  0
LINE
  5
671
100
AcDbEntity
  8
2
370
   100
100
AcDbLine
 10
-50.49004
 20
103.799544
 30
0.0
 11
-2.742528
 21
97.936886
 31
0.0
  0
LINE
  5
672
100
AcDbEntity
  8
2
370
   100
100
AcDbLine
 10
-47.380078
 20
116.515316
 30
0.0
 11
-19.010163
 21
113.031929
 31
0.0
  0
ARC
  5
673
100
AcDbEntity
  8
2
370
   100
100
AcDbCircle
 10
-8.021588
 20
54.942389
 30
0.0
 40
43.317379
100
AcDbArc
 50
60.198165
 51
83.0
  0
LINE
  5
674
100
AcDbEntity
  8
2
370
   100
100
AcDbLine
 10
74.325208
 20
57.746408
 30
0.0
 11
74.435591
 21
57.062767
 31
0.0
  0
ARC
  5
675
100
AcDbEntity
  8
2
370
   100
100
AcDbCircle
 10
-56.43802
 20
100.399073
 30
0.0
 40
6.651398
100
AcDbArc
 50
284.229912
 51
61.770088
  0
ARC
  5
676
100
AcDbEntity
  8
2
370
   100
100
AcDbCircle
 10
-486.155103
 20
-686.866211
 30
0.0
 40
898.0
100
AcDbArc
 50
54.716196
 51
57.42838
  0
ARC
  5
677
100
AcDbEntity
  8
2
370
   100
100
AcDbCircle
 10
32.669384
 20
46.335257
 30
0.0
 40
0.2
100
AcDbArc
 50
234.716196
 51
323.0
  0
ARC
  5
678
100
AcDbEntity
  8
2
370
   100
100
AcDbCircle
 10
36.418956
 20
43.667562
 30
0.0
 40
0.2
100
AcDbArc
 50
143.0
 51
234.422653
  0
ARC
  5
679
100
AcDbEntity
  8
2
370
   100
100
AcDbCircle
 10
-25.254274
 20
62.177727
 30
0.0
 40
51.236107
100
AcDbArc
 50
61.994756
 51
83.0
  0
ARC
  5
67A
100
AcDbEntity
  8
2
370
   100
100
AcDbCircle
 10
-54.89581
 20
106.657777
 30
0.0
 40
0.2
100
AcDbArc
 50
149.02241
 51
263.0
  0
ARC
  5
67B
100
AcDbEntity
  8
2
370
   100
100
AcDbCircle
 10
-57.421139
 20
94.071722
 30
0.0
 40
0.2
100
AcDbArc
 50
83.0
 51
173.0
  0
LINE
  5
67C
100
AcDbEntity
  8
2
370
   100
100
AcDbLine
 10
39.754179
 20
48.592046
 30
0.0
 11
36.466351
 21
44.228951
 31
0.0
  0
LINE
  5
67D
100
AcDbEntity
  8
2
370
   100
100
AcDbLine
 10
36.559637
 20
50.999306
 30
0.0
 11
33.271809
 21
46.636211
 31
0.0
  0
LINE
  5
67E
100
AcDbEntity
  8
2
370
   100
100
AcDbLine
 10
33.37022
 20
45.935986
 30
0.0
 11
35.766126
 21
44.130541
 31
0.0
  0
ARC
  5
67F
100
AcDbEntity
  8
2
370
   100
100
AcDbCircle
 10
33.671127
 20
46.335304
 30
0.0
 40
0.5
100
AcDbArc
 50
143.0
 51
233.0
  0
ARC
  5
680
100
AcDbEntity
  8
2
370
   100
100
AcDbCircle
 10
36.067034
 20
44.529859
 30
0.0
 40
0.5
100
AcDbArc
 50
233.0
 51
323.0
  0
LINE
  5
681
100
AcDbEntity
  8
2
370
   100
100
AcDbLine
 10
39.453272
 20
48.192728
 30
0.0
 11
36.25873
 21
50.599988
 31
0.0
  0
LINE
  5
682
100
AcDbEntity
  8
2
370
   100
100
AcDbLine
 10
-59.698336
 20
74.704886
 30
0.0
 11
-6.696372
 21
68.197063
 31
0.0
  0
LINE
  5
683
100
AcDbEntity
  8
2
370
   100
100
AcDbLine
 10
-59.698336
 20
74.704886
 30
0.0
 11
-59.759271
 21
74.208612
 31
0.0
  0
LINE
  5
684
100
AcDbEntity
  8
2
370
   100
100
AcDbLine
 10
-60.057035
 20
74.245173
 30
0.0
 11
-6.459543
 21
67.664229
 31
0.0
  0
LINE
  5
685
100
AcDbEntity
  8
2
370
   100
100
AcDbLine
 10
-6.696372
 20
68.197063
 30
0.0
 11
-6.757307
 21
67.70079
 31
0.0
  0
LINE
  5
686
100
AcDbEntity
  8
2
370
   100
100
AcDbLine
 10
-60.057059
 20
74.244979
 30
0.0
 11
-61.153859
 21
65.312258
 31
0.0
  0
LINE
  5
687
100
AcDbEntity
  8
2
370
   100
100
AcDbLine
 10
-6.459543
 20
67.664229
 30
0.0
 11
-7.556367
 21
58.731313
 31
0.0
  0
LINE
  5
688
100
AcDbEntity
  8
2
370
   100
100
AcDbLine
 10
-25.676496
 20
54.407844
 30
0.0
 11
-44.617918
 21
56.733558
 31
0.0
  0
ARC
  5
689
100
AcDbEntity
  8
2
370
   100
100
AcDbCircle
 10
-25.615561
 20
54.904117
 30
0.0
 40
0.5
100
AcDbArc
 50
263.0
 51
336.390441
  0
ARC
  5
68A
100
AcDbEntity
  8
2
370
   100
100
AcDbCircle
 10
-44.556983
 20
57.229831
 30
0.0
 40
0.5
100
AcDbArc
 50
189.609559
 51
263.0
  0
LINE
  5
68B
100
AcDbEntity
  8
2
370
   100
100
AcDbLine
 10
-57.671152
 20
60.854596
 30
0.0
 11
-12.014029
 21
55.248606
 31
0.0
  0
ARC
  5
68C
100
AcDbEntity
  8
2
370
   100
100
AcDbCircle
 10
-57.183674
 20
64.824781
 30
0.0
 40
4.0
100
AcDbArc
 50
173.0
 51
263.0
  0
ARC
  5
68D
100
AcDbEntity
  8
2
370
   100
100
AcDbCircle
 10
-11.526551
 20
59.218791
 30
0.0
 40
4.0
100
AcDbArc
 50
263.0
 51
353.0
  0
ARC
  5
68E
100
AcDbEntity
  8
2
370
   100
100
AcDbCircle
 10
-48.007872
 20
56.645565
 30
0.0
 40
3.0
100
AcDbArc
 50
9.609559
 51
83.0
  0
ARC
  5
68F
100
AcDbEntity
  8
2
370
   100
100
AcDbCircle
 10
-22.408525
 20
53.50236
 30
0.0
 40
3.0
100
AcDbArc
 50
83.0
 51
156.390441
  0
LINE
  5
690
100
AcDbEntity
  8
2
370
   100
100
AcDbLine
 10
74.325224
 20
57.746398
 30
0.0
 11
53.875385
 21
30.609275
 31
0.0
  0
LINE
  5
691
100
AcDbEntity
  8
2
370
   100
100
AcDbLine
 10
-288.103627
 20
93.719921
 30
0.0
 11
-312.150813
 21
93.719921
 31
0.0
  0
ARC
  5
692
100
AcDbEntity
  8
2
370
   100
100
AcDbCircle
 10
-288.103627
 20
99.896328
 30
0.0
 40
6.176407
100
AcDbArc
 50
270.0
 51
360.0
  0
ARC
  5
693
100
AcDbEntity
  8
2
370
   100
100
AcDbCircle
 10
-287.905141
 20
99.896328
 30
0.0
 40
5.977921
100
AcDbArc
 50
0.0
 51
91.886209
  0
ARC
  5
694
100
AcDbEntity
  8
2
370
   100
100
AcDbCircle
 10
-312.349299
 20
99.896328
 30
0.0
 40
5.977921
100
AcDbArc
 50
88.113791
 51
180.0
  0
ARC
  5
695
100
AcDbEntity
  8
2
370
   100
100
AcDbCircle
 10
-312.150813
 20
99.896328
 30
0.0
 40
6.176407
100
AcDbArc
 50
180.0
 51
270.0
  0
LINE
  5
696
100
AcDbEntity
  8
2
370
   100
100
AcDbLine
 10
-288.12722
 20
105.87101
 30
0.0
 11
-312.152538
 21
105.87101
 31
0.0
  0
ELLIPSE
  5
697
100
AcDbEntity
  8
2
370
   100
100
AcDbEllipse
 10
-300.12722
 20
71.146562
 30
0.0
 11
27.0
 21
0.0
 31
0.0
210
0.0
220
0.0
230
1.0
 40
0.087148
 41
0.0
 42
3.1415929999999999
  0
LINE
  5
698
100
AcDbEntity
  8
2
370
   100
100
AcDbLine
 10
-327.12722
 20
71.146562
 30
0.0
 11
-327.12722
 21
101.342319
 31
0.0
  0
LINE
  5
699
100
AcDbEntity
  8
2
370
   100
100
AcDbLine
 10
-273.12722
 20
71.146562
 30
0.0
 11
-273.12722
 21
101.342319
 31
0.0
  0
ELLIPSE
  5
69A
100
AcDbEntity
  8
2
370
   100
100
AcDbEllipse
 10
-300.12722
 20
101.531173
 30
0.0
 11
27.0
 21
0.0
 31
0.0
210
0.0
220
0.0
230
1.0
 40
0.087148
 41
2.2566440000000001
 42
3.0731760000000001
  0
ELLIPSE
  5
69B
100
AcDbEntity
  8
2
370
   100
100
AcDbEllipse
 10
-300.12722
 20
101.531173
 30
0.0
 11
27.0
 21
0.0
 31
0.0
210
0.0
220
0.0
230
1.0
 40
0.087148
 41
0.068393
 42
0.884949
  0
ARC
  5
69C
100
AcDbEntity
  8
2
370
   100
100
AcDbCircle
 10
-322.13891
 20
82.436297
 30
0.0
 40
52.6
100
AcDbArc
 50
21.493506
 51
37.148653
  0
ARC
  5
69D
100
AcDbEntity
  8
2
370
   100
100
AcDbCircle
 10
-278.11553
 20
82.436297
 30
0.0
 40
52.6
100
AcDbArc
 50
142.851347
 51
158.506494
  0
ARC
  5
69E
100
AcDbEntity
  8
2
370
   100
100
AcDbCircle
 10
-300.12722
 20
36.718071
 30
0.0
 40
80.219952
100
AcDbArc
 50
76.03566
 51
103.96434
  0
ARC
  5
69F
100
AcDbEntity
  8
2
370
   100
100
AcDbCircle
 10
-300.12722
 20
2.323907
 30
0.0
 40
113.87456
100
AcDbArc
 50
80.131572
 51
99.868428
  0
ARC
  5
6A0
100
AcDbEntity
  8
2
370
   100
100
AcDbCircle
 10
-274.12722
 20
101.342319
 30
0.0
 40
1.0
100
AcDbArc
 50
0.0
 51
21.493506
  0
ARC
  5
6A1
100
AcDbEntity
  8
2
370
   100
100
AcDbCircle
 10
-326.12722
 20
101.342319
 30
0.0
 40
1.0
100
AcDbArc
 50
158.506494
 51
180.0
  0
ARC
  5
6A2
100
AcDbEntity
  8
2
370
   100
100
AcDbCircle
 10
-319.244416
 20
113.596765
 30
0.0
 40
1.0
100
AcDbArc
 50
103.96434
 51
142.851347
  0
ARC
  5
6A3
100
AcDbEntity
  8
2
370
   100
100
AcDbCircle
 10
-281.010024
 20
113.596765
 30
0.0
 40
1.0
100
AcDbArc
 50
37.148653
 51
76.03566
  0
ELLIPSE
  5
6A4
100
AcDbEntity
  8
2
370
   100
100
AcDbEllipse
 10
-300.12722
 20
58.196031
 30
0.0
 11
10.4405
 21
0.0
 31
0.0
210
0.0
220
0.0
230
1.0
 40
0.087161
 41
0.0
 42
3.1415929999999999
  0
LINE
  5
6A5
100
AcDbEntity
  8
2
370
   100
100
AcDbLine
 10
-290.12722
 20
55.706012
 30
0.0
 11
-289.68672
 21
58.196031
 31
0.0
  0
LINE
  5
6A6
100
AcDbEntity
  8
2
370
   100
100
AcDbLine
 10
-310.12722
 20
55.706012
 30
0.0
 11
-310.56772
 21
58.196031
 31
0.0
  0
ELLIPSE
  5
6A7
100
AcDbEntity
  8
2
370
   100
100
AcDbEllipse
 10
-300.12722
 20
55.706012
 30
0.0
 11
10.0
 21
0.0
 31
0.0
210
0.0
220
0.0
230
1.0
 40
0.08715
 41
0.0
 42
6.2831849999999996
  0
ELLIPSE
  5
6A8
100
AcDbEntity
  8
2
370
   100
100
AcDbEllipse
 10
-300.12722
 20
55.706012
 30
0.0
 11
7.75
 21
0.0
 31
0.0
210
0.0
220
0.0
230
1.0
 40
0.087161
 41
0.0
 42
6.2831849999999996
  0
LINE
  5
6A9
100
AcDbEntity
  8
2
370
   100
100
AcDbLine
 10
-327.12722
 20
62.18081
 30
0.0
 11
-327.12722
 21
71.146562
 31
0.0
  0
LINE
  5
6AA
100
AcDbEntity
  8
2
370
   100
100
AcDbLine
 10
-273.12722
 20
71.146562
 30
0.0
 11
-273.12722
 21
62.18081
 31
0.0
  0
ELLIPSE
  5
6AB
100
AcDbEntity
  8
2
370
   100
100
AcDbEllipse
 10
-300.12722
 20
58.196031
 30
0.0
 11
23.0
 21
0.0
 31
0.0
210
0.0
220
0.0
230
1.0
 40
0.087152
 41
5.168088
 42
4.2566899999999999
  0
ARC
  5
6AC
100
AcDbEntity
  8
2
370
   100
100
AcDbCircle
 10
-323.145412
 20
62.18081
 30
0.0
 40
3.981808
100
AcDbArc
 50
180.0
 51
270.0
  0
ARC
  5
6AD
100
AcDbEntity
  8
2
370
   100
100
AcDbCircle
 10
-277.109028
 20
62.18081
 30
0.0
 40
3.981808
100
AcDbArc
 50
270.0
 51
360.0
  0
ELLIPSE
  5
6AE
100
AcDbEntity
  8
2
370
   100
100
AcDbEllipse
 10
-300.12722
 20
62.18081
 30
0.0
 11
27.0
 21
0.0
 31
0.0
210
0.0
220
0.0
230
1.0
 40
0.087148
 41
0.0
 42
3.1415929999999999
  0
LINE
  5
6AF
100
AcDbEntity
  8
2
370
   100
100
AcDbLine
 10
-288.12722
 20
105.87101
 30
0.0
 11
-312.152538
 21
105.87101
 31
0.0
  0
LINE
  5
6B0
100
AcDbEntity
  8
2
370
   100
100
AcDbLine
 10
-288.101902
 20
93.921759
 30
0.0
 11
-312.152538
 21
93.921759
 31
0.0
  0
ARC
  5
6B1
100
AcDbEntity
  8
2
370
   100
100
AcDbCircle
 10
-312.152538
 20
99.896328
 30
0.0
 40
5.974682
100
AcDbArc
 50
90.0
 51
270.0
  0
ARC
  5
6B2
100
AcDbEntity
  8
2
370
   100
100
AcDbCircle
 10
-288.101902
 20
99.896328
 30
0.0
 40
5.974682
100
AcDbArc
 50
270.0
 51
90.0
  0
LINE
  5
6B3
100
AcDbEntity
  8
2
370
   100
100
AcDbLine
 10
-288.103627
 20
93.719921
 30
0.0
 11
-312.150813
 21
93.719921
 31
0.0
  0
ARC
  5
6B4
100
AcDbEntity
  8
2
370
   100
100
AcDbCircle
 10
-288.103627
 20
99.896328
 30
0.0
 40
6.176407
100
AcDbArc
 50
270.0
 51
360.0
  0
ARC
  5
6B5
100
AcDbEntity
  8
2
370
   100
100
AcDbCircle
 10
-287.905141
 20
99.896328
 30
0.0
 40
5.977921
100
AcDbArc
 50
0.0
 51
91.886209
  0
ARC
  5
6B6
100
AcDbEntity
  8
2
370
   100
100
AcDbCircle
 10
-312.349299
 20
99.896328
 30
0.0
 40
5.977921
100
AcDbArc
 50
88.113791
 51
180.0
  0
ARC
  5
6B7
100
AcDbEntity
  8
2
370
   100
100
AcDbCircle
 10
-312.150813
 20
99.896328
 30
0.0
 40
6.176407
100
AcDbArc
 50
180.0
 51
270.0
  0
ARC
  5
6B8
100
AcDbEntity
  8
2
370
   100
100
AcDbCircle
 10
-309.152594
 20
99.896384
 30
0.0
 40
5.974625
100
AcDbArc
 50
90.0
 51
270.0
  0
ARC
  5
6B9
100
AcDbEntity
  8
2
370
   100
100
AcDbCircle
 10
-291.101845
 20
99.896384
 30
0.0
 40
5.974625
100
AcDbArc
 50
270.0
 51
90.0
  0
LINE
  5
6BA
100
AcDbEntity
  8
2
370
   100
100
AcDbLine
 10
-304.889879
 20
103.095465
 30
0.0
 11
-304.889879
 21
101.995465
 31
0.0
  0
LINE
  5
6BB
100
AcDbEntity
  8
2
370
   100
100
AcDbLine
 10
-309.389879
 20
103.095465
 30
0.0
 11
-309.389879
 21
101.995465
 31
0.0
  0
LINE
  5
6BC
100
AcDbEntity
  8
2
370
   100
100
AcDbLine
 10
-305.289879
 20
103.295465
 30
0.0
 11
-308.989879
 21
103.295465
 31
0.0
  0
LINE
  5
6BD
100
AcDbEntity
  8
2
370
   100
100
AcDbLine
 10
-305.289879
 20
101.795465
 30
0.0
 11
-308.989879
 21
101.795465
 31
0.0
  0
ARC
  5
6BE
100
AcDbEntity
  8
2
370
   100
100
AcDbCircle
 10
-305.289879
 20
102.795465
 30
0.0
 40
0.5
100
AcDbArc
 50
36.869898
 51
90.0
  0
ARC
  5
6BF
100
AcDbEntity
  8
2
370
   100
100
AcDbCircle
 10
-308.989879
 20
102.795465
 30
0.0
 40
0.5
100
AcDbArc
 50
90.0
 51
143.130102
  0
ARC
  5
6C0
100
AcDbEntity
  8
2
370
   100
100
AcDbCircle
 10
-305.289879
 20
102.295465
 30
0.0
 40
0.5
100
AcDbArc
 50
270.0
 51
323.130102
  0
ARC
  5
6C1
100
AcDbEntity
  8
2
370
   100
100
AcDbCircle
 10
-308.989879
 20
102.295465
 30
0.0
 40
0.5
100
AcDbArc
 50
216.869898
 51
270.0
  0
ARC
  5
6C2
100
AcDbEntity
  8
2
370
   100
100
AcDbCircle
 10
-307.139879
 20
99.795465
 30
0.0
 40
0.5
100
AcDbArc
 50
0.0
 51
180.0
  0
ARC
  5
6C3
100
AcDbEntity
  8
2
370
   100
100
AcDbCircle
 10
-307.139879
 20
96.795465
 30
0.0
 40
0.5
100
AcDbArc
 50
180.0
 51
360.0
  0
ARC
  5
6C4
100
AcDbEntity
  8
2
370
   100
100
AcDbCircle
 10
-304.836031
 20
96.795465
 30
0.0
 40
0.5
100
AcDbArc
 50
195.0
 51
15.0
  0
ARC
  5
6C5
100
AcDbEntity
  8
2
370
   100
100
AcDbCircle
 10
-309.443726
 20
96.795465
 30
0.0
 40
0.5
100
AcDbArc
 50
165.0
 51
345.0
  0
ARC
  5
6C6
100
AcDbEntity
  8
2
370
   100
100
AcDbCircle
 10
-305.639879
 20
99.795465
 30
0.0
 40
0.5
100
AcDbArc
 50
15.0
 51
195.0
  0
ARC
  5
6C7
100
AcDbEntity
  8
2
370
   100
100
AcDbCircle
 10
-308.639879
 20
99.795465
 30
0.0
 40
0.5
100
AcDbArc
 50
345.0
 51
165.0
  0
ARC
  5
6C8
100
AcDbEntity
  8
2
370
   100
100
AcDbCircle
 10
-307.139879
 20
97.295465
 30
0.0
 40
0.5
100
AcDbArc
 50
0.0
 51
180.0
  0
ARC
  5
6C9
100
AcDbEntity
  8
2
370
   100
100
AcDbCircle
 10
-307.139879
 20
99.295465
 30
0.0
 40
0.5
100
AcDbArc
 50
180.0
 51
360.0
  0
ARC
  5
6CA
100
AcDbEntity
  8
2
370
   100
100
AcDbCircle
 10
-308.769288
 20
99.312502
 30
0.0
 40
0.5
100
AcDbArc
 50
165.0
 51
345.0
  0
ARC
  5
6CB
100
AcDbEntity
  8
2
370
   100
100
AcDbCircle
 10
-309.314317
 20
97.278428
 30
0.0
 40
0.5
100
AcDbArc
 50
345.0
 51
165.0
  0
ARC
  5
6CC
100
AcDbEntity
  8
2
370
   100
100
AcDbCircle
 10
-304.965441
 20
97.278428
 30
0.0
 40
0.5
100
AcDbArc
 50
15.0
 51
195.0
  0
ARC
  5
6CD
100
AcDbEntity
  8
2
370
   100
100
AcDbCircle
 10
-305.510469
 20
99.312502
 30
0.0
 40
0.5
100
AcDbArc
 50
195.0
 51
15.0
  0
LINE
  5
6CE
100
AcDbEntity
  8
2
370
   100
100
AcDbLine
 10
-309.926689
 20
96.924875
 30
0.0
 11
-309.79728
 21
97.407838
 31
0.0
  0
LINE
  5
6CF
100
AcDbEntity
  8
2
370
   100
100
AcDbLine
 10
-309.252251
 20
99.441912
 30
0.0
 11
-309.122842
 21
99.924875
 31
0.0
  0
LINE
  5
6D0
100
AcDbEntity
  8
2
370
   100
100
AcDbLine
 10
-308.960764
 20
96.666056
 30
0.0
 11
-308.831354
 21
97.149019
 31
0.0
  0
LINE
  5
6D1
100
AcDbEntity
  8
2
370
   100
100
AcDbLine
 10
-308.286326
 20
99.183093
 30
0.0
 11
-308.156916
 21
99.666056
 31
0.0
  0
LINE
  5
6D2
100
AcDbEntity
  8
2
370
   100
100
AcDbLine
 10
-307.639879
 20
96.795465
 30
0.0
 11
-307.639879
 21
97.295465
 31
0.0
  0
LINE
  5
6D3
100
AcDbEntity
  8
2
370
   100
100
AcDbLine
 10
-307.639879
 20
99.295465
 30
0.0
 11
-307.639879
 21
99.795465
 31
0.0
  0
LINE
  5
6D4
100
AcDbEntity
  8
2
370
   100
100
AcDbLine
 10
-306.639879
 20
96.795465
 30
0.0
 11
-306.639879
 21
97.295465
 31
0.0
  0
LINE
  5
6D5
100
AcDbEntity
  8
2
370
   100
100
AcDbLine
 10
-306.639879
 20
99.295465
 30
0.0
 11
-306.639879
 21
99.795465
 31
0.0
  0
LINE
  5
6D6
100
AcDbEntity
  8
2
370
   100
100
AcDbLine
 10
-306.122842
 20
99.666056
 30
0.0
 11
-305.993432
 21
99.183093
 31
0.0
  0
LINE
  5
6D7
100
AcDbEntity
  8
2
370
   100
100
AcDbLine
 10
-305.448404
 20
97.149019
 30
0.0
 11
-305.318994
 21
96.666056
 31
0.0
  0
LINE
  5
6D8
100
AcDbEntity
  8
2
370
   100
100
AcDbLine
 10
-305.156916
 20
99.924875
 30
0.0
 11
-305.027506
 21
99.441912
 31
0.0
  0
LINE
  5
6D9
100
AcDbEntity
  8
2
370
   100
100
AcDbLine
 10
-304.482478
 20
97.407838
 30
0.0
 11
-304.353068
 21
96.924875
 31
0.0
  0
LINE
  5
6DA
100
AcDbEntity
  8
2
370
   100
100
AcDbLine
 10
-295.389879
 20
103.095465
 30
0.0
 11
-295.389879
 21
101.995465
 31
0.0
  0
LINE
  5
6DB
100
AcDbEntity
  8
2
370
   100
100
AcDbLine
 10
-290.889879
 20
103.095465
 30
0.0
 11
-290.889879
 21
101.995465
 31
0.0
  0
LINE
  5
6DC
100
AcDbEntity
  8
2
370
   100
100
AcDbLine
 10
-291.289879
 20
103.295465
 30
0.0
 11
-294.989879
 21
103.295465
 31
0.0
  0
LINE
  5
6DD
100
AcDbEntity
  8
2
370
   100
100
AcDbLine
 10
-291.289879
 20
101.795465
 30
0.0
 11
-294.989879
 21
101.795465
 31
0.0
  0
LINE
  5
6DE
100
AcDbEntity
  8
2
370
   100
100
AcDbLine
 10
-292.889879
 20
99.795465
 30
0.0
 11
-292.889879
 21
96.795465
 31
0.0
  0
LINE
  5
6DF
100
AcDbEntity
  8
2
370
   100
100
AcDbLine
 10
-293.389879
 20
99.795465
 30
0.0
 11
-293.389879
 21
96.795465
 31
0.0
  0
LINE
  5
6E0
100
AcDbEntity
  8
2
370
   100
100
AcDbLine
 10
-291.889879
 20
99.795465
 30
0.0
 11
-291.889879
 21
96.795465
 31
0.0
  0
LINE
  5
6E1
100
AcDbEntity
  8
2
370
   100
100
AcDbLine
 10
-294.389879
 20
99.795465
 30
0.0
 11
-294.389879
 21
96.795465
 31
0.0
  0
ARC
  5
6E2
100
AcDbEntity
  8
2
370
   100
100
AcDbCircle
 10
-292.389879
 20
99.795465
 30
0.0
 40
0.5
100
AcDbArc
 50
0.0
 51
180.0
  0
ARC
  5
6E3
100
AcDbEntity
  8
2
370
   100
100
AcDbCircle
 10
-293.889879
 20
99.795465
 30
0.0
 40
0.5
100
AcDbArc
 50
0.0
 51
180.0
  0
ARC
  5
6E4
100
AcDbEntity
  8
2
370
   100
100
AcDbCircle
 10
-293.889879
 20
96.795465
 30
0.0
 40
0.5
100
AcDbArc
 50
180.0
 51
360.0
  0
ARC
  5
6E5
100
AcDbEntity
  8
2
370
   100
100
AcDbCircle
 10
-292.389879
 20
96.795465
 30
0.0
 40
0.5
100
AcDbArc
 50
180.0
 51
360.0
  0
ARC
  5
6E6
100
AcDbEntity
  8
2
370
   100
100
AcDbCircle
 10
-294.989879
 20
102.295465
 30
0.0
 40
0.5
100
AcDbArc
 50
216.869898
 51
270.0
  0
ARC
  5
6E7
100
AcDbEntity
  8
2
370
   100
100
AcDbCircle
 10
-294.989879
 20
102.795465
 30
0.0
 40
0.5
100
AcDbArc
 50
90.0
 51
143.130102
  0
ARC
  5
6E8
100
AcDbEntity
  8
2
370
   100
100
AcDbCircle
 10
-291.289879
 20
102.795465
 30
0.0
 40
0.5
100
AcDbArc
 50
36.869898
 51
90.0
  0
ARC
  5
6E9
100
AcDbEntity
  8
2
370
   100
100
AcDbCircle
 10
-291.289879
 20
102.295465
 30
0.0
 40
0.5
100
AcDbArc
 50
270.0
 51
323.130102
  0
LINE
  5
6EA
100
AcDbEntity
  8
2
370
   100
100
AcDbLine
 10
-308.639879
 20
101.795465
 30
0.0
 11
-307.139879
 21
103.295465
 31
0.0
  0
LINE
  5
6EB
100
AcDbEntity
  8
2
370
   100
100
AcDbLine
 10
-307.367087
 20
101.795465
 30
0.0
 11
-305.867087
 21
103.295465
 31
0.0
  0
LINE
  5
6EC
100
AcDbEntity
  8
2
370
   100
100
AcDbLine
 10
-306.094294
 20
101.795465
 30
0.0
 11
-304.889879
 21
102.999881
 31
0.0
  0
LINE
  5
6ED
100
AcDbEntity
  8
2
370
   100
100
AcDbLine
 10
-309.389879
 20
102.318257
 30
0.0
 11
-308.412671
 21
103.295465
 31
0.0
  0
LINE
  5
6EE
100
AcDbEntity
  8
2
370
   100
100
AcDbLine
 10
-309.217576
 20
99.571321
 30
0.0
 11
-308.510469
 21
100.278428
 31
0.0
  0
LINE
  5
6EF
100
AcDbEntity
  8
2
370
   100
100
AcDbLine
 10
-308.698578
 20
98.817527
 30
0.0
 11
-308.269237
 21
99.246868
 31
0.0
  0
HATCH
  5
6F0
100
AcDbEntity
  8
2
370
   100
100
AcDbHatch
 10
0.0
 20
0.0
 30
0.0
210
0.0
220
0.0
230
1.0
  2
_U
 70
     0
 71
     1
 91
        1
 92
        1
 93
        4
 72
     2
 10
-309.31431700000002
 20
97.278428000000005
 40
0.5
 50
344.999959
 51
164.99995
 73
     1
 72
     1
 10
-309.79728
 20
97.407837999999998
 11
-309.92668900000001
 21
96.924874000000003
 72
     2
 10
-309.44372600000003
 20
96.795464999999993
 40
0.5
 50
165.000005
 51
345.000031
 73
     1
 72
     1
 10
-308.96076399999998
 20
96.666055999999998
 11
-308.83135399999998
 21
97.149017999999998
 97
        4
330
0
330
0
330
0
330
0
 75
     0
 76
     0
 52
45.0
 41
1.0
 77
     0
 78
     1
 53
45.0
 43
0.0
 44
0.0
 45
-0.636396
 46
0.636396
 79
     0
 98
        1
 10
0.0
 20
0.0
  0
LINE
  5
6F1
100
AcDbEntity
  8
2
370
   100
100
AcDbLine
 10
-307.639879
 20
97.295465
 30
0.0
 11
-307.139879
 21
97.795465
 31
0.0
  0
LINE
  5
6F2
100
AcDbEntity
  8
2
370
   100
100
AcDbLine
 10
-307.329667
 20
96.332885
 30
0.0
 11
-306.639879
 21
97.022673
 31
0.0
  0
HATCH
  5
6F3
100
AcDbEntity
  8
2
370
   100
100
AcDbHatch
 10
0.0
 20
0.0
 30
0.0
210
0.0
220
0.0
230
1.0
  2
_U
 70
     0
 71
     1
 91
        1
 92
        1
 93
        4
 72
     2
 10
-307.13987900000001
 20
99.295464999999993
 40
0.5
 50
180.0
 51
0.0
 73
     1
 72
     1
 10
-306.63987900000001
 20
99.295464999999993
 11
-306.63987900000001
 21
99.795464999999993
 72
     2
 10
-307.13987900000001
 20
99.795464999999993
 40
0.5
 50
0.0
 51
180.0
 73
     1
 72
     1
 10
-307.63987900000001
 20
99.795464999999993
 11
-307.63987900000001
 21
99.295464999999993
 97
        4
330
0
330
0
330
0
330
0
 75
     0
 76
     0
 52
45.0
 41
1.0
 77
     0
 78
     1
 53
45.0
 43
0.0
 44
0.0
 45
-0.636396
 46
0.636396
 79
     0
 98
        1
 10
0.0
 20
0.0
  0
HATCH
  5
6F4
100
AcDbEntity
  8
2
370
   100
100
AcDbHatch
 10
0.0
 20
0.0
 30
0.0
210
0.0
220
0.0
230
1.0
  2
_U
 70
     0
 71
     1
 91
        1
 92
        1
 93
        4
 72
     2
 10
-305.510469
 20
99.312501999999995
 40
0.5
 50
195.000056
 51
15.00005
 73
     1
 72
     1
 10
-305.02750600000002
 20
99.441912000000002
 11
-305.15691600000002
 21
99.924875
 72
     2
 10
-305.63987900000001
 20
99.795464999999993
 40
0.5
 50
15.0
 51
194.99994
 73
     1
 72
     1
 10
-306.12284199999999
 20
99.666055999999998
 11
-305.99343199999998
 21
99.183092000000002
 97
        4
330
0
330
0
330
0
330
0
 75
     0
 76
     0
 52
45.0
 41
1.0
 77
     0
 78
     1
 53
45.0
 43
0.0
 44
0.0
 45
-0.636396
 46
0.636396
 79
     0
 98
        1
 10
0.0
 20
0.0
  0
LINE
  5
6F5
100
AcDbEntity
  8
2
370
   100
100
AcDbLine
 10
-305.448404
 20
97.407838
 30
0.0
 11
-305.09485
 21
97.761391
 31
0.0
  0
LINE
  5
6F6
100
AcDbEntity
  8
2
370
   100
100
AcDbLine
 10
-305.164744
 20
96.418705
 30
0.0
 11
-304.417629
 21
97.16582
 31
0.0
  0
LINE
  5
6F7
100
AcDbEntity
  8
2
370
   100
100
AcDbLine
 10
-293.389879
 20
99.295465
 30
0.0
 11
-294.389879
 21
98.295465
 31
0.0
  0
LINE
  5
6F8
100
AcDbEntity
  8
2
370
   100
100
AcDbLine
 10
-293.389879
 20
98.022673
 30
0.0
 11
-294.389879
 21
97.022673
 31
0.0
  0
LINE
  5
6F9
100
AcDbEntity
  8
2
370
   100
100
AcDbLine
 10
-293.841996
 20
96.297763
 30
0.0
 11
-293.392177
 21
96.747583
 31
0.0
  0
LINE
  5
6FA
100
AcDbEntity
  8
2
370
   100
100
AcDbLine
 10
-293.700091
 20
100.258045
 30
0.0
 11
-294.389879
 21
99.568257
 31
0.0
  0
LINE
  5
6FB
100
AcDbEntity
  8
2
370
   100
100
AcDbLine
 10
-291.889879
 20
99.295465
 30
0.0
 11
-292.889879
 21
98.295465
 31
0.0
  0
LINE
  5
6FC
100
AcDbEntity
  8
2
370
   100
100
AcDbLine
 10
-291.889879
 20
98.022673
 30
0.0
 11
-292.889879
 21
97.022673
 31
0.0
  0
LINE
  5
6FD
100
AcDbEntity
  8
2
370
   100
100
AcDbLine
 10
-292.341996
 20
96.297763
 30
0.0
 11
-291.892177
 21
96.747583
 31
0.0
  0
LINE
  5
6FE
100
AcDbEntity
  8
2
370
   100
100
AcDbLine
 10
-292.200091
 20
100.258045
 30
0.0
 11
-292.889879
 21
99.568257
 31
0.0
  0
HATCH
  5
6FF
100
AcDbEntity
  8
2
370
   100
100
AcDbHatch
 10
0.0
 20
0.0
 30
0.0
210
0.0
220
0.0
230
1.0
  2
_U
 70
     0
 71
     1
 91
        1
 92
        1
 93
        8
 72
     1
 10
-294.98987899999997
 20
101.79546499999999
 11
-291.28987899999998
 21
101.79546499999999
 72
     2
 10
-291.28987899999998
 20
102.29546499999999
 40
0.5
 50
270.0
 51
323.130102
 73
     1
 72
     1
 10
-290.88987900000001
 20
101.995465
 11
-290.88987900000001
 21
103.095465
 72
     2
 10
-291.28987899999998
 20
102.79546499999999
 40
0.5
 50
36.869899
 51
90.0
 73
     1
 72
     1
 10
-291.28987899999998
 20
103.29546499999999
 11
-294.98987899999997
 21
103.29546499999999
 72
     2
 10
-294.98987899999997
 20
102.79546499999999
 40
0.5
 50
90.0
 51
143.130102
 73
     1
 72
     1
 10
-295.38987900000001
 20
103.095465
 11
-295.38987900000001
 21
101.995465
 72
     2
 10
-294.98987899999997
 20
102.29546499999999
 40
0.5
 50
216.869904
 51
270.0
 73
     1
 97
        8
330
0
330
0
330
0
330
0
330
0
330
0
330
0
330
0
 75
     0
 76
     0
 52
45.0
 41
1.0
 77
     0
 78
     1
 53
45.0
 43
0.0
 44
0.0
 45
-0.636396
 46
0.636396
 79
     0
 98
        1
 10
0.0
 20
0.0
  0
POINT
  5
700
100
AcDbEntity
  8
2
370
    50
100
AcDbPoint
 10
-300.127218
 20
116.938023
 30
0.0
  0
SPLINE
  5
701
100
AcDbEntity
  8
2
370
   100
100
AcDbSpline
210
0.0
220
0.0
230
1.0
 70
     8
 71
     3
 72
     0
 73
     0
 74
     4
 44
0.0000000001
 11
-318.28613300000001
 21
24.500021
 31
0.0
 11
-305.54290800000001
 21
25.577949
 31
0.0
 11
-292.79968300000002
 21
23.422094999999999
 31
0.0
 11
-279.17422099999999
 21
24.695938000000002
 31
0.0
  0
LINE
  5
702
100
AcDbEntity
  8
2
370
   100
100
AcDbLine
 10
-283.127218
 20
-61.982347
 30
0.0
 11
-283.127218
 21
24.028999
 31
0.0
  0
LINE
  5
703
100
AcDbEntity
  8
2
370
   100
100
AcDbLine
 10
-283.127218
 20
53.518456
 30
0.0
 11
-283.127218
 21
56.845876
 31
0.0
  0
LINE
  5
704
100
AcDbEntity
  8
2
370
   100
100
AcDbLine
 10
-317.127218
 20
-62.391001
 30
0.0
 11
-317.127218
 21
24.703234
 31
0.0
  0
LINE
  5
705
100
AcDbEntity
  8
2
370
   100
100
AcDbLine
 10
-317.127218
 20
53.213562
 30
0.0
 11
-317.127218
 21
56.845875
 31
0.0
  0
POINT
  5
706
100
AcDbEntity
  8
2
370
    50
100
AcDbPoint
 10
-35.147207
 20
55.570701
 30
0.0
  0
SPLINE
  5
707
100
AcDbEntity
  8
2
370
   100
100
AcDbSpline
210
0.0
220
0.0
230
1.0
 70
     8
 71
     3
 72
     0
 73
     0
 74
     4
 44
0.0000000001
 11
-317.63789400000002
 21
53.152611
 31
0.0
 11
-306.16949499999998
 21
53.884300000000003
 31
0.0
 11
-296.77517699999999
 21
53.762402999999999
 31
0.0
 11
-282.37865799999997
 21
53.457509999999999
 31
0.0
  0
LINE
  5
708
100
AcDbEntity
  8
2
370
   100
  6
CENTER
100
AcDbLine
 10
-270.554457
 20
372.45145
 30
0.0
 11
-328.597891
 21
372.45145
 31
0.0
  0
LINE
  5
709
100
AcDbEntity
  8
2
370
   100
  6
CENTER
100
AcDbLine
 10
-300.127707
 20
213.138611
 30
0.0
 11
-300.127707
 21
401.584019
 31
0.0
  0
ARC
  5
70A
100
AcDbEntity
  8
2
370
   100
100
AcDbCircle
 10
-300.127707
 20
372.45145
 30
0.0
 40
26.0
100
AcDbArc
 50
320.852213
 51
219.147787
  0
LINE
  5
70B
100
AcDbEntity
  8
2
370
   100
100
AcDbLine
 10
-297.719423
 20
272.451307
 30
0.0
 11
-302.53599
 21
272.451307
 31
0.0
  0
LINE
  5
70C
100
AcDbEntity
  8
2
370
   100
100
AcDbLine
 10
-310.525026
 20
280.03262
 30
0.0
 11
-313.597948
 21
338.66745
 31
0.0
  0
ARC
  5
70D
100
AcDbEntity
  8
2
370
   100
100
AcDbCircle
 10
-302.53599
 20
280.451307
 30
0.0
 40
8.0
100
AcDbArc
 50
183.0
 51
270.0
  0
ARC
  5
70E
100
AcDbEntity
  8
2
370
   100
100
AcDbCircle
 10
-343.556834
 20
337.097371
 30
0.0
 40
30.0
100
AcDbArc
 50
3.0
 51
39.147787
  0
ARC
  5
70F
100
AcDbEntity
  8
2
370
   100
100
AcDbCircle
 10
-297.719423
 20
280.451307
 30
0.0
 40
8.0
100
AcDbArc
 50
270.0
 51
357.0
  0
LINE
  5
710
100
AcDbEntity
  8
2
370
   100
100
AcDbLine
 10
-289.730387
 20
280.03262
 30
0.0
 11
-286.657466
 21
338.66745
 31
0.0
  0
ARC
  5
711
100
AcDbEntity
  8
2
370
   100
100
AcDbCircle
 10
-256.69858
 20
337.097371
 30
0.0
 40
30.0
100
AcDbArc
 50
140.852213
 51
177.0
  0
LINE
  5
712
100
AcDbEntity
  8
2
370
   100
100
AcDbLine
 10
-317.127707
 20
227.099601
 30
0.0
 11
-317.127707
 21
351.292484
 31
0.0
  0
LINE
  5
713
100
AcDbEntity
  8
2
370
   100
100
AcDbLine
 10
-283.127707
 20
227.099601
 30
0.0
 11
-283.127707
 21
351.292484
 31
0.0
  0
POINT
  5
714
100
AcDbEntity
  8
2
370
    50
100
AcDbPoint
 10
64.505725
 20
43.88539
 30
0.0
  0
POINT
  5
715
100
AcDbEntity
  8
2
370
    50
100
AcDbPoint
 10
-300.127707
 20
227.099601
 30
0.0
  0
POINT
  5
716
100
AcDbEntity
  8
2
370
    50
100
AcDbPoint
 10
74.736581
 20
57.462194
 30
0.0
  0
POINT
  5
717
100
AcDbEntity
  8
2
370
    50
100
AcDbPoint
 10
54.27487
 20
30.308586
 30
0.0
  0
ELLIPSE
  5
718
100
AcDbEntity
  8
2
370
   100
100
AcDbEllipse
 10
-300.127707
 20
227.099601
 30
0.0
 11
-17.0
 21
0.000001
 31
0.0
210
0.0
220
0.0
230
1.0
 40
0.601824
 41
0.0
 42
6.2831849999999996
  0
POINT
  5
719
100
AcDbEntity
  8
2
370
    50
100
AcDbPoint
 10
-300.127707
 20
372.45145
 30
0.0
  0
LINE
  5
71A
100
AcDbEntity
  8
2
370
   100
  6
DASHED
100
AcDbLine
 10
-182.749313
 20
285.053094
 30
0.0
 11
-275.230421
 21
338.447086
 31
0.0
  0
LINE
  5
71B
100
AcDbEntity
  8
2
370
   100
  6
DASHED
100
AcDbLine
 10
-165.749313
 20
314.497958
 30
0.0
 11
-263.819832
 21
371.118998
 31
0.0
  0
POINT
  5
71C
100
AcDbEntity
  8
2
370
    50
100
AcDbPoint
 10
-174.249313
 20
299.775526
 30
0.0
  0
ELLIPSE
  5
71D
100
AcDbEntity
  8
2
370
   100
  6
DASHED
100
AcDbEllipse
 10
-174.249313
 20
299.775526
 30
0.0
 11
-8.4999990000000007
 21
-14.722432
 31
0.0
210
0.0
220
0.0
230
1.0
 40
0.601824
 41
0.0
 42
6.2831849999999996
  0
LINE
  5
71E
100
AcDbEntity
  8
2
370
   100
  6
CENTER
100
AcDbLine
 10
-162.158741
 20
292.795031
 30
0.0
 11
-270.859443
 21
355.55341
 31
0.0
  0
LINE
  5
71F
100
AcDbEntity
  8
2
370
   100
  6
DASHED
100
AcDbLine
 10
-417.5061
 20
285.053094
 30
0.0
 11
-325.024993
 21
338.447086
 31
0.0
  0
LINE
  5
720
100
AcDbEntity
  8
2
370
   100
  6
CENTER
100
AcDbLine
 10
-438.096673
 20
292.795031
 30
0.0
 11
-329.395971
 21
355.55341
 31
0.0
  0
LINE
  5
721
100
AcDbEntity
  8
2
370
   100
  6
DASHED
100
AcDbLine
 10
-434.5061
 20
314.497958
 30
0.0
 11
-336.435582
 21
371.118998
 31
0.0
  0
ELLIPSE
  5
722
100
AcDbEntity
  8
2
370
   100
  6
DASHED
100
AcDbEllipse
 10
-426.0061
 20
299.775526
 30
0.0
 11
-8.4999990000000007
 21
14.722432
 31
0.0
210
0.0
220
0.0
230
1.0
 40
0.601824
 41
0.0
 42
6.2831849999999996
  0
LINE
  5
723
100
AcDbEntity
  8
2
370
   100
  6
CENTER
100
AcDbLine
 10
-246.308427
 20
279.233724
 30
0.0
 11
-285.32179
 21
346.806851
 31
0.0
  0
POINT
  5
724
100
AcDbEntity
  8
2
370
    50
100
AcDbPoint
 10
522.281809
 20
32.153235
 30
0.0
  0
ARC
  5
725
100
AcDbEntity
  8
2
370
   100
100
AcDbCircle
 10
12.059871
 20
-87.849832
 30
0.0
 40
252.44
100
AcDbArc
 50
40.240564
 51
56.76248
  0
ARC
  5
726
100
AcDbEntity
  8
2
370
   100
100
AcDbCircle
 10
162.325536
 20
141.452309
 30
0.0
 40
21.711859
100
AcDbArc
 50
216.97411
 51
236.76248
  0
ARC
  5
727
100
AcDbEntity
  8
2
370
   100
100
AcDbCircle
 10
-48.716662
 20
-173.001527
 30
0.0
 40
358.656717
100
AcDbArc
 50
43.768816
 51
57.244507
  0
ARC
  5
728
100
AcDbEntity
  8
2
370
   100
100
AcDbCircle
 10
144.795326
 20
127.783176
 30
0.0
 40
1.0
100
AcDbArc
 50
57.244507
 51
155.001776
  0
LINE
  5
729
100
AcDbEntity
  8
2
370
   100
100
AcDbLine
 10
143.889005
 20
128.205766
 30
0.0
 11
142.720496
 21
125.699687
 31
0.0
  0
ARC
  5
72A
100
AcDbEntity
  8
2
370
   100
100
AcDbCircle
 10
143.626817
 20
125.277097
 30
0.0
 40
1.0
100
AcDbArc
 50
155.001776
 51
250.0
  0
LINE
  5
72B
100
AcDbEntity
  8
2
370
   100
100
AcDbLine
 10
143.284797
 20
124.337405
 30
0.0
 11
147.345007
 21
122.859609
 31
0.0
  0
ARC
  5
72C
100
AcDbEntity
  8
2
370
   100
100
AcDbCircle
 10
145.634906
 20
118.161146
 30
0.0
 40
5.0
100
AcDbArc
 50
56.010472
 51
70.0
  0
ARC
  5
72D
100
AcDbEntity
  8
2
370
   100
100
AcDbCircle
 10
-19.282296
 20
-126.435085
 30
0.0
 40
300.0
100
AcDbArc
 50
43.927794
 51
56.010472
  0
LINE
  5
72E
100
AcDbEntity
  8
2
370
   100
100
AcDbLine
 10
-246.064861
 20
298.735749
 30
0.0
 11
-271.8704
 21
354.075905
 31
0.0
  0
ARC
  5
72F
100
AcDbEntity
  8
2
370
   100
100
AcDbCircle
 10
-255.127939
 20
294.509567
 30
0.0
 40
10.0
100
AcDbArc
 50
215.0
 51
25.0
  0
LINE
  5
730
100
AcDbEntity
  8
2
370
   100
100
AcDbLine
 10
-263.31946
 20
288.773802
 30
0.0
 11
-286.127707
 21
321.347355
 31
0.0
  0
LINE
  5
731
100
AcDbEntity
  8
2
370
   100
100
AcDbLine
 10
-373.843408
 20
318.388605
 30
0.0
 11
-318.032967
 21
344.413441
 31
0.0
  0
ARC
  5
732
100
AcDbEntity
  8
2
370
   100
100
AcDbCircle
 10
-378.06959
 20
327.451683
 30
0.0
 40
10.0
100
AcDbArc
 50
125.0
 51
295.0
  0
LINE
  5
733
100
AcDbEntity
  8
2
370
   100
100
AcDbLine
 10
-383.805355
 20
335.643203
 30
0.0
 11
-330.879985
 21
372.701946
 31
0.0
  0
POINT
  5
734
100
AcDbEntity
  8
2
370
    50
100
AcDbPoint
 10
-389.772546
 20
320.694978
 30
0.0
  0
POINT
  5
735
100
AcDbEntity
  8
3
370
    50
100
AcDbPoint
 10
190.771998
 20
-151.529477
 30
0.0
  0
TEXT
  5
736
100
AcDbEntity
  8
3
370
    18
100
AcDbText
 10
314.580101
 20
-215.71875
 30
0.0
 40
10.5
  1
逆止弁内蔵
 41
0.95
 72
     5
 11
362.460101
 21
-215.71875
 31
0.0
100
AcDbText
  0
TEXT
  5
737
100
AcDbEntity
  8
3
370
    18
100
AcDbText
 10
-254.827553
 20
-111.855515
 30
0.0
 40
10.5
  1
Ｗ３５山１６
 41
0.96
 72
     5
 11
-196.363553
 21
-111.855515
 31
0.0
100
AcDbText
  0
TEXT
  5
738
100
AcDbEntity
  8
3
370
    18
100
AcDbText
 10
-254.827553
 20
-132.486351
 30
0.0
 40
10.5
  1
４６六角
 41
0.95
 72
     5
 11
-216.922553
 21
-132.486351
 31
0.0
100
AcDbText
  0
TEXT
  5
739
100
AcDbEntity
  8
3
370
    18
100
AcDbText
 10
-263.477936
 20
53.851015
 30
0.0
 40
10.5
  1
水表示
 41
0.93
 72
     5
 11
-236.135936
 21
53.851015
 31
0.0
100
AcDbText
  0
TEXT
  5
73A
100
AcDbEntity
  8
3
370
    18
100
AcDbText
 10
-371.0849
 20
53.851015
 30
0.0
 40
10.5
  1
湯表示
 41
0.93
 72
     5
 11
-343.7429
 21
53.851015
 31
0.0
100
AcDbText
  0
POINT
  5
73B
100
AcDbEntity
  8
3
370
    50
100
AcDbPoint
 10
522.281809
 20
32.153235
 30
0.0
  0
POINT
  5
73C
100
AcDbEntity
  8
3
370
    50
100
AcDbPoint
 10
522.281809
 20
32.153235
 30
0.0
  0
TEXT
  5
73D
100
AcDbEntity
  8
3
370
    18
100
AcDbText
 10
362.747223
 20
-194.392432
 30
0.0
 40
10.5
  1
２０７（金具先端まで）
 50
90.0
 41
0.98
 72
     5
 11
362.747223
 21
-83.260432
 31
0.0
100
AcDbText
  0
DIMENSION
  5
73E
100
AcDbEntity
  8
3
370
    25
100
AcDbDimension
  2
*D0
 10
364.247223
 20
-90.144944
 30
0.0
 11
361.747223
 21
-136.642432
 31
0.0
 71
     0
 72
     0
 41
0.0
 42
0.0
  3
Standard
100
AcDbAlignedDimension
 13
285.735376
 23
-183.13992
 33
0.0
 14
234.157388
 24
-90.144944
 34
0.0
 50
90.0
100
AcDbRotatedDimension
  0
LINE
  5
73F
100
AcDbEntity
  8
3
370
    18
100
AcDbLine
 10
284.563988
 20
-199.429642
 30
0.0
 11
311.57843
 21
-218.719391
 31
0.0
  0
LINE
  5
740
100
AcDbEntity
  8
3
370
    18
100
AcDbLine
 10
311.57843
 20
-218.719391
 30
0.0
 11
367.751411
 21
-218.719391
 31
0.0
  0
LINE
  5
741
100
AcDbEntity
  8
3
370
    18
100
AcDbLine
 10
289.280543
 20
-202.797513
 30
0.0
 11
290.182962
 21
-201.533716
 31
0.0
  0
LINE
  5
742
100
AcDbEntity
  8
3
370
    18
100
AcDbLine
 10
290.182962
 20
-201.533716
 30
0.0
 11
284.563988
 21
-199.429642
 31
0.0
  0
LINE
  5
743
100
AcDbEntity
  8
3
370
    18
100
AcDbLine
 10
284.563988
 20
-199.429642
 30
0.0
 11
288.378125
 21
-204.061311
 31
0.0
  0
LINE
  5
744
100
AcDbEntity
  8
3
370
    18
100
AcDbLine
 10
288.378125
 20
-204.061311
 30
0.0
 11
289.280543
 21
-202.797513
 31
0.0
  0
TEXT
  5
745
100
AcDbEntity
  8
3
370
    18
100
AcDbText
 10
-435.258835
 20
-298.712151
 30
0.0
 40
10.5
  1
２４六角
 41
0.94
 72
     5
 11
-397.752835
 21
-298.712151
 31
0.0
100
AcDbText
  0
TEXT
  5
746
100
AcDbEntity
  8
3
370
    18
100
AcDbText
 10
-353.887863
 20
-309.322334
 30
0.0
 40
10.5
  1
Ｇ１／２
 41
0.95
 72
     5
 11
-315.982863
 21
-309.322334
 31
0.0
100
AcDbText
  0
LINE
  5
747
100
AcDbEntity
  8
3
370
    18
100
AcDbLine
 10
-296.297989
 20
48.537838
 30
0.0
 11
-265.587128
 21
52.482634
 31
0.0
  0
LINE
  5
748
100
AcDbEntity
  8
3
370
    18
100
AcDbLine
 10
-265.587128
 20
52.482634
 30
0.0
 11
-232.131149
 21
52.482634
 31
0.0
  0
LINE
  5
749
100
AcDbEntity
  8
3
370
    18
100
AcDbLine
 10
-290.549662
 20
49.276208
 30
0.0
 11
-290.747507
 21
50.816468
 31
0.0
  0
LINE
  5
74A
100
AcDbEntity
  8
3
370
    18
100
AcDbLine
 10
-290.747507
 20
50.816468
 30
0.0
 11
-296.297989
 21
48.537838
 31
0.0
  0
LINE
  5
74B
100
AcDbEntity
  8
3
370
    18
100
AcDbLine
 10
-296.297989
 20
48.537838
 30
0.0
 11
-290.351816
 21
47.735948
 31
0.0
  0
LINE
  5
74C
100
AcDbEntity
  8
3
370
    18
100
AcDbLine
 10
-290.351816
 20
47.735948
 30
0.0
 11
-290.549662
 21
49.276208
 31
0.0
  0
LINE
  5
74D
100
AcDbEntity
  8
3
370
    18
100
AcDbLine
 10
-303.675537
 20
48.709282
 30
0.0
 11
-336.273598
 21
52.654078
 31
0.0
  0
LINE
  5
74E
100
AcDbEntity
  8
3
370
    18
100
AcDbLine
 10
-336.273598
 20
52.654078
 30
0.0
 11
-372.131599
 21
52.654078
 31
0.0
  0
LINE
  5
74F
100
AcDbEntity
  8
3
370
    18
100
AcDbLine
 10
-309.429117
 20
49.405541
 30
0.0
 11
-309.615679
 21
47.863874
 31
0.0
  0
LINE
  5
750
100
AcDbEntity
  8
3
370
    18
100
AcDbLine
 10
-309.615679
 20
47.863874
 30
0.0
 11
-303.675537
 21
48.709282
 31
0.0
  0
LINE
  5
751
100
AcDbEntity
  8
3
370
    18
100
AcDbLine
 10
-303.675537
 20
48.709282
 30
0.0
 11
-309.242555
 21
50.947208
 31
0.0
  0
LINE
  5
752
100
AcDbEntity
  8
3
370
    18
100
AcDbLine
 10
-309.242555
 20
50.947208
 30
0.0
 11
-309.429117
 21
49.405541
 31
0.0
  0
POINT
  5
753
100
AcDbEntity
  8
3
370
    50
100
AcDbPoint
 10
145.217945
 20
128.689484
 30
0.0
  0
DIMENSION
  5
754
100
AcDbEntity
  8
3
370
    25
100
AcDbDimension
  2
*D1
 10
214.645825
 20
78.316115
 30
0.0
 11
104.608906
 21
138.298733
 31
0.0
 70
     2
 71
     0
 72
     0
 41
0.0
 42
0.0
  3
Standard
100
AcDb2LineAngularDimension
 13
225.962356
 23
76.784935
 33
0.0
 14
225.973599
 24
76.777708
 34
0.0
 15
225.973599
 25
76.777708
 35
0.0
 16
100.569138
 26
123.001909
 36
0.0
1001
ACAD
1000
DSTYLE
1002
{
1070
   275
1070
     0
1070
   179
1070
     2
1002
}
  0
POINT
  5
755
100
AcDbEntity
  8
3
370
    50
100
AcDbPoint
 10
110.857302
 20
92.411473
 30
0.0
  0
TEXT
  5
756
100
AcDbEntity
  8
3
370
    18
100
AcDbText
 10
362.747223
 20
-14.616736
 30
0.0
 40
10.5
  1
１８３
 50
90.0
 41
0.93
 72
     5
 11
362.747223
 21
12.725264
 31
0.0
100
AcDbText
  0
DIMENSION
  5
757
100
AcDbEntity
  8
3
370
    25
100
AcDbDimension
  2
*D2
 10
364.247223
 20
92.411473
 30
0.0
 11
361.747223
 21
1.133265
 31
0.0
 71
     0
 72
     0
 41
0.0
 42
0.0
  3
Standard
100
AcDbAlignedDimension
 13
234.157388
 23
-90.144944
 33
0.0
 14
110.857302
 24
92.411473
 34
0.0
 50
90.0
100
AcDbRotatedDimension
  0
TEXT
  5
758
100
AcDbEntity
  8
3
370
    18
100
AcDbText
 10
381.690903
 20
3.52227
 30
0.0
 40
10.5
  1
２１９
 50
90.0
 41
0.93
 72
     5
 11
381.690903
 21
30.86427
 31
0.0
100
AcDbText
  0
DIMENSION
  5
759
100
AcDbEntity
  8
3
370
    25
100
AcDbDimension
  2
*D3
 10
383.190903
 20
128.689484
 30
0.0
 11
380.690903
 21
19.27227
 31
0.0
 71
     0
 72
     0
 41
0.0
 42
0.0
  3
Standard
100
AcDbAlignedDimension
 13
234.157388
 23
-90.144944
 33
0.0
 14
145.217945
 24
128.689484
 34
0.0
 50
90.0
100
AcDbRotatedDimension
  0
LINE
  5
75A
100
AcDbEntity
  8
3
370
    18
100
AcDbLine
 10
-375.85569
 20
-279.938118
 30
0.0
 11
-392.026031
 21
-300.259895
 31
0.0
  0
LINE
  5
75B
100
AcDbEntity
  8
3
370
    18
100
AcDbLine
 10
-392.026031
 20
-300.259895
 30
0.0
 11
-434.992737
 21
-300.259895
 31
0.0
  0
LINE
  5
75C
100
AcDbEntity
  8
3
370
    18
100
AcDbLine
 10
-379.464283
 20
-284.47315
 30
0.0
 11
-378.249125
 21
-285.44007
 31
0.0
  0
LINE
  5
75D
100
AcDbEntity
  8
3
370
    18
100
AcDbLine
 10
-378.249125
 20
-285.44007
 30
0.0
 11
-375.85569
 21
-279.938118
 31
0.0
  0
LINE
  5
75E
100
AcDbEntity
  8
3
370
    18
100
AcDbLine
 10
-375.85569
 20
-279.938118
 30
0.0
 11
-380.679441
 21
-283.506231
 31
0.0
  0
LINE
  5
75F
100
AcDbEntity
  8
3
370
    18
100
AcDbLine
 10
-380.679441
 20
-283.506231
 30
0.0
 11
-379.464283
 21
-284.47315
 31
0.0
  0
LINE
  5
760
100
AcDbEntity
  8
3
370
    18
100
AcDbLine
 10
-359.223465
 20
-285.052946
 30
0.0
 11
-353.217262
 21
-312.730064
 31
0.0
  0
LINE
  5
761
100
AcDbEntity
  8
3
370
    18
100
AcDbLine
 10
-353.217262
 20
-312.730064
 30
0.0
 11
-313.484634
 21
-312.730064
 31
0.0
  0
LINE
  5
762
100
AcDbEntity
  8
3
370
    18
100
AcDbLine
 10
-357.994381
 20
-290.716673
 30
0.0
 11
-356.47679
 21
-290.387341
 31
0.0
  0
LINE
  5
763
100
AcDbEntity
  8
3
370
    18
100
AcDbLine
 10
-356.47679
 20
-290.387341
 30
0.0
 11
-359.223465
 21
-285.052946
 31
0.0
  0
LINE
  5
764
100
AcDbEntity
  8
3
370
    18
100
AcDbLine
 10
-359.223465
 20
-285.052946
 30
0.0
 11
-359.511972
 21
-291.046005
 31
0.0
  0
LINE
  5
765
100
AcDbEntity
  8
3
370
    18
100
AcDbLine
 10
-359.511972
 20
-291.046005
 30
0.0
 11
-357.994381
 21
-290.716673
 31
0.0
  0
LINE
  5
766
100
AcDbEntity
  8
3
370
    18
100
AcDbLine
 10
-277.179886
 20
-116.239254
 30
0.0
 11
-253.874878
 21
-133.615952
 31
0.0
  0
LINE
  5
767
100
AcDbEntity
  8
3
370
    18
100
AcDbLine
 10
-253.874878
 20
-133.615952
 30
0.0
 11
-212.525864
 21
-133.615952
 31
0.0
  0
LINE
  5
768
100
AcDbEntity
  8
3
370
    18
100
AcDbLine
 10
-272.533694
 20
-119.703551
 30
0.0
 11
-271.605438
 21
-118.458608
 31
0.0
  0
LINE
  5
769
100
AcDbEntity
  8
3
370
    18
100
AcDbLine
 10
-271.605438
 20
-118.458608
 30
0.0
 11
-277.179886
 21
-116.239254
 31
0.0
  0
LINE
  5
76A
100
AcDbEntity
  8
3
370
    18
100
AcDbLine
 10
-277.179886
 20
-116.239254
 30
0.0
 11
-273.461949
 21
-120.948495
 31
0.0
  0
LINE
  5
76B
100
AcDbEntity
  8
3
370
    18
100
AcDbLine
 10
-273.461949
 20
-120.948495
 30
0.0
 11
-272.533694
 21
-119.703551
 31
0.0
  0
LINE
  5
76C
100
AcDbEntity
  8
3
370
    18
100
AcDbLine
 10
-282.627218
 20
-97.809414
 30
0.0
 11
-254.401604
 21
-113.343132
 31
0.0
  0
LINE
  5
76D
100
AcDbEntity
  8
3
370
    18
100
AcDbLine
 10
-254.401604
 20
-113.343132
 30
0.0
 11
-193.036564
 21
-113.343132
 31
0.0
  0
LINE
  5
76E
100
AcDbEntity
  8
3
370
    18
100
AcDbLine
 10
-277.549792
 20
-100.60373
 30
0.0
 11
-276.801057
 21
-99.243238
 31
0.0
  0
LINE
  5
76F
100
AcDbEntity
  8
3
370
    18
100
AcDbLine
 10
-276.801057
 20
-99.243238
 30
0.0
 11
-282.627218
 21
-97.809414
 31
0.0
  0
LINE
  5
770
100
AcDbEntity
  8
3
370
    18
100
AcDbLine
 10
-282.627218
 20
-97.809414
 30
0.0
 11
-278.298527
 21
-101.964223
 31
0.0
  0
LINE
  5
771
100
AcDbEntity
  8
3
370
    18
100
AcDbLine
 10
-278.298527
 20
-101.964223
 30
0.0
 11
-277.549792
 21
-100.60373
 31
0.0
  0
DIMENSION
  5
772
100
AcDbEntity
  8
3
370
    25
100
AcDbDimension
  2
*D4
 10
-326.127218
 20
-30.463268
 30
0.0
 11
-246.377218
 21
-23.713268
 31
0.0
 70
     1
 71
     0
 72
     0
 41
0.0
 42
0.0
  3
Standard
100
AcDbAlignedDimension
 13
-274.127218
 23
-30.463268
 33
0.0
 14
-326.127218
 24
-30.463268
 34
0.0
  0
TEXT
  5
773
100
AcDbEntity
  8
3
370
    18
100
AcDbText
 10
-367.360031
 20
-78.144836
 30
0.0
 40
10.5
  1
取付穴径φ３７±２
 50
90.0
 41
0.97
 72
     5
 11
-367.360031
 21
11.483164
 31
0.0
100
AcDbText
  0
DIMENSION
  5
774
100
AcDbEntity
  8
3
370
    25
100
AcDbDimension
  2
*D5
 10
-365.860031
 20
-90.144836
 30
0.0
 11
-368.360031
 21
-36.894836
 31
0.0
 71
     0
 72
     0
 41
0.0
 42
0.0
  3
Standard
100
AcDbAlignedDimension
 13
-325.179218
 23
-106.444836
 33
0.0
 14
-322.127218
 24
-90.144836
 34
0.0
 50
90.0
100
AcDbRotatedDimension
  0
TEXT
  5
775
100
AcDbEntity
  8
3
370
    18
100
AcDbText
 10
-353.381119
 20
-78.238483
 30
0.0
 40
10.5
  1
取付厚さ５～３０
 50
90.0
 41
0.97
 72
     5
 11
-353.381119
 21
1.204517
 31
0.0
100
AcDbText
  0
LINE
  5
776
100
AcDbEntity
  8
3
370
    18
  6
CENTER
100
AcDbLine
 10
-32.808959
 20
74.614195
 30
0.0
 11
-35.719942
 21
50.906141
 31
0.0
  0
DIMENSION
  5
777
100
AcDbEntity
  8
3
370
    25
100
AcDbDimension
  2
*D6
 10
-35.147207
 20
55.567644
 30
0.0
 11
-26.441251
 21
25.917525
 31
0.0
 70
     2
 71
     0
 72
     0
 41
0.0
 42
0.0
  3
Standard
100
AcDb2LineAngularDimension
 13
-35.147579
 23
55.567667
 33
0.0
 14
-35.147207
 24
55.570701
 34
0.0
 15
-35.147207
 25
55.570701
 35
0.0
 16
-37.010624
 26
25.061173
 36
0.0
1001
ACAD
1000
DSTYLE
1002
{
1070
   275
1070
     0
1070
   179
1070
     2
1002
}
  0
TEXT
  5
778
100
AcDbEntity
  8
3
370
    18
100
AcDbText
 10
71.605091
 20
-101.937973
 30
0.0
 40
10.5
  1
２４５
 41
0.93
 72
     5
 11
98.947091
 21
-101.937973
 31
0.0
100
AcDbText
  0
DIMENSION
  5
779
100
AcDbEntity
  8
3
370
    25
100
AcDbDimension
  2
*D7
 10
209.857388
 20
-103.437973
 30
0.0
 11
87.355091
 21
-101.437973
 31
0.0
 71
     0
 72
     0
 41
0.0
 42
0.0
  3
Standard
100
AcDbAlignedDimension
 13
-35.147207
 23
55.570701
 33
0.0
 14
209.857388
 24
-108.365696
 34
0.0
100
AcDbRotatedDimension
  0
TEXT
  5
77A
100
AcDbEntity
  8
3
370
    18
100
AcDbText
 10
-74.093048
 20
-33.037122
 30
0.0
 40
10.5
  1
１４６
 50
90.0
 41
0.93
 72
     5
 11
-74.093048
 21
-5.695122
 31
0.0
100
AcDbText
  0
DIMENSION
  5
77B
100
AcDbEntity
  8
3
370
    25
100
AcDbDimension
  2
*D8
 10
-72.593048
 20
55.570701
 30
0.0
 11
-75.093048
 21
-17.287122
 31
0.0
 71
     0
 72
     0
 41
0.0
 42
0.0
  3
Standard
100
AcDbAlignedDimension
 13
186.357388
 23
-90.144944
 33
0.0
 14
-35.147207
 24
55.570701
 34
0.0
 50
90.0
100
AcDbRotatedDimension
  0
POINT
  5
77C
100
AcDbEntity
  8
3
370
    50
100
AcDbPoint
 10
-39.386271
 20
116.938023
 30
0.0
  0
TEXT
  5
77D
100
AcDbEntity
  8
3
370
    18
100
AcDbText
 10
-97.073151
 20
-2.353461
 30
0.0
 40
10.5
  1
２０７
 50
90.0
 41
0.93
 72
     5
 11
-97.073151
 21
24.988539
 31
0.0
100
AcDbText
  0
DIMENSION
  5
77E
100
AcDbEntity
  8
3
370
    25
100
AcDbDimension
  2
*D9
 10
-95.573151
 20
116.938023
 30
0.0
 11
-98.073151
 21
13.39654
 31
0.0
 71
     0
 72
     0
 41
0.0
 42
0.0
  3
Standard
100
AcDbAlignedDimension
 13
185.557388
 23
-90.144944
 33
0.0
 14
-39.386271
 24
116.938023
 34
0.0
 50
90.0
100
AcDbRotatedDimension
  0
POINT
  5
77F
100
AcDbEntity
  8
3
370
    50
100
AcDbPoint
 10
144.224244
 20
-278.052857
 30
0.0
  0
TEXT
  5
780
100
AcDbEntity
  8
3
370
    18
100
AcDbText
 10
-74.093048
 20
-252.348901
 30
0.0
 40
10.5
  1
湯側：４１６（シートまで）
 50
90.0
 41
0.98
 72
     5
 11
-74.093048
 21
-120.636901
 31
0.0
100
AcDbText
  0
DIMENSION
  5
781
100
AcDbEntity
  8
3
370
    25
100
AcDbDimension
  2
*D10
 10
-72.593048
 20
-90.144944
 30
0.0
 11
-75.093048
 21
-184.098901
 31
0.0
 71
     0
 72
     0
 41
0.0
 42
0.0
  3
Standard
100
AcDbAlignedDimension
 13
144.224244
 23
-278.052857
 33
0.0
 14
185.557388
 24
-90.144944
 34
0.0
 50
90.0
100
AcDbRotatedDimension
  0
TEXT
  5
782
100
AcDbEntity
  8
3
370
    18
100
AcDbText
 10
-58.877538
 20
-252.600494
 30
0.0
 40
10.5
  1
水側：４２６（シートまで）
 50
90.0
 41
0.98
 72
     5
 11
-58.877538
 21
-120.888494
 31
0.0
100
AcDbText
  0
DIMENSION
  5
783
100
AcDbEntity
  8
3
370
    25
100
AcDbDimension
  2
*D11
 10
-300.109619
 20
372.441007
 30
0.0
 11
-279.127707
 21
163.594144
 31
0.0
 70
     2
 71
     0
 72
     0
 41
0.0
 42
0.0
  3
Standard
100
AcDb2LineAngularDimension
 13
-300.145795
 23
372.441007
 33
0.0
 14
-300.127707
 24
372.45145
 34
0.0
 15
-300.127707
 25
372.45145
 35
0.0
 16
-300.127707
 26
163.594143
 36
0.0
1001
ACAD
1000
DSTYLE
1002
{
1070
   275
1070
     0
1070
   179
1070
     2
1002
}
  0
TEXT
  5
784
100
AcDbEntity
  8
3
370
    18
100
AcDbText
 10
-259.423325
 20
107.329651
 30
0.0
 40
10.5
  1
整流吐水の表示
 41
0.97
 72
     5
 11
-190.165325
 21
107.329651
 31
0.0
100
AcDbText
  0
TEXT
  5
785
100
AcDbEntity
  8
3
370
    18
100
AcDbText
 10
-435.846039
 20
106.996181
 30
0.0
 40
10.5
  1
シャワー吐水の表示
 41
0.97
 72
     5
 11
-346.218039
 21
106.996181
 31
0.0
100
AcDbText
  0
LINE
  5
786
100
AcDbEntity
  8
3
370
    18
100
AcDbLine
 10
-289.438522
 20
99.994984
 30
0.0
 11
-260.090355
 21
105.662601
 31
0.0
  0
LINE
  5
787
100
AcDbEntity
  8
3
370
    18
100
AcDbLine
 10
-260.090355
 20
105.662601
 30
0.0
 11
-185.385818
 21
105.662601
 31
0.0
  0
LINE
  5
788
100
AcDbEntity
  8
3
370
    18
100
AcDbLine
 10
-283.748105
 20
101.093898
 30
0.0
 11
-284.042558
 21
102.61864
 31
0.0
  0
LINE
  5
789
100
AcDbEntity
  8
3
370
    18
100
AcDbLine
 10
-284.042558
 20
102.61864
 30
0.0
 11
-289.438522
 21
99.994984
 31
0.0
  0
LINE
  5
78A
100
AcDbEntity
  8
3
370
    18
100
AcDbLine
 10
-289.438522
 20
99.994984
 30
0.0
 11
-283.453652
 21
99.569155
 31
0.0
  0
LINE
  5
78B
100
AcDbEntity
  8
3
370
    18
100
AcDbLine
 10
-283.453652
 20
99.569155
 30
0.0
 11
-283.748105
 21
101.093898
 31
0.0
  0
LINE
  5
78C
100
AcDbEntity
  8
3
370
    18
100
AcDbLine
 10
-312.116707
 20
99.661503
 30
0.0
 11
-339.130348
 21
105.662601
 31
0.0
  0
LINE
  5
78D
100
AcDbEntity
  8
3
370
    18
100
AcDbLine
 10
-339.130348
 20
105.662601
 30
0.0
 11
-438.180496
 21
105.662601
 31
0.0
  0
LINE
  5
78E
100
AcDbEntity
  8
3
370
    18
100
AcDbLine
 10
-317.774338
 20
100.918349
 30
0.0
 11
-318.111109
 21
99.402392
 31
0.0
  0
LINE
  5
78F
100
AcDbEntity
  8
3
370
    18
100
AcDbLine
 10
-318.111109
 20
99.402392
 30
0.0
 11
-312.116707
 21
99.661503
 31
0.0
  0
LINE
  5
790
100
AcDbEntity
  8
3
370
    18
100
AcDbLine
 10
-312.116707
 20
99.661503
 30
0.0
 11
-317.437567
 21
102.434307
 31
0.0
  0
LINE
  5
791
100
AcDbEntity
  8
3
370
    18
100
AcDbLine
 10
-317.437567
 20
102.434307
 30
0.0
 11
-317.774338
 21
100.918349
 31
0.0
  0
TEXT
  5
792
100
AcDbEntity
  8
3
370
    18
100
AcDbText
 10
-351.726768
 20
188.515331
 30
0.0
 40
10.5
  1
（ハンドル回転角度）
 41
0.97
 72
     5
 11
-251.913768
 21
188.515331
 31
0.0
100
AcDbText
  0
TEXT
  5
793
100
AcDbEntity
  8
3
370
    18
100
AcDbText
 10
-347.331757
 20
148.972984
 30
0.0
 40
10.5
  1
（パイプ回転角度）
 41
0.97
 72
     5
 11
-257.703757
 21
148.972984
 31
0.0
100
AcDbText
  0
TEXT
  5
794
100
AcDbEntity
  8
3
370
    18
100
AcDbText
 10
348.914612
 20
-409.470886
 30
0.0
 40
9.0
  1
外観寸法図
 41
0.96
 72
     5
 11
390.386612
 21
-409.470886
 31
0.0
100
AcDbText
  0
POINT
  5
795
100
AcDbEntity
  8
3
370
    50
100
AcDbPoint
 10
61.473578
 20
-326.957822
 30
0.0
  0
TEXT
  5
796
100
AcDbEntity
  8
3
370
    18
100
AcDbText
 10
433.762527
 20
-360.264679
 30
0.0
 40
10.5
  1
１　３
 41
0.93
 72
     5
 11
461.104527
 21
-360.264679
 31
0.0
100
AcDbText
  0
TEXT
  5
797
100
AcDbEntity
  8
3
370
    18
100
AcDbText
 10
95.295994
 20
-340.092522
 30
0.0
 40
9.6
  1
台付シングルレバー湯水混合水栓（シャワ）
 41
0.94
 72
     5
 11
273.971194
 21
-340.092522
 31
0.0
100
AcDbText
  0
TEXT
  5
798
100
AcDbEntity
  8
3
370
    18
100
AcDbText
 10
95.295994
 20
-354.923122
 30
0.0
 40
9.6
  1
ＭＫＺ６２１ＭＭＥ
 41
0.97
 72
     5
 11
177.241594
 21
-354.923122
 31
0.0
100
AcDbText
  0
TEXT
  5
799
100
AcDbEntity
  8
3
370
    18
100
AcDbText
 10
487.276428
 20
-410.895218
 30
0.0
 40
15.75
  1
１１０１４０
 41
0.96
 72
     5
 11
574.972428
 21
-410.895218
 31
0.0
100
AcDbText
  0
DIMENSION
  5
79A
100
AcDbEntity
  8
3
370
    25
100
AcDbDimension
  2
*D12
 10
-300.119482
 20
372.437205
 30
0.0
 11
-242.72981
 21
219.092911
 31
0.0
 70
     2
 71
     0
 72
     0
 41
0.0
 42
0.0
  3
Standard
100
AcDb2LineAngularDimension
 13
-300.127707
 23
254.545037
 33
0.0
 14
-300.127707
 24
372.45145
 34
0.0
 15
-300.127707
 25
372.45145
 35
0.0
 16
-257.552216
 26
213.568344
 36
0.0
1001
ACAD
1000
DSTYLE
1002
{
1070
   275
1070
     0
1070
   179
1070
     2
1002
}
  0
DIMENSION
  5
79B
100
AcDbEntity
  8
3
370
    25
100
AcDbDimension
  2
*D13
 10
-300.127707
 20
254.545037
 30
0.0
 11
-368.732128
 21
222.125107
 31
0.0
 70
     2
 71
     0
 72
     0
 41
0.0
 42
0.0
  3
Standard
100
AcDb2LineAngularDimension
 13
-300.141952
 23
372.443226
 33
0.0
 14
-300.127707
 24
372.45145
 34
0.0
 15
-300.127707
 25
372.45145
 35
0.0
 16
-382.373359
 26
230.000875
 36
0.0
1001
ACAD
1000
DSTYLE
1002
{
1070
   275
1070
     0
1070
   179
1070
     2
1002
}
  0
TEXT
  5
79C
100
AcDbEntity
  8
3
370
    18
100
AcDbText
 10
517.797729
 20
-384.010483
 30
0.0
 40
10.5
  1
１４　５　２３
 41
0.97
 72
     5
 11
587.055729
 21
-384.010483
 31
0.0
100
AcDbText
  0
TEXT
  5
79D
100
AcDbEntity
  8
3
370
    18
100
AcDbText
 10
-96.104977
 20
-301.624008
 30
0.0
 40
10.5
  1
外径φ１４、Ｌ＝１０００
 41
0.98
 72
     5
 11
25.317023
 21
-301.624008
 31
0.0
100
AcDbText
  0
LINE
  5
79E
100
AcDbEntity
  8
3
370
    18
100
AcDbLine
 10
266.95047
 20
-290.860946
 30
0.0
 11
267.181537
 21
-292.241746
 31
0.0
  0
LINE
  5
79F
100
AcDbEntity
  8
3
370
    18
100
AcDbLine
 10
267.114717
 20
-290.630679
 30
0.0
 11
296.308771
 21
-285.74527
 31
0.0
  0
LINE
  5
7A0
100
AcDbEntity
  8
3
370
    18
100
AcDbLine
 10
267.411803
 20
-292.405993
 30
0.0
 11
296.605857
 21
-287.520584
 31
0.0
  0
LINE
  5
7A1
100
AcDbEntity
  8
3
370
    18
100
AcDbLine
 10
296.539038
 20
-285.909518
 30
0.0
 11
296.770105
 21
-287.290317
 31
0.0
  0
ARC
  5
7A2
100
AcDbEntity
  8
3
370
    18
100
AcDbCircle
 10
296.341781
 20
-285.942527
 30
0.0
 40
0.2
100
AcDbArc
 50
9.5
 51
99.5
  0
ARC
  5
7A3
100
AcDbEntity
  8
3
370
    18
100
AcDbCircle
 10
296.572847
 20
-287.323327
 30
0.0
 40
0.2
100
AcDbArc
 50
279.5
 51
9.5
  0
ARC
  5
7A4
100
AcDbEntity
  8
3
370
    18
100
AcDbCircle
 10
267.147727
 20
-290.827936
 30
0.0
 40
0.2
100
AcDbArc
 50
99.5
 51
189.5
  0
ARC
  5
7A5
100
AcDbEntity
  8
3
370
    18
100
AcDbCircle
 10
267.378794
 20
-292.208736
 30
0.0
 40
0.2
100
AcDbArc
 50
189.5
 51
279.5
  0
ARC
  5
7A6
100
AcDbEntity
  8
3
370
    18
100
AcDbCircle
 10
274.904784
 20
-299.717135
 30
0.0
 40
0.2
100
AcDbArc
 50
99.5
 51
180.0
  0
LINE
  5
7A7
100
AcDbEntity
  8
3
370
    18
100
AcDbLine
 10
275.504784
 20
-299.413568
 30
0.0
 11
275.504784
 21
-298.399663
 31
0.0
  0
LINE
  5
7A8
100
AcDbEntity
  8
3
370
    18
100
AcDbLine
 10
288.471769
 20
-297.243639
 30
0.0
 11
274.871772
 21
-299.519896
 31
0.0
  0
LINE
  5
7A9
100
AcDbEntity
  8
3
370
    18
100
AcDbLine
 10
274.704784
 20
-298.297288
 30
0.0
 11
274.704784
 21
-295.661135
 31
0.0
  0
ARC
  5
7AA
100
AcDbEntity
  8
3
370
    18
100
AcDbCircle
 10
274.904784
 20
-295.661135
 30
0.0
 40
0.2
100
AcDbArc
 50
99.5
 51
180.0
  0
LINE
  5
7AB
100
AcDbEntity
  8
3
370
    18
100
AcDbLine
 10
274.937794
 20
-298.494545
 30
0.0
 11
288.537794
 21
-296.218686
 31
0.0
  0
ARC
  5
7AC
100
AcDbEntity
  8
3
370
    18
100
AcDbCircle
 10
274.904784
 20
-298.297288
 30
0.0
 40
0.2
100
AcDbArc
 50
180.0
 51
279.5
  0
LINE
  5
7AD
100
AcDbEntity
  8
3
370
    18
100
AcDbLine
 10
275.504784
 20
-295.357568
 30
0.0
 11
275.504784
 21
-294.343663
 31
0.0
  0
LINE
  5
7AE
100
AcDbEntity
  8
3
370
    18
100
AcDbLine
 10
288.471769
 20
-293.187639
 30
0.0
 11
274.871772
 21
-295.463896
 31
0.0
  0
LINE
  5
7AF
100
AcDbEntity
  8
3
370
    18
100
AcDbLine
 10
274.704784
 20
-294.241288
 30
0.0
 11
274.704784
 21
-291.605135
 31
0.0
  0
ARC
  5
7B0
100
AcDbEntity
  8
3
370
    18
100
AcDbCircle
 10
274.904784
 20
-291.605135
 30
0.0
 40
0.2
100
AcDbArc
 50
99.5
 51
180.0
  0
LINE
  5
7B1
100
AcDbEntity
  8
3
370
    18
100
AcDbLine
 10
274.937794
 20
-294.438545
 30
0.0
 11
288.537794
 21
-292.162686
 31
0.0
  0
ARC
  5
7B2
100
AcDbEntity
  8
3
370
    18
100
AcDbCircle
 10
274.904784
 20
-294.241288
 30
0.0
 40
0.2
100
AcDbArc
 50
180.0
 51
279.5
  0
LINE
  5
7B3
100
AcDbEntity
  8
3
370
    18
100
AcDbLine
 10
275.504784
 20
-291.301568
 30
0.0
 11
275.504784
 21
-291.066399
 31
0.0
  0
LINE
  5
7B4
100
AcDbEntity
  8
3
370
    18
100
AcDbLine
 10
288.471769
 20
-289.131639
 30
0.0
 11
274.871772
 21
-291.407896
 31
0.0
  0
LINE
  5
7B5
100
AcDbEntity
  8
3
370
    18
100
AcDbLine
 10
274.704784
 20
-289.375244
 30
0.0
 11
274.704784
 21
-287.549135
 31
0.0
  0
ARC
  5
7B6
100
AcDbEntity
  8
3
370
    18
100
AcDbCircle
 10
274.904784
 20
-287.549135
 30
0.0
 40
0.2
100
AcDbArc
 50
99.5
 51
180.0
  0
LINE
  5
7B7
100
AcDbEntity
  8
3
370
    18
100
AcDbLine
 10
275.504784
 20
-287.245568
 30
0.0
 11
275.504784
 21
-286.231663
 31
0.0
  0
LINE
  5
7B8
100
AcDbEntity
  8
3
370
    18
100
AcDbLine
 10
288.471769
 20
-285.075639
 30
0.0
 11
274.871772
 21
-287.351896
 31
0.0
  0
LINE
  5
7B9
100
AcDbEntity
  8
3
370
    18
100
AcDbLine
 10
274.704784
 20
-286.129288
 30
0.0
 11
274.704784
 21
-283.493135
 31
0.0
  0
ARC
  5
7BA
100
AcDbEntity
  8
3
370
    18
100
AcDbCircle
 10
274.904784
 20
-283.493135
 30
0.0
 40
0.2
100
AcDbArc
 50
99.5
 51
180.0
  0
LINE
  5
7BB
100
AcDbEntity
  8
3
370
    18
100
AcDbLine
 10
274.937794
 20
-286.326545
 30
0.0
 11
288.537794
 21
-284.050686
 31
0.0
  0
ARC
  5
7BC
100
AcDbEntity
  8
3
370
    18
100
AcDbCircle
 10
274.904784
 20
-286.129288
 30
0.0
 40
0.2
100
AcDbArc
 50
180.0
 51
279.5
  0
LINE
  5
7BD
100
AcDbEntity
  8
3
370
    18
100
AcDbLine
 10
275.504784
 20
-283.189568
 30
0.0
 11
275.504784
 21
-282.175663
 31
0.0
  0
LINE
  5
7BE
100
AcDbEntity
  8
3
370
    18
100
AcDbLine
 10
288.471769
 20
-281.019639
 30
0.0
 11
274.871772
 21
-283.295896
 31
0.0
  0
LINE
  5
7BF
100
AcDbEntity
  8
3
370
    18
100
AcDbLine
 10
274.704784
 20
-282.073288
 30
0.0
 11
274.704784
 21
-279.437135
 31
0.0
  0
ARC
  5
7C0
100
AcDbEntity
  8
3
370
    18
100
AcDbCircle
 10
274.904784
 20
-279.437135
 30
0.0
 40
0.2
100
AcDbArc
 50
99.5
 51
180.0
  0
LINE
  5
7C1
100
AcDbEntity
  8
3
370
    18
100
AcDbLine
 10
274.937794
 20
-282.270545
 30
0.0
 11
288.537794
 21
-279.994686
 31
0.0
  0
ARC
  5
7C2
100
AcDbEntity
  8
3
370
    18
100
AcDbCircle
 10
274.904784
 20
-282.073288
 30
0.0
 40
0.2
100
AcDbArc
 50
180.0
 51
279.5
  0
LINE
  5
7C3
100
AcDbEntity
  8
3
370
    18
100
AcDbLine
 10
275.504784
 20
-279.133568
 30
0.0
 11
275.504784
 21
-278.119663
 31
0.0
  0
LINE
  5
7C4
100
AcDbEntity
  8
3
370
    18
100
AcDbLine
 10
288.471769
 20
-276.963639
 30
0.0
 11
274.871772
 21
-279.239896
 31
0.0
  0
LINE
  5
7C5
100
AcDbEntity
  8
3
370
    18
100
AcDbLine
 10
274.704784
 20
-278.017288
 30
0.0
 11
274.704784
 21
-273.104896
 31
0.0
  0
LINE
  5
7C6
100
AcDbEntity
  8
3
370
    18
100
AcDbLine
 10
274.937794
 20
-278.214545
 30
0.0
 11
288.537794
 21
-275.938686
 31
0.0
  0
ARC
  5
7C7
100
AcDbEntity
  8
3
370
    18
100
AcDbCircle
 10
274.904784
 20
-278.017288
 30
0.0
 40
0.2
100
AcDbArc
 50
180.0
 51
279.5
  0
LINE
  5
7C8
100
AcDbEntity
  8
3
370
    18
100
AcDbLine
 10
288.704784
 20
-296.021428
 30
0.0
 11
288.704784
 21
-293.384896
 31
0.0
  0
LINE
  5
7C9
100
AcDbEntity
  8
3
370
    18
100
AcDbLine
 10
288.704784
 20
-291.965428
 30
0.0
 11
288.704784
 21
-289.328896
 31
0.0
  0
LINE
  5
7CA
100
AcDbEntity
  8
3
370
    18
100
AcDbLine
 10
288.704784
 20
-287.032447
 30
0.0
 11
288.704784
 21
-285.272896
 31
0.0
  0
LINE
  5
7CB
100
AcDbEntity
  8
3
370
    18
100
AcDbLine
 10
288.704784
 20
-283.853428
 30
0.0
 11
288.704784
 21
-281.216896
 31
0.0
  0
LINE
  5
7CC
100
AcDbEntity
  8
3
370
    18
100
AcDbLine
 10
288.704784
 20
-279.797428
 30
0.0
 11
288.704784
 21
-277.160896
 31
0.0
  0
LINE
  5
7CD
100
AcDbEntity
  8
3
370
    18
100
AcDbLine
 10
288.704784
 20
-275.741428
 30
0.0
 11
288.704784
 21
-273.104896
 31
0.0
  0
LINE
  5
7CE
100
AcDbEntity
  8
3
370
    18
100
AcDbLine
 10
287.904784
 20
-277.058537
 30
0.0
 11
287.904784
 21
-276.044615
 31
0.0
  0
LINE
  5
7CF
100
AcDbEntity
  8
3
370
    18
100
AcDbLine
 10
287.904784
 20
-281.114537
 30
0.0
 11
287.904784
 21
-280.100615
 31
0.0
  0
LINE
  5
7D0
100
AcDbEntity
  8
3
370
    18
100
AcDbLine
 10
287.904784
 20
-285.170537
 30
0.0
 11
287.904784
 21
-284.156615
 31
0.0
  0
LINE
  5
7D1
100
AcDbEntity
  8
3
370
    18
100
AcDbLine
 10
287.904784
 20
-289.226537
 30
0.0
 11
287.904784
 21
-288.991351
 31
0.0
  0
LINE
  5
7D2
100
AcDbEntity
  8
3
370
    18
100
AcDbLine
 10
287.904784
 20
-297.338537
 30
0.0
 11
287.904784
 21
-296.324615
 31
0.0
  0
LINE
  5
7D3
100
AcDbEntity
  8
3
370
    18
100
AcDbLine
 10
287.904784
 20
-293.282537
 30
0.0
 11
287.904784
 21
-292.268615
 31
0.0
  0
ARC
  5
7D4
100
AcDbEntity
  8
3
370
    18
100
AcDbCircle
 10
288.504784
 20
-275.741428
 30
0.0
 40
0.2
100
AcDbArc
 50
279.5
 51
360.0
  0
ARC
  5
7D5
100
AcDbEntity
  8
3
370
    18
100
AcDbCircle
 10
288.504784
 20
-277.160896
 30
0.0
 40
0.2
100
AcDbArc
 50
0.0
 51
99.501632
  0
ARC
  5
7D6
100
AcDbEntity
  8
3
370
    18
100
AcDbCircle
 10
288.504784
 20
-279.797428
 30
0.0
 40
0.2
100
AcDbArc
 50
279.5
 51
360.0
  0
ARC
  5
7D7
100
AcDbEntity
  8
3
370
    18
100
AcDbCircle
 10
288.504784
 20
-281.216896
 30
0.0
 40
0.2
100
AcDbArc
 50
0.0
 51
99.501632
  0
ARC
  5
7D8
100
AcDbEntity
  8
3
370
    18
100
AcDbCircle
 10
288.504784
 20
-283.853428
 30
0.0
 40
0.2
100
AcDbArc
 50
279.5
 51
360.0
  0
ARC
  5
7D9
100
AcDbEntity
  8
3
370
    18
100
AcDbCircle
 10
288.504784
 20
-285.272896
 30
0.0
 40
0.2
100
AcDbArc
 50
0.0
 51
99.501632
  0
ARC
  5
7DA
100
AcDbEntity
  8
3
370
    18
100
AcDbCircle
 10
288.504784
 20
-289.328896
 30
0.0
 40
0.2
100
AcDbArc
 50
0.0
 51
99.501632
  0
ARC
  5
7DB
100
AcDbEntity
  8
3
370
    18
100
AcDbCircle
 10
288.504784
 20
-291.965428
 30
0.0
 40
0.2
100
AcDbArc
 50
279.5
 51
360.0
  0
ARC
  5
7DC
100
AcDbEntity
  8
3
370
    18
100
AcDbCircle
 10
288.504784
 20
-293.384896
 30
0.0
 40
0.2
100
AcDbArc
 50
0.0
 51
99.501632
  0
ARC
  5
7DD
100
AcDbEntity
  8
3
370
    18
100
AcDbCircle
 10
288.504784
 20
-296.021428
 30
0.0
 40
0.2
100
AcDbArc
 50
279.5
 51
360.0
  0
ARC
  5
7DE
100
AcDbEntity
  8
3
370
    18
100
AcDbCircle
 10
288.504784
 20
-297.440896
 30
0.0
 40
0.2
100
AcDbArc
 50
0.0
 51
99.501632
  0
ARC
  5
7DF
100
AcDbEntity
  8
3
370
    18
100
AcDbCircle
 10
278.250322
 20
-268.458468
 30
0.0
 40
5.808035
100
AcDbArc
 50
233.130102
 51
306.869898
  0
ARC
  5
7E0
100
AcDbEntity
  8
3
370
    18
100
AcDbCircle
 10
285.219963
 20
-277.751323
 30
0.0
 40
5.808035
100
AcDbArc
 50
53.130102
 51
126.869898
  0
ARC
  5
7E1
100
AcDbEntity
  8
3
370
    18
100
AcDbCircle
 10
285.219963
 20
-268.458468
 30
0.0
 40
5.808035
100
AcDbArc
 50
233.130102
 51
306.869898
  0
ENDSEC
  0
SECTION
  2
OBJECTS
  0
DICTIONARY
  5
880
100
AcDbDictionary
280
     0
281
     1
  3
ACAD_GROUP
350
881
  3
ACAD_MLINESTYLE
350
882
  0
DICTIONARY
  5
881
102
{ACAD_REACTORS
330
880
102
}
100
AcDbDictionary
280
     0
281
     1
  0
DICTIONARY
  5
882
102
{ACAD_REACTORS
330
880
102
}
100
AcDbDictionary
280
     0
281
     1
  3
Standard
350
883
  0
MLINESTYLE
  5
883
102
{ACAD_REACTORS
330
882
102
}
100
AcDbMlineStyle
  2
Standard
 70
     0
  3

 62
     0
 51
90.0
 52
90.0
 71
     2
 49
0.5
 62
   256
  6
ByLayer
 49
-0.5
 62
   256
  6
ByLayer
  0
ENDSEC
  0
EOF
