  0
SECTION
  2
HEADER
  9
$ACADVER
  1
AC1015
  9
$ACADMAINTVER
 70
     6
  9
$DWGCODEPAGE
  3
ANSI_932
  9
$INSBASE
 10
0.0
 20
0.0
 30
0.0
  9
$EXTMIN
 10
-841.0
 20
-594.0
 30
1.000000E+20
  9
$EXTMAX
 10
841.0
 20
594.0
 30
-1.000000E+20
  9
$LIMMIN
 10
-841.0
 20
-594.0
  9
$LIMMAX
 10
841.0
 20
594.0
  9
$ORTHOMODE
 70
     0
  9
$REGENMODE
 70
     1
  9
$FILLMODE
 70
     1
  9
$QTEXTMODE
 70
     0
  9
$MIRRTEXT
 70
     1
  9
$LTSCALE
 40
1.0
  9
$ATTMODE
 70
     1
  9
$TEXTSIZE
 40
0.2
  9
$TRACEWID
 40
0.05
  9
$TEXTSTYLE
  7
STANDARD
  9
$CLAYER
  8
0
  9
$CELTYPE
  6
CONTINUOUS
  9
$CECOLOR
 62
   256
  9
$CELTSCALE
 40
1.0
  9
$DISPSILH
 70
     0
  9
$DIMSCALE
 40
2.0
  9
$DIMASZ
 40
2.0
  9
$DIMEXO
 40
1.0
  9
$DIMDLI
 40
0.38
  9
$DIMRND
 40
0.0
  9
$DIMDLE
 40
0.0
  9
$DIMEXE
 40
2.0
  9
$DIMTP
 40
0.0
  9
$DIMTM
 40
0.0
  9
$DIMTXT
 40
3.5
  9
$DIMCEN
 40
0.09
  9
$DIMTSZ
 40
0.0
  9
$DIMTOL
 70
     0
  9
$DIMLIM
 70
     0
  9
$DIMTIH
 70
     0
  9
$DIMTOH
 70
     0
  9
$DIMSE1
 70
     0
  9
$DIMSE2
 70
     0
  9
$DIMTAD
 70
     1
  9
$DIMZIN
 70
     0
  9
$DIMBLK
  1

  9
$DIMASO
 70
     1
  9
$DIMSHO
 70
     1
  9
$DIMPOST
  1

  9
$DIMAPOST
  1

  9
$DIMALT
 70
     0
  9
$DIMALTD
 70
     2
  9
$DIMALTF
 40
25.4
  9
$DIMLFAC
 40
1.0
  9
$DIMTOFL
 70
     0
  9
$DIMTVP
 40
0.0
  9
$DIMTIX
 70
     0
  9
$DIMSOXD
 70
     0
  9
$DIMSAH
 70
     0
  9
$DIMBLK1
  1

  9
$DIMBLK2
  1

  9
$DIMSTYLE
  2
Standard
  9
$DIMCLRD
 70
     0
  9
$DIMCLRE
 70
     0
  9
$DIMCLRT
 70
     0
  9
$DIMTFAC
 40
1.0
  9
$DIMGAP
 40
0.5
  9
$DIMJUST
 70
     0
  9
$DIMSD1
 70
     0
  9
$DIMSD2
 70
     0
  9
$DIMTOLJ
 70
     1
  9
$DIMTZIN
 70
     0
  9
$DIMALTZ
 70
     0
  9
$DIMALTTZ
 70
     0
  9
$DIMUPT
 70
     0
  9
$DIMDEC
 70
     3
  9
$DIMTDEC
 70
     4
  9
$DIMALTU
 70
     2
  9
$DIMALTTD
 70
     2
  9
$DIMTXSTY
  7
STANDARD
  9
$DIMAUNIT
 70
     0
  9
$DIMADEC
 70
     0
  9
$DIMALTRND
 40
0.0
  9
$DIMAZIN
 70
     0
  9
$DIMDSEP
 70
     0
  9
$DIMATFIT
 70
     3
  9
$DIMFRAC
 70
     0
  9
$DIMLDRBLK
  1

  9
$DIMLUNIT
 70
     2
  9
$DIMLWD
 70
     0
  9
$DIMLWE
 70
     0
  9
$DIMTMOVE
 70
     0
  9
$LUNITS
 70
     2
  9
$LUPREC
 70
     4
  9
$SKETCHINC
 40
0.1
  9
$FILLETRAD
 40
0.0
  9
$AUNITS
 70
     0
  9
$AUPREC
 70
     0
  9
$MENU
  1
acad
  9
$ELEVATION
 40
0.0
  9
$PELEVATION
 40
0.0
  9
$THICKNESS
 40
0.0
  9
$LIMCHECK
 70
     0
  9
$CHAMFERA
 40
0.0
  9
$CHAMFERB
 40
0.0
  9
$CHAMFERC
 40
0.0
  9
$CHAMFERD
 40
0.0
  9
$SKPOLY
 70
     0
  9
$TDCREATE
 40
2453383.000000000
  9
$TDUCREATE
 40
0.000000000
  9
$TDUPDATE
 40
0.000000000
  9
$TDUUPDATE
 40
2447892.625000000
  9
$TDINDWG
 40
0.0000000000
  9
$TDUSRTIMER
 40
0.0000000000
  9
$USRTIMER
 70
     1
  9
$ANGBASE
 50
0.0
  9
$ANGDIR
 70
     0
  9
$PDMODE
 70
     0
  9
$PDSIZE
 40
0.0
  9
$PLINEWID
 40
0.0
  9
$SPLFRAME
 70
     0
  9
$SPLINETYPE
 70
     6
  9
$SPLINESEGS
 70
     8
  9
$HANDSEED
  5
755
  9
$SURFTAB1
 70
     6
  9
$SURFTAB2
 70
     6
  9
$SURFTYPE
 70
     6
  9
$SURFU
 70
     6
  9
$SURFV
 70
     6
  9
$UCSBASE
  2

  9
$UCSNAME
  2

  9
$UCSORG
 10
0.0
 20
0.0
 30
0.0
  9
$UCSXDIR
 10
1.0
 20
0.0
 30
0.0
  9
$UCSYDIR
 10
0.0
 20
1.0
 30
0.0
  9
$UCSORTHOREF
  2

  9
$UCSORTHOVIEW
 70
     0
  9
$UCSORGTOP
 10
0.0
 20
0.0
 30
0.0
  9
$UCSORGBOTTOM
 10
0.0
 20
0.0
 30
0.0
  9
$UCSORGLEFT
 10
0.0
 20
0.0
 30
0.0
  9
$UCSORGRIGHT
 10
0.0
 20
0.0
 30
0.0
  9
$UCSORGFRONT
 10
0.0
 20
0.0
 30
0.0
  9
$UCSORGBACK
 10
0.0
 20
0.0
 30
0.0
  9
$PUCSBASE
  2

  9
$PUCSNAME
  2

  9
$PUCSORG
 10
0.0
 20
0.0
 30
0.0
  9
$PUCSXDIR
 10
1.0
 20
0.0
 30
0.0
  9
$PUCSYDIR
 10
0.0
 20
1.0
 30
0.0
  9
$PUCSORTHOREF
  2

  9
$PUCSORTHOVIEW
 70
     0
  9
$PUCSORGTOP
 10
0.0
 20
0.0
 30
0.0
  9
$PUCSORGBOTTOM
 10
0.0
 20
0.0
 30
0.0
  9
$PUCSORGLEFT
 10
0.0
 20
0.0
 30
0.0
  9
$PUCSORGRIGHT
 10
0.0
 20
0.0
 30
0.0
  9
$PUCSORGFRONT
 10
0.0
 20
0.0
 30
0.0
  9
$PUCSORGBACK
 10
0.0
 20
0.0
 30
0.0
  9
$USERI1
 70
     0
  9
$USERI2
 70
     0
  9
$USERI3
 70
     0
  9
$USERI4
 70
     0
  9
$USERI5
 70
     0
  9
$USERR1
 40
0.0
  9
$USERR2
 40
0.0
  9
$USERR3
 40
0.0
  9
$USERR4
 40
0.0
  9
$USERR5
 40
0.0
  9
$WORLDVIEW
 70
     1
  9
$SHADEDGE
 70
     3
  9
$SHADEDIF
 70
    70
  9
$TILEMODE
 70
     1
  9
$MAXACTVP
 70
    16
  9
$PINSBASE
 10
0.0
 20
0.0
 30
0.0
  9
$PLIMCHECK
 70
     0
  9
$PEXTMIN
 10
1.000000E+20
 20
1.000000E+20
 30
1.000000E+20
  9
$PEXTMAX
 10
-1.000000E+20
 20
-1.000000E+20
 30
-1.000000E+20
  9
$PLIMMIN
 10
0.0
 20
0.0
  9
$PLIMMAX
 10
12.0
 20
9.0
  9
$UNITMODE
 70
     0
  9
$VISRETAIN
 70
     0
  9
$PLINEGEN
 70
     1
  9
$PSLTSCALE
 70
     0
  9
$TREEDEPTH
 70
  3020
  9
$CMLSTYLE
  2
Standard
  9
$CMLJUST
 70
     0
  9
$CMLSCALE
 40
1.0
  9
$PROXYGRAPHICS
 70
     0
  9
$MEASUREMENT
 70
     0
  9
$CELWEIGHT
370
     0
  9
$ENDCAPS
280
     0
  9
$JOINSTYLE
280
     0
  9
$LWDISPLAY
290
     0
  9
$INSUNITS
 70
     0
  9
$HYPERLINKBASE
  1

  9
$STYLESHEET
  1

  9
$XEDIT
290
     1
  9
$CEPSNTYPE
380
     0
  9
$PSTYLEMODE
290
     1
  9
$FINGERPRINTGUID
  2

  9
$VERSIONGUID
  2

  9
$EXTNAMES
290
     1
  9
$PSVPSCALE
 40
0.0
  0
ENDSEC
  0
SECTION
  2
CLASSES
  0
CLASS
  1
LWPOLYLINE
  2
AcDbPolyline
  3
AutoCAD 2000
 90
        0
280
     0
281
     1
  0
CLASS
  1
IMAGE
  2
AcDbRasterImage
  3
ISM
 90
      127
280
     0
281
     1
  0
CLASS
  1
OLE2FRAME
  2
AcDbOle2Frame
  3
AutoCAD 2000
 90
        0
280
     0
281
     1
  0
CLASS
  1
HATCH
  2
AcDbHatch
  3
AutoCAD 2000
 90
        0
280
     0
281
     1
  0
CLASS
  1
DICTIONARYVAR
  2
AcDbDictionaryVar
  3
AutoCAD 2000
 90
        0
280
     0
281
     0
  0
CLASS
  1
RASTERVARIABLES
  2
AcDbRasterVariables
  3
ISM
 90
        0
280
     0
281
     0
  0
CLASS
  1
IMAGEDEF
  2
AcDbRasterImageDef
  3
ISM
 90
        0
280
     0
281
     0
  0
CLASS
  1
IMAGEDEF_REACTOR
  2
AcDbRasterImageDefReactor
  3
ISM
 90
        1
280
     0
281
     0
  0
CLASS
  1
IDBUFFER
  2
AcDbIdBuffer
  3
AutoCAD 2000
 90
        0
280
     0
281
     0
  0
CLASS
  1
SPATIAL_FILTER
  2
AcDbSpatialFilter
  3
AutoCAD 2000
 90
        0
280
     0
281
     0
  0
CLASS
  1
XRECORD
  2
AcDbXrecord
  3
AutoCAD 2000
 90
        0
280
     0
281
     0
  0
CLASS
  1
SORTENTSTABLE
  2
AcDbSortentsTable
  3
AutoCAD 2000
 90
        0
280
     0
281
     0
  0
CLASS
  1
LAYER_INDEX
  2
AcDbLayerIndex
  3
AutoCAD 2000
 90
        0
280
     0
281
     0
  0
CLASS
  1
SPATIAL_INDEX
  2
AcDbSpatialIndex
  3
AutoCAD 2000
 90
        0
280
     0
281
     0
  0
CLASS
  1
OBJECT_PTR
  2
CAseDLPNTableRecord
  3
"ASE-LPNTableRecord"
 90
        1
280
     0
281
     0
  0
CLASS
  1
LAYOUT
  2
AcDbLayout
  3
AutoCAD 2000
 90
        0
280
     0
281
     0
  0
CLASS
  1
PLOTSETTINGS
  2
AcDbPlotSettings
  3
AutoCAD 2000
 90
        0
280
     0
281
     0
  0
CLASS
  1
ACDBDICTIONARYWDFLT
  2
AcDbDictionaryWithDefault
  3
AutoCAD 2000
 90
        0
280
     0
281
     0
  0
CLASS
  1
ACDBPLACEHOLDER
  2
AcDbPlaceHolder
  3
AutoCAD 2000
 90
        0
280
     0
281
     0
  0
CLASS
  1
VBA_PROJECT
  2
AcDbVbaProject
  3
acadvba
 90
        0
280
     0
281
     0
  0
CLASS
  1
WIPEOUT
  2
AcDbWipeout
  3
WipeOut|AutoCAD Express Tool|expresstools@autodesk.com
 90
      127
280
     0
281
     1
  0
CLASS
  1
WIPEOUTVARIABLES
  2
AcDbWipeoutVariables
  3
WipeOut|AutoCAD Express Tool|expresstools@autodesk.com
 90
        0
280
     0
281
     0
  0
CLASS
  1
RTEXT
  2
RText
  3
RText|AutoCAD Express Tool|expresstools@autodesk.com
 90
        0
280
     0
281
     1
  0
CLASS
  1
ARCALIGNEDTEXT
  2
AcDbArcAlignedText
  3
ATEXT|AutoCAD Express Tool|expresstools@autodesk.com
 90
        0
280
     0
281
     1
  0
ENDSEC
  0
SECTION
  2
TABLES
  0
TABLE
  2
VPORT
  5
6
100
AcDbSymbolTable
 70
     1
  0
VPORT
  5
19
100
AcDbSymbolTableRecord
100
AcDbViewportTableRecord
  2
*ACTIVE
 70
     0
 10
0.0
 20
0.0
 11
1.0
 21
1.0
 12
0.0
 22
0.0
 13
0.0
 23
0.0
 14
1.0
 24
1.0
 15
0.0
 25
0.0
 16
0.0
 26
0.0
 36
1.0
 17
0.0
 27
0.0
 37
0.0
 40
1188.0
 41
1.415825
 42
50.0
 43
0.0
 44
0.0
 50
0.0
 51
0.0
 71
     0
 72
   500
 73
     1
 74
     1
 75
     0
 76
     0
 77
     0
 78
     0
281
     0
 65
     0
110
0.0
120
0.0
130
0.0
111
1.0
121
0.0
131
0.0
112
0.0
122
1.0
132
0.0
345
0
346
0
 79
     0
146
0.0
  0
ENDTAB
  0
TABLE
  2
LTYPE
  5
3
100
AcDbSymbolTable
 70
     9
  0
LTYPE
  5
C
100
AcDbSymbolTableRecord
100
AcDbLinetypeTableRecord
  2
ByBlock
 70
    64
  3

 72
    65
 73
     0
 40
0.0
  0
LTYPE
  5
D
100
AcDbSymbolTableRecord
100
AcDbLinetypeTableRecord
  2
ByLayer
 70
    64
  3

 72
    65
 73
     0
 40
0.0
  0
LTYPE
  5
E
100
AcDbSymbolTableRecord
100
AcDbLinetypeTableRecord
  2
CONTINUOUS
 70
     0
  3
Solid line
 72
    65
 73
     0
 40
0.0
  0
LTYPE
  5
F
100
AcDbSymbolTableRecord
100
AcDbLinetypeTableRecord
  2
DASHED
 70
     0
  3
__ __ __ __ __ __ __ __ __ __ __ __ __ __ __
 72
    65
 73
     2
 40
2.0
 49
1.2
 74
     0
 49
-0.8
 74
     0
  0
LTYPE
  5
10
100
AcDbSymbolTableRecord
100
AcDbLinetypeTableRecord
  2
CENTER
 70
     0
  3
____ _ ____ _ ____ _ ____ _ ____ _ ____ _ ____
 72
    65
 73
     4
 40
12.0
 49
9.0
 74
     0
 49
-1.0
 74
     0
 49
1.0
 74
     0
 49
-1.0
 74
     0
  0
LTYPE
  5
11
100
AcDbSymbolTableRecord
100
AcDbLinetypeTableRecord
  2
HIDDEN
 70
     0
  3
_ _ _ _ _ _ _ _ _ _ _ _ _ _ _ _ _ _ _ _ _ _ _
 72
    65
 73
     2
 40
3.2
 49
2.4
 74
     0
 49
-0.8
 74
     0
  0
LTYPE
  5
12
100
AcDbSymbolTableRecord
100
AcDbLinetypeTableRecord
  2
PHANTOM
 70
     0
  3
_____ _ _ _____ _ _ _____ _ _ _____ _ _ _____
 72
    65
 73
     6
 40
13.5
 49
9.0
 74
     0
 49
-1.0
 74
     0
 49
1.0
 74
     0
 49
-0.5
 74
     0
 49
1.0
 74
     0
 49
-1.0
 74
     0
  0
LTYPE
  5
13
100
AcDbSymbolTableRecord
100
AcDbLinetypeTableRecord
  2
DOT
 70
     0
  3
...............................................
 72
    65
 73
     2
 40
1.0
 49
0.5
 74
     0
 49
-0.5
 74
     0
  0
LTYPE
  5
14
100
AcDbSymbolTableRecord
100
AcDbLinetypeTableRecord
  2
DASHDOT
 70
     0
  3
__ . __ . __ . __ . __ . __ . __ . __ . __ . __
 72
    65
 73
     4
 40
8.0
 49
5.0
 74
     0
 49
-1.0
 74
     0
 49
1.0
 74
     0
 49
-1.0
 74
     0
  0
ENDTAB
  0
TABLE
  2
LAYER
  5
1
100
AcDbSymbolTable
 70
     4
  0
LAYER
  5
15
100
AcDbSymbolTableRecord
100
AcDbLayerTableRecord
  2
0
 70
     0
 62
     7
  6
CONTINUOUS
290
     1
370
    -3
390
0
  0
LAYER
  5
16
100
AcDbSymbolTableRecord
100
AcDbLayerTableRecord
  2
1
 70
     0
 62
     7
  6
CONTINUOUS
290
     1
370
    -3
390
0
  0
LAYER
  5
17
100
AcDbSymbolTableRecord
100
AcDbLayerTableRecord
  2
2
 70
     0
 62
     7
  6
CONTINUOUS
290
     1
370
    -3
390
0
  0
LAYER
  5
18
100
AcDbSymbolTableRecord
100
AcDbLayerTableRecord
  2
3
 70
     0
 62
     7
  6
CONTINUOUS
290
     1
370
    -3
390
0
  0
ENDTAB
  0
TABLE
  2
STYLE
  5
2
100
AcDbSymbolTable
 70
     1
  0
STYLE
  5
1B
100
AcDbSymbolTableRecord
100
AcDbTextStyleTableRecord
  2
STANDARD
 70
    64
 40
0.0
 41
1.0
 50
0.0
 71
     0
 42
1.0
  3
txt
  4
BIGFONT
  0
ENDTAB
  0
TABLE
  2
VIEW
  5
4
100
AcDbSymbolTable
 70
     0
  0
ENDTAB
  0
TABLE
  2
UCS
  5
5
100
AcDbSymbolTable
 70
     0
  0
ENDTAB
  0
TABLE
  2
APPID
  5
7
100
AcDbSymbolTable
 70
     1
  0
APPID
  5
1A
100
AcDbSymbolTableRecord
100
AcDbRegAppTableRecord
  2
ACAD
 70
     0
  0
ENDTAB
  0
TABLE
  2
DIMSTYLE
  5
8
100
AcDbSymbolTable
 70
     1
100
AcDbDimStyleTable
 71
     0
  0
DIMSTYLE
105
32
100
AcDbSymbolTableRecord
100
AcDbDimStyleTableRecord
  2
Standard
 70
     0
  3

  4

 40
2.0
 41
2.0
 42
1.0
 43
0.38
 44
2.0
 45
0.0
 46
0.0
 47
0.0
 48
0.0
 71
     0
 72
     0
 73
     0
 74
     0
 75
     0
 76
     0
 77
     1
 78
     0
 79
     0
140
3.5
141
0.09
142
0.0
143
25.4
144
1.0
145
0.0
146
1.0
147
0.5
148
0.0
170
     0
171
     2
172
     0
173
     0
174
     0
175
     0
176
     0
177
     0
178
     0
179
     0
271
     3
272
     4
273
     2
274
     2
275
     0
276
     0
277
     2
278
    46
279
     0
280
     0
281
     0
282
     0
283
     1
284
     0
285
     0
286
     0
288
     0
289
     3
340
1B
341
0
342
0
343
0
344
0
371
    -2
372
    -2
  0
ENDTAB
  0
TABLE
  2
BLOCK_RECORD
  5
2D
100
AcDbSymbolTable
 70
    15
  0
BLOCK_RECORD
  5
2B
100
AcDbSymbolTableRecord
100
AcDbBlockTableRecord
  2
*Model_Space
340
0
  0
BLOCK_RECORD
  5
2C
100
AcDbSymbolTableRecord
100
AcDbBlockTableRecord
  2
*Paper_Space
340
0
  0
BLOCK_RECORD
  5
1C
100
AcDbSymbolTableRecord
100
AcDbBlockTableRecord
  2
*D0
340
0
  0
BLOCK_RECORD
  5
1D
100
AcDbSymbolTableRecord
100
AcDbBlockTableRecord
  2
*D1
340
0
  0
BLOCK_RECORD
  5
1E
100
AcDbSymbolTableRecord
100
AcDbBlockTableRecord
  2
*D2
340
0
  0
BLOCK_RECORD
  5
1F
100
AcDbSymbolTableRecord
100
AcDbBlockTableRecord
  2
*D3
340
0
  0
BLOCK_RECORD
  5
20
100
AcDbSymbolTableRecord
100
AcDbBlockTableRecord
  2
*D4
340
0
  0
BLOCK_RECORD
  5
21
100
AcDbSymbolTableRecord
100
AcDbBlockTableRecord
  2
*D5
340
0
  0
BLOCK_RECORD
  5
22
100
AcDbSymbolTableRecord
100
AcDbBlockTableRecord
  2
*D6
340
0
  0
BLOCK_RECORD
  5
23
100
AcDbSymbolTableRecord
100
AcDbBlockTableRecord
  2
*D7
340
0
  0
BLOCK_RECORD
  5
24
100
AcDbSymbolTableRecord
100
AcDbBlockTableRecord
  2
*D8
340
0
  0
BLOCK_RECORD
  5
25
100
AcDbSymbolTableRecord
100
AcDbBlockTableRecord
  2
*D9
340
0
  0
BLOCK_RECORD
  5
26
100
AcDbSymbolTableRecord
100
AcDbBlockTableRecord
  2
*D10
340
0
  0
BLOCK_RECORD
  5
27
100
AcDbSymbolTableRecord
100
AcDbBlockTableRecord
  2
*D11
340
0
  0
BLOCK_RECORD
  5
28
100
AcDbSymbolTableRecord
100
AcDbBlockTableRecord
  2
*D12
340
0
  0
BLOCK_RECORD
  5
29
100
AcDbSymbolTableRecord
100
AcDbBlockTableRecord
  2
*D13
340
0
  0
BLOCK_RECORD
  5
2A
100
AcDbSymbolTableRecord
100
AcDbBlockTableRecord
  2
*D14
340
0
  0
ENDTAB
  0
ENDSEC
  0
SECTION
  2
BLOCKS
  0
BLOCK
  5
2E
100
AcDbEntity
  8
0
390
0
100
AcDbBlockBegin
  2
*Model_Space
 70
     0
 10
0.0
 20
0.0
 30
0.0
  3
*Model_Space
  1

  0
ENDBLK
  5
2F
100
AcDbEntity
  8
0
390
0
100
AcDbBlockEnd
  0
BLOCK
  5
30
100
AcDbEntity
 67
     1
  8
0
390
0
100
AcDbBlockBegin
  2
*Paper_Space
 70
     0
 10
0.0
 20
0.0
 30
0.0
  3
*Paper_Space
  1

  0
ENDBLK
  5
31
100
AcDbEntity
 67
     1
  8
0
390
0
100
AcDbBlockEnd
  0
BLOCK
  5
6A1
100
AcDbEntity
  8
2
100
AcDbBlockBegin
  2
*D0
 70
     1
 10
0.0
 20
0.0
 30
0.0
  3
*D0
  1

  0
TEXT
  5
6A2
100
AcDbEntity
  8
2
370
    25
100
AcDbText
 10
-140.154966
 20
228.032959
 30
0.0
 40
7.0
  1
１００
 72
     5
 11
-120.554966
 21
228.032959
 31
0.0
100
AcDbText
  0
LINE
  5
6A3
100
AcDbEntity
  8
2
370
    25
100
AcDbLine
 10
-179.654966
 20
185.313228
 30
0.0
 11
-179.654966
 21
229.032959
 31
0.0
  0
LINE
  5
6A4
100
AcDbEntity
  8
2
370
    25
100
AcDbLine
 10
-179.654966
 20
227.032959
 30
0.0
 11
-175.791263
 21
225.997683
 31
0.0
  0
LINE
  5
6A5
100
AcDbEntity
  8
2
370
    25
100
AcDbLine
 10
-179.654966
 20
227.032959
 30
0.0
 11
-175.791263
 21
228.068235
 31
0.0
  0
LINE
  5
6A6
100
AcDbEntity
  8
2
370
    25
100
AcDbLine
 10
-175.791263
 20
225.997683
 30
0.0
 11
-175.791263
 21
228.068235
 31
0.0
  0
LINE
  5
6A7
100
AcDbEntity
  8
2
370
    25
100
AcDbLine
 10
-179.654966
 20
227.032959
 30
0.0
 11
-79.654966
 21
227.032959
 31
0.0
  0
LINE
  5
6A8
100
AcDbEntity
  8
2
370
    25
100
AcDbLine
 10
-79.654966
 20
227.032959
 30
0.0
 11
-83.51867
 21
228.068235
 31
0.0
  0
LINE
  5
6A9
100
AcDbEntity
  8
2
370
    25
100
AcDbLine
 10
-79.654966
 20
227.032959
 30
0.0
 11
-83.51867
 21
225.997683
 31
0.0
  0
LINE
  5
6AA
100
AcDbEntity
  8
2
370
    25
100
AcDbLine
 10
-83.51867
 20
228.068235
 30
0.0
 11
-83.51867
 21
225.997683
 31
0.0
  0
LINE
  5
6AB
100
AcDbEntity
  8
2
370
    25
100
AcDbLine
 10
-79.654966
 20
183.735366
 30
0.0
 11
-79.654966
 21
229.032959
 31
0.0
  0
ENDBLK
  5
6AC
100
AcDbEntity
  8
2
100
AcDbBlockEnd
  0
BLOCK
  5
6AD
100
AcDbEntity
  8
2
100
AcDbBlockBegin
  2
*D1
 70
     1
 10
0.0
 20
0.0
 30
0.0
  3
*D1
  1

  0
LINE
  5
6AE
100
AcDbEntity
  8
2
370
    25
100
AcDbLine
 10
-242.955965
 20
-77.150873
 30
0.0
 11
-242.955965
 21
-31.324934
 31
0.0
  0
LINE
  5
6AF
100
AcDbEntity
  8
2
370
    25
100
AcDbLine
 10
-242.955965
 20
-33.324934
 30
0.0
 11
-239.092261
 21
-34.36021
 31
0.0
  0
LINE
  5
6B0
100
AcDbEntity
  8
2
370
    25
100
AcDbLine
 10
-242.955965
 20
-33.324934
 30
0.0
 11
-239.092261
 21
-32.289657
 31
0.0
  0
LINE
  5
6B1
100
AcDbEntity
  8
2
370
    25
100
AcDbLine
 10
-239.092261
 20
-34.36021
 30
0.0
 11
-239.092261
 21
-32.289657
 31
0.0
  0
LINE
  5
6B2
100
AcDbEntity
  8
2
370
    25
100
AcDbLine
 10
-242.955965
 20
-33.324934
 30
0.0
 11
-16.354808
 21
-33.324934
 31
0.0
  0
LINE
  5
6B3
100
AcDbEntity
  8
2
370
    25
100
AcDbLine
 10
-16.354808
 20
-33.324934
 30
0.0
 11
-20.218511
 21
-32.289657
 31
0.0
  0
LINE
  5
6B4
100
AcDbEntity
  8
2
370
    25
100
AcDbLine
 10
-16.354808
 20
-33.324934
 30
0.0
 11
-20.218511
 21
-34.36021
 31
0.0
  0
LINE
  5
6B5
100
AcDbEntity
  8
2
370
    25
100
AcDbLine
 10
-20.218511
 20
-32.289657
 30
0.0
 11
-20.218511
 21
-34.36021
 31
0.0
  0
LINE
  5
6B6
100
AcDbEntity
  8
2
370
    25
100
AcDbLine
 10
-16.354808
 20
-77.151607
 30
0.0
 11
-16.354808
 21
-31.324934
 31
0.0
  0
ENDBLK
  5
6B7
100
AcDbEntity
  8
2
100
AcDbBlockEnd
  0
BLOCK
  5
6B8
100
AcDbEntity
  8
2
100
AcDbBlockBegin
  2
*D2
 70
     1
 10
0.0
 20
0.0
 30
0.0
  3
*D2
  1

  0
LINE
  5
6B9
100
AcDbEntity
  8
2
370
    25
100
AcDbLine
 10
-242.955965
 20
-77.150873
 30
0.0
 11
-242.955965
 21
-48.394682
 31
0.0
  0
LINE
  5
6BA
100
AcDbEntity
  8
2
370
    25
100
AcDbLine
 10
-242.955965
 20
-50.394682
 30
0.0
 11
-239.092261
 21
-51.429958
 31
0.0
  0
LINE
  5
6BB
100
AcDbEntity
  8
2
370
    25
100
AcDbLine
 10
-242.955965
 20
-50.394682
 30
0.0
 11
-239.092261
 21
-49.359406
 31
0.0
  0
LINE
  5
6BC
100
AcDbEntity
  8
2
370
    25
100
AcDbLine
 10
-239.092261
 20
-51.429958
 30
0.0
 11
-239.092261
 21
-49.359406
 31
0.0
  0
LINE
  5
6BD
100
AcDbEntity
  8
2
370
    25
100
AcDbLine
 10
-242.955965
 20
-50.394682
 30
0.0
 11
-129.654966
 21
-50.394682
 31
0.0
  0
LINE
  5
6BE
100
AcDbEntity
  8
2
370
    25
100
AcDbLine
 10
-129.654966
 20
-50.394682
 30
0.0
 11
-133.51867
 21
-49.359406
 31
0.0
  0
LINE
  5
6BF
100
AcDbEntity
  8
2
370
    25
100
AcDbLine
 10
-129.654966
 20
-50.394682
 30
0.0
 11
-133.51867
 21
-51.429958
 31
0.0
  0
LINE
  5
6C0
100
AcDbEntity
  8
2
370
    25
100
AcDbLine
 10
-133.51867
 20
-49.359406
 30
0.0
 11
-133.51867
 21
-51.429958
 31
0.0
  0
LINE
  5
6C1
100
AcDbEntity
  8
2
370
    25
100
AcDbLine
 10
-129.654966
 20
-56.22434
 30
0.0
 11
-129.654966
 21
-48.394682
 31
0.0
  0
ENDBLK
  5
6C2
100
AcDbEntity
  8
2
100
AcDbBlockEnd
  0
BLOCK
  5
6C3
100
AcDbEntity
  8
2
100
AcDbBlockBegin
  2
*D3
 70
     1
 10
0.0
 20
0.0
 30
0.0
  3
*D3
  1

  0
LINE
  5
6C4
100
AcDbEntity
  8
2
370
    25
100
AcDbLine
 10
-129.654966
 20
-56.22434
 30
0.0
 11
-129.654966
 21
-48.394682
 31
0.0
  0
LINE
  5
6C5
100
AcDbEntity
  8
2
370
    25
100
AcDbLine
 10
-129.654966
 20
-50.394682
 30
0.0
 11
-125.791263
 21
-51.429958
 31
0.0
  0
LINE
  5
6C6
100
AcDbEntity
  8
2
370
    25
100
AcDbLine
 10
-129.654966
 20
-50.394682
 30
0.0
 11
-125.791263
 21
-49.359406
 31
0.0
  0
LINE
  5
6C7
100
AcDbEntity
  8
2
370
    25
100
AcDbLine
 10
-125.791263
 20
-51.429958
 30
0.0
 11
-125.791263
 21
-49.359406
 31
0.0
  0
LINE
  5
6C8
100
AcDbEntity
  8
2
370
    25
100
AcDbLine
 10
-129.654966
 20
-50.394682
 30
0.0
 11
-16.354808
 21
-50.394682
 31
0.0
  0
LINE
  5
6C9
100
AcDbEntity
  8
2
370
    25
100
AcDbLine
 10
-16.354808
 20
-50.394682
 30
0.0
 11
-20.218511
 21
-49.359406
 31
0.0
  0
LINE
  5
6CA
100
AcDbEntity
  8
2
370
    25
100
AcDbLine
 10
-16.354808
 20
-50.394682
 30
0.0
 11
-20.218511
 21
-51.429958
 31
0.0
  0
LINE
  5
6CB
100
AcDbEntity
  8
2
370
    25
100
AcDbLine
 10
-20.218511
 20
-49.359406
 30
0.0
 11
-20.218511
 21
-51.429958
 31
0.0
  0
LINE
  5
6CC
100
AcDbEntity
  8
2
370
    25
100
AcDbLine
 10
-16.354808
 20
-77.151607
 30
0.0
 11
-16.354808
 21
-48.394682
 31
0.0
  0
ENDBLK
  5
6CD
100
AcDbEntity
  8
2
100
AcDbBlockEnd
  0
BLOCK
  5
6CE
100
AcDbEntity
  8
2
100
AcDbBlockBegin
  2
*D4
 70
     1
 10
0.0
 20
0.0
 30
0.0
  3
*D4
  1

  0
TEXT
  5
6CF
100
AcDbEntity
  8
2
370
    25
100
AcDbText
 10
98.614922
 20
-86.15124
 30
0.0
 40
7.0
  1
２２
 50
90.0
 72
     5
 11
98.614922
 21
-73.55124
 31
0.0
100
AcDbText
  0
LINE
  5
6D0
100
AcDbEntity
  8
2
370
    25
100
AcDbLine
 10
191.129525
 20
-90.15124
 30
0.0
 11
97.614922
 21
-90.15124
 31
0.0
  0
LINE
  5
6D1
100
AcDbEntity
  8
2
370
    25
100
AcDbLine
 10
99.614922
 20
-90.15124
 30
0.0
 11
100.650198
 21
-86.287537
 31
0.0
  0
LINE
  5
6D2
100
AcDbEntity
  8
2
370
    25
100
AcDbLine
 10
99.614922
 20
-90.15124
 30
0.0
 11
98.579645
 21
-86.287537
 31
0.0
  0
LINE
  5
6D3
100
AcDbEntity
  8
2
370
    25
100
AcDbLine
 10
100.650198
 20
-86.287537
 30
0.0
 11
98.579645
 21
-86.287537
 31
0.0
  0
LINE
  5
6D4
100
AcDbEntity
  8
2
370
    25
100
AcDbLine
 10
99.614922
 20
-90.15124
 30
0.0
 11
99.614922
 21
-68.15124
 31
0.0
  0
LINE
  5
6D5
100
AcDbEntity
  8
2
370
    25
100
AcDbLine
 10
99.614922
 20
-68.15124
 30
0.0
 11
98.579645
 21
-72.014943
 31
0.0
  0
LINE
  5
6D6
100
AcDbEntity
  8
2
370
    25
100
AcDbLine
 10
99.614922
 20
-68.15124
 30
0.0
 11
100.650198
 21
-72.014943
 31
0.0
  0
LINE
  5
6D7
100
AcDbEntity
  8
2
370
    25
100
AcDbLine
 10
98.579645
 20
-72.014943
 30
0.0
 11
100.650198
 21
-72.014943
 31
0.0
  0
LINE
  5
6D8
100
AcDbEntity
  8
2
370
    25
100
AcDbLine
 10
191.129525
 20
-68.15124
 30
0.0
 11
97.614922
 21
-68.15124
 31
0.0
  0
ENDBLK
  5
6D9
100
AcDbEntity
  8
2
100
AcDbBlockEnd
  0
BLOCK
  5
6DA
100
AcDbEntity
  8
2
100
AcDbBlockBegin
  2
*D5
 70
     1
 10
0.0
 20
0.0
 30
0.0
  3
*D5
  1

  0
TEXT
  5
6DB
100
AcDbEntity
  8
2
370
    25
100
AcDbText
 10
-216.65495
 20
228.032959
 30
0.0
 40
7.0
  1
１５
 72
     5
 11
-204.05495
 21
228.032959
 31
0.0
100
AcDbText
  0
LINE
  5
6DC
100
AcDbEntity
  8
2
370
    25
100
AcDbLine
 10
-194.65495
 20
193.118371
 30
0.0
 11
-194.65495
 21
229.032959
 31
0.0
  0
LINE
  5
6DD
100
AcDbEntity
  8
2
370
    25
100
AcDbLine
 10
-194.65495
 20
227.032959
 30
0.0
 11
-198.518653
 21
228.068235
 31
0.0
  0
LINE
  5
6DE
100
AcDbEntity
  8
2
370
    25
100
AcDbLine
 10
-194.65495
 20
227.032959
 30
0.0
 11
-198.518653
 21
225.997683
 31
0.0
  0
LINE
  5
6DF
100
AcDbEntity
  8
2
370
    25
100
AcDbLine
 10
-198.518653
 20
228.068235
 30
0.0
 11
-198.518653
 21
225.997683
 31
0.0
  0
LINE
  5
6E0
100
AcDbEntity
  8
2
370
    25
100
AcDbLine
 10
-216.65495
 20
227.032959
 30
0.0
 11
-169.654966
 21
227.032959
 31
0.0
  0
LINE
  5
6E1
100
AcDbEntity
  8
2
370
    25
100
AcDbLine
 10
-179.654966
 20
227.032959
 30
0.0
 11
-175.791263
 21
225.997683
 31
0.0
  0
LINE
  5
6E2
100
AcDbEntity
  8
2
370
    25
100
AcDbLine
 10
-179.654966
 20
227.032959
 30
0.0
 11
-175.791263
 21
228.068235
 31
0.0
  0
LINE
  5
6E3
100
AcDbEntity
  8
2
370
    25
100
AcDbLine
 10
-175.791263
 20
225.997683
 30
0.0
 11
-175.791263
 21
228.068235
 31
0.0
  0
LINE
  5
6E4
100
AcDbEntity
  8
2
370
    25
100
AcDbLine
 10
-179.654966
 20
185.313228
 30
0.0
 11
-179.654966
 21
229.032959
 31
0.0
  0
ENDBLK
  5
6E5
100
AcDbEntity
  8
2
100
AcDbBlockEnd
  0
BLOCK
  5
6E6
100
AcDbEntity
  8
2
100
AcDbBlockBegin
  2
*D6
 70
     1
 10
0.0
 20
0.0
 30
0.0
  3
*D6
  1

  0
TEXT
  5
6E7
100
AcDbEntity
  8
2
370
    25
100
AcDbText
 10
-56.654983
 20
228.032959
 30
0.0
 40
7.0
  1
１５
 72
     5
 11
-44.054983
 21
228.032959
 31
0.0
100
AcDbText
  0
LINE
  5
6E8
100
AcDbEntity
  8
2
370
    25
100
AcDbLine
 10
-79.654966
 20
183.735366
 30
0.0
 11
-79.654966
 21
229.032959
 31
0.0
  0
LINE
  5
6E9
100
AcDbEntity
  8
2
370
    25
100
AcDbLine
 10
-79.654966
 20
227.032959
 30
0.0
 11
-83.51867
 21
228.068235
 31
0.0
  0
LINE
  5
6EA
100
AcDbEntity
  8
2
370
    25
100
AcDbLine
 10
-79.654966
 20
227.032959
 30
0.0
 11
-83.51867
 21
225.997683
 31
0.0
  0
LINE
  5
6EB
100
AcDbEntity
  8
2
370
    25
100
AcDbLine
 10
-83.51867
 20
228.068235
 30
0.0
 11
-83.51867
 21
225.997683
 31
0.0
  0
LINE
  5
6EC
100
AcDbEntity
  8
2
370
    25
100
AcDbLine
 10
-89.654966
 20
227.032959
 30
0.0
 11
-42.654983
 21
227.032959
 31
0.0
  0
LINE
  5
6ED
100
AcDbEntity
  8
2
370
    25
100
AcDbLine
 10
-64.654983
 20
227.032959
 30
0.0
 11
-60.791279
 21
225.997683
 31
0.0
  0
LINE
  5
6EE
100
AcDbEntity
  8
2
370
    25
100
AcDbLine
 10
-64.654983
 20
227.032959
 30
0.0
 11
-60.791279
 21
228.068235
 31
0.0
  0
LINE
  5
6EF
100
AcDbEntity
  8
2
370
    25
100
AcDbLine
 10
-60.791279
 20
225.997683
 30
0.0
 11
-60.791279
 21
228.068235
 31
0.0
  0
LINE
  5
6F0
100
AcDbEntity
  8
2
370
    25
100
AcDbLine
 10
-64.654983
 20
193.118371
 30
0.0
 11
-64.654983
 21
229.032959
 31
0.0
  0
ENDBLK
  5
6F1
100
AcDbEntity
  8
2
100
AcDbBlockEnd
  0
BLOCK
  5
6F2
100
AcDbEntity
  8
2
100
AcDbBlockBegin
  2
*D7
 70
     1
 10
0.0
 20
0.0
 30
0.0
  3
*D7
  1

  0
LINE
  5
6F3
100
AcDbEntity
  8
2
370
    25
100
AcDbLine
 10
-194.65495
 20
193.118371
 30
0.0
 11
-194.65495
 21
251.330063
 31
0.0
  0
LINE
  5
6F4
100
AcDbEntity
  8
2
370
    25
100
AcDbLine
 10
-194.65495
 20
249.330063
 30
0.0
 11
-190.791247
 21
248.294787
 31
0.0
  0
LINE
  5
6F5
100
AcDbEntity
  8
2
370
    25
100
AcDbLine
 10
-194.65495
 20
249.330063
 30
0.0
 11
-190.791247
 21
250.365339
 31
0.0
  0
LINE
  5
6F6
100
AcDbEntity
  8
2
370
    25
100
AcDbLine
 10
-190.791247
 20
248.294787
 30
0.0
 11
-190.791247
 21
250.365339
 31
0.0
  0
LINE
  5
6F7
100
AcDbEntity
  8
2
370
    25
100
AcDbLine
 10
-194.65495
 20
249.330063
 30
0.0
 11
-64.654983
 21
249.330063
 31
0.0
  0
LINE
  5
6F8
100
AcDbEntity
  8
2
370
    25
100
AcDbLine
 10
-64.654983
 20
249.330063
 30
0.0
 11
-68.518686
 21
250.365339
 31
0.0
  0
LINE
  5
6F9
100
AcDbEntity
  8
2
370
    25
100
AcDbLine
 10
-64.654983
 20
249.330063
 30
0.0
 11
-68.518686
 21
248.294787
 31
0.0
  0
LINE
  5
6FA
100
AcDbEntity
  8
2
370
    25
100
AcDbLine
 10
-68.518686
 20
250.365339
 30
0.0
 11
-68.518686
 21
248.294787
 31
0.0
  0
LINE
  5
6FB
100
AcDbEntity
  8
2
370
    25
100
AcDbLine
 10
-64.654983
 20
193.118371
 30
0.0
 11
-64.654983
 21
251.330063
 31
0.0
  0
ENDBLK
  5
6FC
100
AcDbEntity
  8
2
100
AcDbBlockEnd
  0
BLOCK
  5
6FD
100
AcDbEntity
  8
2
100
AcDbBlockBegin
  2
*D8
 70
     1
 10
0.0
 20
0.0
 30
0.0
  3
*D8
  1

  0
TEXT
  5
6FE
100
AcDbEntity
  8
2
370
    25
100
AcDbText
 10
149.871768
 20
-103.001762
 30
0.0
 40
7.0
  1
９０゜
 50
300.0
 72
     5
 11
159.671768
 21
-119.97586
 31
0.0
100
AcDbText
  0
LINE
  5
6FF
100
AcDbEntity
  8
2
370
    25
100
AcDbLine
 10
146.957989
 20
-77.779614
 30
0.0
 11
152.669232
 21
-79.309937
 31
0.0
  0
LINE
  5
700
100
AcDbEntity
  8
2
370
    25
100
AcDbLine
 10
188.000128
 20
-109.294407
 30
0.0
 11
181.252946
 21
-134.475236
 31
0.0
  0
LINE
  5
701
100
AcDbEntity
  8
2
370
    25
100
AcDbLine
 10
150.737381
 20
-78.792299
 30
0.0
 11
148.891803
 21
-82.341079
 31
0.0
  0
LINE
  5
702
100
AcDbEntity
  8
2
370
    25
100
AcDbLine
 10
150.737381
 20
-78.792299
 30
0.0
 11
150.913453
 21
-82.788422
 31
0.0
  0
LINE
  5
703
100
AcDbEntity
  8
2
370
    25
100
AcDbLine
 10
148.891803
 20
-82.341079
 30
0.0
 11
150.913453
 21
-82.788422
 31
0.0
  0
LINE
  5
704
100
AcDbEntity
  8
2
370
    25
100
AcDbLine
 10
181.770584
 20
-132.543384
 30
0.0
 11
178.397876
 21
-130.392839
 31
0.0
  0
LINE
  5
705
100
AcDbEntity
  8
2
370
    25
100
AcDbLine
 10
181.770584
 20
-132.543384
 30
0.0
 11
177.774461
 21
-132.367311
 31
0.0
  0
LINE
  5
706
100
AcDbEntity
  8
2
370
    25
100
AcDbLine
 10
178.397876
 20
-130.392839
 30
0.0
 11
177.774461
 21
-132.367311
 31
0.0
  0
ARC
  5
707
100
AcDbEntity
  8
2
370
    25
100
AcDbCircle
 10
193.129525
 20
-90.15124
 30
0.0
 40
43.887577
100
AcDbArc
 50
165.0
 51
255.0
  0
ENDBLK
  5
708
100
AcDbEntity
  8
2
100
AcDbBlockEnd
  0
BLOCK
  5
709
100
AcDbEntity
  8
2
100
AcDbBlockBegin
  2
*D9
 70
     1
 10
0.0
 20
0.0
 30
0.0
  3
*D9
  1

  0
TEXT
  5
70A
100
AcDbEntity
  8
2
370
    25
100
AcDbText
 10
162.092469
 20
-57.393483
 30
0.0
 40
7.0
  1
９０゜
 50
30.0
 72
     5
 11
179.066567
 21
-47.593483
 31
0.0
100
AcDbText
  0
LINE
  5
70B
100
AcDbEntity
  8
2
370
    25
100
AcDbLine
 10
203.813445
 20
-50.278306
 30
0.0
 11
205.006104
 21
-45.827244
 31
0.0
  0
LINE
  5
70C
100
AcDbEntity
  8
2
370
    25
100
AcDbLine
 10
146.957989
 20
-77.779614
 30
0.0
 11
152.669232
 21
-79.309937
 31
0.0
  0
LINE
  5
70D
100
AcDbEntity
  8
2
370
    25
100
AcDbLine
 10
204.488465
 20
-47.759096
 30
0.0
 11
200.939685
 21
-45.913518
 31
0.0
  0
LINE
  5
70E
100
AcDbEntity
  8
2
370
    25
100
AcDbLine
 10
204.488465
 20
-47.759096
 30
0.0
 11
200.492343
 21
-47.935169
 31
0.0
  0
LINE
  5
70F
100
AcDbEntity
  8
2
370
    25
100
AcDbLine
 10
200.939685
 20
-45.913518
 30
0.0
 11
200.492343
 21
-47.935169
 31
0.0
  0
LINE
  5
710
100
AcDbEntity
  8
2
370
    25
100
AcDbLine
 10
150.737381
 20
-78.792299
 30
0.0
 11
152.887926
 21
-75.419592
 31
0.0
  0
LINE
  5
711
100
AcDbEntity
  8
2
370
    25
100
AcDbLine
 10
150.737381
 20
-78.792299
 30
0.0
 11
150.913453
 21
-74.796176
 31
0.0
  0
LINE
  5
712
100
AcDbEntity
  8
2
370
    25
100
AcDbLine
 10
152.887926
 20
-75.419592
 30
0.0
 11
150.913453
 21
-74.796176
 31
0.0
  0
ARC
  5
713
100
AcDbEntity
  8
2
370
    25
100
AcDbCircle
 10
193.129525
 20
-90.15124
 30
0.0
 40
43.887577
100
AcDbArc
 50
75.0
 51
165.0
  0
ENDBLK
  5
714
100
AcDbEntity
  8
2
100
AcDbBlockEnd
  0
BLOCK
  5
715
100
AcDbEntity
  8
2
100
AcDbBlockBegin
  2
*D10
 70
     1
 10
0.0
 20
0.0
 30
0.0
  3
*D10
  1

  0
TEXT
  5
716
100
AcDbEntity
  8
2
370
    25
100
AcDbText
 10
229.629651
 20
-186.05957
 30
0.0
 40
7.0
  1
８７
 72
     5
 11
242.229651
 21
-186.05957
 31
0.0
100
AcDbText
  0
LINE
  5
717
100
AcDbEntity
  8
2
370
    25
100
AcDbLine
 10
193.129525
 20
-120.15124
 30
0.0
 11
193.129525
 21
-189.05957
 31
0.0
  0
LINE
  5
718
100
AcDbEntity
  8
2
370
    25
100
AcDbLine
 10
193.129525
 20
-187.05957
 30
0.0
 11
196.993228
 21
-188.094846
 31
0.0
  0
LINE
  5
719
100
AcDbEntity
  8
2
370
    25
100
AcDbLine
 10
193.129525
 20
-187.05957
 30
0.0
 11
196.993228
 21
-186.024294
 31
0.0
  0
LINE
  5
71A
100
AcDbEntity
  8
2
370
    25
100
AcDbLine
 10
196.993228
 20
-188.094846
 30
0.0
 11
196.993228
 21
-186.024294
 31
0.0
  0
LINE
  5
71B
100
AcDbEntity
  8
2
370
    25
100
AcDbLine
 10
193.129525
 20
-187.05957
 30
0.0
 11
280.129776
 21
-187.05957
 31
0.0
  0
LINE
  5
71C
100
AcDbEntity
  8
2
370
    25
100
AcDbLine
 10
280.129776
 20
-187.05957
 30
0.0
 11
276.266073
 21
-186.024294
 31
0.0
  0
LINE
  5
71D
100
AcDbEntity
  8
2
370
    25
100
AcDbLine
 10
280.129776
 20
-187.05957
 30
0.0
 11
276.266073
 21
-188.094846
 31
0.0
  0
LINE
  5
71E
100
AcDbEntity
  8
2
370
    25
100
AcDbLine
 10
276.266073
 20
-186.024294
 30
0.0
 11
276.266073
 21
-188.094846
 31
0.0
  0
LINE
  5
71F
100
AcDbEntity
  8
2
370
    25
100
AcDbLine
 10
280.129776
 20
-119.28088
 30
0.0
 11
280.129776
 21
-189.05957
 31
0.0
  0
ENDBLK
  5
720
100
AcDbEntity
  8
2
100
AcDbBlockEnd
  0
BLOCK
  5
721
100
AcDbEntity
  8
2
100
AcDbBlockBegin
  2
*D11
 70
     1
 10
0.0
 20
0.0
 30
0.0
  3
*D11
  1

  0
TEXT
  5
722
100
AcDbEntity
  8
2
370
    25
100
AcDbText
 10
23.590557
 20
-137.24824
 30
0.0
 40
7.0
  1
６６．２
 50
90.0
 72
     5
 11
23.590557
 21
-110.64824
 31
0.0
100
AcDbText
  0
LINE
  5
723
100
AcDbEntity
  8
2
370
    25
100
AcDbLine
 10
35.249533
 20
-156.34524
 30
0.0
 11
22.590557
 21
-156.34524
 31
0.0
  0
LINE
  5
724
100
AcDbEntity
  8
2
370
    25
100
AcDbLine
 10
24.590557
 20
-156.34524
 30
0.0
 11
25.625833
 21
-152.481537
 31
0.0
  0
LINE
  5
725
100
AcDbEntity
  8
2
370
    25
100
AcDbLine
 10
24.590557
 20
-156.34524
 30
0.0
 11
23.555281
 21
-152.481537
 31
0.0
  0
LINE
  5
726
100
AcDbEntity
  8
2
370
    25
100
AcDbLine
 10
25.625833
 20
-152.481537
 30
0.0
 11
23.555281
 21
-152.481537
 31
0.0
  0
LINE
  5
727
100
AcDbEntity
  8
2
370
    25
100
AcDbLine
 10
24.590557
 20
-156.34524
 30
0.0
 11
24.590557
 21
-90.15124
 31
0.0
  0
LINE
  5
728
100
AcDbEntity
  8
2
370
    25
100
AcDbLine
 10
24.590557
 20
-90.15124
 30
0.0
 11
23.555281
 21
-94.014943
 31
0.0
  0
LINE
  5
729
100
AcDbEntity
  8
2
370
    25
100
AcDbLine
 10
24.590557
 20
-90.15124
 30
0.0
 11
25.625833
 21
-94.014943
 31
0.0
  0
LINE
  5
72A
100
AcDbEntity
  8
2
370
    25
100
AcDbLine
 10
23.555281
 20
-94.014943
 30
0.0
 11
25.625833
 21
-94.014943
 31
0.0
  0
LINE
  5
72B
100
AcDbEntity
  8
2
370
    25
100
AcDbLine
 10
163.129525
 20
-90.15124
 30
0.0
 11
22.590557
 21
-90.15124
 31
0.0
  0
ENDBLK
  5
72C
100
AcDbEntity
  8
2
100
AcDbBlockEnd
  0
BLOCK
  5
72D
100
AcDbEntity
  8
2
100
AcDbBlockBegin
  2
*D12
 70
     1
 10
0.0
 20
0.0
 30
0.0
  3
*D12
  1

  0
TEXT
  5
72E
100
AcDbEntity
  8
2
370
    25
100
AcDbText
 10
3.117865
 20
-159.04824
 30
0.0
 40
7.0
  1
１０２．８
 50
90.0
 72
     5
 11
3.117865
 21
-125.44824
 31
0.0
100
AcDbText
  0
LINE
  5
72F
100
AcDbEntity
  8
2
370
    25
100
AcDbLine
 10
29.59682
 20
-192.94524
 30
0.0
 11
2.117865
 21
-192.94524
 31
0.0
  0
LINE
  5
730
100
AcDbEntity
  8
2
370
    25
100
AcDbLine
 10
4.117865
 20
-192.94524
 30
0.0
 11
5.153141
 21
-189.081537
 31
0.0
  0
LINE
  5
731
100
AcDbEntity
  8
2
370
    25
100
AcDbLine
 10
4.117865
 20
-192.94524
 30
0.0
 11
3.082588
 21
-189.081537
 31
0.0
  0
LINE
  5
732
100
AcDbEntity
  8
2
370
    25
100
AcDbLine
 10
5.153141
 20
-189.081537
 30
0.0
 11
3.082588
 21
-189.081537
 31
0.0
  0
LINE
  5
733
100
AcDbEntity
  8
2
370
    25
100
AcDbLine
 10
4.117865
 20
-192.94524
 30
0.0
 11
4.117865
 21
-90.15124
 31
0.0
  0
LINE
  5
734
100
AcDbEntity
  8
2
370
    25
100
AcDbLine
 10
4.117865
 20
-90.15124
 30
0.0
 11
3.082588
 21
-94.014943
 31
0.0
  0
LINE
  5
735
100
AcDbEntity
  8
2
370
    25
100
AcDbLine
 10
4.117865
 20
-90.15124
 30
0.0
 11
5.153141
 21
-94.014943
 31
0.0
  0
LINE
  5
736
100
AcDbEntity
  8
2
370
    25
100
AcDbLine
 10
3.082588
 20
-94.014943
 30
0.0
 11
5.153141
 21
-94.014943
 31
0.0
  0
LINE
  5
737
100
AcDbEntity
  8
2
370
    25
100
AcDbLine
 10
163.129525
 20
-90.15124
 30
0.0
 11
2.117865
 21
-90.15124
 31
0.0
  0
ENDBLK
  5
738
100
AcDbEntity
  8
2
100
AcDbBlockEnd
  0
BLOCK
  5
739
100
AcDbEntity
  8
2
100
AcDbBlockBegin
  2
*D13
 70
     1
 10
0.0
 20
0.0
 30
0.0
  3
*D13
  1

  0
TEXT
  5
73A
100
AcDbEntity
  8
2
370
    25
100
AcDbText
 10
116.679525
 20
-203.008316
 30
0.0
 40
7.0
  1
１７０
 72
     5
 11
136.279525
 21
-203.008316
 31
0.0
100
AcDbText
  0
LINE
  5
73B
100
AcDbEntity
  8
2
370
    25
100
AcDbLine
 10
42.229525
 20
-194.94524
 30
0.0
 11
42.229525
 21
-206.008316
 31
0.0
  0
LINE
  5
73C
100
AcDbEntity
  8
2
370
    25
100
AcDbLine
 10
42.229525
 20
-204.008316
 30
0.0
 11
46.093228
 21
-205.043592
 31
0.0
  0
LINE
  5
73D
100
AcDbEntity
  8
2
370
    25
100
AcDbLine
 10
42.229525
 20
-204.008316
 30
0.0
 11
46.093228
 21
-202.97304
 31
0.0
  0
LINE
  5
73E
100
AcDbEntity
  8
2
370
    25
100
AcDbLine
 10
46.093228
 20
-205.043592
 30
0.0
 11
46.093228
 21
-202.97304
 31
0.0
  0
LINE
  5
73F
100
AcDbEntity
  8
2
370
    25
100
AcDbLine
 10
42.229525
 20
-204.008316
 30
0.0
 11
212.129525
 21
-204.008316
 31
0.0
  0
LINE
  5
740
100
AcDbEntity
  8
2
370
    25
100
AcDbLine
 10
212.129525
 20
-204.008316
 30
0.0
 11
208.265821
 21
-202.97304
 31
0.0
  0
LINE
  5
741
100
AcDbEntity
  8
2
370
    25
100
AcDbLine
 10
212.129525
 20
-204.008316
 30
0.0
 11
208.265821
 21
-205.043592
 31
0.0
  0
LINE
  5
742
100
AcDbEntity
  8
2
370
    25
100
AcDbLine
 10
208.265821
 20
-202.97304
 30
0.0
 11
208.265821
 21
-205.043592
 31
0.0
  0
LINE
  5
743
100
AcDbEntity
  8
2
370
    25
100
AcDbLine
 10
212.129525
 20
-134.65124
 30
0.0
 11
212.129525
 21
-206.008316
 31
0.0
  0
ENDBLK
  5
744
100
AcDbEntity
  8
2
100
AcDbBlockEnd
  0
BLOCK
  5
745
100
AcDbEntity
  8
2
100
AcDbBlockBegin
  2
*D14
 70
     1
 10
0.0
 20
0.0
 30
0.0
  3
*D14
  1

  0
LINE
  5
746
100
AcDbEntity
  8
2
370
    25
100
AcDbLine
 10
193.129525
 20
-120.15124
 30
0.0
 11
193.129525
 21
-171.621643
 31
0.0
  0
LINE
  5
747
100
AcDbEntity
  8
2
370
    25
100
AcDbLine
 10
193.129525
 20
-169.621643
 30
0.0
 11
196.993228
 21
-170.656919
 31
0.0
  0
LINE
  5
748
100
AcDbEntity
  8
2
370
    25
100
AcDbLine
 10
193.129525
 20
-169.621643
 30
0.0
 11
196.993228
 21
-168.586367
 31
0.0
  0
LINE
  5
749
100
AcDbEntity
  8
2
370
    25
100
AcDbLine
 10
196.993228
 20
-170.656919
 30
0.0
 11
196.993228
 21
-168.586367
 31
0.0
  0
LINE
  5
74A
100
AcDbEntity
  8
2
370
    25
100
AcDbLine
 10
193.129525
 20
-169.621643
 30
0.0
 11
255.129525
 21
-169.621643
 31
0.0
  0
LINE
  5
74B
100
AcDbEntity
  8
2
370
    25
100
AcDbLine
 10
255.129525
 20
-169.621643
 30
0.0
 11
251.265821
 21
-168.586367
 31
0.0
  0
LINE
  5
74C
100
AcDbEntity
  8
2
370
    25
100
AcDbLine
 10
255.129525
 20
-169.621643
 30
0.0
 11
251.265821
 21
-170.656919
 31
0.0
  0
LINE
  5
74D
100
AcDbEntity
  8
2
370
    25
100
AcDbLine
 10
251.265821
 20
-168.586367
 30
0.0
 11
251.265821
 21
-170.656919
 31
0.0
  0
LINE
  5
74E
100
AcDbEntity
  8
2
370
    25
100
AcDbLine
 10
255.129525
 20
-117.15124
 30
0.0
 11
255.129525
 21
-171.621643
 31
0.0
  0
ENDBLK
  5
74F
100
AcDbEntity
  8
2
100
AcDbBlockEnd
  0
ENDSEC
  0
SECTION
  2
ENTITIES
  0
LINE
  5
33
100
AcDbEntity
  8
1
370
   100
100
AcDbLine
 10
-373.02157
 20
275.028767
 30
0.0
 11
394.982385
 21
275.028767
 31
0.0
  0
LINE
  5
34
100
AcDbEntity
  8
1
370
   100
100
AcDbLine
 10
-373.02157
 20
275.028767
 30
0.0
 11
-373.02157
 21
-277.971881
 31
0.0
  0
LINE
  5
35
100
AcDbEntity
  8
1
370
   100
100
AcDbLine
 10
-373.02157
 20
-277.971881
 30
0.0
 11
394.982385
 21
-277.971881
 31
0.0
  0
LINE
  5
36
100
AcDbEntity
  8
1
370
   100
100
AcDbLine
 10
394.982385
 20
-277.971881
 30
0.0
 11
394.982385
 21
275.028767
 31
0.0
  0
TEXT
  5
37
100
AcDbEntity
  8
1
370
    50
100
AcDbText
 10
359.628442
 20
-226.252857
 30
0.0
 40
6.0
  1
設計
 72
     5
 11
370.428442
 21
-226.252857
 31
0.0
100
AcDbText
  0
TEXT
  5
38
100
AcDbEntity
  8
1
370
    50
100
AcDbText
 10
379.127478
 20
-226.099658
 30
0.0
 40
6.0
  1
製図
 72
     5
 11
389.927478
 21
-226.099658
 31
0.0
100
AcDbText
  0
TEXT
  5
39
100
AcDbEntity
  8
1
370
    50
100
AcDbText
 10
319.005745
 20
-226.252857
 30
0.0
 40
6.0
  1
承認
 72
     5
 11
329.805745
 21
-226.252857
 31
0.0
100
AcDbText
  0
TEXT
  5
3A
100
AcDbEntity
  8
1
370
    50
100
AcDbText
 10
338.989679
 20
-226.19802
 30
0.0
 40
6.0
  1
検図
 72
     5
 11
349.789679
 21
-226.19802
 31
0.0
100
AcDbText
  0
LINE
  5
3B
100
AcDbEntity
  8
1
370
    25
100
AcDbLine
 10
284.982385
 20
-227.971881
 30
0.0
 11
394.982385
 21
-227.971881
 31
0.0
  0
LINE
  5
3C
100
AcDbEntity
  8
1
370
    25
100
AcDbLine
 10
342.482385
 20
-245.971881
 30
0.0
 11
342.482385
 21
-259.971881
 31
0.0
  0
TEXT
  5
3D
100
AcDbEntity
  8
1
370
    50
100
AcDbText
 10
319.55159
 20
-256.012528
 30
0.0
 40
6.0
  1
日　付
 72
     5
 11
336.35159
 21
-256.012528
 31
0.0
100
AcDbText
  0
LINE
  5
3E
100
AcDbEntity
  8
1
370
    50
100
AcDbLine
 10
40.982385
 20
-259.971881
 30
0.0
 11
394.982385
 21
-259.971881
 31
0.0
  0
TEXT
  5
3F
100
AcDbEntity
  8
1
370
    50
100
AcDbText
 10
287.775011
 20
-256.322406
 30
0.0
 40
6.0
  1
第三角法
 72
     5
 11
310.575011
 21
-256.322406
 31
0.0
100
AcDbText
  0
TEXT
  5
40
100
AcDbEntity
  8
1
370
    50
100
AcDbText
 10
291.087419
 20
-225.99802
 30
0.0
 40
6.0
  1
尺　度
 72
     5
 11
307.887419
 21
-225.99802
 31
0.0
100
AcDbText
  0
LINE
  5
41
100
AcDbEntity
  8
1
370
   100
100
AcDbLine
 10
40.982385
 20
-217.971881
 30
0.0
 11
394.982385
 21
-217.971881
 31
0.0
  0
LINE
  5
42
100
AcDbEntity
  8
1
370
    50
100
AcDbLine
 10
211.982385
 20
-217.971881
 30
0.0
 11
211.982385
 21
-277.971881
 31
0.0
  0
LINE
  5
43
100
AcDbEntity
  8
1
370
    25
100
AcDbLine
 10
374.982385
 20
-245.971881
 30
0.0
 11
374.982385
 21
-217.971881
 31
0.0
  0
LINE
  5
44
100
AcDbEntity
  8
1
370
    25
100
AcDbLine
 10
354.982385
 20
-245.971881
 30
0.0
 11
354.982385
 21
-217.971881
 31
0.0
  0
LINE
  5
45
100
AcDbEntity
  8
1
370
    25
100
AcDbLine
 10
334.982385
 20
-245.971881
 30
0.0
 11
334.982385
 21
-217.971881
 31
0.0
  0
LINE
  5
46
100
AcDbEntity
  8
1
370
    50
100
AcDbLine
 10
284.982385
 20
-277.971881
 30
0.0
 11
284.982385
 21
-217.971881
 31
0.0
  0
LINE
  5
47
100
AcDbEntity
  8
1
370
    50
100
AcDbLine
 10
189.982385
 20
-217.971881
 30
0.0
 11
189.982385
 21
-277.971881
 31
0.0
  0
LINE
  5
48
100
AcDbEntity
  8
1
370
    50
100
AcDbLine
 10
62.982385
 20
-217.971881
 30
0.0
 11
62.982385
 21
-259.971881
 31
0.0
  0
LINE
  5
49
100
AcDbEntity
  8
1
370
    50
100
AcDbLine
 10
284.982385
 20
-245.971881
 30
0.0
 11
394.982385
 21
-245.971881
 31
0.0
  0
TEXT
  5
4A
100
AcDbEntity
  8
1
370
    50
100
AcDbText
 10
287.101129
 20
-271.880939
 30
0.0
 40
6.0
  1
コードＮｏ
 41
0.9
 72
     5
 11
313.021129
 21
-271.880939
 31
0.0
100
AcDbText
  0
TEXT
  5
4B
100
AcDbEntity
  8
1
370
   100
100
AcDbText
 10
52.886774
 20
-272.875659
 30
0.0
 40
8.0
  1
ミズタニバルブ工業株式会社
 41
1.2
 72
     5
 11
175.766774
 21
-272.875659
 31
0.0
100
AcDbText
  0
LINE
  5
4C
100
AcDbEntity
  8
1
370
    50
100
AcDbLine
 10
40.982385
 20
-238.971881
 30
0.0
 11
284.982385
 21
-238.971881
 31
0.0
  0
LINE
  5
4D
100
AcDbEntity
  8
1
370
    50
100
AcDbLine
 10
115.482385
 20
-238.971881
 30
0.0
 11
115.482385
 21
-259.971881
 31
0.0
  0
LINE
  5
4E
100
AcDbEntity
  8
1
370
    50
100
AcDbLine
 10
137.482385
 20
-238.971881
 30
0.0
 11
137.482385
 21
-259.971881
 31
0.0
  0
LINE
  5
4F
100
AcDbEntity
  8
1
370
    50
100
AcDbLine
 10
314.982385
 20
-277.971881
 30
0.0
 11
314.982385
 21
-217.971881
 31
0.0
  0
TEXT
  5
50
100
AcDbEntity
  8
1
370
    50
100
AcDbText
 10
345.098131
 20
-256.100293
 30
0.0
 40
6.0
  1
　　・　　・
 72
     5
 11
379.898131
 21
-256.100293
 31
0.0
100
AcDbText
  0
LINE
  5
51
100
AcDbEntity
  8
1
370
   100
100
AcDbLine
 10
40.982385
 20
-217.971881
 30
0.0
 11
40.982385
 21
-277.971881
 31
0.0
  0
TEXT
  5
52
100
AcDbEntity
  8
1
370
    50
100
AcDbText
 10
290.832582
 20
-240.013492
 30
0.0
 40
6.0
  1
　／ 
 72
     5
 11
301.632582
 21
-240.013492
 31
0.0
100
AcDbText
  0
TEXT
  5
53
100
AcDbEntity
  8
1
370
    50
100
AcDbText
 10
193.904123
 20
-272.024909
 30
0.0
 40
6.0
  1
備 考 
 72
     5
 11
207.704123
 21
-272.024909
 31
0.0
100
AcDbText
  0
TEXT
  5
54
100
AcDbEntity
  8
1
370
    50
100
AcDbText
 10
193.512534
 20
-230.89184
 30
0.0
 40
6.0
  1
仕 上
 72
     5
 11
207.312534
 21
-230.89184
 31
0.0
100
AcDbText
  0
TEXT
  5
55
100
AcDbEntity
  8
1
370
    50
100
AcDbText
 10
193.447176
 20
-248.891666
 30
0.0
 40
6.0
  1
表 面
 72
     5
 11
207.247176
 21
-248.891666
 31
0.0
100
AcDbText
  0
TEXT
  5
56
100
AcDbEntity
  8
1
370
    50
100
AcDbText
 10
193.447176
 20
-255.891666
 30
0.0
 40
6.0
  1
処 理
 72
     5
 11
207.247176
 21
-255.891666
 31
0.0
100
AcDbText
  0
TEXT
  5
57
100
AcDbEntity
  8
1
370
    50
100
AcDbText
 10
44.79335
 20
-231.693399
 30
0.0
 40
6.0
  1
品 名
 72
     5
 11
58.59335
 21
-231.693399
 31
0.0
100
AcDbText
  0
TEXT
  5
58
100
AcDbEntity
  8
1
370
    50
100
AcDbText
 10
44.397766
 20
-252.462534
 30
0.0
 40
6.0
  1
材 質
 72
     5
 11
58.197766
 21
-252.462534
 31
0.0
100
AcDbText
  0
TEXT
  5
59
100
AcDbEntity
  8
1
370
    50
100
AcDbText
 10
118.897766
 20
-252.462534
 30
0.0
 40
6.0
  1
規 格
 72
     5
 11
132.697766
 21
-252.462534
 31
0.0
100
AcDbText
  0
LINE
  5
5A
100
AcDbEntity
  8
2
370
    25
  6
CENTER
100
AcDbLine
 10
145.026137
 20
-77.261976
 30
0.0
 11
193.129525
 21
-90.15124
 31
0.0
  0
LINE
  5
5B
100
AcDbEntity
  8
2
370
    25
  6
CENTER
100
AcDbLine
 10
182.449643
 20
-130.009102
 30
0.0
 11
188.517767
 21
-107.362556
 31
0.0
  0
LINE
  5
5C
100
AcDbEntity
  8
2
370
    25
  6
CENTER
100
AcDbLine
 10
203.295807
 20
-52.210158
 30
0.0
 11
197.992999
 21
-72.000508
 31
0.0
  0
TEXT
  5
5D
100
AcDbEntity
  8
2
370
    50
100
AcDbText
 10
120.00293
 20
-77.996449
 30
0.0
 40
7.0
  1
止水
 72
     5
 11
132.60293
 21
-77.996449
 31
0.0
100
AcDbText
  0
TEXT
  5
5E
100
AcDbEntity
  8
2
370
    50
100
AcDbText
 10
175.334625
 20
-40.188783
 30
0.0
 40
7.0
  1
シャワー吐水
 72
     5
 11
215.934625
 21
-40.188783
 31
0.0
100
AcDbText
  0
TEXT
  5
5F
100
AcDbEntity
  8
2
370
    50
100
AcDbText
 10
132.417511
 20
-134.012894
 30
0.0
 40
7.0
  1
パイプ吐水
 72
     5
 11
166.017511
 21
-134.012894
 31
0.0
100
AcDbText
  0
TEXT
  5
60
100
AcDbEntity
  8
2
370
    50
100
AcDbText
 10
-269.567637
 20
33.512315
 30
0.0
 40
7.0
  1
吐水温度表示
 72
     5
 11
-228.967637
 21
33.512315
 31
0.0
100
AcDbText
  0
LWPOLYLINE
  5
61
100
AcDbEntity
  8
2
370
    25
100
AcDbPolyline
 90
        3
 70
     0
 10
-205.137812
 20
79.900888
 10
-216.62031
 20
36.893045
 10
-226.422526
 20
36.893045
  0
LINE
  5
66
100
AcDbEntity
  8
2
370
    25
100
AcDbLine
 10
-206.134457
 20
76.16794
 30
0.0
 11
-205.134217
 21
75.900889
 31
0.0
  0
LINE
  5
67
100
AcDbEntity
  8
2
370
    25
100
AcDbLine
 10
-205.134217
 20
75.900889
 30
0.0
 11
-205.137812
 21
79.900888
 31
0.0
  0
LINE
  5
68
100
AcDbEntity
  8
2
370
    25
100
AcDbLine
 10
-205.137812
 20
79.900888
 30
0.0
 11
-207.134698
 21
76.43499
 31
0.0
  0
LINE
  5
69
100
AcDbEntity
  8
2
370
    25
100
AcDbLine
 10
-207.134698
 20
76.43499
 30
0.0
 11
-206.134457
 21
76.16794
 31
0.0
  0
TEXT
  5
6A
100
AcDbEntity
  8
2
370
    50
100
AcDbText
 10
-269.567637
 20
48.512315
 30
0.0
 40
7.0
  1
安全ボタン
 72
     5
 11
-235.967637
 21
48.512315
 31
0.0
100
AcDbText
  0
LWPOLYLINE
  5
6B
100
AcDbEntity
  8
2
370
    25
100
AcDbPolyline
 90
        3
 70
     0
 10
-214.628092
 20
78.874017
 10
-222.029276
 20
51.984227
 10
-234.696726
 20
51.984227
  0
LINE
  5
70
100
AcDbEntity
  8
2
370
    25
100
AcDbLine
 10
-215.653414
 20
75.148843
 30
0.0
 11
-214.655257
 21
74.874109
 31
0.0
  0
LINE
  5
71
100
AcDbEntity
  8
2
370
    25
100
AcDbLine
 10
-214.655257
 20
74.874109
 30
0.0
 11
-214.628092
 21
78.874017
 31
0.0
  0
LINE
  5
72
100
AcDbEntity
  8
2
370
    25
100
AcDbLine
 10
-214.628092
 20
78.874017
 30
0.0
 11
-216.651571
 21
75.423578
 31
0.0
  0
LINE
  5
73
100
AcDbEntity
  8
2
370
    25
100
AcDbLine
 10
-216.651571
 20
75.423578
 30
0.0
 11
-215.653414
 21
75.148843
 31
0.0
  0
POINT
  5
74
100
AcDbEntity
  8
2
370
    50
100
AcDbPoint
 10
-129.654966
 20
131.118119
 30
0.0
  0
TEXT
  5
75
100
AcDbEntity
  8
2
370
    50
100
AcDbText
 10
-46.458363
 20
28.396935
 30
0.0
 40
7.0
  1
シャワー、パイプ吐水
 72
     5
 11
22.141637
 21
28.396935
 31
0.0
100
AcDbText
  0
TEXT
  5
76
100
AcDbEntity
  8
2
370
    50
100
AcDbText
 10
-46.458363
 20
20.396935
 30
0.0
 40
7.0
  1
及び止水位置の表示
 72
     5
 11
15.141637
 21
20.396935
 31
0.0
100
AcDbText
  0
LWPOLYLINE
  5
77
100
AcDbEntity
  8
2
370
    25
100
AcDbPolyline
 90
        3
 70
     0
 10
-63.881148
 20
81.49726
 10
-57.164341
 20
31.263973
 10
-48.043331
 20
31.263973
  0
LINE
  5
7C
100
AcDbEntity
  8
2
370
    25
100
AcDbLine
 10
-63.369081
 20
77.66764
 30
0.0
 11
-62.342937
 21
77.804848
 31
0.0
  0
LINE
  5
7D
100
AcDbEntity
  8
2
370
    25
100
AcDbLine
 10
-62.342937
 20
77.804848
 30
0.0
 11
-63.881148
 21
81.49726
 31
0.0
  0
LINE
  5
7E
100
AcDbEntity
  8
2
370
    25
100
AcDbLine
 10
-63.881148
 20
81.49726
 30
0.0
 11
-64.395225
 21
77.530432
 31
0.0
  0
LINE
  5
7F
100
AcDbEntity
  8
2
370
    25
100
AcDbLine
 10
-64.395225
 20
77.530432
 30
0.0
 11
-63.369081
 21
77.66764
 31
0.0
  0
TEXT
  5
80
100
AcDbEntity
  8
2
370
    50
100
AcDbText
 10
-274.009165
 20
20.2137
 30
0.0
 40
7.0
  1
４０度位置の表示
 72
     5
 11
-219.409165
 21
20.2137
 31
0.0
100
AcDbText
  0
LWPOLYLINE
  5
81
100
AcDbEntity
  8
2
370
    25
100
AcDbPolyline
 90
        3
 70
     0
 10
-194.30777
 20
90.608315
 10
-208.905411
 20
23.57505
 10
-217.246872
 20
23.57505
  0
LINE
  5
86
100
AcDbEntity
  8
2
370
    25
100
AcDbLine
 10
-195.12989
 20
86.83309
 30
0.0
 11
-194.118321
 21
86.612803
 31
0.0
  0
LINE
  5
87
100
AcDbEntity
  8
2
370
    25
100
AcDbLine
 10
-194.118321
 20
86.612803
 30
0.0
 11
-194.30777
 21
90.608315
 31
0.0
  0
LINE
  5
88
100
AcDbEntity
  8
2
370
    25
100
AcDbLine
 10
-194.30777
 20
90.608315
 30
0.0
 11
-196.141458
 21
87.053376
 31
0.0
  0
LINE
  5
89
100
AcDbEntity
  8
2
370
    25
100
AcDbLine
 10
-196.141458
 20
87.053376
 30
0.0
 11
-195.12989
 21
86.83309
 31
0.0
  0
TEXT
  5
8A
100
AcDbEntity
  8
2
370
    50
100
AcDbText
 10
228.956802
 20
-272.482361
 30
0.0
 40
7.0
  1
外観寸法図
 72
     5
 11
262.556802
 21
-272.482361
 31
0.0
100
AcDbText
  0
LINE
  5
8B
100
AcDbEntity
  8
2
370
    50
100
AcDbLine
 10
-64.954388
 20
-92.021335
 30
0.0
 11
-64.954388
 21
-95.021335
 31
0.0
  0
ARC
  5
8C
100
AcDbEntity
  8
2
370
    50
100
AcDbCircle
 10
-65.254388
 20
-95.021335
 30
0.0
 40
0.3
100
AcDbArc
 50
180.0
 51
360.0
  0
LINE
  5
8D
100
AcDbEntity
  8
2
370
    50
100
AcDbLine
 10
-65.554388
 20
-92.021335
 30
0.0
 11
-65.554388
 21
-95.021335
 31
0.0
  0
ARC
  5
8E
100
AcDbEntity
  8
2
370
    50
100
AcDbCircle
 10
-65.254388
 20
-92.021335
 30
0.0
 40
0.3
100
AcDbArc
 50
360.0
 51
180.0
  0
LINE
  5
8F
100
AcDbEntity
  8
2
370
    50
100
AcDbLine
 10
-67.154388
 20
-92.021335
 30
0.0
 11
-67.154388
 21
-95.021335
 31
0.0
  0
ARC
  5
90
100
AcDbEntity
  8
2
370
    50
100
AcDbCircle
 10
-66.854388
 20
-95.021335
 30
0.0
 40
0.3
100
AcDbArc
 50
180.0
 51
360.0
  0
LINE
  5
91
100
AcDbEntity
  8
2
370
    50
100
AcDbLine
 10
-66.554388
 20
-92.021335
 30
0.0
 11
-66.554388
 21
-95.021335
 31
0.0
  0
ARC
  5
92
100
AcDbEntity
  8
2
370
    50
100
AcDbCircle
 10
-66.854388
 20
-92.021335
 30
0.0
 40
0.3
100
AcDbArc
 50
0.0
 51
180.0
  0
LINE
  5
93
100
AcDbEntity
  8
2
370
    50
100
AcDbLine
 10
-63.554388
 20
-89.55124
 30
0.0
 11
-63.554388
 21
-90.75124
 31
0.0
  0
LINE
  5
94
100
AcDbEntity
  8
2
370
    50
100
AcDbLine
 10
-68.554388
 20
-89.55124
 30
0.0
 11
-68.554388
 21
-90.75124
 31
0.0
  0
LINE
  5
95
100
AcDbEntity
  8
2
370
    50
100
AcDbLine
 10
-63.321435
 20
-79.960803
 30
0.0
 11
-62.402182
 21
-79.189458
 31
0.0
  0
LINE
  5
96
100
AcDbEntity
  8
2
370
    50
100
AcDbLine
 10
-66.139277
 20
-74.735761
 30
0.0
 11
-67.05853
 21
-75.507106
 31
0.0
  0
ARC
  5
97
100
AcDbEntity
  8
2
370
    50
100
AcDbCircle
 10
-67.065555
 20
-77.210031
 30
0.0
 40
0.25
100
AcDbArc
 50
130.0
 51
310.0
  0
ARC
  5
98
100
AcDbEntity
  8
2
370
    50
100
AcDbCircle
 10
-66.835742
 20
-77.017194
 30
0.0
 40
0.25
100
AcDbArc
 50
310.0
 51
130.0
  0
ARC
  5
99
100
AcDbEntity
  8
2
370
    50
100
AcDbCircle
 10
-68.061413
 20
-78.045654
 30
0.0
 40
0.25
100
AcDbArc
 50
130.0
 51
310.0
  0
ARC
  5
9A
100
AcDbEntity
  8
2
370
    50
100
AcDbCircle
 10
-67.8316
 20
-77.852818
 30
0.0
 40
0.25
100
AcDbArc
 50
310.0
 51
130.0
  0
ARC
  5
9B
100
AcDbEntity
  8
2
370
    50
100
AcDbCircle
 10
-69.057271
 20
-78.881278
 30
0.0
 40
0.25
100
AcDbArc
 50
130.0
 51
310.0
  0
ARC
  5
9C
100
AcDbEntity
  8
2
370
    50
100
AcDbCircle
 10
-68.827457
 20
-78.688442
 30
0.0
 40
0.25
100
AcDbArc
 50
310.0
 51
130.0
  0
LINE
  5
9D
100
AcDbEntity
  8
2
370
    50
100
AcDbLine
 10
-67.226252
 20
-77.018519
 30
0.0
 11
-66.996439
 21
-76.825683
 31
0.0
  0
LINE
  5
9E
100
AcDbEntity
  8
2
370
    50
100
AcDbLine
 10
-66.904858
 20
-77.401542
 30
0.0
 11
-66.675045
 21
-77.208705
 31
0.0
  0
LINE
  5
9F
100
AcDbEntity
  8
2
370
    50
100
AcDbLine
 10
-68.22211
 20
-77.854143
 30
0.0
 11
-67.992297
 21
-77.661307
 31
0.0
  0
LINE
  5
A0
100
AcDbEntity
  8
2
370
    50
100
AcDbLine
 10
-67.900716
 20
-78.237166
 30
0.0
 11
-67.670903
 21
-78.044329
 31
0.0
  0
LINE
  5
A1
100
AcDbEntity
  8
2
370
    50
100
AcDbLine
 10
-68.66676
 20
-78.879953
 30
0.0
 11
-68.896574
 21
-79.072789
 31
0.0
  0
LINE
  5
A2
100
AcDbEntity
  8
2
370
    50
100
AcDbLine
 10
-69.217968
 20
-78.689767
 30
0.0
 11
-68.988154
 21
-78.496931
 31
0.0
  0
ARC
  5
A3
100
AcDbEntity
  8
2
370
    50
100
AcDbCircle
 10
-67.579785
 20
-76.597195
 30
0.0
 40
0.25
100
AcDbArc
 50
130.0
 51
310.0
  0
ARC
  5
A4
100
AcDbEntity
  8
2
370
    50
100
AcDbCircle
 10
-67.349972
 20
-76.404359
 30
0.0
 40
0.25
100
AcDbArc
 50
310.0
 51
130.0
  0
ARC
  5
A5
100
AcDbEntity
  8
2
370
    50
100
AcDbCircle
 10
-68.575643
 20
-77.432819
 30
0.0
 40
0.25
100
AcDbArc
 50
130.0
 51
310.0
  0
ARC
  5
A6
100
AcDbEntity
  8
2
370
    50
100
AcDbCircle
 10
-68.34583
 20
-77.239983
 30
0.0
 40
0.25
100
AcDbArc
 50
310.0
 51
130.0
  0
ARC
  5
A7
100
AcDbEntity
  8
2
370
    50
100
AcDbCircle
 10
-69.571501
 20
-78.268443
 30
0.0
 40
0.25
100
AcDbArc
 50
130.0
 51
310.0
  0
ARC
  5
A8
100
AcDbEntity
  8
2
370
    50
100
AcDbCircle
 10
-69.341687
 20
-78.075606
 30
0.0
 40
0.25
100
AcDbArc
 50
310.0
 51
130.0
  0
LINE
  5
A9
100
AcDbEntity
  8
2
370
    50
100
AcDbLine
 10
-67.740482
 20
-76.405684
 30
0.0
 11
-67.510669
 21
-76.212848
 31
0.0
  0
LINE
  5
AA
100
AcDbEntity
  8
2
370
    50
100
AcDbLine
 10
-67.419088
 20
-76.788706
 30
0.0
 11
-67.189275
 21
-76.59587
 31
0.0
  0
LINE
  5
AB
100
AcDbEntity
  8
2
370
    50
100
AcDbLine
 10
-68.73634
 20
-77.241308
 30
0.0
 11
-68.506527
 21
-77.048471
 31
0.0
  0
LINE
  5
AC
100
AcDbEntity
  8
2
370
    50
100
AcDbLine
 10
-68.414946
 20
-77.62433
 30
0.0
 11
-68.185133
 21
-77.431494
 31
0.0
  0
LINE
  5
AD
100
AcDbEntity
  8
2
370
    50
100
AcDbLine
 10
-69.180991
 20
-78.267118
 30
0.0
 11
-69.410804
 21
-78.459954
 31
0.0
  0
LINE
  5
AE
100
AcDbEntity
  8
2
370
    50
100
AcDbLine
 10
-69.732198
 20
-78.076932
 30
0.0
 11
-69.502384
 21
-77.884095
 31
0.0
  0
ARC
  5
AF
100
AcDbEntity
  8
2
370
    50
100
AcDbCircle
 10
-66.551325
 20
-77.822866
 30
0.0
 40
0.25
100
AcDbArc
 50
130.0
 51
310.0
  0
ARC
  5
B0
100
AcDbEntity
  8
2
370
    50
100
AcDbCircle
 10
-66.321512
 20
-77.63003
 30
0.0
 40
0.25
100
AcDbArc
 50
310.0
 51
130.0
  0
ARC
  5
B1
100
AcDbEntity
  8
2
370
    50
100
AcDbCircle
 10
-67.547183
 20
-78.65849
 30
0.0
 40
0.25
100
AcDbArc
 50
130.0
 51
310.0
  0
ARC
  5
B2
100
AcDbEntity
  8
2
370
    50
100
AcDbCircle
 10
-67.31737
 20
-78.465654
 30
0.0
 40
0.25
100
AcDbArc
 50
310.0
 51
130.0
  0
ARC
  5
B3
100
AcDbEntity
  8
2
370
    50
100
AcDbCircle
 10
-68.543041
 20
-79.494114
 30
0.0
 40
0.25
100
AcDbArc
 50
130.0
 51
310.0
  0
ARC
  5
B4
100
AcDbEntity
  8
2
370
    50
100
AcDbCircle
 10
-68.313227
 20
-79.301278
 30
0.0
 40
0.25
100
AcDbArc
 50
310.0
 51
130.0
  0
LINE
  5
B5
100
AcDbEntity
  8
2
370
    50
100
AcDbLine
 10
-66.712022
 20
-77.631355
 30
0.0
 11
-66.482209
 21
-77.438519
 31
0.0
  0
LINE
  5
B6
100
AcDbEntity
  8
2
370
    50
100
AcDbLine
 10
-66.390628
 20
-78.014377
 30
0.0
 11
-66.160815
 21
-77.821541
 31
0.0
  0
LINE
  5
B7
100
AcDbEntity
  8
2
370
    50
100
AcDbLine
 10
-67.70788
 20
-78.466979
 30
0.0
 11
-67.478066
 21
-78.274143
 31
0.0
  0
LINE
  5
B8
100
AcDbEntity
  8
2
370
    50
100
AcDbLine
 10
-67.386486
 20
-78.850001
 30
0.0
 11
-67.156673
 21
-78.657165
 31
0.0
  0
LINE
  5
B9
100
AcDbEntity
  8
2
370
    50
100
AcDbLine
 10
-68.15253
 20
-79.492789
 30
0.0
 11
-68.382344
 21
-79.685625
 31
0.0
  0
LINE
  5
BA
100
AcDbEntity
  8
2
370
    50
100
AcDbLine
 10
-68.703738
 20
-79.302603
 30
0.0
 11
-68.473924
 21
-79.109766
 31
0.0
  0
LINE
  5
BB
100
AcDbEntity
  8
2
370
    50
100
AcDbLine
 10
-62.402182
 20
-79.189458
 30
0.0
 11
-66.139277
 21
-74.735761
 31
0.0
  0
LINE
  5
BC
100
AcDbEntity
  8
2
370
    50
100
AcDbLine
 10
-63.321435
 20
-79.960803
 30
0.0
 11
-67.05853
 21
-75.507106
 31
0.0
  0
LINE
  5
BD
100
AcDbEntity
  8
2
370
    50
100
AcDbLine
 10
-63.554388
 20
-89.55124
 30
0.0
 11
-68.554388
 21
-89.55124
 31
0.0
  0
LINE
  5
BE
100
AcDbEntity
  8
2
370
    50
100
AcDbLine
 10
-63.554388
 20
-90.75124
 30
0.0
 11
-68.554388
 21
-90.75124
 31
0.0
  0
CIRCLE
  5
BF
100
AcDbEntity
  8
2
370
    50
100
AcDbCircle
 10
-66.054388
 20
-84.457221
 30
0.0
 40
1.3
  0
CIRCLE
  5
C0
100
AcDbEntity
  8
2
370
    50
100
AcDbCircle
 10
-66.054388
 20
-84.457221
 30
0.0
 40
1.0
  0
HATCH
  5
C1
100
AcDbEntity
  8
2
370
    25
100
AcDbHatch
 10
0.0
 20
0.0
 30
0.0
210
0.0
220
0.0
230
1.0
  2
_U
 70
     0
 71
     1
 91
        1
 92
        1
 93
        4
 72
     1
 10
-63.321435000000001
 20
-79.960802999999999
 11
-67.058530000000005
 21
-75.507105999999993
 72
     1
 10
-67.058530000000005
 20
-75.507105999999993
 11
-66.139277000000007
 21
-74.735760999999997
 72
     1
 10
-66.139277000000007
 20
-74.735760999999997
 11
-62.402182000000003
 21
-79.189458000000002
 72
     1
 10
-62.402182000000003
 20
-79.189458000000002
 11
-63.321435000000001
 21
-79.960802999999999
 97
        4
330
0
330
0
330
0
330
0
 75
     0
 76
     0
 52
45.0
 41
1.0
 77
     0
 78
     1
 53
45.0
 43
0.0
 44
0.0
 45
-0.070711
 46
0.070711
 79
     0
 98
        1
 10
0.0
 20
0.0
  0
LINE
  5
C2
100
AcDbEntity
  8
2
370
    25
100
AcDbLine
 10
-67.719386
 20
-76.804587
 30
0.0
 11
-67.158461
 21
-76.243662
 31
0.0
  0
LINE
  5
C3
100
AcDbEntity
  8
2
370
    25
100
AcDbLine
 10
-67.617683
 20
-76.844306
 30
0.0
 11
-67.109472
 21
-76.336095
 31
0.0
  0
LINE
  5
C4
100
AcDbEntity
  8
2
370
    25
100
AcDbLine
 10
-67.427139
 20
-76.795183
 30
0.0
 11
-67.111566
 21
-76.47961
 31
0.0
  0
LINE
  5
C5
100
AcDbEntity
  8
2
370
    25
100
AcDbLine
 10
-67.789501
 20
-76.733281
 30
0.0
 11
-67.237372
 21
-76.181152
 31
0.0
  0
LINE
  5
C6
100
AcDbEntity
  8
2
370
    25
100
AcDbLine
 10
-67.827626
 20
-76.629984
 30
0.0
 11
-67.352009
 21
-76.154367
 31
0.0
  0
LINE
  5
C7
100
AcDbEntity
  8
2
370
    25
100
AcDbLine
 10
-68.800879
 20
-77.324336
 30
0.0
 11
-68.621433
 21
-77.14489
 31
0.0
  0
LINE
  5
C8
100
AcDbEntity
  8
2
370
    25
100
AcDbLine
 10
-68.820134
 20
-77.485012
 30
0.0
 11
-68.3259
 21
-76.990778
 31
0.0
  0
LINE
  5
C9
100
AcDbEntity
  8
2
370
    25
100
AcDbLine
 10
-68.776018
 20
-77.582317
 30
0.0
 11
-68.218525
 21
-77.024824
 31
0.0
  0
LINE
  5
CA
100
AcDbEntity
  8
2
370
    25
100
AcDbLine
 10
-68.701252
 20
-77.648972
 30
0.0
 11
-68.14431
 21
-77.09203
 31
0.0
  0
LINE
  5
CB
100
AcDbEntity
  8
2
370
    25
100
AcDbLine
 10
-68.593069
 20
-77.682211
 30
0.0
 11
-68.100874
 21
-77.190016
 31
0.0
  0
LINE
  5
CC
100
AcDbEntity
  8
2
370
    25
100
AcDbLine
 10
-68.283316
 20
-77.51388
 30
0.0
 11
-68.123246
 21
-77.353809
 31
0.0
  0
LINE
  5
CD
100
AcDbEntity
  8
2
370
    25
100
AcDbLine
 10
-69.796737
 20
-78.15996
 30
0.0
 11
-69.617291
 21
-77.980514
 31
0.0
  0
LINE
  5
CE
100
AcDbEntity
  8
2
370
    25
100
AcDbLine
 10
-69.815992
 20
-78.320636
 30
0.0
 11
-69.321758
 21
-77.826402
 31
0.0
  0
LINE
  5
CF
100
AcDbEntity
  8
2
370
    25
100
AcDbLine
 10
-69.771876
 20
-78.417941
 30
0.0
 11
-69.214382
 21
-77.860448
 31
0.0
  0
LINE
  5
D0
100
AcDbEntity
  8
2
370
    25
100
AcDbLine
 10
-69.69711
 20
-78.484596
 30
0.0
 11
-69.140168
 21
-77.927654
 31
0.0
  0
LINE
  5
D1
100
AcDbEntity
  8
2
370
    25
100
AcDbLine
 10
-69.588927
 20
-78.517835
 30
0.0
 11
-69.096732
 21
-78.02564
 31
0.0
  0
LINE
  5
D2
100
AcDbEntity
  8
2
370
    25
100
AcDbLine
 10
-69.279174
 20
-78.349503
 30
0.0
 11
-69.119104
 21
-78.189433
 31
0.0
  0
HATCH
  5
D3
100
AcDbEntity
  8
2
370
    25
100
AcDbHatch
 10
0.0
 20
0.0
 30
0.0
210
0.0
220
0.0
230
1.0
  2
_U
 70
     0
 71
     1
 91
        1
 92
        1
 93
        4
 72
     2
 10
-68.061413000000002
 20
-78.045653999999999
 40
0.25
 50
130.0
 51
310.0
 73
     1
 72
     1
 10
-67.900716000000003
 20
-78.237166000000002
 11
-67.670902999999996
 21
-78.044329000000005
 72
     2
 10
-67.831599999999995
 20
-77.852817999999999
 40
0.25
 50
310.0
 51
130.0
 73
     1
 72
     1
 10
-67.992296999999994
 20
-77.661306999999994
 11
-68.222110000000001
 21
-77.854142999999993
 97
        4
330
0
330
0
330
0
330
0
 75
     0
 76
     0
 52
45.0
 41
1.0
 77
     0
 78
     1
 53
45.0
 43
0.0
 44
0.0
 45
-0.070711
 46
0.070711
 79
     0
 98
        1
 10
0.0
 20
0.0
  0
LINE
  5
D4
100
AcDbEntity
  8
2
370
    25
100
AcDbLine
 10
-66.696141
 20
-76.809802
 30
0.0
 11
-67.257066
 21
-77.370727
 31
0.0
  0
LINE
  5
D5
100
AcDbEntity
  8
2
370
    25
100
AcDbLine
 10
-66.626026
 20
-76.881109
 30
0.0
 11
-67.178155
 21
-77.433237
 31
0.0
  0
LINE
  5
D6
100
AcDbEntity
  8
2
370
    25
100
AcDbLine
 10
-66.587901
 20
-76.984405
 30
0.0
 11
-67.063518
 21
-77.460022
 31
0.0
  0
LINE
  5
D7
100
AcDbEntity
  8
2
370
    25
100
AcDbLine
 10
-66.797844
 20
-76.770084
 30
0.0
 11
-67.306055
 21
-77.278295
 31
0.0
  0
LINE
  5
D8
100
AcDbEntity
  8
2
370
    25
100
AcDbLine
 10
-66.988388
 20
-76.819207
 30
0.0
 11
-67.303961
 21
-77.134779
 31
0.0
  0
HATCH
  5
D9
100
AcDbEntity
  8
2
370
    25
100
AcDbHatch
 10
0.0
 20
0.0
 30
0.0
210
0.0
220
0.0
230
1.0
  2
_U
 70
     0
 71
     1
 91
        1
 92
        1
 93
        4
 72
     2
 10
-68.827456999999995
 20
-78.688441999999995
 40
0.25
 50
310.0
 51
130.0
 73
     1
 72
     1
 10
-68.988153999999994
 20
-78.496931000000004
 11
-69.217967999999999
 21
-78.689767000000003
 72
     2
 10
-69.057271
 20
-78.881277999999995
 40
0.25
 50
130.0
 51
310.0
 73
     1
 72
     1
 10
-68.896574000000001
 20
-79.072789
 11
-68.666759999999996
 21
-78.879953
 97
        4
330
0
330
0
330
0
330
0
 75
     0
 76
     0
 52
45.0
 41
1.0
 77
     0
 78
     1
 53
45.0
 43
0.0
 44
0.0
 45
-0.070711
 46
0.070711
 79
     0
 98
        1
 10
0.0
 20
0.0
  0
LINE
  5
DA
100
AcDbEntity
  8
2
370
    25
100
AcDbLine
 10
-68.173626
 20
-79.093885
 30
0.0
 11
-68.734552
 21
-79.654811
 31
0.0
  0
LINE
  5
DB
100
AcDbEntity
  8
2
370
    25
100
AcDbLine
 10
-68.103512
 20
-79.165192
 30
0.0
 11
-68.65564
 21
-79.717321
 31
0.0
  0
LINE
  5
DC
100
AcDbEntity
  8
2
370
    25
100
AcDbLine
 10
-68.065387
 20
-79.268489
 30
0.0
 11
-68.541004
 21
-79.744106
 31
0.0
  0
LINE
  5
DD
100
AcDbEntity
  8
2
370
    25
100
AcDbLine
 10
-68.275329
 20
-79.054167
 30
0.0
 11
-68.78354
 21
-79.562378
 31
0.0
  0
LINE
  5
DE
100
AcDbEntity
  8
2
370
    25
100
AcDbLine
 10
-68.465874
 20
-79.10329
 30
0.0
 11
-68.781446
 21
-79.418863
 31
0.0
  0
HATCH
  5
DF
100
AcDbEntity
  8
2
370
    25
100
AcDbHatch
 10
0.0
 20
0.0
 30
0.0
210
0.0
220
0.0
230
1.0
  2
_U
 70
     0
 71
     1
 91
        1
 92
        1
 93
        4
 72
     2
 10
-67.317369999999997
 20
-78.465654000000001
 40
0.25
 50
310.0
 51
130.0
 73
     1
 72
     1
 10
-67.478065999999998
 20
-78.274142999999995
 11
-67.707880000000003
 21
-78.466978999999995
 72
     2
 10
-67.547183000000004
 20
-78.65849
 40
0.25
 50
130.0
 51
310.0
 73
     1
 72
     1
 10
-67.386486000000005
 20
-78.850001000000006
 11
-67.156672999999998
 21
-78.657165000000006
 97
        4
330
0
330
0
330
0
330
0
 75
     0
 76
     0
 52
45.0
 41
1.0
 77
     0
 78
     1
 53
45.0
 43
0.0
 44
0.0
 45
-0.070711
 46
0.070711
 79
     0
 98
        1
 10
0.0
 20
0.0
  0
LINE
  5
E0
100
AcDbEntity
  8
2
370
    25
100
AcDbLine
 10
-66.181911
 20
-77.422638
 30
0.0
 11
-66.742836
 21
-77.983563
 31
0.0
  0
LINE
  5
E1
100
AcDbEntity
  8
2
370
    25
100
AcDbLine
 10
-66.111796
 20
-77.493944
 30
0.0
 11
-66.663925
 21
-78.046073
 31
0.0
  0
LINE
  5
E2
100
AcDbEntity
  8
2
370
    25
100
AcDbLine
 10
-66.073671
 20
-77.597241
 30
0.0
 11
-66.549288
 21
-78.072858
 31
0.0
  0
LINE
  5
E3
100
AcDbEntity
  8
2
370
    25
100
AcDbLine
 10
-66.283614
 20
-77.382919
 30
0.0
 11
-66.791825
 21
-77.89113
 31
0.0
  0
LINE
  5
E4
100
AcDbEntity
  8
2
370
    25
100
AcDbLine
 10
-66.474158
 20
-77.432042
 30
0.0
 11
-66.789731
 21
-77.747615
 31
0.0
  0
HATCH
  5
E5
100
AcDbEntity
  8
2
370
    25
100
AcDbHatch
 10
0.0
 20
0.0
 30
0.0
210
0.0
220
0.0
230
1.0
  2
_U
 70
     0
 71
     1
 91
        2
 92
        1
 93
        1
 72
     2
 10
-66.054388000000003
 20
-84.457221000000004
 40
1.3
 50
0.0
 51
360.0
 73
     1
 97
        1
330
0
 92
        0
 93
        1
 72
     2
 10
-66.054388000000003
 20
-84.457221000000004
 40
1.0
 50
0.0
 51
360.0
 73
     1
 97
        1
330
0
 75
     0
 76
     0
 52
45.0
 41
1.0
 77
     0
 78
     1
 53
45.0
 43
0.0
 44
0.0
 45
-0.070711
 46
0.070711
 79
     0
 98
        1
 10
0.0
 20
0.0
  0
HATCH
  5
E6
100
AcDbEntity
  8
2
370
    25
100
AcDbHatch
 10
0.0
 20
0.0
 30
0.0
210
0.0
220
0.0
230
1.0
  2
_U
 70
     0
 71
     1
 91
        1
 92
        1
 93
        4
 72
     1
 10
-63.554388000000003
 20
-89.551240000000007
 11
-68.554388000000003
 21
-89.551240000000007
 72
     1
 10
-68.554388000000003
 20
-89.551240000000007
 11
-68.554388000000003
 21
-90.751239999999996
 72
     1
 10
-68.554388000000003
 20
-90.751239999999996
 11
-63.554388000000003
 21
-90.751239999999996
 72
     1
 10
-63.554388000000003
 20
-90.751239999999996
 11
-63.554388000000003
 21
-89.551240000000007
 97
        4
330
0
330
0
330
0
330
0
 75
     0
 76
     0
 52
45.0
 41
1.0
 77
     0
 78
     1
 53
45.0
 43
0.0
 44
0.0
 45
-0.070711
 46
0.070711
 79
     0
 98
        1
 10
0.0
 20
0.0
  0
LINE
  5
E7
100
AcDbEntity
  8
2
370
    25
100
AcDbLine
 10
-67.154388
 20
-94.121335
 30
0.0
 11
-66.554388
 21
-93.521335
 31
0.0
  0
LINE
  5
E8
100
AcDbEntity
  8
2
370
    25
100
AcDbLine
 10
-67.154388
 20
-94.262756
 30
0.0
 11
-66.554388
 21
-93.662756
 31
0.0
  0
LINE
  5
E9
100
AcDbEntity
  8
2
370
    25
100
AcDbLine
 10
-67.154388
 20
-94.404178
 30
0.0
 11
-66.554388
 21
-93.804178
 31
0.0
  0
LINE
  5
EA
100
AcDbEntity
  8
2
370
    25
100
AcDbLine
 10
-67.154388
 20
-94.545599
 30
0.0
 11
-66.554388
 21
-93.945599
 31
0.0
  0
LINE
  5
EB
100
AcDbEntity
  8
2
370
    25
100
AcDbLine
 10
-67.154388
 20
-94.68702
 30
0.0
 11
-66.554388
 21
-94.08702
 31
0.0
  0
LINE
  5
EC
100
AcDbEntity
  8
2
370
    25
100
AcDbLine
 10
-67.154388
 20
-94.828442
 30
0.0
 11
-66.554388
 21
-94.228442
 31
0.0
  0
LINE
  5
ED
100
AcDbEntity
  8
2
370
    25
100
AcDbLine
 10
-67.154388
 20
-94.969863
 30
0.0
 11
-66.554388
 21
-94.369863
 31
0.0
  0
LINE
  5
EE
100
AcDbEntity
  8
2
370
    25
100
AcDbLine
 10
-67.143722
 20
-95.100618
 30
0.0
 11
-66.554388
 21
-94.511284
 31
0.0
  0
LINE
  5
EF
100
AcDbEntity
  8
2
370
    25
100
AcDbLine
 10
-67.098041
 20
-95.196359
 30
0.0
 11
-66.554388
 21
-94.652706
 31
0.0
  0
LINE
  5
F0
100
AcDbEntity
  8
2
370
    25
100
AcDbLine
 10
-67.026978
 20
-95.266717
 30
0.0
 11
-66.554388
 21
-94.794127
 31
0.0
  0
LINE
  5
F1
100
AcDbEntity
  8
2
370
    25
100
AcDbLine
 10
-66.930388
 20
-95.311549
 30
0.0
 11
-66.554388
 21
-94.935548
 31
0.0
  0
LINE
  5
F2
100
AcDbEntity
  8
2
370
    25
100
AcDbLine
 10
-66.792247
 20
-95.314828
 30
0.0
 11
-66.560894
 21
-95.083476
 31
0.0
  0
LINE
  5
F3
100
AcDbEntity
  8
2
370
    25
100
AcDbLine
 10
-67.154388
 20
-93.979913
 30
0.0
 11
-66.554388
 21
-93.379913
 31
0.0
  0
LINE
  5
F4
100
AcDbEntity
  8
2
370
    25
100
AcDbLine
 10
-67.154388
 20
-93.838492
 30
0.0
 11
-66.554388
 21
-93.238492
 31
0.0
  0
LINE
  5
F5
100
AcDbEntity
  8
2
370
    25
100
AcDbLine
 10
-67.154388
 20
-93.697071
 30
0.0
 11
-66.554388
 21
-93.097071
 31
0.0
  0
LINE
  5
F6
100
AcDbEntity
  8
2
370
    25
100
AcDbLine
 10
-67.154388
 20
-93.555649
 30
0.0
 11
-66.554388
 21
-92.955649
 31
0.0
  0
LINE
  5
F7
100
AcDbEntity
  8
2
370
    25
100
AcDbLine
 10
-67.154388
 20
-93.414228
 30
0.0
 11
-66.554388
 21
-92.814228
 31
0.0
  0
LINE
  5
F8
100
AcDbEntity
  8
2
370
    25
100
AcDbLine
 10
-67.154388
 20
-93.272807
 30
0.0
 11
-66.554388
 21
-92.672807
 31
0.0
  0
LINE
  5
F9
100
AcDbEntity
  8
2
370
    25
100
AcDbLine
 10
-67.154388
 20
-93.131385
 30
0.0
 11
-66.554388
 21
-92.531385
 31
0.0
  0
LINE
  5
FA
100
AcDbEntity
  8
2
370
    25
100
AcDbLine
 10
-67.154388
 20
-92.989964
 30
0.0
 11
-66.554388
 21
-92.389964
 31
0.0
  0
LINE
  5
FB
100
AcDbEntity
  8
2
370
    25
100
AcDbLine
 10
-67.154388
 20
-92.848543
 30
0.0
 11
-66.554388
 21
-92.248543
 31
0.0
  0
LINE
  5
FC
100
AcDbEntity
  8
2
370
    25
100
AcDbLine
 10
-67.154388
 20
-92.707121
 30
0.0
 11
-66.554388
 21
-92.107121
 31
0.0
  0
LINE
  5
FD
100
AcDbEntity
  8
2
370
    25
100
AcDbLine
 10
-66.558794
 20
-91.970106
 30
0.0
 11
-67.154388
 21
-92.5657
 31
0.0
  0
LINE
  5
FE
100
AcDbEntity
  8
2
370
    25
100
AcDbLine
 10
-66.597123
 20
-91.867014
 30
0.0
 11
-67.154388
 21
-92.424279
 31
0.0
  0
LINE
  5
FF
100
AcDbEntity
  8
2
370
    25
100
AcDbLine
 10
-66.662369
 20
-91.790838
 30
0.0
 11
-67.154388
 21
-92.282857
 31
0.0
  0
LINE
  5
100
100
AcDbEntity
  8
2
370
    25
100
AcDbLine
 10
-66.75222
 20
-91.739268
 30
0.0
 11
-67.154388
 21
-92.141436
 31
0.0
  0
LINE
  5
101
100
AcDbEntity
  8
2
370
    25
100
AcDbLine
 10
-67.15357
 20
-91.999197
 30
0.0
 11
-66.876526
 21
-91.722153
 31
0.0
  0
HATCH
  5
102
100
AcDbEntity
  8
2
370
    25
100
AcDbHatch
 10
0.0
 20
0.0
 30
0.0
210
0.0
220
0.0
230
1.0
  2
_U
 70
     0
 71
     1
 91
        1
 92
        1
 93
        4
 72
     1
 10
-65.554388000000003
 20
-92.021334999999993
 11
-65.554388000000003
 21
-95.021334999999993
 72
     2
 10
-65.254388000000006
 20
-95.021334999999993
 40
0.3
 50
180.0
 51
0.0
 73
     1
 72
     1
 10
-64.954387999999994
 20
-95.021334999999993
 11
-64.954387999999994
 21
-92.021334999999993
 72
     2
 10
-65.254388000000006
 20
-92.021334999999993
 40
0.3
 50
0.0
 51
180.0
 73
     1
 97
        4
330
0
330
0
330
0
330
0
 75
     0
 76
     0
 52
45.0
 41
1.0
 77
     0
 78
     1
 53
45.0
 43
0.0
 44
0.0
 45
-0.070711
 46
0.070711
 79
     0
 98
        1
 10
0.0
 20
0.0
  0
CIRCLE
  5
103
100
AcDbEntity
  8
2
370
    50
100
AcDbCircle
 10
-194.155545
 20
-84.457221
 30
0.0
 40
1.3
  0
CIRCLE
  5
104
100
AcDbEntity
  8
2
370
    50
100
AcDbCircle
 10
-194.155545
 20
-84.457221
 30
0.0
 40
1.0
  0
HATCH
  5
105
100
AcDbEntity
  8
2
370
    25
100
AcDbHatch
 10
0.0
 20
0.0
 30
0.0
210
0.0
220
0.0
230
1.0
  2
_U
 70
     0
 71
     1
 91
        2
 92
        1
 93
        1
 72
     2
 10
-194.15554499999999
 20
-84.457221000000004
 40
1.3
 50
0.0
 51
360.0
 73
     1
 97
        1
330
0
 92
        0
 93
        1
 72
     2
 10
-194.15554499999999
 20
-84.457221000000004
 40
1.0
 50
0.0
 51
360.0
 73
     1
 97
        1
330
0
 75
     0
 76
     0
 52
45.0
 41
1.0
 77
     0
 78
     1
 53
45.0
 43
0.0
 44
0.0
 45
-0.070711
 46
0.070711
 79
     0
 98
        1
 10
0.0
 20
0.0
  0
CIRCLE
  5
106
100
AcDbEntity
  8
2
370
    50
100
AcDbCircle
 10
-194.155545
 20
92.235043
 30
0.0
 40
1.3
  0
CIRCLE
  5
107
100
AcDbEntity
  8
2
370
    50
100
AcDbCircle
 10
-194.155545
 20
92.235043
 30
0.0
 40
1.0
  0
HATCH
  5
108
100
AcDbEntity
  8
2
370
    25
100
AcDbHatch
 10
0.0
 20
0.0
 30
0.0
210
0.0
220
0.0
230
1.0
  2
_U
 70
     0
 71
     1
 91
        2
 92
        1
 93
        1
 72
     2
 10
-194.15554499999999
 20
92.235043000000005
 40
1.3
 50
0.0
 51
360.0
 73
     1
 97
        1
330
0
 92
        0
 93
        1
 72
     2
 10
-194.15554499999999
 20
92.235043000000005
 40
1.0
 50
0.0
 51
360.0
 73
     1
 97
        1
330
0
 75
     0
 76
     0
 52
45.0
 41
1.0
 77
     0
 78
     1
 53
45.0
 43
0.0
 44
0.0
 45
-0.070711
 46
0.070711
 79
     0
 98
        1
 10
0.0
 20
0.0
  0
LINE
  5
109
100
AcDbEntity
  8
2
370
    50
100
AcDbLine
 10
-64.954388
 20
84.670929
 30
0.0
 11
-64.954388
 21
81.670929
 31
0.0
  0
ARC
  5
10A
100
AcDbEntity
  8
2
370
    50
100
AcDbCircle
 10
-65.254388
 20
81.670929
 30
0.0
 40
0.3
100
AcDbArc
 50
180.0
 51
360.0
  0
LINE
  5
10B
100
AcDbEntity
  8
2
370
    50
100
AcDbLine
 10
-65.554388
 20
84.670929
 30
0.0
 11
-65.554388
 21
81.670929
 31
0.0
  0
ARC
  5
10C
100
AcDbEntity
  8
2
370
    50
100
AcDbCircle
 10
-65.254388
 20
84.670929
 30
0.0
 40
0.3
100
AcDbArc
 50
360.0
 51
180.0
  0
LINE
  5
10D
100
AcDbEntity
  8
2
370
    50
100
AcDbLine
 10
-67.154388
 20
84.670929
 30
0.0
 11
-67.154388
 21
81.670929
 31
0.0
  0
ARC
  5
10E
100
AcDbEntity
  8
2
370
    50
100
AcDbCircle
 10
-66.854388
 20
81.670929
 30
0.0
 40
0.3
100
AcDbArc
 50
180.0
 51
360.0
  0
LINE
  5
10F
100
AcDbEntity
  8
2
370
    50
100
AcDbLine
 10
-66.554388
 20
84.670929
 30
0.0
 11
-66.554388
 21
81.670929
 31
0.0
  0
ARC
  5
110
100
AcDbEntity
  8
2
370
    50
100
AcDbCircle
 10
-66.854388
 20
84.670929
 30
0.0
 40
0.3
100
AcDbArc
 50
0.0
 51
180.0
  0
LINE
  5
111
100
AcDbEntity
  8
2
370
    50
100
AcDbLine
 10
-63.554388
 20
87.141024
 30
0.0
 11
-63.554388
 21
85.941024
 31
0.0
  0
LINE
  5
112
100
AcDbEntity
  8
2
370
    50
100
AcDbLine
 10
-68.554388
 20
87.141024
 30
0.0
 11
-68.554388
 21
85.941024
 31
0.0
  0
LINE
  5
113
100
AcDbEntity
  8
2
370
    50
100
AcDbLine
 10
-63.321435
 20
96.731461
 30
0.0
 11
-62.402182
 21
97.502806
 31
0.0
  0
LINE
  5
114
100
AcDbEntity
  8
2
370
    50
100
AcDbLine
 10
-66.139277
 20
101.956502
 30
0.0
 11
-67.05853
 21
101.185157
 31
0.0
  0
ARC
  5
115
100
AcDbEntity
  8
2
370
    50
100
AcDbCircle
 10
-67.065555
 20
99.482233
 30
0.0
 40
0.25
100
AcDbArc
 50
130.0
 51
310.0
  0
ARC
  5
116
100
AcDbEntity
  8
2
370
    50
100
AcDbCircle
 10
-66.835742
 20
99.675069
 30
0.0
 40
0.25
100
AcDbArc
 50
310.0
 51
130.0
  0
ARC
  5
117
100
AcDbEntity
  8
2
370
    50
100
AcDbCircle
 10
-68.061413
 20
98.646609
 30
0.0
 40
0.25
100
AcDbArc
 50
130.0
 51
310.0
  0
ARC
  5
118
100
AcDbEntity
  8
2
370
    50
100
AcDbCircle
 10
-67.8316
 20
98.839445
 30
0.0
 40
0.25
100
AcDbArc
 50
310.0
 51
130.0
  0
ARC
  5
119
100
AcDbEntity
  8
2
370
    50
100
AcDbCircle
 10
-69.057271
 20
97.810985
 30
0.0
 40
0.25
100
AcDbArc
 50
130.0
 51
310.0
  0
ARC
  5
11A
100
AcDbEntity
  8
2
370
    50
100
AcDbCircle
 10
-68.827457
 20
98.003822
 30
0.0
 40
0.25
100
AcDbArc
 50
310.0
 51
130.0
  0
LINE
  5
11B
100
AcDbEntity
  8
2
370
    50
100
AcDbLine
 10
-67.226252
 20
99.673744
 30
0.0
 11
-66.996439
 21
99.86658
 31
0.0
  0
LINE
  5
11C
100
AcDbEntity
  8
2
370
    50
100
AcDbLine
 10
-66.904858
 20
99.290722
 30
0.0
 11
-66.675045
 21
99.483558
 31
0.0
  0
LINE
  5
11D
100
AcDbEntity
  8
2
370
    50
100
AcDbLine
 10
-68.22211
 20
98.83812
 30
0.0
 11
-67.992297
 21
99.030957
 31
0.0
  0
LINE
  5
11E
100
AcDbEntity
  8
2
370
    50
100
AcDbLine
 10
-67.900716
 20
98.455098
 30
0.0
 11
-67.670903
 21
98.647934
 31
0.0
  0
LINE
  5
11F
100
AcDbEntity
  8
2
370
    50
100
AcDbLine
 10
-68.66676
 20
97.81231
 30
0.0
 11
-68.896574
 21
97.619474
 31
0.0
  0
LINE
  5
120
100
AcDbEntity
  8
2
370
    50
100
AcDbLine
 10
-69.217968
 20
98.002496
 30
0.0
 11
-68.988154
 21
98.195333
 31
0.0
  0
ARC
  5
121
100
AcDbEntity
  8
2
370
    50
100
AcDbCircle
 10
-67.579785
 20
100.095069
 30
0.0
 40
0.25
100
AcDbArc
 50
130.0
 51
310.0
  0
ARC
  5
122
100
AcDbEntity
  8
2
370
    50
100
AcDbCircle
 10
-67.349972
 20
100.287905
 30
0.0
 40
0.25
100
AcDbArc
 50
310.0
 51
130.0
  0
ARC
  5
123
100
AcDbEntity
  8
2
370
    50
100
AcDbCircle
 10
-68.575643
 20
99.259445
 30
0.0
 40
0.25
100
AcDbArc
 50
130.0
 51
310.0
  0
ARC
  5
124
100
AcDbEntity
  8
2
370
    50
100
AcDbCircle
 10
-68.34583
 20
99.452281
 30
0.0
 40
0.25
100
AcDbArc
 50
310.0
 51
130.0
  0
ARC
  5
125
100
AcDbEntity
  8
2
370
    50
100
AcDbCircle
 10
-69.571501
 20
98.423821
 30
0.0
 40
0.25
100
AcDbArc
 50
130.0
 51
310.0
  0
ARC
  5
126
100
AcDbEntity
  8
2
370
    50
100
AcDbCircle
 10
-69.341687
 20
98.616657
 30
0.0
 40
0.25
100
AcDbArc
 50
310.0
 51
130.0
  0
LINE
  5
127
100
AcDbEntity
  8
2
370
    50
100
AcDbLine
 10
-67.740482
 20
100.28658
 30
0.0
 11
-67.510669
 21
100.479416
 31
0.0
  0
LINE
  5
128
100
AcDbEntity
  8
2
370
    50
100
AcDbLine
 10
-67.419088
 20
99.903558
 30
0.0
 11
-67.189275
 21
100.096394
 31
0.0
  0
LINE
  5
129
100
AcDbEntity
  8
2
370
    50
100
AcDbLine
 10
-68.73634
 20
99.450956
 30
0.0
 11
-68.506527
 21
99.643792
 31
0.0
  0
LINE
  5
12A
100
AcDbEntity
  8
2
370
    50
100
AcDbLine
 10
-68.414946
 20
99.067934
 30
0.0
 11
-68.185133
 21
99.26077
 31
0.0
  0
LINE
  5
12B
100
AcDbEntity
  8
2
370
    50
100
AcDbLine
 10
-69.180991
 20
98.425146
 30
0.0
 11
-69.410804
 21
98.23231
 31
0.0
  0
LINE
  5
12C
100
AcDbEntity
  8
2
370
    50
100
AcDbLine
 10
-69.732198
 20
98.615332
 30
0.0
 11
-69.502384
 21
98.808168
 31
0.0
  0
ARC
  5
12D
100
AcDbEntity
  8
2
370
    50
100
AcDbCircle
 10
-66.551325
 20
98.869398
 30
0.0
 40
0.25
100
AcDbArc
 50
130.0
 51
310.0
  0
ARC
  5
12E
100
AcDbEntity
  8
2
370
    50
100
AcDbCircle
 10
-66.321512
 20
99.062234
 30
0.0
 40
0.25
100
AcDbArc
 50
310.0
 51
130.0
  0
ARC
  5
12F
100
AcDbEntity
  8
2
370
    50
100
AcDbCircle
 10
-67.547183
 20
98.033774
 30
0.0
 40
0.25
100
AcDbArc
 50
130.0
 51
310.0
  0
ARC
  5
130
100
AcDbEntity
  8
2
370
    50
100
AcDbCircle
 10
-67.31737
 20
98.22661
 30
0.0
 40
0.25
100
AcDbArc
 50
310.0
 51
130.0
  0
ARC
  5
131
100
AcDbEntity
  8
2
370
    50
100
AcDbCircle
 10
-68.543041
 20
97.19815
 30
0.0
 40
0.25
100
AcDbArc
 50
130.0
 51
310.0
  0
ARC
  5
132
100
AcDbEntity
  8
2
370
    50
100
AcDbCircle
 10
-68.313227
 20
97.390986
 30
0.0
 40
0.25
100
AcDbArc
 50
310.0
 51
130.0
  0
LINE
  5
133
100
AcDbEntity
  8
2
370
    50
100
AcDbLine
 10
-66.712022
 20
99.060909
 30
0.0
 11
-66.482209
 21
99.253745
 31
0.0
  0
LINE
  5
134
100
AcDbEntity
  8
2
370
    50
100
AcDbLine
 10
-66.390628
 20
98.677886
 30
0.0
 11
-66.160815
 21
98.870723
 31
0.0
  0
LINE
  5
135
100
AcDbEntity
  8
2
370
    50
100
AcDbLine
 10
-67.70788
 20
98.225285
 30
0.0
 11
-67.478066
 21
98.418121
 31
0.0
  0
LINE
  5
136
100
AcDbEntity
  8
2
370
    50
100
AcDbLine
 10
-67.386486
 20
97.842263
 30
0.0
 11
-67.156673
 21
98.035099
 31
0.0
  0
LINE
  5
137
100
AcDbEntity
  8
2
370
    50
100
AcDbLine
 10
-68.15253
 20
97.199475
 30
0.0
 11
-68.382344
 21
97.006639
 31
0.0
  0
LINE
  5
138
100
AcDbEntity
  8
2
370
    50
100
AcDbLine
 10
-68.703738
 20
97.389661
 30
0.0
 11
-68.473924
 21
97.582497
 31
0.0
  0
LINE
  5
139
100
AcDbEntity
  8
2
370
    50
100
AcDbLine
 10
-62.402182
 20
97.502806
 30
0.0
 11
-66.139277
 21
101.956502
 31
0.0
  0
LINE
  5
13A
100
AcDbEntity
  8
2
370
    50
100
AcDbLine
 10
-63.321435
 20
96.731461
 30
0.0
 11
-67.05853
 21
101.185157
 31
0.0
  0
LINE
  5
13B
100
AcDbEntity
  8
2
370
    50
100
AcDbLine
 10
-63.554388
 20
87.141024
 30
0.0
 11
-68.554388
 21
87.141024
 31
0.0
  0
LINE
  5
13C
100
AcDbEntity
  8
2
370
    50
100
AcDbLine
 10
-63.554388
 20
85.941024
 30
0.0
 11
-68.554388
 21
85.941024
 31
0.0
  0
CIRCLE
  5
13D
100
AcDbEntity
  8
2
370
    50
100
AcDbCircle
 10
-66.054388
 20
92.235043
 30
0.0
 40
1.3
  0
CIRCLE
  5
13E
100
AcDbEntity
  8
2
370
    50
100
AcDbCircle
 10
-66.054388
 20
92.235043
 30
0.0
 40
1.0
  0
HATCH
  5
13F
100
AcDbEntity
  8
2
370
    25
100
AcDbHatch
 10
0.0
 20
0.0
 30
0.0
210
0.0
220
0.0
230
1.0
  2
_U
 70
     0
 71
     1
 91
        1
 92
        1
 93
        4
 72
     1
 10
-63.321435000000001
 20
96.731460999999996
 11
-67.058530000000005
 21
101.185157
 72
     1
 10
-67.058530000000005
 20
101.185157
 11
-66.139277000000007
 21
101.956502
 72
     1
 10
-66.139277000000007
 20
101.956502
 11
-62.402182000000003
 21
97.502806000000007
 72
     1
 10
-62.402182000000003
 20
97.502806000000007
 11
-63.321435000000001
 21
96.731460999999996
 97
        4
330
0
330
0
330
0
330
0
 75
     0
 76
     0
 52
45.0
 41
1.0
 77
     0
 78
     1
 53
45.0
 43
0.0
 44
0.0
 45
-0.070711
 46
0.070711
 79
     0
 98
        1
 10
0.0
 20
0.0
  0
LINE
  5
140
100
AcDbEntity
  8
2
370
    25
100
AcDbLine
 10
-67.719386
 20
99.887676
 30
0.0
 11
-67.158461
 21
100.448602
 31
0.0
  0
LINE
  5
141
100
AcDbEntity
  8
2
370
    25
100
AcDbLine
 10
-67.617683
 20
99.847958
 30
0.0
 11
-67.109472
 21
100.356169
 31
0.0
  0
LINE
  5
142
100
AcDbEntity
  8
2
370
    25
100
AcDbLine
 10
-67.427139
 20
99.897081
 30
0.0
 11
-67.111566
 21
100.212654
 31
0.0
  0
LINE
  5
143
100
AcDbEntity
  8
2
370
    25
100
AcDbLine
 10
-67.789501
 20
99.958983
 30
0.0
 11
-67.237372
 21
100.511112
 31
0.0
  0
LINE
  5
144
100
AcDbEntity
  8
2
370
    25
100
AcDbLine
 10
-67.827626
 20
100.06228
 30
0.0
 11
-67.352009
 21
100.537897
 31
0.0
  0
LINE
  5
145
100
AcDbEntity
  8
2
370
    25
100
AcDbLine
 10
-68.800879
 20
99.367928
 30
0.0
 11
-68.621433
 21
99.547374
 31
0.0
  0
LINE
  5
146
100
AcDbEntity
  8
2
370
    25
100
AcDbLine
 10
-68.820134
 20
99.207252
 30
0.0
 11
-68.3259
 21
99.701485
 31
0.0
  0
LINE
  5
147
100
AcDbEntity
  8
2
370
    25
100
AcDbLine
 10
-68.776018
 20
99.109946
 30
0.0
 11
-68.218525
 21
99.66744
 31
0.0
  0
LINE
  5
148
100
AcDbEntity
  8
2
370
    25
100
AcDbLine
 10
-68.701252
 20
99.043291
 30
0.0
 11
-68.14431
 21
99.600233
 31
0.0
  0
LINE
  5
149
100
AcDbEntity
  8
2
370
    25
100
AcDbLine
 10
-68.593069
 20
99.010053
 30
0.0
 11
-68.100874
 21
99.502248
 31
0.0
  0
LINE
  5
14A
100
AcDbEntity
  8
2
370
    25
100
AcDbLine
 10
-68.283316
 20
99.178384
 30
0.0
 11
-68.123246
 21
99.338455
 31
0.0
  0
LINE
  5
14B
100
AcDbEntity
  8
2
370
    25
100
AcDbLine
 10
-69.796737
 20
98.532304
 30
0.0
 11
-69.617291
 21
98.71175
 31
0.0
  0
LINE
  5
14C
100
AcDbEntity
  8
2
370
    25
100
AcDbLine
 10
-69.815992
 20
98.371628
 30
0.0
 11
-69.321758
 21
98.865862
 31
0.0
  0
LINE
  5
14D
100
AcDbEntity
  8
2
370
    25
100
AcDbLine
 10
-69.771876
 20
98.274322
 30
0.0
 11
-69.214382
 21
98.831816
 31
0.0
  0
LINE
  5
14E
100
AcDbEntity
  8
2
370
    25
100
AcDbLine
 10
-69.69711
 20
98.207667
 30
0.0
 11
-69.140168
 21
98.764609
 31
0.0
  0
LINE
  5
14F
100
AcDbEntity
  8
2
370
    25
100
AcDbLine
 10
-69.588927
 20
98.174429
 30
0.0
 11
-69.096732
 21
98.666624
 31
0.0
  0
LINE
  5
150
100
AcDbEntity
  8
2
370
    25
100
AcDbLine
 10
-69.279174
 20
98.34276
 30
0.0
 11
-69.119104
 21
98.502831
 31
0.0
  0
HATCH
  5
151
100
AcDbEntity
  8
2
370
    25
100
AcDbHatch
 10
0.0
 20
0.0
 30
0.0
210
0.0
220
0.0
230
1.0
  2
_U
 70
     0
 71
     1
 91
        1
 92
        1
 93
        4
 72
     2
 10
-68.061413000000002
 20
98.646608999999998
 40
0.25
 50
130.0
 51
310.0
 73
     1
 72
     1
 10
-67.900716000000003
 20
98.455098000000007
 11
-67.670902999999996
 21
98.647934000000006
 72
     2
 10
-67.831599999999995
 20
98.839444999999998
 40
0.25
 50
310.0
 51
130.0
 73
     1
 72
     1
 10
-67.992296999999994
 20
99.030957000000001
 11
-68.222110000000001
 21
98.838120000000004
 97
        4
330
0
330
0
330
0
330
0
 75
     0
 76
     0
 52
45.0
 41
1.0
 77
     0
 78
     1
 53
45.0
 43
0.0
 44
0.0
 45
-0.070711
 46
0.070711
 79
     0
 98
        1
 10
0.0
 20
0.0
  0
LINE
  5
152
100
AcDbEntity
  8
2
370
    25
100
AcDbLine
 10
-66.696141
 20
99.882462
 30
0.0
 11
-67.257066
 21
99.321536
 31
0.0
  0
LINE
  5
153
100
AcDbEntity
  8
2
370
    25
100
AcDbLine
 10
-66.626026
 20
99.811155
 30
0.0
 11
-67.178155
 21
99.259026
 31
0.0
  0
LINE
  5
154
100
AcDbEntity
  8
2
370
    25
100
AcDbLine
 10
-66.587901
 20
99.707858
 30
0.0
 11
-67.063518
 21
99.232241
 31
0.0
  0
LINE
  5
155
100
AcDbEntity
  8
2
370
    25
100
AcDbLine
 10
-66.797844
 20
99.92218
 30
0.0
 11
-67.306055
 21
99.413969
 31
0.0
  0
LINE
  5
156
100
AcDbEntity
  8
2
370
    25
100
AcDbLine
 10
-66.988388
 20
99.873057
 30
0.0
 11
-67.303961
 21
99.557484
 31
0.0
  0
HATCH
  5
157
100
AcDbEntity
  8
2
370
    25
100
AcDbHatch
 10
0.0
 20
0.0
 30
0.0
210
0.0
220
0.0
230
1.0
  2
_U
 70
     0
 71
     1
 91
        1
 92
        1
 93
        4
 72
     2
 10
-68.827456999999995
 20
98.003822
 40
0.25
 50
310.0
 51
130.0
 73
     1
 72
     1
 10
-68.988153999999994
 20
98.195333000000005
 11
-69.217967999999999
 21
98.002495999999994
 72
     2
 10
-69.057271
 20
97.810985000000002
 40
0.25
 50
130.0
 51
310.0
 73
     1
 72
     1
 10
-68.896574000000001
 20
97.619473999999997
 11
-68.666759999999996
 21
97.812309999999997
 97
        4
330
0
330
0
330
0
330
0
 75
     0
 76
     0
 52
45.0
 41
1.0
 77
     0
 78
     1
 53
45.0
 43
0.0
 44
0.0
 45
-0.070711
 46
0.070711
 79
     0
 98
        1
 10
0.0
 20
0.0
  0
LINE
  5
158
100
AcDbEntity
  8
2
370
    25
100
AcDbLine
 10
-68.173626
 20
97.598378
 30
0.0
 11
-68.734552
 21
97.037453
 31
0.0
  0
LINE
  5
159
100
AcDbEntity
  8
2
370
    25
100
AcDbLine
 10
-68.103512
 20
97.527072
 30
0.0
 11
-68.65564
 21
96.974943
 31
0.0
  0
LINE
  5
15A
100
AcDbEntity
  8
2
370
    25
100
AcDbLine
 10
-68.065387
 20
97.423775
 30
0.0
 11
-68.541004
 21
96.948158
 31
0.0
  0
LINE
  5
15B
100
AcDbEntity
  8
2
370
    25
100
AcDbLine
 10
-68.275329
 20
97.638097
 30
0.0
 11
-68.78354
 21
97.129886
 31
0.0
  0
LINE
  5
15C
100
AcDbEntity
  8
2
370
    25
100
AcDbLine
 10
-68.465874
 20
97.588974
 30
0.0
 11
-68.781446
 21
97.273401
 31
0.0
  0
HATCH
  5
15D
100
AcDbEntity
  8
2
370
    25
100
AcDbHatch
 10
0.0
 20
0.0
 30
0.0
210
0.0
220
0.0
230
1.0
  2
_U
 70
     0
 71
     1
 91
        1
 92
        1
 93
        4
 72
     2
 10
-67.317369999999997
 20
98.226609999999994
 40
0.25
 50
310.0
 51
130.0
 73
     1
 72
     1
 10
-67.478065999999998
 20
98.418120999999999
 11
-67.707880000000003
 21
98.225285
 72
     2
 10
-67.547183000000004
 20
98.033773999999994
 40
0.25
 50
130.0
 51
310.0
 73
     1
 72
     1
 10
-67.386486000000005
 20
97.842263000000003
 11
-67.156672999999998
 21
98.035099000000002
 97
        4
330
0
330
0
330
0
330
0
 75
     0
 76
     0
 52
45.0
 41
1.0
 77
     0
 78
     1
 53
45.0
 43
0.0
 44
0.0
 45
-0.070711
 46
0.070711
 79
     0
 98
        1
 10
0.0
 20
0.0
  0
LINE
  5
15E
100
AcDbEntity
  8
2
370
    25
100
AcDbLine
 10
-66.181911
 20
99.269626
 30
0.0
 11
-66.742836
 21
98.708701
 31
0.0
  0
LINE
  5
15F
100
AcDbEntity
  8
2
370
    25
100
AcDbLine
 10
-66.111796
 20
99.198319
 30
0.0
 11
-66.663925
 21
98.646191
 31
0.0
  0
LINE
  5
160
100
AcDbEntity
  8
2
370
    25
100
AcDbLine
 10
-66.073671
 20
99.095023
 30
0.0
 11
-66.549288
 21
98.619406
 31
0.0
  0
LINE
  5
161
100
AcDbEntity
  8
2
370
    25
100
AcDbLine
 10
-66.283614
 20
99.309345
 30
0.0
 11
-66.791825
 21
98.801134
 31
0.0
  0
LINE
  5
162
100
AcDbEntity
  8
2
370
    25
100
AcDbLine
 10
-66.474158
 20
99.260221
 30
0.0
 11
-66.789731
 21
98.944649
 31
0.0
  0
HATCH
  5
163
100
AcDbEntity
  8
2
370
    25
100
AcDbHatch
 10
0.0
 20
0.0
 30
0.0
210
0.0
220
0.0
230
1.0
  2
_U
 70
     0
 71
     1
 91
        2
 92
        1
 93
        1
 72
     2
 10
-66.054388000000003
 20
92.235043000000005
 40
1.3
 50
0.0
 51
360.0
 73
     1
 97
        1
330
0
 92
        0
 93
        1
 72
     2
 10
-66.054388000000003
 20
92.235043000000005
 40
1.0
 50
0.0
 51
360.0
 73
     1
 97
        1
330
0
 75
     0
 76
     0
 52
45.0
 41
1.0
 77
     0
 78
     1
 53
45.0
 43
0.0
 44
0.0
 45
-0.070711
 46
0.070711
 79
     0
 98
        1
 10
0.0
 20
0.0
  0
HATCH
  5
164
100
AcDbEntity
  8
2
370
    25
100
AcDbHatch
 10
0.0
 20
0.0
 30
0.0
210
0.0
220
0.0
230
1.0
  2
_U
 70
     0
 71
     1
 91
        1
 92
        1
 93
        4
 72
     1
 10
-63.554388000000003
 20
87.141024000000002
 11
-68.554388000000003
 21
87.141024000000002
 72
     1
 10
-68.554388000000003
 20
87.141024000000002
 11
-68.554388000000003
 21
85.941023999999999
 72
     1
 10
-68.554388000000003
 20
85.941023999999999
 11
-63.554388000000003
 21
85.941023999999999
 72
     1
 10
-63.554388000000003
 20
85.941023999999999
 11
-63.554388000000003
 21
87.141024000000002
 97
        4
330
0
330
0
330
0
330
0
 75
     0
 76
     0
 52
45.0
 41
1.0
 77
     0
 78
     1
 53
45.0
 43
0.0
 44
0.0
 45
-0.070711
 46
0.070711
 79
     0
 98
        1
 10
0.0
 20
0.0
  0
LINE
  5
165
100
AcDbEntity
  8
2
370
    25
100
AcDbLine
 10
-67.154388
 20
82.570929
 30
0.0
 11
-66.554388
 21
83.170929
 31
0.0
  0
LINE
  5
166
100
AcDbEntity
  8
2
370
    25
100
AcDbLine
 10
-67.154388
 20
82.429507
 30
0.0
 11
-66.554388
 21
83.029507
 31
0.0
  0
LINE
  5
167
100
AcDbEntity
  8
2
370
    25
100
AcDbLine
 10
-67.154388
 20
82.288086
 30
0.0
 11
-66.554388
 21
82.888086
 31
0.0
  0
LINE
  5
168
100
AcDbEntity
  8
2
370
    25
100
AcDbLine
 10
-67.154388
 20
82.146665
 30
0.0
 11
-66.554388
 21
82.746665
 31
0.0
  0
LINE
  5
169
100
AcDbEntity
  8
2
370
    25
100
AcDbLine
 10
-67.154388
 20
82.005243
 30
0.0
 11
-66.554388
 21
82.605243
 31
0.0
  0
LINE
  5
16A
100
AcDbEntity
  8
2
370
    25
100
AcDbLine
 10
-67.154388
 20
81.863822
 30
0.0
 11
-66.554388
 21
82.463822
 31
0.0
  0
LINE
  5
16B
100
AcDbEntity
  8
2
370
    25
100
AcDbLine
 10
-67.154388
 20
81.722401
 30
0.0
 11
-66.554388
 21
82.322401
 31
0.0
  0
LINE
  5
16C
100
AcDbEntity
  8
2
370
    25
100
AcDbLine
 10
-67.143722
 20
81.591645
 30
0.0
 11
-66.554388
 21
82.180979
 31
0.0
  0
LINE
  5
16D
100
AcDbEntity
  8
2
370
    25
100
AcDbLine
 10
-67.098041
 20
81.495905
 30
0.0
 11
-66.554388
 21
82.039558
 31
0.0
  0
LINE
  5
16E
100
AcDbEntity
  8
2
370
    25
100
AcDbLine
 10
-67.026978
 20
81.425546
 30
0.0
 11
-66.554388
 21
81.898137
 31
0.0
  0
LINE
  5
16F
100
AcDbEntity
  8
2
370
    25
100
AcDbLine
 10
-66.930388
 20
81.380715
 30
0.0
 11
-66.554388
 21
81.756715
 31
0.0
  0
LINE
  5
170
100
AcDbEntity
  8
2
370
    25
100
AcDbLine
 10
-66.792247
 20
81.377435
 30
0.0
 11
-66.560894
 21
81.608787
 31
0.0
  0
LINE
  5
171
100
AcDbEntity
  8
2
370
    25
100
AcDbLine
 10
-67.154388
 20
82.71235
 30
0.0
 11
-66.554388
 21
83.31235
 31
0.0
  0
LINE
  5
172
100
AcDbEntity
  8
2
370
    25
100
AcDbLine
 10
-67.154388
 20
82.853771
 30
0.0
 11
-66.554388
 21
83.453771
 31
0.0
  0
LINE
  5
173
100
AcDbEntity
  8
2
370
    25
100
AcDbLine
 10
-67.154388
 20
82.995193
 30
0.0
 11
-66.554388
 21
83.595193
 31
0.0
  0
LINE
  5
174
100
AcDbEntity
  8
2
370
    25
100
AcDbLine
 10
-67.154388
 20
83.136614
 30
0.0
 11
-66.554388
 21
83.736614
 31
0.0
  0
LINE
  5
175
100
AcDbEntity
  8
2
370
    25
100
AcDbLine
 10
-67.154388
 20
83.278036
 30
0.0
 11
-66.554388
 21
83.878036
 31
0.0
  0
LINE
  5
176
100
AcDbEntity
  8
2
370
    25
100
AcDbLine
 10
-67.154388
 20
83.419457
 30
0.0
 11
-66.554388
 21
84.019457
 31
0.0
  0
LINE
  5
177
100
AcDbEntity
  8
2
370
    25
100
AcDbLine
 10
-67.154388
 20
83.560878
 30
0.0
 11
-66.554388
 21
84.160878
 31
0.0
  0
LINE
  5
178
100
AcDbEntity
  8
2
370
    25
100
AcDbLine
 10
-67.154388
 20
83.7023
 30
0.0
 11
-66.554388
 21
84.3023
 31
0.0
  0
LINE
  5
179
100
AcDbEntity
  8
2
370
    25
100
AcDbLine
 10
-67.154388
 20
83.843721
 30
0.0
 11
-66.554388
 21
84.443721
 31
0.0
  0
LINE
  5
17A
100
AcDbEntity
  8
2
370
    25
100
AcDbLine
 10
-67.154388
 20
83.985142
 30
0.0
 11
-66.554388
 21
84.585142
 31
0.0
  0
LINE
  5
17B
100
AcDbEntity
  8
2
370
    25
100
AcDbLine
 10
-66.558794
 20
84.722157
 30
0.0
 11
-67.154388
 21
84.126564
 31
0.0
  0
LINE
  5
17C
100
AcDbEntity
  8
2
370
    25
100
AcDbLine
 10
-66.597123
 20
84.82525
 30
0.0
 11
-67.154388
 21
84.267985
 31
0.0
  0
LINE
  5
17D
100
AcDbEntity
  8
2
370
    25
100
AcDbLine
 10
-66.662369
 20
84.901425
 30
0.0
 11
-67.154388
 21
84.409406
 31
0.0
  0
LINE
  5
17E
100
AcDbEntity
  8
2
370
    25
100
AcDbLine
 10
-66.75222
 20
84.952996
 30
0.0
 11
-67.154388
 21
84.550828
 31
0.0
  0
LINE
  5
17F
100
AcDbEntity
  8
2
370
    25
100
AcDbLine
 10
-67.15357
 20
84.693067
 30
0.0
 11
-66.876526
 21
84.970111
 31
0.0
  0
HATCH
  5
180
100
AcDbEntity
  8
2
370
    25
100
AcDbHatch
 10
0.0
 20
0.0
 30
0.0
210
0.0
220
0.0
230
1.0
  2
_U
 70
     0
 71
     1
 91
        1
 92
        1
 93
        4
 72
     1
 10
-65.554388000000003
 20
84.670929000000001
 11
-65.554388000000003
 21
81.670929000000001
 72
     2
 10
-65.254388000000006
 20
81.670929000000001
 40
0.3
 50
180.0
 51
0.0
 73
     1
 72
     1
 10
-64.954387999999994
 20
81.670929000000001
 11
-64.954387999999994
 21
84.670929000000001
 72
     2
 10
-65.254388000000006
 20
84.670929000000001
 40
0.3
 50
0.0
 51
180.0
 73
     1
 97
        4
330
0
330
0
330
0
330
0
 75
     0
 76
     0
 52
45.0
 41
1.0
 77
     0
 78
     1
 53
45.0
 43
0.0
 44
0.0
 45
-0.070711
 46
0.070711
 79
     0
 98
        1
 10
0.0
 20
0.0
  0
LWPOLYLINE
  5
181
100
AcDbEntity
  8
2
370
    25
100
AcDbPolyline
 90
        3
 70
     0
 10
-51.606247
 20
184.396414
 10
-42.312843
 20
209.760367
 10
-14.322197
 20
209.760367
  0
LINE
  5
186
100
AcDbEntity
  8
2
370
    25
100
AcDbLine
 10
-50.276995
 20
188.024264
 30
0.0
 11
-51.249075
 21
188.380436
 31
0.0
  0
LINE
  5
187
100
AcDbEntity
  8
2
370
    25
100
AcDbLine
 10
-51.249075
 20
188.380436
 30
0.0
 11
-51.606247
 21
184.396414
 31
0.0
  0
LINE
  5
188
100
AcDbEntity
  8
2
370
    25
100
AcDbLine
 10
-51.606247
 20
184.396414
 30
0.0
 11
-49.304916
 21
187.668092
 31
0.0
  0
LINE
  5
189
100
AcDbEntity
  8
2
370
    25
100
AcDbLine
 10
-49.304916
 20
187.668092
 30
0.0
 11
-50.276995
 21
188.024264
 31
0.0
  0
LWPOLYLINE
  5
18A
100
AcDbEntity
  8
2
370
    25
100
AcDbPolyline
 90
        3
 70
     0
 10
14.402142
 20
184.564368
 10
24.564163
 20
209.295714
 10
67.894498
 20
209.295714
  0
LINE
  5
18F
100
AcDbEntity
  8
2
370
    25
100
AcDbLine
 10
15.870592
 20
188.138141
 30
0.0
 11
14.913003
 21
188.531611
 31
0.0
  0
LINE
  5
190
100
AcDbEntity
  8
2
370
    25
100
AcDbLine
 10
14.913003
 20
188.531611
 30
0.0
 11
14.402142
 21
184.564368
 31
0.0
  0
LINE
  5
191
100
AcDbEntity
  8
2
370
    25
100
AcDbLine
 10
14.402142
 20
184.564368
 30
0.0
 11
16.828182
 21
187.744671
 31
0.0
  0
LINE
  5
192
100
AcDbEntity
  8
2
370
    25
100
AcDbLine
 10
16.828182
 20
187.744671
 30
0.0
 11
15.870592
 21
188.138141
 31
0.0
  0
TEXT
  5
193
100
AcDbEntity
  8
2
370
    50
100
AcDbText
 10
-41.289261
 20
210.28549
 30
0.0
 40
7.0
  1
Ｇ３／４
 72
     5
 11
-14.689261
 21
210.28549
 31
0.0
100
AcDbText
  0
TEXT
  5
194
100
AcDbEntity
  8
2
370
    50
100
AcDbText
 10
26.21693
 20
209.708983
 30
0.0
 40
7.0
  1
Ｗ２８山１８
 72
     5
 11
66.81693
 21
209.708983
 31
0.0
100
AcDbText
  0
POINT
  5
195
100
AcDbEntity
  8
2
370
    50
100
AcDbPoint
 10
-104.654966
 20
163.259516
 30
0.0
  0
POINT
  5
196
100
AcDbEntity
  8
2
370
    50
100
AcDbPoint
 10
255.129525
 20
-115.15124
 30
0.0
  0
LWPOLYLINE
  5
197
100
AcDbEntity
  8
2
370
    25
100
AcDbPolyline
 90
        3
 70
     0
 10
-110.130981
 20
173.641464
 10
-121.131996
 20
191.463928
 10
-151.594452
 20
191.463928
  0
LINE
  5
19C
100
AcDbEntity
  8
2
370
    25
100
AcDbLine
 10
-112.160398
 20
176.929271
 30
0.0
 11
-113.041363
 21
176.38549
 31
0.0
  0
LINE
  5
19D
100
AcDbEntity
  8
2
370
    25
100
AcDbLine
 10
-113.041363
 20
176.38549
 30
0.0
 11
-110.130981
 21
173.641464
 31
0.0
  0
LINE
  5
19E
100
AcDbEntity
  8
2
370
    25
100
AcDbLine
 10
-110.130981
 20
173.641464
 30
0.0
 11
-111.279433
 21
177.473051
 31
0.0
  0
LINE
  5
19F
100
AcDbEntity
  8
2
370
    25
100
AcDbLine
 10
-111.279433
 20
177.473051
 30
0.0
 11
-112.160398
 21
176.929271
 31
0.0
  0
TEXT
  5
1A0
100
AcDbEntity
  8
2
370
    50
100
AcDbText
 10
-150.174698
 20
192.124069
 30
0.0
 40
7.0
  1
Ｇ１／２
 72
     5
 11
-123.574698
 21
192.124069
 31
0.0
100
AcDbText
  0
TEXT
  5
1A1
100
AcDbEntity
  8
2
370
    50
100
AcDbText
 10
67.755127
 20
-226.683212
 30
0.0
 40
6.0
  1
壁付きサーモスタット湯水混合水栓（シャワバス）
 41
0.8
 72
     5
 11
177.195127
 21
-226.683212
 31
0.0
100
AcDbText
  0
TEXT
  5
1A2
100
AcDbEntity
  8
2
370
    50
100
AcDbText
 10
66.43969
 20
-236.202682
 30
0.0
 40
7.0
  1
ＭＢ７０２ＭＧＲ
 72
     5
 11
121.03969
 21
-236.202682
 31
0.0
100
AcDbText
  0
DIMENSION
  5
1A3
100
AcDbEntity
  8
2
370
    25
100
AcDbDimension
  2
*D0
 10
-79.654966
 20
227.032959
 30
0.0
 11
-129.654966
 21
231.532959
 31
0.0
 71
     0
 72
     0
 41
0.0
 42
0.0
  3
Standard
100
AcDbAlignedDimension
 13
-179.654966
 23
183.313228
 33
0.0
 14
-79.654966
 24
181.735366
 34
0.0
100
AcDbRotatedDimension
  0
TEXT
  5
1A4
100
AcDbEntity
  8
2
370
    50
100
AcDbText
 10
-140.155386
 20
-32.324934
 30
0.0
 40
7.0
  1
２２８
 72
     5
 11
-120.555386
 21
-32.324934
 31
0.0
100
AcDbText
  0
DIMENSION
  5
1A5
100
AcDbEntity
  8
2
370
    25
100
AcDbDimension
  2
*D1
 10
-16.354808
 20
-33.324934
 30
0.0
 11
-129.655386
 21
-31.324934
 31
0.0
 71
     0
 72
     0
 41
0.0
 42
0.0
  3
Standard
100
AcDbAlignedDimension
 13
-242.955965
 23
-79.150873
 33
0.0
 14
-16.354808
 24
-79.151607
 34
0.0
100
AcDbRotatedDimension
  0
TEXT
  5
1A6
100
AcDbEntity
  8
2
370
    50
100
AcDbText
 10
-196.805465
 20
-49.394682
 30
0.0
 40
7.0
  1
１１４
 72
     5
 11
-177.205465
 21
-49.394682
 31
0.0
100
AcDbText
  0
DIMENSION
  5
1A7
100
AcDbEntity
  8
2
370
    25
100
AcDbDimension
  2
*D2
 10
-129.654966
 20
-50.394682
 30
0.0
 11
-186.305465
 21
-48.394682
 31
0.0
 71
     0
 72
     0
 41
0.0
 42
0.0
  3
Standard
100
AcDbAlignedDimension
 13
-242.955965
 23
-79.150873
 33
0.0
 14
-129.654966
 24
-58.22434
 34
0.0
100
AcDbRotatedDimension
  0
TEXT
  5
1A8
100
AcDbEntity
  8
2
370
    50
100
AcDbText
 10
-83.504887
 20
-49.394682
 30
0.0
 40
7.0
  1
１１４
 72
     5
 11
-63.904887
 21
-49.394682
 31
0.0
100
AcDbText
  0
DIMENSION
  5
1A9
100
AcDbEntity
  8
2
370
    25
100
AcDbDimension
  2
*D3
 10
-16.354808
 20
-50.394682
 30
0.0
 11
-73.004887
 21
-48.394682
 31
0.0
 71
     0
 72
     0
 41
0.0
 42
0.0
  3
Standard
100
AcDbAlignedDimension
 13
-129.654966
 23
-58.22434
 33
0.0
 14
-16.354808
 24
-79.151607
 34
0.0
100
AcDbRotatedDimension
  0
DIMENSION
  5
1AA
100
AcDbEntity
  8
2
370
    25
100
AcDbDimension
  2
*D4
 10
99.614922
 20
-68.15124
 30
0.0
 11
91.614922
 21
-79.15124
 31
0.0
 71
     0
 72
     0
 41
0.0
 42
0.0
  3
Standard
100
AcDbAlignedDimension
 13
193.129525
 23
-90.15124
 33
0.0
 14
193.129525
 24
-68.15124
 34
0.0
 50
90.0
100
AcDbRotatedDimension
  0
DIMENSION
  5
1AB
100
AcDbEntity
  8
2
370
    25
100
AcDbDimension
  2
*D5
 10
-179.654966
 20
227.032959
 30
0.0
 11
-209.65495
 21
231.532959
 31
0.0
 71
     0
 72
     0
 41
0.0
 42
0.0
  3
Standard
100
AcDbAlignedDimension
 13
-194.65495
 23
191.118371
 33
0.0
 14
-179.654966
 24
183.313228
 34
0.0
100
AcDbRotatedDimension
  0
DIMENSION
  5
1AC
100
AcDbEntity
  8
2
370
    25
100
AcDbDimension
  2
*D6
 10
-64.654983
 20
227.032959
 30
0.0
 11
-49.654983
 21
231.532959
 31
0.0
 71
     0
 72
     0
 41
0.0
 42
0.0
  3
Standard
100
AcDbAlignedDimension
 13
-79.654966
 23
181.735366
 33
0.0
 14
-64.654983
 24
191.118371
 34
0.0
100
AcDbRotatedDimension
  0
TEXT
  5
1AD
100
AcDbEntity
  8
2
370
    50
100
AcDbText
 10
-157.654966
 20
250.330063
 30
0.0
 40
7.0
  1
（ＭＡＸ１２５）
 72
     5
 11
-103.054966
 21
250.330063
 31
0.0
100
AcDbText
  0
DIMENSION
  5
1AE
100
AcDbEntity
  8
2
370
    25
100
AcDbDimension
  2
*D7
 10
-64.654983
 20
249.330063
 30
0.0
 11
-129.654966
 21
251.330063
 31
0.0
 71
     0
 72
     0
 41
0.0
 42
0.0
  3
Standard
100
AcDbAlignedDimension
 13
-194.65495
 23
191.118371
 33
0.0
 14
-64.654983
 24
191.118371
 34
0.0
100
AcDbRotatedDimension
  0
DIMENSION
  5
1AF
100
AcDbEntity
  8
2
370
    25
100
AcDbDimension
  2
*D8
 10
193.128389
 20
-90.155479
 30
0.0
 11
160.371768
 21
-121.188295
 31
0.0
 70
     2
 71
     0
 72
     0
 41
0.0
 42
0.0
  3
Standard
100
AcDb2LineAngularDimension
 13
139.314894
 23
-75.731653
 33
0.0
 14
193.129525
 24
-90.15124
 34
0.0
 15
193.129525
 25
-90.15124
 35
0.0
 16
155.121768
 26
-112.095028
 36
0.0
1001
ACAD
1000
DSTYLE
1002
{
1070
   275
1070
     0
1070
   179
1070
     0
1002
}
  0
DIMENSION
  5
1B0
100
AcDbEntity
  8
2
370
    25
100
AcDbDimension
  2
*D9
 10
139.314894
 20
-75.731653
 30
0.0
 11
180.279003
 21
-46.893483
 31
0.0
 70
     2
 71
     0
 72
     0
 41
0.0
 42
0.0
  3
Standard
100
AcDb2LineAngularDimension
 13
202.103149
 23
-56.661219
 33
0.0
 14
193.129525
 24
-90.15124
 34
0.0
 15
193.129525
 25
-90.15124
 35
0.0
 16
171.185736
 26
-52.143483
 36
0.0
1001
ACAD
1000
DSTYLE
1002
{
1070
   275
1070
     0
1070
   179
1070
     0
1002
}
  0
DIMENSION
  5
1B1
100
AcDbEntity
  8
2
370
    25
100
AcDbDimension
  2
*D10
 10
280.129776
 20
-187.05957
 30
0.0
 11
236.629651
 21
-182.55957
 31
0.0
 71
     0
 72
     0
 41
0.0
 42
0.0
  3
Standard
100
AcDbAlignedDimension
 13
193.129525
 23
-118.15124
 33
0.0
 14
280.129776
 24
-117.28088
 34
0.0
100
AcDbRotatedDimension
  0
DIMENSION
  5
1B2
100
AcDbEntity
  8
2
370
    25
100
AcDbDimension
  2
*D11
 10
24.590557
 20
-90.15124
 30
0.0
 11
9.590557
 21
-130.24824
 31
0.0
 71
     0
 72
     0
 41
0.0
 42
0.0
  3
Standard
100
AcDbAlignedDimension
 13
37.249533
 23
-156.34524
 33
0.0
 14
165.129525
 24
-90.15124
 34
0.0
 50
90.0
100
AcDbRotatedDimension
  0
DIMENSION
  5
1B3
100
AcDbEntity
  8
2
370
    25
100
AcDbDimension
  2
*D12
 10
4.117865
 20
-90.15124
 30
0.0
 11
-14.382135
 21
-152.04824
 31
0.0
 71
     0
 72
     0
 41
0.0
 42
0.0
  3
Standard
100
AcDbAlignedDimension
 13
31.59682
 23
-192.94524
 33
0.0
 14
165.129525
 24
-90.15124
 34
0.0
 50
90.0
100
AcDbRotatedDimension
  0
POINT
  5
1B4
100
AcDbEntity
  8
2
370
    50
100
AcDbPoint
 10
212.129525
 20
-132.65124
 30
0.0
  0
DIMENSION
  5
1B5
100
AcDbEntity
  8
2
370
    25
100
AcDbDimension
  2
*D13
 10
212.129525
 20
-204.008316
 30
0.0
 11
127.179525
 21
-199.508316
 31
0.0
 71
     0
 72
     0
 41
0.0
 42
0.0
  3
Standard
100
AcDbAlignedDimension
 13
42.229525
 23
-192.94524
 33
0.0
 14
212.129525
 24
-132.65124
 34
0.0
100
AcDbRotatedDimension
  0
TEXT
  5
1B6
100
AcDbEntity
  8
2
370
    50
100
AcDbText
 10
217.129525
 20
-168.621643
 30
0.0
 40
7.0
  1
６１
 72
     5
 11
229.729525
 21
-168.621643
 31
0.0
100
AcDbText
  0
DIMENSION
  5
1B7
100
AcDbEntity
  8
2
370
    25
100
AcDbDimension
  2
*D14
 10
255.129525
 20
-169.621643
 30
0.0
 11
224.129525
 21
-167.621643
 31
0.0
 71
     0
 72
     0
 41
0.0
 42
0.0
  3
Standard
100
AcDbAlignedDimension
 13
193.129525
 23
-118.15124
 33
0.0
 14
255.129525
 24
-115.15124
 34
0.0
100
AcDbRotatedDimension
  0
LINE
  5
1B8
100
AcDbEntity
  8
3
370
    50
100
AcDbLine
 10
-142.654966
 20
131.118119
 30
0.0
 11
-142.654966
 21
144.918119
 31
0.0
  0
LINE
  5
1B9
100
AcDbEntity
  8
3
370
    50
100
AcDbLine
 10
-116.654966
 20
131.118119
 30
0.0
 11
-116.654966
 21
144.918119
 31
0.0
  0
LINE
  5
1BA
100
AcDbEntity
  8
3
370
    50
100
AcDbLine
 10
-129.654966
 20
131.118119
 30
0.0
 11
-67.154966
 21
131.118119
 31
0.0
  0
LINE
  5
1BB
100
AcDbEntity
  8
3
370
    50
100
AcDbLine
 10
-199.655545
 20
131.118119
 30
0.0
 11
-192.154966
 21
131.118119
 31
0.0
  0
LINE
  5
1BC
100
AcDbEntity
  8
3
370
    50
100
AcDbLine
 10
-192.154966
 20
131.118119
 30
0.0
 11
-129.654966
 21
131.118119
 31
0.0
  0
LINE
  5
1BD
100
AcDbEntity
  8
3
370
    50
100
AcDbLine
 10
-179.654966
 20
137.118119
 30
0.0
 11
-191.854966
 21
137.118119
 31
0.0
  0
LINE
  5
1BE
100
AcDbEntity
  8
3
370
    50
100
AcDbLine
 10
-167.154966
 20
131.118119
 30
0.0
 11
-167.154966
 21
136.818119
 31
0.0
  0
LINE
  5
1BF
100
AcDbEntity
  8
3
370
    50
100
AcDbLine
 10
-192.154966
 20
131.118119
 30
0.0
 11
-192.154966
 21
136.818119
 31
0.0
  0
LINE
  5
1C0
100
AcDbEntity
  8
3
370
    50
100
AcDbLine
 10
-191.854966
 20
137.118119
 30
0.0
 11
-192.154966
 21
136.818119
 31
0.0
  0
LINE
  5
1C1
100
AcDbEntity
  8
3
370
    50
100
AcDbLine
 10
-167.154966
 20
136.818119
 30
0.0
 11
-167.454966
 21
137.118119
 31
0.0
  0
LINE
  5
1C2
100
AcDbEntity
  8
3
370
    50
100
AcDbLine
 10
-167.454966
 20
137.118119
 30
0.0
 11
-179.654966
 21
137.118119
 31
0.0
  0
LINE
  5
1C3
100
AcDbEntity
  8
3
370
    50
100
AcDbLine
 10
-142.654966
 20
144.918119
 30
0.0
 11
-142.154966
 21
145.418119
 31
0.0
  0
LINE
  5
1C4
100
AcDbEntity
  8
3
370
    50
100
AcDbLine
 10
-117.154966
 20
145.418119
 30
0.0
 11
-116.654966
 21
144.918119
 31
0.0
  0
LINE
  5
1C5
100
AcDbEntity
  8
3
370
    50
100
AcDbLine
 10
-142.154966
 20
145.418119
 30
0.0
 11
-141.154966
 21
145.418119
 31
0.0
  0
LINE
  5
1C6
100
AcDbEntity
  8
3
370
    50
100
AcDbLine
 10
-118.154966
 20
145.418119
 30
0.0
 11
-117.154966
 21
145.418119
 31
0.0
  0
LINE
  5
1C7
100
AcDbEntity
  8
3
370
    50
100
AcDbLine
 10
-199.655545
 20
79.118119
 30
0.0
 11
-59.654388
 21
79.118119
 31
0.0
  0
LINE
  5
1C8
100
AcDbEntity
  8
3
370
    50
100
AcDbLine
 10
-199.655545
 20
79.118119
 30
0.0
 11
-199.655545
 21
101.118119
 31
0.0
  0
LINE
  5
1C9
100
AcDbEntity
  8
3
370
    50
100
AcDbLine
 10
-199.655545
 20
101.118119
 30
0.0
 11
-199.655545
 21
131.118119
 31
0.0
  0
LINE
  5
1CA
100
AcDbEntity
  8
3
370
    50
100
AcDbLine
 10
-67.154966
 20
131.118119
 30
0.0
 11
-59.654388
 21
131.118119
 31
0.0
  0
LINE
  5
1CB
100
AcDbEntity
  8
3
370
    50
100
AcDbLine
 10
-92.154966
 20
131.118119
 30
0.0
 11
-92.154966
 21
136.818119
 31
0.0
  0
LINE
  5
1CC
100
AcDbEntity
  8
3
370
    50
100
AcDbLine
 10
-59.654388
 20
79.118119
 30
0.0
 11
-59.654388
 21
131.118119
 31
0.0
  0
LINE
  5
1CD
100
AcDbEntity
  8
3
370
    50
100
AcDbLine
 10
-67.454966
 20
137.118119
 30
0.0
 11
-79.654966
 21
137.118119
 31
0.0
  0
LINE
  5
1CE
100
AcDbEntity
  8
3
370
    50
100
AcDbLine
 10
-67.154966
 20
131.118119
 30
0.0
 11
-67.154966
 21
136.818119
 31
0.0
  0
LINE
  5
1CF
100
AcDbEntity
  8
3
370
    50
100
AcDbLine
 10
-67.454966
 20
137.118119
 30
0.0
 11
-67.154966
 21
136.818119
 31
0.0
  0
LINE
  5
1D0
100
AcDbEntity
  8
3
370
    50
100
AcDbLine
 10
-92.154966
 20
136.818119
 30
0.0
 11
-91.854966
 21
137.118119
 31
0.0
  0
LINE
  5
1D1
100
AcDbEntity
  8
3
370
    50
100
AcDbLine
 10
-79.654966
 20
137.118119
 30
0.0
 11
-91.854966
 21
137.118119
 31
0.0
  0
LINE
  5
1D2
100
AcDbEntity
  8
3
370
    50
100
AcDbLine
 10
-199.355545
 20
-68.15124
 30
0.0
 11
-59.954388
 21
-68.15124
 31
0.0
  0
LINE
  5
1D3
100
AcDbEntity
  8
3
370
    50
100
AcDbLine
 10
-199.355545
 20
-112.15124
 30
0.0
 11
-59.954388
 21
-112.15124
 31
0.0
  0
LINE
  5
1D4
100
AcDbEntity
  8
3
370
    50
100
AcDbLine
 10
-59.654388
 20
-111.85124
 30
0.0
 11
-59.654388
 21
-68.45124
 31
0.0
  0
LINE
  5
1D5
100
AcDbEntity
  8
3
370
    50
100
AcDbLine
 10
-199.655545
 20
-90.15124
 30
0.0
 11
-199.655545
 21
-111.85124
 31
0.0
  0
LINE
  5
1D6
100
AcDbEntity
  8
3
370
    50
100
AcDbLine
 10
-199.655545
 20
-90.15124
 30
0.0
 11
-199.655545
 21
-68.45124
 31
0.0
  0
LINE
  5
1D7
100
AcDbEntity
  8
3
370
    50
100
AcDbLine
 10
-141.154966
 20
145.418119
 30
0.0
 11
-129.654966
 21
145.418119
 31
0.0
  0
LINE
  5
1D8
100
AcDbEntity
  8
3
370
    50
100
AcDbLine
 10
-129.654966
 20
145.418119
 30
0.0
 11
-118.154966
 21
145.418119
 31
0.0
  0
LINE
  5
1D9
100
AcDbEntity
  8
3
370
    50
100
AcDbLine
 10
-199.655545
 20
-111.85124
 30
0.0
 11
-199.355545
 21
-112.15124
 31
0.0
  0
LINE
  5
1DA
100
AcDbEntity
  8
3
370
    50
100
AcDbLine
 10
-199.655545
 20
-68.45124
 30
0.0
 11
-199.355545
 21
-68.15124
 31
0.0
  0
LINE
  5
1DB
100
AcDbEntity
  8
3
370
    50
100
AcDbLine
 10
-59.954388
 20
-68.15124
 30
0.0
 11
-59.654388
 21
-68.45124
 31
0.0
  0
LINE
  5
1DC
100
AcDbEntity
  8
3
370
    50
100
AcDbLine
 10
-59.654388
 20
-111.85124
 30
0.0
 11
-59.954388
 21
-112.15124
 31
0.0
  0
LINE
  5
1DD
100
AcDbEntity
  8
3
370
    25
100
AcDbLine
 10
-167.154966
 20
136.818119
 30
0.0
 11
-192.154966
 21
136.818119
 31
0.0
  0
LINE
  5
1DE
100
AcDbEntity
  8
3
370
    25
100
AcDbLine
 10
-116.654966
 20
144.918119
 30
0.0
 11
-142.654966
 21
144.918119
 31
0.0
  0
LINE
  5
1DF
100
AcDbEntity
  8
3
370
    25
100
AcDbLine
 10
-67.154966
 20
136.818119
 30
0.0
 11
-92.154966
 21
136.818119
 31
0.0
  0
POINT
  5
1E0
100
AcDbEntity
  8
3
370
    50
100
AcDbPoint
 10
-58.855808
 20
101.118119
 30
0.0
  0
LINE
  5
1E1
100
AcDbEntity
  8
3
370
    50
100
AcDbLine
 10
-58.855808
 20
101.118119
 30
0.0
 11
-58.855808
 21
122.618119
 31
0.0
  0
LINE
  5
1E2
100
AcDbEntity
  8
3
370
    50
100
AcDbLine
 10
-58.355808
 20
79.118119
 30
0.0
 11
-57.389751
 21
79.118119
 31
0.0
  0
LINE
  5
1E3
100
AcDbEntity
  8
3
370
    50
100
AcDbLine
 10
-58.855808
 20
79.618119
 30
0.0
 11
-58.855808
 21
101.118119
 31
0.0
  0
ARC
  5
1E4
100
AcDbEntity
  8
3
370
    50
100
AcDbCircle
 10
-58.355808
 20
79.618119
 30
0.0
 40
0.5
100
AcDbArc
 50
180.0
 51
270.0
  0
LINE
  5
1E5
100
AcDbEntity
  8
3
370
    50
100
AcDbLine
 10
-16.355349
 20
112.118119
 30
0.0
 11
-16.355349
 21
90.118119
 31
0.0
  0
LINE
  5
1E6
100
AcDbEntity
  8
3
370
    50
100
AcDbLine
 10
-16.354808
 20
101.118119
 30
0.0
 11
-16.354808
 21
112.118486
 31
0.0
  0
LINE
  5
1E7
100
AcDbEntity
  8
3
370
    50
100
AcDbLine
 10
-16.354808
 20
101.118119
 30
0.0
 11
-16.354808
 21
90.118486
 31
0.0
  0
LINE
  5
1E8
100
AcDbEntity
  8
3
370
    50
100
AcDbLine
 10
-16.355349
 20
112.118119
 30
0.0
 11
-18.905592
 21
121.635757
 31
0.0
  0
LINE
  5
1E9
100
AcDbEntity
  8
3
370
    50
100
AcDbLine
 10
-16.355349
 20
90.118119
 30
0.0
 11
-18.905592
 21
80.600481
 31
0.0
  0
ARC
  5
1EA
100
AcDbEntity
  8
3
370
    50
100
AcDbCircle
 10
-20.837444
 20
81.118119
 30
0.0
 40
2.0
100
AcDbArc
 50
269.078976
 51
345.0
  0
LINE
  5
1EB
100
AcDbEntity
  8
3
370
    50
100
AcDbLine
 10
-58.355808
 20
123.118119
 30
0.0
 11
-20.837444
 21
123.118119
 31
0.0
  0
ARC
  5
1EC
100
AcDbEntity
  8
3
370
    50
100
AcDbCircle
 10
-58.355808
 20
122.618119
 30
0.0
 40
0.5
100
AcDbArc
 50
90.0
 51
180.0
  0
ARC
  5
1ED
100
AcDbEntity
  8
3
370
    50
100
AcDbCircle
 10
-20.837444
 20
121.118119
 30
0.0
 40
2.0
100
AcDbArc
 50
15.0
 51
90.0
  0
LINE
  5
1EE
100
AcDbEntity
  8
3
370
    50
100
AcDbLine
 10
-23.321362
 20
74.597885
 30
0.0
 11
-23.321362
 21
75.547632
 31
0.0
  0
LINE
  5
1EF
100
AcDbEntity
  8
3
370
    50
100
AcDbLine
 10
-56.210623
 20
74.597885
 30
0.0
 11
-56.210623
 21
75.547632
 31
0.0
  0
LINE
  5
1F0
100
AcDbEntity
  8
3
370
    50
100
AcDbLine
 10
-25.321362
 20
77.547632
 30
0.0
 11
-54.210623
 21
77.547632
 31
0.0
  0
LINE
  5
1F1
100
AcDbEntity
  8
3
370
    50
100
AcDbLine
 10
-25.321362
 20
72.597885
 30
0.0
 11
-54.210623
 21
72.597885
 31
0.0
  0
LINE
  5
1F2
100
AcDbEntity
  8
3
370
    50
100
AcDbLine
 10
-23.321362
 20
77.547632
 30
0.0
 11
-19.6227
 21
87.384241
 31
0.0
  0
LINE
  5
1F3
100
AcDbEntity
  8
3
370
    50
100
AcDbLine
 10
-56.210623
 20
77.547632
 30
0.0
 11
-58.855808
 21
88.235043
 31
0.0
  0
LINE
  5
1F4
100
AcDbEntity
  8
3
370
    50
100
AcDbLine
 10
-19.30279
 20
121.654187
 30
0.0
 11
-19.30279
 21
89.144001
 31
0.0
  0
LINE
  5
1F5
100
AcDbEntity
  8
3
370
    50
100
AcDbLine
 10
-19.30279
 20
84.921712
 30
0.0
 11
-19.30279
 21
80.622004
 31
0.0
  0
ARC
  5
1F6
100
AcDbEntity
  8
3
370
    50
100
AcDbCircle
 10
-25.321362
 20
74.597885
 30
0.0
 40
2.0
100
AcDbArc
 50
270.0
 51
360.0
  0
ARC
  5
1F7
100
AcDbEntity
  8
3
370
    50
100
AcDbCircle
 10
-25.321362
 20
75.547632
 30
0.0
 40
2.0
100
AcDbArc
 50
360.0
 51
90.0
  0
ARC
  5
1F8
100
AcDbEntity
  8
3
370
    50
100
AcDbCircle
 10
-54.210623
 20
74.597885
 30
0.0
 40
2.0
100
AcDbArc
 50
180.0
 51
270.0
  0
ARC
  5
1F9
100
AcDbEntity
  8
3
370
    50
100
AcDbCircle
 10
-54.210623
 20
75.547632
 30
0.0
 40
2.0
100
AcDbArc
 50
90.0
 51
180.0
  0
LINE
  5
1FA
100
AcDbEntity
  8
3
370
    50
100
AcDbLine
 10
-23.449326
 20
73.893981
 30
0.0
 11
-19.30279
 21
84.921712
 31
0.0
  0
LINE
  5
1FB
100
AcDbEntity
  8
3
370
    50
100
AcDbLine
 10
-56.152042
 20
74.117374
 30
0.0
 11
-58.855808
 21
85.041469
 31
0.0
  0
LINE
  5
1FC
100
AcDbEntity
  8
3
370
    50
100
AcDbLine
 10
-20.837444
 20
79.118119
 30
0.0
 11
-21.484998
 21
79.118119
 31
0.0
  0
ARC
  5
1FD
100
AcDbEntity
  8
3
370
    50
100
AcDbCircle
 10
-24.30279
 20
89.144001
 30
0.0
 40
5.0
100
AcDbArc
 50
339.393241
 51
0.0
  0
LINE
  5
1FE
100
AcDbEntity
  8
3
370
    25
100
AcDbLine
 10
-21.982584
 20
88.235043
 30
0.0
 11
-56.804665
 21
88.235043
 31
0.0
  0
POINT
  5
1FF
100
AcDbEntity
  8
3
370
    50
100
AcDbPoint
 10
-200.455965
 20
101.118119
 30
0.0
  0
LINE
  5
200
100
AcDbEntity
  8
3
370
    50
100
AcDbLine
 10
-203.955965
 20
87.065944
 30
0.0
 11
-204.955965
 21
87.065944
 31
0.0
  0
LINE
  5
201
100
AcDbEntity
  8
3
370
    50
100
AcDbLine
 10
-203.955965
 20
123.118119
 30
0.0
 11
-203.955965
 21
87.065944
 31
0.0
  0
LINE
  5
202
100
AcDbEntity
  8
3
370
    50
100
AcDbLine
 10
-204.955965
 20
123.118119
 30
0.0
 11
-204.955965
 21
87.065944
 31
0.0
  0
HATCH
  5
203
100
AcDbEntity
  8
3
370
    25
100
AcDbHatch
 10
0.0
 20
0.0
 30
0.0
210
0.0
220
0.0
230
1.0
  2
_U
 70
     0
 71
     1
 91
        1
 92
        1
 93
        4
 72
     1
 10
-203.95596499999999
 20
123.11811899999999
 11
-203.95596499999999
 21
87.065944000000002
 72
     1
 10
-203.95596499999999
 20
87.065944000000002
 11
-204.95596499999999
 21
87.065944000000002
 72
     1
 10
-204.95596499999999
 20
87.065944000000002
 11
-204.95596499999999
 21
123.11811899999999
 72
     1
 10
-204.95596499999999
 20
123.11811899999999
 11
-203.95596499999999
 21
123.11811899999999
 97
        4
330
0
330
0
330
0
330
0
 75
     0
 76
     0
 52
45.0
 41
1.0
 77
     0
 78
     1
 53
45.0
 43
0.0
 44
0.0
 45
-0.141421
 46
0.141421
 79
     0
 98
        1
 10
0.0
 20
0.0
  0
LINE
  5
204
100
AcDbEntity
  8
3
370
    50
100
AcDbLine
 10
-200.455965
 20
79.618119
 30
0.0
 11
-200.455965
 21
101.118119
 31
0.0
  0
LINE
  5
205
100
AcDbEntity
  8
3
370
    50
100
AcDbLine
 10
-238.473968
 20
123.118119
 30
0.0
 11
-200.955965
 21
123.118119
 31
0.0
  0
LINE
  5
206
100
AcDbEntity
  8
3
370
    50
100
AcDbLine
 10
-242.955965
 20
90.117753
 30
0.0
 11
-242.955965
 21
112.118486
 31
0.0
  0
LINE
  5
207
100
AcDbEntity
  8
3
370
    50
100
AcDbLine
 10
-200.455965
 20
122.618119
 30
0.0
 11
-200.455965
 21
101.118119
 31
0.0
  0
LINE
  5
208
100
AcDbEntity
  8
3
370
    50
100
AcDbLine
 10
-242.955965
 20
90.117753
 30
0.0
 11
-240.405819
 21
80.600481
 31
0.0
  0
LINE
  5
209
100
AcDbEntity
  8
3
370
    50
100
AcDbLine
 10
-242.955965
 20
112.118486
 30
0.0
 11
-240.405819
 21
121.635757
 31
0.0
  0
ARC
  5
20A
100
AcDbEntity
  8
3
370
    50
100
AcDbCircle
 10
-238.473968
 20
81.118119
 30
0.0
 40
2.0
100
AcDbArc
 50
195.0
 51
235.596505
  0
ARC
  5
20B
100
AcDbEntity
  8
3
370
    50
100
AcDbCircle
 10
-238.473968
 20
121.118119
 30
0.0
 40
2.0
100
AcDbArc
 50
90.0
 51
165.0
  0
ARC
  5
20C
100
AcDbEntity
  8
3
370
    50
100
AcDbCircle
 10
-200.955965
 20
79.618119
 30
0.0
 40
0.5
100
AcDbArc
 50
270.0
 51
360.0
  0
ARC
  5
20D
100
AcDbEntity
  8
3
370
    50
100
AcDbCircle
 10
-200.955965
 20
122.618119
 30
0.0
 40
0.5
100
AcDbArc
 50
360.0
 51
90.0
  0
ELLIPSE
  5
20E
100
AcDbEntity
  8
3
370
    50
100
AcDbEllipse
 10
-213.455965
 20
81.319513
 30
0.0
 11
3.5
 21
0.0
 31
0.0
210
0.0
220
0.0
230
1.0
 40
0.763714
 41
0.0
 42
6.2831849999999996
  0
LINE
  5
20F
100
AcDbEntity
  8
3
370
    50
100
AcDbLine
 10
-209.955965
 20
81.319513
 30
0.0
 11
-209.955965
 21
85.562154
 31
0.0
  0
LINE
  5
210
100
AcDbEntity
  8
3
370
    50
100
AcDbLine
 10
-216.955965
 20
81.319513
 30
0.0
 11
-216.955965
 21
85.562154
 31
0.0
  0
ELLIPSE
  5
211
100
AcDbEntity
  8
3
370
    50
100
AcDbEllipse
 10
-213.455965
 20
85.562154
 30
0.0
 11
3.5
 21
0.0
 31
0.0
210
0.0
220
0.0
230
1.0
 40
0.763714
 41
0.0
 42
3.1415929999999999
  0
LINE
  5
212
100
AcDbEntity
  8
3
370
    50
100
AcDbLine
 10
-223.485986
 20
79.118119
 30
0.0
 11
-215.441233
 21
79.118119
 31
0.0
  0
LINE
  5
213
100
AcDbEntity
  8
3
370
    50
100
AcDbLine
 10
-211.470696
 20
79.118119
 30
0.0
 11
-200.955965
 21
79.118119
 31
0.0
  0
LINE
  5
214
100
AcDbEntity
  8
3
370
    50
100
AcDbLine
 10
-236.605827
 20
81.101711
 30
0.0
 11
-227.123253
 21
81.101711
 31
0.0
  0
LINE
  5
215
100
AcDbEntity
  8
3
370
    50
100
AcDbLine
 10
-237.45336
 20
76.151964
 30
0.0
 11
-225.785016
 21
76.151964
 31
0.0
  0
LINE
  5
216
100
AcDbEntity
  8
3
370
    50
100
AcDbLine
 10
-224.219208
 20
81.101711
 30
0.0
 11
-223.395228
 21
84.435018
 31
0.0
  0
ARC
  5
217
100
AcDbEntity
  8
3
370
    50
100
AcDbCircle
 10
-218.54133
 20
83.235154
 30
0.0
 40
5.0
100
AcDbArc
 50
90.0
 51
166.115067
  0
LINE
  5
218
100
AcDbEntity
  8
3
370
    50
100
AcDbLine
 10
-239.252633
 20
81.101711
 30
0.0
 11
-240.008622
 21
88.236239
 31
0.0
  0
LINE
  5
219
100
AcDbEntity
  8
3
370
    50
100
AcDbLine
 10
-223.843456
 20
77.672018
 30
0.0
 11
-223.395228
 21
79.48527
 31
0.0
  0
ARC
  5
21A
100
AcDbEntity
  8
3
370
    50
100
AcDbCircle
 10
-218.54133
 20
78.285407
 30
0.0
 40
5.0
100
AcDbArc
 50
90.0
 51
166.115067
  0
LINE
  5
21B
100
AcDbEntity
  8
3
370
    50
100
AcDbLine
 10
-239.442226
 20
77.94122
 30
0.0
 11
-240.008622
 21
83.286491
 31
0.0
  0
ARC
  5
21C
100
AcDbEntity
  8
3
370
    50
100
AcDbCircle
 10
-225.785016
 20
78.151964
 30
0.0
 40
2.0
100
AcDbArc
 50
270.0
 51
346.115067
  0
ARC
  5
21D
100
AcDbEntity
  8
3
370
    50
100
AcDbCircle
 10
-237.45336
 20
78.151964
 30
0.0
 40
2.0
100
AcDbArc
 50
186.048608
 51
270.0
  0
ARC
  5
21E
100
AcDbEntity
  8
3
370
    50
100
AcDbCircle
 10
-237.252633
 20
79.101711
 30
0.0
 40
2.0
100
AcDbArc
 50
116.452129
 51
171.882064
  0
ARC
  5
21F
100
AcDbEntity
  8
3
370
    50
100
AcDbCircle
 10
-226.219208
 20
79.101711
 30
0.0
 40
2.0
100
AcDbArc
 50
22.532412
 51
90.0
  0
LINE
  5
220
100
AcDbEntity
  8
3
370
    50
100
AcDbLine
 10
-240.008622
 20
119.853064
 30
0.0
 11
-240.008622
 21
88.236239
 31
0.0
  0
LINE
  5
221
100
AcDbEntity
  8
3
370
    50
100
AcDbLine
 10
-240.008622
 20
83.286491
 30
0.0
 11
-240.008622
 21
80.087134
 31
0.0
  0
LINE
  5
222
100
AcDbEntity
  8
3
370
    25
100
AcDbLine
 10
-218.54133
 20
88.235154
 30
0.0
 11
-239.326515
 21
88.235154
 31
0.0
  0
LINE
  5
223
100
AcDbEntity
  8
3
370
    50
100
AcDbLine
 10
-205.770554
 20
84.565944
 30
0.0
 11
-205.255965
 21
84.565944
 31
0.0
  0
LINE
  5
224
100
AcDbEntity
  8
3
370
    50
100
AcDbLine
 10
-205.655965
 20
79.565944
 30
0.0
 11
-205.255965
 21
79.565944
 31
0.0
  0
LWPOLYLINE
  5
225
100
AcDbEntity
  8
3
370
    50
100
AcDbPolyline
 90
      114
 70
     0
 10
-202.955965
 20
84.565944
 10
-203.023318
 20
84.563186
 10
-203.090403
 20
84.555118
 10
-203.156953
 20
84.542044
 10
-203.350706
 20
84.475855
 10
-203.412432
 20
84.445823
 10
-203.472283
 20
84.412317
 10
-203.52999
 20
84.375643
 10
-203.596365
 20
84.327667
 10
-203.659369
 20
84.275867
 10
-203.719128
 20
84.220571
 10
-203.8802
 20
84.036979
 10
-203.928244
 20
83.970973
 10
-203.973677
 20
83.903107
 10
-204.016625
 20
83.833711
 10
-204.05324
 20
83.770201
 10
-204.087987
 20
83.70577
 10
-204.120906
 20
83.640472
 10
-204.209117
 20
83.439914
 10
-204.282371
 20
83.23349
 10
-204.303658
 20
83.163629
 10
-204.323449
 20
83.093332
 10
-204.341784
 20
83.022653
 10
-204.360357
 20
82.944332
 10
-204.377228
 20
82.865646
 10
-204.392413
 20
82.786625
 10
-204.428019
 20
82.547898
 10
-204.449053
 20
82.307371
 10
-204.452904
 20
82.226951
 10
-204.455202
 20
82.146464
 10
-204.455965
 20
82.065944
 10
-204.455202
 20
81.985424
 10
-204.452904
 20
81.904937
 10
-204.449053
 20
81.824517
 10
-204.428019
 20
81.58399
 10
-204.392413
 20
81.345263
 10
-204.377228
 20
81.266242
 10
-204.360357
 20
81.187556
 10
-204.341784
 20
81.109235
 10
-204.323449
 20
81.038556
 10
-204.303658
 20
80.968258
 10
-204.282371
 20
80.898398
 10
-204.209117
 20
80.691974
 10
-204.120906
 20
80.491416
 10
-204.087987
 20
80.426118
 10
-204.05324
 20
80.361687
 10
-204.016625
 20
80.298177
 10
-203.973677
 20
80.228781
 10
-203.928244
 20
80.160915
 10
-203.8802
 20
80.094909
 10
-203.719128
 20
79.911317
 10
-203.659369
 20
79.856021
 10
-203.596365
 20
79.804221
 10
-203.52999
 20
79.756245
 10
-203.472283
 20
79.719571
 10
-203.412432
 20
79.686065
 10
-203.350706
 20
79.656033
 10
-203.156953
 20
79.589844
 10
-203.090403
 20
79.57677
 10
-203.023318
 20
79.568702
 10
-202.955965
 20
79.565944
 10
-202.888611
 20
79.568702
 10
-202.821526
 20
79.57677
 10
-202.754976
 20
79.589844
 10
-202.561223
 20
79.656033
 10
-202.499497
 20
79.686065
 10
-202.439646
 20
79.719571
 10
-202.381939
 20
79.756245
 10
-202.315564
 20
79.804221
 10
-202.25256
 20
79.856021
 10
-202.192802
 20
79.911317
 10
-202.031729
 20
80.094909
 10
-201.983685
 20
80.160915
 10
-201.938252
 20
80.228781
 10
-201.895304
 20
80.298177
 10
-201.846902
 20
80.383065
 10
-201.801796
 20
80.469557
 10
-201.759889
 20
80.557527
 10
-201.652383
 20
80.829028
 10
-201.622294
 20
80.921633
 10
-201.594914
 20
81.015078
 10
-201.570145
 20
81.109235
 10
-201.54576
 20
81.213745
 10
-201.524392
 20
81.318888
 10
-201.506001
 20
81.424583
 10
-201.468296
 20
81.744197
 10
-201.461419
 20
81.851314
 10
-201.457322
 20
81.95859
 10
-201.455965
 20
82.065944
 10
-201.457322
 20
82.173298
 10
-201.461419
 20
82.280574
 10
-201.468296
 20
82.387691
 10
-201.506001
 20
82.707305
 10
-201.524392
 20
82.813
 10
-201.54576
 20
82.918143
 10
-201.570145
 20
83.022653
 10
-201.594914
 20
83.11681
 10
-201.622294
 20
83.210255
 10
-201.652383
 20
83.30286
 10
-201.759889
 20
83.574361
 10
-201.801796
 20
83.662331
 10
-201.846902
 20
83.748823
 10
-201.895304
 20
83.833711
 10
-201.96065
 20
83.937252
 10
-202.031729
 20
84.036979
 10
-202.108971
 20
84.131787
 10
-202.192802
 20
84.220571
 10
-202.283649
 20
84.302224
 10
-202.381939
 20
84.375643
 10
-202.487368
 20
84.43939
 10
-202.599047
 20
84.492079
 10
-202.715415
 20
84.531925
 10
-202.834909
 20
84.557142
 10
-202.955965
 20
84.565944
  0
LWPOLYLINE
  5
299
100
AcDbEntity
  8
3
370
    50
100
AcDbPolyline
 90
      114
 70
     0
 10
-202.955965
 20
83.565944
 10
-202.990567
 20
83.561643
 10
-203.024704
 20
83.549642
 10
-203.057912
 20
83.531299
 10
-203.089725
 20
83.507967
 10
-203.119678
 20
83.481004
 10
-203.147306
 20
83.451763
 10
-203.174316
 20
83.418699
 10
-203.198343
 20
83.384642
 10
-203.219704
 20
83.349691
 10
-203.270938
 20
83.240433
 10
-203.284783
 20
83.202869
 10
-203.297538
 20
83.164894
 10
-203.309518
 20
83.126604
 10
-203.32131
 20
83.086962
 10
-203.332611
 20
83.047105
 10
-203.343419
 20
83.007048
 10
-203.372843
 20
82.885821
 10
-203.397702
 20
82.763327
 10
-203.404958
 20
82.722284
 10
-203.411693
 20
82.68116
 10
-203.417904
 20
82.639969
 10
-203.423173
 20
82.601898
 10
-203.428002
 20
82.563786
 10
-203.432405
 20
82.525636
 10
-203.443162
 20
82.410989
 10
-203.450474
 20
82.296105
 10
-203.454642
 20
82.181064
 10
-203.455384
 20
82.142695
 10
-203.455821
 20
82.104321
 10
-203.455965
 20
82.065944
 10
-203.455821
 20
82.027567
 10
-203.455384
 20
81.989193
 10
-203.454642
 20
81.950824
 10
-203.450474
 20
81.835783
 10
-203.443162
 20
81.720899
 10
-203.432405
 20
81.606252
 10
-203.428002
 20
81.568102
 10
-203.423173
 20
81.52999
 10
-203.417904
 20
81.491919
 10
-203.411693
 20
81.450728
 10
-203.404958
 20
81.409604
 10
-203.397702
 20
81.368561
 10
-203.372843
 20
81.246067
 10
-203.343419
 20
81.12484
 10
-203.332611
 20
81.084783
 10
-203.32131
 20
81.044926
 10
-203.309518
 20
81.005284
 10
-203.297538
 20
80.966994
 10
-203.284783
 20
80.929019
 10
-203.270938
 20
80.891455
 10
-203.219704
 20
80.782197
 10
-203.198343
 20
80.747246
 10
-203.174316
 20
80.713189
 10
-203.147306
 20
80.680125
 10
-203.119678
 20
80.650884
 10
-203.089725
 20
80.623921
 10
-203.057912
 20
80.600589
 10
-203.024704
 20
80.582246
 10
-202.990567
 20
80.570245
 10
-202.955965
 20
80.565944
 10
-202.921362
 20
80.570245
 10
-202.887225
 20
80.582246
 10
-202.854017
 20
80.600589
 10
-202.822205
 20
80.623921
 10
-202.792251
 20
80.650884
 10
-202.764623
 20
80.680125
 10
-202.737613
 20
80.713189
 10
-202.713586
 20
80.747246
 10
-202.692225
 20
80.782197
 10
-202.640992
 20
80.891455
 10
-202.627146
 20
80.929019
 10
-202.614391
 20
80.966994
 10
-202.602411
 20
81.005284
 10
-202.586797
 20
81.058188
 10
-202.572058
 20
81.111466
 10
-202.558201
 20
81.165084
 10
-202.522001
 20
81.327613
 10
-202.511751
 20
81.382232
 10
-202.502423
 20
81.437012
 10
-202.494025
 20
81.491919
 10
-202.487509
 20
81.539514
 10
-202.481673
 20
81.587172
 10
-202.476495
 20
81.634887
 10
-202.464699
 20
81.778317
 10
-202.458051
 20
81.922053
 10
-202.456877
 20
81.970007
 10
-202.456189
 20
82.017973
 10
-202.455965
 20
82.065944
 10
-202.456189
 20
82.113915
 10
-202.456877
 20
82.161881
 10
-202.458051
 20
82.209835
 10
-202.464699
 20
82.353571
 10
-202.476495
 20
82.497001
 10
-202.481673
 20
82.544716
 10
-202.487509
 20
82.592374
 10
-202.494025
 20
82.639969
 10
-202.502423
 20
82.694876
 10
-202.511751
 20
82.749656
 10
-202.522001
 20
82.804275
 10
-202.558201
 20
82.966804
 10
-202.572058
 20
83.020421
 10
-202.586797
 20
83.0737
 10
-202.602411
 20
83.126604
 10
-202.620652
 20
83.183927
 10
-202.640992
 20
83.240433
 10
-202.664495
 20
83.295796
 10
-202.692225
 20
83.349691
 10
-202.725247
 20
83.401788
 10
-202.764623
 20
83.451763
 10
-202.806966
 20
83.494855
 10
-202.854017
 20
83.531299
 10
-202.904206
 20
83.55652
 10
-202.955965
 20
83.565944
  0
LINE
  5
30D
100
AcDbEntity
  8
3
370
    50
100
AcDbLine
 10
-204.955965
 20
84.265944
 30
0.0
 11
-204.955965
 21
81.565944
 31
0.0
  0
LINE
  5
30E
100
AcDbEntity
  8
3
370
    50
100
AcDbLine
 10
-205.955965
 20
83.44791
 30
0.0
 11
-205.955965
 21
81.665944
 31
0.0
  0
LINE
  5
30F
100
AcDbEntity
  8
3
370
    50
100
AcDbLine
 10
-204.955965
 20
80.565944
 30
0.0
 11
-204.755965
 21
80.565944
 31
0.0
  0
LINE
  5
310
100
AcDbEntity
  8
3
370
    50
100
AcDbLine
 10
-206.735144
 20
81.565944
 30
0.0
 11
-206.055965
 21
81.565944
 31
0.0
  0
LINE
  5
311
100
AcDbEntity
  8
3
370
    50
100
AcDbLine
 10
-206.038883
 20
84.400108
 30
0.0
 11
-207.424293
 21
81.629288
 31
0.0
  0
LINE
  5
312
100
AcDbEntity
  8
3
370
    50
100
AcDbLine
 10
-205.955965
 20
83.44791
 30
0.0
 11
-206.824587
 21
81.710665
 31
0.0
  0
ARC
  5
313
100
AcDbEntity
  8
3
370
    50
100
AcDbCircle
 10
-206.735144
 20
81.665944
 30
0.0
 40
0.1
100
AcDbArc
 50
153.434949
 51
270.0
  0
ARC
  5
314
100
AcDbEntity
  8
3
370
    50
100
AcDbCircle
 10
-206.055965
 20
81.665944
 30
0.0
 40
0.1
100
AcDbArc
 50
270.0
 51
360.0
  0
LINE
  5
315
100
AcDbEntity
  8
3
370
    50
100
AcDbLine
 10
-204.955965
 20
81.565944
 30
0.0
 11
-204.755965
 21
81.565944
 31
0.0
  0
LINE
  5
316
100
AcDbEntity
  8
3
370
    50
100
AcDbLine
 10
-204.955965
 20
79.865944
 30
0.0
 11
-204.955965
 21
80.565944
 31
0.0
  0
LINE
  5
317
100
AcDbEntity
  8
3
370
    50
100
AcDbLine
 10
-205.955965
 20
79.865944
 30
0.0
 11
-205.955965
 21
80.565944
 31
0.0
  0
LINE
  5
318
100
AcDbEntity
  8
3
370
    50
100
AcDbLine
 10
-207.155965
 20
80.565944
 30
0.0
 11
-205.955965
 21
80.565944
 31
0.0
  0
LINE
  5
319
100
AcDbEntity
  8
3
370
    50
100
AcDbLine
 10
-204.455965
 20
81.265944
 30
0.0
 11
-204.455965
 21
80.865944
 31
0.0
  0
ARC
  5
31A
100
AcDbEntity
  8
3
370
    50
100
AcDbCircle
 10
-205.770554
 20
84.265944
 30
0.0
 40
0.3
100
AcDbArc
 50
90.0
 51
153.434949
  0
ARC
  5
31B
100
AcDbEntity
  8
3
370
    50
100
AcDbCircle
 10
-205.255965
 20
84.265944
 30
0.0
 40
0.3
100
AcDbArc
 50
0.0
 51
90.0
  0
ARC
  5
31C
100
AcDbEntity
  8
3
370
    50
100
AcDbCircle
 10
-207.155965
 20
80.865944
 30
0.0
 40
0.3
100
AcDbArc
 50
180.0
 51
270.0
  0
ARC
  5
31D
100
AcDbEntity
  8
3
370
    50
100
AcDbCircle
 10
-204.755965
 20
81.265944
 30
0.0
 40
0.3
100
AcDbArc
 50
0.0
 51
90.0
  0
ARC
  5
31E
100
AcDbEntity
  8
3
370
    50
100
AcDbCircle
 10
-204.755965
 20
80.865944
 30
0.0
 40
0.3
100
AcDbArc
 50
270.0
 51
360.0
  0
ARC
  5
31F
100
AcDbEntity
  8
3
370
    50
100
AcDbCircle
 10
-205.655965
 20
79.865944
 30
0.0
 40
0.3
100
AcDbArc
 50
180.0
 51
270.0
  0
ARC
  5
320
100
AcDbEntity
  8
3
370
    50
100
AcDbCircle
 10
-205.255965
 20
79.865944
 30
0.0
 40
0.3
100
AcDbArc
 50
270.0
 51
360.0
  0
LINE
  5
321
100
AcDbEntity
  8
3
370
    25
100
AcDbLine
 10
-207.279396
 20
80.592513
 30
0.0
 11
-206.305965
 21
81.565944
 31
0.0
  0
LINE
  5
322
100
AcDbEntity
  8
3
370
    25
100
AcDbLine
 10
-205.955965
 20
81.915944
 30
0.0
 11
-204.955965
 21
82.915944
 31
0.0
  0
LINE
  5
323
100
AcDbEntity
  8
3
370
    25
100
AcDbLine
 10
-207.023122
 20
80.565944
 30
0.0
 11
-206.013796
 21
81.57527
 31
0.0
  0
LINE
  5
324
100
AcDbEntity
  8
3
370
    25
100
AcDbLine
 10
-205.96529
 20
81.623776
 30
0.0
 11
-204.955965
 21
82.633101
 31
0.0
  0
LINE
  5
325
100
AcDbEntity
  8
3
370
    25
100
AcDbLine
 10
-206.740279
 20
80.565944
 30
0.0
 11
-204.955965
 21
82.350259
 31
0.0
  0
LINE
  5
326
100
AcDbEntity
  8
3
370
    25
100
AcDbLine
 10
-206.457436
 20
80.565944
 30
0.0
 11
-204.955965
 21
82.067416
 31
0.0
  0
LINE
  5
327
100
AcDbEntity
  8
3
370
    25
100
AcDbLine
 10
-206.174594
 20
80.565944
 30
0.0
 11
-204.955965
 21
81.784573
 31
0.0
  0
LINE
  5
328
100
AcDbEntity
  8
3
370
    25
100
AcDbLine
 10
-205.955965
 20
80.50173
 30
0.0
 11
-204.891751
 21
81.565944
 31
0.0
  0
LINE
  5
329
100
AcDbEntity
  8
3
370
    25
100
AcDbLine
 10
-205.955965
 20
80.218888
 30
0.0
 11
-204.634568
 21
81.540285
 31
0.0
  0
LINE
  5
32A
100
AcDbEntity
  8
3
370
    25
100
AcDbLine
 10
-205.955965
 20
79.936045
 30
0.0
 11
-204.489071
 21
81.402939
 31
0.0
  0
LINE
  5
32B
100
AcDbEntity
  8
3
370
    25
100
AcDbLine
 10
-205.907191
 20
79.701976
 30
0.0
 11
-204.455965
 21
81.153202
 31
0.0
  0
LINE
  5
32C
100
AcDbEntity
  8
3
370
    25
100
AcDbLine
 10
-205.746419
 20
79.579905
 30
0.0
 11
-204.955965
 21
80.37036
 31
0.0
  0
LINE
  5
32D
100
AcDbEntity
  8
3
370
    25
100
AcDbLine
 10
-204.76038
 20
80.565944
 30
0.0
 11
-204.455965
 21
80.87036
 31
0.0
  0
LINE
  5
32E
100
AcDbEntity
  8
3
370
    25
100
AcDbLine
 10
-205.477537
 20
79.565944
 30
0.0
 11
-204.955965
 21
80.087517
 31
0.0
  0
LINE
  5
32F
100
AcDbEntity
  8
3
370
    25
100
AcDbLine
 10
-205.186555
 20
79.574084
 30
0.0
 11
-204.964105
 21
79.796534
 31
0.0
  0
LINE
  5
330
100
AcDbEntity
  8
3
370
    25
100
AcDbLine
 10
-207.423851
 20
80.7309
 30
0.0
 11
-206.588807
 21
81.565944
 31
0.0
  0
LINE
  5
331
100
AcDbEntity
  8
3
370
    25
100
AcDbLine
 10
-205.955965
 20
82.198787
 30
0.0
 11
-204.955965
 21
83.198787
 31
0.0
  0
LINE
  5
332
100
AcDbEntity
  8
3
370
    25
100
AcDbLine
 10
-207.455965
 20
80.981629
 30
0.0
 11
-206.821711
 21
81.615883
 31
0.0
  0
LINE
  5
333
100
AcDbEntity
  8
3
370
    25
100
AcDbLine
 10
-205.955965
 20
82.481629
 30
0.0
 11
-204.955965
 21
83.481629
 31
0.0
  0
LINE
  5
334
100
AcDbEntity
  8
3
370
    25
100
AcDbLine
 10
-207.455965
 20
81.264472
 30
0.0
 11
-206.639402
 21
82.081034
 31
0.0
  0
LINE
  5
335
100
AcDbEntity
  8
3
370
    25
100
AcDbLine
 10
-205.955965
 20
82.764472
 30
0.0
 11
-204.955965
 21
83.764472
 31
0.0
  0
LINE
  5
336
100
AcDbEntity
  8
3
370
    25
100
AcDbLine
 10
-207.450341
 20
81.552938
 30
0.0
 11
-206.35656
 21
82.64672
 31
0.0
  0
LINE
  5
337
100
AcDbEntity
  8
3
370
    25
100
AcDbLine
 10
-205.955965
 20
83.047315
 30
0.0
 11
-204.955965
 21
84.047315
 31
0.0
  0
LINE
  5
338
100
AcDbEntity
  8
3
370
    25
100
AcDbLine
 10
-204.961716
 20
84.324406
 30
0.0
 11
-205.955965
 21
83.330158
 31
0.0
  0
LINE
  5
339
100
AcDbEntity
  8
3
370
    25
100
AcDbLine
 10
-206.073717
 20
83.212405
 30
0.0
 11
-207.191751
 21
82.094371
 31
0.0
  0
LINE
  5
33A
100
AcDbEntity
  8
3
370
    25
100
AcDbLine
 10
-205.06867
 20
84.500295
 30
0.0
 11
-206.908908
 21
82.660057
 31
0.0
  0
LINE
  5
33B
100
AcDbEntity
  8
3
370
    25
100
AcDbLine
 10
-205.285864
 20
84.565944
 30
0.0
 11
-206.626066
 21
83.225742
 31
0.0
  0
LINE
  5
33C
100
AcDbEntity
  8
3
370
    25
100
AcDbLine
 10
-205.568706
 20
84.565944
 30
0.0
 11
-206.343223
 21
83.791427
 31
0.0
  0
LINE
  5
33D
100
AcDbEntity
  8
3
370
    25
100
AcDbLine
 10
-205.86772
 20
84.549773
 30
0.0
 11
-206.06038
 21
84.357113
 31
0.0
  0
HATCH
  5
33E
100
AcDbEntity
  8
3
370
    25
100
AcDbHatch
 10
0.0
 20
0.0
 30
0.0
210
0.0
220
0.0
230
1.0
  2
_U
 70
     0
 71
     1
 91
        2
 92
        1
 93
        8
 72
     1
 10
-202.95596499999999
 20
84.565944000000002
 11
-204.016625
 21
83.833710999999994
 72
     1
 10
-204.016625
 20
83.833710999999994
 11
-204.45596499999999
 21
82.065944000000002
 72
     1
 10
-204.45596499999999
 20
82.065944000000002
 11
-204.016625
 21
80.298176999999995
 72
     1
 10
-204.016625
 20
80.298176999999995
 11
-202.95596499999999
 21
79.565944000000002
 72
     1
 10
-202.95596499999999
 20
79.565944000000002
 11
-201.89530400000001
 21
80.298176999999995
 72
     1
 10
-201.89530400000001
 20
80.298176999999995
 11
-201.45596499999999
 21
82.065944000000002
 72
     1
 10
-201.45596499999999
 20
82.065944000000002
 11
-201.89530400000001
 21
83.833710999999994
 72
     1
 10
-201.89530400000001
 20
83.833710999999994
 11
-202.95596499999999
 21
84.565944000000002
 97
        8
330
0
330
0
330
0
330
0
330
0
330
0
330
0
330
0
 92
        0
 93
        9
 72
     1
 10
-202.95596499999999
 20
83.565944000000002
 11
-203.309518
 21
83.126604
 72
     1
 10
-203.309518
 20
83.126604
 11
-203.45596499999999
 21
82.065944000000002
 72
     1
 10
-203.45596499999999
 20
82.065944000000002
 11
-203.41790399999999
 21
81.491918999999996
 72
     1
 10
-203.41790399999999
 20
81.491918999999996
 11
-203.14730599999999
 21
80.680125000000004
 72
     1
 10
-203.14730599999999
 20
80.680125000000004
 11
-202.60241099999999
 21
81.005284000000003
 72
     1
 10
-202.60241099999999
 20
81.005284000000003
 11
-202.45596499999999
 21
82.065944000000002
 72
     1
 10
-202.45596499999999
 20
82.065944000000002
 11
-202.49402499999999
 21
82.639968999999994
 72
     1
 10
-202.49402499999999
 20
82.639968999999994
 11
-202.764623
 21
83.451763
 72
     1
 10
-202.764623
 20
83.451763
 11
-202.95596499999999
 21
83.565944000000002
 97
        9
330
0
330
0
330
0
330
0
330
0
330
0
330
0
330
0
330
0
 75
     0
 76
     0
 52
45.0
 41
1.0
 77
     0
 78
     1
 53
45.0
 43
0.0
 44
0.0
 45
-0.141421
 46
0.141421
 79
     0
 98
        1
 10
0.0
 20
0.0
  0
LINE
  5
33F
100
AcDbEntity
  8
3
370
    50
100
AcDbLine
 10
-207.455965
 20
81.495124
 30
0.0
 11
-207.455965
 21
80.865944
 31
0.0
  0
ARC
  5
340
100
AcDbEntity
  8
3
370
    50
100
AcDbCircle
 10
-207.155965
 20
81.495124
 30
0.0
 40
0.3
100
AcDbArc
 50
153.434949
 51
180.0
  0
POINT
  5
341
100
AcDbEntity
  8
3
370
    50
100
AcDbPoint
 10
-58.855808
 20
-90.15124
 30
0.0
  0
POINT
  5
342
100
AcDbEntity
  8
3
370
    50
100
AcDbPoint
 10
-200.455965
 20
-90.15124
 30
0.0
  0
POINT
  5
343
100
AcDbEntity
  8
3
370
    50
100
AcDbPoint
 10
-56.805096
 20
-77.268163
 30
0.0
  0
POINT
  5
344
100
AcDbEntity
  8
3
370
    50
100
AcDbPoint
 10
-56.805096
 20
-77.268163
 30
0.0
  0
POINT
  5
345
100
AcDbEntity
  8
3
370
    50
100
AcDbPoint
 10
-21.983015
 20
-77.268163
 30
0.0
  0
LINE
  5
346
100
AcDbEntity
  8
3
370
    50
100
AcDbLine
 10
-58.855808
 20
-90.15124
 30
0.0
 11
-58.855808
 21
-111.65124
 31
0.0
  0
LINE
  5
347
100
AcDbEntity
  8
3
370
    50
100
AcDbLine
 10
-58.355808
 20
-68.15124
 30
0.0
 11
-56.599326
 21
-68.15124
 31
0.0
  0
LINE
  5
348
100
AcDbEntity
  8
3
370
    50
100
AcDbLine
 10
-58.855808
 20
-68.65124
 30
0.0
 11
-58.855808
 21
-90.15124
 31
0.0
  0
ARC
  5
349
100
AcDbEntity
  8
3
370
    50
100
AcDbCircle
 10
-58.355808
 20
-68.65124
 30
0.0
 40
0.5
100
AcDbArc
 50
90.0
 51
180.0
  0
LINE
  5
34A
100
AcDbEntity
  8
3
370
    50
100
AcDbLine
 10
-16.355349
 20
-101.15124
 30
0.0
 11
-16.355349
 21
-79.15124
 31
0.0
  0
LINE
  5
34B
100
AcDbEntity
  8
3
370
    50
100
AcDbLine
 10
-16.354808
 20
-90.15124
 30
0.0
 11
-16.354808
 21
-101.151607
 31
0.0
  0
LINE
  5
34C
100
AcDbEntity
  8
3
370
    50
100
AcDbLine
 10
-16.354808
 20
-90.15124
 30
0.0
 11
-16.354808
 21
-79.151607
 31
0.0
  0
LINE
  5
34D
100
AcDbEntity
  8
3
370
    50
100
AcDbLine
 10
-16.355349
 20
-101.15124
 30
0.0
 11
-18.905592
 21
-110.668878
 31
0.0
  0
LINE
  5
34E
100
AcDbEntity
  8
3
370
    50
100
AcDbLine
 10
-16.355349
 20
-79.15124
 30
0.0
 11
-18.905592
 21
-69.633602
 31
0.0
  0
ARC
  5
34F
100
AcDbEntity
  8
3
370
    50
100
AcDbCircle
 10
-20.837444
 20
-70.15124
 30
0.0
 40
2.0
100
AcDbArc
 50
15.0
 51
90.921024
  0
LINE
  5
350
100
AcDbEntity
  8
3
370
    50
100
AcDbLine
 10
-58.355808
 20
-112.15124
 30
0.0
 11
-20.837444
 21
-112.15124
 31
0.0
  0
ARC
  5
351
100
AcDbEntity
  8
3
370
    50
100
AcDbCircle
 10
-58.355808
 20
-111.65124
 30
0.0
 40
0.5
100
AcDbArc
 50
180.0
 51
270.0
  0
ARC
  5
352
100
AcDbEntity
  8
3
370
    50
100
AcDbCircle
 10
-20.837444
 20
-110.15124
 30
0.0
 40
2.0
100
AcDbArc
 50
270.0
 51
345.0
  0
LINE
  5
353
100
AcDbEntity
  8
3
370
    50
100
AcDbLine
 10
-23.321362
 20
-66.824579
 30
0.0
 11
-23.321362
 21
-67.774326
 31
0.0
  0
LINE
  5
354
100
AcDbEntity
  8
3
370
    50
100
AcDbLine
 10
-56.210623
 20
-66.824579
 30
0.0
 11
-56.210623
 21
-67.774326
 31
0.0
  0
LINE
  5
355
100
AcDbEntity
  8
3
370
    50
100
AcDbLine
 10
-25.321362
 20
-69.774326
 30
0.0
 11
-54.210623
 21
-69.774326
 31
0.0
  0
LINE
  5
356
100
AcDbEntity
  8
3
370
    50
100
AcDbLine
 10
-25.321362
 20
-64.824579
 30
0.0
 11
-54.210623
 21
-64.824579
 31
0.0
  0
LINE
  5
357
100
AcDbEntity
  8
3
370
    50
100
AcDbLine
 10
-23.321362
 20
-69.774326
 30
0.0
 11
-19.6227
 21
-79.610935
 31
0.0
  0
LINE
  5
358
100
AcDbEntity
  8
3
370
    50
100
AcDbLine
 10
-56.210623
 20
-69.774326
 30
0.0
 11
-58.855808
 21
-80.461737
 31
0.0
  0
LINE
  5
359
100
AcDbEntity
  8
3
370
    50
100
AcDbLine
 10
-19.30279
 20
-110.556998
 30
0.0
 11
-19.30279
 21
-81.370696
 31
0.0
  0
LINE
  5
35A
100
AcDbEntity
  8
3
370
    50
100
AcDbLine
 10
-19.30279
 20
-77.148406
 30
0.0
 11
-19.30279
 21
-69.655125
 31
0.0
  0
ARC
  5
35B
100
AcDbEntity
  8
3
370
    50
100
AcDbCircle
 10
-25.321362
 20
-66.824579
 30
0.0
 40
2.0
100
AcDbArc
 50
0.0
 51
90.0
  0
ARC
  5
35C
100
AcDbEntity
  8
3
370
    50
100
AcDbCircle
 10
-25.321362
 20
-67.774326
 30
0.0
 40
2.0
100
AcDbArc
 50
270.0
 51
360.0
  0
ARC
  5
35D
100
AcDbEntity
  8
3
370
    50
100
AcDbCircle
 10
-54.210623
 20
-66.824579
 30
0.0
 40
2.0
100
AcDbArc
 50
90.0
 51
180.0
  0
ARC
  5
35E
100
AcDbEntity
  8
3
370
    50
100
AcDbCircle
 10
-54.210623
 20
-67.774326
 30
0.0
 40
2.0
100
AcDbArc
 50
180.0
 51
270.0
  0
LINE
  5
35F
100
AcDbEntity
  8
3
370
    50
100
AcDbLine
 10
-23.449326
 20
-66.120675
 30
0.0
 11
-19.30279
 21
-77.148406
 31
0.0
  0
LINE
  5
360
100
AcDbEntity
  8
3
370
    50
100
AcDbLine
 10
-56.152042
 20
-66.344068
 30
0.0
 11
-58.855808
 21
-77.268163
 31
0.0
  0
LINE
  5
361
100
AcDbEntity
  8
3
370
    50
100
AcDbLine
 10
-20.837444
 20
-68.15124
 30
0.0
 11
-22.685814
 21
-68.15124
 31
0.0
  0
ARC
  5
362
100
AcDbEntity
  8
3
370
    50
100
AcDbCircle
 10
-24.30279
 20
-81.370696
 30
0.0
 40
5.0
100
AcDbArc
 50
360.0
 51
20.606759
  0
LINE
  5
363
100
AcDbEntity
  8
3
370
    25
100
AcDbLine
 10
-21.982584
 20
-77.268163
 30
0.0
 11
-56.804665
 21
-77.268163
 31
0.0
  0
LINE
  5
364
100
AcDbEntity
  8
3
370
    50
100
AcDbLine
 10
-205.770554
 20
-71.799064
 30
0.0
 11
-205.255965
 21
-71.799064
 31
0.0
  0
LINE
  5
365
100
AcDbEntity
  8
3
370
    50
100
AcDbLine
 10
-205.655965
 20
-76.799064
 30
0.0
 11
-205.255965
 21
-76.799064
 31
0.0
  0
LWPOLYLINE
  5
366
100
AcDbEntity
  8
3
370
    50
100
AcDbPolyline
 90
      114
 70
     0
 10
-202.955965
 20
-71.799064
 10
-203.023318
 20
-71.801822
 10
-203.090403
 20
-71.809891
 10
-203.156953
 20
-71.822964
 10
-203.350706
 20
-71.889154
 10
-203.412432
 20
-71.919186
 10
-203.472283
 20
-71.952692
 10
-203.52999
 20
-71.989366
 10
-203.596365
 20
-72.037342
 10
-203.659369
 20
-72.089142
 10
-203.719128
 20
-72.144438
 10
-203.8802
 20
-72.328029
 10
-203.928244
 20
-72.394036
 10
-203.973677
 20
-72.461901
 10
-204.016625
 20
-72.531298
 10
-204.05324
 20
-72.594808
 10
-204.087987
 20
-72.659239
 10
-204.120906
 20
-72.724537
 10
-204.209117
 20
-72.925095
 10
-204.282371
 20
-73.131518
 10
-204.303658
 20
-73.201379
 10
-204.323449
 20
-73.271676
 10
-204.341784
 20
-73.342356
 10
-204.360357
 20
-73.420676
 10
-204.377228
 20
-73.499363
 10
-204.392413
 20
-73.578383
 10
-204.428019
 20
-73.81711
 10
-204.449053
 20
-74.057637
 10
-204.452904
 20
-74.138057
 10
-204.455202
 20
-74.218544
 10
-204.455965
 20
-74.299064
 10
-204.455202
 20
-74.379585
 10
-204.452904
 20
-74.460071
 10
-204.449053
 20
-74.540492
 10
-204.428019
 20
-74.781019
 10
-204.392413
 20
-75.019746
 10
-204.377228
 20
-75.098766
 10
-204.360357
 20
-75.177453
 10
-204.341784
 20
-75.255773
 10
-204.323449
 20
-75.326453
 10
-204.303658
 20
-75.39675
 10
-204.282371
 20
-75.46661
 10
-204.209117
 20
-75.673034
 10
-204.120906
 20
-75.873592
 10
-204.087987
 20
-75.93889
 10
-204.05324
 20
-76.003321
 10
-204.016625
 20
-76.066831
 10
-203.973677
 20
-76.136228
 10
-203.928244
 20
-76.204093
 10
-203.8802
 20
-76.2701
 10
-203.719128
 20
-76.453691
 10
-203.659369
 20
-76.508987
 10
-203.596365
 20
-76.560787
 10
-203.52999
 20
-76.608763
 10
-203.472283
 20
-76.645437
 10
-203.412432
 20
-76.678943
 10
-203.350706
 20
-76.708975
 10
-203.156953
 20
-76.775164
 10
-203.090403
 20
-76.788238
 10
-203.023318
 20
-76.796307
 10
-202.955965
 20
-76.799064
 10
-202.888611
 20
-76.796307
 10
-202.821526
 20
-76.788238
 10
-202.754976
 20
-76.775164
 10
-202.561223
 20
-76.708975
 10
-202.499497
 20
-76.678943
 10
-202.439646
 20
-76.645437
 10
-202.381939
 20
-76.608763
 10
-202.315564
 20
-76.560787
 10
-202.25256
 20
-76.508987
 10
-202.192802
 20
-76.453691
 10
-202.031729
 20
-76.2701
 10
-201.983685
 20
-76.204093
 10
-201.938252
 20
-76.136228
 10
-201.895304
 20
-76.066831
 10
-201.846902
 20
-75.981944
 10
-201.801796
 20
-75.895451
 10
-201.759889
 20
-75.807481
 10
-201.652383
 20
-75.535981
 10
-201.622294
 20
-75.443375
 10
-201.594914
 20
-75.34993
 10
-201.570145
 20
-75.255773
 10
-201.54576
 20
-75.151263
 10
-201.524392
 20
-75.046121
 10
-201.506001
 20
-74.940426
 10
-201.468296
 20
-74.620812
 10
-201.461419
 20
-74.513694
 10
-201.457322
 20
-74.406419
 10
-201.455965
 20
-74.299064
 10
-201.457322
 20
-74.19171
 10
-201.461419
 20
-74.084435
 10
-201.468296
 20
-73.977317
 10
-201.506001
 20
-73.657703
 10
-201.524392
 20
-73.552008
 10
-201.54576
 20
-73.446866
 10
-201.570145
 20
-73.342356
 10
-201.594914
 20
-73.248198
 10
-201.622294
 20
-73.154753
 10
-201.652383
 20
-73.062148
 10
-201.759889
 20
-72.790648
 10
-201.801796
 20
-72.702678
 10
-201.846902
 20
-72.616185
 10
-201.895304
 20
-72.531298
 10
-201.96065
 20
-72.427757
 10
-202.031729
 20
-72.328029
 10
-202.108971
 20
-72.233221
 10
-202.192802
 20
-72.144438
 10
-202.283649
 20
-72.062784
 10
-202.381939
 20
-71.989366
 10
-202.487368
 20
-71.925619
 10
-202.599047
 20
-71.872929
 10
-202.715415
 20
-71.833084
 10
-202.834909
 20
-71.807867
 10
-202.955965
 20
-71.799064
  0
LWPOLYLINE
  5
3DA
100
AcDbEntity
  8
3
370
    50
100
AcDbPolyline
 90
      114
 70
     0
 10
-202.955965
 20
-72.799064
 10
-202.990567
 20
-72.803366
 10
-203.024704
 20
-72.815366
 10
-203.057912
 20
-72.83371
 10
-203.089725
 20
-72.857041
 10
-203.119678
 20
-72.884005
 10
-203.147306
 20
-72.913245
 10
-203.174316
 20
-72.94631
 10
-203.198343
 20
-72.980366
 10
-203.219704
 20
-73.015318
 10
-203.270938
 20
-73.124576
 10
-203.284783
 20
-73.16214
 10
-203.297538
 20
-73.200115
 10
-203.309518
 20
-73.238404
 10
-203.32131
 20
-73.278046
 10
-203.332611
 20
-73.317903
 10
-203.343419
 20
-73.357961
 10
-203.372843
 20
-73.479187
 10
-203.397702
 20
-73.601681
 10
-203.404958
 20
-73.642724
 10
-203.411693
 20
-73.683849
 10
-203.417904
 20
-73.725039
 10
-203.423173
 20
-73.76311
 10
-203.428002
 20
-73.801222
 10
-203.432405
 20
-73.839372
 10
-203.443162
 20
-73.95402
 10
-203.450474
 20
-74.068904
 10
-203.454642
 20
-74.183945
 10
-203.455384
 20
-74.222313
 10
-203.455821
 20
-74.260687
 10
-203.455965
 20
-74.299064
 10
-203.455821
 20
-74.337442
 10
-203.455384
 20
-74.375816
 10
-203.454642
 20
-74.414184
 10
-203.450474
 20
-74.529225
 10
-203.443162
 20
-74.644109
 10
-203.432405
 20
-74.758757
 10
-203.428002
 20
-74.796907
 10
-203.423173
 20
-74.835019
 10
-203.417904
 20
-74.87309
 10
-203.411693
 20
-74.91428
 10
-203.404958
 20
-74.955405
 10
-203.397702
 20
-74.996448
 10
-203.372843
 20
-75.118942
 10
-203.343419
 20
-75.240168
 10
-203.332611
 20
-75.280226
 10
-203.32131
 20
-75.320083
 10
-203.309518
 20
-75.359725
 10
-203.297538
 20
-75.398014
 10
-203.284783
 20
-75.435989
 10
-203.270938
 20
-75.473553
 10
-203.219704
 20
-75.582811
 10
-203.198343
 20
-75.617763
 10
-203.174316
 20
-75.651819
 10
-203.147306
 20
-75.684884
 10
-203.119678
 20
-75.714124
 10
-203.089725
 20
-75.741088
 10
-203.057912
 20
-75.764419
 10
-203.024704
 20
-75.782763
 10
-202.990567
 20
-75.794763
 10
-202.955965
 20
-75.799064
 10
-202.921362
 20
-75.794763
 10
-202.887225
 20
-75.782763
 10
-202.854017
 20
-75.764419
 10
-202.822205
 20
-75.741088
 10
-202.792251
 20
-75.714124
 10
-202.764623
 20
-75.684884
 10
-202.737613
 20
-75.651819
 10
-202.713586
 20
-75.617763
 10
-202.692225
 20
-75.582811
 10
-202.640992
 20
-75.473553
 10
-202.627146
 20
-75.435989
 10
-202.614391
 20
-75.398014
 10
-202.602411
 20
-75.359725
 10
-202.586797
 20
-75.30682
 10
-202.572058
 20
-75.253542
 10
-202.558201
 20
-75.199925
 10
-202.522001
 20
-75.037395
 10
-202.511751
 20
-74.982777
 10
-202.502423
 20
-74.927996
 10
-202.494025
 20
-74.87309
 10
-202.487509
 20
-74.825494
 10
-202.481673
 20
-74.777836
 10
-202.476495
 20
-74.730121
 10
-202.464699
 20
-74.586692
 10
-202.458051
 20
-74.442955
 10
-202.456877
 20
-74.395001
 10
-202.456189
 20
-74.347036
 10
-202.455965
 20
-74.299064
 10
-202.456189
 20
-74.251093
 10
-202.456877
 20
-74.203128
 10
-202.458051
 20
-74.155174
 10
-202.464699
 20
-74.011437
 10
-202.476495
 20
-73.868008
 10
-202.481673
 20
-73.820293
 10
-202.487509
 20
-73.772635
 10
-202.494025
 20
-73.725039
 10
-202.502423
 20
-73.670132
 10
-202.511751
 20
-73.615352
 10
-202.522001
 20
-73.560734
 10
-202.558201
 20
-73.398204
 10
-202.572058
 20
-73.344587
 10
-202.586797
 20
-73.291309
 10
-202.602411
 20
-73.238404
 10
-202.620652
 20
-73.181082
 10
-202.640992
 20
-73.124576
 10
-202.664495
 20
-73.069212
 10
-202.692225
 20
-73.015318
 10
-202.725247
 20
-72.96322
 10
-202.764623
 20
-72.913245
 10
-202.806966
 20
-72.870154
 10
-202.854017
 20
-72.83371
 10
-202.904206
 20
-72.808488
 10
-202.955965
 20
-72.799064
  0
LINE
  5
44E
100
AcDbEntity
  8
3
370
    50
100
AcDbLine
 10
-204.955965
 20
-72.099064
 30
0.0
 11
-204.955965
 21
-74.799064
 31
0.0
  0
LINE
  5
44F
100
AcDbEntity
  8
3
370
    50
100
AcDbLine
 10
-205.955965
 20
-72.917098
 30
0.0
 11
-205.955965
 21
-74.699064
 31
0.0
  0
LINE
  5
450
100
AcDbEntity
  8
3
370
    50
100
AcDbLine
 10
-204.955965
 20
-75.799064
 30
0.0
 11
-204.755965
 21
-75.799064
 31
0.0
  0
LINE
  5
451
100
AcDbEntity
  8
3
370
    50
100
AcDbLine
 10
-206.735144
 20
-74.799064
 30
0.0
 11
-206.055965
 21
-74.799064
 31
0.0
  0
LINE
  5
452
100
AcDbEntity
  8
3
370
    50
100
AcDbLine
 10
-206.038883
 20
-71.9649
 30
0.0
 11
-207.424293
 21
-74.735721
 31
0.0
  0
LINE
  5
453
100
AcDbEntity
  8
3
370
    50
100
AcDbLine
 10
-205.955965
 20
-72.917098
 30
0.0
 11
-206.824587
 21
-74.654343
 31
0.0
  0
ARC
  5
454
100
AcDbEntity
  8
3
370
    50
100
AcDbCircle
 10
-206.735144
 20
-74.699064
 30
0.0
 40
0.1
100
AcDbArc
 50
153.434949
 51
270.0
  0
ARC
  5
455
100
AcDbEntity
  8
3
370
    50
100
AcDbCircle
 10
-206.055965
 20
-74.699064
 30
0.0
 40
0.1
100
AcDbArc
 50
270.0
 51
360.0
  0
LINE
  5
456
100
AcDbEntity
  8
3
370
    50
100
AcDbLine
 10
-204.955965
 20
-74.799064
 30
0.0
 11
-204.755965
 21
-74.799064
 31
0.0
  0
LINE
  5
457
100
AcDbEntity
  8
3
370
    50
100
AcDbLine
 10
-204.955965
 20
-76.499064
 30
0.0
 11
-204.955965
 21
-75.799064
 31
0.0
  0
LINE
  5
458
100
AcDbEntity
  8
3
370
    50
100
AcDbLine
 10
-205.955965
 20
-76.499064
 30
0.0
 11
-205.955965
 21
-75.799064
 31
0.0
  0
LINE
  5
459
100
AcDbEntity
  8
3
370
    50
100
AcDbLine
 10
-207.155965
 20
-75.799064
 30
0.0
 11
-205.955965
 21
-75.799064
 31
0.0
  0
LINE
  5
45A
100
AcDbEntity
  8
3
370
    50
100
AcDbLine
 10
-204.455965
 20
-75.099064
 30
0.0
 11
-204.455965
 21
-75.499064
 31
0.0
  0
ARC
  5
45B
100
AcDbEntity
  8
3
370
    50
100
AcDbCircle
 10
-205.770554
 20
-72.099064
 30
0.0
 40
0.3
100
AcDbArc
 50
90.0
 51
153.434949
  0
ARC
  5
45C
100
AcDbEntity
  8
3
370
    50
100
AcDbCircle
 10
-205.255965
 20
-72.099064
 30
0.0
 40
0.3
100
AcDbArc
 50
0.0
 51
90.0
  0
ARC
  5
45D
100
AcDbEntity
  8
3
370
    50
100
AcDbCircle
 10
-207.155965
 20
-75.499064
 30
0.0
 40
0.3
100
AcDbArc
 50
180.0
 51
270.0
  0
ARC
  5
45E
100
AcDbEntity
  8
3
370
    50
100
AcDbCircle
 10
-204.755965
 20
-75.099064
 30
0.0
 40
0.3
100
AcDbArc
 50
0.0
 51
90.0
  0
ARC
  5
45F
100
AcDbEntity
  8
3
370
    50
100
AcDbCircle
 10
-204.755965
 20
-75.499064
 30
0.0
 40
0.3
100
AcDbArc
 50
270.0
 51
360.0
  0
ARC
  5
460
100
AcDbEntity
  8
3
370
    50
100
AcDbCircle
 10
-205.655965
 20
-76.499064
 30
0.0
 40
0.3
100
AcDbArc
 50
180.0
 51
270.0
  0
ARC
  5
461
100
AcDbEntity
  8
3
370
    50
100
AcDbCircle
 10
-205.255965
 20
-76.499064
 30
0.0
 40
0.3
100
AcDbArc
 50
270.0
 51
360.0
  0
LINE
  5
462
100
AcDbEntity
  8
3
370
    25
100
AcDbLine
 10
-207.279396
 20
-75.772496
 30
0.0
 11
-206.305965
 21
-74.799064
 31
0.0
  0
LINE
  5
463
100
AcDbEntity
  8
3
370
    25
100
AcDbLine
 10
-205.955965
 20
-74.449064
 30
0.0
 11
-204.955965
 21
-73.449064
 31
0.0
  0
LINE
  5
464
100
AcDbEntity
  8
3
370
    25
100
AcDbLine
 10
-207.023122
 20
-75.799064
 30
0.0
 11
-206.013796
 21
-74.789739
 31
0.0
  0
LINE
  5
465
100
AcDbEntity
  8
3
370
    25
100
AcDbLine
 10
-205.96529
 20
-74.741233
 30
0.0
 11
-204.955965
 21
-73.731907
 31
0.0
  0
LINE
  5
466
100
AcDbEntity
  8
3
370
    25
100
AcDbLine
 10
-206.740279
 20
-75.799064
 30
0.0
 11
-204.955965
 21
-74.01475
 31
0.0
  0
LINE
  5
467
100
AcDbEntity
  8
3
370
    25
100
AcDbLine
 10
-206.457436
 20
-75.799064
 30
0.0
 11
-204.955965
 21
-74.297593
 31
0.0
  0
LINE
  5
468
100
AcDbEntity
  8
3
370
    25
100
AcDbLine
 10
-206.174594
 20
-75.799064
 30
0.0
 11
-204.955965
 21
-74.580435
 31
0.0
  0
LINE
  5
469
100
AcDbEntity
  8
3
370
    25
100
AcDbLine
 10
-205.955965
 20
-75.863278
 30
0.0
 11
-204.891751
 21
-74.799064
 31
0.0
  0
LINE
  5
46A
100
AcDbEntity
  8
3
370
    25
100
AcDbLine
 10
-205.955965
 20
-76.146121
 30
0.0
 11
-204.634568
 21
-74.824724
 31
0.0
  0
LINE
  5
46B
100
AcDbEntity
  8
3
370
    25
100
AcDbLine
 10
-205.955965
 20
-76.428963
 30
0.0
 11
-204.489071
 21
-74.96207
 31
0.0
  0
LINE
  5
46C
100
AcDbEntity
  8
3
370
    25
100
AcDbLine
 10
-205.907191
 20
-76.663032
 30
0.0
 11
-204.455965
 21
-75.211806
 31
0.0
  0
LINE
  5
46D
100
AcDbEntity
  8
3
370
    25
100
AcDbLine
 10
-205.746419
 20
-76.785103
 30
0.0
 11
-204.955965
 21
-75.994649
 31
0.0
  0
LINE
  5
46E
100
AcDbEntity
  8
3
370
    25
100
AcDbLine
 10
-204.76038
 20
-75.799064
 30
0.0
 11
-204.455965
 21
-75.494649
 31
0.0
  0
LINE
  5
46F
100
AcDbEntity
  8
3
370
    25
100
AcDbLine
 10
-205.477537
 20
-76.799064
 30
0.0
 11
-204.955965
 21
-76.277492
 31
0.0
  0
LINE
  5
470
100
AcDbEntity
  8
3
370
    25
100
AcDbLine
 10
-205.186555
 20
-76.790925
 30
0.0
 11
-204.964105
 21
-76.568474
 31
0.0
  0
LINE
  5
471
100
AcDbEntity
  8
3
370
    25
100
AcDbLine
 10
-207.423851
 20
-75.634108
 30
0.0
 11
-206.588807
 21
-74.799064
 31
0.0
  0
LINE
  5
472
100
AcDbEntity
  8
3
370
    25
100
AcDbLine
 10
-205.955965
 20
-74.166222
 30
0.0
 11
-204.955965
 21
-73.166222
 31
0.0
  0
LINE
  5
473
100
AcDbEntity
  8
3
370
    25
100
AcDbLine
 10
-207.455965
 20
-75.383379
 30
0.0
 11
-206.821711
 21
-74.749126
 31
0.0
  0
LINE
  5
474
100
AcDbEntity
  8
3
370
    25
100
AcDbLine
 10
-205.955965
 20
-73.883379
 30
0.0
 11
-204.955965
 21
-72.883379
 31
0.0
  0
LINE
  5
475
100
AcDbEntity
  8
3
370
    25
100
AcDbLine
 10
-207.455965
 20
-75.100536
 30
0.0
 11
-206.639402
 21
-74.283974
 31
0.0
  0
LINE
  5
476
100
AcDbEntity
  8
3
370
    25
100
AcDbLine
 10
-205.955965
 20
-73.600536
 30
0.0
 11
-204.955965
 21
-72.600536
 31
0.0
  0
LINE
  5
477
100
AcDbEntity
  8
3
370
    25
100
AcDbLine
 10
-207.450341
 20
-74.81207
 30
0.0
 11
-206.35656
 21
-73.718289
 31
0.0
  0
LINE
  5
478
100
AcDbEntity
  8
3
370
    25
100
AcDbLine
 10
-205.955965
 20
-73.317694
 30
0.0
 11
-204.955965
 21
-72.317694
 31
0.0
  0
LINE
  5
479
100
AcDbEntity
  8
3
370
    25
100
AcDbLine
 10
-204.961716
 20
-72.040602
 30
0.0
 11
-205.955965
 21
-73.034851
 31
0.0
  0
LINE
  5
47A
100
AcDbEntity
  8
3
370
    25
100
AcDbLine
 10
-206.073717
 20
-73.152603
 30
0.0
 11
-207.191751
 21
-74.270637
 31
0.0
  0
LINE
  5
47B
100
AcDbEntity
  8
3
370
    25
100
AcDbLine
 10
-205.06867
 20
-71.864713
 30
0.0
 11
-206.908908
 21
-73.704952
 31
0.0
  0
LINE
  5
47C
100
AcDbEntity
  8
3
370
    25
100
AcDbLine
 10
-205.285864
 20
-71.799064
 30
0.0
 11
-206.626066
 21
-73.139267
 31
0.0
  0
LINE
  5
47D
100
AcDbEntity
  8
3
370
    25
100
AcDbLine
 10
-205.568706
 20
-71.799064
 30
0.0
 11
-206.343223
 21
-72.573581
 31
0.0
  0
LINE
  5
47E
100
AcDbEntity
  8
3
370
    25
100
AcDbLine
 10
-205.86772
 20
-71.815236
 30
0.0
 11
-206.06038
 21
-72.007896
 31
0.0
  0
HATCH
  5
47F
100
AcDbEntity
  8
3
370
    25
100
AcDbHatch
 10
0.0
 20
0.0
 30
0.0
210
0.0
220
0.0
230
1.0
  2
_U
 70
     0
 71
     1
 91
        2
 92
        1
 93
        8
 72
     1
 10
-202.95596499999999
 20
-71.799064000000001
 11
-204.016625
 21
-72.531298000000007
 72
     1
 10
-204.016625
 20
-72.531298000000007
 11
-204.45596499999999
 21
-74.299064000000001
 72
     1
 10
-204.45596499999999
 20
-74.299064000000001
 11
-204.016625
 21
-76.066830999999993
 72
     1
 10
-204.016625
 20
-76.066830999999993
 11
-202.95596499999999
 21
-76.799064000000001
 72
     1
 10
-202.95596499999999
 20
-76.799064000000001
 11
-201.89530400000001
 21
-76.066830999999993
 72
     1
 10
-201.89530400000001
 20
-76.066830999999993
 11
-201.45596499999999
 21
-74.299064000000001
 72
     1
 10
-201.45596499999999
 20
-74.299064000000001
 11
-201.89530400000001
 21
-72.531298000000007
 72
     1
 10
-201.89530400000001
 20
-72.531298000000007
 11
-202.95596499999999
 21
-71.799064000000001
 97
        8
330
0
330
0
330
0
330
0
330
0
330
0
330
0
330
0
 92
        0
 93
        9
 72
     1
 10
-202.95596499999999
 20
-72.799064000000001
 11
-203.309518
 21
-73.238404000000003
 72
     1
 10
-203.309518
 20
-73.238404000000003
 11
-203.45596499999999
 21
-74.299064000000001
 72
     1
 10
-203.45596499999999
 20
-74.299064000000001
 11
-203.41790399999999
 21
-74.873090000000005
 72
     1
 10
-203.41790399999999
 20
-74.873090000000005
 11
-203.14730599999999
 21
-75.684883999999997
 72
     1
 10
-203.14730599999999
 20
-75.684883999999997
 11
-202.60241099999999
 21
-75.359724999999997
 72
     1
 10
-202.60241099999999
 20
-75.359724999999997
 11
-202.45596499999999
 21
-74.299064000000001
 72
     1
 10
-202.45596499999999
 20
-74.299064000000001
 11
-202.49402499999999
 21
-73.725038999999995
 72
     1
 10
-202.49402499999999
 20
-73.725038999999995
 11
-202.764623
 21
-72.913245000000003
 72
     1
 10
-202.764623
 20
-72.913245000000003
 11
-202.95596499999999
 21
-72.799064000000001
 97
        9
330
0
330
0
330
0
330
0
330
0
330
0
330
0
330
0
330
0
 75
     0
 76
     0
 52
45.0
 41
1.0
 77
     0
 78
     1
 53
45.0
 43
0.0
 44
0.0
 45
-0.141421
 46
0.141421
 79
     0
 98
        1
 10
0.0
 20
0.0
  0
LINE
  5
480
100
AcDbEntity
  8
3
370
    50
100
AcDbLine
 10
-207.455965
 20
-74.869885
 30
0.0
 11
-207.455965
 21
-75.499064
 31
0.0
  0
ARC
  5
481
100
AcDbEntity
  8
3
370
    50
100
AcDbCircle
 10
-207.155965
 20
-74.869885
 30
0.0
 40
0.3
100
AcDbArc
 50
153.434949
 51
180.0
  0
LINE
  5
482
100
AcDbEntity
  8
3
370
    50
100
AcDbLine
 10
-203.955965
 20
-79.299064
 30
0.0
 11
-204.955965
 21
-79.299064
 31
0.0
  0
LINE
  5
483
100
AcDbEntity
  8
3
370
    50
100
AcDbLine
 10
-203.955965
 20
-112.15124
 30
0.0
 11
-203.955965
 21
-79.299064
 31
0.0
  0
LINE
  5
484
100
AcDbEntity
  8
3
370
    50
100
AcDbLine
 10
-204.955965
 20
-112.15124
 30
0.0
 11
-204.955965
 21
-79.299064
 31
0.0
  0
LINE
  5
485
100
AcDbEntity
  8
3
370
    50
100
AcDbLine
 10
-200.455965
 20
-68.65124
 30
0.0
 11
-200.455965
 21
-90.15124
 31
0.0
  0
LINE
  5
486
100
AcDbEntity
  8
3
370
    50
100
AcDbLine
 10
-238.473968
 20
-112.15124
 30
0.0
 11
-200.955965
 21
-112.15124
 31
0.0
  0
LINE
  5
487
100
AcDbEntity
  8
3
370
    50
100
AcDbLine
 10
-242.955965
 20
-79.150873
 30
0.0
 11
-242.955965
 21
-101.151607
 31
0.0
  0
LINE
  5
488
100
AcDbEntity
  8
3
370
    50
100
AcDbLine
 10
-200.455965
 20
-70.45124
 30
0.0
 11
-200.455965
 21
-90.15124
 31
0.0
  0
LINE
  5
489
100
AcDbEntity
  8
3
370
    50
100
AcDbLine
 10
-200.455965
 20
-111.65124
 30
0.0
 11
-200.455965
 21
-90.15124
 31
0.0
  0
LINE
  5
48A
100
AcDbEntity
  8
3
370
    50
100
AcDbLine
 10
-200.455965
 20
-109.85124
 30
0.0
 11
-200.455965
 21
-90.15124
 31
0.0
  0
LINE
  5
48B
100
AcDbEntity
  8
3
370
    50
100
AcDbLine
 10
-242.955965
 20
-79.150873
 30
0.0
 11
-240.405819
 21
-69.633602
 31
0.0
  0
LINE
  5
48C
100
AcDbEntity
  8
3
370
    50
100
AcDbLine
 10
-242.955965
 20
-101.151607
 30
0.0
 11
-240.405819
 21
-110.668878
 31
0.0
  0
ARC
  5
48D
100
AcDbEntity
  8
3
370
    50
100
AcDbCircle
 10
-238.473968
 20
-70.15124
 30
0.0
 40
2.0
100
AcDbArc
 50
90.0
 51
165.0
  0
ARC
  5
48E
100
AcDbEntity
  8
3
370
    50
100
AcDbCircle
 10
-238.473968
 20
-110.15124
 30
0.0
 40
2.0
100
AcDbArc
 50
195.0
 51
270.0
  0
ARC
  5
48F
100
AcDbEntity
  8
3
370
    50
100
AcDbCircle
 10
-200.955965
 20
-68.65124
 30
0.0
 40
0.5
100
AcDbArc
 50
0.0
 51
90.0
  0
ARC
  5
490
100
AcDbEntity
  8
3
370
    50
100
AcDbCircle
 10
-200.955965
 20
-111.65124
 30
0.0
 40
0.5
100
AcDbArc
 50
270.0
 51
360.0
  0
ELLIPSE
  5
491
100
AcDbEntity
  8
3
370
    50
100
AcDbEllipse
 10
-213.455965
 20
-73.552633
 30
0.0
 11
3.5
 21
0.0
 31
0.0
210
0.0
220
0.0
230
1.0
 40
0.763714
 41
0.0
 42
6.2831849999999996
  0
LINE
  5
492
100
AcDbEntity
  8
3
370
    50
100
AcDbLine
 10
-209.955965
 20
-73.552633
 30
0.0
 11
-209.955965
 21
-77.795274
 31
0.0
  0
LINE
  5
493
100
AcDbEntity
  8
3
370
    50
100
AcDbLine
 10
-216.955965
 20
-73.552633
 30
0.0
 11
-216.955965
 21
-77.795274
 31
0.0
  0
ELLIPSE
  5
494
100
AcDbEntity
  8
3
370
    50
100
AcDbEllipse
 10
-213.455965
 20
-77.795274
 30
0.0
 11
3.5
 21
0.0
 31
0.0
210
0.0
220
0.0
230
1.0
 40
0.763714
 41
3.1415929999999999
 42
0.0
  0
LINE
  5
495
100
AcDbEntity
  8
3
370
    50
100
AcDbLine
 10
-238.473968
 20
-68.15124
 30
0.0
 11
-211.470696
 21
-68.15124
 31
0.0
  0
LINE
  5
496
100
AcDbEntity
  8
3
370
    50
100
AcDbLine
 10
-211.470696
 20
-68.15124
 30
0.0
 11
-200.955965
 21
-68.15124
 31
0.0
  0
LINE
  5
497
100
AcDbEntity
  8
3
370
    50
100
AcDbLine
 10
-236.605827
 20
-73.334832
 30
0.0
 11
-227.123253
 21
-73.334832
 31
0.0
  0
LINE
  5
498
100
AcDbEntity
  8
3
370
    50
100
AcDbLine
 10
-237.45336
 20
-68.385085
 30
0.0
 11
-225.785016
 21
-68.385085
 31
0.0
  0
LINE
  5
499
100
AcDbEntity
  8
3
370
    50
100
AcDbLine
 10
-224.219208
 20
-73.334832
 30
0.0
 11
-223.395228
 21
-76.668138
 31
0.0
  0
ARC
  5
49A
100
AcDbEntity
  8
3
370
    50
100
AcDbCircle
 10
-218.54133
 20
-75.468275
 30
0.0
 40
5.0
100
AcDbArc
 50
193.884933
 51
270.0
  0
LINE
  5
49B
100
AcDbEntity
  8
3
370
    50
100
AcDbLine
 10
-239.252633
 20
-73.334832
 30
0.0
 11
-240.008622
 21
-80.469359
 31
0.0
  0
LINE
  5
49C
100
AcDbEntity
  8
3
370
    50
100
AcDbLine
 10
-223.843456
 20
-69.905139
 30
0.0
 11
-223.395228
 21
-71.718391
 31
0.0
  0
ARC
  5
49D
100
AcDbEntity
  8
3
370
    50
100
AcDbCircle
 10
-218.54133
 20
-70.518527
 30
0.0
 40
5.0
100
AcDbArc
 50
193.884933
 51
270.0
  0
LINE
  5
49E
100
AcDbEntity
  8
3
370
    50
100
AcDbLine
 10
-239.442226
 20
-70.17434
 30
0.0
 11
-240.008622
 21
-75.519612
 31
0.0
  0
ARC
  5
49F
100
AcDbEntity
  8
3
370
    50
100
AcDbCircle
 10
-225.785016
 20
-70.385085
 30
0.0
 40
2.0
100
AcDbArc
 50
13.884933
 51
90.0
  0
ARC
  5
4A0
100
AcDbEntity
  8
3
370
    50
100
AcDbCircle
 10
-237.45336
 20
-70.385085
 30
0.0
 40
2.0
100
AcDbArc
 50
90.0
 51
173.951392
  0
ARC
  5
4A1
100
AcDbEntity
  8
3
370
    50
100
AcDbCircle
 10
-237.252633
 20
-71.334832
 30
0.0
 40
2.0
100
AcDbArc
 50
188.117936
 51
243.547871
  0
ARC
  5
4A2
100
AcDbEntity
  8
3
370
    50
100
AcDbCircle
 10
-226.219208
 20
-71.334832
 30
0.0
 40
2.0
100
AcDbArc
 50
270.0
 51
337.467588
  0
LINE
  5
4A3
100
AcDbEntity
  8
3
370
    50
100
AcDbLine
 10
-240.008622
 20
-108.886185
 30
0.0
 11
-240.008622
 21
-80.468275
 31
0.0
  0
LINE
  5
4A4
100
AcDbEntity
  8
3
370
    50
100
AcDbLine
 10
-240.008622
 20
-75.519612
 30
0.0
 11
-240.008622
 21
-69.633602
 31
0.0
  0
LINE
  5
4A5
100
AcDbEntity
  8
3
370
    25
100
AcDbLine
 10
-218.54133
 20
-80.468275
 30
0.0
 11
-239.326515
 21
-80.468275
 31
0.0
  0
LINE
  5
4A6
100
AcDbEntity
  8
3
370
    50
100
AcDbLine
 10
-203.955965
 20
-68.803415
 30
0.0
 11
-204.955965
 21
-68.803415
 31
0.0
  0
LINE
  5
4A7
100
AcDbEntity
  8
3
370
    50
100
AcDbLine
 10
-203.955965
 20
-68.803415
 30
0.0
 11
-204.955965
 21
-68.803415
 31
0.0
  0
LINE
  5
4A8
100
AcDbEntity
  8
3
370
    50
100
AcDbLine
 10
-203.955965
 20
-68.15124
 30
0.0
 11
-203.955965
 21
-68.803415
 31
0.0
  0
LINE
  5
4A9
100
AcDbEntity
  8
3
370
    50
100
AcDbLine
 10
-204.955965
 20
-68.15124
 30
0.0
 11
-204.955965
 21
-68.803415
 31
0.0
  0
LINE
  5
4AA
100
AcDbEntity
  8
3
370
    50
100
AcDbLine
 10
-203.955965
 20
-112.15124
 30
0.0
 11
-204.955965
 21
-112.15124
 31
0.0
  0
LINE
  5
4AB
100
AcDbEntity
  8
3
370
    50
100
AcDbLine
 10
-203.955965
 20
-68.15124
 30
0.0
 11
-204.955965
 21
-68.15124
 31
0.0
  0
HATCH
  5
4AC
100
AcDbEntity
  8
3
370
    25
100
AcDbHatch
 10
0.0
 20
0.0
 30
0.0
210
0.0
220
0.0
230
1.0
  2
_U
 70
     0
 71
     1
 91
        1
 92
        1
 93
        4
 72
     1
 10
-204.95596499999999
 20
-79.299064000000001
 11
-203.95596499999999
 21
-79.299064000000001
 72
     1
 10
-203.95596499999999
 20
-79.299064000000001
 11
-203.95596499999999
 21
-112.15124
 72
     1
 10
-203.95596499999999
 20
-112.15124
 11
-204.95596499999999
 21
-112.15124
 72
     1
 10
-204.95596499999999
 20
-112.15124
 11
-204.95596499999999
 21
-79.299064000000001
 97
        4
330
0
330
0
330
0
330
0
 75
     0
 76
     0
 52
45.0
 41
1.0
 77
     0
 78
     1
 53
45.0
 43
0.0
 44
0.0
 45
-0.141421
 46
0.141421
 79
     0
 98
        1
 10
0.0
 20
0.0
  0
HATCH
  5
4AD
100
AcDbEntity
  8
3
370
    25
100
AcDbHatch
 10
0.0
 20
0.0
 30
0.0
210
0.0
220
0.0
230
1.0
  2
_U
 70
     0
 71
     1
 91
        1
 92
        1
 93
        6
 72
     1
 10
-204.95596499999999
 20
-68.803415000000001
 11
-203.95596499999999
 21
-68.803415000000001
 72
     1
 10
-203.95596499999999
 20
-68.803415000000001
 11
-204.95596499999999
 21
-68.803415000000001
 72
     1
 10
-204.95596499999999
 20
-68.803415000000001
 11
-204.95596499999999
 21
-68.151240000000001
 72
     1
 10
-204.95596499999999
 20
-68.151240000000001
 11
-203.95596499999999
 21
-68.151240000000001
 72
     1
 10
-203.95596499999999
 20
-68.151240000000001
 11
-203.95596499999999
 21
-68.803415000000001
 72
     1
 10
-203.95596499999999
 20
-68.803415000000001
 11
-204.95596499999999
 21
-68.803415000000001
 97
        6
330
0
330
0
330
0
330
0
330
0
330
0
 75
     0
 76
     0
 52
45.0
 41
1.0
 77
     0
 78
     1
 53
45.0
 43
0.0
 44
0.0
 45
-0.141421
 46
0.141421
 79
     0
 98
        1
 10
0.0
 20
0.0
  0
LINE
  5
4AE
100
AcDbEntity
  8
3
370
    50
100
AcDbLine
 10
-169.154966
 20
137.118119
 30
0.0
 11
-169.154966
 21
139.118119
 31
0.0
  0
LINE
  5
4AF
100
AcDbEntity
  8
3
370
    50
100
AcDbLine
 10
-190.154966
 20
137.118119
 30
0.0
 11
-190.154966
 21
139.118119
 31
0.0
  0
LINE
  5
4B0
100
AcDbEntity
  8
3
370
    50
100
AcDbLine
 10
-190.154966
 20
137.118119
 30
0.0
 11
-187.954966
 21
137.118119
 31
0.0
  0
LINE
  5
4B1
100
AcDbEntity
  8
3
370
    50
100
AcDbLine
 10
-171.354966
 20
137.118119
 30
0.0
 11
-169.154966
 21
137.118119
 31
0.0
  0
ARC
  5
4B2
100
AcDbEntity
  8
3
370
    50
100
AcDbCircle
 10
-177.654966
 20
145.368119
 30
0.0
 40
14.0
100
AcDbArc
 50
333.485225
 51
26.514775
  0
ARC
  5
4B3
100
AcDbEntity
  8
3
370
    50
100
AcDbCircle
 10
-181.654966
 20
145.368119
 30
0.0
 40
14.0
100
AcDbArc
 50
153.485225
 51
206.514775
  0
LINE
  5
4B4
100
AcDbEntity
  8
3
370
    50
100
AcDbLine
 10
-194.182436
 20
139.118119
 30
0.0
 11
-179.654966
 21
139.118119
 31
0.0
  0
LINE
  5
4B5
100
AcDbEntity
  8
3
370
    50
100
AcDbLine
 10
-190.704966
 20
139.118119
 30
0.0
 11
-190.154966
 21
139.118119
 31
0.0
  0
LINE
  5
4B6
100
AcDbEntity
  8
3
370
    50
100
AcDbLine
 10
-179.654966
 20
139.118119
 30
0.0
 11
-165.127497
 21
139.118119
 31
0.0
  0
LINE
  5
4B7
100
AcDbEntity
  8
3
370
    50
100
AcDbLine
 10
-194.182436
 20
151.618119
 30
0.0
 11
-179.654966
 21
151.618119
 31
0.0
  0
LINE
  5
4B8
100
AcDbEntity
  8
3
370
    50
100
AcDbLine
 10
-179.654966
 20
151.618119
 30
0.0
 11
-165.127497
 21
151.618119
 31
0.0
  0
ELLIPSE
  5
4B9
100
AcDbEntity
  8
3
370
    50
100
AcDbEllipse
 10
-179.654966
 20
145.368119
 30
0.0
 11
-5.5679999999999996
 21
0.0
 31
0.0
210
0.0
220
0.0
230
1.0
 40
0.76329
 41
4.7123889999999999
 42
1.5707960000000001
  0
ELLIPSE
  5
4BA
100
AcDbEntity
  8
3
370
    50
100
AcDbEllipse
 10
-192.645347
 20
145.368119
 30
0.0
 11
0.0
 21
-4.25
 31
0.0
210
0.0
220
0.0
230
1.0
 40
0.655059
 41
0.0
 42
6.2831849999999996
  0
ELLIPSE
  5
4BB
100
AcDbEntity
  8
3
370
    50
100
AcDbEllipse
 10
-179.654966
 20
145.368119
 30
0.0
 11
5.5679999999999996
 21
0.0
 31
0.0
210
0.0
220
0.0
230
1.0
 40
0.76329
 41
4.7123889999999999
 42
1.5707960000000001
  0
ELLIPSE
  5
4BC
100
AcDbEntity
  8
3
370
    50
100
AcDbEllipse
 10
-166.664585
 20
145.368119
 30
0.0
 11
0.0
 21
4.25
 31
0.0
210
0.0
220
0.0
230
1.0
 40
0.655059
 41
0.0
 42
6.2831849999999996
  0
LINE
  5
4BD
100
AcDbEntity
  8
3
370
    50
100
AcDbLine
 10
-90.154966
 20
137.118119
 30
0.0
 11
-90.154966
 21
139.118119
 31
0.0
  0
LINE
  5
4BE
100
AcDbEntity
  8
3
370
    50
100
AcDbLine
 10
-69.154966
 20
137.118119
 30
0.0
 11
-69.154966
 21
139.118119
 31
0.0
  0
LINE
  5
4BF
100
AcDbEntity
  8
3
370
    50
100
AcDbLine
 10
-69.154966
 20
137.118119
 30
0.0
 11
-71.354966
 21
137.118119
 31
0.0
  0
LINE
  5
4C0
100
AcDbEntity
  8
3
370
    50
100
AcDbLine
 10
-87.954966
 20
137.118119
 30
0.0
 11
-90.154966
 21
137.118119
 31
0.0
  0
ARC
  5
4C1
100
AcDbEntity
  8
3
370
    50
100
AcDbCircle
 10
-81.654966
 20
145.368119
 30
0.0
 40
14.0
100
AcDbArc
 50
153.485225
 51
206.514775
  0
ARC
  5
4C2
100
AcDbEntity
  8
3
370
    50
100
AcDbCircle
 10
-77.654966
 20
145.368119
 30
0.0
 40
14.0
100
AcDbArc
 50
333.485225
 51
26.514775
  0
LINE
  5
4C3
100
AcDbEntity
  8
3
370
    50
100
AcDbLine
 10
-65.127497
 20
139.118119
 30
0.0
 11
-79.654966
 21
139.118119
 31
0.0
  0
LINE
  5
4C4
100
AcDbEntity
  8
3
370
    50
100
AcDbLine
 10
-68.604966
 20
139.118119
 30
0.0
 11
-69.154966
 21
139.118119
 31
0.0
  0
LINE
  5
4C5
100
AcDbEntity
  8
3
370
    50
100
AcDbLine
 10
-79.654966
 20
139.118119
 30
0.0
 11
-94.182436
 21
139.118119
 31
0.0
  0
LINE
  5
4C6
100
AcDbEntity
  8
3
370
    50
100
AcDbLine
 10
-65.127497
 20
151.618119
 30
0.0
 11
-79.654966
 21
151.618119
 31
0.0
  0
LINE
  5
4C7
100
AcDbEntity
  8
3
370
    50
100
AcDbLine
 10
-79.654966
 20
151.618119
 30
0.0
 11
-94.182436
 21
151.618119
 31
0.0
  0
ELLIPSE
  5
4C8
100
AcDbEntity
  8
3
370
    50
100
AcDbEllipse
 10
-79.654966
 20
145.368119
 30
0.0
 11
5.5679999999999996
 21
0.0
 31
0.0
210
0.0
220
0.0
230
1.0
 40
0.76329
 41
4.7123889999999999
 42
1.5707960000000001
  0
ELLIPSE
  5
4C9
100
AcDbEntity
  8
3
370
    50
100
AcDbEllipse
 10
-66.664585
 20
145.368119
 30
0.0
 11
0.0
 21
4.25
 31
0.0
210
0.0
220
0.0
230
1.0
 40
0.655059
 41
0.0
 42
6.2831849999999996
  0
ELLIPSE
  5
4CA
100
AcDbEntity
  8
3
370
    50
100
AcDbEllipse
 10
-79.654966
 20
145.368119
 30
0.0
 11
-5.5679999999999996
 21
0.0
 31
0.0
210
0.0
220
0.0
230
1.0
 40
0.76329
 41
4.7123889999999999
 42
1.5707960000000001
  0
ELLIPSE
  5
4CB
100
AcDbEntity
  8
3
370
    50
100
AcDbEllipse
 10
-92.645347
 20
145.368119
 30
0.0
 11
0.0
 21
-4.25
 31
0.0
210
0.0
220
0.0
230
1.0
 40
0.655059
 41
0.0
 42
6.2831849999999996
  0
LINE
  5
4CC
100
AcDbEntity
  8
3
370
    50
100
AcDbLine
 10
-200.455965
 20
119.618119
 30
0.0
 11
-199.655545
 21
119.618119
 31
0.0
  0
LINE
  5
4CD
100
AcDbEntity
  8
3
370
    50
100
AcDbLine
 10
-200.455965
 20
82.618119
 30
0.0
 11
-199.655545
 21
82.618119
 31
0.0
  0
ELLIPSE
  5
4CE
100
AcDbEntity
  8
3
370
    50
100
AcDbEllipse
 10
-141.779322
 20
-127.122435
 30
0.0
 11
0.0
 21
-3.8641269999999999
 31
0.0
210
0.0
220
0.0
230
1.0
 40
0.790537
 41
0.0
 42
6.2831849999999996
  0
ARC
  5
4CF
100
AcDbEntity
  8
3
370
    50
100
AcDbCircle
 10
-139.929966
 20
-127.65124
 30
0.0
 40
5.0
100
AcDbArc
 50
180.0
 51
270.0
  0
LINE
  5
4D0
100
AcDbEntity
  8
3
370
    50
100
AcDbLine
 10
-139.929966
 20
-132.65124
 30
0.0
 11
-129.654966
 21
-132.65124
 31
0.0
  0
LINE
  5
4D1
100
AcDbEntity
  8
3
370
    50
100
AcDbLine
 10
-129.654966
 20
-132.65124
 30
0.0
 11
-119.379966
 21
-132.65124
 31
0.0
  0
ARC
  5
4D2
100
AcDbEntity
  8
3
370
    50
100
AcDbCircle
 10
-119.379966
 20
-127.65124
 30
0.0
 40
5.0
100
AcDbArc
 50
270.0
 51
360.0
  0
ELLIPSE
  5
4D3
100
AcDbEntity
  8
3
370
    50
100
AcDbEllipse
 10
-117.530611
 20
-127.122435
 30
0.0
 11
0.0
 21
3.8641269999999999
 31
0.0
210
0.0
220
0.0
230
1.0
 40
0.790537
 41
0.0
 42
6.2831849999999996
  0
ARC
  5
4D4
100
AcDbEntity
  8
3
370
    50
100
AcDbCircle
 10
-122.585252
 20
-127.65124
 30
0.0
 40
8.205286
100
AcDbArc
 50
0.0
 51
37.543478
  0
LINE
  5
4D5
100
AcDbEntity
  8
3
370
    50
100
AcDbLine
 10
-116.079354
 20
-122.65124
 30
0.0
 11
-129.654966
 21
-122.65124
 31
0.0
  0
LINE
  5
4D6
100
AcDbEntity
  8
3
370
    50
100
AcDbLine
 10
-143.230579
 20
-122.65124
 30
0.0
 11
-129.654966
 21
-122.65124
 31
0.0
  0
ELLIPSE
  5
4D7
100
AcDbEntity
  8
3
370
    50
100
AcDbEllipse
 10
-129.654966
 20
-127.122435
 30
0.0
 11
6.10947
 21
0.0
 31
0.0
210
0.0
220
0.0
230
1.0
 40
0.632482
 41
4.7123889999999999
 42
1.5707960000000001
  0
ELLIPSE
  5
4D8
100
AcDbEntity
  8
3
370
    50
100
AcDbEllipse
 10
-129.654966
 20
-127.122435
 30
0.0
 11
-6.10947
 21
0.0
 31
0.0
210
0.0
220
0.0
230
1.0
 40
0.632482
 41
4.7123889999999999
 42
1.5707960000000001
  0
ARC
  5
4D9
100
AcDbEntity
  8
3
370
    50
100
AcDbCircle
 10
-136.72468
 20
-127.65124
 30
0.0
 40
8.205286
100
AcDbArc
 50
142.456522
 51
180.0
  0
LINE
  5
4DA
100
AcDbEntity
  8
3
370
    50
100
AcDbLine
 10
-114.654966
 20
152.759516
 30
0.0
 11
-106.654966
 21
152.759516
 31
0.0
  0
LINE
  5
4DB
100
AcDbEntity
  8
3
370
    50
100
AcDbLine
 10
-114.654966
 20
173.759516
 30
0.0
 11
-106.654966
 21
173.759516
 31
0.0
  0
LINE
  5
4DC
100
AcDbEntity
  8
3
370
    50
100
AcDbLine
 10
-114.654966
 20
152.459516
 30
0.0
 11
-114.654966
 21
152.759516
 31
0.0
  0
LINE
  5
4DD
100
AcDbEntity
  8
3
370
    50
100
AcDbLine
 10
-114.654966
 20
173.759516
 30
0.0
 11
-114.654966
 21
174.059516
 31
0.0
  0
LINE
  5
4DE
100
AcDbEntity
  8
3
370
    25
100
AcDbLine
 10
-112.922916
 20
172.759516
 30
0.0
 11
-105.654966
 21
172.759516
 31
0.0
  0
LINE
  5
4DF
100
AcDbEntity
  8
3
370
    25
100
AcDbLine
 10
-112.922916
 20
153.759516
 30
0.0
 11
-105.654966
 21
153.759516
 31
0.0
  0
LINE
  5
4E0
100
AcDbEntity
  8
3
370
    50
100
AcDbLine
 10
-140.254966
 20
145.418119
 30
0.0
 11
-140.254966
 21
159.059516
 31
0.0
  0
LINE
  5
4E1
100
AcDbEntity
  8
3
370
    50
100
AcDbLine
 10
-119.054966
 20
145.418119
 30
0.0
 11
-119.054966
 21
150.959516
 31
0.0
  0
LINE
  5
4E2
100
AcDbEntity
  8
3
370
    50
100
AcDbLine
 10
-125.254966
 20
174.059516
 30
0.0
 11
-114.654966
 21
174.059516
 31
0.0
  0
LINE
  5
4E3
100
AcDbEntity
  8
3
370
    50
100
AcDbLine
 10
-117.554966
 20
152.459516
 30
0.0
 11
-114.654966
 21
152.459516
 31
0.0
  0
LINE
  5
4E4
100
AcDbEntity
  8
3
370
    50
100
AcDbLine
 10
-105.654966
 20
172.759516
 30
0.0
 11
-106.654966
 21
173.759516
 31
0.0
  0
LINE
  5
4E5
100
AcDbEntity
  8
3
370
    50
100
AcDbLine
 10
-105.654966
 20
153.759516
 30
0.0
 11
-106.654966
 21
152.759516
 31
0.0
  0
LINE
  5
4E6
100
AcDbEntity
  8
3
370
    50
100
AcDbLine
 10
-104.654966
 20
154.259516
 30
0.0
 11
-104.654966
 21
172.259516
 31
0.0
  0
ARC
  5
4E7
100
AcDbEntity
  8
3
370
    50
100
AcDbCircle
 10
-125.254966
 20
159.059516
 30
0.0
 40
15.0
100
AcDbArc
 50
90.0
 51
180.0
  0
ARC
  5
4E8
100
AcDbEntity
  8
3
370
    50
100
AcDbCircle
 10
-117.554966
 20
150.959516
 30
0.0
 40
1.5
100
AcDbArc
 50
90.0
 51
180.0
  0
LINE
  5
4E9
100
AcDbEntity
  8
3
370
    50
100
AcDbLine
 10
-105.654966
 20
172.259516
 30
0.0
 11
-104.654966
 21
172.259516
 31
0.0
  0
LINE
  5
4EA
100
AcDbEntity
  8
3
370
    50
100
AcDbLine
 10
-105.654966
 20
154.259516
 30
0.0
 11
-104.654966
 21
154.259516
 31
0.0
  0
LINE
  5
4EB
100
AcDbEntity
  8
3
370
    50
100
AcDbLine
 10
-105.654966
 20
153.759516
 30
0.0
 11
-105.654966
 21
154.259516
 31
0.0
  0
LINE
  5
4EC
100
AcDbEntity
  8
3
370
    50
100
AcDbLine
 10
-105.654966
 20
172.259516
 30
0.0
 11
-105.654966
 21
172.759516
 31
0.0
  0
LINE
  5
4ED
100
AcDbEntity
  8
3
370
    50
100
AcDbLine
 10
-114.654966
 20
173.759516
 30
0.0
 11
-112.922916
 21
172.759516
 31
0.0
  0
LINE
  5
4EE
100
AcDbEntity
  8
3
370
    50
100
AcDbLine
 10
-114.654966
 20
152.759516
 30
0.0
 11
-112.922916
 21
153.759516
 31
0.0
  0
LINE
  5
4EF
100
AcDbEntity
  8
3
370
    25
100
AcDbLine
 10
-106.654966
 20
173.759516
 30
0.0
 11
-106.654966
 21
152.759516
 31
0.0
  0
LINE
  5
4F0
100
AcDbEntity
  8
3
370
    25
100
AcDbLine
 10
-112.922916
 20
172.759516
 30
0.0
 11
-112.922916
 21
153.759516
 31
0.0
  0
LINE
  5
4F1
100
AcDbEntity
  8
3
370
    50
100
AcDbLine
 10
-114.654966
 20
173.759516
 30
0.0
 11
-114.654966
 21
152.759516
 31
0.0
  0
LINE
  5
4F2
100
AcDbEntity
  8
3
370
    50
100
AcDbLine
 10
-105.654966
 20
172.259516
 30
0.0
 11
-105.654966
 21
154.259516
 31
0.0
  0
LINE
  5
4F3
100
AcDbEntity
  8
3
370
    50
100
AcDbLine
 10
-59.654388
 20
-108.15124
 30
0.0
 11
-58.855808
 21
-108.15124
 31
0.0
  0
LINE
  5
4F4
100
AcDbEntity
  8
3
370
    50
100
AcDbLine
 10
-200.455965
 20
-108.65124
 30
0.0
 11
-199.655545
 21
-108.65124
 31
0.0
  0
LINE
  5
4F5
100
AcDbEntity
  8
3
370
    50
100
AcDbLine
 10
-200.455965
 20
-71.65124
 30
0.0
 11
-199.655545
 21
-71.65124
 31
0.0
  0
LINE
  5
4F6
100
AcDbEntity
  8
3
370
    25
100
AcDbLine
 10
-59.654388
 20
-72.65124
 30
0.0
 11
-58.855808
 21
-72.65124
 31
0.0
  0
LINE
  5
4F7
100
AcDbEntity
  8
3
370
    50
100
AcDbLine
 10
-136.654966
 20
-112.15124
 30
0.0
 11
-140.154966
 21
-112.15124
 31
0.0
  0
LINE
  5
4F8
100
AcDbEntity
  8
3
370
    50
100
AcDbLine
 10
-119.154966
 20
-112.15124
 30
0.0
 11
-122.654966
 21
-112.15124
 31
0.0
  0
LINE
  5
4F9
100
AcDbEntity
  8
3
370
    50
100
AcDbLine
 10
-122.654966
 20
-112.15124
 30
0.0
 11
-129.654966
 21
-112.15124
 31
0.0
  0
LINE
  5
4FA
100
AcDbEntity
  8
3
370
    50
100
AcDbLine
 10
-119.154966
 20
-112.15124
 30
0.0
 11
-117.654966
 21
-113.93887
 31
0.0
  0
LINE
  5
4FB
100
AcDbEntity
  8
3
370
    25
100
AcDbLine
 10
-117.508918
 20
-121.85124
 30
0.0
 11
-117.508918
 21
-122.65124
 31
0.0
  0
LINE
  5
4FC
100
AcDbEntity
  8
3
370
    25
  6
CENTER
100
AcDbLine
 10
-129.654966
 20
101.118119
 30
0.0
 11
-7.467937
 21
101.118119
 31
0.0
  0
LINE
  5
4FD
100
AcDbEntity
  8
3
370
    25
  6
CENTER
100
AcDbLine
 10
-129.654966
 20
67.457444
 30
0.0
 11
-129.654966
 21
174.059516
 31
0.0
  0
LINE
  5
4FE
100
AcDbEntity
  8
3
370
    25
  6
CENTER
100
AcDbLine
 10
-79.654966
 20
131.945343
 30
0.0
 11
-79.654966
 21
181.735366
 31
0.0
  0
LINE
  5
4FF
100
AcDbEntity
  8
3
370
    25
  6
CENTER
100
AcDbLine
 10
-179.654966
 20
183.313228
 30
0.0
 11
-179.654966
 21
126.763446
 31
0.0
  0
LINE
  5
500
100
AcDbEntity
  8
3
370
    25
  6
CENTER
100
AcDbLine
 10
-7.467937
 20
-90.15124
 30
0.0
 11
-129.654966
 21
-90.15124
 31
0.0
  0
LINE
  5
501
100
AcDbEntity
  8
3
370
    25
  6
CENTER
100
AcDbLine
 10
-129.654966
 20
-159.778603
 30
0.0
 11
-129.654966
 21
-58.22434
 31
0.0
  0
LINE
  5
502
100
AcDbEntity
  8
3
370
    50
100
AcDbLine
 10
223.129525
 20
-77.15124
 30
0.0
 11
231.129525
 21
-77.15124
 31
0.0
  0
LINE
  5
503
100
AcDbEntity
  8
3
370
    50
100
AcDbLine
 10
223.129525
 20
-103.15124
 30
0.0
 11
231.129525
 21
-103.15124
 31
0.0
  0
LINE
  5
504
100
AcDbEntity
  8
3
370
    50
100
AcDbLine
 10
193.129525
 20
-68.15124
 30
0.0
 11
223.129525
 21
-68.15124
 31
0.0
  0
LINE
  5
505
100
AcDbEntity
  8
3
370
    50
100
AcDbLine
 10
193.129525
 20
-112.15124
 30
0.0
 11
203.129525
 21
-112.15124
 31
0.0
  0
LINE
  5
506
100
AcDbEntity
  8
3
370
    50
100
AcDbLine
 10
220.629525
 20
-112.15124
 30
0.0
 11
223.129525
 21
-112.15124
 31
0.0
  0
LINE
  5
507
100
AcDbEntity
  8
3
370
    50
100
AcDbLine
 10
223.129525
 20
-68.15124
 30
0.0
 11
223.129525
 21
-112.15124
 31
0.0
  0
POINT
  5
508
100
AcDbEntity
  8
3
370
    50
100
AcDbPoint
 10
193.129525
 20
-90.15124
 30
0.0
  0
LINE
  5
509
100
AcDbEntity
  8
3
370
    50
100
AcDbLine
 10
169.281481
 20
-80.137709
 30
0.0
 11
160.259049
 21
-77.720156
 31
0.0
  0
LINE
  5
50A
100
AcDbEntity
  8
3
370
    50
100
AcDbLine
 10
167.469747
 20
-86.89919
 30
0.0
 11
158.447316
 21
-84.481637
 31
0.0
  0
ARC
  5
50B
100
AcDbEntity
  8
3
370
    50
100
AcDbCircle
 10
193.129525
 20
-90.15124
 30
0.0
 40
37.0
100
AcDbArc
 50
162.543714
 51
167.456286
  0
ARC
  5
50C
100
AcDbEntity
  8
3
370
    50
100
AcDbCircle
 10
159.741411
 20
-79.652008
 30
0.0
 40
2.0
100
AcDbArc
 50
75.0
 51
162.543714
  0
ARC
  5
50D
100
AcDbEntity
  8
3
370
    50
100
AcDbCircle
 10
158.964954
 20
-82.549785
 30
0.0
 40
2.0
100
AcDbArc
 50
167.456286
 51
255.0
  0
ARC
  5
50E
100
AcDbEntity
  8
3
370
    50
100
AcDbCircle
 10
170.575576
 20
-75.30808
 30
0.0
 40
5.0
100
AcDbArc
 50
255.0
 51
326.650365
  0
ARC
  5
50F
100
AcDbEntity
  8
3
370
    50
100
AcDbCircle
 10
166.175652
 20
-91.728819
 30
0.0
 40
5.0
100
AcDbArc
 50
3.349635
 51
75.0
  0
ARC
  5
510
100
AcDbEntity
  8
3
370
    50
100
AcDbCircle
 10
193.129525
 20
-90.15124
 30
0.0
 40
22.0
100
AcDbArc
 50
183.349635
 51
146.650365
  0
LINE
  5
511
100
AcDbEntity
  8
3
370
    50
100
AcDbLine
 10
202.238817
 20
-93.627344
 30
0.0
 11
204.944778
 21
-94.352404
 31
0.0
  0
LINE
  5
512
100
AcDbEntity
  8
3
370
    50
100
AcDbLine
 10
202.756455
 20
-91.695492
 30
0.0
 11
205.462417
 21
-92.420552
 31
0.0
  0
LINE
  5
513
100
AcDbEntity
  8
3
370
    50
100
AcDbLine
 10
205.462417
 20
-92.420552
 30
0.0
 11
204.944778
 21
-94.352404
 31
0.0
  0
ARC
  5
514
100
AcDbEntity
  8
3
370
    25
100
AcDbCircle
 10
193.129525
 20
-90.15124
 30
0.0
 40
10.5
100
AcDbArc
 50
350.465024
 51
339.534976
  0
CIRCLE
  5
515
100
AcDbEntity
  8
3
370
    50
100
AcDbCircle
 10
193.129525
 20
-90.15124
 30
0.0
 40
9.75
  0
CIRCLE
  5
516
100
AcDbEntity
  8
3
370
    25
100
AcDbCircle
 10
193.129525
 20
-90.15124
 30
0.0
 40
9.25
  0
ARC
  5
517
100
AcDbEntity
  8
3
370
    50
100
AcDbCircle
 10
193.129525
 20
-90.15124
 30
0.0
 40
10.0
100
AcDbArc
 50
350.73917
 51
339.26083
  0
POINT
  5
518
100
AcDbEntity
  8
3
370
    50
100
AcDbPoint
 10
193.129525
 20
-90.15124
 30
0.0
  0
LINE
  5
519
100
AcDbEntity
  8
3
370
    50
100
AcDbLine
 10
223.129525
 20
-77.65124
 30
0.0
 11
228.829525
 21
-77.65124
 31
0.0
  0
LINE
  5
51A
100
AcDbEntity
  8
3
370
    50
100
AcDbLine
 10
229.129525
 20
-102.35124
 30
0.0
 11
229.129525
 21
-90.15124
 31
0.0
  0
LINE
  5
51B
100
AcDbEntity
  8
3
370
    50
100
AcDbLine
 10
223.129525
 20
-102.65124
 30
0.0
 11
228.829525
 21
-102.65124
 31
0.0
  0
LINE
  5
51C
100
AcDbEntity
  8
3
370
    50
100
AcDbLine
 10
229.129525
 20
-102.35124
 30
0.0
 11
228.829525
 21
-102.65124
 31
0.0
  0
LINE
  5
51D
100
AcDbEntity
  8
3
370
    50
100
AcDbLine
 10
228.829525
 20
-77.65124
 30
0.0
 11
229.129525
 21
-77.95124
 31
0.0
  0
LINE
  5
51E
100
AcDbEntity
  8
3
370
    50
100
AcDbLine
 10
229.129525
 20
-90.15124
 30
0.0
 11
229.129525
 21
-77.95124
 31
0.0
  0
LINE
  5
51F
100
AcDbEntity
  8
3
370
    25
100
AcDbLine
 10
228.829525
 20
-102.65124
 30
0.0
 11
228.829525
 21
-77.65124
 31
0.0
  0
LINE
  5
520
100
AcDbEntity
  8
3
370
    50
100
AcDbLine
 10
229.129525
 20
-79.65124
 30
0.0
 11
231.129525
 21
-79.65124
 31
0.0
  0
LINE
  5
521
100
AcDbEntity
  8
3
370
    50
100
AcDbLine
 10
229.129525
 20
-100.65124
 30
0.0
 11
231.129525
 21
-100.65124
 31
0.0
  0
LINE
  5
522
100
AcDbEntity
  8
3
370
    50
100
AcDbLine
 10
229.129525
 20
-100.65124
 30
0.0
 11
229.129525
 21
-98.45124
 31
0.0
  0
LINE
  5
523
100
AcDbEntity
  8
3
370
    50
100
AcDbLine
 10
229.129525
 20
-81.85124
 30
0.0
 11
229.129525
 21
-79.65124
 31
0.0
  0
ARC
  5
524
100
AcDbEntity
  8
3
370
    50
100
AcDbCircle
 10
237.379525
 20
-88.15124
 30
0.0
 40
14.0
100
AcDbArc
 50
63.485225
 51
116.514775
  0
ARC
  5
525
100
AcDbEntity
  8
3
370
    50
100
AcDbCircle
 10
237.379525
 20
-92.15124
 30
0.0
 40
14.0
100
AcDbArc
 50
243.485225
 51
296.514775
  0
LINE
  5
526
100
AcDbEntity
  8
3
370
    50
100
AcDbLine
 10
231.129525
 20
-104.67871
 30
0.0
 11
231.129525
 21
-90.15124
 31
0.0
  0
LINE
  5
527
100
AcDbEntity
  8
3
370
    50
100
AcDbLine
 10
231.129525
 20
-101.20124
 30
0.0
 11
231.129525
 21
-100.65124
 31
0.0
  0
LINE
  5
528
100
AcDbEntity
  8
3
370
    50
100
AcDbLine
 10
231.129525
 20
-90.15124
 30
0.0
 11
231.129525
 21
-75.62377
 31
0.0
  0
LINE
  5
529
100
AcDbEntity
  8
3
370
    50
100
AcDbLine
 10
243.629525
 20
-104.67871
 30
0.0
 11
243.629525
 21
-90.15124
 31
0.0
  0
LINE
  5
52A
100
AcDbEntity
  8
3
370
    50
100
AcDbLine
 10
243.629525
 20
-90.15124
 30
0.0
 11
243.629525
 21
-75.62377
 31
0.0
  0
ELLIPSE
  5
52B
100
AcDbEntity
  8
3
370
    50
100
AcDbEllipse
 10
237.379525
 20
-90.15124
 30
0.0
 11
0.0
 21
-5.5679999999999996
 31
0.0
210
0.0
220
0.0
230
1.0
 40
0.76329
 41
4.7123889999999999
 42
1.5707960000000001
  0
ELLIPSE
  5
52C
100
AcDbEntity
  8
3
370
    50
100
AcDbEllipse
 10
237.379525
 20
-103.141621
 30
0.0
 11
4.25
 21
0.0
 31
0.0
210
0.0
220
0.0
230
1.0
 40
0.655059
 41
0.0
 42
6.2831849999999996
  0
ELLIPSE
  5
52D
100
AcDbEntity
  8
3
370
    50
100
AcDbEllipse
 10
237.379525
 20
-90.15124
 30
0.0
 11
0.0
 21
5.5679999999999996
 31
0.0
210
0.0
220
0.0
230
1.0
 40
0.76329
 41
4.7123889999999999
 42
1.5707960000000001
  0
ELLIPSE
  5
52E
100
AcDbEntity
  8
3
370
    50
100
AcDbEllipse
 10
237.379525
 20
-77.160859
 30
0.0
 11
-4.25
 21
0.0
 31
0.0
210
0.0
220
0.0
230
1.0
 40
0.655059
 41
0.0
 42
6.2831849999999996
  0
ARC
  5
52F
100
AcDbEntity
  8
3
370
    50
100
AcDbCircle
 10
201.854525
 20
-127.65124
 30
0.0
 40
5.0
100
AcDbArc
 50
180.0
 51
270.0
  0
ARC
  5
530
100
AcDbEntity
  8
3
370
    50
100
AcDbCircle
 10
219.199239
 20
-127.65124
 30
0.0
 40
8.205286
100
AcDbArc
 50
0.0
 51
37.543478
  0
ARC
  5
531
100
AcDbEntity
  8
3
370
    50
100
AcDbCircle
 10
222.404525
 20
-127.65124
 30
0.0
 40
5.0
100
AcDbArc
 50
270.0
 51
360.0
  0
ARC
  5
532
100
AcDbEntity
  8
3
370
    50
100
AcDbCircle
 10
205.059811
 20
-127.65124
 30
0.0
 40
8.205286
100
AcDbArc
 50
142.456522
 51
180.0
  0
LINE
  5
533
100
AcDbEntity
  8
3
370
    50
100
AcDbLine
 10
198.553912
 20
-122.65124
 30
0.0
 11
212.129525
 21
-122.65124
 31
0.0
  0
LINE
  5
534
100
AcDbEntity
  8
3
370
    50
100
AcDbLine
 10
225.705137
 20
-122.65124
 30
0.0
 11
212.129525
 21
-122.65124
 31
0.0
  0
LINE
  5
535
100
AcDbEntity
  8
3
370
    50
100
AcDbLine
 10
201.854525
 20
-132.65124
 30
0.0
 11
212.129525
 21
-132.65124
 31
0.0
  0
LINE
  5
536
100
AcDbEntity
  8
3
370
    50
100
AcDbLine
 10
212.129525
 20
-132.65124
 30
0.0
 11
222.404525
 21
-132.65124
 31
0.0
  0
ELLIPSE
  5
537
100
AcDbEntity
  8
3
370
    50
100
AcDbEllipse
 10
212.129525
 20
-127.122435
 30
0.0
 11
-6.10947
 21
0.0
 31
0.0
210
0.0
220
0.0
230
1.0
 40
0.632482
 41
4.7123889999999999
 42
1.5707960000000001
  0
ELLIPSE
  5
538
100
AcDbEntity
  8
3
370
    50
100
AcDbEllipse
 10
200.005169
 20
-127.122435
 30
0.0
 11
0.0
 21
-3.8641269999999999
 31
0.0
210
0.0
220
0.0
230
1.0
 40
0.790537
 41
0.0
 42
6.2831849999999996
  0
ELLIPSE
  5
539
100
AcDbEntity
  8
3
370
    50
100
AcDbEllipse
 10
212.129525
 20
-127.122435
 30
0.0
 11
6.10947
 21
0.0
 31
0.0
210
0.0
220
0.0
230
1.0
 40
0.632482
 41
4.7123889999999999
 42
1.5707960000000001
  0
ELLIPSE
  5
53A
100
AcDbEntity
  8
3
370
    50
100
AcDbEllipse
 10
224.25388
 20
-127.122435
 30
0.0
 11
0.0
 21
3.8641269999999999
 31
0.0
210
0.0
220
0.0
230
1.0
 40
0.790537
 41
0.0
 42
6.2831849999999996
  0
LINE
  5
53B
100
AcDbEntity
  8
3
370
    50
100
AcDbLine
 10
243.929525
 20
-105.15124
 30
0.0
 11
243.929525
 21
-113.15124
 31
0.0
  0
LINE
  5
53C
100
AcDbEntity
  8
3
370
    50
100
AcDbLine
 10
243.629525
 20
-105.15124
 30
0.0
 11
243.929525
 21
-105.15124
 31
0.0
  0
LINE
  5
53D
100
AcDbEntity
  8
3
370
    25
100
AcDbLine
 10
244.929525
 20
-106.883291
 30
0.0
 11
244.929525
 21
-114.15124
 31
0.0
  0
LINE
  5
53E
100
AcDbEntity
  8
3
370
    50
100
AcDbLine
 10
243.629525
 20
-102.25124
 30
0.0
 11
243.629525
 21
-105.15124
 31
0.0
  0
LINE
  5
53F
100
AcDbEntity
  8
3
370
    50
100
AcDbLine
 10
244.929525
 20
-114.15124
 30
0.0
 11
243.929525
 21
-113.15124
 31
0.0
  0
LINE
  5
540
100
AcDbEntity
  8
3
370
    50
100
AcDbLine
 10
245.429525
 20
-115.15124
 30
0.0
 11
253.129776
 21
-115.15124
 31
0.0
  0
LINE
  5
541
100
AcDbEntity
  8
3
370
    50
100
AcDbLine
 10
245.429525
 20
-114.15124
 30
0.0
 11
245.429525
 21
-115.15124
 31
0.0
  0
LINE
  5
542
100
AcDbEntity
  8
3
370
    50
100
AcDbLine
 10
244.929525
 20
-114.15124
 30
0.0
 11
245.429525
 21
-114.15124
 31
0.0
  0
LINE
  5
543
100
AcDbEntity
  8
3
370
    50
100
AcDbLine
 10
243.929525
 20
-105.15124
 30
0.0
 11
244.929525
 21
-106.883291
 31
0.0
  0
LINE
  5
544
100
AcDbEntity
  8
3
370
    25
100
AcDbLine
 10
253.129776
 20
-106.883291
 30
0.0
 11
244.929525
 21
-106.883291
 31
0.0
  0
LINE
  5
545
100
AcDbEntity
  8
3
370
    50
100
AcDbLine
 10
243.929525
 20
-105.15124
 30
0.0
 11
253.129776
 21
-105.15124
 31
0.0
  0
LINE
  5
546
100
AcDbEntity
  8
3
370
    25
100
AcDbLine
 10
243.929525
 20
-113.15124
 30
0.0
 11
253.129776
 21
-113.15124
 31
0.0
  0
LINE
  5
547
100
AcDbEntity
  8
3
370
    50
100
AcDbLine
 10
253.129776
 20
-114.15124
 30
0.0
 11
245.429525
 21
-114.15124
 31
0.0
  0
LINE
  5
548
100
AcDbEntity
  8
3
370
    50
100
AcDbLine
 10
212.129525
 20
-112.15124
 30
0.0
 11
201.629525
 21
-112.15124
 31
0.0
  0
LINE
  5
549
100
AcDbEntity
  8
3
370
    50
100
AcDbLine
 10
222.629525
 20
-112.15124
 30
0.0
 11
219.129525
 21
-112.15124
 31
0.0
  0
LINE
  5
54A
100
AcDbEntity
  8
3
370
    50
100
AcDbLine
 10
219.129525
 20
-112.15124
 30
0.0
 11
212.129525
 21
-112.15124
 31
0.0
  0
LINE
  5
54B
100
AcDbEntity
  8
3
370
    25
100
AcDbLine
 10
224.275573
 20
-121.85124
 30
0.0
 11
224.275573
 21
-122.65124
 31
0.0
  0
LINE
  5
54C
100
AcDbEntity
  8
3
370
    50
100
AcDbLine
 10
205.129525
 20
-112.15124
 30
0.0
 11
201.629525
 21
-112.15124
 31
0.0
  0
LINE
  5
54D
100
AcDbEntity
  8
3
370
    50
100
AcDbLine
 10
222.629525
 20
-112.15124
 30
0.0
 11
219.129525
 21
-112.15124
 31
0.0
  0
LINE
  5
54E
100
AcDbEntity
  8
3
370
    50
100
AcDbLine
 10
219.129525
 20
-112.15124
 30
0.0
 11
212.129525
 21
-112.15124
 31
0.0
  0
LINE
  5
54F
100
AcDbEntity
  8
3
370
    50
100
AcDbLine
 10
201.629525
 20
-112.15124
 30
0.0
 11
200.129525
 21
-113.93887
 31
0.0
  0
LINE
  5
550
100
AcDbEntity
  8
3
370
    50
100
AcDbLine
 10
222.629525
 20
-112.15124
 30
0.0
 11
224.129525
 21
-113.93887
 31
0.0
  0
LINE
  5
551
100
AcDbEntity
  8
3
370
    25
  6
CENTER
100
AcDbLine
 10
260.437866
 20
-90.15124
 30
0.0
 11
206.338715
 21
-90.15124
 31
0.0
  0
LINE
  5
552
100
AcDbEntity
  8
3
370
    25
  6
CENTER
100
AcDbLine
 10
165.129525
 20
-90.15124
 30
0.0
 11
221.129525
 21
-90.15124
 31
0.0
  0
LINE
  5
553
100
AcDbEntity
  8
3
370
    25
  6
CENTER
100
AcDbLine
 10
193.129525
 20
-118.15124
 30
0.0
 11
193.129525
 21
-62.15124
 31
0.0
  0
LINE
  5
554
100
AcDbEntity
  8
3
370
    50
100
AcDbLine
 10
-98.654966
 20
-115.15124
 30
0.0
 11
-83.654966
 21
-115.15124
 31
0.0
  0
LINE
  5
555
100
AcDbEntity
  8
3
370
    50
100
AcDbLine
 10
-98.654966
 20
-119.85124
 30
0.0
 11
-83.654966
 21
-119.85124
 31
0.0
  0
LINE
  5
556
100
AcDbEntity
  8
3
370
    50
100
AcDbLine
 10
-83.654966
 20
-115.15124
 30
0.0
 11
-83.654966
 21
-119.85124
 31
0.0
  0
ARC
  5
557
100
AcDbEntity
  8
3
370
    50
100
AcDbCircle
 10
-91.154966
 20
-90.803865
 30
0.0
 40
30.0
100
AcDbArc
 50
255.522488
 51
284.477512
  0
LINE
  5
558
100
AcDbEntity
  8
3
370
    50
100
AcDbLine
 10
-84.154966
 20
-115.15124
 30
0.0
 11
-84.154966
 21
-119.85124
 31
0.0
  0
LINE
  5
559
100
AcDbEntity
  8
3
370
    50
100
AcDbLine
 10
-84.754966
 20
-115.15124
 30
0.0
 11
-84.754966
 21
-119.85124
 31
0.0
  0
LINE
  5
55A
100
AcDbEntity
  8
3
370
    50
100
AcDbLine
 10
-85.454966
 20
-115.15124
 30
0.0
 11
-85.454966
 21
-119.85124
 31
0.0
  0
LINE
  5
55B
100
AcDbEntity
  8
3
370
    50
100
AcDbLine
 10
-86.454966
 20
-115.15124
 30
0.0
 11
-86.454966
 21
-119.85124
 31
0.0
  0
LINE
  5
55C
100
AcDbEntity
  8
3
370
    50
100
AcDbLine
 10
-87.654966
 20
-115.15124
 30
0.0
 11
-87.654966
 21
-119.85124
 31
0.0
  0
LINE
  5
55D
100
AcDbEntity
  8
3
370
    50
100
AcDbLine
 10
-88.854966
 20
-115.15124
 30
0.0
 11
-88.854966
 21
-119.85124
 31
0.0
  0
LINE
  5
55E
100
AcDbEntity
  8
3
370
    50
100
AcDbLine
 10
-87.654966
 20
-112.15124
 30
0.0
 11
-87.654966
 21
-115.15124
 31
0.0
  0
LINE
  5
55F
100
AcDbEntity
  8
3
370
    50
100
AcDbLine
 10
-94.654966
 20
-112.15124
 30
0.0
 11
-94.654966
 21
-115.15124
 31
0.0
  0
LINE
  5
560
100
AcDbEntity
  8
3
370
    50
100
AcDbLine
 10
-98.654966
 20
-115.15124
 30
0.0
 11
-98.654966
 21
-119.85124
 31
0.0
  0
LINE
  5
561
100
AcDbEntity
  8
3
370
    50
100
AcDbLine
 10
-90.054966
 20
-115.15124
 30
0.0
 11
-90.054966
 21
-119.85124
 31
0.0
  0
LINE
  5
562
100
AcDbEntity
  8
3
370
    50
100
AcDbLine
 10
-92.254966
 20
-115.15124
 30
0.0
 11
-92.254966
 21
-119.85124
 31
0.0
  0
LINE
  5
563
100
AcDbEntity
  8
3
370
    50
100
AcDbLine
 10
-93.454966
 20
-115.15124
 30
0.0
 11
-93.454966
 21
-119.85124
 31
0.0
  0
LINE
  5
564
100
AcDbEntity
  8
3
370
    50
100
AcDbLine
 10
-94.654966
 20
-115.15124
 30
0.0
 11
-94.654966
 21
-119.85124
 31
0.0
  0
LINE
  5
565
100
AcDbEntity
  8
3
370
    50
100
AcDbLine
 10
-95.854966
 20
-115.15124
 30
0.0
 11
-95.854966
 21
-119.85124
 31
0.0
  0
LINE
  5
566
100
AcDbEntity
  8
3
370
    50
100
AcDbLine
 10
-96.854966
 20
-115.15124
 30
0.0
 11
-96.854966
 21
-119.85124
 31
0.0
  0
LINE
  5
567
100
AcDbEntity
  8
3
370
    50
100
AcDbLine
 10
-97.554966
 20
-115.15124
 30
0.0
 11
-97.554966
 21
-119.85124
 31
0.0
  0
LINE
  5
568
100
AcDbEntity
  8
3
370
    50
100
AcDbLine
 10
-98.154966
 20
-115.15124
 30
0.0
 11
-98.154966
 21
-119.85124
 31
0.0
  0
LINE
  5
569
100
AcDbEntity
  8
3
370
    25
  6
DASHED
100
AcDbLine
 10
196.381575
 20
-64.491463
 30
0.0
 11
198.799128
 21
-55.469031
 31
0.0
  0
ARC
  5
56A
100
AcDbEntity
  8
3
370
    25
  6
DASHED
100
AcDbCircle
 10
200.73098
 20
-55.986669
 30
0.0
 40
2.0
100
AcDbArc
 50
77.456286
 51
165.0
  0
ARC
  5
56B
100
AcDbEntity
  8
3
370
    25
  6
DASHED
100
AcDbCircle
 10
193.129525
 20
-90.15124
 30
0.0
 40
37.0
100
AcDbArc
 50
72.543714
 51
77.456286
  0
ARC
  5
56C
100
AcDbEntity
  8
3
370
    25
  6
DASHED
100
AcDbCircle
 10
203.628757
 20
-56.763126
 30
0.0
 40
2.0
100
AcDbArc
 50
345.0
 51
72.543714
  0
LINE
  5
56D
100
AcDbEntity
  8
3
370
    25
  6
DASHED
100
AcDbLine
 10
203.143055
 20
-66.303196
 30
0.0
 11
205.560609
 21
-57.280764
 31
0.0
  0
ARC
  5
56E
100
AcDbEntity
  8
3
370
    25
  6
DASHED
100
AcDbCircle
 10
207.972685
 20
-67.597291
 30
0.0
 40
5.0
100
AcDbArc
 50
165.0
 51
236.650365
  0
ARC
  5
56F
100
AcDbEntity
  8
3
370
    25
  6
DASHED
100
AcDbCircle
 10
191.551946
 20
-63.197367
 30
0.0
 40
5.0
100
AcDbArc
 50
273.349635
 51
345.0
  0
ARC
  5
570
100
AcDbEntity
  8
3
370
    25
  6
DASHED
100
AcDbCircle
 10
194.707104
 20
-117.105112
 30
0.0
 40
5.0
100
AcDbArc
 50
93.349635
 51
165.0
  0
LINE
  5
571
100
AcDbEntity
  8
3
370
    25
  6
DASHED
100
AcDbLine
 10
189.877475
 20
-115.811017
 30
0.0
 11
187.459922
 21
-124.833449
 31
0.0
  0
ARC
  5
572
100
AcDbEntity
  8
3
370
    25
  6
DASHED
100
AcDbCircle
 10
185.52807
 20
-124.31581
 30
0.0
 40
2.0
100
AcDbArc
 50
257.456286
 51
345.0
  0
ARC
  5
573
100
AcDbEntity
  8
3
370
    25
  6
DASHED
100
AcDbCircle
 10
193.129525
 20
-90.15124
 30
0.0
 40
37.0
100
AcDbArc
 50
252.543714
 51
257.456286
  0
ARC
  5
574
100
AcDbEntity
  8
3
370
    25
  6
DASHED
100
AcDbCircle
 10
182.630292
 20
-123.539353
 30
0.0
 40
2.0
100
AcDbArc
 50
165.0
 51
252.543714
  0
LINE
  5
575
100
AcDbEntity
  8
3
370
    25
  6
DASHED
100
AcDbLine
 10
183.115994
 20
-113.999284
 30
0.0
 11
180.698441
 21
-123.021715
 31
0.0
  0
ARC
  5
576
100
AcDbEntity
  8
3
370
    25
  6
DASHED
100
AcDbCircle
 10
178.286365
 20
-112.705189
 30
0.0
 40
5.0
100
AcDbArc
 50
345.0
 51
56.650365
  0
LINE
  5
577
100
AcDbEntity
  8
3
370
    25
  6
CENTER
100
AcDbLine
 10
-129.654966
 20
101.118119
 30
0.0
 11
-251.841995
 21
101.118119
 31
0.0
  0
LINE
  5
578
100
AcDbEntity
  8
3
370
    25
  6
CENTER
100
AcDbLine
 10
-251.841995
 20
-90.15124
 30
0.0
 11
-129.654966
 21
-90.15124
 31
0.0
  0
TEXT
  5
579
100
AcDbEntity
  8
3
370
    50
100
AcDbText
 10
290.832582
 20
-240.013492
 30
0.0
 40
6.0
  1
１　２
 72
     5
 11
307.632582
 21
-240.013492
 31
0.0
100
AcDbText
  0
LINE
  5
57A
100
AcDbEntity
  8
3
370
    25
  6
CENTER
100
AcDbLine
 10
-91.154966
 20
-102.134432
 30
0.0
 11
-91.154966
 21
-126.212321
 31
0.0
  0
LINE
  5
57B
100
AcDbEntity
  8
3
370
    50
100
AcDbLine
 10
-192.654966
 20
161.118371
 30
0.0
 11
-192.654966
 21
151.618119
 31
0.0
  0
LINE
  5
57C
100
AcDbEntity
  8
3
370
    50
100
AcDbLine
 10
-208.154966
 20
161.118371
 30
0.0
 11
-166.154966
 21
161.118371
 31
0.0
  0
LINE
  5
57D
100
AcDbEntity
  8
3
370
    50
100
AcDbLine
 10
-208.154966
 20
177.118371
 30
0.0
 11
-166.154966
 21
177.118371
 31
0.0
  0
LINE
  5
57E
100
AcDbEntity
  8
3
370
    50
100
AcDbLine
 10
-208.654966
 20
176.618371
 30
0.0
 11
-208.654966
 21
161.618371
 31
0.0
  0
LINE
  5
57F
100
AcDbEntity
  8
3
370
    50
100
AcDbLine
 10
-165.654966
 20
161.618371
 30
0.0
 11
-165.654966
 21
176.618371
 31
0.0
  0
LINE
  5
580
100
AcDbEntity
  8
3
370
    50
100
AcDbLine
 10
-166.654966
 20
151.618119
 30
0.0
 11
-166.654966
 21
161.118371
 31
0.0
  0
LINE
  5
581
100
AcDbEntity
  8
3
370
    50
100
AcDbLine
 10
-208.154966
 20
177.118371
 30
0.0
 11
-208.654966
 21
176.618371
 31
0.0
  0
LINE
  5
582
100
AcDbEntity
  8
3
370
    50
100
AcDbLine
 10
-208.654966
 20
161.618371
 30
0.0
 11
-208.154966
 21
161.118371
 31
0.0
  0
LINE
  5
583
100
AcDbEntity
  8
3
370
    50
100
AcDbLine
 10
-166.154966
 20
161.118371
 30
0.0
 11
-165.654966
 21
161.618371
 31
0.0
  0
LINE
  5
584
100
AcDbEntity
  8
3
370
    50
100
AcDbLine
 10
-165.654966
 20
176.618371
 30
0.0
 11
-166.154966
 21
177.118371
 31
0.0
  0
LINE
  5
585
100
AcDbEntity
  8
3
370
    50
100
AcDbLine
 10
-206.154966
 20
179.618371
 30
0.0
 11
-206.154966
 21
177.118371
 31
0.0
  0
LINE
  5
586
100
AcDbEntity
  8
3
370
    50
100
AcDbLine
 10
-183.154966
 20
179.618371
 30
0.0
 11
-183.154966
 21
177.118371
 31
0.0
  0
LINE
  5
587
100
AcDbEntity
  8
3
370
    50
100
AcDbLine
 10
-205.654966
 20
180.118371
 30
0.0
 11
-206.154966
 21
179.618371
 31
0.0
  0
LINE
  5
588
100
AcDbEntity
  8
3
370
    50
100
AcDbLine
 10
-183.654966
 20
180.118371
 30
0.0
 11
-183.154966
 21
179.618371
 31
0.0
  0
LINE
  5
589
100
AcDbEntity
  8
3
370
    50
100
AcDbLine
 10
-181.654966
 20
181.139388
 30
0.0
 11
-181.654966
 21
187.118371
 31
0.0
  0
LINE
  5
58A
100
AcDbEntity
  8
3
370
    25
100
AcDbLine
 10
-182.67595
 20
180.118371
 30
0.0
 11
-182.67595
 21
188.118371
 31
0.0
  0
LINE
  5
58B
100
AcDbEntity
  8
3
370
    50
100
AcDbLine
 10
-206.654966
 20
188.118371
 30
0.0
 11
-182.654966
 21
188.118371
 31
0.0
  0
LINE
  5
58C
100
AcDbEntity
  8
3
370
    25
100
AcDbLine
 10
-206.63395
 20
180.118371
 30
0.0
 11
-206.63395
 21
188.118371
 31
0.0
  0
LINE
  5
58D
100
AcDbEntity
  8
3
370
    50
100
AcDbLine
 10
-207.654966
 20
187.118371
 30
0.0
 11
-207.654966
 21
181.139388
 31
0.0
  0
LINE
  5
58E
100
AcDbEntity
  8
3
370
    50
100
AcDbLine
 10
-181.654966
 20
187.118371
 30
0.0
 11
-182.654966
 21
188.118371
 31
0.0
  0
LINE
  5
58F
100
AcDbEntity
  8
3
370
    50
100
AcDbLine
 10
-207.654966
 20
187.118371
 30
0.0
 11
-206.654966
 21
188.118371
 31
0.0
  0
LINE
  5
590
100
AcDbEntity
  8
3
370
    50
100
AcDbLine
 10
-206.63395
 20
180.118371
 30
0.0
 11
-207.654966
 21
181.139388
 31
0.0
  0
LINE
  5
591
100
AcDbEntity
  8
3
370
    50
100
AcDbLine
 10
-182.675983
 20
180.118371
 30
0.0
 11
-181.654966
 21
181.139388
 31
0.0
  0
LINE
  5
592
100
AcDbEntity
  8
3
370
    50
100
AcDbLine
 10
-182.67595
 20
180.118371
 30
0.0
 11
-206.63395
 21
180.118371
 31
0.0
  0
LINE
  5
593
100
AcDbEntity
  8
3
370
    50
100
AcDbLine
 10
-181.654966
 20
187.118371
 30
0.0
 11
-207.654966
 21
187.118371
 31
0.0
  0
LINE
  5
594
100
AcDbEntity
  8
3
370
    50
100
AcDbLine
 10
-207.654966
 20
181.139388
 30
0.0
 11
-181.654966
 21
181.139388
 31
0.0
  0
LINE
  5
595
100
AcDbEntity
  8
3
370
    50
100
AcDbLine
 10
-183.154966
 20
179.618371
 30
0.0
 11
-206.154966
 21
179.618371
 31
0.0
  0
LINE
  5
596
100
AcDbEntity
  8
3
370
    50
100
AcDbLine
 10
-268.196609
 20
173.618371
 30
0.0
 11
-251.196609
 21
173.618371
 31
0.0
  0
LINE
  5
597
100
AcDbEntity
  8
3
370
    50
100
AcDbLine
 10
-268.196609
 20
173.618371
 30
0.0
 11
-268.696609
 21
174.118371
 31
0.0
  0
LINE
  5
598
100
AcDbEntity
  8
3
370
    50
100
AcDbLine
 10
-268.696609
 20
174.118371
 30
0.0
 11
-268.696609
 21
177.118371
 31
0.0
  0
LINE
  5
599
100
AcDbEntity
  8
3
370
    50
100
AcDbLine
 10
-250.696609
 20
174.118371
 30
0.0
 11
-250.696609
 21
177.118371
 31
0.0
  0
LINE
  5
59A
100
AcDbEntity
  8
3
370
    50
100
AcDbLine
 10
-251.196609
 20
173.618371
 30
0.0
 11
-250.696609
 21
174.118371
 31
0.0
  0
LINE
  5
59B
100
AcDbEntity
  8
3
370
    50
100
AcDbLine
 10
-246.396609
 20
180.118371
 30
0.0
 11
-272.996609
 21
180.118371
 31
0.0
  0
LINE
  5
59C
100
AcDbEntity
  8
3
370
    25
100
AcDbLine
 10
-268.196609
 20
173.618371
 30
0.0
 11
-268.196609
 21
177.618371
 31
0.0
  0
LINE
  5
59D
100
AcDbEntity
  8
3
370
    25
100
AcDbLine
 10
-251.196609
 20
173.618371
 30
0.0
 11
-251.196609
 21
177.618371
 31
0.0
  0
LINE
  5
59E
100
AcDbEntity
  8
3
370
    50
100
AcDbLine
 10
-268.196609
 20
177.618371
 30
0.0
 11
-268.696609
 21
177.118371
 31
0.0
  0
LINE
  5
59F
100
AcDbEntity
  8
3
370
    50
100
AcDbLine
 10
-251.196609
 20
177.618371
 30
0.0
 11
-250.696609
 21
177.118371
 31
0.0
  0
LINE
  5
5A0
100
AcDbEntity
  8
3
370
    50
100
AcDbLine
 10
-251.196609
 20
177.618371
 30
0.0
 11
-259.696609
 21
177.618371
 31
0.0
  0
LINE
  5
5A1
100
AcDbEntity
  8
3
370
    50
100
AcDbLine
 10
-259.696609
 20
177.618371
 30
0.0
 11
-268.196609
 21
177.618371
 31
0.0
  0
LINE
  5
5A2
100
AcDbEntity
  8
3
370
    50
100
AcDbLine
 10
-268.696609
 20
177.118371
 30
0.0
 11
-250.696609
 21
177.118371
 31
0.0
  0
LINE
  5
5A3
100
AcDbEntity
  8
3
370
    50
100
AcDbLine
 10
-268.696609
 20
174.118371
 30
0.0
 11
-250.696609
 21
174.118371
 31
0.0
  0
LINE
  5
5A4
100
AcDbEntity
  8
3
370
    50
100
AcDbLine
 10
-273.696609
 20
180.818371
 30
0.0
 11
-273.696609
 21
187.418371
 31
0.0
  0
LINE
  5
5A5
100
AcDbEntity
  8
3
370
    25
100
AcDbLine
 10
-272.996609
 20
180.118371
 30
0.0
 11
-272.996609
 21
188.118371
 31
0.0
  0
LINE
  5
5A6
100
AcDbEntity
  8
3
370
    50
100
AcDbLine
 10
-272.996609
 20
180.118371
 30
0.0
 11
-273.696609
 21
180.818371
 31
0.0
  0
LINE
  5
5A7
100
AcDbEntity
  8
3
370
    50
100
AcDbLine
 10
-272.996609
 20
188.118371
 30
0.0
 11
-273.696609
 21
187.418371
 31
0.0
  0
LINE
  5
5A8
100
AcDbEntity
  8
3
370
    50
100
AcDbLine
 10
-273.696609
 20
187.418371
 30
0.0
 11
-245.696609
 21
187.418371
 31
0.0
  0
LINE
  5
5A9
100
AcDbEntity
  8
3
370
    50
100
AcDbLine
 10
-273.696609
 20
180.818371
 30
0.0
 11
-245.696609
 21
180.818371
 31
0.0
  0
LINE
  5
5AA
100
AcDbEntity
  8
3
370
    50
100
AcDbLine
 10
-245.696609
 20
180.818371
 30
0.0
 11
-245.696609
 21
187.418371
 31
0.0
  0
LINE
  5
5AB
100
AcDbEntity
  8
3
370
    25
100
AcDbLine
 10
-246.396609
 20
180.118371
 30
0.0
 11
-246.396609
 21
188.118371
 31
0.0
  0
LINE
  5
5AC
100
AcDbEntity
  8
3
370
    50
100
AcDbLine
 10
-246.396609
 20
188.118371
 30
0.0
 11
-245.696609
 21
187.418371
 31
0.0
  0
LINE
  5
5AD
100
AcDbEntity
  8
3
370
    50
100
AcDbLine
 10
-246.396609
 20
180.118371
 30
0.0
 11
-245.696609
 21
180.818371
 31
0.0
  0
LINE
  5
5AE
100
AcDbEntity
  8
3
370
    50
100
AcDbLine
 10
-250.696609
 20
179.818371
 30
0.0
 11
-268.696609
 21
179.818371
 31
0.0
  0
LINE
  5
5AF
100
AcDbEntity
  8
3
370
    50
100
AcDbLine
 10
-250.696609
 20
177.918371
 30
0.0
 11
-268.696609
 21
177.918371
 31
0.0
  0
ARC
  5
5B0
100
AcDbEntity
  8
3
370
    50
100
AcDbCircle
 10
-268.696609
 20
178.868371
 30
0.0
 40
0.95
100
AcDbArc
 50
90.0
 51
270.0
  0
LINE
  5
5B1
100
AcDbEntity
  8
3
370
    50
100
AcDbLine
 10
-267.746609
 20
177.618371
 30
0.0
 11
-267.746609
 21
177.918371
 31
0.0
  0
LINE
  5
5B2
100
AcDbEntity
  8
3
370
    50
100
AcDbLine
 10
-267.746609
 20
179.818371
 30
0.0
 11
-267.746609
 21
180.118371
 31
0.0
  0
ARC
  5
5B3
100
AcDbEntity
  8
3
370
    50
100
AcDbCircle
 10
-250.696609
 20
178.868371
 30
0.0
 40
0.95
100
AcDbArc
 50
270.0
 51
90.0
  0
LINE
  5
5B4
100
AcDbEntity
  8
3
370
    50
100
AcDbLine
 10
-251.646609
 20
177.618371
 30
0.0
 11
-251.646609
 21
177.918371
 31
0.0
  0
LINE
  5
5B5
100
AcDbEntity
  8
3
370
    50
100
AcDbLine
 10
-251.646609
 20
179.818371
 30
0.0
 11
-251.646609
 21
180.118371
 31
0.0
  0
LINE
  5
5B6
100
AcDbEntity
  8
3
370
    25
100
AcDbLine
 10
-261.596609
 20
177.918371
 30
0.0
 11
-259.696609
 21
179.818371
 31
0.0
  0
LINE
  5
5B7
100
AcDbEntity
  8
3
370
    25
100
AcDbLine
 10
-260.182396
 20
177.918371
 30
0.0
 11
-258.282396
 21
179.818371
 31
0.0
  0
LINE
  5
5B8
100
AcDbEntity
  8
3
370
    25
100
AcDbLine
 10
-258.768182
 20
177.918371
 30
0.0
 11
-256.868182
 21
179.818371
 31
0.0
  0
LINE
  5
5B9
100
AcDbEntity
  8
3
370
    25
100
AcDbLine
 10
-257.353969
 20
177.918371
 30
0.0
 11
-255.453969
 21
179.818371
 31
0.0
  0
LINE
  5
5BA
100
AcDbEntity
  8
3
370
    25
100
AcDbLine
 10
-255.939755
 20
177.918371
 30
0.0
 11
-254.039755
 21
179.818371
 31
0.0
  0
LINE
  5
5BB
100
AcDbEntity
  8
3
370
    25
100
AcDbLine
 10
-254.525542
 20
177.918371
 30
0.0
 11
-252.625542
 21
179.818371
 31
0.0
  0
LINE
  5
5BC
100
AcDbEntity
  8
3
370
    25
100
AcDbLine
 10
-253.111328
 20
177.918371
 30
0.0
 11
-251.211328
 21
179.818371
 31
0.0
  0
LINE
  5
5BD
100
AcDbEntity
  8
3
370
    25
100
AcDbLine
 10
-251.697115
 20
177.918371
 30
0.0
 11
-250.050585
 21
179.5649
 31
0.0
  0
LINE
  5
5BE
100
AcDbEntity
  8
3
370
    25
100
AcDbLine
 10
-263.010823
 20
177.918371
 30
0.0
 11
-261.110823
 21
179.818371
 31
0.0
  0
LINE
  5
5BF
100
AcDbEntity
  8
3
370
    25
100
AcDbLine
 10
-264.425037
 20
177.918371
 30
0.0
 11
-262.525037
 21
179.818371
 31
0.0
  0
LINE
  5
5C0
100
AcDbEntity
  8
3
370
    25
100
AcDbLine
 10
-265.83925
 20
177.918371
 30
0.0
 11
-263.93925
 21
179.818371
 31
0.0
  0
LINE
  5
5C1
100
AcDbEntity
  8
3
370
    25
100
AcDbLine
 10
-267.253464
 20
177.918371
 30
0.0
 11
-265.353464
 21
179.818371
 31
0.0
  0
LINE
  5
5C2
100
AcDbEntity
  8
3
370
    25
100
AcDbLine
 10
-268.667677
 20
177.918371
 30
0.0
 11
-266.767677
 21
179.818371
 31
0.0
  0
LINE
  5
5C3
100
AcDbEntity
  8
3
370
    25
100
AcDbLine
 10
-269.549768
 20
178.450494
 30
0.0
 11
-268.181891
 21
179.818371
 31
0.0
  0
LINE
  5
5C4
100
AcDbEntity
  8
3
370
    50
100
AcDbLine
 10
-216.675788
 20
180.868371
 30
0.0
 11
-221.675788
 21
185.868371
 31
0.0
  0
LINE
  5
5C5
100
AcDbEntity
  8
3
370
    50
100
AcDbLine
 10
-216.675788
 20
180.868371
 30
0.0
 11
-221.675788
 21
175.868371
 31
0.0
  0
LINE
  5
5C6
100
AcDbEntity
  8
3
370
    50
100
AcDbLine
 10
-236.675788
 20
180.868371
 30
0.0
 11
-231.675788
 21
185.868371
 31
0.0
  0
LINE
  5
5C7
100
AcDbEntity
  8
3
370
    50
100
AcDbLine
 10
-236.675788
 20
180.868371
 30
0.0
 11
-231.675788
 21
175.868371
 31
0.0
  0
LINE
  5
5C8
100
AcDbEntity
  8
3
370
    50
100
AcDbLine
 10
-231.675788
 20
175.868371
 30
0.0
 11
-231.675788
 21
177.868371
 31
0.0
  0
LINE
  5
5C9
100
AcDbEntity
  8
3
370
    50
100
AcDbLine
 10
-231.675788
 20
183.868371
 30
0.0
 11
-231.675788
 21
185.868371
 31
0.0
  0
LINE
  5
5CA
100
AcDbEntity
  8
3
370
    50
100
AcDbLine
 10
-221.675788
 20
175.868371
 30
0.0
 11
-221.675788
 21
177.868371
 31
0.0
  0
LINE
  5
5CB
100
AcDbEntity
  8
3
370
    50
100
AcDbLine
 10
-221.675788
 20
183.868371
 30
0.0
 11
-221.675788
 21
185.868371
 31
0.0
  0
LINE
  5
5CC
100
AcDbEntity
  8
3
370
    50
100
AcDbLine
 10
-221.675788
 20
177.868371
 30
0.0
 11
-231.675788
 21
177.868371
 31
0.0
  0
LINE
  5
5CD
100
AcDbEntity
  8
3
370
    50
100
AcDbLine
 10
-221.675788
 20
183.868371
 30
0.0
 11
-231.675788
 21
183.868371
 31
0.0
  0
LINE
  5
5CE
100
AcDbEntity
  8
3
370
    50
100
AcDbLine
 10
-272.69635
 20
189.618371
 30
0.0
 11
-272.69635
 21
188.118371
 31
0.0
  0
LINE
  5
5CF
100
AcDbEntity
  8
3
370
    50
100
AcDbLine
 10
-246.69635
 20
189.618371
 30
0.0
 11
-246.69635
 21
188.118371
 31
0.0
  0
LINE
  5
5D0
100
AcDbEntity
  8
3
370
    50
100
AcDbLine
 10
-272.696609
 20
189.618371
 30
0.0
 11
-246.69635
 21
189.618371
 31
0.0
  0
LINE
  5
5D1
100
AcDbEntity
  8
3
370
    50
100
AcDbLine
 10
-272.996609
 20
188.118371
 30
0.0
 11
-246.396609
 21
188.118371
 31
0.0
  0
HATCH
  5
5D2
100
AcDbEntity
  8
3
370
    25
100
AcDbHatch
 10
0.0
 20
0.0
 30
0.0
210
0.0
220
0.0
230
1.0
  2
_U
 70
     0
 71
     1
 91
        1
 92
        1
 93
        4
 72
     1
 10
-272.69635
 20
189.618371
 11
-246.69635
 21
189.618371
 72
     1
 10
-246.69635
 20
189.618371
 11
-246.69635
 21
188.118371
 72
     1
 10
-246.69635
 20
188.118371
 11
-272.69635
 21
188.118371
 72
     1
 10
-272.69635
 20
188.118371
 11
-272.69635
 21
189.618371
 97
        4
330
0
330
0
330
0
330
0
 75
     0
 76
     0
 52
45.0
 41
1.0
 77
     0
 78
     1
 53
45.0
 43
0.0
 44
0.0
 45
-1.4142140000000001
 46
1.4142140000000001
 79
     0
 98
        1
 10
0.0
 20
0.0
  0
LINE
  5
5D3
100
AcDbEntity
  8
3
370
    50
100
AcDbLine
 10
-206.654707
 20
191.118371
 30
0.0
 11
-206.654707
 21
188.118371
 31
0.0
  0
LINE
  5
5D4
100
AcDbEntity
  8
3
370
    50
100
AcDbLine
 10
-182.654707
 20
191.118371
 30
0.0
 11
-182.654707
 21
188.118371
 31
0.0
  0
LINE
  5
5D5
100
AcDbEntity
  8
3
370
    50
100
AcDbLine
 10
-182.654707
 20
191.118371
 30
0.0
 11
-206.654707
 21
191.118371
 31
0.0
  0
HATCH
  5
5D6
100
AcDbEntity
  8
3
370
    25
100
AcDbHatch
 10
0.0
 20
0.0
 30
0.0
210
0.0
220
0.0
230
1.0
  2
_U
 70
     0
 71
     1
 91
        1
 92
        1
 93
        4
 72
     1
 10
-206.654707
 20
191.118371
 11
-182.654707
 21
191.118371
 72
     1
 10
-182.654707
 20
191.118371
 11
-182.654707
 21
188.118371
 72
     1
 10
-182.654707
 20
188.118371
 11
-206.654966
 21
188.118371
 72
     1
 10
-206.654966
 20
188.118371
 11
-206.654707
 21
191.118371
 97
        4
330
0
330
0
330
0
330
0
 75
     0
 76
     0
 52
45.0
 41
1.0
 77
     0
 78
     1
 53
45.0
 43
0.0
 44
0.0
 45
-0.707107
 46
0.707107
 79
     0
 98
        1
 10
0.0
 20
0.0
  0
LINE
  5
5D7
100
AcDbEntity
  8
3
370
    50
100
AcDbLine
 10
-66.654966
 20
161.118371
 30
0.0
 11
-66.654966
 21
151.618119
 31
0.0
  0
LINE
  5
5D8
100
AcDbEntity
  8
3
370
    50
100
AcDbLine
 10
-51.154966
 20
161.118371
 30
0.0
 11
-93.154966
 21
161.118371
 31
0.0
  0
LINE
  5
5D9
100
AcDbEntity
  8
3
370
    50
100
AcDbLine
 10
-51.154966
 20
177.118371
 30
0.0
 11
-93.154966
 21
177.118371
 31
0.0
  0
LINE
  5
5DA
100
AcDbEntity
  8
3
370
    50
100
AcDbLine
 10
-50.654966
 20
176.618371
 30
0.0
 11
-50.654966
 21
161.618371
 31
0.0
  0
LINE
  5
5DB
100
AcDbEntity
  8
3
370
    50
100
AcDbLine
 10
-93.654966
 20
161.618371
 30
0.0
 11
-93.654966
 21
176.618371
 31
0.0
  0
LINE
  5
5DC
100
AcDbEntity
  8
3
370
    50
100
AcDbLine
 10
-92.654966
 20
151.618119
 30
0.0
 11
-92.654966
 21
161.118371
 31
0.0
  0
LINE
  5
5DD
100
AcDbEntity
  8
3
370
    50
100
AcDbLine
 10
-51.154966
 20
177.118371
 30
0.0
 11
-50.654966
 21
176.618371
 31
0.0
  0
LINE
  5
5DE
100
AcDbEntity
  8
3
370
    50
100
AcDbLine
 10
-50.654966
 20
161.618371
 30
0.0
 11
-51.154966
 21
161.118371
 31
0.0
  0
LINE
  5
5DF
100
AcDbEntity
  8
3
370
    50
100
AcDbLine
 10
-93.154966
 20
161.118371
 30
0.0
 11
-93.654966
 21
161.618371
 31
0.0
  0
LINE
  5
5E0
100
AcDbEntity
  8
3
370
    50
100
AcDbLine
 10
-93.654966
 20
176.618371
 30
0.0
 11
-93.154966
 21
177.118371
 31
0.0
  0
LINE
  5
5E1
100
AcDbEntity
  8
3
370
    50
100
AcDbLine
 10
-53.154966
 20
179.618371
 30
0.0
 11
-53.154966
 21
177.118371
 31
0.0
  0
LINE
  5
5E2
100
AcDbEntity
  8
3
370
    50
100
AcDbLine
 10
-76.154966
 20
179.618371
 30
0.0
 11
-76.154966
 21
177.118371
 31
0.0
  0
LINE
  5
5E3
100
AcDbEntity
  8
3
370
    50
100
AcDbLine
 10
-53.654966
 20
180.118371
 30
0.0
 11
-53.154966
 21
179.618371
 31
0.0
  0
LINE
  5
5E4
100
AcDbEntity
  8
3
370
    50
100
AcDbLine
 10
-75.654966
 20
180.118371
 30
0.0
 11
-76.154966
 21
179.618371
 31
0.0
  0
LINE
  5
5E5
100
AcDbEntity
  8
3
370
    50
100
AcDbLine
 10
-77.654966
 20
181.139388
 30
0.0
 11
-77.654966
 21
187.118371
 31
0.0
  0
LINE
  5
5E6
100
AcDbEntity
  8
3
370
    25
100
AcDbLine
 10
-76.633983
 20
180.118371
 30
0.0
 11
-76.633983
 21
188.118371
 31
0.0
  0
LINE
  5
5E7
100
AcDbEntity
  8
3
370
    50
100
AcDbLine
 10
-52.654966
 20
188.118371
 30
0.0
 11
-76.654966
 21
188.118371
 31
0.0
  0
LINE
  5
5E8
100
AcDbEntity
  8
3
370
    25
100
AcDbLine
 10
-52.675983
 20
180.118371
 30
0.0
 11
-52.675983
 21
188.118371
 31
0.0
  0
LINE
  5
5E9
100
AcDbEntity
  8
3
370
    50
100
AcDbLine
 10
-51.654966
 20
187.118371
 30
0.0
 11
-51.654966
 21
181.139388
 31
0.0
  0
LINE
  5
5EA
100
AcDbEntity
  8
3
370
    50
100
AcDbLine
 10
-77.654966
 20
187.118371
 30
0.0
 11
-76.654966
 21
188.118371
 31
0.0
  0
LINE
  5
5EB
100
AcDbEntity
  8
3
370
    50
100
AcDbLine
 10
-51.654966
 20
187.118371
 30
0.0
 11
-52.654966
 21
188.118371
 31
0.0
  0
LINE
  5
5EC
100
AcDbEntity
  8
3
370
    50
100
AcDbLine
 10
-52.675983
 20
180.118371
 30
0.0
 11
-51.654966
 21
181.139388
 31
0.0
  0
LINE
  5
5ED
100
AcDbEntity
  8
3
370
    50
100
AcDbLine
 10
-76.63395
 20
180.118371
 30
0.0
 11
-77.654966
 21
181.139388
 31
0.0
  0
LINE
  5
5EE
100
AcDbEntity
  8
3
370
    50
100
AcDbLine
 10
-76.633983
 20
180.118371
 30
0.0
 11
-52.675983
 21
180.118371
 31
0.0
  0
LINE
  5
5EF
100
AcDbEntity
  8
3
370
    50
100
AcDbLine
 10
-77.654966
 20
187.118371
 30
0.0
 11
-51.654966
 21
187.118371
 31
0.0
  0
LINE
  5
5F0
100
AcDbEntity
  8
3
370
    50
100
AcDbLine
 10
-51.654966
 20
181.139388
 30
0.0
 11
-77.654966
 21
181.139388
 31
0.0
  0
LINE
  5
5F1
100
AcDbEntity
  8
3
370
    50
100
AcDbLine
 10
-76.154966
 20
179.618371
 30
0.0
 11
-53.154966
 21
179.618371
 31
0.0
  0
LINE
  5
5F2
100
AcDbEntity
  8
3
370
    50
100
AcDbLine
 10
8.886677
 20
173.618371
 30
0.0
 11
-8.113323
 21
173.618371
 31
0.0
  0
LINE
  5
5F3
100
AcDbEntity
  8
3
370
    50
100
AcDbLine
 10
8.886677
 20
173.618371
 30
0.0
 11
9.386677
 21
174.118371
 31
0.0
  0
LINE
  5
5F4
100
AcDbEntity
  8
3
370
    50
100
AcDbLine
 10
9.386677
 20
174.118371
 30
0.0
 11
9.386677
 21
177.118371
 31
0.0
  0
LINE
  5
5F5
100
AcDbEntity
  8
3
370
    50
100
AcDbLine
 10
-8.613323
 20
174.118371
 30
0.0
 11
-8.613323
 21
177.118371
 31
0.0
  0
LINE
  5
5F6
100
AcDbEntity
  8
3
370
    50
100
AcDbLine
 10
-8.113323
 20
173.618371
 30
0.0
 11
-8.613323
 21
174.118371
 31
0.0
  0
LINE
  5
5F7
100
AcDbEntity
  8
3
370
    50
100
AcDbLine
 10
-12.913323
 20
180.118371
 30
0.0
 11
13.686677
 21
180.118371
 31
0.0
  0
LINE
  5
5F8
100
AcDbEntity
  8
3
370
    25
100
AcDbLine
 10
8.886677
 20
173.618371
 30
0.0
 11
8.886677
 21
177.618371
 31
0.0
  0
LINE
  5
5F9
100
AcDbEntity
  8
3
370
    25
100
AcDbLine
 10
-8.113323
 20
173.618371
 30
0.0
 11
-8.113323
 21
177.618371
 31
0.0
  0
LINE
  5
5FA
100
AcDbEntity
  8
3
370
    50
100
AcDbLine
 10
8.886677
 20
177.618371
 30
0.0
 11
9.386677
 21
177.118371
 31
0.0
  0
LINE
  5
5FB
100
AcDbEntity
  8
3
370
    50
100
AcDbLine
 10
-8.113323
 20
177.618371
 30
0.0
 11
-8.613323
 21
177.118371
 31
0.0
  0
LINE
  5
5FC
100
AcDbEntity
  8
3
370
    50
100
AcDbLine
 10
-8.113323
 20
177.618371
 30
0.0
 11
0.386677
 21
177.618371
 31
0.0
  0
LINE
  5
5FD
100
AcDbEntity
  8
3
370
    50
100
AcDbLine
 10
0.386677
 20
177.618371
 30
0.0
 11
8.886677
 21
177.618371
 31
0.0
  0
LINE
  5
5FE
100
AcDbEntity
  8
3
370
    50
100
AcDbLine
 10
9.386677
 20
177.118371
 30
0.0
 11
-8.613323
 21
177.118371
 31
0.0
  0
LINE
  5
5FF
100
AcDbEntity
  8
3
370
    50
100
AcDbLine
 10
9.386677
 20
174.118371
 30
0.0
 11
-8.613323
 21
174.118371
 31
0.0
  0
LINE
  5
600
100
AcDbEntity
  8
3
370
    50
100
AcDbLine
 10
14.386677
 20
180.818371
 30
0.0
 11
14.386677
 21
187.418371
 31
0.0
  0
LINE
  5
601
100
AcDbEntity
  8
3
370
    25
100
AcDbLine
 10
13.686677
 20
180.118371
 30
0.0
 11
13.686677
 21
188.118371
 31
0.0
  0
LINE
  5
602
100
AcDbEntity
  8
3
370
    50
100
AcDbLine
 10
13.686677
 20
180.118371
 30
0.0
 11
14.386677
 21
180.818371
 31
0.0
  0
LINE
  5
603
100
AcDbEntity
  8
3
370
    50
100
AcDbLine
 10
13.686677
 20
188.118371
 30
0.0
 11
14.386677
 21
187.418371
 31
0.0
  0
LINE
  5
604
100
AcDbEntity
  8
3
370
    50
100
AcDbLine
 10
14.386677
 20
187.418371
 30
0.0
 11
-13.613323
 21
187.418371
 31
0.0
  0
LINE
  5
605
100
AcDbEntity
  8
3
370
    50
100
AcDbLine
 10
14.386677
 20
180.818371
 30
0.0
 11
-13.613323
 21
180.818371
 31
0.0
  0
LINE
  5
606
100
AcDbEntity
  8
3
370
    50
100
AcDbLine
 10
-13.613323
 20
180.818371
 30
0.0
 11
-13.613323
 21
187.418371
 31
0.0
  0
LINE
  5
607
100
AcDbEntity
  8
3
370
    25
100
AcDbLine
 10
-12.913323
 20
180.118371
 30
0.0
 11
-12.913323
 21
188.118371
 31
0.0
  0
LINE
  5
608
100
AcDbEntity
  8
3
370
    50
100
AcDbLine
 10
-12.913323
 20
188.118371
 30
0.0
 11
-13.613323
 21
187.418371
 31
0.0
  0
LINE
  5
609
100
AcDbEntity
  8
3
370
    50
100
AcDbLine
 10
-12.913323
 20
180.118371
 30
0.0
 11
-13.613323
 21
180.818371
 31
0.0
  0
LINE
  5
60A
100
AcDbEntity
  8
3
370
    50
100
AcDbLine
 10
-8.613323
 20
179.818371
 30
0.0
 11
9.386677
 21
179.818371
 31
0.0
  0
LINE
  5
60B
100
AcDbEntity
  8
3
370
    50
100
AcDbLine
 10
-8.613323
 20
177.918371
 30
0.0
 11
9.386677
 21
177.918371
 31
0.0
  0
ARC
  5
60C
100
AcDbEntity
  8
3
370
    50
100
AcDbCircle
 10
9.386677
 20
178.868371
 30
0.0
 40
0.95
100
AcDbArc
 50
270.0
 51
90.0
  0
LINE
  5
60D
100
AcDbEntity
  8
3
370
    50
100
AcDbLine
 10
8.436677
 20
177.618371
 30
0.0
 11
8.436677
 21
177.918371
 31
0.0
  0
LINE
  5
60E
100
AcDbEntity
  8
3
370
    50
100
AcDbLine
 10
8.436677
 20
179.818371
 30
0.0
 11
8.436677
 21
180.118371
 31
0.0
  0
ARC
  5
60F
100
AcDbEntity
  8
3
370
    50
100
AcDbCircle
 10
-8.613323
 20
178.868371
 30
0.0
 40
0.95
100
AcDbArc
 50
90.0
 51
270.0
  0
LINE
  5
610
100
AcDbEntity
  8
3
370
    50
100
AcDbLine
 10
-7.663323
 20
177.618371
 30
0.0
 11
-7.663323
 21
177.918371
 31
0.0
  0
LINE
  5
611
100
AcDbEntity
  8
3
370
    50
100
AcDbLine
 10
-7.663323
 20
179.818371
 30
0.0
 11
-7.663323
 21
180.118371
 31
0.0
  0
HATCH
  5
612
100
AcDbEntity
  8
3
370
    25
100
AcDbHatch
 10
0.0
 20
0.0
 30
0.0
210
0.0
220
0.0
230
1.0
  2
_U
 70
     0
 71
     1
 91
        1
 92
        1
 93
        4
 72
     1
 10
9.3866770000000006
 20
179.81837100000001
 11
-8.6133229999999994
 21
179.81837100000001
 72
     2
 10
-8.6133229999999994
 20
178.868371
 40
0.95
 50
90.0
 51
270.0
 73
     1
 72
     1
 10
-8.6133229999999994
 20
177.91837100000001
 11
9.3866770000000006
 21
177.91837100000001
 72
     2
 10
9.3866770000000006
 20
178.868371
 40
0.95
 50
270.0
 51
90.0
 73
     1
 97
        4
330
0
330
0
330
0
330
0
 75
     0
 76
     0
 52
45.0
 41
1.0
 77
     0
 78
     1
 53
45.0
 43
0.0
 44
0.0
 45
-0.707107
 46
0.707107
 79
     0
 98
        1
 10
0.0
 20
0.0
  0
LINE
  5
613
100
AcDbEntity
  8
3
370
    50
100
AcDbLine
 10
-42.634145
 20
180.868371
 30
0.0
 11
-37.634145
 21
185.868371
 31
0.0
  0
LINE
  5
614
100
AcDbEntity
  8
3
370
    50
100
AcDbLine
 10
-42.634145
 20
180.868371
 30
0.0
 11
-37.634145
 21
175.868371
 31
0.0
  0
LINE
  5
615
100
AcDbEntity
  8
3
370
    50
100
AcDbLine
 10
-22.634145
 20
180.868371
 30
0.0
 11
-27.634145
 21
185.868371
 31
0.0
  0
LINE
  5
616
100
AcDbEntity
  8
3
370
    50
100
AcDbLine
 10
-22.634145
 20
180.868371
 30
0.0
 11
-27.634145
 21
175.868371
 31
0.0
  0
LINE
  5
617
100
AcDbEntity
  8
3
370
    50
100
AcDbLine
 10
-27.634145
 20
175.868371
 30
0.0
 11
-27.634145
 21
177.868371
 31
0.0
  0
LINE
  5
618
100
AcDbEntity
  8
3
370
    50
100
AcDbLine
 10
-27.634145
 20
183.868371
 30
0.0
 11
-27.634145
 21
185.868371
 31
0.0
  0
LINE
  5
619
100
AcDbEntity
  8
3
370
    50
100
AcDbLine
 10
-37.634145
 20
175.868371
 30
0.0
 11
-37.634145
 21
177.868371
 31
0.0
  0
LINE
  5
61A
100
AcDbEntity
  8
3
370
    50
100
AcDbLine
 10
-37.634145
 20
183.868371
 30
0.0
 11
-37.634145
 21
185.868371
 31
0.0
  0
LINE
  5
61B
100
AcDbEntity
  8
3
370
    50
100
AcDbLine
 10
-37.634145
 20
177.868371
 30
0.0
 11
-27.634145
 21
177.868371
 31
0.0
  0
LINE
  5
61C
100
AcDbEntity
  8
3
370
    50
100
AcDbLine
 10
-37.634145
 20
183.868371
 30
0.0
 11
-27.634145
 21
183.868371
 31
0.0
  0
LINE
  5
61D
100
AcDbEntity
  8
3
370
    50
100
AcDbLine
 10
13.386418
 20
189.618371
 30
0.0
 11
13.386418
 21
188.118371
 31
0.0
  0
LINE
  5
61E
100
AcDbEntity
  8
3
370
    50
100
AcDbLine
 10
-12.613582
 20
189.618371
 30
0.0
 11
-12.613582
 21
188.118371
 31
0.0
  0
LINE
  5
61F
100
AcDbEntity
  8
3
370
    50
100
AcDbLine
 10
13.386677
 20
189.618371
 30
0.0
 11
-12.613582
 21
189.618371
 31
0.0
  0
LINE
  5
620
100
AcDbEntity
  8
3
370
    50
100
AcDbLine
 10
13.686677
 20
188.118371
 30
0.0
 11
-12.913323
 21
188.118371
 31
0.0
  0
HATCH
  5
621
100
AcDbEntity
  8
3
370
    25
100
AcDbHatch
 10
0.0
 20
0.0
 30
0.0
210
0.0
220
0.0
230
1.0
  2
_U
 70
     0
 71
     1
 91
        1
 92
        1
 93
        4
 72
     1
 10
13.386418000000001
 20
189.618371
 11
-12.613581999999999
 21
189.618371
 72
     1
 10
-12.613581999999999
 20
189.618371
 11
-12.613581999999999
 21
188.118371
 72
     1
 10
-12.613581999999999
 20
188.118371
 11
13.386418000000001
 21
188.118371
 72
     1
 10
13.386418000000001
 20
188.118371
 11
13.386418000000001
 21
189.618371
 97
        4
330
0
330
0
330
0
330
0
 75
     0
 76
     0
 52
45.0
 41
1.0
 77
     0
 78
     1
 53
45.0
 43
0.0
 44
0.0
 45
-1.4142140000000001
 46
1.4142140000000001
 79
     0
 98
        1
 10
0.0
 20
0.0
  0
LINE
  5
622
100
AcDbEntity
  8
3
370
    50
100
AcDbLine
 10
-52.655226
 20
191.118371
 30
0.0
 11
-52.655226
 21
188.118371
 31
0.0
  0
LINE
  5
623
100
AcDbEntity
  8
3
370
    50
100
AcDbLine
 10
-76.655226
 20
191.118371
 30
0.0
 11
-76.655226
 21
188.118371
 31
0.0
  0
LINE
  5
624
100
AcDbEntity
  8
3
370
    50
100
AcDbLine
 10
-76.655226
 20
191.118371
 30
0.0
 11
-52.655226
 21
191.118371
 31
0.0
  0
HATCH
  5
625
100
AcDbEntity
  8
3
370
    25
100
AcDbHatch
 10
0.0
 20
0.0
 30
0.0
210
0.0
220
0.0
230
1.0
  2
_U
 70
     0
 71
     1
 91
        1
 92
        1
 93
        4
 72
     1
 10
-52.655225999999999
 20
191.118371
 11
-76.655225999999999
 21
191.118371
 72
     1
 10
-76.655225999999999
 20
191.118371
 11
-76.655225999999999
 21
188.118371
 72
     1
 10
-76.655225999999999
 20
188.118371
 11
-52.654966000000002
 21
188.118371
 72
     1
 10
-52.654966000000002
 20
188.118371
 11
-52.655225999999999
 21
191.118371
 97
        4
330
0
330
0
330
0
330
0
 75
     0
 76
     0
 52
45.0
 41
1.0
 77
     0
 78
     1
 53
45.0
 43
0.0
 44
0.0
 45
-0.707107
 46
0.707107
 79
     0
 98
        1
 10
0.0
 20
0.0
  0
POINT
  5
626
100
AcDbEntity
  8
3
370
    50
100
AcDbPoint
 10
-64.654983
 20
191.118371
 30
0.0
  0
POINT
  5
627
100
AcDbEntity
  8
3
370
    50
100
AcDbPoint
 10
-194.65495
 20
191.118371
 30
0.0
  0
POINT
  5
628
100
AcDbEntity
  8
3
370
    50
100
AcDbPoint
 10
-92.654966
 20
151.618119
 30
0.0
  0
LINE
  5
629
100
AcDbEntity
  8
3
370
    50
100
AcDbLine
 10
269.129776
 20
-118.78088
 30
0.0
 11
269.129776
 21
-76.78088
 31
0.0
  0
LINE
  5
62A
100
AcDbEntity
  8
3
370
    50
100
AcDbLine
 10
268.629776
 20
-119.28088
 30
0.0
 11
253.629776
 21
-119.28088
 31
0.0
  0
LINE
  5
62B
100
AcDbEntity
  8
3
370
    50
100
AcDbLine
 10
253.629776
 20
-76.28088
 30
0.0
 11
268.629776
 21
-76.28088
 31
0.0
  0
LINE
  5
62C
100
AcDbEntity
  8
3
370
    50
100
AcDbLine
 10
243.629525
 20
-77.28088
 30
0.0
 11
253.129776
 21
-77.28088
 31
0.0
  0
LINE
  5
62D
100
AcDbEntity
  8
3
370
    50
100
AcDbLine
 10
269.129776
 20
-118.78088
 30
0.0
 11
268.629776
 21
-119.28088
 31
0.0
  0
LINE
  5
62E
100
AcDbEntity
  8
3
370
    50
100
AcDbLine
 10
253.629776
 20
-119.28088
 30
0.0
 11
253.129776
 21
-118.78088
 31
0.0
  0
LINE
  5
62F
100
AcDbEntity
  8
3
370
    50
100
AcDbLine
 10
253.129776
 20
-76.78088
 30
0.0
 11
253.629776
 21
-76.28088
 31
0.0
  0
LINE
  5
630
100
AcDbEntity
  8
3
370
    50
100
AcDbLine
 10
268.629776
 20
-76.28088
 30
0.0
 11
269.129776
 21
-76.78088
 31
0.0
  0
LINE
  5
631
100
AcDbEntity
  8
3
370
    50
100
AcDbLine
 10
271.629776
 20
-116.78088
 30
0.0
 11
269.129776
 21
-116.78088
 31
0.0
  0
LINE
  5
632
100
AcDbEntity
  8
3
370
    50
100
AcDbLine
 10
271.629776
 20
-93.78088
 30
0.0
 11
269.129776
 21
-93.78088
 31
0.0
  0
LINE
  5
633
100
AcDbEntity
  8
3
370
    50
100
AcDbLine
 10
272.129776
 20
-116.28088
 30
0.0
 11
271.629776
 21
-116.78088
 31
0.0
  0
LINE
  5
634
100
AcDbEntity
  8
3
370
    50
100
AcDbLine
 10
272.129776
 20
-94.28088
 30
0.0
 11
271.629776
 21
-93.78088
 31
0.0
  0
LINE
  5
635
100
AcDbEntity
  8
3
370
    50
100
AcDbLine
 10
273.150793
 20
-92.28088
 30
0.0
 11
279.129776
 21
-92.28088
 31
0.0
  0
LINE
  5
636
100
AcDbEntity
  8
3
370
    25
100
AcDbLine
 10
272.129776
 20
-93.301863
 30
0.0
 11
280.129776
 21
-93.301863
 31
0.0
  0
LINE
  5
637
100
AcDbEntity
  8
3
370
    50
100
AcDbLine
 10
280.129776
 20
-117.28088
 30
0.0
 11
280.129776
 21
-93.28088
 31
0.0
  0
LINE
  5
638
100
AcDbEntity
  8
3
370
    25
100
AcDbLine
 10
272.129776
 20
-117.259863
 30
0.0
 11
280.129776
 21
-117.259863
 31
0.0
  0
LINE
  5
639
100
AcDbEntity
  8
3
370
    50
100
AcDbLine
 10
279.129776
 20
-118.28088
 30
0.0
 11
273.150793
 21
-118.28088
 31
0.0
  0
LINE
  5
63A
100
AcDbEntity
  8
3
370
    50
100
AcDbLine
 10
279.129776
 20
-92.28088
 30
0.0
 11
280.129776
 21
-93.28088
 31
0.0
  0
LINE
  5
63B
100
AcDbEntity
  8
3
370
    50
100
AcDbLine
 10
279.129776
 20
-118.28088
 30
0.0
 11
280.129776
 21
-117.28088
 31
0.0
  0
LINE
  5
63C
100
AcDbEntity
  8
3
370
    50
100
AcDbLine
 10
272.129776
 20
-117.259863
 30
0.0
 11
273.150793
 21
-118.28088
 31
0.0
  0
LINE
  5
63D
100
AcDbEntity
  8
3
370
    50
100
AcDbLine
 10
272.129776
 20
-93.301896
 30
0.0
 11
273.150793
 21
-92.28088
 31
0.0
  0
LINE
  5
63E
100
AcDbEntity
  8
3
370
    50
100
AcDbLine
 10
272.129776
 20
-93.301863
 30
0.0
 11
272.129776
 21
-117.259863
 31
0.0
  0
LINE
  5
63F
100
AcDbEntity
  8
3
370
    50
100
AcDbLine
 10
279.129776
 20
-92.28088
 30
0.0
 11
279.129776
 21
-118.28088
 31
0.0
  0
LINE
  5
640
100
AcDbEntity
  8
3
370
    50
100
AcDbLine
 10
273.150793
 20
-118.28088
 30
0.0
 11
273.150793
 21
-92.28088
 31
0.0
  0
LINE
  5
641
100
AcDbEntity
  8
3
370
    50
100
AcDbLine
 10
271.629776
 20
-93.78088
 30
0.0
 11
271.629776
 21
-116.78088
 31
0.0
  0
LINE
  5
642
100
AcDbEntity
  8
3
370
    50
100
AcDbLine
 10
253.129776
 20
-118.78088
 30
0.0
 11
253.129776
 21
-115.28088
 31
0.0
  0
LINE
  5
643
100
AcDbEntity
  8
3
370
    50
100
AcDbLine
 10
253.129776
 20
-115.28088
 30
0.0
 11
253.129776
 21
-76.78088
 31
0.0
  0
LINE
  5
644
100
AcDbEntity
  8
3
370
    50
100
AcDbLine
 10
253.129776
 20
-103.28088
 30
0.0
 11
243.629525
 21
-103.28088
 31
0.0
  0
LINE
  5
645
100
AcDbEntity
  8
3
370
    25
100
AcDbLine
 10
245.129776
 20
-102.259863
 30
0.0
 11
243.629525
 21
-102.259863
 31
0.0
  0
LINE
  5
646
100
AcDbEntity
  8
3
370
    50
100
AcDbLine
 10
245.129776
 20
-102.259863
 30
0.0
 11
246.898229
 21
-103.28088
 31
0.0
  0
LINE
  5
647
100
AcDbEntity
  8
3
370
    50
100
AcDbLine
 10
245.129776
 20
-78.301896
 30
0.0
 11
245.129776
 21
-102.259863
 31
0.0
  0
LINE
  5
648
100
AcDbEntity
  8
3
370
    50
100
AcDbLine
 10
245.129776
 20
-78.301896
 30
0.0
 11
246.898229
 21
-77.28088
 31
0.0
  0
LINE
  5
649
100
AcDbEntity
  8
3
370
    25
100
AcDbLine
 10
245.129776
 20
-78.301896
 30
0.0
 11
243.629525
 21
-78.301896
 31
0.0
  0
TEXT
  5
64A
100
AcDbEntity
  8
3
370
    50
100
AcDbText
 10
345.098131
 20
-256.100293
 30
0.0
 40
6.0
  1
１９　０９　１９
 72
     5
 11
391.898131
 21
-256.100293
 31
0.0
100
AcDbText
  0
TEXT
  5
64B
100
AcDbEntity
  8
3
370
    50
100
AcDbText
 10
336.070276
 20
-271.880939
 30
0.0
 40
6.4
  1
００２３０８
 72
     5
 11
373.190276
 21
-271.880939
 31
0.0
100
AcDbText
  0
LINE
  5
64C
100
AcDbEntity
  8
3
370
    50
100
AcDbLine
 10
224.129525
 20
-113.93887
 30
0.0
 11
224.129525
 21
-121.85124
 31
0.0
  0
LINE
  5
64D
100
AcDbEntity
  8
3
370
    50
100
AcDbLine
 10
212.129525
 20
-121.85124
 30
0.0
 11
224.275573
 21
-121.85124
 31
0.0
  0
LINE
  5
64E
100
AcDbEntity
  8
3
370
    50
100
AcDbLine
 10
224.275573
 20
-121.85124
 30
0.0
 11
225.075573
 21
-122.65124
 31
0.0
  0
LINE
  5
64F
100
AcDbEntity
  8
3
370
    25
100
AcDbLine
 10
224.129525
 20
-113.93887
 30
0.0
 11
219.129525
 21
-113.93887
 31
0.0
  0
LINE
  5
650
100
AcDbEntity
  8
3
370
    25
100
AcDbLine
 10
200.129525
 20
-113.93887
 30
0.0
 11
212.129525
 21
-113.93887
 31
0.0
  0
LINE
  5
651
100
AcDbEntity
  8
3
370
    50
100
AcDbLine
 10
200.129525
 20
-113.93887
 30
0.0
 11
200.129525
 21
-121.85124
 31
0.0
  0
LINE
  5
652
100
AcDbEntity
  8
3
370
    50
100
AcDbLine
 10
212.129525
 20
-121.85124
 30
0.0
 11
199.983476
 21
-121.85124
 31
0.0
  0
LINE
  5
653
100
AcDbEntity
  8
3
370
    50
100
AcDbLine
 10
199.983476
 20
-121.85124
 30
0.0
 11
199.183476
 21
-122.65124
 31
0.0
  0
LINE
  5
654
100
AcDbEntity
  8
3
370
    25
100
AcDbLine
 10
199.983476
 20
-121.85124
 30
0.0
 11
199.983476
 21
-122.65124
 31
0.0
  0
LINE
  5
655
100
AcDbEntity
  8
3
370
    50
100
AcDbLine
 10
-117.508918
 20
-121.85124
 30
0.0
 11
-129.654966
 21
-121.85124
 31
0.0
  0
LINE
  5
656
100
AcDbEntity
  8
3
370
    50
100
AcDbLine
 10
-117.654966
 20
-121.85124
 30
0.0
 11
-117.654966
 21
-113.93887
 31
0.0
  0
LINE
  5
657
100
AcDbEntity
  8
3
370
    25
100
AcDbLine
 10
-117.654966
 20
-113.93887
 30
0.0
 11
-129.654966
 21
-113.93887
 31
0.0
  0
LINE
  5
658
100
AcDbEntity
  8
3
370
    50
100
AcDbLine
 10
-117.508918
 20
-121.85124
 30
0.0
 11
-116.708918
 21
-122.65124
 31
0.0
  0
LINE
  5
659
100
AcDbEntity
  8
3
370
    25
100
AcDbLine
 10
-141.654966
 20
-113.93887
 30
0.0
 11
-129.654966
 21
-113.93887
 31
0.0
  0
LINE
  5
65A
100
AcDbEntity
  8
3
370
    50
100
AcDbLine
 10
-140.154966
 20
-112.15124
 30
0.0
 11
-141.654966
 21
-113.93887
 31
0.0
  0
LINE
  5
65B
100
AcDbEntity
  8
3
370
    50
100
AcDbLine
 10
-141.654966
 20
-121.85124
 30
0.0
 11
-141.654966
 21
-113.93887
 31
0.0
  0
LINE
  5
65C
100
AcDbEntity
  8
3
370
    50
100
AcDbLine
 10
-141.801015
 20
-121.85124
 30
0.0
 11
-129.654966
 21
-121.85124
 31
0.0
  0
LINE
  5
65D
100
AcDbEntity
  8
3
370
    25
100
AcDbLine
 10
-141.801015
 20
-121.85124
 30
0.0
 11
-141.801015
 21
-122.65124
 31
0.0
  0
LINE
  5
65E
100
AcDbEntity
  8
3
370
    50
100
AcDbLine
 10
-141.801015
 20
-121.85124
 30
0.0
 11
-142.601015
 21
-122.65124
 31
0.0
  0
LINE
  5
65F
100
AcDbEntity
  8
3
370
    50
100
AcDbLine
 10
-140.287671
 20
-193.750656
 30
0.0
 11
-119.022262
 21
-193.750656
 31
0.0
  0
LINE
  5
660
100
AcDbEntity
  8
3
370
    50
100
AcDbLine
 10
-141.654966
 20
-182.450656
 30
0.0
 11
-141.654966
 21
-190.250656
 31
0.0
  0
LINE
  5
661
100
AcDbEntity
  8
3
370
    50
100
AcDbLine
 10
-117.654966
 20
-182.450656
 30
0.0
 11
-117.654966
 21
-190.250656
 31
0.0
  0
LINE
  5
662
100
AcDbEntity
  8
3
370
    50
100
AcDbLine
 10
-117.654966
 20
-190.250656
 30
0.0
 11
-118.032312
 21
-192.892077
 31
0.0
  0
LINE
  5
663
100
AcDbEntity
  8
3
370
    50
100
AcDbLine
 10
-141.654966
 20
-190.250656
 30
0.0
 11
-141.27762
 21
-192.892077
 31
0.0
  0
ARC
  5
664
100
AcDbEntity
  8
3
370
    50
100
AcDbCircle
 10
-119.022262
 20
-192.750656
 30
0.0
 40
1.0
100
AcDbArc
 50
270.0
 51
351.869898
  0
ARC
  5
665
100
AcDbEntity
  8
3
370
    50
100
AcDbCircle
 10
-140.287671
 20
-192.750656
 30
0.0
 40
1.0
100
AcDbArc
 50
188.130102
 51
270.0
  0
LINE
  5
666
100
AcDbEntity
  8
3
370
    25
100
AcDbLine
 10
-141.088682
 20
-190.250656
 30
0.0
 11
-118.486509
 21
-190.250656
 31
0.0
  0
LINE
  5
667
100
AcDbEntity
  8
3
370
    50
100
AcDbLine
 10
-121.754966
 20
-132.65124
 30
0.0
 11
-121.754966
 21
-147.399578
 31
0.0
  0
LINE
  5
668
100
AcDbEntity
  8
3
370
    50
100
AcDbLine
 10
-137.554966
 20
-132.65124
 30
0.0
 11
-137.554966
 21
-147.399578
 31
0.0
  0
LINE
  5
669
100
AcDbEntity
  8
3
370
    50
100
AcDbLine
 10
-141.454966
 20
-182.250656
 30
0.0
 11
-117.854966
 21
-182.250656
 31
0.0
  0
LINE
  5
66A
100
AcDbEntity
  8
3
370
    50
100
AcDbLine
 10
-117.854966
 20
-182.250656
 30
0.0
 11
-117.654966
 21
-182.450656
 31
0.0
  0
LINE
  5
66B
100
AcDbEntity
  8
3
370
    50
100
AcDbLine
 10
-141.454966
 20
-182.250656
 30
0.0
 11
-141.654966
 21
-182.450656
 31
0.0
  0
ARC
  5
66C
100
AcDbEntity
  8
3
370
    50
100
AcDbCircle
 10
-117.404966
 20
-157.150656
 30
0.0
 40
25.0
100
AcDbArc
 50
166.204472
 51
180.0
  0
ARC
  5
66D
100
AcDbEntity
  8
3
370
    50
100
AcDbCircle
 10
-129.654966
 20
-160.150656
 30
0.0
 40
15.0
100
AcDbArc
 50
36.686015
 51
143.313985
  0
ARC
  5
66E
100
AcDbEntity
  8
3
370
    50
100
AcDbCircle
 10
-141.904966
 20
-157.150656
 30
0.0
 40
25.0
100
AcDbArc
 50
0.0
 51
13.795528
  0
LINE
  5
66F
100
AcDbEntity
  8
3
370
    50
100
AcDbLine
 10
-116.904966
 20
-157.150656
 30
0.0
 11
-116.904966
 21
-178.650656
 31
0.0
  0
LINE
  5
670
100
AcDbEntity
  8
3
370
    50
100
AcDbLine
 10
-142.404966
 20
-157.150656
 30
0.0
 11
-142.404966
 21
-178.650656
 31
0.0
  0
LINE
  5
671
100
AcDbEntity
  8
3
370
    25
100
AcDbLine
 10
-141.654966
 20
-178.650656
 30
0.0
 11
-141.654966
 21
-151.150656
 31
0.0
  0
LINE
  5
672
100
AcDbEntity
  8
3
370
    50
100
AcDbLine
 10
-142.404966
 20
-178.650656
 30
0.0
 11
-141.749649
 21
-181.271924
 31
0.0
  0
LINE
  5
673
100
AcDbEntity
  8
3
370
    50
100
AcDbLine
 10
-116.904966
 20
-178.650656
 30
0.0
 11
-117.560283
 21
-181.271924
 31
0.0
  0
LINE
  5
674
100
AcDbEntity
  8
3
370
    25
100
AcDbLine
 10
-117.654966
 20
-178.650656
 30
0.0
 11
-117.654966
 21
-151.150656
 31
0.0
  0
LINE
  5
675
100
AcDbEntity
  8
3
370
    50
100
AcDbLine
 10
-118.904966
 20
-182.250656
 30
0.0
 11
-118.904966
 21
-181.650656
 31
0.0
  0
LINE
  5
676
100
AcDbEntity
  8
3
370
    50
100
AcDbLine
 10
-140.404966
 20
-182.250656
 30
0.0
 11
-140.404966
 21
-181.650656
 31
0.0
  0
LINE
  5
677
100
AcDbEntity
  8
3
370
    50
100
AcDbLine
 10
-118.045355
 20
-181.650656
 30
0.0
 11
-141.264578
 21
-181.650656
 31
0.0
  0
ARC
  5
678
100
AcDbEntity
  8
3
370
    50
100
AcDbCircle
 10
-141.264578
 20
-181.150656
 30
0.0
 40
0.5
100
AcDbArc
 50
194.036243
 51
270.0
  0
ARC
  5
679
100
AcDbEntity
  8
3
370
    50
100
AcDbCircle
 10
-118.045355
 20
-181.150656
 30
0.0
 40
0.5
100
AcDbArc
 50
270.0
 51
345.963757
  0
LINE
  5
67A
100
AcDbEntity
  8
3
370
    50
100
AcDbLine
 10
54.229525
 20
-176.34524
 30
0.0
 11
54.229525
 21
-180.34524
 31
0.0
  0
ARC
  5
67B
100
AcDbEntity
  8
3
370
    50
100
AcDbCircle
 10
53.479525
 20
-181.34524
 30
0.0
 40
0.5
100
AcDbArc
 50
90.0
 51
180.0
  0
LINE
  5
67C
100
AcDbEntity
  8
3
370
    50
100
AcDbLine
 10
62.229525
 20
-168.34524
 30
0.0
 11
86.229525
 21
-168.34524
 31
0.0
  0
ARC
  5
67D
100
AcDbEntity
  8
3
370
    50
100
AcDbCircle
 10
62.229525
 20
-176.34524
 30
0.0
 40
8.0
100
AcDbArc
 50
90.0
 51
180.0
  0
ARC
  5
67E
100
AcDbEntity
  8
3
370
    50
100
AcDbCircle
 10
53.729525
 20
-180.34524
 30
0.0
 40
0.5
100
AcDbArc
 50
270.0
 51
360.0
  0
LINE
  5
67F
100
AcDbEntity
  8
3
370
    50
100
AcDbLine
 10
52.979525
 20
-181.34524
 30
0.0
 11
52.979525
 21
-181.44524
 31
0.0
  0
LINE
  5
680
100
AcDbEntity
  8
3
370
    50
100
AcDbLine
 10
53.729525
 20
-180.84524
 30
0.0
 11
30.729525
 21
-180.84524
 31
0.0
  0
ARC
  5
681
100
AcDbEntity
  8
3
370
    50
100
AcDbCircle
 10
86.229525
 20
-159.84524
 30
0.0
 40
8.5
100
AcDbArc
 50
270.0
 51
298.072487
  0
LINE
  5
682
100
AcDbEntity
  8
3
370
    50
100
AcDbLine
 10
90.229525
 20
-145.34524
 30
0.0
 11
90.229525
 21
-167.34524
 31
0.0
  0
LINE
  5
683
100
AcDbEntity
  8
3
370
    50
100
AcDbLine
 10
62.229525
 20
-144.34524
 30
0.0
 11
86.229525
 21
-144.34524
 31
0.0
  0
ARC
  5
684
100
AcDbEntity
  8
3
370
    50
100
AcDbCircle
 10
62.229525
 20
-176.34524
 30
0.0
 40
32.0
100
AcDbArc
 50
90.0
 51
180.0
  0
LINE
  5
685
100
AcDbEntity
  8
3
370
    50
100
AcDbLine
 10
30.229525
 20
-176.34524
 30
0.0
 11
30.229525
 21
-180.34524
 31
0.0
  0
ARC
  5
686
100
AcDbEntity
  8
3
370
    50
100
AcDbCircle
 10
30.729525
 20
-180.34524
 30
0.0
 40
0.5
100
AcDbArc
 50
180.0
 51
270.0
  0
LINE
  5
687
100
AcDbEntity
  8
3
370
    50
100
AcDbLine
 10
31.479525
 20
-181.34524
 30
0.0
 11
31.479525
 21
-181.44524
 31
0.0
  0
ARC
  5
688
100
AcDbEntity
  8
3
370
    50
100
AcDbCircle
 10
30.979525
 20
-181.34524
 30
0.0
 40
0.5
100
AcDbArc
 50
0.0
 51
90.0
  0
ARC
  5
689
100
AcDbEntity
  8
3
370
    50
100
AcDbCircle
 10
86.229525
 20
-152.84524
 30
0.0
 40
8.5
100
AcDbArc
 50
61.927513
 51
90.0
  0
LINE
  5
68A
100
AcDbEntity
  8
3
370
    50
100
AcDbLine
 10
90.229525
 20
-148.44524
 30
0.0
 11
192.229525
 21
-148.44524
 31
0.0
  0
LINE
  5
68B
100
AcDbEntity
  8
3
370
    50
100
AcDbLine
 10
90.229525
 20
-164.24524
 30
0.0
 11
192.229525
 21
-164.24524
 31
0.0
  0
LINE
  5
68C
100
AcDbEntity
  8
3
370
    50
100
AcDbLine
 10
220.129525
 20
-136.34524
 30
0.0
 11
220.129525
 21
-132.65124
 31
0.0
  0
LINE
  5
68D
100
AcDbEntity
  8
3
370
    50
100
AcDbLine
 10
204.329525
 20
-136.34524
 30
0.0
 11
204.329525
 21
-132.65124
 31
0.0
  0
ARC
  5
68E
100
AcDbEntity
  8
3
370
    50
100
AcDbCircle
 10
192.229525
 20
-136.34524
 30
0.0
 40
12.1
100
AcDbArc
 50
270.0
 51
360.0
  0
ARC
  5
68F
100
AcDbEntity
  8
3
370
    50
100
AcDbCircle
 10
192.229525
 20
-136.34524
 30
0.0
 40
27.9
100
AcDbArc
 50
270.0
 51
360.0
  0
LINE
  5
690
100
AcDbEntity
  8
3
370
    50
100
AcDbLine
 10
54.029525
 20
-181.44524
 30
0.0
 11
30.429525
 21
-181.44524
 31
0.0
  0
LINE
  5
691
100
AcDbEntity
  8
3
370
    50
100
AcDbLine
 10
54.229525
 20
-181.64524
 30
0.0
 11
54.029525
 21
-181.44524
 31
0.0
  0
LINE
  5
692
100
AcDbEntity
  8
3
370
    50
100
AcDbLine
 10
54.229525
 20
-181.64524
 30
0.0
 11
54.229525
 21
-189.44524
 31
0.0
  0
LINE
  5
693
100
AcDbEntity
  8
3
370
    50
100
AcDbLine
 10
54.229525
 20
-189.44524
 30
0.0
 11
53.852179
 21
-192.086661
 31
0.0
  0
ARC
  5
694
100
AcDbEntity
  8
3
370
    50
100
AcDbCircle
 10
52.862229
 20
-191.94524
 30
0.0
 40
1.0
100
AcDbArc
 50
270.0
 51
351.869898
  0
LINE
  5
695
100
AcDbEntity
  8
3
370
    50
100
AcDbLine
 10
31.59682
 20
-192.94524
 30
0.0
 11
52.862229
 21
-192.94524
 31
0.0
  0
ARC
  5
696
100
AcDbEntity
  8
3
370
    50
100
AcDbCircle
 10
31.59682
 20
-191.94524
 30
0.0
 40
1.0
100
AcDbArc
 50
188.130102
 51
270.0
  0
LINE
  5
697
100
AcDbEntity
  8
3
370
    50
100
AcDbLine
 10
30.229525
 20
-189.44524
 30
0.0
 11
30.606871
 21
-192.086661
 31
0.0
  0
LINE
  5
698
100
AcDbEntity
  8
3
370
    50
100
AcDbLine
 10
30.229525
 20
-181.64524
 30
0.0
 11
30.229525
 21
-189.44524
 31
0.0
  0
LINE
  5
699
100
AcDbEntity
  8
3
370
    50
100
AcDbLine
 10
30.229525
 20
-181.64524
 30
0.0
 11
30.429525
 21
-181.44524
 31
0.0
  0
LINE
  5
69A
100
AcDbEntity
  8
3
370
    25
100
AcDbLine
 10
62.229525
 20
-148.34524
 30
0.0
 11
86.229525
 21
-148.34524
 31
0.0
  0
ARC
  5
69B
100
AcDbEntity
  8
3
370
    25
100
AcDbCircle
 10
62.229525
 20
-176.34524
 30
0.0
 40
28.0
100
AcDbArc
 50
90.0
 51
180.0
  0
LINE
  5
69C
100
AcDbEntity
  8
3
370
    25
100
AcDbLine
 10
62.229525
 20
-164.34524
 30
0.0
 11
86.229525
 21
-164.34524
 31
0.0
  0
ARC
  5
69D
100
AcDbEntity
  8
3
370
    25
100
AcDbCircle
 10
62.229525
 20
-176.34524
 30
0.0
 40
12.0
100
AcDbArc
 50
90.0
 51
180.0
  0
LINE
  5
69E
100
AcDbEntity
  8
3
370
    50
100
AcDbLine
 10
31.59682
 20
-188.94524
 30
0.0
 11
52.862229
 21
-188.94524
 31
0.0
  0
POINT
  5
69F
100
AcDbEntity
  8
3
370
    50
100
AcDbPoint
 10
42.229525
 20
-192.94524
 30
0.0
  0
POINT
  5
6A0
100
AcDbEntity
  8
3
370
    50
100
AcDbPoint
 10
37.249533
 20
-156.34524
 30
0.0
  0
ENDSEC
  0
SECTION
  2
OBJECTS
  0
DICTIONARY
  5
750
100
AcDbDictionary
280
     0
281
     1
  3
ACAD_GROUP
350
751
  3
ACAD_MLINESTYLE
350
752
  0
DICTIONARY
  5
751
102
{ACAD_REACTORS
330
750
102
}
100
AcDbDictionary
280
     0
281
     1
  0
DICTIONARY
  5
752
102
{ACAD_REACTORS
330
750
102
}
100
AcDbDictionary
280
     0
281
     1
  3
Standard
350
753
  0
MLINESTYLE
  5
753
102
{ACAD_REACTORS
330
752
102
}
100
AcDbMlineStyle
  2
Standard
 70
     0
  3

 62
     0
 51
90.0
 52
90.0
 71
     2
 49
0.5
 62
   256
  6
ByLayer
 49
-0.5
 62
   256
  6
ByLayer
  0
ENDSEC
  0
EOF
