  0
SECTION
  2
HEADER
  9
$ACADVER
  1
AC1015
  9
$ACADMAINTVER
 70
     6
  9
$DWGCODEPAGE
  3
ANSI_932
  9
$INSBASE
 10
0.0
 20
0.0
 30
0.0
  9
$EXTMIN
 10
-841.0
 20
-594.0
 30
1.000000E+20
  9
$EXTMAX
 10
841.0
 20
594.0
 30
-1.000000E+20
  9
$LIMMIN
 10
-841.0
 20
-594.0
  9
$LIMMAX
 10
841.0
 20
594.0
  9
$ORTHOMODE
 70
     0
  9
$REGENMODE
 70
     1
  9
$FILLMODE
 70
     1
  9
$QTEXTMODE
 70
     0
  9
$MIRRTEXT
 70
     1
  9
$LTSCALE
 40
1.0
  9
$ATTMODE
 70
     1
  9
$TEXTSIZE
 40
0.2
  9
$TRACEWID
 40
0.05
  9
$TEXTSTYLE
  7
STANDARD
  9
$CLAYER
  8
0
  9
$CELTYPE
  6
CONTINUOUS
  9
$CECOLOR
 62
   256
  9
$CELTSCALE
 40
1.0
  9
$DISPSILH
 70
     0
  9
$DIMSCALE
 40
2.0
  9
$DIMASZ
 40
2.0
  9
$DIMEXO
 40
1.0
  9
$DIMDLI
 40
0.38
  9
$DIMRND
 40
0.0
  9
$DIMDLE
 40
0.0
  9
$DIMEXE
 40
2.0
  9
$DIMTP
 40
0.0
  9
$DIMTM
 40
0.0
  9
$DIMTXT
 40
3.5
  9
$DIMCEN
 40
0.09
  9
$DIMTSZ
 40
0.0
  9
$DIMTOL
 70
     0
  9
$DIMLIM
 70
     0
  9
$DIMTIH
 70
     0
  9
$DIMTOH
 70
     0
  9
$DIMSE1
 70
     0
  9
$DIMSE2
 70
     0
  9
$DIMTAD
 70
     1
  9
$DIMZIN
 70
     0
  9
$DIMBLK
  1

  9
$DIMASO
 70
     1
  9
$DIMSHO
 70
     1
  9
$DIMPOST
  1

  9
$DIMAPOST
  1

  9
$DIMALT
 70
     0
  9
$DIMALTD
 70
     2
  9
$DIMALTF
 40
25.4
  9
$DIMLFAC
 40
1.0
  9
$DIMTOFL
 70
     0
  9
$DIMTVP
 40
0.0
  9
$DIMTIX
 70
     0
  9
$DIMSOXD
 70
     0
  9
$DIMSAH
 70
     0
  9
$DIMBLK1
  1

  9
$DIMBLK2
  1

  9
$DIMSTYLE
  2
Standard
  9
$DIMCLRD
 70
     0
  9
$DIMCLRE
 70
     0
  9
$DIMCLRT
 70
     0
  9
$DIMTFAC
 40
1.0
  9
$DIMGAP
 40
0.5
  9
$DIMJUST
 70
     0
  9
$DIMSD1
 70
     0
  9
$DIMSD2
 70
     0
  9
$DIMTOLJ
 70
     1
  9
$DIMTZIN
 70
     0
  9
$DIMALTZ
 70
     0
  9
$DIMALTTZ
 70
     0
  9
$DIMUPT
 70
     0
  9
$DIMDEC
 70
     3
  9
$DIMTDEC
 70
     4
  9
$DIMALTU
 70
     2
  9
$DIMALTTD
 70
     2
  9
$DIMTXSTY
  7
STANDARD
  9
$DIMAUNIT
 70
     0
  9
$DIMADEC
 70
     0
  9
$DIMALTRND
 40
0.0
  9
$DIMAZIN
 70
     0
  9
$DIMDSEP
 70
     0
  9
$DIMATFIT
 70
     3
  9
$DIMFRAC
 70
     0
  9
$DIMLDRBLK
  1

  9
$DIMLUNIT
 70
     2
  9
$DIMLWD
 70
     0
  9
$DIMLWE
 70
     0
  9
$DIMTMOVE
 70
     0
  9
$LUNITS
 70
     2
  9
$LUPREC
 70
     4
  9
$SKETCHINC
 40
0.1
  9
$FILLETRAD
 40
0.0
  9
$AUNITS
 70
     0
  9
$AUPREC
 70
     0
  9
$MENU
  1
acad
  9
$ELEVATION
 40
0.0
  9
$PELEVATION
 40
0.0
  9
$THICKNESS
 40
0.0
  9
$LIMCHECK
 70
     0
  9
$CHAMFERA
 40
0.0
  9
$CHAMFERB
 40
0.0
  9
$CHAMFERC
 40
0.0
  9
$CHAMFERD
 40
0.0
  9
$SKPOLY
 70
     0
  9
$TDCREATE
 40
2453383.000000000
  9
$TDUCREATE
 40
0.000000000
  9
$TDUPDATE
 40
0.000000000
  9
$TDUUPDATE
 40
2447892.625000000
  9
$TDINDWG
 40
0.0000000000
  9
$TDUSRTIMER
 40
0.0000000000
  9
$USRTIMER
 70
     1
  9
$ANGBASE
 50
0.0
  9
$ANGDIR
 70
     0
  9
$PDMODE
 70
     0
  9
$PDSIZE
 40
0.0
  9
$PLINEWID
 40
0.0
  9
$SPLFRAME
 70
     0
  9
$SPLINETYPE
 70
     6
  9
$SPLINESEGS
 70
     8
  9
$HANDSEED
  5
40B
  9
$SURFTAB1
 70
     6
  9
$SURFTAB2
 70
     6
  9
$SURFTYPE
 70
     6
  9
$SURFU
 70
     6
  9
$SURFV
 70
     6
  9
$UCSBASE
  2

  9
$UCSNAME
  2

  9
$UCSORG
 10
0.0
 20
0.0
 30
0.0
  9
$UCSXDIR
 10
1.0
 20
0.0
 30
0.0
  9
$UCSYDIR
 10
0.0
 20
1.0
 30
0.0
  9
$UCSORTHOREF
  2

  9
$UCSORTHOVIEW
 70
     0
  9
$UCSORGTOP
 10
0.0
 20
0.0
 30
0.0
  9
$UCSORGBOTTOM
 10
0.0
 20
0.0
 30
0.0
  9
$UCSORGLEFT
 10
0.0
 20
0.0
 30
0.0
  9
$UCSORGRIGHT
 10
0.0
 20
0.0
 30
0.0
  9
$UCSORGFRONT
 10
0.0
 20
0.0
 30
0.0
  9
$UCSORGBACK
 10
0.0
 20
0.0
 30
0.0
  9
$PUCSBASE
  2

  9
$PUCSNAME
  2

  9
$PUCSORG
 10
0.0
 20
0.0
 30
0.0
  9
$PUCSXDIR
 10
1.0
 20
0.0
 30
0.0
  9
$PUCSYDIR
 10
0.0
 20
1.0
 30
0.0
  9
$PUCSORTHOREF
  2

  9
$PUCSORTHOVIEW
 70
     0
  9
$PUCSORGTOP
 10
0.0
 20
0.0
 30
0.0
  9
$PUCSORGBOTTOM
 10
0.0
 20
0.0
 30
0.0
  9
$PUCSORGLEFT
 10
0.0
 20
0.0
 30
0.0
  9
$PUCSORGRIGHT
 10
0.0
 20
0.0
 30
0.0
  9
$PUCSORGFRONT
 10
0.0
 20
0.0
 30
0.0
  9
$PUCSORGBACK
 10
0.0
 20
0.0
 30
0.0
  9
$USERI1
 70
     0
  9
$USERI2
 70
     0
  9
$USERI3
 70
     0
  9
$USERI4
 70
     0
  9
$USERI5
 70
     0
  9
$USERR1
 40
0.0
  9
$USERR2
 40
0.0
  9
$USERR3
 40
0.0
  9
$USERR4
 40
0.0
  9
$USERR5
 40
0.0
  9
$WORLDVIEW
 70
     1
  9
$SHADEDGE
 70
     3
  9
$SHADEDIF
 70
    70
  9
$TILEMODE
 70
     1
  9
$MAXACTVP
 70
    16
  9
$PINSBASE
 10
0.0
 20
0.0
 30
0.0
  9
$PLIMCHECK
 70
     0
  9
$PEXTMIN
 10
1.000000E+20
 20
1.000000E+20
 30
1.000000E+20
  9
$PEXTMAX
 10
-1.000000E+20
 20
-1.000000E+20
 30
-1.000000E+20
  9
$PLIMMIN
 10
0.0
 20
0.0
  9
$PLIMMAX
 10
12.0
 20
9.0
  9
$UNITMODE
 70
     0
  9
$VISRETAIN
 70
     0
  9
$PLINEGEN
 70
     1
  9
$PSLTSCALE
 70
     0
  9
$TREEDEPTH
 70
  3020
  9
$CMLSTYLE
  2
Standard
  9
$CMLJUST
 70
     0
  9
$CMLSCALE
 40
1.0
  9
$PROXYGRAPHICS
 70
     0
  9
$MEASUREMENT
 70
     0
  9
$CELWEIGHT
370
     0
  9
$ENDCAPS
280
     0
  9
$JOINSTYLE
280
     0
  9
$LWDISPLAY
290
     0
  9
$INSUNITS
 70
     0
  9
$HYPERLINKBASE
  1

  9
$STYLESHEET
  1

  9
$XEDIT
290
     1
  9
$CEPSNTYPE
380
     0
  9
$PSTYLEMODE
290
     1
  9
$FINGERPRINTGUID
  2

  9
$VERSIONGUID
  2

  9
$EXTNAMES
290
     1
  9
$PSVPSCALE
 40
0.0
  0
ENDSEC
  0
SECTION
  2
CLASSES
  0
CLASS
  1
LWPOLYLINE
  2
AcDbPolyline
  3
AutoCAD 2000
 90
        0
280
     0
281
     1
  0
CLASS
  1
IMAGE
  2
AcDbRasterImage
  3
ISM
 90
      127
280
     0
281
     1
  0
CLASS
  1
OLE2FRAME
  2
AcDbOle2Frame
  3
AutoCAD 2000
 90
        0
280
     0
281
     1
  0
CLASS
  1
HATCH
  2
AcDbHatch
  3
AutoCAD 2000
 90
        0
280
     0
281
     1
  0
CLASS
  1
DICTIONARYVAR
  2
AcDbDictionaryVar
  3
AutoCAD 2000
 90
        0
280
     0
281
     0
  0
CLASS
  1
RASTERVARIABLES
  2
AcDbRasterVariables
  3
ISM
 90
        0
280
     0
281
     0
  0
CLASS
  1
IMAGEDEF
  2
AcDbRasterImageDef
  3
ISM
 90
        0
280
     0
281
     0
  0
CLASS
  1
IMAGEDEF_REACTOR
  2
AcDbRasterImageDefReactor
  3
ISM
 90
        1
280
     0
281
     0
  0
CLASS
  1
IDBUFFER
  2
AcDbIdBuffer
  3
AutoCAD 2000
 90
        0
280
     0
281
     0
  0
CLASS
  1
SPATIAL_FILTER
  2
AcDbSpatialFilter
  3
AutoCAD 2000
 90
        0
280
     0
281
     0
  0
CLASS
  1
XRECORD
  2
AcDbXrecord
  3
AutoCAD 2000
 90
        0
280
     0
281
     0
  0
CLASS
  1
SORTENTSTABLE
  2
AcDbSortentsTable
  3
AutoCAD 2000
 90
        0
280
     0
281
     0
  0
CLASS
  1
LAYER_INDEX
  2
AcDbLayerIndex
  3
AutoCAD 2000
 90
        0
280
     0
281
     0
  0
CLASS
  1
SPATIAL_INDEX
  2
AcDbSpatialIndex
  3
AutoCAD 2000
 90
        0
280
     0
281
     0
  0
CLASS
  1
OBJECT_PTR
  2
CAseDLPNTableRecord
  3
"ASE-LPNTableRecord"
 90
        1
280
     0
281
     0
  0
CLASS
  1
LAYOUT
  2
AcDbLayout
  3
AutoCAD 2000
 90
        0
280
     0
281
     0
  0
CLASS
  1
PLOTSETTINGS
  2
AcDbPlotSettings
  3
AutoCAD 2000
 90
        0
280
     0
281
     0
  0
CLASS
  1
ACDBDICTIONARYWDFLT
  2
AcDbDictionaryWithDefault
  3
AutoCAD 2000
 90
        0
280
     0
281
     0
  0
CLASS
  1
ACDBPLACEHOLDER
  2
AcDbPlaceHolder
  3
AutoCAD 2000
 90
        0
280
     0
281
     0
  0
CLASS
  1
VBA_PROJECT
  2
AcDbVbaProject
  3
acadvba
 90
        0
280
     0
281
     0
  0
CLASS
  1
WIPEOUT
  2
AcDbWipeout
  3
WipeOut|AutoCAD Express Tool|expresstools@autodesk.com
 90
      127
280
     0
281
     1
  0
CLASS
  1
WIPEOUTVARIABLES
  2
AcDbWipeoutVariables
  3
WipeOut|AutoCAD Express Tool|expresstools@autodesk.com
 90
        0
280
     0
281
     0
  0
CLASS
  1
RTEXT
  2
RText
  3
RText|AutoCAD Express Tool|expresstools@autodesk.com
 90
        0
280
     0
281
     1
  0
CLASS
  1
ARCALIGNEDTEXT
  2
AcDbArcAlignedText
  3
ATEXT|AutoCAD Express Tool|expresstools@autodesk.com
 90
        0
280
     0
281
     1
  0
ENDSEC
  0
SECTION
  2
TABLES
  0
TABLE
  2
VPORT
  5
6
100
AcDbSymbolTable
 70
     1
  0
VPORT
  5
19
100
AcDbSymbolTableRecord
100
AcDbViewportTableRecord
  2
*ACTIVE
 70
     0
 10
0.0
 20
0.0
 11
1.0
 21
1.0
 12
0.0
 22
0.0
 13
0.0
 23
0.0
 14
1.0
 24
1.0
 15
0.0
 25
0.0
 16
0.0
 26
0.0
 36
1.0
 17
0.0
 27
0.0
 37
0.0
 40
1188.0
 41
1.415825
 42
50.0
 43
0.0
 44
0.0
 50
0.0
 51
0.0
 71
     0
 72
   500
 73
     1
 74
     1
 75
     0
 76
     0
 77
     0
 78
     0
281
     0
 65
     0
110
0.0
120
0.0
130
0.0
111
1.0
121
0.0
131
0.0
112
0.0
122
1.0
132
0.0
345
0
346
0
 79
     0
146
0.0
  0
ENDTAB
  0
TABLE
  2
LTYPE
  5
3
100
AcDbSymbolTable
 70
     9
  0
LTYPE
  5
C
100
AcDbSymbolTableRecord
100
AcDbLinetypeTableRecord
  2
ByBlock
 70
    64
  3

 72
    65
 73
     0
 40
0.0
  0
LTYPE
  5
D
100
AcDbSymbolTableRecord
100
AcDbLinetypeTableRecord
  2
ByLayer
 70
    64
  3

 72
    65
 73
     0
 40
0.0
  0
LTYPE
  5
E
100
AcDbSymbolTableRecord
100
AcDbLinetypeTableRecord
  2
CONTINUOUS
 70
     0
  3
Solid line
 72
    65
 73
     0
 40
0.0
  0
LTYPE
  5
F
100
AcDbSymbolTableRecord
100
AcDbLinetypeTableRecord
  2
DASHED
 70
     0
  3
__ __ __ __ __ __ __ __ __ __ __ __ __ __ __
 72
    65
 73
     2
 40
2.0
 49
1.2
 74
     0
 49
-0.8
 74
     0
  0
LTYPE
  5
10
100
AcDbSymbolTableRecord
100
AcDbLinetypeTableRecord
  2
CENTER
 70
     0
  3
____ _ ____ _ ____ _ ____ _ ____ _ ____ _ ____
 72
    65
 73
     4
 40
12.0
 49
9.0
 74
     0
 49
-1.0
 74
     0
 49
1.0
 74
     0
 49
-1.0
 74
     0
  0
LTYPE
  5
11
100
AcDbSymbolTableRecord
100
AcDbLinetypeTableRecord
  2
HIDDEN
 70
     0
  3
_ _ _ _ _ _ _ _ _ _ _ _ _ _ _ _ _ _ _ _ _ _ _
 72
    65
 73
     2
 40
3.2
 49
2.4
 74
     0
 49
-0.8
 74
     0
  0
LTYPE
  5
12
100
AcDbSymbolTableRecord
100
AcDbLinetypeTableRecord
  2
PHANTOM
 70
     0
  3
_____ _ _ _____ _ _ _____ _ _ _____ _ _ _____
 72
    65
 73
     6
 40
13.5
 49
9.0
 74
     0
 49
-1.0
 74
     0
 49
1.0
 74
     0
 49
-0.5
 74
     0
 49
1.0
 74
     0
 49
-1.0
 74
     0
  0
LTYPE
  5
13
100
AcDbSymbolTableRecord
100
AcDbLinetypeTableRecord
  2
DOT
 70
     0
  3
...............................................
 72
    65
 73
     2
 40
1.0
 49
0.5
 74
     0
 49
-0.5
 74
     0
  0
LTYPE
  5
14
100
AcDbSymbolTableRecord
100
AcDbLinetypeTableRecord
  2
DASHDOT
 70
     0
  3
__ . __ . __ . __ . __ . __ . __ . __ . __ . __
 72
    65
 73
     4
 40
8.0
 49
5.0
 74
     0
 49
-1.0
 74
     0
 49
1.0
 74
     0
 49
-1.0
 74
     0
  0
ENDTAB
  0
TABLE
  2
LAYER
  5
1
100
AcDbSymbolTable
 70
     4
  0
LAYER
  5
15
100
AcDbSymbolTableRecord
100
AcDbLayerTableRecord
  2
0
 70
     0
 62
     7
  6
CONTINUOUS
290
     1
370
    -3
390
0
  0
LAYER
  5
16
100
AcDbSymbolTableRecord
100
AcDbLayerTableRecord
  2
1
 70
     0
 62
     7
  6
CONTINUOUS
290
     1
370
    -3
390
0
  0
LAYER
  5
17
100
AcDbSymbolTableRecord
100
AcDbLayerTableRecord
  2
2
 70
     0
 62
     7
  6
CONTINUOUS
290
     1
370
    -3
390
0
  0
LAYER
  5
18
100
AcDbSymbolTableRecord
100
AcDbLayerTableRecord
  2
3
 70
     0
 62
     7
  6
CONTINUOUS
290
     1
370
    -3
390
0
  0
ENDTAB
  0
TABLE
  2
STYLE
  5
2
100
AcDbSymbolTable
 70
     1
  0
STYLE
  5
1B
100
AcDbSymbolTableRecord
100
AcDbTextStyleTableRecord
  2
STANDARD
 70
    64
 40
0.0
 41
1.0
 50
0.0
 71
     0
 42
1.0
  3
txt
  4
BIGFONT
  0
ENDTAB
  0
TABLE
  2
VIEW
  5
4
100
AcDbSymbolTable
 70
     0
  0
ENDTAB
  0
TABLE
  2
UCS
  5
5
100
AcDbSymbolTable
 70
     0
  0
ENDTAB
  0
TABLE
  2
APPID
  5
7
100
AcDbSymbolTable
 70
     1
  0
APPID
  5
1A
100
AcDbSymbolTableRecord
100
AcDbRegAppTableRecord
  2
ACAD
 70
     0
  0
ENDTAB
  0
TABLE
  2
DIMSTYLE
  5
8
100
AcDbSymbolTable
 70
     1
100
AcDbDimStyleTable
 71
     0
  0
DIMSTYLE
105
31
100
AcDbSymbolTableRecord
100
AcDbDimStyleTableRecord
  2
Standard
 70
     0
  3

  4

 40
2.0
 41
2.0
 42
1.0
 43
0.38
 44
2.0
 45
0.0
 46
0.0
 47
0.0
 48
0.0
 71
     0
 72
     0
 73
     0
 74
     0
 75
     0
 76
     0
 77
     1
 78
     0
 79
     0
140
3.5
141
0.09
142
0.0
143
25.4
144
1.0
145
0.0
146
1.0
147
0.5
148
0.0
170
     0
171
     2
172
     0
173
     0
174
     0
175
     0
176
     0
177
     0
178
     0
179
     0
271
     3
272
     4
273
     2
274
     2
275
     0
276
     0
277
     2
278
    46
279
     0
280
     0
281
     0
282
     0
283
     1
284
     0
285
     0
286
     0
288
     0
289
     3
340
1B
341
0
342
0
343
0
344
0
371
    -2
372
    -2
  0
ENDTAB
  0
TABLE
  2
BLOCK_RECORD
  5
2C
100
AcDbSymbolTable
 70
    14
  0
BLOCK_RECORD
  5
2A
100
AcDbSymbolTableRecord
100
AcDbBlockTableRecord
  2
*Model_Space
340
0
  0
BLOCK_RECORD
  5
2B
100
AcDbSymbolTableRecord
100
AcDbBlockTableRecord
  2
*Paper_Space
340
0
  0
BLOCK_RECORD
  5
1C
100
AcDbSymbolTableRecord
100
AcDbBlockTableRecord
  2
*D0
340
0
  0
BLOCK_RECORD
  5
1D
100
AcDbSymbolTableRecord
100
AcDbBlockTableRecord
  2
*D1
340
0
  0
BLOCK_RECORD
  5
1E
100
AcDbSymbolTableRecord
100
AcDbBlockTableRecord
  2
*D2
340
0
  0
BLOCK_RECORD
  5
1F
100
AcDbSymbolTableRecord
100
AcDbBlockTableRecord
  2
*D3
340
0
  0
BLOCK_RECORD
  5
20
100
AcDbSymbolTableRecord
100
AcDbBlockTableRecord
  2
*D4
340
0
  0
BLOCK_RECORD
  5
21
100
AcDbSymbolTableRecord
100
AcDbBlockTableRecord
  2
*D5
340
0
  0
BLOCK_RECORD
  5
22
100
AcDbSymbolTableRecord
100
AcDbBlockTableRecord
  2
*D6
340
0
  0
BLOCK_RECORD
  5
23
100
AcDbSymbolTableRecord
100
AcDbBlockTableRecord
  2
*D7
340
0
  0
BLOCK_RECORD
  5
24
100
AcDbSymbolTableRecord
100
AcDbBlockTableRecord
  2
*D8
340
0
  0
BLOCK_RECORD
  5
25
100
AcDbSymbolTableRecord
100
AcDbBlockTableRecord
  2
*D9
340
0
  0
BLOCK_RECORD
  5
26
100
AcDbSymbolTableRecord
100
AcDbBlockTableRecord
  2
*D10
340
0
  0
BLOCK_RECORD
  5
27
100
AcDbSymbolTableRecord
100
AcDbBlockTableRecord
  2
*D11
340
0
  0
BLOCK_RECORD
  5
28
100
AcDbSymbolTableRecord
100
AcDbBlockTableRecord
  2
*D12
340
0
  0
BLOCK_RECORD
  5
29
100
AcDbSymbolTableRecord
100
AcDbBlockTableRecord
  2
*D13
340
0
  0
ENDTAB
  0
ENDSEC
  0
SECTION
  2
BLOCKS
  0
BLOCK
  5
2D
100
AcDbEntity
  8
0
390
0
100
AcDbBlockBegin
  2
*Model_Space
 70
     0
 10
0.0
 20
0.0
 30
0.0
  3
*Model_Space
  1

  0
ENDBLK
  5
2E
100
AcDbEntity
  8
0
390
0
100
AcDbBlockEnd
  0
BLOCK
  5
2F
100
AcDbEntity
 67
     1
  8
0
390
0
100
AcDbBlockBegin
  2
*Paper_Space
 70
     0
 10
0.0
 20
0.0
 30
0.0
  3
*Paper_Space
  1

  0
ENDBLK
  5
30
100
AcDbEntity
 67
     1
  8
0
390
0
100
AcDbBlockEnd
  0
BLOCK
  5
35F
100
AcDbEntity
  8
3
100
AcDbBlockBegin
  2
*D0
 70
     1
 10
0.0
 20
0.0
 30
0.0
  3
*D0
  1

  0
TEXT
  5
360
100
AcDbEntity
  8
3
370
    25
100
AcDbText
 10
-163.94104
 20
-168.461792
 30
0.0
 40
7.0
  1
１５０
 72
     5
 11
-144.34104
 21
-168.461792
 31
0.0
100
AcDbText
  0
LINE
  5
361
100
AcDbEntity
  8
3
370
    25
100
AcDbLine
 10
-228.44104
 20
-53.593271
 30
0.0
 11
-228.44104
 21
-171.461792
 31
0.0
  0
LINE
  5
362
100
AcDbEntity
  8
3
370
    25
100
AcDbLine
 10
-228.44104
 20
-169.461792
 30
0.0
 11
-224.577337
 21
-170.497068
 31
0.0
  0
LINE
  5
363
100
AcDbEntity
  8
3
370
    25
100
AcDbLine
 10
-228.44104
 20
-169.461792
 30
0.0
 11
-224.577337
 21
-168.426516
 31
0.0
  0
LINE
  5
364
100
AcDbEntity
  8
3
370
    25
100
AcDbLine
 10
-224.577337
 20
-170.497068
 30
0.0
 11
-224.577337
 21
-168.426516
 31
0.0
  0
LINE
  5
365
100
AcDbEntity
  8
3
370
    25
100
AcDbLine
 10
-228.44104
 20
-169.461792
 30
0.0
 11
-78.44104
 21
-169.461792
 31
0.0
  0
LINE
  5
366
100
AcDbEntity
  8
3
370
    25
100
AcDbLine
 10
-78.44104
 20
-169.461792
 30
0.0
 11
-82.304743
 21
-168.426516
 31
0.0
  0
LINE
  5
367
100
AcDbEntity
  8
3
370
    25
100
AcDbLine
 10
-78.44104
 20
-169.461792
 30
0.0
 11
-82.304743
 21
-170.497068
 31
0.0
  0
LINE
  5
368
100
AcDbEntity
  8
3
370
    25
100
AcDbLine
 10
-82.304743
 20
-168.426516
 30
0.0
 11
-82.304743
 21
-170.497068
 31
0.0
  0
LINE
  5
369
100
AcDbEntity
  8
3
370
    25
100
AcDbLine
 10
-78.44104
 20
-53.593271
 30
0.0
 11
-78.44104
 21
-171.461792
 31
0.0
  0
ENDBLK
  5
36A
100
AcDbEntity
  8
3
100
AcDbBlockEnd
  0
BLOCK
  5
36B
100
AcDbEntity
  8
3
100
AcDbBlockBegin
  2
*D1
 70
     1
 10
0.0
 20
0.0
 30
0.0
  3
*D1
  1

  0
TEXT
  5
36C
100
AcDbEntity
  8
3
370
    25
100
AcDbText
 10
-163.94104
 20
-141.3358
 30
0.0
 40
7.0
  1
１００
 72
     5
 11
-144.34104
 21
-141.3358
 31
0.0
100
AcDbText
  0
LINE
  5
36D
100
AcDbEntity
  8
3
370
    25
100
AcDbLine
 10
-203.44104
 20
-119.990662
 30
0.0
 11
-203.44104
 21
-144.3358
 31
0.0
  0
LINE
  5
36E
100
AcDbEntity
  8
3
370
    25
100
AcDbLine
 10
-203.44104
 20
-142.3358
 30
0.0
 11
-199.577337
 21
-143.371076
 31
0.0
  0
LINE
  5
36F
100
AcDbEntity
  8
3
370
    25
100
AcDbLine
 10
-203.44104
 20
-142.3358
 30
0.0
 11
-199.577337
 21
-141.300524
 31
0.0
  0
LINE
  5
370
100
AcDbEntity
  8
3
370
    25
100
AcDbLine
 10
-199.577337
 20
-143.371076
 30
0.0
 11
-199.577337
 21
-141.300524
 31
0.0
  0
LINE
  5
371
100
AcDbEntity
  8
3
370
    25
100
AcDbLine
 10
-203.44104
 20
-142.3358
 30
0.0
 11
-103.44104
 21
-142.3358
 31
0.0
  0
LINE
  5
372
100
AcDbEntity
  8
3
370
    25
100
AcDbLine
 10
-103.44104
 20
-142.3358
 30
0.0
 11
-107.304743
 21
-141.300524
 31
0.0
  0
LINE
  5
373
100
AcDbEntity
  8
3
370
    25
100
AcDbLine
 10
-103.44104
 20
-142.3358
 30
0.0
 11
-107.304743
 21
-143.371076
 31
0.0
  0
LINE
  5
374
100
AcDbEntity
  8
3
370
    25
100
AcDbLine
 10
-107.304743
 20
-141.300524
 30
0.0
 11
-107.304743
 21
-143.371076
 31
0.0
  0
LINE
  5
375
100
AcDbEntity
  8
3
370
    25
100
AcDbLine
 10
-103.44104
 20
-119.990662
 30
0.0
 11
-103.44104
 21
-144.3358
 31
0.0
  0
ENDBLK
  5
376
100
AcDbEntity
  8
3
100
AcDbBlockEnd
  0
BLOCK
  5
377
100
AcDbEntity
  8
3
100
AcDbBlockBegin
  2
*D2
 70
     1
 10
0.0
 20
0.0
 30
0.0
  3
*D2
  1

  0
TEXT
  5
378
100
AcDbEntity
  8
3
370
    25
100
AcDbText
 10
180.496362
 20
-159.972183
 30
0.0
 40
7.0
  1
６３
 72
     5
 11
193.096362
 21
-159.972183
 31
0.0
100
AcDbText
  0
LINE
  5
379
100
AcDbEntity
  8
3
370
    25
100
AcDbLine
 10
155.996362
 20
-48.532467
 30
0.0
 11
155.996362
 21
-162.972183
 31
0.0
  0
LINE
  5
37A
100
AcDbEntity
  8
3
370
    25
100
AcDbLine
 10
155.996362
 20
-160.972183
 30
0.0
 11
159.860065
 21
-162.007459
 31
0.0
  0
LINE
  5
37B
100
AcDbEntity
  8
3
370
    25
100
AcDbLine
 10
155.996362
 20
-160.972183
 30
0.0
 11
159.860065
 21
-159.936907
 31
0.0
  0
LINE
  5
37C
100
AcDbEntity
  8
3
370
    25
100
AcDbLine
 10
159.860065
 20
-162.007459
 30
0.0
 11
159.860065
 21
-159.936907
 31
0.0
  0
LINE
  5
37D
100
AcDbEntity
  8
3
370
    25
100
AcDbLine
 10
155.996362
 20
-160.972183
 30
0.0
 11
218.996362
 21
-160.972183
 31
0.0
  0
LINE
  5
37E
100
AcDbEntity
  8
3
370
    25
100
AcDbLine
 10
218.996362
 20
-160.972183
 30
0.0
 11
215.132658
 21
-159.936907
 31
0.0
  0
LINE
  5
37F
100
AcDbEntity
  8
3
370
    25
100
AcDbLine
 10
218.996362
 20
-160.972183
 30
0.0
 11
215.132658
 21
-162.007459
 31
0.0
  0
LINE
  5
380
100
AcDbEntity
  8
3
370
    25
100
AcDbLine
 10
215.132658
 20
-159.936907
 30
0.0
 11
215.132658
 21
-162.007459
 31
0.0
  0
LINE
  5
381
100
AcDbEntity
  8
3
370
    25
100
AcDbLine
 10
218.996362
 20
-54.532467
 30
0.0
 11
218.996362
 21
-162.972183
 31
0.0
  0
ENDBLK
  5
382
100
AcDbEntity
  8
3
100
AcDbBlockEnd
  0
BLOCK
  5
383
100
AcDbEntity
  8
3
100
AcDbBlockBegin
  2
*D3
 70
     1
 10
0.0
 20
0.0
 30
0.0
  3
*D3
  1

  0
TEXT
  5
384
100
AcDbEntity
  8
3
370
    25
100
AcDbText
 10
84.496362
 20
-88.957588
 30
0.0
 40
7.0
  1
１８４
 72
     5
 11
104.096362
 21
-88.957588
 31
0.0
100
AcDbText
  0
LINE
  5
385
100
AcDbEntity
  8
3
370
    25
100
AcDbLine
 10
2.996362
 20
76.427185
 30
0.0
 11
2.996362
 21
-91.957588
 31
0.0
  0
LINE
  5
386
100
AcDbEntity
  8
3
370
    25
100
AcDbLine
 10
2.996362
 20
-89.957588
 30
0.0
 11
6.860065
 21
-90.992864
 31
0.0
  0
LINE
  5
387
100
AcDbEntity
  8
3
370
    25
100
AcDbLine
 10
2.996362
 20
-89.957588
 30
0.0
 11
6.860065
 21
-88.922312
 31
0.0
  0
LINE
  5
388
100
AcDbEntity
  8
3
370
    25
100
AcDbLine
 10
6.860065
 20
-90.992864
 30
0.0
 11
6.860065
 21
-88.922312
 31
0.0
  0
LINE
  5
389
100
AcDbEntity
  8
3
370
    25
100
AcDbLine
 10
2.996362
 20
-89.957588
 30
0.0
 11
186.996362
 21
-89.957588
 31
0.0
  0
LINE
  5
38A
100
AcDbEntity
  8
3
370
    25
100
AcDbLine
 10
186.996362
 20
-89.957588
 30
0.0
 11
183.132658
 21
-88.922312
 31
0.0
  0
LINE
  5
38B
100
AcDbEntity
  8
3
370
    25
100
AcDbLine
 10
186.996362
 20
-89.957588
 30
0.0
 11
183.132658
 21
-90.992864
 31
0.0
  0
LINE
  5
38C
100
AcDbEntity
  8
3
370
    25
100
AcDbLine
 10
183.132658
 20
-88.922312
 30
0.0
 11
183.132658
 21
-90.992864
 31
0.0
  0
ENDBLK
  5
38D
100
AcDbEntity
  8
3
100
AcDbBlockEnd
  0
BLOCK
  5
38E
100
AcDbEntity
  8
3
100
AcDbBlockBegin
  2
*D4
 70
     1
 10
0.0
 20
0.0
 30
0.0
  3
*D4
  1

  0
TEXT
  5
38F
100
AcDbEntity
  8
3
370
    25
100
AcDbText
 10
-5.088031
 20
68.451744
 30
0.0
 40
7.0
  1
７゜
 50
356.5
 72
     5
 11
7.488468
 21
67.682532
 31
0.0
100
AcDbText
  0
LINE
  5
390
100
AcDbEntity
  8
3
370
    25
100
AcDbLine
 10
1.81011
 20
76.306287
 30
0.0
 11
0.43995
 21
65.147231
 31
0.0
  0
LINE
  5
391
100
AcDbEntity
  8
3
370
    25
100
AcDbLine
 10
2.996362
 20
76.427185
 30
0.0
 11
2.996362
 21
64.990874
 31
0.0
  0
LINE
  5
392
100
AcDbEntity
  8
3
370
    25
100
AcDbLine
 10
0.683689
 20
67.132323
 30
0.0
 11
-2.853237
 21
69.00052
 31
0.0
  0
LINE
  5
393
100
AcDbEntity
  8
3
370
    25
100
AcDbLine
 10
0.683689
 20
67.132323
 30
0.0
 11
-3.313477
 21
66.981766
 31
0.0
  0
LINE
  5
394
100
AcDbEntity
  8
3
370
    25
100
AcDbLine
 10
-2.853237
 20
69.00052
 30
0.0
 11
-3.313477
 21
66.981766
 31
0.0
  0
LINE
  5
395
100
AcDbEntity
  8
3
370
    25
100
AcDbLine
 10
2.996362
 20
66.990874
 30
0.0
 11
6.945385
 21
66.354307
 31
0.0
  0
LINE
  5
396
100
AcDbEntity
  8
3
370
    25
100
AcDbLine
 10
2.996362
 20
66.990874
 30
0.0
 11
6.734599
 21
68.414102
 31
0.0
  0
LINE
  5
397
100
AcDbEntity
  8
3
370
    25
100
AcDbLine
 10
6.945385
 20
66.354307
 30
0.0
 11
6.734599
 21
68.414102
 31
0.0
  0
ARC
  5
398
100
AcDbEntity
  8
3
370
    25
100
AcDbCircle
 10
2.996362
 20
85.967533
 30
0.0
 40
18.976659
100
AcDbArc
 50
235.212422
 51
297.787578
  0
ENDBLK
  5
399
100
AcDbEntity
  8
3
100
AcDbBlockEnd
  0
BLOCK
  5
39A
100
AcDbEntity
  8
3
100
AcDbBlockBegin
  2
*D5
 70
     1
 10
0.0
 20
0.0
 30
0.0
  3
*D5
  1

  0
TEXT
  5
39B
100
AcDbEntity
  8
3
370
    25
100
AcDbText
 10
141.696362
 20
-66.956718
 30
0.0
 40
7.0
  1
７７
 72
     5
 11
154.296362
 21
-66.956718
 31
0.0
100
AcDbText
  0
LINE
  5
39C
100
AcDbEntity
  8
3
370
    25
100
AcDbLine
 10
110.396363
 20
-34.566582
 30
0.0
 11
110.396363
 21
-69.956718
 31
0.0
  0
LINE
  5
39D
100
AcDbEntity
  8
3
370
    25
100
AcDbLine
 10
110.396363
 20
-67.956718
 30
0.0
 11
114.260066
 21
-68.991995
 31
0.0
  0
LINE
  5
39E
100
AcDbEntity
  8
3
370
    25
100
AcDbLine
 10
110.396363
 20
-67.956718
 30
0.0
 11
114.260066
 21
-66.921442
 31
0.0
  0
LINE
  5
39F
100
AcDbEntity
  8
3
370
    25
100
AcDbLine
 10
114.260066
 20
-68.991995
 30
0.0
 11
114.260066
 21
-66.921442
 31
0.0
  0
LINE
  5
3A0
100
AcDbEntity
  8
3
370
    25
100
AcDbLine
 10
110.396363
 20
-67.956718
 30
0.0
 11
186.996362
 21
-67.956718
 31
0.0
  0
LINE
  5
3A1
100
AcDbEntity
  8
3
370
    25
100
AcDbLine
 10
186.996362
 20
-67.956718
 30
0.0
 11
183.132658
 21
-66.921442
 31
0.0
  0
LINE
  5
3A2
100
AcDbEntity
  8
3
370
    25
100
AcDbLine
 10
186.996362
 20
-67.956718
 30
0.0
 11
183.132658
 21
-68.991995
 31
0.0
  0
LINE
  5
3A3
100
AcDbEntity
  8
3
370
    25
100
AcDbLine
 10
183.132658
 20
-66.921442
 30
0.0
 11
183.132658
 21
-68.991995
 31
0.0
  0
LINE
  5
3A4
100
AcDbEntity
  8
3
370
    25
100
AcDbLine
 10
186.996362
 20
-72.33075
 30
0.0
 11
186.996362
 21
-65.956718
 31
0.0
  0
ENDBLK
  5
3A5
100
AcDbEntity
  8
3
100
AcDbBlockEnd
  0
BLOCK
  5
3A6
100
AcDbEntity
  8
3
100
AcDbBlockBegin
  2
*D6
 70
     1
 10
0.0
 20
0.0
 30
0.0
  3
*D6
  1

  0
TEXT
  5
3A7
100
AcDbEntity
  8
3
370
    25
100
AcDbText
 10
-163.94104
 20
162.562866
 30
0.0
 40
7.0
  1
１１５
 72
     5
 11
-144.34104
 21
162.562866
 31
0.0
100
AcDbText
  0
LINE
  5
3A8
100
AcDbEntity
  8
3
370
    25
100
AcDbLine
 10
-210.94104
 20
41.665718
 30
0.0
 11
-210.94104
 21
163.562866
 31
0.0
  0
LINE
  5
3A9
100
AcDbEntity
  8
3
370
    25
100
AcDbLine
 10
-210.94104
 20
161.562866
 30
0.0
 11
-207.077337
 21
160.52759
 31
0.0
  0
LINE
  5
3AA
100
AcDbEntity
  8
3
370
    25
100
AcDbLine
 10
-210.94104
 20
161.562866
 30
0.0
 11
-207.077337
 21
162.598142
 31
0.0
  0
LINE
  5
3AB
100
AcDbEntity
  8
3
370
    25
100
AcDbLine
 10
-207.077337
 20
160.52759
 30
0.0
 11
-207.077337
 21
162.598142
 31
0.0
  0
LINE
  5
3AC
100
AcDbEntity
  8
3
370
    25
100
AcDbLine
 10
-210.94104
 20
161.562866
 30
0.0
 11
-95.94104
 21
161.562866
 31
0.0
  0
LINE
  5
3AD
100
AcDbEntity
  8
3
370
    25
100
AcDbLine
 10
-95.94104
 20
161.562866
 30
0.0
 11
-99.804743
 21
162.598142
 31
0.0
  0
LINE
  5
3AE
100
AcDbEntity
  8
3
370
    25
100
AcDbLine
 10
-95.94104
 20
161.562866
 30
0.0
 11
-99.804743
 21
160.52759
 31
0.0
  0
LINE
  5
3AF
100
AcDbEntity
  8
3
370
    25
100
AcDbLine
 10
-99.804743
 20
162.598142
 30
0.0
 11
-99.804743
 21
160.52759
 31
0.0
  0
LINE
  5
3B0
100
AcDbEntity
  8
3
370
    25
100
AcDbLine
 10
-95.94104
 20
41.665718
 30
0.0
 11
-95.94104
 21
163.562866
 31
0.0
  0
ENDBLK
  5
3B1
100
AcDbEntity
  8
3
100
AcDbBlockEnd
  0
BLOCK
  5
3B2
100
AcDbEntity
  8
3
100
AcDbBlockBegin
  2
*D7
 70
     1
 10
0.0
 20
0.0
 30
0.0
  3
*D7
  1

  0
TEXT
  5
3B3
100
AcDbEntity
  8
3
370
    25
100
AcDbText
 10
-48.793076
 20
-86.593271
 30
0.0
 40
7.0
  1
５６
 50
90.0
 72
     5
 11
-48.793076
 21
-73.993271
 31
0.0
100
AcDbText
  0
LINE
  5
3B4
100
AcDbEntity
  8
3
370
    25
100
AcDbLine
 10
-89.941209
 20
-107.593271
 30
0.0
 11
-45.793076
 21
-107.593271
 31
0.0
  0
LINE
  5
3B5
100
AcDbEntity
  8
3
370
    25
100
AcDbLine
 10
-47.793076
 20
-107.593271
 30
0.0
 11
-46.757799
 21
-103.729568
 31
0.0
  0
LINE
  5
3B6
100
AcDbEntity
  8
3
370
    25
100
AcDbLine
 10
-47.793076
 20
-107.593271
 30
0.0
 11
-48.828352
 21
-103.729568
 31
0.0
  0
LINE
  5
3B7
100
AcDbEntity
  8
3
370
    25
100
AcDbLine
 10
-46.757799
 20
-103.729568
 30
0.0
 11
-48.828352
 21
-103.729568
 31
0.0
  0
LINE
  5
3B8
100
AcDbEntity
  8
3
370
    25
100
AcDbLine
 10
-47.793076
 20
-107.593271
 30
0.0
 11
-47.793076
 21
-51.593271
 31
0.0
  0
LINE
  5
3B9
100
AcDbEntity
  8
3
370
    25
100
AcDbLine
 10
-47.793076
 20
-51.593271
 30
0.0
 11
-48.828352
 21
-55.456975
 31
0.0
  0
LINE
  5
3BA
100
AcDbEntity
  8
3
370
    25
100
AcDbLine
 10
-47.793076
 20
-51.593271
 30
0.0
 11
-46.757799
 21
-55.456975
 31
0.0
  0
LINE
  5
3BB
100
AcDbEntity
  8
3
370
    25
100
AcDbLine
 10
-48.828352
 20
-55.456975
 30
0.0
 11
-46.757799
 21
-55.456975
 31
0.0
  0
LINE
  5
3BC
100
AcDbEntity
  8
3
370
    25
100
AcDbLine
 10
-76.44104
 20
-51.593271
 30
0.0
 11
-45.793076
 21
-51.593271
 31
0.0
  0
ENDBLK
  5
3BD
100
AcDbEntity
  8
3
100
AcDbBlockEnd
  0
BLOCK
  5
3BE
100
AcDbEntity
  8
3
100
AcDbBlockBegin
  2
*D8
 70
     1
 10
0.0
 20
0.0
 30
0.0
  3
*D8
  1

  0
TEXT
  5
3BF
100
AcDbEntity
  8
3
370
    25
100
AcDbText
 10
-325.339966
 20
-29.357091
 30
0.0
 40
7.0
  1
８６
 50
90.0
 72
     5
 11
-325.339966
 21
-16.757091
 31
0.0
100
AcDbText
  0
LINE
  5
3C0
100
AcDbEntity
  8
3
370
    25
100
AcDbLine
 10
-230.44104
 20
-51.593271
 30
0.0
 11
-326.339966
 21
-51.593271
 31
0.0
  0
LINE
  5
3C1
100
AcDbEntity
  8
3
370
    25
100
AcDbLine
 10
-324.339966
 20
-51.593271
 30
0.0
 11
-323.30469
 21
-47.729568
 31
0.0
  0
LINE
  5
3C2
100
AcDbEntity
  8
3
370
    25
100
AcDbLine
 10
-324.339966
 20
-51.593271
 30
0.0
 11
-325.375242
 21
-47.729568
 31
0.0
  0
LINE
  5
3C3
100
AcDbEntity
  8
3
370
    25
100
AcDbLine
 10
-323.30469
 20
-47.729568
 30
0.0
 11
-325.375242
 21
-47.729568
 31
0.0
  0
LINE
  5
3C4
100
AcDbEntity
  8
3
370
    25
100
AcDbLine
 10
-324.339966
 20
-51.593271
 30
0.0
 11
-324.339966
 21
34.879089
 31
0.0
  0
LINE
  5
3C5
100
AcDbEntity
  8
3
370
    25
100
AcDbLine
 10
-324.339966
 20
34.879089
 30
0.0
 11
-325.375242
 21
31.015386
 31
0.0
  0
LINE
  5
3C6
100
AcDbEntity
  8
3
370
    25
100
AcDbLine
 10
-324.339966
 20
34.879089
 30
0.0
 11
-323.30469
 21
31.015386
 31
0.0
  0
LINE
  5
3C7
100
AcDbEntity
  8
3
370
    25
100
AcDbLine
 10
-325.375242
 20
31.015386
 30
0.0
 11
-323.30469
 21
31.015386
 31
0.0
  0
LINE
  5
3C8
100
AcDbEntity
  8
3
370
    25
100
AcDbLine
 10
-213.149353
 20
34.879089
 30
0.0
 11
-326.339966
 21
34.879089
 31
0.0
  0
ENDBLK
  5
3C9
100
AcDbEntity
  8
3
100
AcDbBlockEnd
  0
BLOCK
  5
3CA
100
AcDbEntity
  8
3
100
AcDbBlockBegin
  2
*D9
 70
     1
 10
0.0
 20
0.0
 30
0.0
  3
*D9
  1

  0
TEXT
  5
3CB
100
AcDbEntity
  8
3
370
    25
100
AcDbText
 10
-13.601339
 20
-0.782467
 30
0.0
 40
7.0
  1
１３９
 50
90.0
 72
     5
 11
-13.601339
 21
18.817533
 31
0.0
100
AcDbText
  0
LINE
  5
3CC
100
AcDbEntity
  8
3
370
    25
100
AcDbLine
 10
158.996362
 20
-52.532467
 30
0.0
 11
-14.601339
 21
-52.532467
 31
0.0
  0
LINE
  5
3CD
100
AcDbEntity
  8
3
370
    25
100
AcDbLine
 10
-12.601339
 20
-52.532467
 30
0.0
 11
-11.566063
 21
-48.668764
 31
0.0
  0
LINE
  5
3CE
100
AcDbEntity
  8
3
370
    25
100
AcDbLine
 10
-12.601339
 20
-52.532467
 30
0.0
 11
-13.636616
 21
-48.668764
 31
0.0
  0
LINE
  5
3CF
100
AcDbEntity
  8
3
370
    25
100
AcDbLine
 10
-11.566063
 20
-48.668764
 30
0.0
 11
-13.636616
 21
-48.668764
 31
0.0
  0
LINE
  5
3D0
100
AcDbEntity
  8
3
370
    25
100
AcDbLine
 10
-12.601339
 20
-52.532467
 30
0.0
 11
-12.601339
 21
85.967533
 31
0.0
  0
LINE
  5
3D1
100
AcDbEntity
  8
3
370
    25
100
AcDbLine
 10
-12.601339
 20
85.967533
 30
0.0
 11
-13.636616
 21
82.10383
 31
0.0
  0
LINE
  5
3D2
100
AcDbEntity
  8
3
370
    25
100
AcDbLine
 10
-12.601339
 20
85.967533
 30
0.0
 11
-11.566063
 21
82.10383
 31
0.0
  0
LINE
  5
3D3
100
AcDbEntity
  8
3
370
    25
100
AcDbLine
 10
-13.636616
 20
82.10383
 30
0.0
 11
-11.566063
 21
82.10383
 31
0.0
  0
LINE
  5
3D4
100
AcDbEntity
  8
3
370
    25
100
AcDbLine
 10
0.996362
 20
85.967533
 30
0.0
 11
-14.601339
 21
85.967533
 31
0.0
  0
ENDBLK
  5
3D5
100
AcDbEntity
  8
3
100
AcDbBlockEnd
  0
BLOCK
  5
3D6
100
AcDbEntity
  8
3
100
AcDbBlockBegin
  2
*D10
 70
     1
 10
0.0
 20
0.0
 30
0.0
  3
*D10
  1

  0
TEXT
  5
3D7
100
AcDbEntity
  8
3
370
    25
100
AcDbText
 10
85.065277
 20
-43.532467
 30
0.0
 40
7.0
  1
３２
 50
90.0
 72
     5
 11
85.065277
 21
-30.932467
 31
0.0
100
AcDbText
  0
LINE
  5
3D8
100
AcDbEntity
  8
3
370
    25
100
AcDbLine
 10
158.996362
 20
-52.532467
 30
0.0
 11
84.065277
 21
-52.532467
 31
0.0
  0
LINE
  5
3D9
100
AcDbEntity
  8
3
370
    25
100
AcDbLine
 10
86.065277
 20
-52.532467
 30
0.0
 11
87.100553
 21
-48.668764
 31
0.0
  0
LINE
  5
3DA
100
AcDbEntity
  8
3
370
    25
100
AcDbLine
 10
86.065277
 20
-52.532467
 30
0.0
 11
85.030001
 21
-48.668764
 31
0.0
  0
LINE
  5
3DB
100
AcDbEntity
  8
3
370
    25
100
AcDbLine
 10
87.100553
 20
-48.668764
 30
0.0
 11
85.030001
 21
-48.668764
 31
0.0
  0
LINE
  5
3DC
100
AcDbEntity
  8
3
370
    25
100
AcDbLine
 10
86.065277
 20
-52.532467
 30
0.0
 11
86.065277
 21
-20.532467
 31
0.0
  0
LINE
  5
3DD
100
AcDbEntity
  8
3
370
    25
100
AcDbLine
 10
86.065277
 20
-20.532467
 30
0.0
 11
85.030001
 21
-24.39617
 31
0.0
  0
LINE
  5
3DE
100
AcDbEntity
  8
3
370
    25
100
AcDbLine
 10
86.065277
 20
-20.532467
 30
0.0
 11
87.100553
 21
-24.39617
 31
0.0
  0
LINE
  5
3DF
100
AcDbEntity
  8
3
370
    25
100
AcDbLine
 10
85.030001
 20
-24.39617
 30
0.0
 11
87.100553
 21
-24.39617
 31
0.0
  0
LINE
  5
3E0
100
AcDbEntity
  8
3
370
    25
100
AcDbLine
 10
103.479805
 20
-20.532467
 30
0.0
 11
84.065277
 21
-20.532467
 31
0.0
  0
ENDBLK
  5
3E1
100
AcDbEntity
  8
3
100
AcDbBlockEnd
  0
BLOCK
  5
3E2
100
AcDbEntity
  8
3
100
AcDbBlockBegin
  2
*D11
 70
     1
 10
0.0
 20
0.0
 30
0.0
  3
*D11
  1

  0
TEXT
  5
3E3
100
AcDbEntity
  8
3
370
    25
100
AcDbText
 10
194.996362
 20
181.291718
 30
0.0
 40
7.0
  1
１４
 72
     5
 11
207.596362
 21
181.291718
 31
0.0
100
AcDbText
  0
LINE
  5
3E4
100
AcDbEntity
  8
3
370
    25
100
AcDbLine
 10
172.996362
 20
142.919739
 30
0.0
 11
172.996362
 21
182.291718
 31
0.0
  0
LINE
  5
3E5
100
AcDbEntity
  8
3
370
    25
100
AcDbLine
 10
172.996362
 20
180.291718
 30
0.0
 11
169.132658
 21
181.326994
 31
0.0
  0
LINE
  5
3E6
100
AcDbEntity
  8
3
370
    25
100
AcDbLine
 10
172.996362
 20
180.291718
 30
0.0
 11
169.132658
 21
179.256441
 31
0.0
  0
LINE
  5
3E7
100
AcDbEntity
  8
3
370
    25
100
AcDbLine
 10
169.132658
 20
181.326994
 30
0.0
 11
169.132658
 21
179.256441
 31
0.0
  0
LINE
  5
3E8
100
AcDbEntity
  8
3
370
    25
100
AcDbLine
 10
162.996362
 20
180.291718
 30
0.0
 11
208.996362
 21
180.291718
 31
0.0
  0
LINE
  5
3E9
100
AcDbEntity
  8
3
370
    25
100
AcDbLine
 10
186.996362
 20
180.291718
 30
0.0
 11
190.860065
 21
179.256441
 31
0.0
  0
LINE
  5
3EA
100
AcDbEntity
  8
3
370
    25
100
AcDbLine
 10
186.996362
 20
180.291718
 30
0.0
 11
190.860065
 21
181.326994
 31
0.0
  0
LINE
  5
3EB
100
AcDbEntity
  8
3
370
    25
100
AcDbLine
 10
190.860065
 20
179.256441
 30
0.0
 11
190.860065
 21
181.326994
 31
0.0
  0
LINE
  5
3EC
100
AcDbEntity
  8
3
370
    25
100
AcDbLine
 10
186.996362
 20
41.112465
 30
0.0
 11
186.996362
 21
182.291718
 31
0.0
  0
ENDBLK
  5
3ED
100
AcDbEntity
  8
3
100
AcDbBlockEnd
  0
BLOCK
  5
3EE
100
AcDbEntity
  8
3
100
AcDbBlockBegin
  2
*D12
 70
     1
 10
0.0
 20
0.0
 30
0.0
  3
*D12
  1

  0
TEXT
  5
3EF
100
AcDbEntity
  8
3
370
    25
100
AcDbText
 10
-48.793076
 20
-143.093271
 30
0.0
 40
7.0
  1
６．５
 50
90.0
 72
     5
 11
-48.793076
 21
-123.493271
 31
0.0
100
AcDbText
  0
LINE
  5
3F0
100
AcDbEntity
  8
3
370
    25
100
AcDbLine
 10
-89.941209
 20
-114.093271
 30
0.0
 11
-45.793076
 21
-114.093271
 31
0.0
  0
LINE
  5
3F1
100
AcDbEntity
  8
3
370
    25
100
AcDbLine
 10
-47.793076
 20
-114.093271
 30
0.0
 11
-48.828352
 21
-117.956975
 31
0.0
  0
LINE
  5
3F2
100
AcDbEntity
  8
3
370
    25
100
AcDbLine
 10
-47.793076
 20
-114.093271
 30
0.0
 11
-46.757799
 21
-117.956975
 31
0.0
  0
LINE
  5
3F3
100
AcDbEntity
  8
3
370
    25
100
AcDbLine
 10
-48.828352
 20
-117.956975
 30
0.0
 11
-46.757799
 21
-117.956975
 31
0.0
  0
LINE
  5
3F4
100
AcDbEntity
  8
3
370
    25
100
AcDbLine
 10
-47.793076
 20
-143.093271
 30
0.0
 11
-47.793076
 21
-97.593271
 31
0.0
  0
LINE
  5
3F5
100
AcDbEntity
  8
3
370
    25
100
AcDbLine
 10
-47.793076
 20
-107.593271
 30
0.0
 11
-46.757799
 21
-103.729568
 31
0.0
  0
LINE
  5
3F6
100
AcDbEntity
  8
3
370
    25
100
AcDbLine
 10
-47.793076
 20
-107.593271
 30
0.0
 11
-48.828352
 21
-103.729568
 31
0.0
  0
LINE
  5
3F7
100
AcDbEntity
  8
3
370
    25
100
AcDbLine
 10
-46.757799
 20
-103.729568
 30
0.0
 11
-48.828352
 21
-103.729568
 31
0.0
  0
LINE
  5
3F8
100
AcDbEntity
  8
3
370
    25
100
AcDbLine
 10
-89.941209
 20
-107.593271
 30
0.0
 11
-45.793076
 21
-107.593271
 31
0.0
  0
ENDBLK
  5
3F9
100
AcDbEntity
  8
3
100
AcDbBlockEnd
  0
BLOCK
  5
3FA
100
AcDbEntity
  8
3
100
AcDbBlockBegin
  2
*D13
 70
     1
 10
0.0
 20
0.0
 30
0.0
  3
*D13
  1

  0
TEXT
  5
3FB
100
AcDbEntity
  8
3
370
    25
100
AcDbText
 10
77.496362
 20
181.291718
 30
0.0
 40
7.0
  1
１７０
 72
     5
 11
97.096362
 21
181.291718
 31
0.0
100
AcDbText
  0
LINE
  5
3FC
100
AcDbEntity
  8
3
370
    25
100
AcDbLine
 10
2.996362
 20
87.967533
 30
0.0
 11
2.996362
 21
182.291718
 31
0.0
  0
LINE
  5
3FD
100
AcDbEntity
  8
3
370
    25
100
AcDbLine
 10
2.996362
 20
180.291718
 30
0.0
 11
6.860065
 21
179.256441
 31
0.0
  0
LINE
  5
3FE
100
AcDbEntity
  8
3
370
    25
100
AcDbLine
 10
2.996362
 20
180.291718
 30
0.0
 11
6.860065
 21
181.326994
 31
0.0
  0
LINE
  5
3FF
100
AcDbEntity
  8
3
370
    25
100
AcDbLine
 10
6.860065
 20
179.256441
 30
0.0
 11
6.860065
 21
181.326994
 31
0.0
  0
LINE
  5
400
100
AcDbEntity
  8
3
370
    25
100
AcDbLine
 10
2.996362
 20
180.291718
 30
0.0
 11
172.996362
 21
180.291718
 31
0.0
  0
LINE
  5
401
100
AcDbEntity
  8
3
370
    25
100
AcDbLine
 10
172.996362
 20
180.291718
 30
0.0
 11
169.132658
 21
181.326994
 31
0.0
  0
LINE
  5
402
100
AcDbEntity
  8
3
370
    25
100
AcDbLine
 10
172.996362
 20
180.291718
 30
0.0
 11
169.132658
 21
179.256441
 31
0.0
  0
LINE
  5
403
100
AcDbEntity
  8
3
370
    25
100
AcDbLine
 10
169.132658
 20
181.326994
 30
0.0
 11
169.132658
 21
179.256441
 31
0.0
  0
LINE
  5
404
100
AcDbEntity
  8
3
370
    25
100
AcDbLine
 10
172.996362
 20
78.502451
 30
0.0
 11
172.996362
 21
182.291718
 31
0.0
  0
ENDBLK
  5
405
100
AcDbEntity
  8
3
100
AcDbBlockEnd
  0
ENDSEC
  0
SECTION
  2
ENTITIES
  0
LINE
  5
32
100
AcDbEntity
  8
1
370
   100
100
AcDbLine
 10
-373.02157
 20
275.028767
 30
0.0
 11
394.982385
 21
275.028767
 31
0.0
  0
LINE
  5
33
100
AcDbEntity
  8
1
370
   100
100
AcDbLine
 10
-373.02157
 20
275.028767
 30
0.0
 11
-373.02157
 21
-277.971881
 31
0.0
  0
LINE
  5
34
100
AcDbEntity
  8
1
370
   100
100
AcDbLine
 10
-373.02157
 20
-277.971881
 30
0.0
 11
394.982385
 21
-277.971881
 31
0.0
  0
LINE
  5
35
100
AcDbEntity
  8
1
370
   100
100
AcDbLine
 10
394.982385
 20
-277.971881
 30
0.0
 11
394.982385
 21
275.028767
 31
0.0
  0
TEXT
  5
36
100
AcDbEntity
  8
1
370
    50
100
AcDbText
 10
359.628442
 20
-226.252857
 30
0.0
 40
6.0
  1
設計
 72
     5
 11
370.428442
 21
-226.252857
 31
0.0
100
AcDbText
  0
TEXT
  5
37
100
AcDbEntity
  8
1
370
    50
100
AcDbText
 10
379.127478
 20
-226.099658
 30
0.0
 40
6.0
  1
製図
 72
     5
 11
389.927478
 21
-226.099658
 31
0.0
100
AcDbText
  0
TEXT
  5
38
100
AcDbEntity
  8
1
370
    50
100
AcDbText
 10
319.005745
 20
-226.252857
 30
0.0
 40
6.0
  1
承認
 72
     5
 11
329.805745
 21
-226.252857
 31
0.0
100
AcDbText
  0
TEXT
  5
39
100
AcDbEntity
  8
1
370
    50
100
AcDbText
 10
338.989679
 20
-226.19802
 30
0.0
 40
6.0
  1
検図
 72
     5
 11
349.789679
 21
-226.19802
 31
0.0
100
AcDbText
  0
LINE
  5
3A
100
AcDbEntity
  8
1
370
    25
100
AcDbLine
 10
284.982385
 20
-227.971881
 30
0.0
 11
394.982385
 21
-227.971881
 31
0.0
  0
LINE
  5
3B
100
AcDbEntity
  8
1
370
    25
100
AcDbLine
 10
342.482385
 20
-245.971881
 30
0.0
 11
342.482385
 21
-259.971881
 31
0.0
  0
TEXT
  5
3C
100
AcDbEntity
  8
1
370
    50
100
AcDbText
 10
319.55159
 20
-256.012528
 30
0.0
 40
6.0
  1
日　付
 72
     5
 11
336.35159
 21
-256.012528
 31
0.0
100
AcDbText
  0
LINE
  5
3D
100
AcDbEntity
  8
1
370
    50
100
AcDbLine
 10
40.982385
 20
-259.971881
 30
0.0
 11
394.982385
 21
-259.971881
 31
0.0
  0
TEXT
  5
3E
100
AcDbEntity
  8
1
370
    50
100
AcDbText
 10
287.775011
 20
-256.322406
 30
0.0
 40
6.0
  1
第三角法
 72
     5
 11
310.575011
 21
-256.322406
 31
0.0
100
AcDbText
  0
TEXT
  5
3F
100
AcDbEntity
  8
1
370
    50
100
AcDbText
 10
291.087419
 20
-225.99802
 30
0.0
 40
6.0
  1
尺　度
 72
     5
 11
307.887419
 21
-225.99802
 31
0.0
100
AcDbText
  0
LINE
  5
40
100
AcDbEntity
  8
1
370
   100
100
AcDbLine
 10
40.982385
 20
-217.971881
 30
0.0
 11
394.982385
 21
-217.971881
 31
0.0
  0
LINE
  5
41
100
AcDbEntity
  8
1
370
    50
100
AcDbLine
 10
211.982385
 20
-217.971881
 30
0.0
 11
211.982385
 21
-277.971881
 31
0.0
  0
LINE
  5
42
100
AcDbEntity
  8
1
370
    25
100
AcDbLine
 10
374.982385
 20
-245.971881
 30
0.0
 11
374.982385
 21
-217.971881
 31
0.0
  0
LINE
  5
43
100
AcDbEntity
  8
1
370
    25
100
AcDbLine
 10
354.982385
 20
-245.971881
 30
0.0
 11
354.982385
 21
-217.971881
 31
0.0
  0
LINE
  5
44
100
AcDbEntity
  8
1
370
    25
100
AcDbLine
 10
334.982385
 20
-245.971881
 30
0.0
 11
334.982385
 21
-217.971881
 31
0.0
  0
LINE
  5
45
100
AcDbEntity
  8
1
370
    50
100
AcDbLine
 10
284.982385
 20
-277.971881
 30
0.0
 11
284.982385
 21
-217.971881
 31
0.0
  0
LINE
  5
46
100
AcDbEntity
  8
1
370
    50
100
AcDbLine
 10
189.982385
 20
-217.971881
 30
0.0
 11
189.982385
 21
-277.971881
 31
0.0
  0
LINE
  5
47
100
AcDbEntity
  8
1
370
    50
100
AcDbLine
 10
62.982385
 20
-217.971881
 30
0.0
 11
62.982385
 21
-259.971881
 31
0.0
  0
LINE
  5
48
100
AcDbEntity
  8
1
370
    50
100
AcDbLine
 10
284.982385
 20
-245.971881
 30
0.0
 11
394.982385
 21
-245.971881
 31
0.0
  0
TEXT
  5
49
100
AcDbEntity
  8
1
370
    50
100
AcDbText
 10
287.101129
 20
-271.880939
 30
0.0
 40
6.0
  1
コードＮｏ
 41
0.9
 72
     5
 11
313.021129
 21
-271.880939
 31
0.0
100
AcDbText
  0
TEXT
  5
4A
100
AcDbEntity
  8
1
370
   100
100
AcDbText
 10
52.886774
 20
-272.875659
 30
0.0
 40
8.0
  1
ミズタニバルブ工業株式会社
 41
1.2
 72
     5
 11
175.766774
 21
-272.875659
 31
0.0
100
AcDbText
  0
LINE
  5
4B
100
AcDbEntity
  8
1
370
    50
100
AcDbLine
 10
40.982385
 20
-238.971881
 30
0.0
 11
284.982385
 21
-238.971881
 31
0.0
  0
LINE
  5
4C
100
AcDbEntity
  8
1
370
    50
100
AcDbLine
 10
115.482385
 20
-238.971881
 30
0.0
 11
115.482385
 21
-259.971881
 31
0.0
  0
LINE
  5
4D
100
AcDbEntity
  8
1
370
    50
100
AcDbLine
 10
137.482385
 20
-238.971881
 30
0.0
 11
137.482385
 21
-259.971881
 31
0.0
  0
LINE
  5
4E
100
AcDbEntity
  8
1
370
    50
100
AcDbLine
 10
314.982385
 20
-277.971881
 30
0.0
 11
314.982385
 21
-217.971881
 31
0.0
  0
TEXT
  5
4F
100
AcDbEntity
  8
1
370
    50
100
AcDbText
 10
345.098131
 20
-256.100293
 30
0.0
 40
6.0
  1
　　・　　・
 72
     5
 11
379.898131
 21
-256.100293
 31
0.0
100
AcDbText
  0
LINE
  5
50
100
AcDbEntity
  8
1
370
   100
100
AcDbLine
 10
40.982385
 20
-217.971881
 30
0.0
 11
40.982385
 21
-277.971881
 31
0.0
  0
TEXT
  5
51
100
AcDbEntity
  8
1
370
    50
100
AcDbText
 10
290.832582
 20
-240.013492
 30
0.0
 40
6.0
  1
　／ 
 72
     5
 11
301.632582
 21
-240.013492
 31
0.0
100
AcDbText
  0
TEXT
  5
52
100
AcDbEntity
  8
1
370
    50
100
AcDbText
 10
193.904123
 20
-272.024909
 30
0.0
 40
6.0
  1
備 考 
 72
     5
 11
207.704123
 21
-272.024909
 31
0.0
100
AcDbText
  0
TEXT
  5
53
100
AcDbEntity
  8
1
370
    50
100
AcDbText
 10
193.512534
 20
-230.89184
 30
0.0
 40
6.0
  1
仕 上
 72
     5
 11
207.312534
 21
-230.89184
 31
0.0
100
AcDbText
  0
TEXT
  5
54
100
AcDbEntity
  8
1
370
    50
100
AcDbText
 10
193.447176
 20
-248.891666
 30
0.0
 40
6.0
  1
表 面
 72
     5
 11
207.247176
 21
-248.891666
 31
0.0
100
AcDbText
  0
TEXT
  5
55
100
AcDbEntity
  8
1
370
    50
100
AcDbText
 10
193.447176
 20
-255.891666
 30
0.0
 40
6.0
  1
処 理
 72
     5
 11
207.247176
 21
-255.891666
 31
0.0
100
AcDbText
  0
TEXT
  5
56
100
AcDbEntity
  8
1
370
    50
100
AcDbText
 10
44.79335
 20
-231.693399
 30
0.0
 40
6.0
  1
品 名
 72
     5
 11
58.59335
 21
-231.693399
 31
0.0
100
AcDbText
  0
TEXT
  5
57
100
AcDbEntity
  8
1
370
    50
100
AcDbText
 10
44.397766
 20
-252.462534
 30
0.0
 40
6.0
  1
材 質
 72
     5
 11
58.197766
 21
-252.462534
 31
0.0
100
AcDbText
  0
TEXT
  5
58
100
AcDbEntity
  8
1
370
    50
100
AcDbText
 10
118.897766
 20
-252.462534
 30
0.0
 40
6.0
  1
規 格
 72
     5
 11
132.697766
 21
-252.462534
 31
0.0
100
AcDbText
  0
LINE
  5
59
100
AcDbEntity
  8
2
370
    50
100
AcDbLine
 10
-78.44104
 20
-45.593271
 30
0.0
 11
-81.744041
 21
-33.266304
 31
0.0
  0
LINE
  5
5A
100
AcDbEntity
  8
2
370
    50
100
AcDbLine
 10
-78.44104
 20
-51.593271
 30
0.0
 11
-78.44104
 21
-45.593271
 31
0.0
  0
LINE
  5
5B
100
AcDbEntity
  8
2
370
    50
100
AcDbLine
 10
-140.44104
 20
3.906729
 30
0.0
 11
-140.44104
 21
-3.593271
 31
0.0
  0
LINE
  5
5C
100
AcDbEntity
  8
2
370
    50
100
AcDbLine
 10
-140.84104
 20
3.906729
 30
0.0
 11
-140.44104
 21
3.506729
 31
0.0
  0
LINE
  5
5D
100
AcDbEntity
  8
2
370
    50
100
AcDbLine
 10
-83.165998
 20
-31.332377
 30
0.0
 11
-124.063167
 21
-20.374014
 31
0.0
  0
ARC
  5
5E
100
AcDbEntity
  8
2
370
    50
100
AcDbCircle
 10
-140.935552
 20
-6.593271
 30
0.0
 40
3.0
100
AcDbArc
 50
55.883705
 51
90.0
  0
LINE
  5
5F
100
AcDbEntity
  8
2
370
    50
100
AcDbLine
 10
-83.94104
 20
-29.320025
 30
0.0
 11
-83.94104
 21
-16.343271
 31
0.0
  0
ARC
  5
60
100
AcDbEntity
  8
2
370
    50
100
AcDbCircle
 10
-84.641818
 20
-34.042761
 30
0.0
 40
3.0
100
AcDbArc
 50
15.0
 51
51.917433
  0
ARC
  5
61
100
AcDbEntity
  8
2
370
    50
100
AcDbCircle
 10
-80.94104
 20
-29.320025
 30
0.0
 40
3.0
100
AcDbArc
 50
180.0
 51
231.917433
  0
ARC
  5
62
100
AcDbEntity
  8
2
370
    50
100
AcDbCircle
 10
-115.94104
 20
-14.268122
 30
0.0
 40
8.0
100
AcDbArc
 50
255.0
 51
344.965912
  0
LINE
  5
63
100
AcDbEntity
  8
2
370
    50
100
AcDbLine
 10
-228.44104
 20
-45.593271
 30
0.0
 11
-225.138039
 21
-33.266304
 31
0.0
  0
LINE
  5
64
100
AcDbEntity
  8
2
370
    50
100
AcDbLine
 10
-228.44104
 20
-51.593271
 30
0.0
 11
-228.44104
 21
-45.593271
 31
0.0
  0
LINE
  5
65
100
AcDbEntity
  8
2
370
    50
100
AcDbLine
 10
-223.016719
 20
-31.144984
 30
0.0
 11
-187.20104
 21
-21.548201
 31
0.0
  0
LINE
  5
66
100
AcDbEntity
  8
2
370
    50
100
AcDbLine
 10
-222.94104
 20
-29.320025
 30
0.0
 11
-222.94104
 21
-16.343271
 31
0.0
  0
ARC
  5
67
100
AcDbEntity
  8
2
370
    50
100
AcDbCircle
 10
-222.240262
 20
-34.042761
 30
0.0
 40
3.0
100
AcDbArc
 50
105.0
 51
165.0
  0
ARC
  5
68
100
AcDbEntity
  8
2
370
    50
100
AcDbCircle
 10
-190.94104
 20
-14.268122
 30
0.0
 40
8.0
100
AcDbArc
 50
195.034088
 51
285.0
  0
LINE
  5
69
100
AcDbEntity
  8
2
370
    50
100
AcDbLine
 10
-228.44104
 20
-51.593271
 30
0.0
 11
-78.44104
 21
-51.593271
 31
0.0
  0
LINE
  5
6A
100
AcDbEntity
  8
2
370
    50
100
AcDbLine
 10
-81.44104
 20
-51.593271
 30
0.0
 11
-81.44104
 21
-45.215488
 31
0.0
  0
LINE
  5
6B
100
AcDbEntity
  8
2
370
    25
  6
CENTER
100
AcDbLine
 10
-210.94104
 20
-33.909027
 30
0.0
 11
-210.94104
 21
39.665718
 31
0.0
  0
LINE
  5
6C
100
AcDbEntity
  8
2
370
    25
  6
CENTER
100
AcDbLine
 10
-95.94104
 20
-33.909027
 30
0.0
 11
-95.94104
 21
39.665718
 31
0.0
  0
LINE
  5
6D
100
AcDbEntity
  8
2
370
    25
  6
CENTER
100
AcDbLine
 10
-153.44104
 20
-57.107441
 30
0.0
 11
-153.44104
 21
138.562347
 31
0.0
  0
LINE
  5
6E
100
AcDbEntity
  8
2
370
    25
  6
CENTER
100
AcDbLine
 10
-168.042923
 20
-19.593271
 30
0.0
 11
-137.138168
 21
-19.593271
 31
0.0
  0
LINE
  5
6F
100
AcDbEntity
  8
2
370
    50
100
AcDbLine
 10
-135.44104
 20
-45.593271
 30
0.0
 11
-130.224667
 21
-51.593271
 31
0.0
  0
LINE
  5
70
100
AcDbEntity
  8
2
370
    50
100
AcDbLine
 10
-81.44104
 20
-45.215488
 30
0.0
 11
-84.179661
 21
-34.994817
 31
0.0
  0
LINE
  5
71
100
AcDbEntity
  8
2
370
    50
100
AcDbLine
 10
-85.593874
 20
-33.580603
 30
0.0
 11
-119.758226
 21
-24.426293
 31
0.0
  0
ARC
  5
72
100
AcDbEntity
  8
2
370
    50
100
AcDbCircle
 10
-86.111512
 20
-35.512455
 30
0.0
 40
2.0
100
AcDbArc
 50
15.0
 51
75.0
  0
ARC
  5
73
100
AcDbEntity
  8
2
370
    50
100
AcDbCircle
 10
-140.374678
 20
-5.76537
 30
0.0
 40
2.0
100
AcDbArc
 50
4.204952
 51
55.883705
  0
ARC
  5
74
100
AcDbEntity
  8
2
370
    50
100
AcDbCircle
 10
-118.886786
 20
-1.055497
 30
0.0
 40
20.0
100
AcDbArc
 50
192.119265
 51
255.0
  0
ARC
  5
75
100
AcDbEntity
  8
2
370
    50
100
AcDbCircle
 10
-112.966377
 20
0.921235
 30
0.0
 40
26.241692
100
AcDbArc
 50
198.463365
 51
255.0
  0
LINE
  5
76
100
AcDbEntity
  8
2
370
    25
  6
CENTER
100
AcDbLine
 10
-203.44104
 20
-117.990662
 30
0.0
 11
-203.44104
 21
-48.447502
 31
0.0
  0
LINE
  5
77
100
AcDbEntity
  8
2
370
    25
  6
CENTER
100
AcDbLine
 10
-103.44104
 20
-117.990662
 30
0.0
 11
-103.44104
 21
-48.447502
 31
0.0
  0
LINE
  5
78
100
AcDbEntity
  8
2
370
    25
100
AcDbLine
 10
-135.44104
 20
-45.593271
 30
0.0
 11
-171.44104
 21
-45.593271
 31
0.0
  0
LINE
  5
79
100
AcDbEntity
  8
2
370
    50
100
AcDbLine
 10
155.996362
 20
-4.532467
 30
0.0
 11
155.996362
 21
-46.532467
 31
0.0
  0
LINE
  5
7A
100
AcDbEntity
  8
2
370
    50
100
AcDbLine
 10
218.996362
 20
-7.532467
 30
0.0
 11
218.996362
 21
-52.532467
 31
0.0
  0
LINE
  5
7B
100
AcDbEntity
  8
2
370
    50
100
AcDbLine
 10
159.996362
 20
3.906729
 30
0.0
 11
159.996362
 21
-0.532467
 31
0.0
  0
LINE
  5
7C
100
AcDbEntity
  8
2
370
    50
100
AcDbLine
 10
160.896362
 20
3.467533
 30
0.0
 11
159.996362
 21
2.567533
 31
0.0
  0
LINE
  5
7D
100
AcDbEntity
  8
2
370
    50
100
AcDbLine
 10
160.896362
 20
3.467533
 30
0.0
 11
159.996362
 21
2.567533
 31
0.0
  0
LINE
  5
7E
100
AcDbEntity
  8
2
370
    25
  6
CENTER
100
AcDbLine
 10
105.479805
 20
-20.532467
 30
0.0
 11
221.438538
 21
-20.532467
 31
0.0
  0
LINE
  5
7F
100
AcDbEntity
  8
2
370
    50
100
AcDbLine
 10
160.996362
 20
-52.532467
 30
0.0
 11
218.996362
 21
-52.532467
 31
0.0
  0
LINE
  5
80
100
AcDbEntity
  8
2
370
    50
100
AcDbLine
 10
155.996362
 20
-4.532467
 30
0.0
 11
164.629067
 21
-4.532467
 31
0.0
  0
ARC
  5
81
100
AcDbEntity
  8
2
370
    50
100
AcDbCircle
 10
215.996362
 20
-7.532467
 30
0.0
 40
3.0
100
AcDbArc
 50
0.0
 51
42.324215
  0
ARC
  5
82
100
AcDbEntity
  8
2
370
    50
100
AcDbCircle
 10
155.996362
 20
-0.532467
 30
0.0
 40
4.0
100
AcDbArc
 50
270.0
 51
360.0
  0
LINE
  5
83
100
AcDbEntity
  8
2
370
    50
100
AcDbLine
 10
155.996362
 20
-46.532467
 30
0.0
 11
160.996362
 21
-52.532467
 31
0.0
  0
LINE
  5
84
100
AcDbEntity
  8
2
370
    50
100
AcDbLine
 10
215.996362
 20
-5.532467
 30
0.0
 11
218.23243
 21
-5.532467
 31
0.0
  0
LINE
  5
85
100
AcDbEntity
  8
2
370
    25
100
AcDbLine
 10
209.316421
 20
-5.532467
 30
0.0
 11
215.996362
 21
-5.532467
 31
0.0
  0
ARC
  5
86
100
AcDbEntity
  8
2
370
    50
100
AcDbCircle
 10
-21.209518
 20
5.077566
 30
0.0
 40
100.0
100
AcDbArc
 50
168.537652
 51
188.388164
  0
ARC
  5
87
100
AcDbEntity
  8
2
370
    50
100
AcDbCircle
 10
-110.39457
 20
23.161443
 30
0.0
 40
9.0
100
AcDbArc
 50
96.34007
 51
168.537652
  0
ARC
  5
88
100
AcDbEntity
  8
2
370
    50
100
AcDbCircle
 10
-95.928317
 20
-107.037357
 30
0.0
 40
140.0
100
AcDbArc
 50
93.788374
 51
96.34007
  0
ARC
  5
89
100
AcDbEntity
  8
2
370
    50
100
AcDbCircle
 10
-103.678317
 20
33.275667
 30
0.0
 40
1.0
100
AcDbArc
 50
95.629843
 51
180.0
  0
ARC
  5
8A
100
AcDbEntity
  8
2
370
    50
100
AcDbCircle
 10
-95.928317
 20
-45.343271
 30
0.0
 40
80.0
100
AcDbArc
 50
84.370157
 51
95.629843
  0
ARC
  5
8B
100
AcDbEntity
  8
2
370
    50
100
AcDbCircle
 10
-88.178317
 20
33.275667
 30
0.0
 40
1.0
100
AcDbArc
 50
0.0
 51
84.370157
  0
LINE
  5
8C
100
AcDbEntity
  8
2
370
    50
100
AcDbLine
 10
-86.678317
 20
32.656729
 30
0.0
 11
-105.178317
 21
32.656729
 31
0.0
  0
ARC
  5
8D
100
AcDbEntity
  8
2
370
    50
100
AcDbCircle
 10
-95.928317
 20
-107.037357
 30
0.0
 40
140.0
100
AcDbArc
 50
83.65993
 51
86.211626
  0
ARC
  5
8E
100
AcDbEntity
  8
2
370
    50
100
AcDbCircle
 10
-81.462065
 20
23.161443
 30
0.0
 40
9.0
100
AcDbArc
 50
11.462348
 51
83.65993
  0
ARC
  5
8F
100
AcDbEntity
  8
2
370
    50
100
AcDbCircle
 10
-170.647116
 20
5.077566
 30
0.0
 40
100.0
100
AcDbArc
 50
351.611836
 51
11.462348
  0
ARC
  5
90
100
AcDbEntity
  8
2
370
    50
100
AcDbCircle
 10
-79.631287
 20
-8.343271
 30
0.0
 40
8.0
100
AcDbArc
 50
270.0
 51
351.611836
  0
LINE
  5
91
100
AcDbEntity
  8
2
370
    50
100
AcDbLine
 10
-79.631287
 20
-16.343271
 30
0.0
 11
-112.225347
 21
-16.343271
 31
0.0
  0
ARC
  5
92
100
AcDbEntity
  8
2
370
    50
100
AcDbCircle
 10
-112.225347
 20
-8.343271
 30
0.0
 40
8.0
100
AcDbArc
 50
188.388164
 51
270.0
  0
LINE
  5
93
100
AcDbEntity
  8
2
370
    50
100
AcDbLine
 10
-87.178317
 20
33.275667
 30
0.0
 11
-87.178317
 21
32.656729
 31
0.0
  0
LINE
  5
94
100
AcDbEntity
  8
2
370
    50
100
AcDbLine
 10
-104.678317
 20
33.275667
 30
0.0
 11
-104.678317
 21
32.656729
 31
0.0
  0
ARC
  5
95
100
AcDbEntity
  8
2
370
    50
100
AcDbCircle
 10
-205.593258
 20
4.562394
 30
0.0
 40
120.0
100
AcDbArc
 50
355.059572
 51
9.155483
  0
ARC
  5
96
100
AcDbEntity
  8
2
370
    50
100
AcDbCircle
 10
13.736623
 20
4.562394
 30
0.0
 40
120.0
100
AcDbArc
 50
170.844517
 51
184.940428
  0
ARC
  5
97
100
AcDbEntity
  8
2
370
    50
100
AcDbCircle
 10
-95.928317
 20
22.236808
 30
0.0
 40
8.91992
100
AcDbArc
 50
9.155483
 51
170.844517
  0
ARC
  5
98
100
AcDbEntity
  8
2
370
    50
100
AcDbCircle
 10
-95.928317
 20
-4.917161
 30
0.0
 40
9.926111
100
AcDbArc
 50
184.940428
 51
355.059572
  0
LINE
  5
99
100
AcDbEntity
  8
2
370
    50
100
AcDbLine
 10
-81.428317
 20
29.156729
 30
0.0
 11
-81.428317
 21
-11.843271
 31
0.0
  0
LINE
  5
9A
100
AcDbEntity
  8
2
370
    50
100
AcDbLine
 10
-110.428317
 20
29.156729
 30
0.0
 11
-110.428317
 21
-11.843271
 31
0.0
  0
ARC
  5
9B
100
AcDbEntity
  8
2
370
    50
100
AcDbCircle
 10
-170.647116
 20
5.077566
 30
0.0
 40
99.5
100
AcDbArc
 50
352.362481
 51
11.528523
  0
ARC
  5
9C
100
AcDbEntity
  8
2
370
    50
100
AcDbCircle
 10
-21.209518
 20
5.077566
 30
0.0
 40
99.5
100
AcDbArc
 50
168.471477
 51
187.637519
  0
ARC
  5
9D
100
AcDbEntity
  8
2
370
    50
100
AcDbCircle
 10
-110.863536
 20
23.364366
 30
0.0
 40
8.0
100
AcDbArc
 50
105.117347
 51
168.471477
  0
ARC
  5
9E
100
AcDbEntity
  8
2
370
    50
100
AcDbCircle
 10
-112.428317
 20
29.156729
 30
0.0
 40
2.0
100
AcDbArc
 50
0.0
 51
105.117347
  0
ARC
  5
9F
100
AcDbEntity
  8
2
370
    50
100
AcDbCircle
 10
-80.993098
 20
23.364366
 30
0.0
 40
8.0
100
AcDbArc
 50
11.528523
 51
74.882653
  0
ARC
  5
A0
100
AcDbEntity
  8
2
370
    50
100
AcDbCircle
 10
-79.428317
 20
29.156729
 30
0.0
 40
2.0
100
AcDbArc
 50
74.882653
 51
180.0
  0
ARC
  5
A1
100
AcDbEntity
  8
2
370
    50
100
AcDbCircle
 10
-111.897797
 20
-7.083281
 30
0.0
 40
8.0
100
AcDbArc
 50
187.637519
 51
252.175397
  0
ARC
  5
A2
100
AcDbEntity
  8
2
370
    50
100
AcDbCircle
 10
-113.428317
 20
-11.843271
 30
0.0
 40
3.0
100
AcDbArc
 50
252.175397
 51
360.0
  0
ARC
  5
A3
100
AcDbEntity
  8
2
370
    50
100
AcDbCircle
 10
-78.428317
 20
-11.843271
 30
0.0
 40
3.0
100
AcDbArc
 50
180.0
 51
287.824603
  0
ARC
  5
A4
100
AcDbEntity
  8
2
370
    50
100
AcDbCircle
 10
-79.958838
 20
-7.083281
 30
0.0
 40
8.0
100
AcDbArc
 50
287.824603
 51
352.362481
  0
ARC
  5
A5
100
AcDbEntity
  8
2
370
    50
100
AcDbCircle
 10
-285.672562
 20
5.077566
 30
0.0
 40
100.0
100
AcDbArc
 50
351.611836
 51
11.462348
  0
ARC
  5
A6
100
AcDbEntity
  8
2
370
    50
100
AcDbCircle
 10
-196.48751
 20
23.161443
 30
0.0
 40
9.0
100
AcDbArc
 50
11.462348
 51
83.65993
  0
ARC
  5
A7
100
AcDbEntity
  8
2
370
    50
100
AcDbCircle
 10
-210.953763
 20
-107.037357
 30
0.0
 40
140.0
100
AcDbArc
 50
83.65993
 51
86.211626
  0
ARC
  5
A8
100
AcDbEntity
  8
2
370
    50
100
AcDbCircle
 10
-203.203763
 20
33.275667
 30
0.0
 40
1.0
100
AcDbArc
 50
0.0
 51
84.370157
  0
ARC
  5
A9
100
AcDbEntity
  8
2
370
    50
100
AcDbCircle
 10
-210.953763
 20
-45.343271
 30
0.0
 40
80.0
100
AcDbArc
 50
84.370157
 51
95.629843
  0
ARC
  5
AA
100
AcDbEntity
  8
2
370
    50
100
AcDbCircle
 10
-218.703763
 20
33.275667
 30
0.0
 40
1.0
100
AcDbArc
 50
95.629843
 51
180.0
  0
LINE
  5
AB
100
AcDbEntity
  8
2
370
    50
100
AcDbLine
 10
-220.203763
 20
32.656729
 30
0.0
 11
-201.703763
 21
32.656729
 31
0.0
  0
ARC
  5
AC
100
AcDbEntity
  8
2
370
    50
100
AcDbCircle
 10
-210.953763
 20
-107.037357
 30
0.0
 40
140.0
100
AcDbArc
 50
93.788374
 51
96.34007
  0
ARC
  5
AD
100
AcDbEntity
  8
2
370
    50
100
AcDbCircle
 10
-225.420016
 20
23.161443
 30
0.0
 40
9.0
100
AcDbArc
 50
96.34007
 51
168.537652
  0
ARC
  5
AE
100
AcDbEntity
  8
2
370
    50
100
AcDbCircle
 10
-136.234964
 20
5.077566
 30
0.0
 40
100.0
100
AcDbArc
 50
168.537652
 51
188.388164
  0
ARC
  5
AF
100
AcDbEntity
  8
2
370
    50
100
AcDbCircle
 10
-227.250793
 20
-8.343271
 30
0.0
 40
8.0
100
AcDbArc
 50
188.388164
 51
270.0
  0
LINE
  5
B0
100
AcDbEntity
  8
2
370
    50
100
AcDbLine
 10
-227.250793
 20
-16.343271
 30
0.0
 11
-194.656733
 21
-16.343271
 31
0.0
  0
ARC
  5
B1
100
AcDbEntity
  8
2
370
    50
100
AcDbCircle
 10
-194.656733
 20
-8.343271
 30
0.0
 40
8.0
100
AcDbArc
 50
270.0
 51
351.611836
  0
LINE
  5
B2
100
AcDbEntity
  8
2
370
    50
100
AcDbLine
 10
-219.703763
 20
33.275667
 30
0.0
 11
-219.703763
 21
32.656729
 31
0.0
  0
LINE
  5
B3
100
AcDbEntity
  8
2
370
    50
100
AcDbLine
 10
-202.203763
 20
33.275667
 30
0.0
 11
-202.203763
 21
32.656729
 31
0.0
  0
ARC
  5
B4
100
AcDbEntity
  8
2
370
    50
100
AcDbCircle
 10
-101.288822
 20
4.562394
 30
0.0
 40
120.0
100
AcDbArc
 50
170.844517
 51
184.940428
  0
ARC
  5
B5
100
AcDbEntity
  8
2
370
    50
100
AcDbCircle
 10
-320.618703
 20
4.562394
 30
0.0
 40
120.0
100
AcDbArc
 50
355.059572
 51
9.155483
  0
ARC
  5
B6
100
AcDbEntity
  8
2
370
    50
100
AcDbCircle
 10
-210.953763
 20
22.236808
 30
0.0
 40
8.91992
100
AcDbArc
 50
9.155483
 51
170.844517
  0
ARC
  5
B7
100
AcDbEntity
  8
2
370
    50
100
AcDbCircle
 10
-210.953763
 20
-4.917161
 30
0.0
 40
9.926111
100
AcDbArc
 50
184.940428
 51
355.059572
  0
LINE
  5
B8
100
AcDbEntity
  8
2
370
    50
100
AcDbLine
 10
-225.453763
 20
29.156729
 30
0.0
 11
-225.453763
 21
-11.843271
 31
0.0
  0
LINE
  5
B9
100
AcDbEntity
  8
2
370
    50
100
AcDbLine
 10
-196.453763
 20
29.156729
 30
0.0
 11
-196.453763
 21
-11.843271
 31
0.0
  0
ARC
  5
BA
100
AcDbEntity
  8
2
370
    50
100
AcDbCircle
 10
-136.234964
 20
5.077566
 30
0.0
 40
99.5
100
AcDbArc
 50
168.471477
 51
187.637519
  0
ARC
  5
BB
100
AcDbEntity
  8
2
370
    50
100
AcDbCircle
 10
-285.672562
 20
5.077566
 30
0.0
 40
99.5
100
AcDbArc
 50
352.362481
 51
11.528523
  0
ARC
  5
BC
100
AcDbEntity
  8
2
370
    50
100
AcDbCircle
 10
-196.018544
 20
23.364366
 30
0.0
 40
8.0
100
AcDbArc
 50
11.528523
 51
74.882653
  0
ARC
  5
BD
100
AcDbEntity
  8
2
370
    50
100
AcDbCircle
 10
-194.453763
 20
29.156729
 30
0.0
 40
2.0
100
AcDbArc
 50
74.882653
 51
180.0
  0
ARC
  5
BE
100
AcDbEntity
  8
2
370
    50
100
AcDbCircle
 10
-225.888982
 20
23.364366
 30
0.0
 40
8.0
100
AcDbArc
 50
105.117347
 51
168.471477
  0
ARC
  5
BF
100
AcDbEntity
  8
2
370
    50
100
AcDbCircle
 10
-227.453763
 20
29.156729
 30
0.0
 40
2.0
100
AcDbArc
 50
0.0
 51
105.117347
  0
ARC
  5
C0
100
AcDbEntity
  8
2
370
    50
100
AcDbCircle
 10
-194.984284
 20
-7.083281
 30
0.0
 40
8.0
100
AcDbArc
 50
287.824603
 51
352.362481
  0
ARC
  5
C1
100
AcDbEntity
  8
2
370
    50
100
AcDbCircle
 10
-193.453763
 20
-11.843271
 30
0.0
 40
3.0
100
AcDbArc
 50
180.0
 51
287.824603
  0
ARC
  5
C2
100
AcDbEntity
  8
2
370
    50
100
AcDbCircle
 10
-228.453763
 20
-11.843271
 30
0.0
 40
3.0
100
AcDbArc
 50
252.175397
 51
360.0
  0
ARC
  5
C3
100
AcDbEntity
  8
2
370
    50
100
AcDbCircle
 10
-226.923242
 20
-7.083281
 30
0.0
 40
8.0
100
AcDbArc
 50
187.637519
 51
252.175397
  0
LINE
  5
C4
100
AcDbEntity
  8
2
370
    50
100
AcDbLine
 10
-225.44104
 20
-51.593271
 30
0.0
 11
-225.44104
 21
-45.215488
 31
0.0
  0
LINE
  5
C5
100
AcDbEntity
  8
2
370
    50
100
AcDbLine
 10
-225.44104
 20
-45.215488
 30
0.0
 11
-222.702419
 21
-34.994817
 31
0.0
  0
LINE
  5
C6
100
AcDbEntity
  8
2
370
    50
100
AcDbLine
 10
-221.288206
 20
-33.580603
 30
0.0
 11
-187.123854
 21
-24.426293
 31
0.0
  0
ARC
  5
C7
100
AcDbEntity
  8
2
370
    50
100
AcDbCircle
 10
-220.770568
 20
-35.512455
 30
0.0
 40
2.0
100
AcDbArc
 50
105.0
 51
165.0
  0
LINE
  5
C8
100
AcDbEntity
  8
2
370
    50
100
AcDbLine
 10
-171.44104
 20
-45.593271
 30
0.0
 11
-176.657414
 21
-51.593271
 31
0.0
  0
ARC
  5
C9
100
AcDbEntity
  8
2
370
    50
100
AcDbCircle
 10
-225.94104
 20
-29.320025
 30
0.0
 40
3.0
100
AcDbArc
 50
308.082567
 51
360.0
  0
LINE
  5
CA
100
AcDbEntity
  8
2
370
    50
100
AcDbLine
 10
-187.20104
 20
-17.093271
 30
0.0
 11
-187.20104
 21
-22.093271
 31
0.0
  0
ARC
  5
CB
100
AcDbEntity
  8
2
370
    50
100
AcDbCircle
 10
-185.70104
 20
-22.093271
 30
0.0
 40
1.5
100
AcDbArc
 50
180.0
 51
276.164235
  0
ARC
  5
CC
100
AcDbEntity
  8
2
370
    50
100
AcDbCircle
 10
-185.70104
 20
-17.093271
 30
0.0
 40
1.5
100
AcDbArc
 50
90.0
 51
180.0
  0
ARC
  5
CD
100
AcDbEntity
  8
2
370
    50
100
AcDbCircle
 10
-175.867515
 20
-32.603365
 30
0.0
 40
10.0
100
AcDbArc
 50
30.118966
 51
88.513696
  0
ARC
  5
CE
100
AcDbEntity
  8
2
370
    50
100
AcDbCircle
 10
-176.645655
 20
-62.593271
 30
0.0
 40
40.0
100
AcDbArc
 50
88.513696
 51
102.603453
  0
ARC
  5
CF
100
AcDbEntity
  8
2
370
    50
100
AcDbCircle
 10
-175.867515
 20
-6.583178
 30
0.0
 40
10.0
100
AcDbArc
 50
271.486304
 51
329.881034
  0
ARC
  5
D0
100
AcDbEntity
  8
2
370
    50
100
AcDbCircle
 10
-176.645655
 20
23.406729
 30
0.0
 40
40.0
100
AcDbArc
 50
257.396547
 51
271.486304
  0
ARC
  5
D1
100
AcDbEntity
  8
2
370
    50
100
AcDbCircle
 10
-175.867515
 20
-32.603365
 30
0.0
 40
9.427
100
AcDbArc
 50
30.118966
 51
88.513696
  0
ARC
  5
D2
100
AcDbEntity
  8
2
370
    50
100
AcDbCircle
 10
-177.552435
 20
-97.541063
 30
0.0
 40
74.386554
100
AcDbArc
 50
88.513696
 51
96.164235
  0
ARC
  5
D3
100
AcDbEntity
  8
2
370
    50
100
AcDbCircle
 10
-153.44104
 20
-19.593271
 30
0.0
 40
15.927
100
AcDbArc
 50
210.118966
 51
149.881034
  0
ARC
  5
D4
100
AcDbEntity
  8
2
370
    50
100
AcDbCircle
 10
-175.867515
 20
-6.583178
 30
0.0
 40
9.427
100
AcDbArc
 50
271.486304
 51
329.881034
  0
ARC
  5
D5
100
AcDbEntity
  8
2
370
    50
100
AcDbCircle
 10
-177.552435
 20
58.354521
 30
0.0
 40
74.386554
100
AcDbArc
 50
263.835765
 51
271.486304
  0
ARC
  5
D6
100
AcDbEntity
  8
2
370
    50
100
AcDbCircle
 10
-153.44104
 20
-19.593271
 30
0.0
 40
16.5
100
AcDbArc
 50
210.118966
 51
149.881034
  0
LINE
  5
D7
100
AcDbEntity
  8
2
370
    50
100
AcDbLine
 10
146.396362
 20
-36.010165
 30
0.0
 11
146.396362
 21
-5.054769
 31
0.0
  0
LINE
  5
D8
100
AcDbEntity
  8
2
370
    50
100
AcDbLine
 10
112.396362
 20
-31.162467
 30
0.0
 11
112.396362
 21
-10.361174
 31
0.0
  0
LINE
  5
D9
100
AcDbEntity
  8
2
370
    50
100
AcDbLine
 10
145.374308
 20
-4.055012
 30
0.0
 11
120.401595
 21
-4.605881
 31
0.0
  0
ARC
  5
DA
100
AcDbEntity
  8
2
370
    50
100
AcDbCircle
 10
145.396362
 20
-5.054769
 30
0.0
 40
1.0
100
AcDbArc
 50
0.0
 51
91.263673
  0
ARC
  5
DB
100
AcDbEntity
  8
2
370
    50
100
AcDbCircle
 10
120.600076
 20
-13.603692
 30
0.0
 40
9.0
100
AcDbArc
 50
91.263673
 51
152.405115
  0
ARC
  5
DC
100
AcDbEntity
  8
2
370
    50
100
AcDbCircle
 10
114.396362
 20
-10.361174
 30
0.0
 40
2.0
100
AcDbArc
 50
152.405115
 51
180.0
  0
LINE
  5
DD
100
AcDbEntity
  8
2
370
    50
100
AcDbLine
 10
-166.44104
 20
3.906729
 30
0.0
 11
-166.44104
 21
-3.593271
 31
0.0
  0
LINE
  5
DE
100
AcDbEntity
  8
2
370
    50
100
AcDbLine
 10
-166.04104
 20
3.906729
 30
0.0
 11
-166.44104
 21
3.506729
 31
0.0
  0
ARC
  5
DF
100
AcDbEntity
  8
2
370
    50
100
AcDbCircle
 10
-187.995294
 20
-1.055497
 30
0.0
 40
20.0
100
AcDbArc
 50
311.75082
 51
347.880735
  0
ARC
  5
E0
100
AcDbEntity
  8
2
370
    50
100
AcDbCircle
 10
-165.946528
 20
-6.593271
 30
0.0
 40
3.0
100
AcDbArc
 50
90.0
 51
124.116295
  0
ARC
  5
E1
100
AcDbEntity
  8
2
370
    50
100
AcDbCircle
 10
-166.507402
 20
-5.76537
 30
0.0
 40
2.0
100
AcDbArc
 50
124.116295
 51
175.795048
  0
LINE
  5
E2
100
AcDbEntity
  8
2
370
    50
100
AcDbLine
 10
-165.946528
 20
-3.593271
 30
0.0
 11
-157.472169
 21
-3.593271
 31
0.0
  0
LINE
  5
E3
100
AcDbEntity
  8
2
370
    50
100
AcDbLine
 10
-149.409911
 20
-3.593271
 30
0.0
 11
-140.935552
 21
-3.593271
 31
0.0
  0
LINE
  5
E4
100
AcDbEntity
  8
2
370
    50
100
AcDbLine
 10
-138.380061
 20
-5.618722
 30
0.0
 11
-137.721245
 21
-14.579485
 31
0.0
  0
LINE
  5
E5
100
AcDbEntity
  8
2
370
    50
100
AcDbLine
 10
-137.156993
 20
-22.254061
 30
0.0
 11
-135.44104
 21
-45.593271
 31
0.0
  0
LINE
  5
E6
100
AcDbEntity
  8
2
370
    50
100
AcDbLine
 10
-171.44104
 20
-45.593271
 30
0.0
 11
-169.946658
 21
-25.267714
 31
0.0
  0
LINE
  5
E7
100
AcDbEntity
  8
2
370
    50
100
AcDbLine
 10
-169.051747
 20
-13.095753
 30
0.0
 11
-168.502019
 21
-5.618722
 31
0.0
  0
ARC
  5
E8
100
AcDbEntity
  8
2
370
    50
100
AcDbCircle
 10
-193.915703
 20
0.921235
 30
0.0
 40
26.241692
100
AcDbArc
 50
285.0
 51
291.756933
  0
ARC
  5
E9
100
AcDbEntity
  8
2
370
    50
100
AcDbCircle
 10
-193.915703
 20
0.921235
 30
0.0
 40
26.241692
100
AcDbArc
 50
320.573371
 51
345.568634
  0
CIRCLE
  5
EA
100
AcDbEntity
  8
2
370
    50
100
AcDbCircle
 10
-153.44104
 20
-19.593271
 30
0.0
 40
8.75
  0
LINE
  5
EB
100
AcDbEntity
  8
2
370
    50
100
AcDbLine
 10
149.996362
 20
-9.917467
 30
0.0
 11
150.631362
 21
-9.282467
 31
0.0
  0
LINE
  5
EC
100
AcDbEntity
  8
2
370
    50
100
AcDbLine
 10
151.996362
 20
-9.282467
 30
0.0
 11
148.996362
 21
-9.282467
 31
0.0
  0
LINE
  5
ED
100
AcDbEntity
  8
2
370
    25
100
AcDbLine
 10
149.996362
 20
-9.917467
 30
0.0
 11
148.996362
 21
-9.917467
 31
0.0
  0
LINE
  5
EE
100
AcDbEntity
  8
2
370
    25
100
AcDbLine
 10
149.996362
 20
-31.782467
 30
0.0
 11
149.996362
 21
-9.282467
 31
0.0
  0
LINE
  5
EF
100
AcDbEntity
  8
2
370
    50
100
AcDbLine
 10
155.996362
 20
-6.032467
 30
0.0
 11
151.996362
 21
-6.032467
 31
0.0
  0
LINE
  5
F0
100
AcDbEntity
  8
2
370
    50
100
AcDbLine
 10
151.996362
 20
-31.782467
 30
0.0
 11
148.996362
 21
-31.782467
 31
0.0
  0
LINE
  5
F1
100
AcDbEntity
  8
2
370
    25
100
AcDbLine
 10
149.996362
 20
-31.147467
 30
0.0
 11
148.996362
 21
-31.147467
 31
0.0
  0
LINE
  5
F2
100
AcDbEntity
  8
2
370
    50
100
AcDbLine
 10
149.996362
 20
-31.147467
 30
0.0
 11
150.631362
 21
-31.782467
 31
0.0
  0
LINE
  5
F3
100
AcDbEntity
  8
2
370
    50
100
AcDbLine
 10
155.996362
 20
-35.032467
 30
0.0
 11
151.996362
 21
-35.032467
 31
0.0
  0
LINE
  5
F4
100
AcDbEntity
  8
2
370
    50
100
AcDbLine
 10
151.996362
 20
-35.032467
 30
0.0
 11
151.996362
 21
-6.032467
 31
0.0
  0
LINE
  5
F5
100
AcDbEntity
  8
2
370
    50
100
AcDbLine
 10
155.996362
 20
-35.032467
 30
0.0
 11
155.996362
 21
-31.032467
 31
0.0
  0
LINE
  5
F6
100
AcDbEntity
  8
2
370
    50
100
AcDbLine
 10
155.996362
 20
-20.532467
 30
0.0
 11
155.996362
 21
-6.032467
 31
0.0
  0
LINE
  5
F7
100
AcDbEntity
  8
2
370
    50
100
AcDbLine
 10
151.996362
 20
-15.240964
 30
0.0
 11
155.996362
 21
-15.240964
 31
0.0
  0
LINE
  5
F8
100
AcDbEntity
  8
2
370
    50
100
AcDbLine
 10
151.996362
 20
-11.486875
 30
0.0
 11
155.996362
 21
-11.486875
 31
0.0
  0
LINE
  5
F9
100
AcDbEntity
  8
2
370
    50
100
AcDbLine
 10
151.996362
 20
-6.195373
 30
0.0
 11
155.996362
 21
-6.195373
 31
0.0
  0
LINE
  5
FA
100
AcDbEntity
  8
2
370
    50
100
AcDbLine
 10
151.996362
 20
-25.82397
 30
0.0
 11
155.996362
 21
-25.82397
 31
0.0
  0
LINE
  5
FB
100
AcDbEntity
  8
2
370
    50
100
AcDbLine
 10
151.996362
 20
-29.578059
 30
0.0
 11
155.996362
 21
-29.578059
 31
0.0
  0
LINE
  5
FC
100
AcDbEntity
  8
2
370
    50
100
AcDbLine
 10
151.996362
 20
-34.869561
 30
0.0
 11
155.996362
 21
-34.869561
 31
0.0
  0
LINE
  5
FD
100
AcDbEntity
  8
2
370
    50
100
AcDbLine
 10
148.996362
 20
-32.282467
 30
0.0
 11
148.996362
 21
-8.782467
 31
0.0
  0
ARC
  5
FE
100
AcDbEntity
  8
2
370
    50
100
AcDbCircle
 10
144.850581
 20
-26.032467
 30
0.0
 40
7.5
100
AcDbArc
 50
281.894142
 51
303.55731
  0
ARC
  5
FF
100
AcDbEntity
  8
2
370
    50
100
AcDbCircle
 10
144.850581
 20
-15.032467
 30
0.0
 40
7.5
100
AcDbArc
 50
56.44269
 51
78.105858
  0
ELLIPSE
  5
100
100
AcDbEntity
  8
2
370
    50
100
AcDbEllipse
 10
144.996362
 20
-20.532467
 30
0.0
 11
0.0
 21
4.3517239999999999
 31
0.0
210
0.0
220
0.0
230
1.0
 40
0.689382
 41
3.6271110000000002
 42
5.7976669999999997
  0
LINE
  5
101
100
AcDbEntity
  8
2
370
    50
100
AcDbLine
 10
145.374308
 20
-37.009922
 30
0.0
 11
120.401595
 21
-36.459053
 31
0.0
  0
ARC
  5
102
100
AcDbEntity
  8
2
370
    50
100
AcDbCircle
 10
145.396362
 20
-36.010165
 30
0.0
 40
1.0
100
AcDbArc
 50
268.736327
 51
360.0
  0
ARC
  5
103
100
AcDbEntity
  8
2
370
    50
100
AcDbCircle
 10
120.600076
 20
-27.461242
 30
0.0
 40
9.0
100
AcDbArc
 50
207.594885
 51
268.736327
  0
ARC
  5
104
100
AcDbEntity
  8
2
370
    50
100
AcDbCircle
 10
114.396362
 20
-30.70376
 30
0.0
 40
2.0
100
AcDbArc
 50
180.0
 51
207.594885
  0
ELLIPSE
  5
105
100
AcDbEntity
  8
2
370
    50
100
AcDbEllipse
 10
144.996362
 20
-9.923656
 30
0.0
 11
-3.0
 21
0.0
 31
0.0
210
0.0
220
0.0
230
1.0
 40
0.725287
 41
2.056314
 42
4.226871
  0
ELLIPSE
  5
106
100
AcDbEntity
  8
2
370
    50
100
AcDbEllipse
 10
144.996362
 20
-31.141278
 30
0.0
 11
3.0
 21
0.0
 31
0.0
210
0.0
220
0.0
230
1.0
 40
0.725287
 41
5.1979069999999998
 42
1.085278
  0
ARC
  5
107
100
AcDbEntity
  8
2
370
    50
100
AcDbCircle
 10
111.777423
 20
-28.269744
 30
0.0
 40
1.0
100
AcDbArc
 50
185.629843
 51
270.0
  0
ARC
  5
108
100
AcDbEntity
  8
2
370
    50
100
AcDbCircle
 10
190.396362
 20
-20.519744
 30
0.0
 40
80.0
100
AcDbArc
 50
174.370157
 51
185.629843
  0
ARC
  5
109
100
AcDbEntity
  8
2
370
    50
100
AcDbCircle
 10
111.777423
 20
-12.769744
 30
0.0
 40
1.0
100
AcDbArc
 50
90.0
 51
174.370157
  0
LINE
  5
10A
100
AcDbEntity
  8
2
370
    50
100
AcDbLine
 10
111.777423
 20
-11.769744
 30
0.0
 11
112.396362
 21
-11.769744
 31
0.0
  0
LINE
  5
10B
100
AcDbEntity
  8
2
370
    50
100
AcDbLine
 10
111.777423
 20
-29.269744
 30
0.0
 11
112.396362
 21
-29.269744
 31
0.0
  0
LINE
  5
10C
100
AcDbEntity
  8
2
370
    50
100
AcDbLine
 10
206.996362
 20
-46.532467
 30
0.0
 11
206.996362
 21
-52.532467
 31
0.0
  0
LINE
  5
10D
100
AcDbEntity
  8
2
370
    50
100
AcDbLine
 10
166.996362
 20
-46.532467
 30
0.0
 11
166.996362
 21
-52.532467
 31
0.0
  0
ARC
  5
10E
100
AcDbEntity
  8
2
370
    50
100
AcDbCircle
 10
186.996362
 20
-96.886316
 30
0.0
 40
64.353849
100
AcDbArc
 50
74.682689
 51
105.317311
  0
LINE
  5
10F
100
AcDbEntity
  8
2
370
    25
100
AcDbLine
 10
155.996362
 20
-46.532467
 30
0.0
 11
218.996362
 21
-46.532467
 31
0.0
  0
LINE
  5
110
100
AcDbEntity
  8
2
370
    50
100
AcDbLine
 10
206.996362
 20
-46.532467
 30
0.0
 11
203.996362
 21
-34.818467
 31
0.0
  0
LINE
  5
111
100
AcDbEntity
  8
2
370
    50
100
AcDbLine
 10
166.996362
 20
-46.532467
 30
0.0
 11
169.996362
 21
-34.818467
 31
0.0
  0
LINE
  5
112
100
AcDbEntity
  8
2
370
    50
100
AcDbLine
 10
198.996362
 20
-16.343271
 30
0.0
 11
198.996362
 21
-31.223991
 31
0.0
  0
LINE
  5
113
100
AcDbEntity
  8
2
370
    50
100
AcDbLine
 10
174.996362
 20
-16.343271
 30
0.0
 11
174.996362
 21
-31.223991
 31
0.0
  0
ARC
  5
114
100
AcDbEntity
  8
2
370
    50
100
AcDbCircle
 10
201.996362
 20
-31.223991
 30
0.0
 40
3.0
100
AcDbArc
 50
180.0
 51
257.132073
  0
ARC
  5
115
100
AcDbEntity
  8
2
370
    50
100
AcDbCircle
 10
171.996362
 20
-31.223991
 30
0.0
 40
3.0
100
AcDbArc
 50
282.867927
 51
360.0
  0
LINE
  5
116
100
AcDbEntity
  8
2
370
    50
100
AcDbLine
 10
209.213904
 20
17.467533
 30
0.0
 11
218.496362
 21
17.467533
 31
0.0
  0
LINE
  5
117
100
AcDbEntity
  8
2
370
    50
100
AcDbLine
 10
220.496362
 20
-3.532467
 30
0.0
 11
220.496362
 21
15.467533
 31
0.0
  0
ARC
  5
118
100
AcDbEntity
  8
2
370
    50
100
AcDbCircle
 10
218.496362
 20
15.467533
 30
0.0
 40
2.0
100
AcDbArc
 50
0.0
 51
90.0
  0
ARC
  5
119
100
AcDbEntity
  8
2
370
    50
100
AcDbCircle
 10
218.496362
 20
-3.532467
 30
0.0
 40
2.0
100
AcDbArc
 50
270.0
 51
0.0
  0
LINE
  5
11A
100
AcDbEntity
  8
2
370
    50
100
AcDbLine
 10
209.316421
 20
-5.532467
 30
0.0
 11
218.496362
 21
-5.532467
 31
0.0
  0
LINE
  5
11B
100
AcDbEntity
  8
2
370
    50
100
AcDbLine
 10
215.041953
 20
15.467533
 30
0.0
 11
211.287864
 21
15.467533
 31
0.0
  0
LINE
  5
11C
100
AcDbEntity
  8
2
370
    50
100
AcDbLine
 10
215.041953
 20
-3.532467
 30
0.0
 11
211.287864
 21
-3.532467
 31
0.0
  0
LINE
  5
11D
100
AcDbEntity
  8
2
370
    50
100
AcDbLine
 10
215.041953
 20
15.467533
 30
0.0
 11
215.041953
 21
-3.532467
 31
0.0
  0
LINE
  5
11E
100
AcDbEntity
  8
2
370
    50
100
AcDbLine
 10
211.287864
 20
15.467533
 30
0.0
 11
211.287864
 21
-3.532467
 31
0.0
  0
ARC
  5
11F
100
AcDbEntity
  8
2
370
    50
100
AcDbCircle
 10
217.687705
 20
14.717533
 30
0.0
 40
2.75
100
AcDbArc
 50
90.0
 51
164.17338
  0
ARC
  5
120
100
AcDbEntity
  8
2
370
    50
100
AcDbCircle
 10
217.687705
 20
-2.782467
 30
0.0
 40
2.75
100
AcDbArc
 50
195.82662
 51
270.0
  0
ARC
  5
121
100
AcDbEntity
  8
2
370
    50
100
AcDbCircle
 10
205.996362
 20
9.467533
 30
0.0
 40
8.0
100
AcDbArc
 50
48.590378
 51
65.956717
  0
ARC
  5
122
100
AcDbEntity
  8
2
370
    50
100
AcDbCircle
 10
205.996362
 20
2.467533
 30
0.0
 40
8.0
100
AcDbArc
 50
294.818336
 51
311.409622
  0
LINE
  5
123
100
AcDbEntity
  8
2
370
    50
100
AcDbLine
 10
195.747207
 20
32.967533
 30
0.0
 11
216.746362
 21
32.967533
 31
0.0
  0
LINE
  5
124
100
AcDbEntity
  8
2
370
    50
100
AcDbLine
 10
216.746362
 20
32.967533
 30
0.0
 11
217.496362
 21
32.217533
 31
0.0
  0
LINE
  5
125
100
AcDbEntity
  8
2
370
    50
100
AcDbLine
 10
216.746362
 20
22.217533
 30
0.0
 11
217.496362
 21
21.467533
 31
0.0
  0
LINE
  5
126
100
AcDbEntity
  8
2
370
    50
100
AcDbLine
 10
217.496362
 20
21.467533
 30
0.0
 11
217.496362
 21
32.217533
 31
0.0
  0
LINE
  5
127
100
AcDbEntity
  8
2
370
    25
100
AcDbLine
 10
216.746362
 20
22.217533
 30
0.0
 11
216.746362
 21
32.967533
 31
0.0
  0
LINE
  5
128
100
AcDbEntity
  8
2
370
    50
100
AcDbLine
 10
220.496362
 20
17.467533
 30
0.0
 11
220.496362
 21
19.967533
 31
0.0
  0
LINE
  5
129
100
AcDbEntity
  8
2
370
    50
100
AcDbLine
 10
208.925342
 20
21.467533
 30
0.0
 11
218.996362
 21
21.467533
 31
0.0
  0
LINE
  5
12A
100
AcDbEntity
  8
2
370
    50
100
AcDbLine
 10
209.213904
 20
17.467533
 30
0.0
 11
220.496362
 21
17.467533
 31
0.0
  0
LINE
  5
12B
100
AcDbEntity
  8
2
370
    50
100
AcDbLine
 10
215.041953
 20
19.967533
 30
0.0
 11
215.041953
 21
17.467533
 31
0.0
  0
LINE
  5
12C
100
AcDbEntity
  8
2
370
    50
100
AcDbLine
 10
211.287864
 20
19.967533
 30
0.0
 11
211.287864
 21
17.467533
 31
0.0
  0
ARC
  5
12D
100
AcDbEntity
  8
2
370
    50
100
AcDbCircle
 10
218.996362
 20
19.967533
 30
0.0
 40
1.5
100
AcDbArc
 50
0.0
 51
90.0
  0
LINE
  5
12E
100
AcDbEntity
  8
2
370
    50
100
AcDbLine
 10
215.041953
 20
19.967533
 30
0.0
 11
211.287864
 21
19.967533
 31
0.0
  0
ARC
  5
12F
100
AcDbEntity
  8
2
370
    50
100
AcDbCircle
 10
217.687705
 20
18.3842
 30
0.0
 40
3.083333
100
AcDbArc
 50
90.0
 51
149.101852
  0
ARC
  5
130
100
AcDbEntity
  8
2
370
    50
100
AcDbCircle
 10
205.996362
 20
11.3842
 30
0.0
 40
10.083333
100
AcDbArc
 50
58.34676
 51
72.898628
  0
LINE
  5
131
100
AcDbEntity
  8
2
370
    25
100
AcDbLine
 10
217.496362
 20
32.217533
 30
0.0
 11
201.422035
 21
32.217533
 31
0.0
  0
LINE
  5
132
100
AcDbEntity
  8
2
370
    25
100
AcDbLine
 10
216.746362
 20
22.217533
 30
0.0
 11
208.862252
 21
22.217533
 31
0.0
  0
LINE
  5
133
100
AcDbEntity
  8
2
370
    25
  6
CENTER
100
AcDbLine
 10
172.996362
 20
27.725845
 30
0.0
 11
172.996362
 21
76.502451
 31
0.0
  0
LINE
  5
134
100
AcDbEntity
  8
2
370
    50
100
AcDbLine
 10
11.780395
 20
84.888989
 30
0.0
 11
-5.787672
 21
87.046077
 31
0.0
  0
ARC
  5
135
100
AcDbEntity
  8
2
370
    25
  6
CENTER
100
AcDbCircle
 10
38.59561
 20
88.707328
 30
0.0
 40
35.0
100
AcDbArc
 50
83.0
 51
173.0
  0
ARC
  5
136
100
AcDbEntity
  8
2
370
    50
100
AcDbCircle
 10
38.59561
 20
88.707328
 30
0.0
 40
26.25
100
AcDbArc
 50
83.0
 51
177.833995
  0
ARC
  5
137
100
AcDbEntity
  8
2
370
    50
100
AcDbCircle
 10
38.59561
 20
88.707328
 30
0.0
 40
43.75
100
AcDbArc
 50
83.0
 51
175.695966
  0
LINE
  5
138
100
AcDbEntity
  8
2
370
    50
100
AcDbLine
 10
12.242425
 20
89.869808
 30
0.0
 11
-5.031008
 21
91.990719
 31
0.0
  0
LINE
  5
139
100
AcDbEntity
  8
2
370
    25
  6
CENTER
100
AcDbLine
 10
3.856495
 20
92.972755
 30
0.0
 11
2.053849
 21
78.29138
 31
0.0
  0
ARC
  5
13A
100
AcDbEntity
  8
2
370
    50
100
AcDbCircle
 10
-2.712724
 20
89.105743
 30
0.0
 40
3.701017
100
AcDbArc
 50
128.784365
 51
213.81503
  0
ARC
  5
13B
100
AcDbEntity
  8
2
370
    50
100
AcDbCircle
 10
9.295065
 20
87.631372
 30
0.0
 40
3.701017
100
AcDbArc
 50
312.18497
 51
33.971807
  0
LINE
  5
13C
100
AcDbEntity
  8
2
370
    50
100
AcDbLine
 10
143.328146
 20
119.926345
 30
0.0
 11
43.927394
 21
132.131223
 31
0.0
  0
LINE
  5
13D
100
AcDbEntity
  8
2
370
    25
  6
CENTER
100
AcDbLine
 10
142.261789
 20
111.241566
 30
0.0
 11
42.861037
 21
123.446444
 31
0.0
  0
LINE
  5
13E
100
AcDbEntity
  8
2
370
    50
100
AcDbLine
 10
141.195432
 20
102.556787
 30
0.0
 11
41.79468
 21
114.761665
 31
0.0
  0
ARC
  5
13F
100
AcDbEntity
  8
2
370
    25
  6
CENTER
100
AcDbCircle
 10
137.996362
 20
76.502451
 30
0.0
 40
35.0
100
AcDbArc
 50
0.0
 51
83.0
  0
ARC
  5
140
100
AcDbEntity
  8
2
370
    50
100
AcDbCircle
 10
137.996362
 20
76.502451
 30
0.0
 40
26.25
100
AcDbArc
 50
0.0
 51
83.0
  0
ARC
  5
141
100
AcDbEntity
  8
2
370
    50
100
AcDbCircle
 10
137.996362
 20
76.502451
 30
0.0
 40
43.75
100
AcDbArc
 50
0.0
 51
83.0
  0
LINE
  5
142
100
AcDbEntity
  8
2
370
    50
100
AcDbLine
 10
-167.209546
 20
16.906729
 30
0.0
 11
-139.672534
 21
16.906729
 31
0.0
  0
LINE
  5
143
100
AcDbEntity
  8
2
370
    50
100
AcDbLine
 10
-167.209546
 20
3.906729
 30
0.0
 11
-139.672534
 21
3.906729
 31
0.0
  0
ARC
  5
144
100
AcDbEntity
  8
2
370
    50
100
AcDbCircle
 10
-153.19104
 20
10.406729
 30
0.0
 40
15.0
100
AcDbArc
 50
334.320711
 51
25.679289
  0
ARC
  5
145
100
AcDbEntity
  8
2
370
    50
100
AcDbCircle
 10
-153.69104
 20
10.406729
 30
0.0
 40
15.0
100
AcDbArc
 50
154.320711
 51
205.679289
  0
ELLIPSE
  5
146
100
AcDbEntity
  8
2
370
    50
100
AcDbEllipse
 10
-141.316684
 20
10.406729
 30
0.0
 11
0.0
 21
6.5
 31
0.0
210
0.0
220
0.0
230
1.0
 40
0.465077
 41
0.0
 42
6.2831849999999996
  0
ELLIPSE
  5
147
100
AcDbEntity
  8
2
370
    50
100
AcDbEllipse
 10
-153.44104
 20
10.406729
 30
0.0
 11
0.0
 21
6.5
 31
0.0
210
0.0
220
0.0
230
1.0
 40
0.930154
 41
0.0
 42
6.2831849999999996
  0
LINE
  5
148
100
AcDbEntity
  8
2
370
    50
100
AcDbLine
 10
-162.59104
 20
16.906729
 30
0.0
 11
-153.44104
 21
16.906729
 31
0.0
  0
ELLIPSE
  5
149
100
AcDbEntity
  8
2
370
    50
100
AcDbEllipse
 10
-165.565396
 20
10.406729
 30
0.0
 11
0.0
 21
6.5
 31
0.0
210
0.0
220
0.0
230
1.0
 40
0.465077
 41
0.0
 42
6.2831849999999996
  0
LINE
  5
14A
100
AcDbEntity
  8
2
370
    50
100
AcDbLine
 10
186.996362
 20
16.906729
 30
0.0
 11
186.996362
 21
3.906729
 31
0.0
  0
LINE
  5
14B
100
AcDbEntity
  8
2
370
    50
100
AcDbLine
 10
158.996362
 20
16.906729
 30
0.0
 11
158.996362
 21
3.906729
 31
0.0
  0
LINE
  5
14C
100
AcDbEntity
  8
2
370
    50
100
AcDbLine
 10
158.996362
 20
16.906729
 30
0.0
 11
164.74818
 21
16.906729
 31
0.0
  0
LINE
  5
14D
100
AcDbEntity
  8
2
370
    50
100
AcDbLine
 10
158.996362
 20
3.906729
 30
0.0
 11
164.401478
 21
3.906729
 31
0.0
  0
LINE
  5
14E
100
AcDbEntity
  8
2
370
    50
100
AcDbLine
 10
160.896362
 20
3.467533
 30
0.0
 11
160.896362
 21
3.906729
 31
0.0
  0
LINE
  5
14F
100
AcDbEntity
  8
2
370
    50
100
AcDbLine
 10
164.404532
 20
3.467533
 30
0.0
 11
160.896362
 21
3.467533
 31
0.0
  0
LINE
  5
150
100
AcDbEntity
  8
2
370
    50
100
AcDbLine
 10
181.746362
 20
76.502451
 30
0.0
 11
181.746362
 21
34.484222
 31
0.0
  0
LINE
  5
151
100
AcDbEntity
  8
2
370
    50
100
AcDbLine
 10
164.246362
 20
76.502451
 30
0.0
 11
164.246362
 21
16.906729
 31
0.0
  0
ARC
  5
152
100
AcDbEntity
  8
2
370
    50
100
AcDbCircle
 10
172.530954
 20
23.161443
 30
0.0
 40
9.0
100
AcDbArc
 50
96.34007
 51
121.175707
  0
ARC
  5
153
100
AcDbEntity
  8
2
370
    50
100
AcDbCircle
 10
186.997207
 20
-107.037357
 30
0.0
 40
140.0
100
AcDbArc
 50
93.788374
 51
96.34007
  0
ARC
  5
154
100
AcDbEntity
  8
2
370
    50
100
AcDbCircle
 10
186.997207
 20
-107.037357
 30
0.0
 40
140.0
100
AcDbArc
 50
83.65993
 51
86.211626
  0
ARC
  5
155
100
AcDbEntity
  8
2
370
    50
100
AcDbCircle
 10
201.463459
 20
23.161443
 30
0.0
 40
9.0
100
AcDbArc
 50
58.810657
 51
83.65993
  0
ARC
  5
156
100
AcDbEntity
  8
2
370
    50
100
AcDbCircle
 10
364.398051
 20
5.077566
 30
0.0
 40
200.0
100
AcDbArc
 50
174.355248
 51
184.811839
  0
ARC
  5
157
100
AcDbEntity
  8
2
370
    50
100
AcDbCircle
 10
177.309686
 20
23.569285
 30
0.0
 40
12.0
100
AcDbArc
 50
144.185263
 51
174.355248
  0
ARC
  5
158
100
AcDbEntity
  8
2
370
    50
100
AcDbCircle
 10
196.686539
 20
23.568045
 30
0.0
 40
12.0
100
AcDbArc
 50
5.644372
 51
35.816368
  0
LINE
  5
159
100
AcDbEntity
  8
2
370
    50
100
AcDbLine
 10
175.251134
 20
31.156729
 30
0.0
 11
177.585626
 21
31.156729
 31
0.0
  0
LINE
  5
15A
100
AcDbEntity
  8
2
370
    50
100
AcDbLine
 10
196.410477
 20
31.156729
 30
0.0
 11
198.744968
 21
31.156729
 31
0.0
  0
ARC
  5
15B
100
AcDbEntity
  8
2
370
    50
100
AcDbCircle
 10
205.606402
 20
30.005128
 30
0.0
 40
1.0
100
AcDbArc
 50
35.816368
 51
58.810657
  0
ARC
  5
15C
100
AcDbEntity
  8
2
370
    50
100
AcDbCircle
 10
168.38964
 20
30.006114
 30
0.0
 40
1.0
100
AcDbArc
 50
121.175707
 51
144.185263
  0
LINE
  5
15D
100
AcDbEntity
  8
2
370
    50
100
AcDbLine
 10
177.747207
 20
32.656729
 30
0.0
 11
186.997207
 21
32.656729
 31
0.0
  0
LINE
  5
15E
100
AcDbEntity
  8
2
370
    50
100
AcDbLine
 10
196.247207
 20
32.656729
 30
0.0
 11
186.997207
 21
32.656729
 31
0.0
  0
ARC
  5
15F
100
AcDbEntity
  8
2
370
    50
100
AcDbCircle
 10
9.598051
 20
5.077566
 30
0.0
 40
200.0
100
AcDbArc
 50
355.188374
 51
5.644372
  0
LINE
  5
160
100
AcDbEntity
  8
2
370
    50
100
AcDbLine
 10
170.699332
 20
-16.343271
 30
0.0
 11
203.293392
 21
-16.343271
 31
0.0
  0
ARC
  5
161
100
AcDbEntity
  8
2
370
    50
100
AcDbCircle
 10
179.247207
 20
33.275667
 30
0.0
 40
1.0
100
AcDbArc
 50
95.629843
 51
180.0
  0
ARC
  5
162
100
AcDbEntity
  8
2
370
    50
100
AcDbCircle
 10
186.997207
 20
-45.343271
 30
0.0
 40
80.0
100
AcDbArc
 50
84.370157
 51
95.629843
  0
ARC
  5
163
100
AcDbEntity
  8
2
370
    50
100
AcDbCircle
 10
194.747207
 20
33.275667
 30
0.0
 40
1.0
100
AcDbArc
 50
0.0
 51
84.370157
  0
LINE
  5
164
100
AcDbEntity
  8
2
370
    50
100
AcDbLine
 10
195.747207
 20
33.275667
 30
0.0
 11
195.747207
 21
32.656729
 31
0.0
  0
LINE
  5
165
100
AcDbEntity
  8
2
370
    50
100
AcDbLine
 10
178.247207
 20
33.275667
 30
0.0
 11
178.247207
 21
32.656729
 31
0.0
  0
ARC
  5
166
100
AcDbEntity
  8
2
370
    50
100
AcDbCircle
 10
203.293392
 20
-8.343271
 30
0.0
 40
8.0
100
AcDbArc
 50
270.0
 51
281.877347
  0
ARC
  5
167
100
AcDbEntity
  8
2
370
    50
100
AcDbCircle
 10
170.699332
 20
-8.343271
 30
0.0
 40
8.0
100
AcDbArc
 50
258.189778
 51
270.0
  0
ARC
  5
168
100
AcDbEntity
  8
2
370
    50
100
AcDbCircle
 10
369.247207
 20
5.077566
 30
0.0
 40
180.0
100
AcDbArc
 50
173.373448
 51
184.588842
  0
ARC
  5
169
100
AcDbEntity
  8
2
370
    50
100
AcDbCircle
 10
4.747207
 20
5.077566
 30
0.0
 40
180.0
100
AcDbArc
 50
355.411158
 51
6.626552
  0
ARC
  5
16A
100
AcDbEntity
  8
2
370
    50
100
AcDbCircle
 10
7.597207
 20
5.077566
 30
0.0
 40
200.0
100
AcDbArc
 50
356.440348
 51
5.403107
  0
ARC
  5
16B
100
AcDbEntity
  8
2
370
    50
100
AcDbCircle
 10
366.397207
 20
5.077566
 30
0.0
 40
200.0
100
AcDbArc
 50
174.596893
 51
183.559652
  0
ARC
  5
16C
100
AcDbEntity
  8
2
370
    50
100
AcDbCircle
 10
198.744124
 20
23.156729
 30
0.0
 40
8.0
100
AcDbArc
 50
5.403107
 51
90.0
  0
ARC
  5
16D
100
AcDbEntity
  8
2
370
    50
100
AcDbCircle
 10
175.25029
 20
23.156729
 30
0.0
 40
8.0
100
AcDbArc
 50
90.0
 51
174.596893
  0
ARC
  5
16E
100
AcDbEntity
  8
2
370
    50
100
AcDbCircle
 10
199.226781
 20
-6.843271
 30
0.0
 40
8.0
100
AcDbArc
 50
270.0
 51
356.440348
  0
ARC
  5
16F
100
AcDbEntity
  8
2
370
    50
100
AcDbCircle
 10
174.767632
 20
-6.843271
 30
0.0
 40
8.0
100
AcDbArc
 50
183.559652
 51
270.0
  0
ARC
  5
170
100
AcDbEntity
  8
2
370
    50
100
AcDbCircle
 10
196.409632
 20
25.156729
 30
0.0
 40
6.0
100
AcDbArc
 50
90.0
 51
173.373448
  0
ARC
  5
171
100
AcDbEntity
  8
2
370
    50
100
AcDbCircle
 10
195.804967
 20
-8.843271
 30
0.0
 40
6.0
100
AcDbArc
 50
184.588842
 51
270.0
  0
ARC
  5
172
100
AcDbEntity
  8
2
370
    50
100
AcDbCircle
 10
178.189446
 20
-8.843271
 30
0.0
 40
6.0
100
AcDbArc
 50
270.0
 51
355.411158
  0
ARC
  5
173
100
AcDbEntity
  8
2
370
    50
100
AcDbCircle
 10
177.584781
 20
25.156729
 30
0.0
 40
6.0
100
AcDbArc
 50
6.626552
 51
90.0
  0
LINE
  5
174
100
AcDbEntity
  8
2
370
    50
100
AcDbLine
 10
174.767632
 20
-14.843271
 30
0.0
 11
178.189446
 21
-14.843271
 31
0.0
  0
LINE
  5
175
100
AcDbEntity
  8
2
370
    50
100
AcDbLine
 10
195.804967
 20
-14.843271
 30
0.0
 11
199.226781
 21
-14.843271
 31
0.0
  0
ARC
  5
176
100
AcDbEntity
  8
2
370
    50
100
AcDbCircle
 10
170.085319
 20
-11.279764
 30
0.0
 40
5.0
100
AcDbArc
 50
184.811839
 51
258.189778
  0
ARC
  5
177
100
AcDbEntity
  8
2
370
    50
100
AcDbCircle
 10
203.910844
 20
-11.279043
 30
0.0
 40
5.0
100
AcDbArc
 50
281.877347
 51
355.188374
  0
LINE
  5
178
100
AcDbEntity
  8
2
370
    25
  6
CENTER
100
AcDbLine
 10
186.996362
 20
39.112465
 30
0.0
 11
186.996362
 21
-117.990662
 31
0.0
  0
ARC
  5
179
100
AcDbEntity
  8
2
370
    50
100
AcDbCircle
 10
-153.44104
 20
123.707328
 30
0.0
 40
8.75
100
AcDbArc
 50
0.0
 51
180.0
  0
ELLIPSE
  5
17A
100
AcDbEntity
  8
2
370
    50
100
AcDbEllipse
 10
-153.44104
 20
85.967533
 30
0.0
 11
8.8499999999999996
 21
0.0
 31
0.0
210
0.0
220
0.0
230
1.0
 40
0.121869
 41
0.0
 42
6.2831849999999996
  0
ELLIPSE
  5
17B
100
AcDbEntity
  8
2
370
    50
100
AcDbEllipse
 10
-153.44104
 20
90.930264
 30
0.0
 11
8.75
 21
0.0
 31
0.0
210
0.0
220
0.0
230
1.0
 40
0.121195
 41
0.0
 42
3.1415929999999999
  0
POINT
  5
17C
100
AcDbEntity
  8
2
370
    50
100
AcDbPoint
 10
-162.19104
 20
90.930264
 30
0.0
  0
POINT
  5
17D
100
AcDbEntity
  8
2
370
    50
100
AcDbPoint
 10
-162.19104
 20
85.967533
 30
0.0
  0
ARC
  5
17E
100
AcDbEntity
  8
2
370
    50
100
AcDbCircle
 10
-159.612453
 20
88.448898
 30
0.0
 40
3.578587
100
AcDbArc
 50
136.100743
 51
223.899257
  0
ARC
  5
17F
100
AcDbEntity
  8
2
370
    50
100
AcDbCircle
 10
-147.269627
 20
88.448898
 30
0.0
 40
3.578587
100
AcDbArc
 50
316.100743
 51
43.899257
  0
LINE
  5
180
100
AcDbEntity
  8
2
370
    50
100
AcDbLine
 10
-144.69104
 20
16.906729
 30
0.0
 11
-144.69104
 21
85.805855
 31
0.0
  0
LINE
  5
181
100
AcDbEntity
  8
2
370
    50
100
AcDbLine
 10
-144.69104
 20
90.930264
 30
0.0
 11
-144.69104
 21
123.707328
 31
0.0
  0
LINE
  5
182
100
AcDbEntity
  8
2
370
    50
100
AcDbLine
 10
-162.19104
 20
16.906729
 30
0.0
 11
-162.19104
 21
85.805855
 31
0.0
  0
LINE
  5
183
100
AcDbEntity
  8
2
370
    50
100
AcDbLine
 10
-162.19104
 20
90.930264
 30
0.0
 11
-162.19104
 21
123.707328
 31
0.0
  0
ELLIPSE
  5
184
100
AcDbEntity
  8
2
370
    50
100
AcDbEllipse
 10
-153.44104
 20
85.967533
 30
0.0
 11
8.0500000000000007
 21
0.0
 31
0.0
210
0.0
220
0.0
230
1.0
 40
0.12596
 41
0.0
 42
6.2831849999999996
  0
LINE
  5
185
100
AcDbEntity
  8
2
370
    25
  6
CENTER
100
AcDbLine
 10
205.996362
 20
40.159693
 30
0.0
 11
205.996362
 21
-21.711273
 31
0.0
  0
LINE
  5
186
100
AcDbEntity
  8
2
370
    50
100
AcDbLine
 10
-165.94104
 20
17.467533
 30
0.0
 11
-140.94104
 21
17.467533
 31
0.0
  0
ARC
  5
187
100
AcDbEntity
  8
2
370
    50
100
AcDbCircle
 10
-165.94104
 20
15.467533
 30
0.0
 40
2.0
100
AcDbArc
 50
90.0
 51
180.0
  0
ARC
  5
188
100
AcDbEntity
  8
2
370
    50
100
AcDbCircle
 10
-140.94104
 20
15.467533
 30
0.0
 40
2.0
100
AcDbArc
 50
0.0
 51
90.0
  0
ARC
  5
189
100
AcDbEntity
  8
2
370
    50
100
AcDbCircle
 10
-165.94104
 20
-3.532467
 30
0.0
 40
2.0
100
AcDbArc
 50
180.0
 51
200.801906
  0
ARC
  5
18A
100
AcDbEntity
  8
2
370
    50
100
AcDbCircle
 10
-140.94104
 20
-3.532467
 30
0.0
 40
2.0
100
AcDbArc
 50
339.069695
 51
0.0
  0
LINE
  5
18B
100
AcDbEntity
  8
2
370
    50
100
AcDbLine
 10
-142.69104
 20
32.967533
 30
0.0
 11
-141.94104
 21
32.217533
 31
0.0
  0
LINE
  5
18C
100
AcDbEntity
  8
2
370
    50
100
AcDbLine
 10
-142.69104
 20
22.217533
 30
0.0
 11
-141.94104
 21
21.467533
 31
0.0
  0
LINE
  5
18D
100
AcDbEntity
  8
2
370
    50
100
AcDbLine
 10
-141.94104
 20
21.467533
 30
0.0
 11
-141.94104
 21
32.217533
 31
0.0
  0
LINE
  5
18E
100
AcDbEntity
  8
2
370
    25
100
AcDbLine
 10
-142.69104
 20
22.217533
 30
0.0
 11
-142.69104
 21
32.967533
 31
0.0
  0
LINE
  5
18F
100
AcDbEntity
  8
2
370
    50
100
AcDbLine
 10
-138.94104
 20
17.467533
 30
0.0
 11
-138.94104
 21
19.967533
 31
0.0
  0
LINE
  5
190
100
AcDbEntity
  8
2
370
    50
100
AcDbLine
 10
-164.19104
 20
32.967533
 30
0.0
 11
-164.94104
 21
32.217533
 31
0.0
  0
LINE
  5
191
100
AcDbEntity
  8
2
370
    50
100
AcDbLine
 10
-164.94104
 20
21.467533
 30
0.0
 11
-164.94104
 21
32.217533
 31
0.0
  0
LINE
  5
192
100
AcDbEntity
  8
2
370
    25
100
AcDbLine
 10
-164.19104
 20
22.217533
 30
0.0
 11
-164.19104
 21
32.967533
 31
0.0
  0
LINE
  5
193
100
AcDbEntity
  8
2
370
    50
100
AcDbLine
 10
-164.19104
 20
22.217533
 30
0.0
 11
-164.94104
 21
21.467533
 31
0.0
  0
LINE
  5
194
100
AcDbEntity
  8
2
370
    50
100
AcDbLine
 10
-167.94104
 20
17.467533
 30
0.0
 11
-167.94104
 21
19.967533
 31
0.0
  0
LINE
  5
195
100
AcDbEntity
  8
2
370
    50
100
AcDbLine
 10
-167.94104
 20
17.467533
 30
0.0
 11
-138.94104
 21
17.467533
 31
0.0
  0
LINE
  5
196
100
AcDbEntity
  8
2
370
    50
100
AcDbLine
 10
-144.395448
 20
19.967533
 30
0.0
 11
-144.395448
 21
17.467533
 31
0.0
  0
ARC
  5
197
100
AcDbEntity
  8
2
370
    50
100
AcDbCircle
 10
-140.44104
 20
19.967533
 30
0.0
 40
1.5
100
AcDbArc
 50
0.0
 51
90.0
  0
ARC
  5
198
100
AcDbEntity
  8
2
370
    50
100
AcDbCircle
 10
-166.44104
 20
19.967533
 30
0.0
 40
1.5
100
AcDbArc
 50
90.0
 51
180.0
  0
ARC
  5
199
100
AcDbEntity
  8
2
370
    50
100
AcDbCircle
 10
-141.749697
 20
18.3842
 30
0.0
 40
3.083333
100
AcDbArc
 50
90.0
 51
149.101852
  0
LINE
  5
19A
100
AcDbEntity
  8
2
370
    50
100
AcDbLine
 10
-162.486632
 20
19.967533
 30
0.0
 11
-162.19104
 21
19.967533
 31
0.0
  0
LINE
  5
19B
100
AcDbEntity
  8
2
370
    50
100
AcDbLine
 10
-162.486632
 20
19.967533
 30
0.0
 11
-162.486632
 21
17.467533
 31
0.0
  0
ARC
  5
19C
100
AcDbEntity
  8
2
370
    50
100
AcDbCircle
 10
-165.132383
 20
18.3842
 30
0.0
 40
3.083333
100
AcDbArc
 50
30.898148
 51
90.0
  0
LINE
  5
19D
100
AcDbEntity
  8
2
370
    50
100
AcDbLine
 10
-164.19104
 20
32.967533
 30
0.0
 11
-162.19104
 21
32.967533
 31
0.0
  0
LINE
  5
19E
100
AcDbEntity
  8
2
370
    50
100
AcDbLine
 10
-144.69104
 20
32.967533
 30
0.0
 11
-142.69104
 21
32.967533
 31
0.0
  0
LINE
  5
19F
100
AcDbEntity
  8
2
370
    25
100
AcDbLine
 10
-164.94104
 20
32.217533
 30
0.0
 11
-162.19104
 21
32.217533
 31
0.0
  0
LINE
  5
1A0
100
AcDbEntity
  8
2
370
    25
100
AcDbLine
 10
-144.69104
 20
32.217533
 30
0.0
 11
-141.94104
 21
32.217533
 31
0.0
  0
LINE
  5
1A1
100
AcDbEntity
  8
2
370
    25
100
AcDbLine
 10
-164.19104
 20
22.217533
 30
0.0
 11
-162.19104
 21
22.217533
 31
0.0
  0
LINE
  5
1A2
100
AcDbEntity
  8
2
370
    25
100
AcDbLine
 10
-144.69104
 20
22.217533
 30
0.0
 11
-142.69104
 21
22.217533
 31
0.0
  0
LINE
  5
1A3
100
AcDbEntity
  8
2
370
    50
100
AcDbLine
 10
-166.44104
 20
21.467533
 30
0.0
 11
-162.19104
 21
21.467533
 31
0.0
  0
LINE
  5
1A4
100
AcDbEntity
  8
2
370
    50
100
AcDbLine
 10
-144.69104
 20
21.467533
 30
0.0
 11
-140.44104
 21
21.467533
 31
0.0
  0
LINE
  5
1A5
100
AcDbEntity
  8
2
370
    50
100
AcDbLine
 10
-144.395448
 20
19.967533
 30
0.0
 11
-144.69104
 21
19.967533
 31
0.0
  0
LINE
  5
1A6
100
AcDbEntity
  8
2
370
    50
100
AcDbLine
 10
-138.94104
 20
-3.532467
 30
0.0
 11
-138.94104
 21
5.72298
 31
0.0
  0
LINE
  5
1A7
100
AcDbEntity
  8
2
370
    50
100
AcDbLine
 10
-138.94104
 20
15.090477
 30
0.0
 11
-138.94104
 21
15.467533
 31
0.0
  0
LINE
  5
1A8
100
AcDbEntity
  8
2
370
    50
100
AcDbLine
 10
-167.94104
 20
-3.532467
 30
0.0
 11
-167.94104
 21
5.72298
 31
0.0
  0
LINE
  5
1A9
100
AcDbEntity
  8
2
370
    50
100
AcDbLine
 10
-167.94104
 20
15.090477
 30
0.0
 11
-167.94104
 21
15.467533
 31
0.0
  0
LINE
  5
1AA
100
AcDbEntity
  8
2
370
    50
100
AcDbLine
 10
198.996185
 20
-82.793733
 30
0.0
 11
186.996362
 21
-82.793733
 31
0.0
  0
LINE
  5
1AB
100
AcDbEntity
  8
2
370
    50
100
AcDbLine
 10
206.996067
 20
-75.793836
 30
0.0
 11
206.996067
 21
-74.593853
 31
0.0
  0
LINE
  5
1AC
100
AcDbEntity
  8
2
370
    50
100
AcDbLine
 10
201.316701
 20
-76.293828
 30
0.0
 11
172.676022
 21
-76.293828
 31
0.0
  0
LINE
  5
1AD
100
AcDbEntity
  8
2
370
    50
100
AcDbLine
 10
206.996067
 20
-74.593853
 30
0.0
 11
186.996362
 21
-74.593853
 31
0.0
  0
LINE
  5
1AE
100
AcDbEntity
  8
2
370
    50
100
AcDbLine
 10
206.996067
 20
-75.793836
 30
0.0
 11
186.996362
 21
-75.793836
 31
0.0
  0
ARC
  5
1AF
100
AcDbEntity
  8
2
370
    50
100
AcDbCircle
 10
201.316701
 20
-71.293902
 30
0.0
 40
4.999926
100
AcDbArc
 50
270.0
 51
293.556464
  0
ARC
  5
1B0
100
AcDbEntity
  8
2
370
    50
100
AcDbCircle
 10
201.316701
 20
-79.093787
 30
0.0
 40
4.999926
100
AcDbArc
 50
66.443536
 51
90.0
  0
ARC
  5
1B1
100
AcDbEntity
  8
2
370
    50
100
AcDbCircle
 10
203.714582
 20
-76.793821
 30
0.0
 40
0.999985
100
AcDbArc
 50
90.0
 51
113.556464
  0
ARC
  5
1B2
100
AcDbEntity
  8
2
370
    50
100
AcDbCircle
 10
203.714582
 20
-73.593868
 30
0.0
 40
0.999985
100
AcDbArc
 50
246.443536
 51
270.0
  0
ARC
  5
1B3
100
AcDbEntity
  8
2
370
    50
100
AcDbCircle
 10
186.996362
 20
-60.044068
 30
0.0
 40
16.249761
100
AcDbArc
 50
270.0
 51
284.250033
  0
ARC
  5
1B4
100
AcDbEntity
  8
2
370
    50
100
AcDbCircle
 10
195.24624
 20
-60.044068
 30
0.0
 40
16.249761
100
AcDbArc
 50
262.930286
 51
284.250033
  0
ARC
  5
1B5
100
AcDbEntity
  8
2
370
    50
100
AcDbCircle
 10
191.246299
 20
-60.044068
 30
0.0
 40
16.249761
100
AcDbArc
 50
262.485955
 51
284.250033
  0
ARC
  5
1B6
100
AcDbEntity
  8
2
370
    50
100
AcDbCircle
 10
199.246181
 20
-60.044068
 30
0.0
 40
16.249761
100
AcDbArc
 50
262.930286
 51
270.0
  0
ARC
  5
1B7
100
AcDbEntity
  8
2
370
    50
100
AcDbCircle
 10
186.996362
 20
-90.343621
 30
0.0
 40
16.249761
100
AcDbArc
 50
75.749967
 51
90.0
  0
ARC
  5
1B8
100
AcDbEntity
  8
2
370
    50
100
AcDbCircle
 10
191.246299
 20
-90.343621
 30
0.0
 40
16.249761
100
AcDbArc
 50
75.749967
 51
97.514045
  0
ARC
  5
1B9
100
AcDbEntity
  8
2
370
    50
100
AcDbCircle
 10
195.24624
 20
-90.343621
 30
0.0
 40
16.249761
100
AcDbArc
 50
75.749967
 51
97.069714
  0
ARC
  5
1BA
100
AcDbEntity
  8
2
370
    50
100
AcDbCircle
 10
199.246181
 20
-90.343621
 30
0.0
 40
16.249761
100
AcDbArc
 50
90.0
 51
97.069714
  0
LINE
  5
1BB
100
AcDbEntity
  8
2
370
    50
100
AcDbLine
 10
174.996539
 20
-82.793733
 30
0.0
 11
186.996362
 21
-82.793733
 31
0.0
  0
LINE
  5
1BC
100
AcDbEntity
  8
2
370
    50
100
AcDbLine
 10
166.996656
 20
-75.793836
 30
0.0
 11
166.996656
 21
-74.593853
 31
0.0
  0
LINE
  5
1BD
100
AcDbEntity
  8
2
370
    50
100
AcDbLine
 10
166.996656
 20
-74.593853
 30
0.0
 11
186.996362
 21
-74.593853
 31
0.0
  0
LINE
  5
1BE
100
AcDbEntity
  8
2
370
    50
100
AcDbLine
 10
166.996656
 20
-75.793836
 30
0.0
 11
186.996362
 21
-75.793836
 31
0.0
  0
ARC
  5
1BF
100
AcDbEntity
  8
2
370
    50
100
AcDbCircle
 10
172.676022
 20
-71.293902
 30
0.0
 40
4.999926
100
AcDbArc
 50
246.443536
 51
270.0
  0
ARC
  5
1C0
100
AcDbEntity
  8
2
370
    50
100
AcDbCircle
 10
172.676022
 20
-79.093787
 30
0.0
 40
4.999926
100
AcDbArc
 50
90.0
 51
113.556464
  0
ARC
  5
1C1
100
AcDbEntity
  8
2
370
    50
100
AcDbCircle
 10
170.278142
 20
-76.793821
 30
0.0
 40
0.999985
100
AcDbArc
 50
66.443536
 51
90.0
  0
ARC
  5
1C2
100
AcDbEntity
  8
2
370
    50
100
AcDbCircle
 10
170.278142
 20
-73.593868
 30
0.0
 40
0.999985
100
AcDbArc
 50
270.0
 51
293.556464
  0
ARC
  5
1C3
100
AcDbEntity
  8
2
370
    50
100
AcDbCircle
 10
186.996362
 20
-60.044068
 30
0.0
 40
16.249761
100
AcDbArc
 50
255.749967
 51
270.0
  0
ARC
  5
1C4
100
AcDbEntity
  8
2
370
    50
100
AcDbCircle
 10
178.746483
 20
-60.044068
 30
0.0
 40
16.249761
100
AcDbArc
 50
255.749967
 51
277.069714
  0
ARC
  5
1C5
100
AcDbEntity
  8
2
370
    50
100
AcDbCircle
 10
182.746424
 20
-60.044068
 30
0.0
 40
16.249761
100
AcDbArc
 50
255.749967
 51
277.514045
  0
ARC
  5
1C6
100
AcDbEntity
  8
2
370
    50
100
AcDbCircle
 10
174.746542
 20
-60.044068
 30
0.0
 40
16.249761
100
AcDbArc
 50
270.0
 51
277.069714
  0
ARC
  5
1C7
100
AcDbEntity
  8
2
370
    50
100
AcDbCircle
 10
186.996362
 20
-90.343621
 30
0.0
 40
16.249761
100
AcDbArc
 50
90.0
 51
104.250033
  0
ARC
  5
1C8
100
AcDbEntity
  8
2
370
    50
100
AcDbCircle
 10
182.746424
 20
-90.343621
 30
0.0
 40
16.249761
100
AcDbArc
 50
82.485955
 51
104.250033
  0
ARC
  5
1C9
100
AcDbEntity
  8
2
370
    50
100
AcDbCircle
 10
178.746483
 20
-90.343621
 30
0.0
 40
16.249761
100
AcDbArc
 50
82.930286
 51
104.250033
  0
ARC
  5
1CA
100
AcDbEntity
  8
2
370
    50
100
AcDbCircle
 10
174.746542
 20
-90.343621
 30
0.0
 40
16.249761
100
AcDbArc
 50
82.930286
 51
90.0
  0
LINE
  5
1CB
100
AcDbEntity
  8
2
370
    50
100
AcDbLine
 10
186.996362
 20
-81.783748
 30
0.0
 11
186.996362
 21
-76.293828
 31
0.0
  0
LINE
  5
1CC
100
AcDbEntity
  8
2
370
    50
100
AcDbLine
 10
174.996539
 20
-82.793733
 30
0.0
 11
174.996539
 21
-76.293828
 31
0.0
  0
LINE
  5
1CD
100
AcDbEntity
  8
2
370
    50
100
AcDbLine
 10
198.996185
 20
-82.793733
 30
0.0
 11
198.996185
 21
-76.291905
 31
0.0
  0
ARC
  5
1CE
100
AcDbEntity
  8
2
370
    50
100
AcDbCircle
 10
192.996273
 20
-64.46722
 30
0.0
 40
18.326512
100
AcDbArc
 50
250.889582
 51
289.110418
  0
ARC
  5
1CF
100
AcDbEntity
  8
2
370
    50
100
AcDbCircle
 10
180.99645
 20
-64.46722
 30
0.0
 40
18.326512
100
AcDbArc
 50
250.889582
 51
289.110418
  0
LINE
  5
1D0
100
AcDbEntity
  8
2
370
    50
100
AcDbLine
 10
198.496192
 20
-114.093271
 30
0.0
 11
175.496531
 21
-114.093271
 31
0.0
  0
LINE
  5
1D1
100
AcDbEntity
  8
2
370
    50
100
AcDbLine
 10
198.496192
 20
-102.093448
 30
0.0
 11
175.496531
 21
-102.093448
 31
0.0
  0
LINE
  5
1D2
100
AcDbEntity
  8
2
370
    50
100
AcDbLine
 10
198.496192
 20
-114.093271
 30
0.0
 11
198.496192
 21
-102.093448
 31
0.0
  0
LINE
  5
1D3
100
AcDbEntity
  8
2
370
    50
100
AcDbLine
 10
175.496531
 20
-114.093271
 30
0.0
 11
175.496531
 21
-102.093448
 31
0.0
  0
ELLIPSE
  5
1D4
100
AcDbEntity
  8
2
370
    50
100
AcDbEllipse
 10
192.746277
 20
-108.09336
 30
0.0
 11
0.0
 21
5.9999120000000001
 31
0.0
210
0.0
220
0.0
230
1.0
 40
0.794667
 41
0.0
 42
6.2831849999999996
  0
ELLIPSE
  5
1D5
100
AcDbEntity
  8
2
370
    50
100
AcDbEllipse
 10
181.246446
 20
-108.09336
 30
0.0
 11
0.0
 21
5.9999120000000001
 31
0.0
210
0.0
220
0.0
230
1.0
 40
0.794667
 41
0.0
 42
6.2831849999999996
  0
LINE
  5
1D6
100
AcDbEntity
  8
2
370
    50
100
AcDbLine
 10
-191.44077
 20
-82.793687
 30
0.0
 11
-203.440593
 21
-82.793687
 31
0.0
  0
LINE
  5
1D7
100
AcDbEntity
  8
2
370
    50
100
AcDbLine
 10
-189.690795
 20
-81.783339
 30
0.0
 11
-189.690795
 21
-76.293783
 31
0.0
  0
LINE
  5
1D8
100
AcDbEntity
  8
2
370
    50
100
AcDbLine
 10
-191.44077
 20
-82.793687
 30
0.0
 11
-189.690795
 21
-81.783339
 31
0.0
  0
LINE
  5
1D9
100
AcDbEntity
  8
2
370
    50
100
AcDbLine
 10
-183.440888
 20
-75.79379
 30
0.0
 11
-183.440888
 21
-74.593808
 31
0.0
  0
LINE
  5
1DA
100
AcDbEntity
  8
2
370
    50
100
AcDbLine
 10
-203.440593
 20
-76.293783
 30
0.0
 11
-189.120253
 21
-76.293783
 31
0.0
  0
LINE
  5
1DB
100
AcDbEntity
  8
2
370
    50
100
AcDbLine
 10
-183.440888
 20
-74.593808
 30
0.0
 11
-203.440593
 21
-74.593808
 31
0.0
  0
LINE
  5
1DC
100
AcDbEntity
  8
2
370
    50
100
AcDbLine
 10
-183.440888
 20
-75.79379
 30
0.0
 11
-203.440593
 21
-75.79379
 31
0.0
  0
ARC
  5
1DD
100
AcDbEntity
  8
2
370
    50
100
AcDbCircle
 10
-189.120253
 20
-71.293857
 30
0.0
 40
4.999926
100
AcDbArc
 50
270.0
 51
293.556464
  0
ARC
  5
1DE
100
AcDbEntity
  8
2
370
    50
100
AcDbCircle
 10
-189.120253
 20
-79.093742
 30
0.0
 40
4.999926
100
AcDbArc
 50
66.443536
 51
90.0
  0
ARC
  5
1DF
100
AcDbEntity
  8
2
370
    50
100
AcDbCircle
 10
-186.722373
 20
-76.793776
 30
0.0
 40
0.999985
100
AcDbArc
 50
90.0
 51
113.556464
  0
ARC
  5
1E0
100
AcDbEntity
  8
2
370
    50
100
AcDbCircle
 10
-186.722373
 20
-73.593823
 30
0.0
 40
0.999985
100
AcDbArc
 50
246.443536
 51
270.0
  0
LINE
  5
1E1
100
AcDbEntity
  8
2
370
    50
100
AcDbLine
 10
-196.440696
 20
-81.783339
 30
0.0
 11
-196.440696
 21
-76.293783
 31
0.0
  0
ARC
  5
1E2
100
AcDbEntity
  8
2
370
    50
100
AcDbCircle
 10
-203.440593
 20
-58.040159
 30
0.0
 40
24.753528
100
AcDbArc
 50
270.0
 51
286.426421
  0
ARC
  5
1E3
100
AcDbEntity
  8
2
370
    50
100
AcDbCircle
 10
-193.065746
 20
-76.651699
 30
0.0
 40
6.141988
100
AcDbArc
 50
236.668091
 51
303.331909
  0
ARC
  5
1E4
100
AcDbEntity
  8
2
370
    50
100
AcDbCircle
 10
-203.440593
 20
-60.044022
 30
0.0
 40
16.249761
100
AcDbArc
 50
270.0
 51
284.250033
  0
ARC
  5
1E5
100
AcDbEntity
  8
2
370
    50
100
AcDbCircle
 10
-195.190714
 20
-60.044022
 30
0.0
 40
16.249761
100
AcDbArc
 50
262.930286
 51
284.250033
  0
ARC
  5
1E6
100
AcDbEntity
  8
2
370
    50
100
AcDbCircle
 10
-199.190656
 20
-60.044022
 30
0.0
 40
16.249761
100
AcDbArc
 50
262.485955
 51
284.250033
  0
ARC
  5
1E7
100
AcDbEntity
  8
2
370
    50
100
AcDbCircle
 10
-191.190773
 20
-60.044022
 30
0.0
 40
16.249761
100
AcDbArc
 50
262.930286
 51
270.0
  0
ARC
  5
1E8
100
AcDbEntity
  8
2
370
    50
100
AcDbCircle
 10
-203.440593
 20
-90.343576
 30
0.0
 40
16.249761
100
AcDbArc
 50
75.749967
 51
90.0
  0
ARC
  5
1E9
100
AcDbEntity
  8
2
370
    50
100
AcDbCircle
 10
-199.190656
 20
-90.343576
 30
0.0
 40
16.249761
100
AcDbArc
 50
75.749967
 51
97.514045
  0
ARC
  5
1EA
100
AcDbEntity
  8
2
370
    50
100
AcDbCircle
 10
-195.190714
 20
-90.343576
 30
0.0
 40
16.249761
100
AcDbArc
 50
75.749967
 51
97.069714
  0
ARC
  5
1EB
100
AcDbEntity
  8
2
370
    50
100
AcDbCircle
 10
-191.190773
 20
-90.343576
 30
0.0
 40
16.249761
100
AcDbArc
 50
90.0
 51
97.069714
  0
LINE
  5
1EC
100
AcDbEntity
  8
2
370
    50
100
AcDbLine
 10
-191.941209
 20
-114.093271
 30
0.0
 11
-203.44104
 21
-114.093271
 31
0.0
  0
ARC
  5
1ED
100
AcDbEntity
  8
2
370
    50
100
AcDbCircle
 10
-205.716007
 20
-108.09336
 30
0.0
 40
15.024779
100
AcDbArc
 50
336.463422
 51
23.536578
  0
LINE
  5
1EE
100
AcDbEntity
  8
2
370
    50
100
AcDbLine
 10
-191.941209
 20
-102.093448
 30
0.0
 11
-203.44104
 21
-102.093448
 31
0.0
  0
ELLIPSE
  5
1EF
100
AcDbEntity
  8
2
370
    50
100
AcDbEllipse
 10
-193.481895
 20
-108.09336
 30
0.0
 11
0.0
 21
5.9999120000000001
 31
0.0
210
0.0
220
0.0
230
1.0
 40
0.458833
 41
0.0
 42
6.2831849999999996
  0
ELLIPSE
  5
1F0
100
AcDbEntity
  8
2
370
    50
100
AcDbEllipse
 10
-203.44104
 20
-108.09336
 30
0.0
 11
0.0
 21
5.9999120000000001
 31
0.0
210
0.0
220
0.0
230
1.0
 40
0.926667
 41
3.1415929999999999
 42
0.0
  0
LINE
  5
1F1
100
AcDbEntity
  8
2
370
    50
100
AcDbLine
 10
-215.44131
 20
-82.793687
 30
0.0
 11
-203.441487
 21
-82.793687
 31
0.0
  0
LINE
  5
1F2
100
AcDbEntity
  8
2
370
    50
100
AcDbLine
 10
-217.191285
 20
-81.783339
 30
0.0
 11
-217.191285
 21
-76.293783
 31
0.0
  0
LINE
  5
1F3
100
AcDbEntity
  8
2
370
    50
100
AcDbLine
 10
-215.44131
 20
-82.793687
 30
0.0
 11
-217.191285
 21
-81.783339
 31
0.0
  0
LINE
  5
1F4
100
AcDbEntity
  8
2
370
    50
100
AcDbLine
 10
-223.441193
 20
-75.79379
 30
0.0
 11
-223.441193
 21
-74.593808
 31
0.0
  0
LINE
  5
1F5
100
AcDbEntity
  8
2
370
    50
100
AcDbLine
 10
-203.441487
 20
-76.293783
 30
0.0
 11
-217.761827
 21
-76.293783
 31
0.0
  0
LINE
  5
1F6
100
AcDbEntity
  8
2
370
    50
100
AcDbLine
 10
-223.441193
 20
-74.593808
 30
0.0
 11
-203.441487
 21
-74.593808
 31
0.0
  0
LINE
  5
1F7
100
AcDbEntity
  8
2
370
    50
100
AcDbLine
 10
-223.441193
 20
-75.79379
 30
0.0
 11
-203.441487
 21
-75.79379
 31
0.0
  0
ARC
  5
1F8
100
AcDbEntity
  8
2
370
    50
100
AcDbCircle
 10
-217.761827
 20
-71.293857
 30
0.0
 40
4.999926
100
AcDbArc
 50
246.443536
 51
270.0
  0
ARC
  5
1F9
100
AcDbEntity
  8
2
370
    50
100
AcDbCircle
 10
-217.761827
 20
-79.093742
 30
0.0
 40
4.999926
100
AcDbArc
 50
90.0
 51
113.556464
  0
ARC
  5
1FA
100
AcDbEntity
  8
2
370
    50
100
AcDbCircle
 10
-220.159707
 20
-76.793776
 30
0.0
 40
0.999985
100
AcDbArc
 50
66.443536
 51
90.0
  0
ARC
  5
1FB
100
AcDbEntity
  8
2
370
    50
100
AcDbCircle
 10
-220.159707
 20
-73.593823
 30
0.0
 40
0.999985
100
AcDbArc
 50
270.0
 51
293.556464
  0
LINE
  5
1FC
100
AcDbEntity
  8
2
370
    50
100
AcDbLine
 10
-210.441384
 20
-81.783339
 30
0.0
 11
-210.441384
 21
-76.293783
 31
0.0
  0
ARC
  5
1FD
100
AcDbEntity
  8
2
370
    50
100
AcDbCircle
 10
-203.441487
 20
-58.040159
 30
0.0
 40
24.753528
100
AcDbArc
 50
253.573579
 51
270.0
  0
ARC
  5
1FE
100
AcDbEntity
  8
2
370
    50
100
AcDbCircle
 10
-213.816334
 20
-76.651699
 30
0.0
 40
6.141988
100
AcDbArc
 50
236.668091
 51
303.331909
  0
ARC
  5
1FF
100
AcDbEntity
  8
2
370
    50
100
AcDbCircle
 10
-211.691366
 20
-60.044022
 30
0.0
 40
16.249761
100
AcDbArc
 50
255.749967
 51
277.069714
  0
ARC
  5
200
100
AcDbEntity
  8
2
370
    50
100
AcDbCircle
 10
-207.691425
 20
-60.044022
 30
0.0
 40
16.249761
100
AcDbArc
 50
255.749967
 51
277.514045
  0
ARC
  5
201
100
AcDbEntity
  8
2
370
    50
100
AcDbCircle
 10
-215.691307
 20
-60.044022
 30
0.0
 40
16.249761
100
AcDbArc
 50
270.0
 51
277.069714
  0
ARC
  5
202
100
AcDbEntity
  8
2
370
    50
100
AcDbCircle
 10
-207.691425
 20
-90.343576
 30
0.0
 40
16.249761
100
AcDbArc
 50
82.485955
 51
104.250033
  0
ARC
  5
203
100
AcDbEntity
  8
2
370
    50
100
AcDbCircle
 10
-211.691366
 20
-90.343576
 30
0.0
 40
16.249761
100
AcDbArc
 50
82.930286
 51
104.250033
  0
ARC
  5
204
100
AcDbEntity
  8
2
370
    50
100
AcDbCircle
 10
-215.691307
 20
-90.343576
 30
0.0
 40
16.249761
100
AcDbArc
 50
82.930286
 51
90.0
  0
LINE
  5
205
100
AcDbEntity
  8
2
370
    50
100
AcDbLine
 10
-214.940871
 20
-114.093271
 30
0.0
 11
-203.44104
 21
-114.093271
 31
0.0
  0
ARC
  5
206
100
AcDbEntity
  8
2
370
    50
100
AcDbCircle
 10
-201.166074
 20
-108.09336
 30
0.0
 40
15.024779
100
AcDbArc
 50
156.463422
 51
203.536578
  0
LINE
  5
207
100
AcDbEntity
  8
2
370
    50
100
AcDbLine
 10
-214.940871
 20
-102.093448
 30
0.0
 11
-203.44104
 21
-102.093448
 31
0.0
  0
ELLIPSE
  5
208
100
AcDbEntity
  8
2
370
    50
100
AcDbEllipse
 10
-213.400185
 20
-108.09336
 30
0.0
 11
0.0
 21
5.9999120000000001
 31
0.0
210
0.0
220
0.0
230
1.0
 40
0.458833
 41
0.0
 42
6.2831849999999996
  0
ELLIPSE
  5
209
100
AcDbEntity
  8
2
370
    50
100
AcDbEllipse
 10
-203.44104
 20
-108.09336
 30
0.0
 11
0.0
 21
5.9999120000000001
 31
0.0
210
0.0
220
0.0
230
1.0
 40
0.926667
 41
0.0
 42
3.1415929999999999
  0
LINE
  5
20A
100
AcDbEntity
  8
2
370
    50
100
AcDbLine
 10
-189.120253
 20
-74.093815
 30
0.0
 11
-191.190773
 21
-74.093815
 31
0.0
  0
ARC
  5
20B
100
AcDbEntity
  8
2
370
    50
100
AcDbCircle
 10
-203.441487
 20
-90.343576
 30
0.0
 40
16.249761
100
AcDbArc
 50
90.0
 51
104.250033
  0
LINE
  5
20C
100
AcDbEntity
  8
2
370
    50
100
AcDbLine
 10
-217.761827
 20
-74.093815
 30
0.0
 11
-215.691307
 21
-74.093815
 31
0.0
  0
LINE
  5
20D
100
AcDbEntity
  8
2
370
    50
100
AcDbLine
 10
201.316701
 20
-74.093861
 30
0.0
 11
199.246181
 21
-74.093861
 31
0.0
  0
LINE
  5
20E
100
AcDbEntity
  8
2
370
    50
100
AcDbLine
 10
172.676022
 20
-74.093861
 30
0.0
 11
174.746542
 21
-74.093861
 31
0.0
  0
LINE
  5
20F
100
AcDbEntity
  8
2
370
    50
100
AcDbLine
 10
-115.44131
 20
-82.793687
 30
0.0
 11
-103.441487
 21
-82.793687
 31
0.0
  0
LINE
  5
210
100
AcDbEntity
  8
2
370
    50
100
AcDbLine
 10
-117.191285
 20
-81.783339
 30
0.0
 11
-117.191285
 21
-76.293783
 31
0.0
  0
LINE
  5
211
100
AcDbEntity
  8
2
370
    50
100
AcDbLine
 10
-115.44131
 20
-82.793687
 30
0.0
 11
-117.191285
 21
-81.783339
 31
0.0
  0
LINE
  5
212
100
AcDbEntity
  8
2
370
    50
100
AcDbLine
 10
-123.441193
 20
-75.79379
 30
0.0
 11
-123.441193
 21
-74.593808
 31
0.0
  0
LINE
  5
213
100
AcDbEntity
  8
2
370
    50
100
AcDbLine
 10
-103.441487
 20
-76.293783
 30
0.0
 11
-117.761827
 21
-76.293783
 31
0.0
  0
LINE
  5
214
100
AcDbEntity
  8
2
370
    50
100
AcDbLine
 10
-123.441193
 20
-74.593808
 30
0.0
 11
-103.441487
 21
-74.593808
 31
0.0
  0
LINE
  5
215
100
AcDbEntity
  8
2
370
    50
100
AcDbLine
 10
-123.441193
 20
-75.79379
 30
0.0
 11
-103.441487
 21
-75.79379
 31
0.0
  0
ARC
  5
216
100
AcDbEntity
  8
2
370
    50
100
AcDbCircle
 10
-117.761827
 20
-71.293857
 30
0.0
 40
4.999926
100
AcDbArc
 50
246.443536
 51
270.0
  0
ARC
  5
217
100
AcDbEntity
  8
2
370
    50
100
AcDbCircle
 10
-117.761827
 20
-79.093742
 30
0.0
 40
4.999926
100
AcDbArc
 50
90.0
 51
113.556464
  0
ARC
  5
218
100
AcDbEntity
  8
2
370
    50
100
AcDbCircle
 10
-120.159707
 20
-76.793776
 30
0.0
 40
0.999985
100
AcDbArc
 50
66.443536
 51
90.0
  0
ARC
  5
219
100
AcDbEntity
  8
2
370
    50
100
AcDbCircle
 10
-120.159707
 20
-73.593823
 30
0.0
 40
0.999985
100
AcDbArc
 50
270.0
 51
293.556464
  0
LINE
  5
21A
100
AcDbEntity
  8
2
370
    50
100
AcDbLine
 10
-110.441384
 20
-81.783339
 30
0.0
 11
-110.441384
 21
-76.293783
 31
0.0
  0
ARC
  5
21B
100
AcDbEntity
  8
2
370
    50
100
AcDbCircle
 10
-103.441487
 20
-58.040159
 30
0.0
 40
24.753528
100
AcDbArc
 50
253.573579
 51
270.0
  0
ARC
  5
21C
100
AcDbEntity
  8
2
370
    50
100
AcDbCircle
 10
-113.816334
 20
-76.651699
 30
0.0
 40
6.141988
100
AcDbArc
 50
236.668091
 51
303.331909
  0
ARC
  5
21D
100
AcDbEntity
  8
2
370
    50
100
AcDbCircle
 10
-103.441487
 20
-60.044022
 30
0.0
 40
16.249761
100
AcDbArc
 50
255.749967
 51
270.0
  0
ARC
  5
21E
100
AcDbEntity
  8
2
370
    50
100
AcDbCircle
 10
-111.691366
 20
-60.044022
 30
0.0
 40
16.249761
100
AcDbArc
 50
255.749967
 51
277.069714
  0
ARC
  5
21F
100
AcDbEntity
  8
2
370
    50
100
AcDbCircle
 10
-107.691425
 20
-60.044022
 30
0.0
 40
16.249761
100
AcDbArc
 50
255.749967
 51
277.514045
  0
ARC
  5
220
100
AcDbEntity
  8
2
370
    50
100
AcDbCircle
 10
-115.691307
 20
-60.044022
 30
0.0
 40
16.249761
100
AcDbArc
 50
270.0
 51
277.069714
  0
ARC
  5
221
100
AcDbEntity
  8
2
370
    50
100
AcDbCircle
 10
-103.441487
 20
-90.343576
 30
0.0
 40
16.249761
100
AcDbArc
 50
90.0
 51
104.250033
  0
ARC
  5
222
100
AcDbEntity
  8
2
370
    50
100
AcDbCircle
 10
-107.691425
 20
-90.343576
 30
0.0
 40
16.249761
100
AcDbArc
 50
82.485955
 51
104.250033
  0
ARC
  5
223
100
AcDbEntity
  8
2
370
    50
100
AcDbCircle
 10
-111.691366
 20
-90.343576
 30
0.0
 40
16.249761
100
AcDbArc
 50
82.930286
 51
104.250033
  0
ARC
  5
224
100
AcDbEntity
  8
2
370
    50
100
AcDbCircle
 10
-115.691307
 20
-90.343576
 30
0.0
 40
16.249761
100
AcDbArc
 50
82.930286
 51
90.0
  0
LINE
  5
225
100
AcDbEntity
  8
2
370
    50
100
AcDbLine
 10
-114.940871
 20
-114.093271
 30
0.0
 11
-103.44104
 21
-114.093271
 31
0.0
  0
ARC
  5
226
100
AcDbEntity
  8
2
370
    50
100
AcDbCircle
 10
-101.166074
 20
-108.09336
 30
0.0
 40
15.024779
100
AcDbArc
 50
156.463422
 51
203.536578
  0
LINE
  5
227
100
AcDbEntity
  8
2
370
    50
100
AcDbLine
 10
-114.940871
 20
-102.093448
 30
0.0
 11
-103.44104
 21
-102.093448
 31
0.0
  0
ELLIPSE
  5
228
100
AcDbEntity
  8
2
370
    50
100
AcDbEllipse
 10
-113.400185
 20
-108.09336
 30
0.0
 11
0.0
 21
5.9999120000000001
 31
0.0
210
0.0
220
0.0
230
1.0
 40
0.458833
 41
0.0
 42
6.2831849999999996
  0
ELLIPSE
  5
229
100
AcDbEntity
  8
2
370
    50
100
AcDbEllipse
 10
-103.44104
 20
-108.09336
 30
0.0
 11
0.0
 21
5.9999120000000001
 31
0.0
210
0.0
220
0.0
230
1.0
 40
0.926667
 41
0.0
 42
3.1415929999999999
  0
LINE
  5
22A
100
AcDbEntity
  8
2
370
    50
100
AcDbLine
 10
-91.44077
 20
-82.793687
 30
0.0
 11
-103.440593
 21
-82.793687
 31
0.0
  0
LINE
  5
22B
100
AcDbEntity
  8
2
370
    50
100
AcDbLine
 10
-89.690795
 20
-81.783339
 30
0.0
 11
-89.690795
 21
-76.293783
 31
0.0
  0
LINE
  5
22C
100
AcDbEntity
  8
2
370
    50
100
AcDbLine
 10
-91.44077
 20
-82.793687
 30
0.0
 11
-89.690795
 21
-81.783339
 31
0.0
  0
LINE
  5
22D
100
AcDbEntity
  8
2
370
    50
100
AcDbLine
 10
-83.440888
 20
-75.79379
 30
0.0
 11
-83.440888
 21
-74.593808
 31
0.0
  0
LINE
  5
22E
100
AcDbEntity
  8
2
370
    50
100
AcDbLine
 10
-103.440593
 20
-76.293783
 30
0.0
 11
-89.120253
 21
-76.293783
 31
0.0
  0
LINE
  5
22F
100
AcDbEntity
  8
2
370
    50
100
AcDbLine
 10
-83.440888
 20
-74.593808
 30
0.0
 11
-103.440593
 21
-74.593808
 31
0.0
  0
LINE
  5
230
100
AcDbEntity
  8
2
370
    50
100
AcDbLine
 10
-83.440888
 20
-75.79379
 30
0.0
 11
-103.440593
 21
-75.79379
 31
0.0
  0
ARC
  5
231
100
AcDbEntity
  8
2
370
    50
100
AcDbCircle
 10
-89.120253
 20
-71.293857
 30
0.0
 40
4.999926
100
AcDbArc
 50
270.0
 51
293.556464
  0
ARC
  5
232
100
AcDbEntity
  8
2
370
    50
100
AcDbCircle
 10
-89.120253
 20
-79.093742
 30
0.0
 40
4.999926
100
AcDbArc
 50
66.443536
 51
90.0
  0
ARC
  5
233
100
AcDbEntity
  8
2
370
    50
100
AcDbCircle
 10
-86.722373
 20
-76.793776
 30
0.0
 40
0.999985
100
AcDbArc
 50
90.0
 51
113.556464
  0
ARC
  5
234
100
AcDbEntity
  8
2
370
    50
100
AcDbCircle
 10
-86.722373
 20
-73.593823
 30
0.0
 40
0.999985
100
AcDbArc
 50
246.443536
 51
270.0
  0
LINE
  5
235
100
AcDbEntity
  8
2
370
    50
100
AcDbLine
 10
-96.440696
 20
-81.783339
 30
0.0
 11
-96.440696
 21
-76.293783
 31
0.0
  0
ARC
  5
236
100
AcDbEntity
  8
2
370
    50
100
AcDbCircle
 10
-103.440593
 20
-58.040159
 30
0.0
 40
24.753528
100
AcDbArc
 50
270.0
 51
286.426421
  0
ARC
  5
237
100
AcDbEntity
  8
2
370
    50
100
AcDbCircle
 10
-93.065746
 20
-76.651699
 30
0.0
 40
6.141988
100
AcDbArc
 50
236.668091
 51
303.331909
  0
ARC
  5
238
100
AcDbEntity
  8
2
370
    50
100
AcDbCircle
 10
-95.190714
 20
-60.044022
 30
0.0
 40
16.249761
100
AcDbArc
 50
262.930286
 51
284.250033
  0
ARC
  5
239
100
AcDbEntity
  8
2
370
    50
100
AcDbCircle
 10
-99.190656
 20
-60.044022
 30
0.0
 40
16.249761
100
AcDbArc
 50
262.485955
 51
284.250033
  0
ARC
  5
23A
100
AcDbEntity
  8
2
370
    50
100
AcDbCircle
 10
-91.190773
 20
-60.044022
 30
0.0
 40
16.249761
100
AcDbArc
 50
262.930286
 51
270.0
  0
ARC
  5
23B
100
AcDbEntity
  8
2
370
    50
100
AcDbCircle
 10
-99.190656
 20
-90.343576
 30
0.0
 40
16.249761
100
AcDbArc
 50
75.749967
 51
97.514045
  0
ARC
  5
23C
100
AcDbEntity
  8
2
370
    50
100
AcDbCircle
 10
-95.190714
 20
-90.343576
 30
0.0
 40
16.249761
100
AcDbArc
 50
75.749967
 51
97.069714
  0
ARC
  5
23D
100
AcDbEntity
  8
2
370
    50
100
AcDbCircle
 10
-91.190773
 20
-90.343576
 30
0.0
 40
16.249761
100
AcDbArc
 50
90.0
 51
97.069714
  0
LINE
  5
23E
100
AcDbEntity
  8
2
370
    50
100
AcDbLine
 10
-91.941209
 20
-114.093271
 30
0.0
 11
-103.44104
 21
-114.093271
 31
0.0
  0
ARC
  5
23F
100
AcDbEntity
  8
2
370
    50
100
AcDbCircle
 10
-105.716007
 20
-108.09336
 30
0.0
 40
15.024779
100
AcDbArc
 50
336.463422
 51
23.536578
  0
LINE
  5
240
100
AcDbEntity
  8
2
370
    50
100
AcDbLine
 10
-91.941209
 20
-102.093448
 30
0.0
 11
-103.44104
 21
-102.093448
 31
0.0
  0
ELLIPSE
  5
241
100
AcDbEntity
  8
2
370
    50
100
AcDbEllipse
 10
-93.481895
 20
-108.09336
 30
0.0
 11
0.0
 21
5.9999120000000001
 31
0.0
210
0.0
220
0.0
230
1.0
 40
0.458833
 41
0.0
 42
6.2831849999999996
  0
ELLIPSE
  5
242
100
AcDbEntity
  8
2
370
    50
100
AcDbEllipse
 10
-103.44104
 20
-108.09336
 30
0.0
 11
0.0
 21
5.9999120000000001
 31
0.0
210
0.0
220
0.0
230
1.0
 40
0.926667
 41
3.1415929999999999
 42
0.0
  0
LINE
  5
243
100
AcDbEntity
  8
2
370
    50
100
AcDbLine
 10
-117.761827
 20
-74.093815
 30
0.0
 11
-115.691307
 21
-74.093815
 31
0.0
  0
ARC
  5
244
100
AcDbEntity
  8
2
370
    50
100
AcDbCircle
 10
-103.440593
 20
-90.343576
 30
0.0
 40
16.249761
100
AcDbArc
 50
75.749967
 51
90.0
  0
LINE
  5
245
100
AcDbEntity
  8
2
370
    50
100
AcDbLine
 10
-89.120253
 20
-74.093815
 30
0.0
 11
-91.190773
 21
-74.093815
 31
0.0
  0
LINE
  5
246
100
AcDbEntity
  8
2
370
    50
100
AcDbLine
 10
-192.96354
 20
-102.093448
 30
0.0
 11
-192.96354
 21
-82.793687
 31
0.0
  0
LINE
  5
247
100
AcDbEntity
  8
2
370
    50
100
AcDbLine
 10
-192.96354
 20
-74.190805
 30
0.0
 11
-192.96354
 21
-54.593271
 31
0.0
  0
LINE
  5
248
100
AcDbEntity
  8
2
370
    25
100
AcDbLine
 10
-194.12554
 20
-102.093448
 30
0.0
 11
-194.12554
 21
-82.793687
 31
0.0
  0
LINE
  5
249
100
AcDbEntity
  8
2
370
    25
100
AcDbLine
 10
-194.12554
 20
-74.128764
 30
0.0
 11
-194.12554
 21
-54.593271
 31
0.0
  0
LINE
  5
24A
100
AcDbEntity
  8
2
370
    25
100
AcDbLine
 10
-212.75654
 20
-102.093448
 30
0.0
 11
-212.75654
 21
-82.793687
 31
0.0
  0
LINE
  5
24B
100
AcDbEntity
  8
2
370
    25
100
AcDbLine
 10
-212.75654
 20
-74.128764
 30
0.0
 11
-212.75654
 21
-54.593271
 31
0.0
  0
LINE
  5
24C
100
AcDbEntity
  8
2
370
    50
100
AcDbLine
 10
-213.91854
 20
-102.093448
 30
0.0
 11
-213.91854
 21
-82.793687
 31
0.0
  0
LINE
  5
24D
100
AcDbEntity
  8
2
370
    50
100
AcDbLine
 10
-213.91854
 20
-74.190805
 30
0.0
 11
-213.91854
 21
-54.593271
 31
0.0
  0
POINT
  5
24E
100
AcDbEntity
  8
2
370
    50
100
AcDbPoint
 10
-203.44104
 20
-107.593271
 30
0.0
  0
LINE
  5
24F
100
AcDbEntity
  8
2
370
    25
100
AcDbLine
 10
-112.75654
 20
-102.093448
 30
0.0
 11
-112.75654
 21
-82.793687
 31
0.0
  0
LINE
  5
250
100
AcDbEntity
  8
2
370
    25
100
AcDbLine
 10
-112.75654
 20
-74.128764
 30
0.0
 11
-112.75654
 21
-54.593271
 31
0.0
  0
LINE
  5
251
100
AcDbEntity
  8
2
370
    50
100
AcDbLine
 10
-113.91854
 20
-102.093448
 30
0.0
 11
-113.91854
 21
-82.793687
 31
0.0
  0
LINE
  5
252
100
AcDbEntity
  8
2
370
    50
100
AcDbLine
 10
-113.91854
 20
-74.190805
 30
0.0
 11
-113.91854
 21
-54.593271
 31
0.0
  0
LINE
  5
253
100
AcDbEntity
  8
2
370
    25
100
AcDbLine
 10
-94.12554
 20
-102.093448
 30
0.0
 11
-94.12554
 21
-82.793687
 31
0.0
  0
LINE
  5
254
100
AcDbEntity
  8
2
370
    25
100
AcDbLine
 10
-94.12554
 20
-74.128764
 30
0.0
 11
-94.12554
 21
-54.593271
 31
0.0
  0
LINE
  5
255
100
AcDbEntity
  8
2
370
    50
100
AcDbLine
 10
-92.96354
 20
-102.093448
 30
0.0
 11
-92.96354
 21
-82.793687
 31
0.0
  0
LINE
  5
256
100
AcDbEntity
  8
2
370
    50
100
AcDbLine
 10
-92.96354
 20
-74.190805
 30
0.0
 11
-92.96354
 21
-54.593271
 31
0.0
  0
LINE
  5
257
100
AcDbEntity
  8
2
370
    50
100
AcDbLine
 10
197.473862
 20
-102.093448
 30
0.0
 11
197.473862
 21
-82.793733
 31
0.0
  0
LINE
  5
258
100
AcDbEntity
  8
2
370
    50
100
AcDbLine
 10
197.473862
 20
-74.247273
 30
0.0
 11
197.473862
 21
-55.532467
 31
0.0
  0
LINE
  5
259
100
AcDbEntity
  8
2
370
    25
100
AcDbLine
 10
196.311862
 20
-102.093448
 30
0.0
 11
196.311862
 21
-82.793733
 31
0.0
  0
LINE
  5
25A
100
AcDbEntity
  8
2
370
    25
100
AcDbLine
 10
196.311862
 20
-74.128839
 30
0.0
 11
196.311862
 21
-55.532467
 31
0.0
  0
LINE
  5
25B
100
AcDbEntity
  8
2
370
    25
100
AcDbLine
 10
177.680862
 20
-102.093448
 30
0.0
 11
177.680862
 21
-82.793733
 31
0.0
  0
LINE
  5
25C
100
AcDbEntity
  8
2
370
    25
100
AcDbLine
 10
177.680862
 20
-74.128839
 30
0.0
 11
177.680862
 21
-55.532467
 31
0.0
  0
LINE
  5
25D
100
AcDbEntity
  8
2
370
    50
100
AcDbLine
 10
176.518862
 20
-102.093448
 30
0.0
 11
176.518862
 21
-82.793733
 31
0.0
  0
LINE
  5
25E
100
AcDbEntity
  8
2
370
    50
100
AcDbLine
 10
176.518862
 20
-74.247273
 30
0.0
 11
176.518862
 21
-55.532467
 31
0.0
  0
POINT
  5
25F
100
AcDbEntity
  8
2
370
    50
100
AcDbPoint
 10
186.996362
 20
-16.343271
 30
0.0
  0
POINT
  5
260
100
AcDbEntity
  8
2
370
    50
100
AcDbPoint
 10
186.996362
 20
-16.343271
 30
0.0
  0
ELLIPSE
  5
261
100
AcDbEntity
  8
2
370
    50
100
AcDbEllipse
 10
165.996362
 20
10.406729
 30
0.0
 11
0.0
 21
6.5
 31
0.0
210
0.0
220
0.0
230
1.0
 40
0.805629
 41
0.24288
 42
2.8317960000000002
  0
LINE
  5
262
100
AcDbEntity
  8
2
370
    25
100
AcDbLine
 10
-78.44104
 20
-45.593271
 30
0.0
 11
-135.44104
 21
-45.593271
 31
0.0
  0
LINE
  5
263
100
AcDbEntity
  8
2
370
    25
100
AcDbLine
 10
-228.44104
 20
-45.593271
 30
0.0
 11
-171.44104
 21
-45.593271
 31
0.0
  0
LINE
  5
264
100
AcDbEntity
  8
2
370
    50
100
AcDbLine
 10
-226.94104
 20
-54.593271
 30
0.0
 11
-79.94104
 21
-54.593271
 31
0.0
  0
LINE
  5
265
100
AcDbEntity
  8
2
370
    50
100
AcDbLine
 10
-79.94104
 20
-54.593271
 30
0.0
 11
-79.94104
 21
-51.593271
 31
0.0
  0
LINE
  5
266
100
AcDbEntity
  8
2
370
    50
100
AcDbLine
 10
-226.94104
 20
-54.593271
 30
0.0
 11
-226.94104
 21
-51.593271
 31
0.0
  0
LINE
  5
267
100
AcDbEntity
  8
2
370
    50
100
AcDbLine
 10
161.496362
 20
-55.532467
 30
0.0
 11
217.996362
 21
-55.532467
 31
0.0
  0
LINE
  5
268
100
AcDbEntity
  8
2
370
    50
100
AcDbLine
 10
161.496362
 20
-52.532467
 30
0.0
 11
161.496362
 21
-55.532467
 31
0.0
  0
LINE
  5
269
100
AcDbEntity
  8
2
370
    50
100
AcDbLine
 10
217.996362
 20
-52.532467
 30
0.0
 11
217.996362
 21
-55.532467
 31
0.0
  0
TEXT
  5
26A
100
AcDbEntity
  8
3
370
    50
100
AcDbText
 10
290.832582
 20
-240.013492
 30
0.0
 40
6.0
  1
１　１
 72
     5
 11
307.632582
 21
-240.013492
 31
0.0
100
AcDbText
  0
DIMENSION
  5
26B
100
AcDbEntity
  8
3
370
    25
100
AcDbDimension
  2
*D0
 10
-78.44104
 20
-169.461792
 30
0.0
 11
-153.44104
 21
-164.961792
 31
0.0
 71
     0
 72
     0
 41
0.0
 42
0.0
  3
Standard
100
AcDbAlignedDimension
 13
-228.44104
 23
-51.593271
 33
0.0
 14
-78.44104
 24
-51.593271
 34
0.0
100
AcDbRotatedDimension
  0
DIMENSION
  5
26C
100
AcDbEntity
  8
3
370
    25
100
AcDbDimension
  2
*D1
 10
-103.44104
 20
-142.3358
 30
0.0
 11
-153.44104
 21
-137.8358
 31
0.0
 71
     0
 72
     0
 41
0.0
 42
0.0
  3
Standard
100
AcDbAlignedDimension
 13
-203.44104
 23
-117.990662
 33
0.0
 14
-103.44104
 24
-117.990662
 34
0.0
100
AcDbRotatedDimension
  0
POINT
  5
26D
100
AcDbEntity
  8
3
370
    50
100
AcDbPoint
 10
2.996362
 20
85.967533
 30
0.0
  0
DIMENSION
  5
26E
100
AcDbEntity
  8
3
370
    25
100
AcDbDimension
  2
*D2
 10
218.996362
 20
-160.972183
 30
0.0
 11
187.496362
 21
-156.472183
 31
0.0
 71
     0
 72
     0
 41
0.0
 42
0.0
  3
Standard
100
AcDbAlignedDimension
 13
155.996362
 23
-46.532467
 33
0.0
 14
218.996362
 24
-52.532467
 34
0.0
100
AcDbRotatedDimension
  0
DIMENSION
  5
26F
100
AcDbEntity
  8
3
370
    25
100
AcDbDimension
  2
*D3
 10
186.996362
 20
-89.957588
 30
0.0
 11
94.996362
 21
-85.457588
 31
0.0
 71
     0
 72
     0
 41
0.0
 42
0.0
  3
Standard
100
AcDbAlignedDimension
 13
2.996362
 23
78.427185
 33
0.0
 14
186.996362
 24
-89.957588
 34
0.0
100
AcDbRotatedDimension
  0
DIMENSION
  5
270
100
AcDbEntity
  8
3
370
    25
100
AcDbDimension
  2
*D4
 10
2.996362
 20
85.965635
 30
0.0
 11
8.885857
 21
67.597065
 31
0.0
 70
     2
 71
     0
 72
     0
 41
0.0
 42
0.0
  3
Standard
100
AcDb2LineAngularDimension
 13
2.99613
 23
85.96565
 33
0.0
 14
2.996362
 24
85.967533
 34
0.0
 15
2.996362
 25
85.967533
 35
0.0
 16
1.837864
 26
67.026269
 36
0.0
1001
ACAD
1000
DSTYLE
1002
{
1070
   275
1070
     0
1070
   179
1070
     0
1002
}
  0
DIMENSION
  5
271
100
AcDbEntity
  8
3
370
    25
100
AcDbDimension
  2
*D5
 10
186.996362
 20
-67.956718
 30
0.0
 11
148.696362
 21
-63.456718
 31
0.0
 71
     0
 72
     0
 41
0.0
 42
0.0
  3
Standard
100
AcDbAlignedDimension
 13
110.396363
 23
-32.566582
 33
0.0
 14
186.996362
 24
-74.33075
 34
0.0
100
AcDbRotatedDimension
  0
TEXT
  5
272
100
AcDbEntity
  8
3
370
    50
100
AcDbText
 10
-290.502933
 20
-96.411119
 30
0.0
 40
6.330068
  1
２４六角
 72
     5
 11
-266.448675
 21
-96.411119
 31
0.0
100
AcDbText
  0
TEXT
  5
273
100
AcDbEntity
  8
3
370
    50
100
AcDbText
 10
-290.502933
 20
-148.907664
 30
0.0
 40
6.330068
  1
２３六角
 72
     5
 11
-266.448675
 21
-148.907664
 31
0.0
100
AcDbText
  0
TEXT
  5
274
100
AcDbEntity
  8
3
370
    50
100
AcDbText
 10
-299.626958
 20
-118.845271
 30
0.0
 40
6.4
  1
ＰＪ１／２
 72
     5
 11
-268.906957
 21
-118.845271
 31
0.0
100
AcDbText
  0
LWPOLYLINE
  5
275
100
AcDbEntity
  8
3
370
    25
100
AcDbPolyline
 90
        3
 70
     0
 10
-217.189978
 20
-80.258346
 10
-264.761044
 20
-97.420687
 10
-290.502933
 20
-97.420687
  0
LWPOLYLINE
  5
27A
100
AcDbEntity
  8
3
370
    25
100
AcDbPolyline
 90
        3
 70
     0
 10
-213.690122
 20
-92.372922
 10
-264.256335
 20
-120.640316
 10
-302.156255
 20
-120.640316
  0
LINE
  5
27F
100
AcDbEntity
  8
3
370
    25
100
AcDbLine
 10
-217.062638
 20
-94.258217
 30
0.0
 11
-216.557475
 21
-95.16188
 31
0.0
  0
LINE
  5
280
100
AcDbEntity
  8
3
370
    25
100
AcDbLine
 10
-216.557475
 20
-95.16188
 30
0.0
 11
-213.690122
 21
-92.372922
 31
0.0
  0
LINE
  5
281
100
AcDbEntity
  8
3
370
    25
100
AcDbLine
 10
-213.690122
 20
-92.372922
 30
0.0
 11
-217.567802
 21
-93.354554
 31
0.0
  0
LINE
  5
282
100
AcDbEntity
  8
3
370
    25
100
AcDbLine
 10
-217.567802
 20
-93.354554
 30
0.0
 11
-217.062638
 21
-94.258217
 31
0.0
  0
TEXT
  5
283
100
AcDbEntity
  8
3
370
    50
100
AcDbText
 10
-317.384007
 20
-128.857203
 30
0.0
 40
6.4
  1
（取付穴　φ２３±１）
 72
     5
 11
-248.264006
 21
-128.857203
 31
0.0
100
AcDbText
  0
LWPOLYLINE
  5
284
100
AcDbEntity
  8
3
370
    25
100
AcDbPolyline
 90
        3
 70
     0
 10
-215.367268
 20
-112.999482
 10
-261.703766
 20
-150.110382
 10
-290.171875
 20
-150.110382
  0
LINE
  5
289
100
AcDbEntity
  8
3
370
    50
100
AcDbLine
 10
-164.153997
 20
-40.007635
 30
0.0
 11
-164.153997
 21
-43.007635
 31
0.0
  0
LINE
  5
28A
100
AcDbEntity
  8
3
370
    50
100
AcDbLine
 10
-162.903997
 20
-44.257635
 30
0.0
 11
-143.403997
 21
-44.257635
 31
0.0
  0
LINE
  5
28B
100
AcDbEntity
  8
3
370
    50
100
AcDbLine
 10
-162.903997
 20
-38.757635
 30
0.0
 11
-143.403997
 21
-38.757635
 31
0.0
  0
ARC
  5
28C
100
AcDbEntity
  8
3
370
    50
100
AcDbCircle
 10
-162.903997
 20
-40.007635
 30
0.0
 40
1.25
100
AcDbArc
 50
90.0
 51
180.0
  0
ARC
  5
28D
100
AcDbEntity
  8
3
370
    50
100
AcDbCircle
 10
-162.903997
 20
-43.007635
 30
0.0
 40
1.25
100
AcDbArc
 50
180.0
 51
270.0
  0
HATCH
  5
28E
100
AcDbEntity
  8
3
370
    25
100
AcDbHatch
 10
0.0
 20
0.0
 30
0.0
210
0.0
220
0.0
230
1.0
  2
_U
 70
     0
 71
     1
 91
        1
 92
        1
 93
        8
 72
     1
 10
-143.403997
 20
-38.757635000000001
 11
-162.903997
 21
-38.757635000000001
 72
     2
 10
-162.903997
 20
-40.007635000000001
 40
1.25
 50
90.0
 51
180.0
 73
     1
 72
     1
 10
-164.153997
 20
-40.007635000000001
 11
-164.153997
 21
-43.007635000000001
 72
     2
 10
-162.903997
 20
-43.007635000000001
 40
1.25
 50
180.0
 51
270.0
 73
     1
 72
     1
 10
-162.903997
 20
-44.257635000000001
 11
-143.403997
 21
-44.257635000000001
 72
     2
 10
-143.403997
 20
-43.007635000000001
 40
1.25
 50
270.0
 51
0.0
 73
     1
 72
     1
 10
-142.153997
 20
-43.007635000000001
 11
-142.153997
 21
-40.007635000000001
 72
     2
 10
-143.403997
 20
-40.007635000000001
 40
1.25
 50
0.0
 51
90.0
 73
     1
 97
        8
330
0
330
0
330
0
330
0
330
0
330
0
330
0
330
0
 75
     0
 76
     0
 52
45.0
 41
1.0
 77
     0
 78
     1
 53
45.0
 43
0.0
 44
0.0
 45
-0.707107
 46
0.707107
 79
     0
 98
        1
 10
0.0
 20
0.0
  0
ARC
  5
28F
100
AcDbEntity
  8
3
370
    50
100
AcDbCircle
 10
-143.403997
 20
-40.007635
 30
0.0
 40
1.25
100
AcDbArc
 50
360.0
 51
90.0
  0
LINE
  5
290
100
AcDbEntity
  8
3
370
    50
100
AcDbLine
 10
-142.153997
 20
-40.007635
 30
0.0
 11
-142.153997
 21
-43.007635
 31
0.0
  0
ARC
  5
291
100
AcDbEntity
  8
3
370
    50
100
AcDbCircle
 10
-143.403997
 20
-43.007635
 30
0.0
 40
1.25
100
AcDbArc
 50
270.0
 51
360.0
  0
TEXT
  5
292
100
AcDbEntity
  8
3
370
    50
100
AcDbText
 10
-296.827637
 20
-32.426758
 30
0.0
 40
7.0
  1
（商標表示）
 72
     5
 11
-256.227637
 21
-32.426758
 31
0.0
100
AcDbText
  0
DIMENSION
  5
293
100
AcDbEntity
  8
3
370
    25
100
AcDbDimension
  2
*D6
 10
-95.94104
 20
161.562866
 30
0.0
 11
-153.44104
 21
166.062866
 31
0.0
 71
     0
 72
     0
 41
0.0
 42
0.0
  3
Standard
100
AcDbAlignedDimension
 13
-210.94104
 23
39.665718
 33
0.0
 14
-95.94104
 24
39.665718
 34
0.0
100
AcDbRotatedDimension
  0
LWPOLYLINE
  5
294
100
AcDbEntity
  8
3
370
    25
100
AcDbPolyline
 90
        3
 70
     0
 10
-164.153997
 20
-41.474621
 10
-256.775482
 20
-33.906391
 10
-295.093933
 20
-33.906391
  0
LINE
  5
299
100
AcDbEntity
  8
3
370
    25
100
AcDbLine
 10
-168.004866
 20
-41.159961
 30
0.0
 11
-168.089179
 21
-42.191798
 31
0.0
  0
LINE
  5
29A
100
AcDbEntity
  8
3
370
    25
100
AcDbLine
 10
-168.089179
 20
-42.191798
 30
0.0
 11
-164.153997
 21
-41.474621
 31
0.0
  0
LINE
  5
29B
100
AcDbEntity
  8
3
370
    25
100
AcDbLine
 10
-164.153997
 20
-41.474621
 30
0.0
 11
-167.920553
 21
-40.128124
 31
0.0
  0
LINE
  5
29C
100
AcDbEntity
  8
3
370
    25
100
AcDbLine
 10
-167.920553
 20
-40.128124
 30
0.0
 11
-168.004866
 21
-41.159961
 31
0.0
  0
LINE
  5
29D
100
AcDbEntity
  8
3
370
    50
100
AcDbLine
 10
-279.351881
 20
-20.192689
 30
0.0
 11
-276.989305
 21
-20.192689
 31
0.0
  0
LINE
  5
29E
100
AcDbEntity
  8
3
370
    50
100
AcDbLine
 10
-279.351881
 20
-19.562711
 30
0.0
 11
-276.551791
 21
-19.956238
 31
0.0
  0
LINE
  5
29F
100
AcDbEntity
  8
3
370
    50
100
AcDbLine
 10
-276.928415
 20
-19.019679
 30
0.0
 11
-279.351881
 21
-18.679083
 31
0.0
  0
LINE
  5
2A0
100
AcDbEntity
  8
3
370
    50
100
AcDbLine
 10
-279.351881
 20
-18.442633
 30
0.0
 11
-276.551791
 21
-18.442633
 31
0.0
  0
ARC
  5
2A1
100
AcDbEntity
  8
3
370
    50
100
AcDbCircle
 10
-276.989305
 20
-18.005118
 30
0.0
 40
0.437514
100
AcDbArc
 50
0.0
 51
90.0
  0
ARC
  5
2A2
100
AcDbEntity
  8
3
370
    50
100
AcDbCircle
 10
-276.989305
 20
-19.452936
 30
0.0
 40
0.437514
100
AcDbArc
 50
360.0
 51
82.0
  0
ARC
  5
2A3
100
AcDbEntity
  8
3
370
    50
100
AcDbCircle
 10
-276.989305
 20
-20.630203
 30
0.0
 40
0.437514
100
AcDbArc
 50
0.0
 51
90.0
  0
LINE
  5
2A4
100
AcDbEntity
  8
3
370
    50
100
AcDbLine
 10
-275.676763
 20
-17.567604
 30
0.0
 11
-275.676763
 21
-18.442633
 31
0.0
  0
LINE
  5
2A5
100
AcDbEntity
  8
3
370
    50
100
AcDbLine
 10
-275.676763
 20
-18.442633
 30
0.0
 11
-274.451723
 21
-18.442633
 31
0.0
  0
LINE
  5
2A6
100
AcDbEntity
  8
3
370
    50
100
AcDbLine
 10
-273.576695
 20
-18.005118
 30
0.0
 11
-273.576695
 21
-19.142655
 31
0.0
  0
LINE
  5
2A7
100
AcDbEntity
  8
3
370
    50
100
AcDbLine
 10
-274.451723
 20
-18.442633
 30
0.0
 11
-274.451723
 21
-19.142655
 31
0.0
  0
LINE
  5
2A8
100
AcDbEntity
  8
3
370
    50
100
AcDbLine
 10
-276.114277
 20
-20.192689
 30
0.0
 11
-275.501757
 21
-20.192689
 31
0.0
  0
ARC
  5
2A9
100
AcDbEntity
  8
3
370
    50
100
AcDbCircle
 10
-275.501757
 20
-19.142655
 30
0.0
 40
1.050034
100
AcDbArc
 50
270.0
 51
360.0
  0
ARC
  5
2AA
100
AcDbEntity
  8
3
370
    50
100
AcDbCircle
 10
-272.258787
 20
-18.094228
 30
0.0
 40
2.100068
100
AcDbArc
 50
228.524141
 51
272.241513
  0
ARC
  5
2AB
100
AcDbEntity
  8
3
370
    50
100
AcDbCircle
 10
-272.258787
 20
-18.094228
 30
0.0
 40
2.975096
100
AcDbArc
 50
232.173442
 51
271.582042
  0
LINE
  5
2AC
100
AcDbEntity
  8
3
370
    50
100
AcDbLine
 10
-272.547452
 20
-18.96765
 30
0.0
 11
-271.537056
 21
-18.96765
 31
0.0
  0
LINE
  5
2AD
100
AcDbEntity
  8
3
370
    50
100
AcDbLine
 10
-271.739136
 20
-17.567604
 30
0.0
 11
-272.547452
 21
-18.96765
 31
0.0
  0
LINE
  5
2AE
100
AcDbEntity
  8
3
370
    50
100
AcDbLine
 10
-271.233938
 20
-18.442633
 30
0.0
 11
-271.537056
 21
-18.96765
 31
0.0
  0
LINE
  5
2AF
100
AcDbEntity
  8
3
370
    50
100
AcDbLine
 10
-271.233938
 20
-18.442633
 30
0.0
 11
-270.514096
 21
-18.442633
 31
0.0
  0
ARC
  5
2B0
100
AcDbEntity
  8
3
370
    50
100
AcDbCircle
 10
-270.076582
 20
-18.005118
 30
0.0
 40
0.437514
100
AcDbArc
 50
0.0
 51
90.0
  0
LINE
  5
2B1
100
AcDbEntity
  8
3
370
    50
100
AcDbLine
 10
-271.739136
 20
-20.192689
 30
0.0
 11
-271.56413
 21
-20.192689
 31
0.0
  0
ARC
  5
2B2
100
AcDbEntity
  8
3
370
    50
100
AcDbCircle
 10
-271.56413
 20
-19.142655
 30
0.0
 40
1.925062
100
AcDbArc
 50
270.0
 51
360.0
  0
LINE
  5
2B3
100
AcDbEntity
  8
3
370
    50
100
AcDbLine
 10
-271.039113
 20
-19.667672
 30
0.0
 11
-270.654774
 21
-19.667672
 31
0.0
  0
LINE
  5
2B4
100
AcDbEntity
  8
3
370
    50
100
AcDbLine
 10
-271.039113
 20
-18.792644
 30
0.0
 11
-270.514096
 21
-18.792644
 31
0.0
  0
LINE
  5
2B5
100
AcDbEntity
  8
3
370
    50
100
AcDbLine
 10
-271.039113
 20
-19.667672
 30
0.0
 11
-271.039113
 21
-18.792644
 31
0.0
  0
LINE
  5
2B6
100
AcDbEntity
  8
3
370
    50
100
AcDbLine
 10
-270.514096
 20
-18.442633
 30
0.0
 11
-270.514096
 21
-18.792644
 31
0.0
  0
ARC
  5
2B7
100
AcDbEntity
  8
3
370
    50
100
AcDbCircle
 10
-271.56413
 20
-19.142655
 30
0.0
 40
1.050034
100
AcDbArc
 50
270.0
 51
330.0
  0
LINE
  5
2B8
100
AcDbEntity
  8
3
370
    50
100
AcDbLine
 10
-269.201554
 20
-18.442633
 30
0.0
 11
-267.101486
 21
-18.442633
 31
0.0
  0
LINE
  5
2B9
100
AcDbEntity
  8
3
370
    50
100
AcDbLine
 10
-269.201554
 20
-20.192689
 30
0.0
 11
-267.539
 21
-20.192689
 31
0.0
  0
ARC
  5
2BA
100
AcDbEntity
  8
3
370
    50
100
AcDbCircle
 10
-267.539
 20
-18.005118
 30
0.0
 40
0.437514
100
AcDbArc
 50
0.0
 51
90.0
  0
ARC
  5
2BB
100
AcDbEntity
  8
3
370
    50
100
AcDbCircle
 10
-267.539
 20
-20.630203
 30
0.0
 40
0.437514
100
AcDbArc
 50
0.0
 51
90.0
  0
ARC
  5
2BC
100
AcDbEntity
  8
3
370
    50
100
AcDbCircle
 10
-275.501757
 20
-19.142655
 30
0.0
 40
1.925062
100
AcDbArc
 50
270.0
 51
317.461176
  0
ARC
  5
2BD
100
AcDbEntity
  8
3
370
    50
100
AcDbCircle
 10
-275.501757
 20
-19.142655
 30
0.0
 40
1.925062
100
AcDbArc
 50
344.17338
 51
360.0
  0
CIRCLE
  5
2BE
100
AcDbEntity
  8
3
370
    50
100
AcDbCircle
 10
-272.78917
 20
-17.830113
 30
0.0
 40
0.262508
  0
CIRCLE
  5
2BF
100
AcDbEntity
  8
3
370
    50
100
AcDbCircle
 10
-273.314186
 20
-17.830113
 30
0.0
 40
0.262508
  0
LINE
  5
2C0
100
AcDbEntity
  8
3
370
    50
100
AcDbLine
 10
-276.114277
 20
-20.192689
 30
0.0
 11
-276.114277
 21
-21.067717
 31
0.0
  0
LINE
  5
2C1
100
AcDbEntity
  8
3
370
    50
100
AcDbLine
 10
-272.17665
 20
-20.192689
 30
0.0
 11
-272.17665
 21
-21.067717
 31
0.0
  0
LINE
  5
2C2
100
AcDbEntity
  8
3
370
    50
100
AcDbLine
 10
-271.739136
 20
-20.192689
 30
0.0
 11
-271.739136
 21
-21.067717
 31
0.0
  0
LINE
  5
2C3
100
AcDbEntity
  8
3
370
    50
100
AcDbLine
 10
-269.639068
 20
-18.005118
 30
0.0
 11
-269.639068
 21
-19.142655
 31
0.0
  0
LINE
  5
2C4
100
AcDbEntity
  8
3
370
    50
100
AcDbLine
 10
-279.351881
 20
-17.567604
 30
0.0
 11
-276.989305
 21
-17.567604
 31
0.0
  0
LINE
  5
2C5
100
AcDbEntity
  8
3
370
    50
100
AcDbLine
 10
-275.676763
 20
-17.567604
 30
0.0
 11
-274.014209
 21
-17.567604
 31
0.0
  0
LINE
  5
2C6
100
AcDbEntity
  8
3
370
    50
100
AcDbLine
 10
-271.739136
 20
-17.567604
 30
0.0
 11
-270.076582
 21
-17.567604
 31
0.0
  0
LINE
  5
2C7
100
AcDbEntity
  8
3
370
    50
100
AcDbLine
 10
-269.201554
 20
-17.567604
 30
0.0
 11
-267.539
 21
-17.567604
 31
0.0
  0
LINE
  5
2C8
100
AcDbEntity
  8
3
370
    50
100
AcDbLine
 10
-269.201554
 20
-21.067717
 30
0.0
 11
-267.101486
 21
-21.067717
 31
0.0
  0
LINE
  5
2C9
100
AcDbEntity
  8
3
370
    50
100
AcDbLine
 10
-271.739136
 20
-21.067717
 30
0.0
 11
-271.56413
 21
-21.067717
 31
0.0
  0
LINE
  5
2CA
100
AcDbEntity
  8
3
370
    50
100
AcDbLine
 10
-279.351881
 20
-21.067717
 30
0.0
 11
-276.551791
 21
-21.067717
 31
0.0
  0
LINE
  5
2CB
100
AcDbEntity
  8
3
370
    50
100
AcDbLine
 10
-276.551791
 20
-18.442633
 30
0.0
 11
-276.551791
 21
-18.005118
 31
0.0
  0
LINE
  5
2CC
100
AcDbEntity
  8
3
370
    50
100
AcDbLine
 10
-276.551791
 20
-21.067717
 30
0.0
 11
-276.551791
 21
-20.630203
 31
0.0
  0
LINE
  5
2CD
100
AcDbEntity
  8
3
370
    50
100
AcDbLine
 10
-276.551791
 20
-19.956238
 30
0.0
 11
-276.551791
 21
-19.452936
 31
0.0
  0
LINE
  5
2CE
100
AcDbEntity
  8
3
370
    50
100
AcDbLine
 10
-279.351881
 20
-21.067717
 30
0.0
 11
-279.351881
 21
-20.192689
 31
0.0
  0
LINE
  5
2CF
100
AcDbEntity
  8
3
370
    50
100
AcDbLine
 10
-279.351881
 20
-19.562711
 30
0.0
 11
-279.351881
 21
-18.679083
 31
0.0
  0
LINE
  5
2D0
100
AcDbEntity
  8
3
370
    50
100
AcDbLine
 10
-279.351881
 20
-18.442633
 30
0.0
 11
-279.351881
 21
-17.567604
 31
0.0
  0
LINE
  5
2D1
100
AcDbEntity
  8
3
370
    50
100
AcDbLine
 10
-267.101486
 20
-18.442633
 30
0.0
 11
-267.101486
 21
-18.005118
 31
0.0
  0
LINE
  5
2D2
100
AcDbEntity
  8
3
370
    50
100
AcDbLine
 10
-269.201554
 20
-21.067717
 30
0.0
 11
-269.201554
 21
-20.192689
 31
0.0
  0
LINE
  5
2D3
100
AcDbEntity
  8
3
370
    50
100
AcDbLine
 10
-269.201554
 20
-18.442633
 30
0.0
 11
-269.201554
 21
-17.567604
 31
0.0
  0
LINE
  5
2D4
100
AcDbEntity
  8
3
370
    50
100
AcDbLine
 10
-276.114277
 20
-21.067717
 30
0.0
 11
-275.501757
 21
-21.067717
 31
0.0
  0
LINE
  5
2D5
100
AcDbEntity
  8
3
370
    50
100
AcDbLine
 10
-272.356556
 20
-21.067717
 30
0.0
 11
-272.17665
 21
-21.067717
 31
0.0
  0
ARC
  5
2D6
100
AcDbEntity
  8
3
370
    50
100
AcDbCircle
 10
-274.014209
 20
-18.005118
 30
0.0
 40
0.437514
100
AcDbArc
 50
0.0
 51
90.0
  0
LINE
  5
2D7
100
AcDbEntity
  8
3
370
    50
100
AcDbLine
 10
-287.227011
 20
-20.105186
 30
0.0
 11
-287.227011
 21
-18.530135
 31
0.0
  0
LINE
  5
2D8
100
AcDbEntity
  8
3
370
    50
100
AcDbLine
 10
-286.877
 20
-18.530135
 30
0.0
 11
-286.877
 21
-20.105186
 31
0.0
  0
LINE
  5
2D9
100
AcDbEntity
  8
3
370
    50
100
AcDbLine
 10
-286.877
 20
-18.530135
 30
0.0
 11
-287.227011
 21
-18.530135
 31
0.0
  0
LINE
  5
2DA
100
AcDbEntity
  8
3
370
    50
100
AcDbLine
 10
-286.877
 20
-20.105186
 30
0.0
 11
-287.227011
 21
-20.105186
 31
0.0
  0
LINE
  5
2DB
100
AcDbEntity
  8
3
370
    50
100
AcDbLine
 10
-288.116236
 20
-20.381891
 30
0.0
 11
-288.289482
 21
-20.555138
 31
0.0
  0
LINE
  5
2DC
100
AcDbEntity
  8
3
370
    50
100
AcDbLine
 10
-286.176977
 20
-18.530135
 30
0.0
 11
-285.966971
 21
-18.530135
 31
0.0
  0
LINE
  5
2DD
100
AcDbEntity
  8
3
370
    50
100
AcDbLine
 10
-286.614492
 20
-20.105186
 30
0.0
 11
-286.334483
 21
-20.105186
 31
0.0
  0
LINE
  5
2DE
100
AcDbEntity
  8
3
370
    50
100
AcDbLine
 10
-286.614492
 20
-20.105186
 30
0.0
 11
-286.614492
 21
-19.825177
 31
0.0
  0
LINE
  5
2DF
100
AcDbEntity
  8
3
370
    50
100
AcDbLine
 10
-285.966971
 20
-18.810144
 30
0.0
 11
-285.966971
 21
-18.530135
 31
0.0
  0
LINE
  5
2E0
100
AcDbEntity
  8
3
370
    50
100
AcDbLine
 10
-286.124476
 20
-18.810144
 30
0.0
 11
-285.966971
 21
-18.810144
 31
0.0
  0
LINE
  5
2E1
100
AcDbEntity
  8
3
370
    50
100
AcDbLine
 10
-286.474901
 20
-19.288055
 30
0.0
 11
-286.255898
 21
-19.491692
 31
0.0
  0
ARC
  5
2E2
100
AcDbEntity
  8
3
370
    50
100
AcDbCircle
 10
-286.124476
 20
-18.98515
 30
0.0
 40
0.175006
100
AcDbArc
 50
90.0
 51
227.082289
  0
LINE
  5
2E3
100
AcDbEntity
  8
3
370
    50
100
AcDbLine
 10
-286.243645
 20
-19.113312
 30
0.0
 11
-286.024641
 21
-19.31695
 31
0.0
  0
ARC
  5
2E4
100
AcDbEntity
  8
3
370
    50
100
AcDbCircle
 10
-286.334483
 20
-19.650172
 30
0.0
 40
0.455015
100
AcDbArc
 50
270.0
 51
47.082289
  0
ARC
  5
2E5
100
AcDbEntity
  8
3
370
    50
100
AcDbCircle
 10
-286.386984
 20
-19.632671
 30
0.0
 40
0.192506
100
AcDbArc
 50
270.0
 51
47.082289
  0
ARC
  5
2E6
100
AcDbEntity
  8
3
370
    50
100
AcDbCircle
 10
-286.176977
 20
-18.96765
 30
0.0
 40
0.437514
100
AcDbArc
 50
90.0
 51
227.082289
  0
LINE
  5
2E7
100
AcDbEntity
  8
3
370
    50
100
AcDbLine
 10
-286.386984
 20
-19.825177
 30
0.0
 11
-286.614492
 21
-19.825177
 31
0.0
  0
LINE
  5
2E8
100
AcDbEntity
  8
3
370
    50
100
AcDbLine
 10
-287.857032
 20
-19.482166
 30
0.0
 11
-287.857032
 21
-18.530135
 31
0.0
  0
LINE
  5
2E9
100
AcDbEntity
  8
3
370
    50
100
AcDbLine
 10
-287.542021
 20
-19.482166
 30
0.0
 11
-287.542021
 21
-18.530135
 31
0.0
  0
LINE
  5
2EA
100
AcDbEntity
  8
3
370
    50
100
AcDbLine
 10
-287.542021
 20
-18.530135
 30
0.0
 11
-287.857032
 21
-18.530135
 31
0.0
  0
ARC
  5
2EB
100
AcDbEntity
  8
3
370
    50
100
AcDbCircle
 10
-288.165042
 20
-19.482166
 30
0.0
 40
0.62302
100
AcDbArc
 50
190.22669
 51
360.0
  0
ARC
  5
2EC
100
AcDbEntity
  8
3
370
    50
100
AcDbCircle
 10
-288.200043
 20
-19.482166
 30
0.0
 40
0.343011
100
AcDbArc
 50
190.573586
 51
360.0
  0
ARC
  5
2ED
100
AcDbEntity
  8
3
370
    50
100
AcDbCircle
 10
-287.052006
 20
-19.317661
 30
0.0
 40
1.505049
100
AcDbArc
 50
225.0
 51
188.720397
  0
ARC
  5
2EE
100
AcDbEntity
  8
3
370
    50
100
AcDbCircle
 10
-287.052006
 20
-19.317661
 30
0.0
 40
1.750056
100
AcDbArc
 50
225.0
 51
189.066832
  0
LINE
  5
2EF
100
AcDbEntity
  8
3
370
    50
100
AcDbLine
 10
-264.651345
 20
-21.067717
 30
0.0
 11
-264.651345
 21
-18.734309
 31
0.0
  0
LINE
  5
2F0
100
AcDbEntity
  8
3
370
    50
100
AcDbLine
 10
-266.05139
 20
-21.067717
 30
0.0
 11
-266.05139
 21
-18.734309
 31
0.0
  0
LINE
  5
2F1
100
AcDbEntity
  8
3
370
    50
100
AcDbLine
 10
-266.401401
 20
-21.067717
 30
0.0
 11
-265.701379
 21
-21.067717
 31
0.0
  0
LINE
  5
2F2
100
AcDbEntity
  8
3
370
    50
100
AcDbLine
 10
-265.001356
 20
-21.067717
 30
0.0
 11
-264.301333
 21
-21.067717
 31
0.0
  0
LINE
  5
2F3
100
AcDbEntity
  8
3
370
    50
100
AcDbLine
 10
-288.539656
 20
-19.545845
 30
0.0
 11
-288.537229
 21
-19.545108
 31
0.0
  0
HATCH
  5
2F4
100
AcDbEntity
  8
3
370
    25
100
AcDbHatch
 10
0.0
 20
0.0
 30
0.0
210
0.0
220
0.0
230
1.0
  2
_U
 70
     0
 71
     1
 91
        1
 92
        1
 93
        4
 72
     1
 10
-286.87700000000001
 20
-18.530135000000001
 11
-286.87700000000001
 21
-20.105186
 72
     1
 10
-286.87700000000001
 20
-20.105186
 11
-287.227011
 21
-20.105186
 72
     1
 10
-287.227011
 20
-20.105186
 11
-287.227011
 21
-18.530135000000001
 72
     1
 10
-287.227011
 20
-18.530135000000001
 11
-286.87700000000001
 21
-18.530135000000001
 97
        4
330
0
330
0
330
0
330
0
 75
     0
 76
     0
 52
45.0
 41
1.0
 77
     0
 78
     1
 53
45.0
 43
0.0
 44
0.0
 45
-0.282843
 46
0.282843
 79
     0
 98
        1
 10
0.0
 20
0.0
  0
LINE
  5
2F5
100
AcDbEntity
  8
3
370
    25
100
AcDbLine
 10
-286.168023
 20
-20.073645
 30
0.0
 11
-285.911009
 21
-19.816631
 31
0.0
  0
LINE
  5
2F6
100
AcDbEntity
  8
3
370
    25
100
AcDbLine
 10
-286.614492
 20
-19.954428
 30
0.0
 11
-286.485241
 21
-19.825177
 31
0.0
  0
LINE
  5
2F7
100
AcDbEntity
  8
3
370
    25
100
AcDbLine
 10
-286.212154
 20
-19.552091
 30
0.0
 11
-286.000843
 21
-19.34078
 31
0.0
  0
LINE
  5
2F8
100
AcDbEntity
  8
3
370
    25
100
AcDbLine
 10
-285.966971
 20
-18.741222
 30
0.0
 11
-286.035894
 21
-18.810144
 31
0.0
  0
LINE
  5
2F9
100
AcDbEntity
  8
3
370
    25
100
AcDbLine
 10
-286.283645
 20
-19.057896
 30
0.0
 11
-286.494448
 21
-19.268699
 31
0.0
  0
LINE
  5
2FA
100
AcDbEntity
  8
3
370
    25
100
AcDbLine
 10
-286.572899
 20
-18.781464
 30
0.0
 11
-286.363163
 21
-18.571728
 31
0.0
  0
LINE
  5
2FB
100
AcDbEntity
  8
3
370
    25
100
AcDbLine
 10
-287.847424
 20
-20.876509
 30
0.0
 11
-287.66486
 21
-20.693945
 31
0.0
  0
LINE
  5
2FC
100
AcDbEntity
  8
3
370
    25
100
AcDbLine
 10
-285.67573
 20
-18.704815
 30
0.0
 11
-285.493158
 21
-18.522243
 31
0.0
  0
LINE
  5
2FD
100
AcDbEntity
  8
3
370
    25
100
AcDbLine
 10
-287.431341
 20
-21.026111
 30
0.0
 11
-287.221075
 21
-20.815845
 31
0.0
  0
LINE
  5
2FE
100
AcDbEntity
  8
3
370
    25
100
AcDbLine
 10
-285.55383
 20
-19.1486
 30
0.0
 11
-285.343555
 21
-18.938326
 31
0.0
  0
LINE
  5
2FF
100
AcDbEntity
  8
3
370
    25
100
AcDbLine
 10
-286.900709
 20
-21.061165
 30
0.0
 11
-286.595214
 21
-20.75567
 31
0.0
  0
LINE
  5
300
100
AcDbEntity
  8
3
370
    25
100
AcDbLine
 10
-285.614005
 20
-19.774461
 30
0.0
 11
-285.308501
 21
-19.468957
 31
0.0
  0
LINE
  5
301
100
AcDbEntity
  8
3
370
    25
100
AcDbLine
 10
-285.95537
 20
-20.681511
 30
0.0
 11
-285.688155
 21
-20.414296
 31
0.0
  0
LINE
  5
302
100
AcDbEntity
  8
3
370
    25
100
AcDbLine
 10
-288.186654
 20
-20.650054
 30
0.0
 11
-288.013041
 21
-20.47644
 31
0.0
  0
LINE
  5
303
100
AcDbEntity
  8
3
370
    25
100
AcDbLine
 10
-285.893235
 20
-18.356634
 30
0.0
 11
-285.719613
 21
-18.183012
 31
0.0
  0
LINE
  5
304
100
AcDbEntity
  8
3
370
    25
100
AcDbLine
 10
-288.218656
 20
-20.11637
 30
0.0
 11
-287.542021
 21
-19.439736
 31
0.0
  0
LINE
  5
305
100
AcDbEntity
  8
3
370
    25
100
AcDbLine
 10
-286.188303
 20
-18.086017
 30
0.0
 11
-286.012251
 21
-17.909965
 31
0.0
  0
LINE
  5
306
100
AcDbEntity
  8
3
370
    25
100
AcDbLine
 10
-288.604811
 20
-19.93684
 30
0.0
 11
-288.416349
 21
-19.748377
 31
0.0
  0
LINE
  5
307
100
AcDbEntity
  8
3
370
    25
100
AcDbLine
 10
-287.857032
 20
-19.18906
 30
0.0
 11
-287.542021
 21
-18.87405
 31
0.0
  0
LINE
  5
308
100
AcDbEntity
  8
3
370
    25
100
AcDbLine
 10
-286.563909
 20
-17.895937
 30
0.0
 11
-286.372767
 21
-17.704796
 31
0.0
  0
LINE
  5
309
100
AcDbEntity
  8
3
370
    25
100
AcDbLine
 10
-288.786225
 20
-19.552568
 30
0.0
 11
-288.554059
 21
-19.320402
 31
0.0
  0
LINE
  5
30A
100
AcDbEntity
  8
3
370
    25
100
AcDbLine
 10
-287.857032
 20
-18.623375
 30
0.0
 11
-287.763792
 21
-18.530135
 31
0.0
  0
LINE
  5
30B
100
AcDbEntity
  8
3
370
    25
100
AcDbLine
 10
-287.049273
 20
-17.815616
 30
0.0
 11
-286.817098
 21
-17.583442
 31
0.0
  0
LINE
  5
30C
100
AcDbEntity
  8
3
370
    25
100
AcDbLine
 10
-288.76663
 20
-18.967288
 30
0.0
 11
-288.330128
 21
-18.530786
 31
0.0
  0
LINE
  5
30D
100
AcDbEntity
  8
3
370
    25
100
AcDbLine
 10
-287.838889
 20
-18.039547
 30
0.0
 11
-287.402379
 21
-17.603037
 31
0.0
  0
LINE
  5
30E
100
AcDbEntity
  8
3
370
    50
100
AcDbLine
 10
-267.101486
 20
-20.630203
 30
0.0
 11
-267.101486
 21
-21.067717
 31
0.0
  0
LINE
  5
30F
100
AcDbEntity
  8
3
370
    50
100
AcDbLine
 10
-283.201881
 20
-18.734309
 30
0.0
 11
-283.901904
 21
-18.734309
 31
0.0
  0
LINE
  5
310
100
AcDbEntity
  8
3
370
    50
100
AcDbLine
 10
-264.651345
 20
-18.734309
 30
0.0
 11
-265.351367
 21
-19.946784
 31
0.0
  0
LINE
  5
311
100
AcDbEntity
  8
3
370
    50
100
AcDbLine
 10
-266.05139
 20
-18.734309
 30
0.0
 11
-265.351367
 21
-19.946784
 31
0.0
  0
LINE
  5
312
100
AcDbEntity
  8
3
370
    50
100
AcDbLine
 10
-283.551893
 20
-18.734309
 30
0.0
 11
-283.551893
 21
-20.367695
 31
0.0
  0
LINE
  5
313
100
AcDbEntity
  8
3
370
    50
100
AcDbLine
 10
-280.751802
 20
-18.734309
 30
0.0
 11
-280.05178
 21
-18.734309
 31
0.0
  0
LINE
  5
314
100
AcDbEntity
  8
3
370
    50
100
AcDbLine
 10
-282.151847
 20
-18.734309
 30
0.0
 11
-282.85187
 21
-18.734309
 31
0.0
  0
LINE
  5
315
100
AcDbEntity
  8
3
370
    50
100
AcDbLine
 10
-282.501859
 20
-18.734309
 30
0.0
 11
-282.090416
 21
-21.067717
 31
0.0
  0
LINE
  5
316
100
AcDbEntity
  8
3
370
    50
100
AcDbLine
 10
-282.090416
 20
-21.067717
 30
0.0
 11
-281.451825
 21
-19.313203
 31
0.0
  0
LINE
  5
317
100
AcDbEntity
  8
3
370
    50
100
AcDbLine
 10
-280.813234
 20
-21.067717
 30
0.0
 11
-281.451825
 21
-19.313203
 31
0.0
  0
LINE
  5
318
100
AcDbEntity
  8
3
370
    50
100
AcDbLine
 10
-280.401791
 20
-18.734309
 30
0.0
 11
-280.813234
 21
-21.067717
 31
0.0
  0
ARC
  5
319
100
AcDbEntity
  8
3
370
    50
100
AcDbCircle
 10
-284.251915
 20
-20.367695
 30
0.0
 40
0.700023
100
AcDbArc
 50
180.0
 51
360.0
  0
LINE
  5
31A
100
AcDbEntity
  8
3
370
    50
100
AcDbLine
 10
-288.802062
 20
-16.567572
 30
0.0
 11
-264.801287
 21
-16.567572
 31
0.0
  0
LINE
  5
31B
100
AcDbEntity
  8
3
370
    50
100
AcDbLine
 10
-288.802062
 20
-22.06775
 30
0.0
 11
-264.801287
 21
-22.06775
 31
0.0
  0
POINT
  5
31C
100
AcDbEntity
  8
3
370
    50
100
AcDbPoint
 10
-287.052006
 20
-19.317661
 30
0.0
  0
LINE
  5
31D
100
AcDbEntity
  8
3
370
    50
100
AcDbLine
 10
-289.802094
 20
-21.067717
 30
0.0
 11
-289.802094
 21
-17.567604
 31
0.0
  0
LINE
  5
31E
100
AcDbEntity
  8
3
370
    50
100
AcDbLine
 10
-263.801255
 20
-21.067717
 30
0.0
 11
-263.801255
 21
-17.567604
 31
0.0
  0
HATCH
  5
31F
100
AcDbEntity
  8
3
370
    25
100
AcDbHatch
 10
0.0
 20
0.0
 30
0.0
210
0.0
220
0.0
230
1.0
  2
_U
 70
     0
 71
     1
 91
        1
 92
        1
 93
        5
 72
     1
 10
-276.55179099999998
 20
-18.442633000000001
 11
-276.55179099999998
 21
-18.005118
 72
     2
 10
-276.989305
 20
-18.005118
 40
0.437514
 50
0.0
 51
90.0
 73
     1
 72
     1
 10
-276.989305
 20
-17.567603999999999
 11
-279.35188099999999
 21
-17.567603999999999
 72
     1
 10
-279.35188099999999
 20
-17.567603999999999
 11
-279.35188099999999
 21
-18.442633000000001
 72
     1
 10
-279.35188099999999
 20
-18.442633000000001
 11
-276.55179099999998
 21
-18.442633000000001
 97
        5
330
0
330
0
330
0
330
0
330
0
 75
     0
 76
     0
 52
45.0
 41
1.0
 77
     0
 78
     1
 53
45.0
 43
0.0
 44
0.0
 45
-0.282843
 46
0.282843
 79
     0
 98
        1
 10
0.0
 20
0.0
  0
HATCH
  5
320
100
AcDbEntity
  8
3
370
    25
100
AcDbHatch
 10
0.0
 20
0.0
 30
0.0
210
0.0
220
0.0
230
1.0
  2
_U
 70
     0
 71
     1
 91
        1
 92
        1
 93
        5
 72
     2
 10
-276.989305
 20
-19.452936000000001
 40
0.437514
 50
0.0
 51
82.0
 73
     1
 72
     1
 10
-276.92841499999997
 20
-19.019679
 11
-279.35188099999999
 21
-18.679082999999999
 72
     1
 10
-279.35188099999999
 20
-18.679082999999999
 11
-279.35188099999999
 21
-19.562711
 72
     1
 10
-279.35188099999999
 20
-19.562711
 11
-276.55179099999998
 21
-19.956237999999999
 72
     1
 10
-276.55179099999998
 20
-19.956237999999999
 11
-276.55179099999998
 21
-19.452936000000001
 97
        5
330
0
330
0
330
0
330
0
330
0
 75
     0
 76
     0
 52
45.0
 41
1.0
 77
     0
 78
     1
 53
45.0
 43
0.0
 44
0.0
 45
-0.282843
 46
0.282843
 79
     0
 98
        1
 10
0.0
 20
0.0
  0
HATCH
  5
321
100
AcDbEntity
  8
3
370
    25
100
AcDbHatch
 10
0.0
 20
0.0
 30
0.0
210
0.0
220
0.0
230
1.0
  2
_U
 70
     0
 71
     1
 91
        1
 92
        1
 93
        5
 72
     2
 10
-276.989305
 20
-20.630203000000002
 40
0.437514
 50
0.0
 51
90.0
 73
     1
 72
     1
 10
-276.989305
 20
-20.192689000000001
 11
-279.35188099999999
 21
-20.192689000000001
 72
     1
 10
-279.35188099999999
 20
-20.192689000000001
 11
-279.35188099999999
 21
-21.067716999999998
 72
     1
 10
-279.35188099999999
 20
-21.067716999999998
 11
-276.55179099999998
 21
-21.067716999999998
 72
     1
 10
-276.55179099999998
 20
-21.067716999999998
 11
-276.55179099999998
 21
-20.630203000000002
 97
        5
330
0
330
0
330
0
330
0
330
0
 75
     0
 76
     0
 52
45.0
 41
1.0
 77
     0
 78
     1
 53
45.0
 43
0.0
 44
0.0
 45
-0.282843
 46
0.282843
 79
     0
 98
        1
 10
0.0
 20
0.0
  0
LINE
  5
322
100
AcDbEntity
  8
3
370
    25
100
AcDbLine
 10
-274.451723
 20
-18.442633
 30
0.0
 11
-273.70484
 21
-17.695749
 31
0.0
  0
LINE
  5
323
100
AcDbEntity
  8
3
370
    25
100
AcDbLine
 10
-276.114277
 20
-20.670872
 30
0.0
 11
-275.636094
 21
-20.192689
 31
0.0
  0
LINE
  5
324
100
AcDbEntity
  8
3
370
    25
100
AcDbLine
 10
-274.451723
 20
-19.008318
 30
0.0
 11
-273.576695
 21
-18.13329
 31
0.0
  0
LINE
  5
325
100
AcDbEntity
  8
3
370
    25
100
AcDbLine
 10
-275.945437
 20
-21.067717
 30
0.0
 11
-274.812664
 21
-19.934944
 31
0.0
  0
LINE
  5
326
100
AcDbEntity
  8
3
370
    25
100
AcDbLine
 10
-274.709468
 20
-19.831749
 30
0.0
 11
-273.576695
 21
-18.698975
 31
0.0
  0
LINE
  5
327
100
AcDbEntity
  8
3
370
    25
100
AcDbLine
 10
-275.375614
 20
-21.06358
 30
0.0
 11
-273.580832
 21
-19.268798
 31
0.0
  0
LINE
  5
328
100
AcDbEntity
  8
3
370
    25
100
AcDbLine
 10
-274.577889
 20
-20.83154
 30
0.0
 11
-273.519858
 21
-19.773509
 31
0.0
  0
LINE
  5
329
100
AcDbEntity
  8
3
370
    25
100
AcDbLine
 10
-273.812161
 20
-20.631498
 30
0.0
 11
-273.167957
 21
-19.987293
 31
0.0
  0
LINE
  5
32A
100
AcDbEntity
  8
3
370
    25
100
AcDbLine
 10
-273.439692
 20
-20.824714
 30
0.0
 11
-272.75082
 21
-20.135842
 31
0.0
  0
LINE
  5
32B
100
AcDbEntity
  8
3
370
    25
100
AcDbLine
 10
-273.019435
 20
-20.970142
 30
0.0
 11
-272.243533
 21
-20.194241
 31
0.0
  0
LINE
  5
32C
100
AcDbEntity
  8
3
370
    25
100
AcDbLine
 10
-272.539279
 20
-21.055671
 30
0.0
 11
-272.17665
 21
-20.693043
 31
0.0
  0
LINE
  5
32D
100
AcDbEntity
  8
3
370
    25
100
AcDbLine
 10
-274.14238
 20
-17.567604
 30
0.0
 11
-275.017409
 21
-18.442633
 31
0.0
  0
LINE
  5
32E
100
AcDbEntity
  8
3
370
    25
100
AcDbLine
 10
-274.708066
 20
-17.567604
 30
0.0
 11
-275.583094
 21
-18.442633
 31
0.0
  0
LINE
  5
32F
100
AcDbEntity
  8
3
370
    25
100
AcDbLine
 10
-275.273751
 20
-17.567604
 30
0.0
 11
-275.676763
 21
-17.970616
 31
0.0
  0
HATCH
  5
330
100
AcDbEntity
  8
3
370
    25
100
AcDbHatch
 10
0.0
 20
0.0
 30
0.0
210
0.0
220
0.0
230
1.0
  2
_U
 70
     0
 71
     1
 91
        1
 92
        1
 93
        1
 72
     2
 10
-273.31418600000001
 20
-17.830113000000001
 40
0.262508
 50
0.0
 51
360.0
 73
     1
 97
        1
330
0
 75
     0
 76
     0
 52
45.0
 41
1.0
 77
     0
 78
     1
 53
45.0
 43
0.0
 44
0.0
 45
-0.282843
 46
0.282843
 79
     0
 98
        1
 10
0.0
 20
0.0
  0
HATCH
  5
331
100
AcDbEntity
  8
3
370
    25
100
AcDbHatch
 10
0.0
 20
0.0
 30
0.0
210
0.0
220
0.0
230
1.0
  2
_U
 70
     0
 71
     1
 91
        1
 92
        1
 93
        1
 72
     2
 10
-272.78917000000001
 20
-17.830113000000001
 40
0.262508
 50
0.0
 51
360.0
 73
     1
 97
        1
330
0
 75
     0
 76
     0
 52
45.0
 41
1.0
 77
     0
 78
     1
 53
45.0
 43
0.0
 44
0.0
 45
-0.282843
 46
0.282843
 79
     0
 98
        1
 10
0.0
 20
0.0
  0
LINE
  5
332
100
AcDbEntity
  8
3
370
    25
100
AcDbLine
 10
-267.976514
 20
-18.442633
 30
0.0
 11
-267.229631
 21
-17.695749
 31
0.0
  0
LINE
  5
333
100
AcDbEntity
  8
3
370
    25
100
AcDbLine
 10
-267.410829
 20
-18.442633
 30
0.0
 11
-267.101486
 21
-18.13329
 31
0.0
  0
LINE
  5
334
100
AcDbEntity
  8
3
370
    25
100
AcDbLine
 10
-267.667171
 20
-17.567604
 30
0.0
 11
-268.5422
 21
-18.442633
 31
0.0
  0
LINE
  5
335
100
AcDbEntity
  8
3
370
    25
100
AcDbLine
 10
-268.232857
 20
-17.567604
 30
0.0
 11
-269.107885
 21
-18.442633
 31
0.0
  0
LINE
  5
336
100
AcDbEntity
  8
3
370
    25
100
AcDbLine
 10
-268.798542
 20
-17.567604
 30
0.0
 11
-269.201554
 21
-17.970616
 31
0.0
  0
HATCH
  5
337
100
AcDbEntity
  8
3
370
    25
100
AcDbHatch
 10
0.0
 20
0.0
 30
0.0
210
0.0
220
0.0
230
1.0
  2
_U
 70
     0
 71
     1
 91
        1
 92
        1
 93
        5
 72
     2
 10
-267.53899999999999
 20
-20.630203000000002
 40
0.437514
 50
0.0
 51
90.0
 73
     1
 72
     1
 10
-267.53899999999999
 20
-20.192689000000001
 11
-269.20155399999999
 21
-20.192689000000001
 72
     1
 10
-269.20155399999999
 20
-20.192689000000001
 11
-269.20155399999999
 21
-21.067716999999998
 72
     1
 10
-269.20155399999999
 20
-21.067716999999998
 11
-267.10148600000002
 21
-21.067716999999998
 72
     1
 10
-267.10148600000002
 20
-21.067716999999998
 11
-267.10148600000002
 21
-20.630203000000002
 97
        5
330
0
330
0
330
0
330
0
330
0
 75
     0
 76
     0
 52
45.0
 41
1.0
 77
     0
 78
     1
 53
45.0
 43
0.0
 44
0.0
 45
-0.282843
 46
0.282843
 79
     0
 98
        1
 10
0.0
 20
0.0
  0
LINE
  5
338
100
AcDbEntity
  8
3
370
    25
100
AcDbLine
 10
-271.039113
 20
-18.96765
 30
0.0
 11
-270.864107
 21
-18.792644
 31
0.0
  0
LINE
  5
339
100
AcDbEntity
  8
3
370
    25
100
AcDbLine
 10
-270.514096
 20
-18.442633
 30
0.0
 11
-269.767213
 21
-17.695749
 31
0.0
  0
LINE
  5
33A
100
AcDbEntity
  8
3
370
    25
100
AcDbLine
 10
-271.739136
 20
-20.233358
 30
0.0
 11
-271.698467
 21
-20.192689
 31
0.0
  0
LINE
  5
33B
100
AcDbEntity
  8
3
370
    25
100
AcDbLine
 10
-271.039113
 20
-19.533335
 30
0.0
 11
-269.639068
 21
-18.13329
 31
0.0
  0
LINE
  5
33C
100
AcDbEntity
  8
3
370
    25
100
AcDbLine
 10
-271.739136
 20
-20.799043
 30
0.0
 11
-270.875037
 21
-19.934944
 31
0.0
  0
LINE
  5
33D
100
AcDbEntity
  8
3
370
    25
100
AcDbLine
 10
-270.771841
 20
-19.831749
 30
0.0
 11
-269.639068
 21
-18.698975
 31
0.0
  0
LINE
  5
33E
100
AcDbEntity
  8
3
370
    25
100
AcDbLine
 10
-271.437987
 20
-21.06358
 30
0.0
 11
-269.643205
 21
-19.268798
 31
0.0
  0
LINE
  5
33F
100
AcDbEntity
  8
3
370
    25
100
AcDbLine
 10
-270.640262
 20
-20.83154
 30
0.0
 11
-269.875245
 21
-20.066523
 31
0.0
  0
LINE
  5
340
100
AcDbEntity
  8
3
370
    25
100
AcDbLine
 10
-271.604798
 20
-18.96765
 30
0.0
 11
-271.444519
 21
-18.80737
 31
0.0
  0
LINE
  5
341
100
AcDbEntity
  8
3
370
    25
100
AcDbLine
 10
-271.079781
 20
-18.442633
 30
0.0
 11
-270.204753
 21
-17.567604
 31
0.0
  0
LINE
  5
342
100
AcDbEntity
  8
3
370
    25
100
AcDbLine
 10
-272.170484
 20
-18.96765
 30
0.0
 11
-270.770439
 21
-17.567604
 31
0.0
  0
LINE
  5
343
100
AcDbEntity
  8
3
370
    25
100
AcDbLine
 10
-272.28966
 20
-18.52114
 30
0.0
 11
-271.336124
 21
-17.567604
 31
0.0
  0
ARC
  5
344
100
AcDbEntity
  8
3
370
    50
100
AcDbCircle
 10
-288.802062
 20
-17.567604
 30
0.0
 40
1.000032
100
AcDbArc
 50
90.0
 51
180.0
  0
ARC
  5
345
100
AcDbEntity
  8
3
370
    50
100
AcDbCircle
 10
-288.802062
 20
-21.067717
 30
0.0
 40
1.000032
100
AcDbArc
 50
180.0
 51
270.0
  0
ARC
  5
346
100
AcDbEntity
  8
3
370
    50
100
AcDbCircle
 10
-264.801287
 20
-17.567604
 30
0.0
 40
1.000032
100
AcDbArc
 50
0.0
 51
90.0
  0
ARC
  5
347
100
AcDbEntity
  8
3
370
    50
100
AcDbCircle
 10
-264.801287
 20
-21.067717
 30
0.0
 40
1.000032
100
AcDbArc
 50
270.0
 51
360.0
  0
DIMENSION
  5
348
100
AcDbEntity
  8
3
370
    25
100
AcDbDimension
  2
*D7
 10
-47.793076
 20
-51.593271
 30
0.0
 11
-55.793076
 21
-79.593271
 31
0.0
 71
     0
 72
     0
 41
0.0
 42
0.0
  3
Standard
100
AcDbAlignedDimension
 13
-91.941209
 23
-107.593271
 33
0.0
 14
-78.44104
 24
-51.593271
 34
0.0
 50
90.0
100
AcDbRotatedDimension
  0
POINT
  5
349
100
AcDbEntity
  8
3
370
    50
100
AcDbPoint
 10
-210.94104
 20
34.656728
 30
0.0
  0
DIMENSION
  5
34A
100
AcDbEntity
  8
3
370
    25
100
AcDbDimension
  2
*D8
 10
-324.339966
 20
34.879089
 30
0.0
 11
-332.339966
 21
-22.357091
 31
0.0
 71
     0
 72
     0
 41
0.0
 42
0.0
  3
Standard
100
AcDbAlignedDimension
 13
-228.44104
 23
-51.593271
 33
0.0
 14
-211.149353
 24
34.879089
 34
0.0
 50
90.0
100
AcDbRotatedDimension
  0
DIMENSION
  5
34B
100
AcDbEntity
  8
3
370
    25
100
AcDbDimension
  2
*D9
 10
-12.601339
 20
85.967533
 30
0.0
 11
-24.101339
 21
6.217533
 31
0.0
 71
     0
 72
     0
 41
0.0
 42
0.0
  3
Standard
100
AcDbAlignedDimension
 13
160.996362
 23
-52.532467
 33
0.0
 14
2.996362
 24
85.967533
 34
0.0
 50
90.0
100
AcDbRotatedDimension
  0
DIMENSION
  5
34C
100
AcDbEntity
  8
3
370
    25
100
AcDbDimension
  2
*D10
 10
86.065277
 20
-20.532467
 30
0.0
 11
78.065277
 21
-36.532467
 31
0.0
 71
     0
 72
     0
 41
0.0
 42
0.0
  3
Standard
100
AcDbAlignedDimension
 13
160.996362
 23
-52.532467
 33
0.0
 14
105.479805
 24
-20.532467
 34
0.0
 50
90.0
100
AcDbRotatedDimension
  0
DIMENSION
  5
34D
100
AcDbEntity
  8
3
370
    25
100
AcDbDimension
  2
*D11
 10
186.996362
 20
180.291718
 30
0.0
 11
201.996362
 21
184.791718
 31
0.0
 71
     0
 72
     0
 41
0.0
 42
0.0
  3
Standard
100
AcDbAlignedDimension
 13
172.996362
 23
140.919739
 33
0.0
 14
186.996362
 24
39.112465
 34
0.0
100
AcDbRotatedDimension
  0
TEXT
  5
34E
100
AcDbEntity
  8
3
370
    50
100
AcDbText
 10
241.319977
 20
40.452831
 30
0.0
 40
7.0
  1
Ｍ２３×１．５
 72
     5
 11
288.919977
 21
40.452831
 31
0.0
100
AcDbText
  0
LWPOLYLINE
  5
34F
100
AcDbEntity
  8
3
370
    25
100
AcDbPolyline
 90
        3
 70
     0
 10
217.496362
 20
26.332283
 10
241.477753
 20
38.836651
 10
290.055573
 20
38.836651
  0
LINE
  5
354
100
AcDbEntity
  8
3
370
    25
100
AcDbLine
 10
220.922311
 20
28.11864
 30
0.0
 11
220.443658
 21
29.036621
 31
0.0
  0
LINE
  5
355
100
AcDbEntity
  8
3
370
    25
100
AcDbLine
 10
220.443658
 20
29.036621
 30
0.0
 11
217.496362
 21
26.332283
 31
0.0
  0
LINE
  5
356
100
AcDbEntity
  8
3
370
    25
100
AcDbLine
 10
217.496362
 20
26.332283
 30
0.0
 11
221.400964
 21
27.20066
 31
0.0
  0
LINE
  5
357
100
AcDbEntity
  8
3
370
    25
100
AcDbLine
 10
221.400964
 20
27.20066
 30
0.0
 11
220.922311
 21
28.11864
 31
0.0
  0
DIMENSION
  5
358
100
AcDbEntity
  8
3
370
    25
100
AcDbDimension
  2
*D12
 10
-47.793076
 20
-107.593271
 30
0.0
 11
-59.293076
 21
-136.093271
 31
0.0
 71
     0
 72
     0
 41
0.0
 42
0.0
  3
Standard
100
AcDbAlignedDimension
 13
-91.941209
 23
-114.093271
 33
0.0
 14
-91.941209
 24
-107.593271
 34
0.0
 50
90.0
100
AcDbRotatedDimension
  0
DIMENSION
  5
359
100
AcDbEntity
  8
3
370
    25
100
AcDbDimension
  2
*D13
 10
172.996362
 20
180.291718
 30
0.0
 11
87.996362
 21
184.791718
 31
0.0
 71
     0
 72
     0
 41
0.0
 42
0.0
  3
Standard
100
AcDbAlignedDimension
 13
2.996362
 23
85.967533
 33
0.0
 14
172.996362
 24
76.502451
 34
0.0
100
AcDbRotatedDimension
  0
TEXT
  5
35A
100
AcDbEntity
  8
3
370
    50
100
AcDbText
 10
336.070276
 20
-271.880939
 30
0.0
 40
6.4
  1
２０４１００
 72
     5
 11
373.190276
 21
-271.880939
 31
0.0
100
AcDbText
  0
TEXT
  5
35B
100
AcDbEntity
  8
3
370
    50
100
AcDbText
 10
345.098131
 20
-256.100293
 30
0.0
 40
6.0
  1
０８　１０　３０
 72
     5
 11
391.898131
 21
-256.100293
 31
0.0
100
AcDbText
  0
TEXT
  5
35C
100
AcDbEntity
  8
3
370
    50
100
AcDbText
 10
228.750259
 20
-272.742523
 30
0.0
 40
7.0
  1
外観寸法図
 72
     5
 11
262.350259
 21
-272.742523
 31
0.0
100
AcDbText
  0
TEXT
  5
35D
100
AcDbEntity
  8
3
370
    50
100
AcDbText
 10
66.261963
 20
-228.62912
 30
0.0
 40
7.0
  1
台付き２ハンドル湯水混合水栓
 72
     5
 11
162.861963
 21
-228.62912
 31
0.0
100
AcDbText
  0
TEXT
  5
35E
100
AcDbEntity
  8
3
370
    50
100
AcDbText
 10
66.424187
 20
-236.741684
 30
0.0
 40
7.0
  1
ＭＷ－１２
 72
     5
 11
100.024187
 21
-236.741684
 31
0.0
100
AcDbText
  0
ENDSEC
  0
SECTION
  2
OBJECTS
  0
DICTIONARY
  5
406
100
AcDbDictionary
280
     0
281
     1
  3
ACAD_GROUP
350
407
  3
ACAD_MLINESTYLE
350
408
  0
DICTIONARY
  5
407
102
{ACAD_REACTORS
330
406
102
}
100
AcDbDictionary
280
     0
281
     1
  0
DICTIONARY
  5
408
102
{ACAD_REACTORS
330
406
102
}
100
AcDbDictionary
280
     0
281
     1
  3
Standard
350
409
  0
MLINESTYLE
  5
409
102
{ACAD_REACTORS
330
408
102
}
100
AcDbMlineStyle
  2
Standard
 70
     0
  3

 62
     0
 51
90.0
 52
90.0
 71
     2
 49
0.5
 62
   256
  6
ByLayer
 49
-0.5
 62
   256
  6
ByLayer
  0
ENDSEC
  0
EOF
