  0
SECTION
  2
HEADER
  9
$ACADVER
  1
AC1015
  9
$ACADMAINTVER
 70
     6
  9
$DWGCODEPAGE
  3
ANSI_932
  9
$INSBASE
 10
0.0
 20
0.0
 30
0.0
  9
$EXTMIN
 10
-841.0
 20
-594.0
 30
1.000000E+20
  9
$EXTMAX
 10
841.0
 20
594.0
 30
-1.000000E+20
  9
$LIMMIN
 10
-841.0
 20
-594.0
  9
$LIMMAX
 10
841.0
 20
594.0
  9
$ORTHOMODE
 70
     0
  9
$REGENMODE
 70
     1
  9
$FILLMODE
 70
     1
  9
$QTEXTMODE
 70
     0
  9
$MIRRTEXT
 70
     1
  9
$LTSCALE
 40
1.0
  9
$ATTMODE
 70
     1
  9
$TEXTSIZE
 40
0.2
  9
$TRACEWID
 40
0.05
  9
$TEXTSTYLE
  7
STANDARD
  9
$CLAYER
  8
0
  9
$CELTYPE
  6
CONTINUOUS
  9
$CECOLOR
 62
   256
  9
$CELTSCALE
 40
1.0
  9
$DISPSILH
 70
     0
  9
$DIMSCALE
 40
2.0
  9
$DIMASZ
 40
2.0
  9
$DIMEXO
 40
1.0
  9
$DIMDLI
 40
0.38
  9
$DIMRND
 40
0.0
  9
$DIMDLE
 40
0.0
  9
$DIMEXE
 40
2.0
  9
$DIMTP
 40
0.0
  9
$DIMTM
 40
0.0
  9
$DIMTXT
 40
3.5
  9
$DIMCEN
 40
0.09
  9
$DIMTSZ
 40
0.0
  9
$DIMTOL
 70
     0
  9
$DIMLIM
 70
     0
  9
$DIMTIH
 70
     0
  9
$DIMTOH
 70
     0
  9
$DIMSE1
 70
     0
  9
$DIMSE2
 70
     0
  9
$DIMTAD
 70
     1
  9
$DIMZIN
 70
     0
  9
$DIMBLK
  1

  9
$DIMASO
 70
     1
  9
$DIMSHO
 70
     1
  9
$DIMPOST
  1

  9
$DIMAPOST
  1

  9
$DIMALT
 70
     0
  9
$DIMALTD
 70
     2
  9
$DIMALTF
 40
25.4
  9
$DIMLFAC
 40
1.0
  9
$DIMTOFL
 70
     0
  9
$DIMTVP
 40
0.0
  9
$DIMTIX
 70
     0
  9
$DIMSOXD
 70
     0
  9
$DIMSAH
 70
     0
  9
$DIMBLK1
  1

  9
$DIMBLK2
  1

  9
$DIMSTYLE
  2
Standard
  9
$DIMCLRD
 70
     0
  9
$DIMCLRE
 70
     0
  9
$DIMCLRT
 70
     0
  9
$DIMTFAC
 40
1.0
  9
$DIMGAP
 40
0.5
  9
$DIMJUST
 70
     0
  9
$DIMSD1
 70
     0
  9
$DIMSD2
 70
     0
  9
$DIMTOLJ
 70
     1
  9
$DIMTZIN
 70
     0
  9
$DIMALTZ
 70
     0
  9
$DIMALTTZ
 70
     0
  9
$DIMUPT
 70
     0
  9
$DIMDEC
 70
     3
  9
$DIMTDEC
 70
     4
  9
$DIMALTU
 70
     2
  9
$DIMALTTD
 70
     2
  9
$DIMTXSTY
  7
STANDARD
  9
$DIMAUNIT
 70
     0
  9
$DIMADEC
 70
     0
  9
$DIMALTRND
 40
0.0
  9
$DIMAZIN
 70
     0
  9
$DIMDSEP
 70
     0
  9
$DIMATFIT
 70
     3
  9
$DIMFRAC
 70
     0
  9
$DIMLDRBLK
  1

  9
$DIMLUNIT
 70
     2
  9
$DIMLWD
 70
     0
  9
$DIMLWE
 70
     0
  9
$DIMTMOVE
 70
     0
  9
$LUNITS
 70
     2
  9
$LUPREC
 70
     4
  9
$SKETCHINC
 40
0.1
  9
$FILLETRAD
 40
0.0
  9
$AUNITS
 70
     0
  9
$AUPREC
 70
     0
  9
$MENU
  1
acad
  9
$ELEVATION
 40
0.0
  9
$PELEVATION
 40
0.0
  9
$THICKNESS
 40
0.0
  9
$LIMCHECK
 70
     0
  9
$CHAMFERA
 40
0.0
  9
$CHAMFERB
 40
0.0
  9
$CHAMFERC
 40
0.0
  9
$CHAMFERD
 40
0.0
  9
$SKPOLY
 70
     0
  9
$TDCREATE
 40
2453383.000000000
  9
$TDUCREATE
 40
0.000000000
  9
$TDUPDATE
 40
0.000000000
  9
$TDUUPDATE
 40
2447892.625000000
  9
$TDINDWG
 40
0.0000000000
  9
$TDUSRTIMER
 40
0.0000000000
  9
$USRTIMER
 70
     1
  9
$ANGBASE
 50
0.0
  9
$ANGDIR
 70
     0
  9
$PDMODE
 70
     0
  9
$PDSIZE
 40
0.0
  9
$PLINEWID
 40
0.0
  9
$SPLFRAME
 70
     0
  9
$SPLINETYPE
 70
     6
  9
$SPLINESEGS
 70
     8
  9
$HANDSEED
  5
68B
  9
$SURFTAB1
 70
     6
  9
$SURFTAB2
 70
     6
  9
$SURFTYPE
 70
     6
  9
$SURFU
 70
     6
  9
$SURFV
 70
     6
  9
$UCSBASE
  2

  9
$UCSNAME
  2

  9
$UCSORG
 10
0.0
 20
0.0
 30
0.0
  9
$UCSXDIR
 10
1.0
 20
0.0
 30
0.0
  9
$UCSYDIR
 10
0.0
 20
1.0
 30
0.0
  9
$UCSORTHOREF
  2

  9
$UCSORTHOVIEW
 70
     0
  9
$UCSORGTOP
 10
0.0
 20
0.0
 30
0.0
  9
$UCSORGBOTTOM
 10
0.0
 20
0.0
 30
0.0
  9
$UCSORGLEFT
 10
0.0
 20
0.0
 30
0.0
  9
$UCSORGRIGHT
 10
0.0
 20
0.0
 30
0.0
  9
$UCSORGFRONT
 10
0.0
 20
0.0
 30
0.0
  9
$UCSORGBACK
 10
0.0
 20
0.0
 30
0.0
  9
$PUCSBASE
  2

  9
$PUCSNAME
  2

  9
$PUCSORG
 10
0.0
 20
0.0
 30
0.0
  9
$PUCSXDIR
 10
1.0
 20
0.0
 30
0.0
  9
$PUCSYDIR
 10
0.0
 20
1.0
 30
0.0
  9
$PUCSORTHOREF
  2

  9
$PUCSORTHOVIEW
 70
     0
  9
$PUCSORGTOP
 10
0.0
 20
0.0
 30
0.0
  9
$PUCSORGBOTTOM
 10
0.0
 20
0.0
 30
0.0
  9
$PUCSORGLEFT
 10
0.0
 20
0.0
 30
0.0
  9
$PUCSORGRIGHT
 10
0.0
 20
0.0
 30
0.0
  9
$PUCSORGFRONT
 10
0.0
 20
0.0
 30
0.0
  9
$PUCSORGBACK
 10
0.0
 20
0.0
 30
0.0
  9
$USERI1
 70
     0
  9
$USERI2
 70
     0
  9
$USERI3
 70
     0
  9
$USERI4
 70
     0
  9
$USERI5
 70
     0
  9
$USERR1
 40
0.0
  9
$USERR2
 40
0.0
  9
$USERR3
 40
0.0
  9
$USERR4
 40
0.0
  9
$USERR5
 40
0.0
  9
$WORLDVIEW
 70
     1
  9
$SHADEDGE
 70
     3
  9
$SHADEDIF
 70
    70
  9
$TILEMODE
 70
     1
  9
$MAXACTVP
 70
    16
  9
$PINSBASE
 10
0.0
 20
0.0
 30
0.0
  9
$PLIMCHECK
 70
     0
  9
$PEXTMIN
 10
1.000000E+20
 20
1.000000E+20
 30
1.000000E+20
  9
$PEXTMAX
 10
-1.000000E+20
 20
-1.000000E+20
 30
-1.000000E+20
  9
$PLIMMIN
 10
0.0
 20
0.0
  9
$PLIMMAX
 10
12.0
 20
9.0
  9
$UNITMODE
 70
     0
  9
$VISRETAIN
 70
     0
  9
$PLINEGEN
 70
     1
  9
$PSLTSCALE
 70
     0
  9
$TREEDEPTH
 70
  3020
  9
$CMLSTYLE
  2
Standard
  9
$CMLJUST
 70
     0
  9
$CMLSCALE
 40
1.0
  9
$PROXYGRAPHICS
 70
     0
  9
$MEASUREMENT
 70
     0
  9
$CELWEIGHT
370
     0
  9
$ENDCAPS
280
     0
  9
$JOINSTYLE
280
     0
  9
$LWDISPLAY
290
     0
  9
$INSUNITS
 70
     0
  9
$HYPERLINKBASE
  1

  9
$STYLESHEET
  1

  9
$XEDIT
290
     1
  9
$CEPSNTYPE
380
     0
  9
$PSTYLEMODE
290
     1
  9
$FINGERPRINTGUID
  2

  9
$VERSIONGUID
  2

  9
$EXTNAMES
290
     1
  9
$PSVPSCALE
 40
0.0
  0
ENDSEC
  0
SECTION
  2
CLASSES
  0
CLASS
  1
LWPOLYLINE
  2
AcDbPolyline
  3
AutoCAD 2000
 90
        0
280
     0
281
     1
  0
CLASS
  1
IMAGE
  2
AcDbRasterImage
  3
ISM
 90
      127
280
     0
281
     1
  0
CLASS
  1
OLE2FRAME
  2
AcDbOle2Frame
  3
AutoCAD 2000
 90
        0
280
     0
281
     1
  0
CLASS
  1
HATCH
  2
AcDbHatch
  3
AutoCAD 2000
 90
        0
280
     0
281
     1
  0
CLASS
  1
DICTIONARYVAR
  2
AcDbDictionaryVar
  3
AutoCAD 2000
 90
        0
280
     0
281
     0
  0
CLASS
  1
RASTERVARIABLES
  2
AcDbRasterVariables
  3
ISM
 90
        0
280
     0
281
     0
  0
CLASS
  1
IMAGEDEF
  2
AcDbRasterImageDef
  3
ISM
 90
        0
280
     0
281
     0
  0
CLASS
  1
IMAGEDEF_REACTOR
  2
AcDbRasterImageDefReactor
  3
ISM
 90
        1
280
     0
281
     0
  0
CLASS
  1
IDBUFFER
  2
AcDbIdBuffer
  3
AutoCAD 2000
 90
        0
280
     0
281
     0
  0
CLASS
  1
SPATIAL_FILTER
  2
AcDbSpatialFilter
  3
AutoCAD 2000
 90
        0
280
     0
281
     0
  0
CLASS
  1
XRECORD
  2
AcDbXrecord
  3
AutoCAD 2000
 90
        0
280
     0
281
     0
  0
CLASS
  1
SORTENTSTABLE
  2
AcDbSortentsTable
  3
AutoCAD 2000
 90
        0
280
     0
281
     0
  0
CLASS
  1
LAYER_INDEX
  2
AcDbLayerIndex
  3
AutoCAD 2000
 90
        0
280
     0
281
     0
  0
CLASS
  1
SPATIAL_INDEX
  2
AcDbSpatialIndex
  3
AutoCAD 2000
 90
        0
280
     0
281
     0
  0
CLASS
  1
OBJECT_PTR
  2
CAseDLPNTableRecord
  3
"ASE-LPNTableRecord"
 90
        1
280
     0
281
     0
  0
CLASS
  1
LAYOUT
  2
AcDbLayout
  3
AutoCAD 2000
 90
        0
280
     0
281
     0
  0
CLASS
  1
PLOTSETTINGS
  2
AcDbPlotSettings
  3
AutoCAD 2000
 90
        0
280
     0
281
     0
  0
CLASS
  1
ACDBDICTIONARYWDFLT
  2
AcDbDictionaryWithDefault
  3
AutoCAD 2000
 90
        0
280
     0
281
     0
  0
CLASS
  1
ACDBPLACEHOLDER
  2
AcDbPlaceHolder
  3
AutoCAD 2000
 90
        0
280
     0
281
     0
  0
CLASS
  1
VBA_PROJECT
  2
AcDbVbaProject
  3
acadvba
 90
        0
280
     0
281
     0
  0
CLASS
  1
WIPEOUT
  2
AcDbWipeout
  3
WipeOut|AutoCAD Express Tool|expresstools@autodesk.com
 90
      127
280
     0
281
     1
  0
CLASS
  1
WIPEOUTVARIABLES
  2
AcDbWipeoutVariables
  3
WipeOut|AutoCAD Express Tool|expresstools@autodesk.com
 90
        0
280
     0
281
     0
  0
CLASS
  1
RTEXT
  2
RText
  3
RText|AutoCAD Express Tool|expresstools@autodesk.com
 90
        0
280
     0
281
     1
  0
CLASS
  1
ARCALIGNEDTEXT
  2
AcDbArcAlignedText
  3
ATEXT|AutoCAD Express Tool|expresstools@autodesk.com
 90
        0
280
     0
281
     1
  0
ENDSEC
  0
SECTION
  2
TABLES
  0
TABLE
  2
VPORT
  5
6
100
AcDbSymbolTable
 70
     1
  0
VPORT
  5
19
100
AcDbSymbolTableRecord
100
AcDbViewportTableRecord
  2
*ACTIVE
 70
     0
 10
0.0
 20
0.0
 11
1.0
 21
1.0
 12
0.0
 22
0.0
 13
0.0
 23
0.0
 14
1.0
 24
1.0
 15
0.0
 25
0.0
 16
0.0
 26
0.0
 36
1.0
 17
0.0
 27
0.0
 37
0.0
 40
1188.0
 41
1.415825
 42
50.0
 43
0.0
 44
0.0
 50
0.0
 51
0.0
 71
     0
 72
   500
 73
     1
 74
     1
 75
     0
 76
     0
 77
     0
 78
     0
281
     0
 65
     0
110
0.0
120
0.0
130
0.0
111
1.0
121
0.0
131
0.0
112
0.0
122
1.0
132
0.0
345
0
346
0
 79
     0
146
0.0
  0
ENDTAB
  0
TABLE
  2
LTYPE
  5
3
100
AcDbSymbolTable
 70
     9
  0
LTYPE
  5
C
100
AcDbSymbolTableRecord
100
AcDbLinetypeTableRecord
  2
ByBlock
 70
    64
  3

 72
    65
 73
     0
 40
0.0
  0
LTYPE
  5
D
100
AcDbSymbolTableRecord
100
AcDbLinetypeTableRecord
  2
ByLayer
 70
    64
  3

 72
    65
 73
     0
 40
0.0
  0
LTYPE
  5
E
100
AcDbSymbolTableRecord
100
AcDbLinetypeTableRecord
  2
CONTINUOUS
 70
     0
  3
Solid line
 72
    65
 73
     0
 40
0.0
  0
LTYPE
  5
F
100
AcDbSymbolTableRecord
100
AcDbLinetypeTableRecord
  2
DASHED
 70
     0
  3
__ __ __ __ __ __ __ __ __ __ __ __ __ __ __
 72
    65
 73
     2
 40
2.0
 49
1.2
 74
     0
 49
-0.8
 74
     0
  0
LTYPE
  5
10
100
AcDbSymbolTableRecord
100
AcDbLinetypeTableRecord
  2
CENTER
 70
     0
  3
____ _ ____ _ ____ _ ____ _ ____ _ ____ _ ____
 72
    65
 73
     4
 40
12.0
 49
9.0
 74
     0
 49
-1.0
 74
     0
 49
1.0
 74
     0
 49
-1.0
 74
     0
  0
LTYPE
  5
11
100
AcDbSymbolTableRecord
100
AcDbLinetypeTableRecord
  2
HIDDEN
 70
     0
  3
_ _ _ _ _ _ _ _ _ _ _ _ _ _ _ _ _ _ _ _ _ _ _
 72
    65
 73
     2
 40
3.2
 49
2.4
 74
     0
 49
-0.8
 74
     0
  0
LTYPE
  5
12
100
AcDbSymbolTableRecord
100
AcDbLinetypeTableRecord
  2
PHANTOM
 70
     0
  3
_____ _ _ _____ _ _ _____ _ _ _____ _ _ _____
 72
    65
 73
     6
 40
13.5
 49
9.0
 74
     0
 49
-1.0
 74
     0
 49
1.0
 74
     0
 49
-0.5
 74
     0
 49
1.0
 74
     0
 49
-1.0
 74
     0
  0
LTYPE
  5
13
100
AcDbSymbolTableRecord
100
AcDbLinetypeTableRecord
  2
DOT
 70
     0
  3
...............................................
 72
    65
 73
     2
 40
1.0
 49
0.5
 74
     0
 49
-0.5
 74
     0
  0
LTYPE
  5
14
100
AcDbSymbolTableRecord
100
AcDbLinetypeTableRecord
  2
DASHDOT
 70
     0
  3
__ . __ . __ . __ . __ . __ . __ . __ . __ . __
 72
    65
 73
     4
 40
8.0
 49
5.0
 74
     0
 49
-1.0
 74
     0
 49
1.0
 74
     0
 49
-1.0
 74
     0
  0
ENDTAB
  0
TABLE
  2
LAYER
  5
1
100
AcDbSymbolTable
 70
     4
  0
LAYER
  5
15
100
AcDbSymbolTableRecord
100
AcDbLayerTableRecord
  2
0
 70
     0
 62
     7
  6
CONTINUOUS
290
     1
370
    -3
390
0
  0
LAYER
  5
16
100
AcDbSymbolTableRecord
100
AcDbLayerTableRecord
  2
1
 70
     0
 62
     7
  6
CONTINUOUS
290
     1
370
    -3
390
0
  0
LAYER
  5
17
100
AcDbSymbolTableRecord
100
AcDbLayerTableRecord
  2
2
 70
     0
 62
     7
  6
CONTINUOUS
290
     1
370
    -3
390
0
  0
LAYER
  5
18
100
AcDbSymbolTableRecord
100
AcDbLayerTableRecord
  2
3
 70
     0
 62
     7
  6
CONTINUOUS
290
     1
370
    -3
390
0
  0
ENDTAB
  0
TABLE
  2
STYLE
  5
2
100
AcDbSymbolTable
 70
     1
  0
STYLE
  5
1B
100
AcDbSymbolTableRecord
100
AcDbTextStyleTableRecord
  2
STANDARD
 70
    64
 40
0.0
 41
1.0
 50
0.0
 71
     0
 42
1.0
  3
txt
  4
BIGFONT
  0
ENDTAB
  0
TABLE
  2
VIEW
  5
4
100
AcDbSymbolTable
 70
     0
  0
ENDTAB
  0
TABLE
  2
UCS
  5
5
100
AcDbSymbolTable
 70
     0
  0
ENDTAB
  0
TABLE
  2
APPID
  5
7
100
AcDbSymbolTable
 70
     1
  0
APPID
  5
1A
100
AcDbSymbolTableRecord
100
AcDbRegAppTableRecord
  2
ACAD
 70
     0
  0
ENDTAB
  0
TABLE
  2
DIMSTYLE
  5
8
100
AcDbSymbolTable
 70
     1
100
AcDbDimStyleTable
 71
     0
  0
DIMSTYLE
105
30
100
AcDbSymbolTableRecord
100
AcDbDimStyleTableRecord
  2
Standard
 70
     0
  3

  4

 40
2.0
 41
2.0
 42
1.0
 43
0.38
 44
2.0
 45
0.0
 46
0.0
 47
0.0
 48
0.0
 71
     0
 72
     0
 73
     0
 74
     0
 75
     0
 76
     0
 77
     1
 78
     0
 79
     0
140
3.5
141
0.09
142
0.0
143
25.4
144
1.0
145
0.0
146
1.0
147
0.5
148
0.0
170
     0
171
     2
172
     0
173
     0
174
     0
175
     0
176
     0
177
     0
178
     0
179
     0
271
     3
272
     4
273
     2
274
     2
275
     0
276
     0
277
     2
278
    46
279
     0
280
     0
281
     0
282
     0
283
     1
284
     0
285
     0
286
     0
288
     0
289
     3
340
1B
341
0
342
0
343
0
344
0
371
    -2
372
    -2
  0
ENDTAB
  0
TABLE
  2
BLOCK_RECORD
  5
2B
100
AcDbSymbolTable
 70
    13
  0
BLOCK_RECORD
  5
29
100
AcDbSymbolTableRecord
100
AcDbBlockTableRecord
  2
*Model_Space
340
0
  0
BLOCK_RECORD
  5
2A
100
AcDbSymbolTableRecord
100
AcDbBlockTableRecord
  2
*Paper_Space
340
0
  0
BLOCK_RECORD
  5
1C
100
AcDbSymbolTableRecord
100
AcDbBlockTableRecord
  2
*D0
340
0
  0
BLOCK_RECORD
  5
1D
100
AcDbSymbolTableRecord
100
AcDbBlockTableRecord
  2
*D1
340
0
  0
BLOCK_RECORD
  5
1E
100
AcDbSymbolTableRecord
100
AcDbBlockTableRecord
  2
*D2
340
0
  0
BLOCK_RECORD
  5
1F
100
AcDbSymbolTableRecord
100
AcDbBlockTableRecord
  2
*D3
340
0
  0
BLOCK_RECORD
  5
20
100
AcDbSymbolTableRecord
100
AcDbBlockTableRecord
  2
*D4
340
0
  0
BLOCK_RECORD
  5
21
100
AcDbSymbolTableRecord
100
AcDbBlockTableRecord
  2
*D5
340
0
  0
BLOCK_RECORD
  5
22
100
AcDbSymbolTableRecord
100
AcDbBlockTableRecord
  2
*D6
340
0
  0
BLOCK_RECORD
  5
23
100
AcDbSymbolTableRecord
100
AcDbBlockTableRecord
  2
*D7
340
0
  0
BLOCK_RECORD
  5
24
100
AcDbSymbolTableRecord
100
AcDbBlockTableRecord
  2
*D8
340
0
  0
BLOCK_RECORD
  5
25
100
AcDbSymbolTableRecord
100
AcDbBlockTableRecord
  2
*D9
340
0
  0
BLOCK_RECORD
  5
26
100
AcDbSymbolTableRecord
100
AcDbBlockTableRecord
  2
*D10
340
0
  0
BLOCK_RECORD
  5
27
100
AcDbSymbolTableRecord
100
AcDbBlockTableRecord
  2
*D11
340
0
  0
BLOCK_RECORD
  5
28
100
AcDbSymbolTableRecord
100
AcDbBlockTableRecord
  2
*D12
340
0
  0
ENDTAB
  0
ENDSEC
  0
SECTION
  2
BLOCKS
  0
BLOCK
  5
2C
100
AcDbEntity
  8
0
390
0
100
AcDbBlockBegin
  2
*Model_Space
 70
     0
 10
0.0
 20
0.0
 30
0.0
  3
*Model_Space
  1

  0
ENDBLK
  5
2D
100
AcDbEntity
  8
0
390
0
100
AcDbBlockEnd
  0
BLOCK
  5
2E
100
AcDbEntity
 67
     1
  8
0
390
0
100
AcDbBlockBegin
  2
*Paper_Space
 70
     0
 10
0.0
 20
0.0
 30
0.0
  3
*Paper_Space
  1

  0
ENDBLK
  5
2F
100
AcDbEntity
 67
     1
  8
0
390
0
100
AcDbBlockEnd
  0
BLOCK
  5
5EE
100
AcDbEntity
  8
2
100
AcDbBlockBegin
  2
*D0
 70
     1
 10
0.0
 20
0.0
 30
0.0
  3
*D0
  1

  0
LINE
  5
5EF
100
AcDbEntity
  8
2
370
    25
100
AcDbLine
 10
-241.47458
 20
-39.150873
 30
0.0
 11
-241.47458
 21
6.675066
 31
0.0
  0
LINE
  5
5F0
100
AcDbEntity
  8
2
370
    25
100
AcDbLine
 10
-241.47458
 20
4.675066
 30
0.0
 11
-237.610877
 21
3.63979
 31
0.0
  0
LINE
  5
5F1
100
AcDbEntity
  8
2
370
    25
100
AcDbLine
 10
-241.47458
 20
4.675066
 30
0.0
 11
-237.610877
 21
5.710343
 31
0.0
  0
LINE
  5
5F2
100
AcDbEntity
  8
2
370
    25
100
AcDbLine
 10
-237.610877
 20
3.63979
 30
0.0
 11
-237.610877
 21
5.710343
 31
0.0
  0
LINE
  5
5F3
100
AcDbEntity
  8
2
370
    25
100
AcDbLine
 10
-241.47458
 20
4.675066
 30
0.0
 11
-14.873424
 21
4.675066
 31
0.0
  0
LINE
  5
5F4
100
AcDbEntity
  8
2
370
    25
100
AcDbLine
 10
-14.873424
 20
4.675066
 30
0.0
 11
-18.737127
 21
5.710343
 31
0.0
  0
LINE
  5
5F5
100
AcDbEntity
  8
2
370
    25
100
AcDbLine
 10
-14.873424
 20
4.675066
 30
0.0
 11
-18.737127
 21
3.63979
 31
0.0
  0
LINE
  5
5F6
100
AcDbEntity
  8
2
370
    25
100
AcDbLine
 10
-18.737127
 20
5.710343
 30
0.0
 11
-18.737127
 21
3.63979
 31
0.0
  0
LINE
  5
5F7
100
AcDbEntity
  8
2
370
    25
100
AcDbLine
 10
-14.873424
 20
-39.151607
 30
0.0
 11
-14.873424
 21
6.675066
 31
0.0
  0
ENDBLK
  5
5F8
100
AcDbEntity
  8
2
100
AcDbBlockEnd
  0
BLOCK
  5
5F9
100
AcDbEntity
  8
2
100
AcDbBlockBegin
  2
*D1
 70
     1
 10
0.0
 20
0.0
 30
0.0
  3
*D1
  1

  0
LINE
  5
5FA
100
AcDbEntity
  8
2
370
    25
100
AcDbLine
 10
-241.47458
 20
-39.150873
 30
0.0
 11
-241.47458
 21
-10.394682
 31
0.0
  0
LINE
  5
5FB
100
AcDbEntity
  8
2
370
    25
100
AcDbLine
 10
-241.47458
 20
-12.394682
 30
0.0
 11
-237.610877
 21
-13.429958
 31
0.0
  0
LINE
  5
5FC
100
AcDbEntity
  8
2
370
    25
100
AcDbLine
 10
-241.47458
 20
-12.394682
 30
0.0
 11
-237.610877
 21
-11.359406
 31
0.0
  0
LINE
  5
5FD
100
AcDbEntity
  8
2
370
    25
100
AcDbLine
 10
-237.610877
 20
-13.429958
 30
0.0
 11
-237.610877
 21
-11.359406
 31
0.0
  0
LINE
  5
5FE
100
AcDbEntity
  8
2
370
    25
100
AcDbLine
 10
-241.47458
 20
-12.394682
 30
0.0
 11
-128.173582
 21
-12.394682
 31
0.0
  0
LINE
  5
5FF
100
AcDbEntity
  8
2
370
    25
100
AcDbLine
 10
-128.173582
 20
-12.394682
 30
0.0
 11
-132.037285
 21
-11.359406
 31
0.0
  0
LINE
  5
600
100
AcDbEntity
  8
2
370
    25
100
AcDbLine
 10
-128.173582
 20
-12.394682
 30
0.0
 11
-132.037285
 21
-13.429958
 31
0.0
  0
LINE
  5
601
100
AcDbEntity
  8
2
370
    25
100
AcDbLine
 10
-132.037285
 20
-11.359406
 30
0.0
 11
-132.037285
 21
-13.429958
 31
0.0
  0
LINE
  5
602
100
AcDbEntity
  8
2
370
    25
100
AcDbLine
 10
-128.173582
 20
-18.22434
 30
0.0
 11
-128.173582
 21
-10.394682
 31
0.0
  0
ENDBLK
  5
603
100
AcDbEntity
  8
2
100
AcDbBlockEnd
  0
BLOCK
  5
604
100
AcDbEntity
  8
2
100
AcDbBlockBegin
  2
*D2
 70
     1
 10
0.0
 20
0.0
 30
0.0
  3
*D2
  1

  0
LINE
  5
605
100
AcDbEntity
  8
2
370
    25
100
AcDbLine
 10
-128.173582
 20
-18.22434
 30
0.0
 11
-128.173582
 21
-10.394682
 31
0.0
  0
LINE
  5
606
100
AcDbEntity
  8
2
370
    25
100
AcDbLine
 10
-128.173582
 20
-12.394682
 30
0.0
 11
-124.309879
 21
-13.429958
 31
0.0
  0
LINE
  5
607
100
AcDbEntity
  8
2
370
    25
100
AcDbLine
 10
-128.173582
 20
-12.394682
 30
0.0
 11
-124.309879
 21
-11.359406
 31
0.0
  0
LINE
  5
608
100
AcDbEntity
  8
2
370
    25
100
AcDbLine
 10
-124.309879
 20
-13.429958
 30
0.0
 11
-124.309879
 21
-11.359406
 31
0.0
  0
LINE
  5
609
100
AcDbEntity
  8
2
370
    25
100
AcDbLine
 10
-128.173582
 20
-12.394682
 30
0.0
 11
-14.873424
 21
-12.394682
 31
0.0
  0
LINE
  5
60A
100
AcDbEntity
  8
2
370
    25
100
AcDbLine
 10
-14.873424
 20
-12.394682
 30
0.0
 11
-18.737127
 21
-11.359406
 31
0.0
  0
LINE
  5
60B
100
AcDbEntity
  8
2
370
    25
100
AcDbLine
 10
-14.873424
 20
-12.394682
 30
0.0
 11
-18.737127
 21
-13.429958
 31
0.0
  0
LINE
  5
60C
100
AcDbEntity
  8
2
370
    25
100
AcDbLine
 10
-18.737127
 20
-11.359406
 30
0.0
 11
-18.737127
 21
-13.429958
 31
0.0
  0
LINE
  5
60D
100
AcDbEntity
  8
2
370
    25
100
AcDbLine
 10
-14.873424
 20
-39.151607
 30
0.0
 11
-14.873424
 21
-10.394682
 31
0.0
  0
ENDBLK
  5
60E
100
AcDbEntity
  8
2
100
AcDbBlockEnd
  0
BLOCK
  5
60F
100
AcDbEntity
  8
2
100
AcDbBlockBegin
  2
*D3
 70
     1
 10
0.0
 20
0.0
 30
0.0
  3
*D3
  1

  0
TEXT
  5
610
100
AcDbEntity
  8
2
370
    25
100
AcDbText
 10
163.162272
 20
-65.98874
 30
0.0
 40
7.0
  1
９０゜
 50
300.0
 72
     5
 11
172.962272
 21
-82.962838
 31
0.0
100
AcDbText
  0
LINE
  5
611
100
AcDbEntity
  8
2
370
    25
100
AcDbLine
 10
161.957989
 20
-39.779614
 30
0.0
 11
165.762537
 21
-40.79904
 31
0.0
  0
LINE
  5
612
100
AcDbEntity
  8
2
370
    25
100
AcDbLine
 10
203.000128
 20
-71.294407
 30
0.0
 11
195.742048
 21
-98.381931
 31
0.0
  0
LINE
  5
613
100
AcDbEntity
  8
2
370
    25
100
AcDbLine
 10
163.830685
 20
-40.281402
 30
0.0
 11
161.978381
 21
-43.826676
 31
0.0
  0
LINE
  5
614
100
AcDbEntity
  8
2
370
    25
100
AcDbLine
 10
163.830685
 20
-40.281402
 30
0.0
 11
163.99918
 21
-44.277851
 31
0.0
  0
LINE
  5
615
100
AcDbEntity
  8
2
370
    25
100
AcDbLine
 10
161.978381
 20
-43.826676
 30
0.0
 11
163.99918
 21
-44.277851
 31
0.0
  0
LINE
  5
616
100
AcDbEntity
  8
2
370
    25
100
AcDbLine
 10
196.259686
 20
-96.450079
 30
0.0
 11
192.882907
 21
-94.305934
 31
0.0
  0
LINE
  5
617
100
AcDbEntity
  8
2
370
    25
100
AcDbLine
 10
196.259686
 20
-96.450079
 30
0.0
 11
192.263237
 21
-96.281585
 31
0.0
  0
LINE
  5
618
100
AcDbEntity
  8
2
370
    25
100
AcDbLine
 10
192.882907
 20
-94.305934
 30
0.0
 11
192.263237
 21
-96.281585
 31
0.0
  0
ARC
  5
619
100
AcDbEntity
  8
2
370
    25
100
AcDbCircle
 10
208.129525
 20
-52.15124
 30
0.0
 40
45.861533
100
AcDbArc
 50
165.0
 51
255.0
  0
ENDBLK
  5
61A
100
AcDbEntity
  8
2
100
AcDbBlockEnd
  0
BLOCK
  5
61B
100
AcDbEntity
  8
2
100
AcDbBlockBegin
  2
*D4
 70
     1
 10
0.0
 20
0.0
 30
0.0
  3
*D4
  1

  0
TEXT
  5
61C
100
AcDbEntity
  8
2
370
    25
100
AcDbText
 10
113.614922
 20
-48.15124
 30
0.0
 40
7.0
  1
２２
 50
90.0
 72
     5
 11
113.614922
 21
-35.55124
 31
0.0
100
AcDbText
  0
LINE
  5
61D
100
AcDbEntity
  8
2
370
    25
100
AcDbLine
 10
206.129525
 20
-52.15124
 30
0.0
 11
112.614922
 21
-52.15124
 31
0.0
  0
LINE
  5
61E
100
AcDbEntity
  8
2
370
    25
100
AcDbLine
 10
114.614922
 20
-52.15124
 30
0.0
 11
115.650198
 21
-48.287537
 31
0.0
  0
LINE
  5
61F
100
AcDbEntity
  8
2
370
    25
100
AcDbLine
 10
114.614922
 20
-52.15124
 30
0.0
 11
113.579645
 21
-48.287537
 31
0.0
  0
LINE
  5
620
100
AcDbEntity
  8
2
370
    25
100
AcDbLine
 10
115.650198
 20
-48.287537
 30
0.0
 11
113.579645
 21
-48.287537
 31
0.0
  0
LINE
  5
621
100
AcDbEntity
  8
2
370
    25
100
AcDbLine
 10
114.614922
 20
-52.15124
 30
0.0
 11
114.614922
 21
-30.15124
 31
0.0
  0
LINE
  5
622
100
AcDbEntity
  8
2
370
    25
100
AcDbLine
 10
114.614922
 20
-30.15124
 30
0.0
 11
113.579645
 21
-34.014943
 31
0.0
  0
LINE
  5
623
100
AcDbEntity
  8
2
370
    25
100
AcDbLine
 10
114.614922
 20
-30.15124
 30
0.0
 11
115.650198
 21
-34.014943
 31
0.0
  0
LINE
  5
624
100
AcDbEntity
  8
2
370
    25
100
AcDbLine
 10
113.579645
 20
-34.014943
 30
0.0
 11
115.650198
 21
-34.014943
 31
0.0
  0
LINE
  5
625
100
AcDbEntity
  8
2
370
    25
100
AcDbLine
 10
206.129525
 20
-30.15124
 30
0.0
 11
112.614922
 21
-30.15124
 31
0.0
  0
ENDBLK
  5
626
100
AcDbEntity
  8
2
100
AcDbBlockEnd
  0
BLOCK
  5
627
100
AcDbEntity
  8
2
100
AcDbBlockBegin
  2
*D5
 70
     1
 10
0.0
 20
0.0
 30
0.0
  3
*D5
  1

  0
TEXT
  5
628
100
AcDbEntity
  8
2
370
    25
100
AcDbText
 10
131.629678
 20
-187.844604
 30
0.0
 40
7.0
  1
１７０
 72
     5
 11
151.229678
 21
-187.844604
 31
0.0
100
AcDbText
  0
LINE
  5
629
100
AcDbEntity
  8
2
370
    25
100
AcDbLine
 10
57.129831
 20
-125.139586
 30
0.0
 11
57.129831
 21
-190.844604
 31
0.0
  0
LINE
  5
62A
100
AcDbEntity
  8
2
370
    25
100
AcDbLine
 10
57.129831
 20
-188.844604
 30
0.0
 11
60.993534
 21
-189.879881
 31
0.0
  0
LINE
  5
62B
100
AcDbEntity
  8
2
370
    25
100
AcDbLine
 10
57.129831
 20
-188.844604
 30
0.0
 11
60.993534
 21
-187.809328
 31
0.0
  0
LINE
  5
62C
100
AcDbEntity
  8
2
370
    25
100
AcDbLine
 10
60.993534
 20
-189.879881
 30
0.0
 11
60.993534
 21
-187.809328
 31
0.0
  0
LINE
  5
62D
100
AcDbEntity
  8
2
370
    25
100
AcDbLine
 10
57.129831
 20
-188.844604
 30
0.0
 11
227.129525
 21
-188.844604
 31
0.0
  0
LINE
  5
62E
100
AcDbEntity
  8
2
370
    25
100
AcDbLine
 10
227.129525
 20
-188.844604
 30
0.0
 11
223.265821
 21
-187.809328
 31
0.0
  0
LINE
  5
62F
100
AcDbEntity
  8
2
370
    25
100
AcDbLine
 10
227.129525
 20
-188.844604
 30
0.0
 11
223.265821
 21
-189.879881
 31
0.0
  0
LINE
  5
630
100
AcDbEntity
  8
2
370
    25
100
AcDbLine
 10
223.265821
 20
-187.809328
 30
0.0
 11
223.265821
 21
-189.879881
 31
0.0
  0
LINE
  5
631
100
AcDbEntity
  8
2
370
    25
100
AcDbLine
 10
227.129525
 20
-119.41066
 30
0.0
 11
227.129525
 21
-190.844604
 31
0.0
  0
ENDBLK
  5
632
100
AcDbEntity
  8
2
100
AcDbBlockEnd
  0
BLOCK
  5
633
100
AcDbEntity
  8
2
100
AcDbBlockBegin
  2
*D6
 70
     1
 10
0.0
 20
0.0
 30
0.0
  3
*D6
  1

  0
TEXT
  5
634
100
AcDbEntity
  8
2
370
    25
100
AcDbText
 10
24.355888
 20
-90.65124
 30
0.0
 40
7.0
  1
６３
 50
90.0
 72
     5
 11
24.355888
 21
-78.05124
 31
0.0
100
AcDbText
  0
LINE
  5
635
100
AcDbEntity
  8
2
370
    25
100
AcDbLine
 10
43.129831
 20
-115.15124
 30
0.0
 11
23.355888
 21
-115.15124
 31
0.0
  0
LINE
  5
636
100
AcDbEntity
  8
2
370
    25
100
AcDbLine
 10
25.355888
 20
-115.15124
 30
0.0
 11
26.391165
 21
-111.287537
 31
0.0
  0
LINE
  5
637
100
AcDbEntity
  8
2
370
    25
100
AcDbLine
 10
25.355888
 20
-115.15124
 30
0.0
 11
24.320612
 21
-111.287537
 31
0.0
  0
LINE
  5
638
100
AcDbEntity
  8
2
370
    25
100
AcDbLine
 10
26.391165
 20
-111.287537
 30
0.0
 11
24.320612
 21
-111.287537
 31
0.0
  0
LINE
  5
639
100
AcDbEntity
  8
2
370
    25
100
AcDbLine
 10
25.355888
 20
-115.15124
 30
0.0
 11
25.355888
 21
-52.15124
 31
0.0
  0
LINE
  5
63A
100
AcDbEntity
  8
2
370
    25
100
AcDbLine
 10
25.355888
 20
-52.15124
 30
0.0
 11
24.320612
 21
-56.014943
 31
0.0
  0
LINE
  5
63B
100
AcDbEntity
  8
2
370
    25
100
AcDbLine
 10
25.355888
 20
-52.15124
 30
0.0
 11
26.391165
 21
-56.014943
 31
0.0
  0
LINE
  5
63C
100
AcDbEntity
  8
2
370
    25
100
AcDbLine
 10
24.320612
 20
-56.014943
 30
0.0
 11
26.391165
 21
-56.014943
 31
0.0
  0
LINE
  5
63D
100
AcDbEntity
  8
2
370
    25
100
AcDbLine
 10
206.129525
 20
-52.15124
 30
0.0
 11
23.355888
 21
-52.15124
 31
0.0
  0
ENDBLK
  5
63E
100
AcDbEntity
  8
2
100
AcDbBlockEnd
  0
BLOCK
  5
63F
100
AcDbEntity
  8
2
100
AcDbBlockBegin
  2
*D7
 70
     1
 10
0.0
 20
0.0
 30
0.0
  3
*D7
  1

  0
TEXT
  5
640
100
AcDbEntity
  8
2
370
    25
100
AcDbText
 10
-258.673582
 20
245.424164
 30
0.0
 40
7.0
  1
φ４６
 72
     5
 11
-239.073582
 21
245.424164
 31
0.0
100
AcDbText
  0
LINE
  5
641
100
AcDbEntity
  8
2
370
    25
100
AcDbLine
 10
-271.173582
 20
209.917861
 30
0.0
 11
-271.173582
 21
246.424164
 31
0.0
  0
LINE
  5
642
100
AcDbEntity
  8
2
370
    25
100
AcDbLine
 10
-271.173582
 20
244.424164
 30
0.0
 11
-267.309879
 21
243.388888
 31
0.0
  0
LINE
  5
643
100
AcDbEntity
  8
2
370
    25
100
AcDbLine
 10
-271.173582
 20
244.424164
 30
0.0
 11
-267.309879
 21
245.45944
 31
0.0
  0
LINE
  5
644
100
AcDbEntity
  8
2
370
    25
100
AcDbLine
 10
-267.309879
 20
243.388888
 30
0.0
 11
-267.309879
 21
245.45944
 31
0.0
  0
LINE
  5
645
100
AcDbEntity
  8
2
370
    25
100
AcDbLine
 10
-271.173582
 20
244.424164
 30
0.0
 11
-225.173582
 21
244.424164
 31
0.0
  0
LINE
  5
646
100
AcDbEntity
  8
2
370
    25
100
AcDbLine
 10
-225.173582
 20
244.424164
 30
0.0
 11
-229.037285
 21
245.45944
 31
0.0
  0
LINE
  5
647
100
AcDbEntity
  8
2
370
    25
100
AcDbLine
 10
-225.173582
 20
244.424164
 30
0.0
 11
-229.037285
 21
243.388888
 31
0.0
  0
LINE
  5
648
100
AcDbEntity
  8
2
370
    25
100
AcDbLine
 10
-229.037285
 20
245.45944
 30
0.0
 11
-229.037285
 21
243.388888
 31
0.0
  0
LINE
  5
649
100
AcDbEntity
  8
2
370
    25
100
AcDbLine
 10
-225.173582
 20
209.917861
 30
0.0
 11
-225.173582
 21
246.424164
 31
0.0
  0
ENDBLK
  5
64A
100
AcDbEntity
  8
2
100
AcDbBlockEnd
  0
BLOCK
  5
64B
100
AcDbEntity
  8
2
100
AcDbBlockBegin
  2
*D8
 70
     1
 10
0.0
 20
0.0
 30
0.0
  3
*D8
  1

  0
TEXT
  5
64C
100
AcDbEntity
  8
2
370
    25
100
AcDbText
 10
243.446779
 20
-171.954102
 30
0.0
 40
7.0
  1
（１０６）
 72
     5
 11
277.046779
 21
-171.954102
 31
0.0
100
AcDbText
  0
LINE
  5
64D
100
AcDbEntity
  8
2
370
    25
100
AcDbLine
 10
208.129525
 20
-54.15124
 30
0.0
 11
208.129525
 21
-174.954102
 31
0.0
  0
LINE
  5
64E
100
AcDbEntity
  8
2
370
    25
100
AcDbLine
 10
208.129525
 20
-172.954102
 30
0.0
 11
211.993228
 21
-173.989378
 31
0.0
  0
LINE
  5
64F
100
AcDbEntity
  8
2
370
    25
100
AcDbLine
 10
208.129525
 20
-172.954102
 30
0.0
 11
211.993228
 21
-171.918825
 31
0.0
  0
LINE
  5
650
100
AcDbEntity
  8
2
370
    25
100
AcDbLine
 10
211.993228
 20
-173.989378
 30
0.0
 11
211.993228
 21
-171.918825
 31
0.0
  0
LINE
  5
651
100
AcDbEntity
  8
2
370
    25
100
AcDbLine
 10
208.129525
 20
-172.954102
 30
0.0
 11
313.764033
 21
-172.954102
 31
0.0
  0
LINE
  5
652
100
AcDbEntity
  8
2
370
    25
100
AcDbLine
 10
313.764033
 20
-172.954102
 30
0.0
 11
309.90033
 21
-171.918825
 31
0.0
  0
LINE
  5
653
100
AcDbEntity
  8
2
370
    25
100
AcDbLine
 10
313.764033
 20
-172.954102
 30
0.0
 11
309.90033
 21
-173.989378
 31
0.0
  0
LINE
  5
654
100
AcDbEntity
  8
2
370
    25
100
AcDbLine
 10
309.90033
 20
-171.918825
 30
0.0
 11
309.90033
 21
-173.989378
 31
0.0
  0
LINE
  5
655
100
AcDbEntity
  8
2
370
    25
100
AcDbLine
 10
313.764033
 20
-126.61724
 30
0.0
 11
313.764033
 21
-174.954102
 31
0.0
  0
ENDBLK
  5
656
100
AcDbEntity
  8
2
100
AcDbBlockEnd
  0
BLOCK
  5
657
100
AcDbEntity
  8
2
100
AcDbBlockBegin
  2
*D9
 70
     1
 10
0.0
 20
0.0
 30
0.0
  3
*D9
  1

  0
TEXT
  5
658
100
AcDbEntity
  8
2
370
    25
100
AcDbText
 10
309.952033
 20
-171.954102
 30
0.0
 40
7.0
  1
（２０）
 72
     5
 11
336.552033
 21
-171.954102
 31
0.0
100
AcDbText
  0
LINE
  5
659
100
AcDbEntity
  8
2
370
    25
100
AcDbLine
 10
313.764033
 20
-126.61724
 30
0.0
 11
313.764033
 21
-174.954102
 31
0.0
  0
LINE
  5
65A
100
AcDbEntity
  8
2
370
    25
100
AcDbLine
 10
313.764033
 20
-172.954102
 30
0.0
 11
317.627737
 21
-173.989378
 31
0.0
  0
LINE
  5
65B
100
AcDbEntity
  8
2
370
    25
100
AcDbLine
 10
313.764033
 20
-172.954102
 30
0.0
 11
317.627737
 21
-171.918825
 31
0.0
  0
LINE
  5
65C
100
AcDbEntity
  8
2
370
    25
100
AcDbLine
 10
317.627737
 20
-173.989378
 30
0.0
 11
317.627737
 21
-171.918825
 31
0.0
  0
LINE
  5
65D
100
AcDbEntity
  8
2
370
    25
100
AcDbLine
 10
313.764033
 20
-172.954102
 30
0.0
 11
334.140033
 21
-172.954102
 31
0.0
  0
LINE
  5
65E
100
AcDbEntity
  8
2
370
    25
100
AcDbLine
 10
334.140033
 20
-172.954102
 30
0.0
 11
330.27633
 21
-171.918825
 31
0.0
  0
LINE
  5
65F
100
AcDbEntity
  8
2
370
    25
100
AcDbLine
 10
334.140033
 20
-172.954102
 30
0.0
 11
330.27633
 21
-173.989378
 31
0.0
  0
LINE
  5
660
100
AcDbEntity
  8
2
370
    25
100
AcDbLine
 10
330.27633
 20
-171.918825
 30
0.0
 11
330.27633
 21
-173.989378
 31
0.0
  0
LINE
  5
661
100
AcDbEntity
  8
2
370
    25
100
AcDbLine
 10
334.140033
 20
-113.248835
 30
0.0
 11
334.140033
 21
-174.954102
 31
0.0
  0
ENDBLK
  5
662
100
AcDbEntity
  8
2
100
AcDbBlockEnd
  0
BLOCK
  5
663
100
AcDbEntity
  8
2
100
AcDbBlockBegin
  2
*D10
 70
     1
 10
0.0
 20
0.0
 30
0.0
  3
*D10
  1

  0
LINE
  5
664
100
AcDbEntity
  8
2
370
    25
100
AcDbLine
 10
-228.471326
 20
-101.648735
 30
0.0
 11
-228.471326
 21
-193.574722
 31
0.0
  0
LINE
  5
665
100
AcDbEntity
  8
2
370
    25
100
AcDbLine
 10
-228.471326
 20
-191.574722
 30
0.0
 11
-224.607622
 21
-192.609998
 31
0.0
  0
LINE
  5
666
100
AcDbEntity
  8
2
370
    25
100
AcDbLine
 10
-228.471326
 20
-191.574722
 30
0.0
 11
-224.607622
 21
-190.539446
 31
0.0
  0
LINE
  5
667
100
AcDbEntity
  8
2
370
    25
100
AcDbLine
 10
-224.607622
 20
-192.609998
 30
0.0
 11
-224.607622
 21
-190.539446
 31
0.0
  0
LINE
  5
668
100
AcDbEntity
  8
2
370
    25
100
AcDbLine
 10
-228.471326
 20
-191.574722
 30
0.0
 11
-29.476376
 21
-191.574722
 31
0.0
  0
LINE
  5
669
100
AcDbEntity
  8
2
370
    25
100
AcDbLine
 10
-29.476376
 20
-191.574722
 30
0.0
 11
-33.340079
 21
-190.539446
 31
0.0
  0
LINE
  5
66A
100
AcDbEntity
  8
2
370
    25
100
AcDbLine
 10
-29.476376
 20
-191.574722
 30
0.0
 11
-33.340079
 21
-192.609998
 31
0.0
  0
LINE
  5
66B
100
AcDbEntity
  8
2
370
    25
100
AcDbLine
 10
-33.340079
 20
-190.539446
 30
0.0
 11
-33.340079
 21
-192.609998
 31
0.0
  0
LINE
  5
66C
100
AcDbEntity
  8
2
370
    25
100
AcDbLine
 10
-29.476376
 20
-101.648735
 30
0.0
 11
-29.476376
 21
-193.574722
 31
0.0
  0
ENDBLK
  5
66D
100
AcDbEntity
  8
2
100
AcDbBlockEnd
  0
BLOCK
  5
66E
100
AcDbEntity
  8
2
100
AcDbBlockBegin
  2
*D11
 70
     1
 10
0.0
 20
0.0
 30
0.0
  3
*D11
  1

  0
TEXT
  5
66F
100
AcDbEntity
  8
2
370
    25
100
AcDbText
 10
-138.673582
 20
245.424164
 30
0.0
 40
7.0
  1
１００
 72
     5
 11
-119.073582
 21
245.424164
 31
0.0
100
AcDbText
  0
LINE
  5
670
100
AcDbEntity
  8
2
370
    25
100
AcDbLine
 10
-178.173582
 20
192.609116
 30
0.0
 11
-178.173582
 21
246.424164
 31
0.0
  0
LINE
  5
671
100
AcDbEntity
  8
2
370
    25
100
AcDbLine
 10
-178.173582
 20
244.424164
 30
0.0
 11
-174.309879
 21
243.388888
 31
0.0
  0
LINE
  5
672
100
AcDbEntity
  8
2
370
    25
100
AcDbLine
 10
-178.173582
 20
244.424164
 30
0.0
 11
-174.309879
 21
245.45944
 31
0.0
  0
LINE
  5
673
100
AcDbEntity
  8
2
370
    25
100
AcDbLine
 10
-174.309879
 20
243.388888
 30
0.0
 11
-174.309879
 21
245.45944
 31
0.0
  0
LINE
  5
674
100
AcDbEntity
  8
2
370
    25
100
AcDbLine
 10
-178.173582
 20
244.424164
 30
0.0
 11
-78.173582
 21
244.424164
 31
0.0
  0
LINE
  5
675
100
AcDbEntity
  8
2
370
    25
100
AcDbLine
 10
-78.173582
 20
244.424164
 30
0.0
 11
-82.037285
 21
245.45944
 31
0.0
  0
LINE
  5
676
100
AcDbEntity
  8
2
370
    25
100
AcDbLine
 10
-78.173582
 20
244.424164
 30
0.0
 11
-82.037285
 21
243.388888
 31
0.0
  0
LINE
  5
677
100
AcDbEntity
  8
2
370
    25
100
AcDbLine
 10
-82.037285
 20
245.45944
 30
0.0
 11
-82.037285
 21
243.388888
 31
0.0
  0
LINE
  5
678
100
AcDbEntity
  8
2
370
    25
100
AcDbLine
 10
-78.173582
 20
192.609116
 30
0.0
 11
-78.173582
 21
246.424164
 31
0.0
  0
ENDBLK
  5
679
100
AcDbEntity
  8
2
100
AcDbBlockEnd
  0
BLOCK
  5
67A
100
AcDbEntity
  8
2
100
AcDbBlockBegin
  2
*D12
 70
     1
 10
0.0
 20
0.0
 30
0.0
  3
*D12
  1

  0
TEXT
  5
67B
100
AcDbEntity
  8
2
370
    25
100
AcDbText
 10
-50.157776
 20
245.424164
 30
0.0
 40
7.0
  1
７０
 72
     5
 11
-37.557776
 21
245.424164
 31
0.0
100
AcDbText
  0
LINE
  5
67C
100
AcDbEntity
  8
2
370
    25
100
AcDbLine
 10
-78.173582
 20
192.609116
 30
0.0
 11
-78.173582
 21
246.424164
 31
0.0
  0
LINE
  5
67D
100
AcDbEntity
  8
2
370
    25
100
AcDbLine
 10
-78.173582
 20
244.424164
 30
0.0
 11
-74.309879
 21
243.388888
 31
0.0
  0
LINE
  5
67E
100
AcDbEntity
  8
2
370
    25
100
AcDbLine
 10
-78.173582
 20
244.424164
 30
0.0
 11
-74.309879
 21
245.45944
 31
0.0
  0
LINE
  5
67F
100
AcDbEntity
  8
2
370
    25
100
AcDbLine
 10
-74.309879
 20
243.388888
 30
0.0
 11
-74.309879
 21
245.45944
 31
0.0
  0
LINE
  5
680
100
AcDbEntity
  8
2
370
    25
100
AcDbLine
 10
-78.173582
 20
244.424164
 30
0.0
 11
-8.141971
 21
244.424164
 31
0.0
  0
LINE
  5
681
100
AcDbEntity
  8
2
370
    25
100
AcDbLine
 10
-8.141971
 20
244.424164
 30
0.0
 11
-12.005674
 21
245.45944
 31
0.0
  0
LINE
  5
682
100
AcDbEntity
  8
2
370
    25
100
AcDbLine
 10
-8.141971
 20
244.424164
 30
0.0
 11
-12.005674
 21
243.388888
 31
0.0
  0
LINE
  5
683
100
AcDbEntity
  8
2
370
    25
100
AcDbLine
 10
-12.005674
 20
245.45944
 30
0.0
 11
-12.005674
 21
243.388888
 31
0.0
  0
LINE
  5
684
100
AcDbEntity
  8
2
370
    25
100
AcDbLine
 10
-8.141971
 20
235.196618
 30
0.0
 11
-8.141971
 21
246.424164
 31
0.0
  0
ENDBLK
  5
685
100
AcDbEntity
  8
2
100
AcDbBlockEnd
  0
ENDSEC
  0
SECTION
  2
ENTITIES
  0
LINE
  5
31
100
AcDbEntity
  8
1
370
   100
100
AcDbLine
 10
-373.02157
 20
275.028767
 30
0.0
 11
394.982385
 21
275.028767
 31
0.0
  0
LINE
  5
32
100
AcDbEntity
  8
1
370
   100
100
AcDbLine
 10
-373.02157
 20
275.028767
 30
0.0
 11
-373.02157
 21
-277.971881
 31
0.0
  0
LINE
  5
33
100
AcDbEntity
  8
1
370
   100
100
AcDbLine
 10
-373.02157
 20
-277.971881
 30
0.0
 11
394.982385
 21
-277.971881
 31
0.0
  0
LINE
  5
34
100
AcDbEntity
  8
1
370
   100
100
AcDbLine
 10
394.982385
 20
-277.971881
 30
0.0
 11
394.982385
 21
275.028767
 31
0.0
  0
TEXT
  5
35
100
AcDbEntity
  8
1
370
    50
100
AcDbText
 10
359.628442
 20
-226.252857
 30
0.0
 40
6.0
  1
設計
 72
     5
 11
370.428442
 21
-226.252857
 31
0.0
100
AcDbText
  0
TEXT
  5
36
100
AcDbEntity
  8
1
370
    50
100
AcDbText
 10
379.127478
 20
-226.099658
 30
0.0
 40
6.0
  1
製図
 72
     5
 11
389.927478
 21
-226.099658
 31
0.0
100
AcDbText
  0
TEXT
  5
37
100
AcDbEntity
  8
1
370
    50
100
AcDbText
 10
319.005745
 20
-226.252857
 30
0.0
 40
6.0
  1
承認
 72
     5
 11
329.805745
 21
-226.252857
 31
0.0
100
AcDbText
  0
TEXT
  5
38
100
AcDbEntity
  8
1
370
    50
100
AcDbText
 10
338.989679
 20
-226.19802
 30
0.0
 40
6.0
  1
検図
 72
     5
 11
349.789679
 21
-226.19802
 31
0.0
100
AcDbText
  0
LINE
  5
39
100
AcDbEntity
  8
1
370
    25
100
AcDbLine
 10
284.982385
 20
-227.971881
 30
0.0
 11
394.982385
 21
-227.971881
 31
0.0
  0
LINE
  5
3A
100
AcDbEntity
  8
1
370
    25
100
AcDbLine
 10
342.482385
 20
-245.971881
 30
0.0
 11
342.482385
 21
-259.971881
 31
0.0
  0
TEXT
  5
3B
100
AcDbEntity
  8
1
370
    50
100
AcDbText
 10
319.55159
 20
-256.012528
 30
0.0
 40
6.0
  1
日　付
 72
     5
 11
336.35159
 21
-256.012528
 31
0.0
100
AcDbText
  0
LINE
  5
3C
100
AcDbEntity
  8
1
370
    50
100
AcDbLine
 10
40.982385
 20
-259.971881
 30
0.0
 11
394.982385
 21
-259.971881
 31
0.0
  0
TEXT
  5
3D
100
AcDbEntity
  8
1
370
    50
100
AcDbText
 10
287.775011
 20
-256.322406
 30
0.0
 40
6.0
  1
第三角法
 72
     5
 11
310.575011
 21
-256.322406
 31
0.0
100
AcDbText
  0
TEXT
  5
3E
100
AcDbEntity
  8
1
370
    50
100
AcDbText
 10
291.087419
 20
-225.99802
 30
0.0
 40
6.0
  1
尺　度
 72
     5
 11
307.887419
 21
-225.99802
 31
0.0
100
AcDbText
  0
LINE
  5
3F
100
AcDbEntity
  8
1
370
   100
100
AcDbLine
 10
40.982385
 20
-217.971881
 30
0.0
 11
394.982385
 21
-217.971881
 31
0.0
  0
LINE
  5
40
100
AcDbEntity
  8
1
370
    50
100
AcDbLine
 10
211.982385
 20
-217.971881
 30
0.0
 11
211.982385
 21
-277.971881
 31
0.0
  0
LINE
  5
41
100
AcDbEntity
  8
1
370
    25
100
AcDbLine
 10
374.982385
 20
-245.971881
 30
0.0
 11
374.982385
 21
-217.971881
 31
0.0
  0
LINE
  5
42
100
AcDbEntity
  8
1
370
    25
100
AcDbLine
 10
354.982385
 20
-245.971881
 30
0.0
 11
354.982385
 21
-217.971881
 31
0.0
  0
LINE
  5
43
100
AcDbEntity
  8
1
370
    25
100
AcDbLine
 10
334.982385
 20
-245.971881
 30
0.0
 11
334.982385
 21
-217.971881
 31
0.0
  0
LINE
  5
44
100
AcDbEntity
  8
1
370
    50
100
AcDbLine
 10
284.982385
 20
-277.971881
 30
0.0
 11
284.982385
 21
-217.971881
 31
0.0
  0
LINE
  5
45
100
AcDbEntity
  8
1
370
    50
100
AcDbLine
 10
189.982385
 20
-217.971881
 30
0.0
 11
189.982385
 21
-277.971881
 31
0.0
  0
LINE
  5
46
100
AcDbEntity
  8
1
370
    50
100
AcDbLine
 10
62.982385
 20
-217.971881
 30
0.0
 11
62.982385
 21
-259.971881
 31
0.0
  0
LINE
  5
47
100
AcDbEntity
  8
1
370
    50
100
AcDbLine
 10
284.982385
 20
-245.971881
 30
0.0
 11
394.982385
 21
-245.971881
 31
0.0
  0
TEXT
  5
48
100
AcDbEntity
  8
1
370
    50
100
AcDbText
 10
287.101129
 20
-271.880939
 30
0.0
 40
6.0
  1
コードＮｏ
 41
0.9
 72
     5
 11
313.021129
 21
-271.880939
 31
0.0
100
AcDbText
  0
TEXT
  5
49
100
AcDbEntity
  8
1
370
   100
100
AcDbText
 10
52.886774
 20
-272.875659
 30
0.0
 40
8.0
  1
ミズタニバルブ工業株式会社
 41
1.2
 72
     5
 11
175.766774
 21
-272.875659
 31
0.0
100
AcDbText
  0
LINE
  5
4A
100
AcDbEntity
  8
1
370
    50
100
AcDbLine
 10
40.982385
 20
-238.971881
 30
0.0
 11
284.982385
 21
-238.971881
 31
0.0
  0
LINE
  5
4B
100
AcDbEntity
  8
1
370
    50
100
AcDbLine
 10
115.482385
 20
-238.971881
 30
0.0
 11
115.482385
 21
-259.971881
 31
0.0
  0
LINE
  5
4C
100
AcDbEntity
  8
1
370
    50
100
AcDbLine
 10
137.482385
 20
-238.971881
 30
0.0
 11
137.482385
 21
-259.971881
 31
0.0
  0
LINE
  5
4D
100
AcDbEntity
  8
1
370
    50
100
AcDbLine
 10
314.982385
 20
-277.971881
 30
0.0
 11
314.982385
 21
-217.971881
 31
0.0
  0
TEXT
  5
4E
100
AcDbEntity
  8
1
370
    50
100
AcDbText
 10
345.098131
 20
-256.100293
 30
0.0
 40
6.0
  1
　　・　　・
 72
     5
 11
379.898131
 21
-256.100293
 31
0.0
100
AcDbText
  0
LINE
  5
4F
100
AcDbEntity
  8
1
370
   100
100
AcDbLine
 10
40.982385
 20
-217.971881
 30
0.0
 11
40.982385
 21
-277.971881
 31
0.0
  0
TEXT
  5
50
100
AcDbEntity
  8
1
370
    50
100
AcDbText
 10
290.832582
 20
-240.013492
 30
0.0
 40
6.0
  1
　／ 
 72
     5
 11
301.632582
 21
-240.013492
 31
0.0
100
AcDbText
  0
TEXT
  5
51
100
AcDbEntity
  8
1
370
    50
100
AcDbText
 10
193.904123
 20
-272.024909
 30
0.0
 40
6.0
  1
備 考 
 72
     5
 11
207.704123
 21
-272.024909
 31
0.0
100
AcDbText
  0
TEXT
  5
52
100
AcDbEntity
  8
1
370
    50
100
AcDbText
 10
193.512534
 20
-230.89184
 30
0.0
 40
6.0
  1
仕 上
 72
     5
 11
207.312534
 21
-230.89184
 31
0.0
100
AcDbText
  0
TEXT
  5
53
100
AcDbEntity
  8
1
370
    50
100
AcDbText
 10
193.447176
 20
-248.891666
 30
0.0
 40
6.0
  1
表 面
 72
     5
 11
207.247176
 21
-248.891666
 31
0.0
100
AcDbText
  0
TEXT
  5
54
100
AcDbEntity
  8
1
370
    50
100
AcDbText
 10
193.447176
 20
-255.891666
 30
0.0
 40
6.0
  1
処 理
 72
     5
 11
207.247176
 21
-255.891666
 31
0.0
100
AcDbText
  0
TEXT
  5
55
100
AcDbEntity
  8
1
370
    50
100
AcDbText
 10
44.79335
 20
-231.693399
 30
0.0
 40
6.0
  1
品 名
 72
     5
 11
58.59335
 21
-231.693399
 31
0.0
100
AcDbText
  0
TEXT
  5
56
100
AcDbEntity
  8
1
370
    50
100
AcDbText
 10
44.397766
 20
-252.462534
 30
0.0
 40
6.0
  1
材 質
 72
     5
 11
58.197766
 21
-252.462534
 31
0.0
100
AcDbText
  0
TEXT
  5
57
100
AcDbEntity
  8
1
370
    50
100
AcDbText
 10
118.897766
 20
-252.462534
 30
0.0
 40
6.0
  1
規 格
 72
     5
 11
132.697766
 21
-252.462534
 31
0.0
100
AcDbText
  0
TEXT
  5
58
100
AcDbEntity
  8
2
370
    50
100
AcDbText
 10
-138.674002
 20
5.675066
 30
0.0
 40
7.0
  1
２２８
 72
     5
 11
-119.074002
 21
5.675066
 31
0.0
100
AcDbText
  0
DIMENSION
  5
59
100
AcDbEntity
  8
2
370
    25
100
AcDbDimension
  2
*D0
 10
-14.873424
 20
4.675066
 30
0.0
 11
-128.174002
 21
6.675066
 31
0.0
 71
     0
 72
     0
 41
0.0
 42
0.0
  3
Standard
100
AcDbAlignedDimension
 13
-241.47458
 23
-41.150873
 33
0.0
 14
-14.873424
 24
-41.151607
 34
0.0
100
AcDbRotatedDimension
  0
TEXT
  5
5A
100
AcDbEntity
  8
2
370
    50
100
AcDbText
 10
-195.324081
 20
-11.394682
 30
0.0
 40
7.0
  1
１１４
 72
     5
 11
-175.724081
 21
-11.394682
 31
0.0
100
AcDbText
  0
DIMENSION
  5
5B
100
AcDbEntity
  8
2
370
    25
100
AcDbDimension
  2
*D1
 10
-128.173582
 20
-12.394682
 30
0.0
 11
-184.824081
 21
-10.394682
 31
0.0
 71
     0
 72
     0
 41
0.0
 42
0.0
  3
Standard
100
AcDbAlignedDimension
 13
-241.47458
 23
-41.150873
 33
0.0
 14
-128.173582
 24
-20.22434
 34
0.0
100
AcDbRotatedDimension
  0
TEXT
  5
5C
100
AcDbEntity
  8
2
370
    50
100
AcDbText
 10
-82.023503
 20
-11.394682
 30
0.0
 40
7.0
  1
１１４
 72
     5
 11
-62.423503
 21
-11.394682
 31
0.0
100
AcDbText
  0
DIMENSION
  5
5D
100
AcDbEntity
  8
2
370
    25
100
AcDbDimension
  2
*D2
 10
-14.873424
 20
-12.394682
 30
0.0
 11
-71.523503
 21
-10.394682
 31
0.0
 71
     0
 72
     0
 41
0.0
 42
0.0
  3
Standard
100
AcDbAlignedDimension
 13
-128.173582
 23
-20.22434
 33
0.0
 14
-14.873424
 24
-41.151607
 34
0.0
100
AcDbRotatedDimension
  0
LINE
  5
5E
100
AcDbEntity
  8
2
370
    25
  6
CENTER
100
AcDbLine
 10
160.026137
 20
-39.261976
 30
0.0
 11
208.129525
 21
-52.15124
 31
0.0
  0
LINE
  5
5F
100
AcDbEntity
  8
2
370
    25
  6
CENTER
100
AcDbLine
 10
197.449643
 20
-92.009102
 30
0.0
 11
203.517767
 21
-69.362556
 31
0.0
  0
DIMENSION
  5
60
100
AcDbEntity
  8
2
370
    25
100
AcDbDimension
  2
*D3
 10
208.128338
 20
-52.15567
 30
0.0
 11
173.662272
 21
-84.175273
 31
0.0
 70
     2
 71
     0
 72
     0
 41
0.0
 42
0.0
  3
Standard
100
AcDb2LineAngularDimension
 13
156.221589
 23
-38.24255
 33
0.0
 14
208.129525
 24
-52.15124
 34
0.0
 15
208.129525
 25
-52.15124
 35
0.0
 16
168.412272
 26
-75.082006
 36
0.0
1001
ACAD
1000
DSTYLE
1002
{
1070
   275
1070
     0
1070
   179
1070
     0
1002
}
  0
TEXT
  5
61
100
AcDbEntity
  8
2
370
    50
100
AcDbText
 10
135.00293
 20
-39.996449
 30
0.0
 40
7.0
  1
止水
 72
     5
 11
147.60293
 21
-39.996449
 31
0.0
100
AcDbText
  0
TEXT
  5
62
100
AcDbEntity
  8
2
370
    50
100
AcDbText
 10
137.507767
 20
-93.20874
 30
0.0
 40
7.0
  1
パイプ吐水
 72
     5
 11
171.107767
 21
-93.20874
 31
0.0
100
AcDbText
  0
DIMENSION
  5
63
100
AcDbEntity
  8
2
370
    25
100
AcDbDimension
  2
*D4
 10
114.614922
 20
-30.15124
 30
0.0
 11
106.614922
 21
-41.15124
 31
0.0
 71
     0
 72
     0
 41
0.0
 42
0.0
  3
Standard
100
AcDbAlignedDimension
 13
208.129525
 23
-52.15124
 33
0.0
 14
208.129525
 24
-30.15124
 34
0.0
 50
90.0
100
AcDbRotatedDimension
  0
TEXT
  5
64
100
AcDbEntity
  8
2
370
    50
100
AcDbText
 10
-268.086252
 20
33.512315
 30
0.0
 40
7.0
  1
吐水温度表示
 72
     5
 11
-227.486252
 21
33.512315
 31
0.0
100
AcDbText
  0
LWPOLYLINE
  5
65
100
AcDbEntity
  8
2
370
    25
100
AcDbPolyline
 90
        3
 70
     0
 10
-203.656428
 20
79.900888
 10
-215.138926
 20
36.893045
 10
-224.941141
 20
36.893045
  0
LINE
  5
6A
100
AcDbEntity
  8
2
370
    25
100
AcDbLine
 10
-204.653073
 20
76.16794
 30
0.0
 11
-203.652833
 21
75.900889
 31
0.0
  0
LINE
  5
6B
100
AcDbEntity
  8
2
370
    25
100
AcDbLine
 10
-203.652833
 20
75.900889
 30
0.0
 11
-203.656428
 21
79.900888
 31
0.0
  0
LINE
  5
6C
100
AcDbEntity
  8
2
370
    25
100
AcDbLine
 10
-203.656428
 20
79.900888
 30
0.0
 11
-205.653313
 21
76.43499
 31
0.0
  0
LINE
  5
6D
100
AcDbEntity
  8
2
370
    25
100
AcDbLine
 10
-205.653313
 20
76.43499
 30
0.0
 11
-204.653073
 21
76.16794
 31
0.0
  0
TEXT
  5
6E
100
AcDbEntity
  8
2
370
    50
100
AcDbText
 10
-268.086252
 20
48.512315
 30
0.0
 40
7.0
  1
安全ボタン
 72
     5
 11
-234.486252
 21
48.512315
 31
0.0
100
AcDbText
  0
LWPOLYLINE
  5
6F
100
AcDbEntity
  8
2
370
    25
100
AcDbPolyline
 90
        3
 70
     0
 10
-213.146708
 20
78.874017
 10
-220.547892
 20
51.984227
 10
-233.215342
 20
51.984227
  0
LINE
  5
74
100
AcDbEntity
  8
2
370
    25
100
AcDbLine
 10
-214.17203
 20
75.148843
 30
0.0
 11
-213.173873
 21
74.874109
 31
0.0
  0
LINE
  5
75
100
AcDbEntity
  8
2
370
    25
100
AcDbLine
 10
-213.173873
 20
74.874109
 30
0.0
 11
-213.146708
 21
78.874017
 31
0.0
  0
LINE
  5
76
100
AcDbEntity
  8
2
370
    25
100
AcDbLine
 10
-213.146708
 20
78.874017
 30
0.0
 11
-215.170187
 21
75.423578
 31
0.0
  0
LINE
  5
77
100
AcDbEntity
  8
2
370
    25
100
AcDbLine
 10
-215.170187
 20
75.423578
 30
0.0
 11
-214.17203
 21
75.148843
 31
0.0
  0
POINT
  5
78
100
AcDbEntity
  8
2
370
    50
100
AcDbPoint
 10
-128.173582
 20
131.118119
 30
0.0
  0
POINT
  5
79
100
AcDbEntity
  8
2
370
    50
100
AcDbPoint
 10
-132.060766
 20
126.410854
 30
0.0
  0
POINT
  5
7A
100
AcDbEntity
  8
2
370
    50
100
AcDbPoint
 10
-128.173582
 20
126.118119
 30
0.0
  0
POINT
  5
7B
100
AcDbEntity
  8
2
370
    50
100
AcDbPoint
 10
-128.173582
 20
126.118119
 30
0.0
  0
TEXT
  5
7C
100
AcDbEntity
  8
2
370
    50
100
AcDbText
 10
-239.838894
 20
143.383294
 30
0.0
 40
7.0
  1
逆止弁内蔵
 72
     5
 11
-206.238894
 21
143.383294
 31
0.0
100
AcDbText
  0
TEXT
  5
7D
100
AcDbEntity
  8
2
370
    50
100
AcDbText
 10
-51.477367
 20
143.757989
 30
0.0
 40
7.0
  1
逆止弁内蔵
 72
     5
 11
-17.877367
 21
143.757989
 31
0.0
100
AcDbText
  0
LWPOLYLINE
  5
7E
100
AcDbEntity
  8
2
370
    25
100
AcDbPolyline
 90
        2
 70
     0
 10
-187.701122
 20
154.964761
 10
-203.342449
 20
148.015893
  0
LINE
  5
82
100
AcDbEntity
  8
2
370
    25
100
AcDbLine
 10
-191.232056
 20
153.396096
 30
0.0
 11
-190.811734
 21
152.449985
 31
0.0
  0
LINE
  5
83
100
AcDbEntity
  8
2
370
    25
100
AcDbLine
 10
-190.811734
 20
152.449985
 30
0.0
 11
-187.701122
 21
154.964761
 31
0.0
  0
LINE
  5
84
100
AcDbEntity
  8
2
370
    25
100
AcDbLine
 10
-187.701122
 20
154.964761
 30
0.0
 11
-191.652379
 21
154.342207
 31
0.0
  0
LINE
  5
85
100
AcDbEntity
  8
2
370
    25
100
AcDbLine
 10
-191.652379
 20
154.342207
 30
0.0
 11
-191.232056
 21
153.396096
 31
0.0
  0
LWPOLYLINE
  5
86
100
AcDbEntity
  8
2
370
    25
100
AcDbPolyline
 90
        2
 70
     0
 10
-67.205029
 20
154.385674
 10
-52.722332
 20
149.174081
  0
LINE
  5
8A
100
AcDbEntity
  8
2
370
    25
100
AcDbLine
 10
-63.569545
 20
153.077447
 30
0.0
 11
-63.219006
 21
154.051572
 31
0.0
  0
LINE
  5
8B
100
AcDbEntity
  8
2
370
    25
100
AcDbLine
 10
-63.219006
 20
154.051572
 30
0.0
 11
-67.205029
 21
154.385674
 31
0.0
  0
LINE
  5
8C
100
AcDbEntity
  8
2
370
    25
100
AcDbLine
 10
-67.205029
 20
154.385674
 30
0.0
 11
-63.920083
 21
152.103322
 31
0.0
  0
LINE
  5
8D
100
AcDbEntity
  8
2
370
    25
100
AcDbLine
 10
-63.920083
 20
152.103322
 30
0.0
 11
-63.569545
 21
153.077447
 31
0.0
  0
TEXT
  5
8E
100
AcDbEntity
  8
2
370
    50
100
AcDbText
 10
-44.976978
 20
20.396935
 30
0.0
 40
7.0
  1
及び止水位置の表示
 72
     5
 11
16.623022
 21
20.396935
 31
0.0
100
AcDbText
  0
LWPOLYLINE
  5
8F
100
AcDbEntity
  8
2
370
    25
100
AcDbPolyline
 90
        3
 70
     0
 10
-62.399764
 20
81.49726
 10
-55.682957
 20
31.263973
 10
-46.561947
 20
31.263973
  0
LINE
  5
94
100
AcDbEntity
  8
2
370
    25
100
AcDbLine
 10
-61.887697
 20
77.66764
 30
0.0
 11
-60.861553
 21
77.804848
 31
0.0
  0
LINE
  5
95
100
AcDbEntity
  8
2
370
    25
100
AcDbLine
 10
-60.861553
 20
77.804848
 30
0.0
 11
-62.399764
 21
81.49726
 31
0.0
  0
LINE
  5
96
100
AcDbEntity
  8
2
370
    25
100
AcDbLine
 10
-62.399764
 20
81.49726
 30
0.0
 11
-62.91384
 21
77.530432
 31
0.0
  0
LINE
  5
97
100
AcDbEntity
  8
2
370
    25
100
AcDbLine
 10
-62.91384
 20
77.530432
 30
0.0
 11
-61.887697
 21
77.66764
 31
0.0
  0
TEXT
  5
98
100
AcDbEntity
  8
2
370
    50
100
AcDbText
 10
-272.527781
 20
20.2137
 30
0.0
 40
7.0
  1
４０度位置の表示
 72
     5
 11
-217.927781
 21
20.2137
 31
0.0
100
AcDbText
  0
LWPOLYLINE
  5
99
100
AcDbEntity
  8
2
370
    25
100
AcDbPolyline
 90
        3
 70
     0
 10
-192.826385
 20
90.608315
 10
-207.424026
 20
23.57505
 10
-215.765488
 20
23.57505
  0
LINE
  5
9E
100
AcDbEntity
  8
2
370
    25
100
AcDbLine
 10
-193.648505
 20
86.83309
 30
0.0
 11
-192.636937
 21
86.612803
 31
0.0
  0
LINE
  5
9F
100
AcDbEntity
  8
2
370
    25
100
AcDbLine
 10
-192.636937
 20
86.612803
 30
0.0
 11
-192.826385
 21
90.608315
 31
0.0
  0
LINE
  5
A0
100
AcDbEntity
  8
2
370
    25
100
AcDbLine
 10
-192.826385
 20
90.608315
 30
0.0
 11
-194.660074
 21
87.053376
 31
0.0
  0
LINE
  5
A1
100
AcDbEntity
  8
2
370
    25
100
AcDbLine
 10
-194.660074
 20
87.053376
 30
0.0
 11
-193.648505
 21
86.83309
 31
0.0
  0
POINT
  5
A2
100
AcDbEntity
  8
2
370
    50
100
AcDbPoint
 10
-179.17416
 20
126.245921
 30
0.0
  0
TEXT
  5
A3
100
AcDbEntity
  8
2
370
    50
100
AcDbText
 10
228.956802
 20
-272.482361
 30
0.0
 40
7.0
  1
外観寸法図
 72
     5
 11
262.556802
 21
-272.482361
 31
0.0
100
AcDbText
  0
TEXT
  5
A4
100
AcDbEntity
  8
2
370
    50
100
AcDbText
 10
15.101668
 20
223.584255
 30
0.0
 40
7.0
  1
給水栓ネジ
 72
     5
 11
48.701668
 21
223.584255
 31
0.0
100
AcDbText
  0
TEXT
  5
A5
100
AcDbEntity
  8
2
370
    50
100
AcDbText
 10
15.190531
 20
234.339114
 30
0.0
 40
7.0
  1
ＰＪ１／２
 72
     5
 11
48.790531
 21
234.339114
 31
0.0
100
AcDbText
  0
LWPOLYLINE
  5
A6
100
AcDbEntity
  8
2
370
    25
100
AcDbPolyline
 90
        3
 70
     0
 10
3.428702
 20
216.443279
 10
14.493987
 20
232.092647
 10
48.829266
 20
232.092647
  0
LINE
  5
AB
100
AcDbEntity
  8
2
370
    25
100
AcDbLine
 10
5.659347
 20
219.598026
 30
0.0
 11
4.814035
 21
220.195726
 31
0.0
  0
LINE
  5
AC
100
AcDbEntity
  8
2
370
    25
100
AcDbLine
 10
4.814035
 20
220.195726
 30
0.0
 11
3.428702
 21
216.443279
 31
0.0
  0
LINE
  5
AD
100
AcDbEntity
  8
2
370
    25
100
AcDbLine
 10
3.428702
 20
216.443279
 30
0.0
 11
6.504659
 21
219.000327
 31
0.0
  0
LINE
  5
AE
100
AcDbEntity
  8
2
370
    25
100
AcDbLine
 10
6.504659
 20
219.000327
 30
0.0
 11
5.659347
 21
219.598026
 31
0.0
  0
LINE
  5
AF
100
AcDbEntity
  8
2
370
    50
100
AcDbLine
 10
-63.473004
 20
-54.021335
 30
0.0
 11
-63.473004
 21
-57.021335
 31
0.0
  0
ARC
  5
B0
100
AcDbEntity
  8
2
370
    50
100
AcDbCircle
 10
-63.773004
 20
-57.021335
 30
0.0
 40
0.3
100
AcDbArc
 50
180.0
 51
360.0
  0
LINE
  5
B1
100
AcDbEntity
  8
2
370
    50
100
AcDbLine
 10
-64.073004
 20
-54.021335
 30
0.0
 11
-64.073004
 21
-57.021335
 31
0.0
  0
ARC
  5
B2
100
AcDbEntity
  8
2
370
    50
100
AcDbCircle
 10
-63.773004
 20
-54.021335
 30
0.0
 40
0.3
100
AcDbArc
 50
360.0
 51
180.0
  0
LINE
  5
B3
100
AcDbEntity
  8
2
370
    50
100
AcDbLine
 10
-65.673004
 20
-54.021335
 30
0.0
 11
-65.673004
 21
-57.021335
 31
0.0
  0
ARC
  5
B4
100
AcDbEntity
  8
2
370
    50
100
AcDbCircle
 10
-65.373004
 20
-57.021335
 30
0.0
 40
0.3
100
AcDbArc
 50
180.0
 51
360.0
  0
LINE
  5
B5
100
AcDbEntity
  8
2
370
    50
100
AcDbLine
 10
-65.073004
 20
-54.021335
 30
0.0
 11
-65.073004
 21
-57.021335
 31
0.0
  0
ARC
  5
B6
100
AcDbEntity
  8
2
370
    50
100
AcDbCircle
 10
-65.373004
 20
-54.021335
 30
0.0
 40
0.3
100
AcDbArc
 50
0.0
 51
180.0
  0
LINE
  5
B7
100
AcDbEntity
  8
2
370
    50
100
AcDbLine
 10
-62.073004
 20
-51.55124
 30
0.0
 11
-62.073004
 21
-52.75124
 31
0.0
  0
LINE
  5
B8
100
AcDbEntity
  8
2
370
    50
100
AcDbLine
 10
-67.073004
 20
-51.55124
 30
0.0
 11
-67.073004
 21
-52.75124
 31
0.0
  0
LINE
  5
B9
100
AcDbEntity
  8
2
370
    50
100
AcDbLine
 10
-62.073004
 20
-51.55124
 30
0.0
 11
-67.073004
 21
-51.55124
 31
0.0
  0
LINE
  5
BA
100
AcDbEntity
  8
2
370
    50
100
AcDbLine
 10
-62.073004
 20
-52.75124
 30
0.0
 11
-67.073004
 21
-52.75124
 31
0.0
  0
CIRCLE
  5
BB
100
AcDbEntity
  8
2
370
    50
100
AcDbCircle
 10
-64.573004
 20
-46.457221
 30
0.0
 40
1.3
  0
CIRCLE
  5
BC
100
AcDbEntity
  8
2
370
    50
100
AcDbCircle
 10
-64.573004
 20
-46.457221
 30
0.0
 40
1.0
  0
HATCH
  5
BD
100
AcDbEntity
  8
2
370
    25
100
AcDbHatch
 10
0.0
 20
0.0
 30
0.0
210
0.0
220
0.0
230
1.0
  2
_U
 70
     0
 71
     1
 91
        2
 92
        1
 93
        1
 72
     2
 10
-64.573003999999997
 20
-46.457220999999997
 40
1.3
 50
0.0
 51
360.0
 73
     1
 97
        1
330
0
 92
        0
 93
        1
 72
     2
 10
-64.573003999999997
 20
-46.457220999999997
 40
1.0
 50
0.0
 51
360.0
 73
     1
 97
        1
330
0
 75
     0
 76
     0
 52
45.0
 41
1.0
 77
     0
 78
     1
 53
45.0
 43
0.0
 44
0.0
 45
-0.070711
 46
0.070711
 79
     0
 98
        1
 10
0.0
 20
0.0
  0
HATCH
  5
BE
100
AcDbEntity
  8
2
370
    25
100
AcDbHatch
 10
0.0
 20
0.0
 30
0.0
210
0.0
220
0.0
230
1.0
  2
_U
 70
     0
 71
     1
 91
        1
 92
        1
 93
        4
 72
     1
 10
-62.073003999999997
 20
-51.55124
 11
-67.073003999999997
 21
-51.55124
 72
     1
 10
-67.073003999999997
 20
-51.55124
 11
-67.073003999999997
 21
-52.751240000000003
 72
     1
 10
-67.073003999999997
 20
-52.751240000000003
 11
-62.073003999999997
 21
-52.751240000000003
 72
     1
 10
-62.073003999999997
 20
-52.751240000000003
 11
-62.073003999999997
 21
-51.55124
 97
        4
330
0
330
0
330
0
330
0
 75
     0
 76
     0
 52
45.0
 41
1.0
 77
     0
 78
     1
 53
45.0
 43
0.0
 44
0.0
 45
-0.070711
 46
0.070711
 79
     0
 98
        1
 10
0.0
 20
0.0
  0
LINE
  5
BF
100
AcDbEntity
  8
2
370
    25
100
AcDbLine
 10
-65.673004
 20
-56.121335
 30
0.0
 11
-65.073004
 21
-55.521335
 31
0.0
  0
LINE
  5
C0
100
AcDbEntity
  8
2
370
    25
100
AcDbLine
 10
-65.673004
 20
-56.262756
 30
0.0
 11
-65.073004
 21
-55.662756
 31
0.0
  0
LINE
  5
C1
100
AcDbEntity
  8
2
370
    25
100
AcDbLine
 10
-65.673004
 20
-56.404178
 30
0.0
 11
-65.073004
 21
-55.804178
 31
0.0
  0
LINE
  5
C2
100
AcDbEntity
  8
2
370
    25
100
AcDbLine
 10
-65.673004
 20
-56.545599
 30
0.0
 11
-65.073004
 21
-55.945599
 31
0.0
  0
LINE
  5
C3
100
AcDbEntity
  8
2
370
    25
100
AcDbLine
 10
-65.673004
 20
-56.68702
 30
0.0
 11
-65.073004
 21
-56.08702
 31
0.0
  0
LINE
  5
C4
100
AcDbEntity
  8
2
370
    25
100
AcDbLine
 10
-65.673004
 20
-56.828442
 30
0.0
 11
-65.073004
 21
-56.228442
 31
0.0
  0
LINE
  5
C5
100
AcDbEntity
  8
2
370
    25
100
AcDbLine
 10
-65.673004
 20
-56.969863
 30
0.0
 11
-65.073004
 21
-56.369863
 31
0.0
  0
LINE
  5
C6
100
AcDbEntity
  8
2
370
    25
100
AcDbLine
 10
-65.662338
 20
-57.100618
 30
0.0
 11
-65.073004
 21
-56.511284
 31
0.0
  0
LINE
  5
C7
100
AcDbEntity
  8
2
370
    25
100
AcDbLine
 10
-65.616657
 20
-57.196359
 30
0.0
 11
-65.073004
 21
-56.652706
 31
0.0
  0
LINE
  5
C8
100
AcDbEntity
  8
2
370
    25
100
AcDbLine
 10
-65.545594
 20
-57.266717
 30
0.0
 11
-65.073004
 21
-56.794127
 31
0.0
  0
LINE
  5
C9
100
AcDbEntity
  8
2
370
    25
100
AcDbLine
 10
-65.449004
 20
-57.311549
 30
0.0
 11
-65.073004
 21
-56.935548
 31
0.0
  0
LINE
  5
CA
100
AcDbEntity
  8
2
370
    25
100
AcDbLine
 10
-65.310862
 20
-57.314828
 30
0.0
 11
-65.07951
 21
-57.083476
 31
0.0
  0
LINE
  5
CB
100
AcDbEntity
  8
2
370
    25
100
AcDbLine
 10
-65.673004
 20
-55.979913
 30
0.0
 11
-65.073004
 21
-55.379913
 31
0.0
  0
LINE
  5
CC
100
AcDbEntity
  8
2
370
    25
100
AcDbLine
 10
-65.673004
 20
-55.838492
 30
0.0
 11
-65.073004
 21
-55.238492
 31
0.0
  0
LINE
  5
CD
100
AcDbEntity
  8
2
370
    25
100
AcDbLine
 10
-65.673004
 20
-55.697071
 30
0.0
 11
-65.073004
 21
-55.097071
 31
0.0
  0
LINE
  5
CE
100
AcDbEntity
  8
2
370
    25
100
AcDbLine
 10
-65.673004
 20
-55.555649
 30
0.0
 11
-65.073004
 21
-54.955649
 31
0.0
  0
LINE
  5
CF
100
AcDbEntity
  8
2
370
    25
100
AcDbLine
 10
-65.673004
 20
-55.414228
 30
0.0
 11
-65.073004
 21
-54.814228
 31
0.0
  0
LINE
  5
D0
100
AcDbEntity
  8
2
370
    25
100
AcDbLine
 10
-65.673004
 20
-55.272807
 30
0.0
 11
-65.073004
 21
-54.672807
 31
0.0
  0
LINE
  5
D1
100
AcDbEntity
  8
2
370
    25
100
AcDbLine
 10
-65.673004
 20
-55.131385
 30
0.0
 11
-65.073004
 21
-54.531385
 31
0.0
  0
LINE
  5
D2
100
AcDbEntity
  8
2
370
    25
100
AcDbLine
 10
-65.673004
 20
-54.989964
 30
0.0
 11
-65.073004
 21
-54.389964
 31
0.0
  0
LINE
  5
D3
100
AcDbEntity
  8
2
370
    25
100
AcDbLine
 10
-65.673004
 20
-54.848543
 30
0.0
 11
-65.073004
 21
-54.248543
 31
0.0
  0
LINE
  5
D4
100
AcDbEntity
  8
2
370
    25
100
AcDbLine
 10
-65.673004
 20
-54.707121
 30
0.0
 11
-65.073004
 21
-54.107121
 31
0.0
  0
LINE
  5
D5
100
AcDbEntity
  8
2
370
    25
100
AcDbLine
 10
-65.07741
 20
-53.970106
 30
0.0
 11
-65.673004
 21
-54.5657
 31
0.0
  0
LINE
  5
D6
100
AcDbEntity
  8
2
370
    25
100
AcDbLine
 10
-65.115739
 20
-53.867014
 30
0.0
 11
-65.673004
 21
-54.424279
 31
0.0
  0
LINE
  5
D7
100
AcDbEntity
  8
2
370
    25
100
AcDbLine
 10
-65.180985
 20
-53.790838
 30
0.0
 11
-65.673004
 21
-54.282857
 31
0.0
  0
LINE
  5
D8
100
AcDbEntity
  8
2
370
    25
100
AcDbLine
 10
-65.270836
 20
-53.739268
 30
0.0
 11
-65.673004
 21
-54.141436
 31
0.0
  0
LINE
  5
D9
100
AcDbEntity
  8
2
370
    25
100
AcDbLine
 10
-65.672186
 20
-53.999197
 30
0.0
 11
-65.395142
 21
-53.722153
 31
0.0
  0
HATCH
  5
DA
100
AcDbEntity
  8
2
370
    25
100
AcDbHatch
 10
0.0
 20
0.0
 30
0.0
210
0.0
220
0.0
230
1.0
  2
_U
 70
     0
 71
     1
 91
        1
 92
        1
 93
        4
 72
     1
 10
-64.073003999999997
 20
-54.021335000000001
 11
-64.073003999999997
 21
-57.021335000000001
 72
     2
 10
-63.773004
 20
-57.021335000000001
 40
0.3
 50
180.0
 51
0.0
 73
     1
 72
     1
 10
-63.473004000000003
 20
-57.021335000000001
 11
-63.473004000000003
 21
-54.021335000000001
 72
     2
 10
-63.773004
 20
-54.021335000000001
 40
0.3
 50
0.0
 51
180.0
 73
     1
 97
        4
330
0
330
0
330
0
330
0
 75
     0
 76
     0
 52
45.0
 41
1.0
 77
     0
 78
     1
 53
45.0
 43
0.0
 44
0.0
 45
-0.070711
 46
0.070711
 79
     0
 98
        1
 10
0.0
 20
0.0
  0
CIRCLE
  5
DB
100
AcDbEntity
  8
2
370
    50
100
AcDbCircle
 10
-192.67416
 20
-46.457221
 30
0.0
 40
1.3
  0
CIRCLE
  5
DC
100
AcDbEntity
  8
2
370
    50
100
AcDbCircle
 10
-192.67416
 20
-46.457221
 30
0.0
 40
1.0
  0
HATCH
  5
DD
100
AcDbEntity
  8
2
370
    25
100
AcDbHatch
 10
0.0
 20
0.0
 30
0.0
210
0.0
220
0.0
230
1.0
  2
_U
 70
     0
 71
     1
 91
        2
 92
        1
 93
        1
 72
     2
 10
-192.67416
 20
-46.457220999999997
 40
1.3
 50
0.0
 51
360.0
 73
     1
 97
        1
330
0
 92
        0
 93
        1
 72
     2
 10
-192.67416
 20
-46.457220999999997
 40
1.0
 50
0.0
 51
360.0
 73
     1
 97
        1
330
0
 75
     0
 76
     0
 52
45.0
 41
1.0
 77
     0
 78
     1
 53
45.0
 43
0.0
 44
0.0
 45
-0.070711
 46
0.070711
 79
     0
 98
        1
 10
0.0
 20
0.0
  0
CIRCLE
  5
DE
100
AcDbEntity
  8
2
370
    50
100
AcDbCircle
 10
-192.67416
 20
92.235043
 30
0.0
 40
1.3
  0
CIRCLE
  5
DF
100
AcDbEntity
  8
2
370
    50
100
AcDbCircle
 10
-192.67416
 20
92.235043
 30
0.0
 40
1.0
  0
HATCH
  5
E0
100
AcDbEntity
  8
2
370
    25
100
AcDbHatch
 10
0.0
 20
0.0
 30
0.0
210
0.0
220
0.0
230
1.0
  2
_U
 70
     0
 71
     1
 91
        2
 92
        1
 93
        1
 72
     2
 10
-192.67416
 20
92.235043000000005
 40
1.3
 50
0.0
 51
360.0
 73
     1
 97
        1
330
0
 92
        0
 93
        1
 72
     2
 10
-192.67416
 20
92.235043000000005
 40
1.0
 50
0.0
 51
360.0
 73
     1
 97
        1
330
0
 75
     0
 76
     0
 52
45.0
 41
1.0
 77
     0
 78
     1
 53
45.0
 43
0.0
 44
0.0
 45
-0.070711
 46
0.070711
 79
     0
 98
        1
 10
0.0
 20
0.0
  0
LINE
  5
E1
100
AcDbEntity
  8
2
370
    50
100
AcDbLine
 10
-63.473004
 20
84.670929
 30
0.0
 11
-63.473004
 21
81.670929
 31
0.0
  0
ARC
  5
E2
100
AcDbEntity
  8
2
370
    50
100
AcDbCircle
 10
-63.773004
 20
81.670929
 30
0.0
 40
0.3
100
AcDbArc
 50
180.0
 51
360.0
  0
LINE
  5
E3
100
AcDbEntity
  8
2
370
    50
100
AcDbLine
 10
-64.073004
 20
84.670929
 30
0.0
 11
-64.073004
 21
81.670929
 31
0.0
  0
ARC
  5
E4
100
AcDbEntity
  8
2
370
    50
100
AcDbCircle
 10
-63.773004
 20
84.670929
 30
0.0
 40
0.3
100
AcDbArc
 50
360.0
 51
180.0
  0
LINE
  5
E5
100
AcDbEntity
  8
2
370
    50
100
AcDbLine
 10
-65.673004
 20
84.670929
 30
0.0
 11
-65.673004
 21
81.670929
 31
0.0
  0
ARC
  5
E6
100
AcDbEntity
  8
2
370
    50
100
AcDbCircle
 10
-65.373004
 20
81.670929
 30
0.0
 40
0.3
100
AcDbArc
 50
180.0
 51
360.0
  0
LINE
  5
E7
100
AcDbEntity
  8
2
370
    50
100
AcDbLine
 10
-65.073004
 20
84.670929
 30
0.0
 11
-65.073004
 21
81.670929
 31
0.0
  0
ARC
  5
E8
100
AcDbEntity
  8
2
370
    50
100
AcDbCircle
 10
-65.373004
 20
84.670929
 30
0.0
 40
0.3
100
AcDbArc
 50
0.0
 51
180.0
  0
LINE
  5
E9
100
AcDbEntity
  8
2
370
    50
100
AcDbLine
 10
-62.073004
 20
87.141024
 30
0.0
 11
-62.073004
 21
85.941024
 31
0.0
  0
LINE
  5
EA
100
AcDbEntity
  8
2
370
    50
100
AcDbLine
 10
-67.073004
 20
87.141024
 30
0.0
 11
-67.073004
 21
85.941024
 31
0.0
  0
LINE
  5
EB
100
AcDbEntity
  8
2
370
    50
100
AcDbLine
 10
-62.073004
 20
87.141024
 30
0.0
 11
-67.073004
 21
87.141024
 31
0.0
  0
LINE
  5
EC
100
AcDbEntity
  8
2
370
    50
100
AcDbLine
 10
-62.073004
 20
85.941024
 30
0.0
 11
-67.073004
 21
85.941024
 31
0.0
  0
CIRCLE
  5
ED
100
AcDbEntity
  8
2
370
    50
100
AcDbCircle
 10
-64.573004
 20
92.235043
 30
0.0
 40
1.3
  0
CIRCLE
  5
EE
100
AcDbEntity
  8
2
370
    50
100
AcDbCircle
 10
-64.573004
 20
92.235043
 30
0.0
 40
1.0
  0
HATCH
  5
EF
100
AcDbEntity
  8
2
370
    25
100
AcDbHatch
 10
0.0
 20
0.0
 30
0.0
210
0.0
220
0.0
230
1.0
  2
_U
 70
     0
 71
     1
 91
        2
 92
        1
 93
        1
 72
     2
 10
-64.573003999999997
 20
92.235043000000005
 40
1.3
 50
0.0
 51
360.0
 73
     1
 97
        1
330
0
 92
        0
 93
        1
 72
     2
 10
-64.573003999999997
 20
92.235043000000005
 40
1.0
 50
0.0
 51
360.0
 73
     1
 97
        1
330
0
 75
     0
 76
     0
 52
45.0
 41
1.0
 77
     0
 78
     1
 53
45.0
 43
0.0
 44
0.0
 45
-0.070711
 46
0.070711
 79
     0
 98
        1
 10
0.0
 20
0.0
  0
HATCH
  5
F0
100
AcDbEntity
  8
2
370
    25
100
AcDbHatch
 10
0.0
 20
0.0
 30
0.0
210
0.0
220
0.0
230
1.0
  2
_U
 70
     0
 71
     1
 91
        1
 92
        1
 93
        4
 72
     1
 10
-62.073003999999997
 20
87.141024000000002
 11
-67.073003999999997
 21
87.141024000000002
 72
     1
 10
-67.073003999999997
 20
87.141024000000002
 11
-67.073003999999997
 21
85.941023999999999
 72
     1
 10
-67.073003999999997
 20
85.941023999999999
 11
-62.073003999999997
 21
85.941023999999999
 72
     1
 10
-62.073003999999997
 20
85.941023999999999
 11
-62.073003999999997
 21
87.141024000000002
 97
        4
330
0
330
0
330
0
330
0
 75
     0
 76
     0
 52
45.0
 41
1.0
 77
     0
 78
     1
 53
45.0
 43
0.0
 44
0.0
 45
-0.070711
 46
0.070711
 79
     0
 98
        1
 10
0.0
 20
0.0
  0
LINE
  5
F1
100
AcDbEntity
  8
2
370
    25
100
AcDbLine
 10
-65.673004
 20
82.570929
 30
0.0
 11
-65.073004
 21
83.170929
 31
0.0
  0
LINE
  5
F2
100
AcDbEntity
  8
2
370
    25
100
AcDbLine
 10
-65.673004
 20
82.429507
 30
0.0
 11
-65.073004
 21
83.029507
 31
0.0
  0
LINE
  5
F3
100
AcDbEntity
  8
2
370
    25
100
AcDbLine
 10
-65.673004
 20
82.288086
 30
0.0
 11
-65.073004
 21
82.888086
 31
0.0
  0
LINE
  5
F4
100
AcDbEntity
  8
2
370
    25
100
AcDbLine
 10
-65.673004
 20
82.146665
 30
0.0
 11
-65.073004
 21
82.746665
 31
0.0
  0
LINE
  5
F5
100
AcDbEntity
  8
2
370
    25
100
AcDbLine
 10
-65.673004
 20
82.005243
 30
0.0
 11
-65.073004
 21
82.605243
 31
0.0
  0
LINE
  5
F6
100
AcDbEntity
  8
2
370
    25
100
AcDbLine
 10
-65.673004
 20
81.863822
 30
0.0
 11
-65.073004
 21
82.463822
 31
0.0
  0
LINE
  5
F7
100
AcDbEntity
  8
2
370
    25
100
AcDbLine
 10
-65.673004
 20
81.722401
 30
0.0
 11
-65.073004
 21
82.322401
 31
0.0
  0
LINE
  5
F8
100
AcDbEntity
  8
2
370
    25
100
AcDbLine
 10
-65.662338
 20
81.591645
 30
0.0
 11
-65.073004
 21
82.180979
 31
0.0
  0
LINE
  5
F9
100
AcDbEntity
  8
2
370
    25
100
AcDbLine
 10
-65.616657
 20
81.495905
 30
0.0
 11
-65.073004
 21
82.039558
 31
0.0
  0
LINE
  5
FA
100
AcDbEntity
  8
2
370
    25
100
AcDbLine
 10
-65.545594
 20
81.425546
 30
0.0
 11
-65.073004
 21
81.898137
 31
0.0
  0
LINE
  5
FB
100
AcDbEntity
  8
2
370
    25
100
AcDbLine
 10
-65.449004
 20
81.380715
 30
0.0
 11
-65.073004
 21
81.756715
 31
0.0
  0
LINE
  5
FC
100
AcDbEntity
  8
2
370
    25
100
AcDbLine
 10
-65.310862
 20
81.377435
 30
0.0
 11
-65.07951
 21
81.608787
 31
0.0
  0
LINE
  5
FD
100
AcDbEntity
  8
2
370
    25
100
AcDbLine
 10
-65.673004
 20
82.71235
 30
0.0
 11
-65.073004
 21
83.31235
 31
0.0
  0
LINE
  5
FE
100
AcDbEntity
  8
2
370
    25
100
AcDbLine
 10
-65.673004
 20
82.853771
 30
0.0
 11
-65.073004
 21
83.453771
 31
0.0
  0
LINE
  5
FF
100
AcDbEntity
  8
2
370
    25
100
AcDbLine
 10
-65.673004
 20
82.995193
 30
0.0
 11
-65.073004
 21
83.595193
 31
0.0
  0
LINE
  5
100
100
AcDbEntity
  8
2
370
    25
100
AcDbLine
 10
-65.673004
 20
83.136614
 30
0.0
 11
-65.073004
 21
83.736614
 31
0.0
  0
LINE
  5
101
100
AcDbEntity
  8
2
370
    25
100
AcDbLine
 10
-65.673004
 20
83.278036
 30
0.0
 11
-65.073004
 21
83.878036
 31
0.0
  0
LINE
  5
102
100
AcDbEntity
  8
2
370
    25
100
AcDbLine
 10
-65.673004
 20
83.419457
 30
0.0
 11
-65.073004
 21
84.019457
 31
0.0
  0
LINE
  5
103
100
AcDbEntity
  8
2
370
    25
100
AcDbLine
 10
-65.673004
 20
83.560878
 30
0.0
 11
-65.073004
 21
84.160878
 31
0.0
  0
LINE
  5
104
100
AcDbEntity
  8
2
370
    25
100
AcDbLine
 10
-65.673004
 20
83.7023
 30
0.0
 11
-65.073004
 21
84.3023
 31
0.0
  0
LINE
  5
105
100
AcDbEntity
  8
2
370
    25
100
AcDbLine
 10
-65.673004
 20
83.843721
 30
0.0
 11
-65.073004
 21
84.443721
 31
0.0
  0
LINE
  5
106
100
AcDbEntity
  8
2
370
    25
100
AcDbLine
 10
-65.673004
 20
83.985142
 30
0.0
 11
-65.073004
 21
84.585142
 31
0.0
  0
LINE
  5
107
100
AcDbEntity
  8
2
370
    25
100
AcDbLine
 10
-65.07741
 20
84.722157
 30
0.0
 11
-65.673004
 21
84.126564
 31
0.0
  0
LINE
  5
108
100
AcDbEntity
  8
2
370
    25
100
AcDbLine
 10
-65.115739
 20
84.82525
 30
0.0
 11
-65.673004
 21
84.267985
 31
0.0
  0
LINE
  5
109
100
AcDbEntity
  8
2
370
    25
100
AcDbLine
 10
-65.180985
 20
84.901425
 30
0.0
 11
-65.673004
 21
84.409406
 31
0.0
  0
LINE
  5
10A
100
AcDbEntity
  8
2
370
    25
100
AcDbLine
 10
-65.270836
 20
84.952996
 30
0.0
 11
-65.673004
 21
84.550828
 31
0.0
  0
LINE
  5
10B
100
AcDbEntity
  8
2
370
    25
100
AcDbLine
 10
-65.672186
 20
84.693067
 30
0.0
 11
-65.395142
 21
84.970111
 31
0.0
  0
HATCH
  5
10C
100
AcDbEntity
  8
2
370
    25
100
AcDbHatch
 10
0.0
 20
0.0
 30
0.0
210
0.0
220
0.0
230
1.0
  2
_U
 70
     0
 71
     1
 91
        1
 92
        1
 93
        4
 72
     1
 10
-64.073003999999997
 20
84.670929000000001
 11
-64.073003999999997
 21
81.670929000000001
 72
     2
 10
-63.773004
 20
81.670929000000001
 40
0.3
 50
180.0
 51
0.0
 73
     1
 72
     1
 10
-63.473004000000003
 20
81.670929000000001
 11
-63.473004000000003
 21
84.670929000000001
 72
     2
 10
-63.773004
 20
84.670929000000001
 40
0.3
 50
0.0
 51
180.0
 73
     1
 97
        4
330
0
330
0
330
0
330
0
 75
     0
 76
     0
 52
45.0
 41
1.0
 77
     0
 78
     1
 53
45.0
 43
0.0
 44
0.0
 45
-0.070711
 46
0.070711
 79
     0
 98
        1
 10
0.0
 20
0.0
  0
DIMENSION
  5
10D
100
AcDbEntity
  8
2
370
    25
100
AcDbDimension
  2
*D5
 10
227.129525
 20
-188.844604
 30
0.0
 11
142.129678
 21
-184.344604
 31
0.0
 71
     0
 72
     0
 41
0.0
 42
0.0
  3
Standard
100
AcDbAlignedDimension
 13
57.129831
 23
-123.139586
 33
0.0
 14
227.129525
 24
-117.41066
 34
0.0
100
AcDbRotatedDimension
  0
DIMENSION
  5
10E
100
AcDbEntity
  8
2
370
    25
100
AcDbDimension
  2
*D6
 10
25.355888
 20
-52.15124
 30
0.0
 11
17.355888
 21
-83.65124
 31
0.0
 71
     0
 72
     0
 41
0.0
 42
0.0
  3
Standard
100
AcDbAlignedDimension
 13
45.129831
 23
-115.15124
 33
0.0
 14
208.129525
 24
-52.15124
 34
0.0
 50
90.0
100
AcDbRotatedDimension
  0
TEXT
  5
10F
100
AcDbEntity
  8
2
370
    50
100
AcDbText
 10
-44.976978
 20
28.396935
 30
0.0
 40
7.0
  1
パイプ吐水
 72
     5
 11
-11.376978
 21
28.396935
 31
0.0
100
AcDbText
  0
DIMENSION
  5
110
100
AcDbEntity
  8
2
370
    25
100
AcDbDimension
  2
*D7
 10
-225.173582
 20
244.424164
 30
0.0
 11
-248.173582
 21
248.924164
 31
0.0
 71
     0
 72
     0
 41
0.0
 42
0.0
  3
Standard
100
AcDbAlignedDimension
 13
-271.173582
 23
207.917861
 33
0.0
 14
-225.173582
 24
207.917861
 34
0.0
100
AcDbRotatedDimension
  0
DIMENSION
  5
111
100
AcDbEntity
  8
2
370
    25
100
AcDbDimension
  2
*D8
 10
313.764033
 20
-172.954102
 30
0.0
 11
260.946779
 21
-168.454102
 31
0.0
 71
     0
 72
     0
 41
0.0
 42
0.0
  3
Standard
100
AcDbAlignedDimension
 13
208.129525
 23
-52.15124
 33
0.0
 14
313.764033
 24
-124.61724
 34
0.0
100
AcDbRotatedDimension
  0
DIMENSION
  5
112
100
AcDbEntity
  8
2
370
    25
100
AcDbDimension
  2
*D9
 10
334.140033
 20
-172.954102
 30
0.0
 11
323.952033
 21
-168.454102
 31
0.0
 71
     0
 72
     0
 41
0.0
 42
0.0
  3
Standard
100
AcDbAlignedDimension
 13
313.764033
 23
-124.61724
 33
0.0
 14
334.140033
 24
-111.248835
 34
0.0
100
AcDbRotatedDimension
  0
TEXT
  5
113
100
AcDbEntity
  8
2
370
    50
100
AcDbText
 10
-167.473851
 20
-190.574722
 30
0.0
 40
7.0
  1
２００（ＭＡＸ２３５）
 72
     5
 11
-91.873851
 21
-190.574722
 31
0.0
100
AcDbText
  0
DIMENSION
  5
114
100
AcDbEntity
  8
2
370
    25
100
AcDbDimension
  2
*D10
 10
-29.476376
 20
-191.574722
 30
0.0
 11
-128.973851
 21
-189.574722
 31
0.0
 71
     0
 72
     0
 41
0.0
 42
0.0
  3
Standard
100
AcDbAlignedDimension
 13
-228.471326
 23
-99.648735
 33
0.0
 14
-29.476376
 24
-99.648735
 34
0.0
100
AcDbRotatedDimension
  0
TEXT
  5
115
100
AcDbEntity
  8
2
370
    50
100
AcDbText
 10
66.43969
 20
-236.202682
 30
0.0
 40
7.0
  1
ＭＢ７１２ＭＭＢＫ
 72
     5
 11
128.03969
 21
-236.202682
 31
0.0
100
AcDbText
  0
DIMENSION
  5
116
100
AcDbEntity
  8
2
370
    25
100
AcDbDimension
  2
*D11
 10
-78.173582
 20
244.424164
 30
0.0
 11
-128.173582
 21
248.924164
 31
0.0
 71
     0
 72
     0
 41
0.0
 42
0.0
  3
Standard
100
AcDbAlignedDimension
 13
-178.173582
 23
190.609116
 33
0.0
 14
-78.173582
 24
190.609116
 34
0.0
100
AcDbRotatedDimension
  0
DIMENSION
  5
117
100
AcDbEntity
  8
2
370
    25
100
AcDbDimension
  2
*D12
 10
-8.141971
 20
244.424164
 30
0.0
 11
-43.157776
 21
248.924164
 31
0.0
 71
     0
 72
     0
 41
0.0
 42
0.0
  3
Standard
100
AcDbAlignedDimension
 13
-78.173582
 23
190.609116
 33
0.0
 14
-8.141971
 24
233.196618
 34
0.0
100
AcDbRotatedDimension
  0
TEXT
  5
118
100
AcDbEntity
  8
2
370
    50
100
AcDbText
 10
67.755127
 20
-226.683212
 30
0.0
 40
6.0
  1
壁付きサーモスタット湯水混合水栓
 41
0.8
 72
     5
 11
143.595127
 21
-226.683212
 31
0.0
100
AcDbText
  0
LINE
  5
119
100
AcDbEntity
  8
3
370
    50
100
AcDbLine
 10
-141.173582
 20
131.118119
 30
0.0
 11
-141.173582
 21
144.918119
 31
0.0
  0
LINE
  5
11A
100
AcDbEntity
  8
3
370
    50
100
AcDbLine
 10
-115.173582
 20
131.118119
 30
0.0
 11
-115.173582
 21
144.918119
 31
0.0
  0
LINE
  5
11B
100
AcDbEntity
  8
3
370
    50
100
AcDbLine
 10
-115.173582
 20
131.118119
 30
0.0
 11
-65.673582
 21
131.118119
 31
0.0
  0
LINE
  5
11C
100
AcDbEntity
  8
3
370
    50
100
AcDbLine
 10
-198.17416
 20
131.118119
 30
0.0
 11
-190.673582
 21
131.118119
 31
0.0
  0
LINE
  5
11D
100
AcDbEntity
  8
3
370
    50
100
AcDbLine
 10
-190.673582
 20
131.118119
 30
0.0
 11
-115.173582
 21
131.118119
 31
0.0
  0
LINE
  5
11E
100
AcDbEntity
  8
3
370
    50
100
AcDbLine
 10
-178.173582
 20
137.118119
 30
0.0
 11
-190.373582
 21
137.118119
 31
0.0
  0
LINE
  5
11F
100
AcDbEntity
  8
3
370
    50
100
AcDbLine
 10
-165.673582
 20
131.118119
 30
0.0
 11
-165.673582
 21
136.818119
 31
0.0
  0
LINE
  5
120
100
AcDbEntity
  8
3
370
    50
100
AcDbLine
 10
-190.673582
 20
131.118119
 30
0.0
 11
-190.673582
 21
136.818119
 31
0.0
  0
LINE
  5
121
100
AcDbEntity
  8
3
370
    50
100
AcDbLine
 10
-190.373582
 20
137.118119
 30
0.0
 11
-190.673582
 21
136.818119
 31
0.0
  0
LINE
  5
122
100
AcDbEntity
  8
3
370
    50
100
AcDbLine
 10
-165.673582
 20
136.818119
 30
0.0
 11
-165.973582
 21
137.118119
 31
0.0
  0
LINE
  5
123
100
AcDbEntity
  8
3
370
    50
100
AcDbLine
 10
-165.973582
 20
137.118119
 30
0.0
 11
-178.173582
 21
137.118119
 31
0.0
  0
LINE
  5
124
100
AcDbEntity
  8
3
370
    50
100
AcDbLine
 10
-141.173582
 20
144.918119
 30
0.0
 11
-140.673582
 21
145.418119
 31
0.0
  0
LINE
  5
125
100
AcDbEntity
  8
3
370
    50
100
AcDbLine
 10
-115.673582
 20
145.418119
 30
0.0
 11
-115.173582
 21
144.918119
 31
0.0
  0
LINE
  5
126
100
AcDbEntity
  8
3
370
    50
100
AcDbLine
 10
-140.673582
 20
145.418119
 30
0.0
 11
-139.673582
 21
145.418119
 31
0.0
  0
LINE
  5
127
100
AcDbEntity
  8
3
370
    50
100
AcDbLine
 10
-116.673582
 20
145.418119
 30
0.0
 11
-115.673582
 21
145.418119
 31
0.0
  0
LINE
  5
128
100
AcDbEntity
  8
3
370
    50
100
AcDbLine
 10
-198.17416
 20
79.118119
 30
0.0
 11
-58.173004
 21
79.118119
 31
0.0
  0
LINE
  5
129
100
AcDbEntity
  8
3
370
    50
100
AcDbLine
 10
-198.17416
 20
79.118119
 30
0.0
 11
-198.17416
 21
101.118119
 31
0.0
  0
LINE
  5
12A
100
AcDbEntity
  8
3
370
    50
100
AcDbLine
 10
-198.17416
 20
101.118119
 30
0.0
 11
-198.17416
 21
131.118119
 31
0.0
  0
LINE
  5
12B
100
AcDbEntity
  8
3
370
    50
100
AcDbLine
 10
-65.673582
 20
131.118119
 30
0.0
 11
-58.173004
 21
131.118119
 31
0.0
  0
LINE
  5
12C
100
AcDbEntity
  8
3
370
    50
100
AcDbLine
 10
-90.673582
 20
131.118119
 30
0.0
 11
-90.673582
 21
136.818119
 31
0.0
  0
LINE
  5
12D
100
AcDbEntity
  8
3
370
    50
100
AcDbLine
 10
-58.173004
 20
79.118119
 30
0.0
 11
-58.173004
 21
131.118119
 31
0.0
  0
LINE
  5
12E
100
AcDbEntity
  8
3
370
    50
100
AcDbLine
 10
-65.973582
 20
137.118119
 30
0.0
 11
-78.173582
 21
137.118119
 31
0.0
  0
LINE
  5
12F
100
AcDbEntity
  8
3
370
    50
100
AcDbLine
 10
-65.673582
 20
131.118119
 30
0.0
 11
-65.673582
 21
136.818119
 31
0.0
  0
LINE
  5
130
100
AcDbEntity
  8
3
370
    50
100
AcDbLine
 10
-65.973582
 20
137.118119
 30
0.0
 11
-65.673582
 21
136.818119
 31
0.0
  0
LINE
  5
131
100
AcDbEntity
  8
3
370
    50
100
AcDbLine
 10
-90.673582
 20
136.818119
 30
0.0
 11
-90.373582
 21
137.118119
 31
0.0
  0
LINE
  5
132
100
AcDbEntity
  8
3
370
    50
100
AcDbLine
 10
-78.173582
 20
137.118119
 30
0.0
 11
-90.373582
 21
137.118119
 31
0.0
  0
LINE
  5
133
100
AcDbEntity
  8
3
370
    50
100
AcDbLine
 10
-197.87416
 20
-30.15124
 30
0.0
 11
-58.473004
 21
-30.15124
 31
0.0
  0
LINE
  5
134
100
AcDbEntity
  8
3
370
    50
100
AcDbLine
 10
-197.87416
 20
-74.15124
 30
0.0
 11
-58.473004
 21
-74.15124
 31
0.0
  0
LINE
  5
135
100
AcDbEntity
  8
3
370
    50
100
AcDbLine
 10
-58.173004
 20
-73.85124
 30
0.0
 11
-58.173004
 21
-30.45124
 31
0.0
  0
LINE
  5
136
100
AcDbEntity
  8
3
370
    50
100
AcDbLine
 10
-198.17416
 20
-52.15124
 30
0.0
 11
-198.17416
 21
-73.85124
 31
0.0
  0
LINE
  5
137
100
AcDbEntity
  8
3
370
    50
100
AcDbLine
 10
-198.17416
 20
-52.15124
 30
0.0
 11
-198.17416
 21
-30.45124
 31
0.0
  0
LINE
  5
138
100
AcDbEntity
  8
3
370
    50
100
AcDbLine
 10
-139.673582
 20
145.418119
 30
0.0
 11
-128.173582
 21
145.418119
 31
0.0
  0
LINE
  5
139
100
AcDbEntity
  8
3
370
    50
100
AcDbLine
 10
-128.173582
 20
145.418119
 30
0.0
 11
-116.673582
 21
145.418119
 31
0.0
  0
LINE
  5
13A
100
AcDbEntity
  8
3
370
    50
100
AcDbLine
 10
-198.17416
 20
-73.85124
 30
0.0
 11
-197.87416
 21
-74.15124
 31
0.0
  0
LINE
  5
13B
100
AcDbEntity
  8
3
370
    50
100
AcDbLine
 10
-198.17416
 20
-30.45124
 30
0.0
 11
-197.87416
 21
-30.15124
 31
0.0
  0
LINE
  5
13C
100
AcDbEntity
  8
3
370
    50
100
AcDbLine
 10
-58.473004
 20
-30.15124
 30
0.0
 11
-58.173004
 21
-30.45124
 31
0.0
  0
LINE
  5
13D
100
AcDbEntity
  8
3
370
    50
100
AcDbLine
 10
-58.173004
 20
-73.85124
 30
0.0
 11
-58.473004
 21
-74.15124
 31
0.0
  0
LINE
  5
13E
100
AcDbEntity
  8
3
370
    25
100
AcDbLine
 10
-165.673582
 20
136.818119
 30
0.0
 11
-190.673582
 21
136.818119
 31
0.0
  0
LINE
  5
13F
100
AcDbEntity
  8
3
370
    25
100
AcDbLine
 10
-115.173582
 20
144.918119
 30
0.0
 11
-141.173582
 21
144.918119
 31
0.0
  0
LINE
  5
140
100
AcDbEntity
  8
3
370
    25
100
AcDbLine
 10
-65.673582
 20
136.818119
 30
0.0
 11
-90.673582
 21
136.818119
 31
0.0
  0
POINT
  5
141
100
AcDbEntity
  8
3
370
    50
100
AcDbPoint
 10
-57.374424
 20
101.118119
 30
0.0
  0
LINE
  5
142
100
AcDbEntity
  8
3
370
    50
100
AcDbLine
 10
-57.374424
 20
101.118119
 30
0.0
 11
-57.374424
 21
122.618119
 31
0.0
  0
LINE
  5
143
100
AcDbEntity
  8
3
370
    50
100
AcDbLine
 10
-56.874424
 20
79.118119
 30
0.0
 11
-55.908366
 21
79.118119
 31
0.0
  0
LINE
  5
144
100
AcDbEntity
  8
3
370
    50
100
AcDbLine
 10
-57.374424
 20
79.618119
 30
0.0
 11
-57.374424
 21
101.118119
 31
0.0
  0
ARC
  5
145
100
AcDbEntity
  8
3
370
    50
100
AcDbCircle
 10
-56.874424
 20
79.618119
 30
0.0
 40
0.5
100
AcDbArc
 50
180.0
 51
270.0
  0
LINE
  5
146
100
AcDbEntity
  8
3
370
    50
100
AcDbLine
 10
-14.873964
 20
112.118119
 30
0.0
 11
-14.873964
 21
90.118119
 31
0.0
  0
LINE
  5
147
100
AcDbEntity
  8
3
370
    50
100
AcDbLine
 10
-14.873424
 20
101.118119
 30
0.0
 11
-14.873424
 21
112.118486
 31
0.0
  0
LINE
  5
148
100
AcDbEntity
  8
3
370
    50
100
AcDbLine
 10
-14.873424
 20
101.118119
 30
0.0
 11
-14.873424
 21
90.118486
 31
0.0
  0
LINE
  5
149
100
AcDbEntity
  8
3
370
    50
100
AcDbLine
 10
-14.873964
 20
112.118119
 30
0.0
 11
-17.424208
 21
121.635757
 31
0.0
  0
LINE
  5
14A
100
AcDbEntity
  8
3
370
    50
100
AcDbLine
 10
-14.873964
 20
90.118119
 30
0.0
 11
-17.424208
 21
80.600481
 31
0.0
  0
ARC
  5
14B
100
AcDbEntity
  8
3
370
    50
100
AcDbCircle
 10
-19.356059
 20
81.118119
 30
0.0
 40
2.0
100
AcDbArc
 50
269.078976
 51
345.0
  0
LINE
  5
14C
100
AcDbEntity
  8
3
370
    50
100
AcDbLine
 10
-56.874424
 20
123.118119
 30
0.0
 11
-19.356059
 21
123.118119
 31
0.0
  0
ARC
  5
14D
100
AcDbEntity
  8
3
370
    50
100
AcDbCircle
 10
-56.874424
 20
122.618119
 30
0.0
 40
0.5
100
AcDbArc
 50
90.0
 51
180.0
  0
ARC
  5
14E
100
AcDbEntity
  8
3
370
    50
100
AcDbCircle
 10
-19.356059
 20
121.118119
 30
0.0
 40
2.0
100
AcDbArc
 50
15.0
 51
90.0
  0
LINE
  5
14F
100
AcDbEntity
  8
3
370
    50
100
AcDbLine
 10
-21.839978
 20
74.597885
 30
0.0
 11
-21.839978
 21
75.547632
 31
0.0
  0
LINE
  5
150
100
AcDbEntity
  8
3
370
    50
100
AcDbLine
 10
-54.729239
 20
74.597885
 30
0.0
 11
-54.729239
 21
75.547632
 31
0.0
  0
LINE
  5
151
100
AcDbEntity
  8
3
370
    50
100
AcDbLine
 10
-23.839978
 20
77.547632
 30
0.0
 11
-52.729239
 21
77.547632
 31
0.0
  0
LINE
  5
152
100
AcDbEntity
  8
3
370
    50
100
AcDbLine
 10
-23.839978
 20
72.597885
 30
0.0
 11
-52.729239
 21
72.597885
 31
0.0
  0
LINE
  5
153
100
AcDbEntity
  8
3
370
    50
100
AcDbLine
 10
-21.839978
 20
77.547632
 30
0.0
 11
-18.141315
 21
87.384241
 31
0.0
  0
LINE
  5
154
100
AcDbEntity
  8
3
370
    50
100
AcDbLine
 10
-54.729239
 20
77.547632
 30
0.0
 11
-57.374424
 21
88.235043
 31
0.0
  0
LINE
  5
155
100
AcDbEntity
  8
3
370
    50
100
AcDbLine
 10
-17.821406
 20
121.654187
 30
0.0
 11
-17.821406
 21
89.144001
 31
0.0
  0
LINE
  5
156
100
AcDbEntity
  8
3
370
    50
100
AcDbLine
 10
-17.821406
 20
84.921712
 30
0.0
 11
-17.821406
 21
80.622004
 31
0.0
  0
ARC
  5
157
100
AcDbEntity
  8
3
370
    50
100
AcDbCircle
 10
-23.839978
 20
74.597885
 30
0.0
 40
2.0
100
AcDbArc
 50
270.0
 51
360.0
  0
ARC
  5
158
100
AcDbEntity
  8
3
370
    50
100
AcDbCircle
 10
-23.839978
 20
75.547632
 30
0.0
 40
2.0
100
AcDbArc
 50
360.0
 51
90.0
  0
ARC
  5
159
100
AcDbEntity
  8
3
370
    50
100
AcDbCircle
 10
-52.729239
 20
74.597885
 30
0.0
 40
2.0
100
AcDbArc
 50
180.0
 51
270.0
  0
ARC
  5
15A
100
AcDbEntity
  8
3
370
    50
100
AcDbCircle
 10
-52.729239
 20
75.547632
 30
0.0
 40
2.0
100
AcDbArc
 50
90.0
 51
180.0
  0
LINE
  5
15B
100
AcDbEntity
  8
3
370
    50
100
AcDbLine
 10
-21.967942
 20
73.893981
 30
0.0
 11
-17.821406
 21
84.921712
 31
0.0
  0
LINE
  5
15C
100
AcDbEntity
  8
3
370
    50
100
AcDbLine
 10
-54.670658
 20
74.117374
 30
0.0
 11
-57.374424
 21
85.041469
 31
0.0
  0
LINE
  5
15D
100
AcDbEntity
  8
3
370
    50
100
AcDbLine
 10
-19.356059
 20
79.118119
 30
0.0
 11
-20.003614
 21
79.118119
 31
0.0
  0
ARC
  5
15E
100
AcDbEntity
  8
3
370
    50
100
AcDbCircle
 10
-22.821406
 20
89.144001
 30
0.0
 40
5.0
100
AcDbArc
 50
339.393241
 51
0.0
  0
LINE
  5
15F
100
AcDbEntity
  8
3
370
    25
100
AcDbLine
 10
-20.5012
 20
88.235043
 30
0.0
 11
-55.32328
 21
88.235043
 31
0.0
  0
POINT
  5
160
100
AcDbEntity
  8
3
370
    50
100
AcDbPoint
 10
-198.97458
 20
101.118119
 30
0.0
  0
LINE
  5
161
100
AcDbEntity
  8
3
370
    50
100
AcDbLine
 10
-202.47458
 20
87.065944
 30
0.0
 11
-203.47458
 21
87.065944
 31
0.0
  0
LINE
  5
162
100
AcDbEntity
  8
3
370
    50
100
AcDbLine
 10
-202.47458
 20
123.118119
 30
0.0
 11
-202.47458
 21
87.065944
 31
0.0
  0
LINE
  5
163
100
AcDbEntity
  8
3
370
    50
100
AcDbLine
 10
-203.47458
 20
123.118119
 30
0.0
 11
-203.47458
 21
87.065944
 31
0.0
  0
HATCH
  5
164
100
AcDbEntity
  8
3
370
    25
100
AcDbHatch
 10
0.0
 20
0.0
 30
0.0
210
0.0
220
0.0
230
1.0
  2
_U
 70
     0
 71
     1
 91
        1
 92
        1
 93
        4
 72
     1
 10
-202.47458
 20
123.11811899999999
 11
-202.47458
 21
87.065944000000002
 72
     1
 10
-202.47458
 20
87.065944000000002
 11
-203.47458
 21
87.065944000000002
 72
     1
 10
-203.47458
 20
87.065944000000002
 11
-203.47458
 21
123.11811899999999
 72
     1
 10
-203.47458
 20
123.11811899999999
 11
-202.47458
 21
123.11811899999999
 97
        4
330
0
330
0
330
0
330
0
 75
     0
 76
     0
 52
45.0
 41
1.0
 77
     0
 78
     1
 53
45.0
 43
0.0
 44
0.0
 45
-0.141421
 46
0.141421
 79
     0
 98
        1
 10
0.0
 20
0.0
  0
LINE
  5
165
100
AcDbEntity
  8
3
370
    50
100
AcDbLine
 10
-198.97458
 20
79.618119
 30
0.0
 11
-198.97458
 21
101.118119
 31
0.0
  0
LINE
  5
166
100
AcDbEntity
  8
3
370
    50
100
AcDbLine
 10
-236.992583
 20
123.118119
 30
0.0
 11
-199.47458
 21
123.118119
 31
0.0
  0
LINE
  5
167
100
AcDbEntity
  8
3
370
    50
100
AcDbLine
 10
-241.47458
 20
90.117753
 30
0.0
 11
-241.47458
 21
112.118486
 31
0.0
  0
LINE
  5
168
100
AcDbEntity
  8
3
370
    50
100
AcDbLine
 10
-198.97458
 20
122.618119
 30
0.0
 11
-198.97458
 21
101.118119
 31
0.0
  0
LINE
  5
169
100
AcDbEntity
  8
3
370
    50
100
AcDbLine
 10
-241.47458
 20
90.117753
 30
0.0
 11
-238.924435
 21
80.600481
 31
0.0
  0
LINE
  5
16A
100
AcDbEntity
  8
3
370
    50
100
AcDbLine
 10
-241.47458
 20
112.118486
 30
0.0
 11
-238.924435
 21
121.635757
 31
0.0
  0
ARC
  5
16B
100
AcDbEntity
  8
3
370
    50
100
AcDbCircle
 10
-236.992583
 20
81.118119
 30
0.0
 40
2.0
100
AcDbArc
 50
195.0
 51
235.596505
  0
ARC
  5
16C
100
AcDbEntity
  8
3
370
    50
100
AcDbCircle
 10
-236.992583
 20
121.118119
 30
0.0
 40
2.0
100
AcDbArc
 50
90.0
 51
165.0
  0
ARC
  5
16D
100
AcDbEntity
  8
3
370
    50
100
AcDbCircle
 10
-199.47458
 20
79.618119
 30
0.0
 40
0.5
100
AcDbArc
 50
270.0
 51
360.0
  0
ARC
  5
16E
100
AcDbEntity
  8
3
370
    50
100
AcDbCircle
 10
-199.47458
 20
122.618119
 30
0.0
 40
0.5
100
AcDbArc
 50
360.0
 51
90.0
  0
ELLIPSE
  5
16F
100
AcDbEntity
  8
3
370
    50
100
AcDbEllipse
 10
-211.97458
 20
81.319513
 30
0.0
 11
3.5
 21
0.0
 31
0.0
210
0.0
220
0.0
230
1.0
 40
0.763714
 41
0.0
 42
6.2831849999999996
  0
LINE
  5
170
100
AcDbEntity
  8
3
370
    50
100
AcDbLine
 10
-208.47458
 20
81.319513
 30
0.0
 11
-208.47458
 21
85.562154
 31
0.0
  0
LINE
  5
171
100
AcDbEntity
  8
3
370
    50
100
AcDbLine
 10
-215.47458
 20
81.319513
 30
0.0
 11
-215.47458
 21
85.562154
 31
0.0
  0
ELLIPSE
  5
172
100
AcDbEntity
  8
3
370
    50
100
AcDbEllipse
 10
-211.97458
 20
85.562154
 30
0.0
 11
3.5
 21
0.0
 31
0.0
210
0.0
220
0.0
230
1.0
 40
0.763714
 41
0.0
 42
3.1415929999999999
  0
LINE
  5
173
100
AcDbEntity
  8
3
370
    50
100
AcDbLine
 10
-222.004602
 20
79.118119
 30
0.0
 11
-213.959849
 21
79.118119
 31
0.0
  0
LINE
  5
174
100
AcDbEntity
  8
3
370
    50
100
AcDbLine
 10
-209.989312
 20
79.118119
 30
0.0
 11
-199.47458
 21
79.118119
 31
0.0
  0
LINE
  5
175
100
AcDbEntity
  8
3
370
    50
100
AcDbLine
 10
-235.124443
 20
81.101711
 30
0.0
 11
-225.641869
 21
81.101711
 31
0.0
  0
LINE
  5
176
100
AcDbEntity
  8
3
370
    50
100
AcDbLine
 10
-235.971976
 20
76.151964
 30
0.0
 11
-224.303631
 21
76.151964
 31
0.0
  0
LINE
  5
177
100
AcDbEntity
  8
3
370
    50
100
AcDbLine
 10
-222.737823
 20
81.101711
 30
0.0
 11
-221.913844
 21
84.435018
 31
0.0
  0
ARC
  5
178
100
AcDbEntity
  8
3
370
    50
100
AcDbCircle
 10
-217.059945
 20
83.235154
 30
0.0
 40
5.0
100
AcDbArc
 50
90.0
 51
166.115067
  0
LINE
  5
179
100
AcDbEntity
  8
3
370
    50
100
AcDbLine
 10
-237.771248
 20
81.101711
 30
0.0
 11
-238.527237
 21
88.236239
 31
0.0
  0
LINE
  5
17A
100
AcDbEntity
  8
3
370
    50
100
AcDbLine
 10
-222.362072
 20
77.672018
 30
0.0
 11
-221.913844
 21
79.48527
 31
0.0
  0
ARC
  5
17B
100
AcDbEntity
  8
3
370
    50
100
AcDbCircle
 10
-217.059945
 20
78.285407
 30
0.0
 40
5.0
100
AcDbArc
 50
90.0
 51
166.115067
  0
LINE
  5
17C
100
AcDbEntity
  8
3
370
    50
100
AcDbLine
 10
-237.960841
 20
77.94122
 30
0.0
 11
-238.527237
 21
83.286491
 31
0.0
  0
ARC
  5
17D
100
AcDbEntity
  8
3
370
    50
100
AcDbCircle
 10
-224.303631
 20
78.151964
 30
0.0
 40
2.0
100
AcDbArc
 50
270.0
 51
346.115067
  0
ARC
  5
17E
100
AcDbEntity
  8
3
370
    50
100
AcDbCircle
 10
-235.971976
 20
78.151964
 30
0.0
 40
2.0
100
AcDbArc
 50
186.048608
 51
270.0
  0
ARC
  5
17F
100
AcDbEntity
  8
3
370
    50
100
AcDbCircle
 10
-235.771248
 20
79.101711
 30
0.0
 40
2.0
100
AcDbArc
 50
116.452129
 51
171.882064
  0
ARC
  5
180
100
AcDbEntity
  8
3
370
    50
100
AcDbCircle
 10
-224.737823
 20
79.101711
 30
0.0
 40
2.0
100
AcDbArc
 50
22.532412
 51
90.0
  0
LINE
  5
181
100
AcDbEntity
  8
3
370
    50
100
AcDbLine
 10
-238.527237
 20
119.853064
 30
0.0
 11
-238.527237
 21
88.236239
 31
0.0
  0
LINE
  5
182
100
AcDbEntity
  8
3
370
    50
100
AcDbLine
 10
-238.527237
 20
83.286491
 30
0.0
 11
-238.527237
 21
80.087134
 31
0.0
  0
LINE
  5
183
100
AcDbEntity
  8
3
370
    25
100
AcDbLine
 10
-217.059945
 20
88.235154
 30
0.0
 11
-237.845131
 21
88.235154
 31
0.0
  0
LINE
  5
184
100
AcDbEntity
  8
3
370
    50
100
AcDbLine
 10
-204.28917
 20
84.565944
 30
0.0
 11
-203.77458
 21
84.565944
 31
0.0
  0
LINE
  5
185
100
AcDbEntity
  8
3
370
    50
100
AcDbLine
 10
-204.17458
 20
79.565944
 30
0.0
 11
-203.77458
 21
79.565944
 31
0.0
  0
LWPOLYLINE
  5
186
100
AcDbEntity
  8
3
370
    50
100
AcDbPolyline
 90
      114
 70
     0
 10
-201.47458
 20
84.565944
 10
-201.541934
 20
84.563186
 10
-201.609019
 20
84.555118
 10
-201.675569
 20
84.542044
 10
-201.869322
 20
84.475855
 10
-201.931048
 20
84.445823
 10
-201.990899
 20
84.412317
 10
-202.048605
 20
84.375643
 10
-202.114981
 20
84.327667
 10
-202.177985
 20
84.275867
 10
-202.237743
 20
84.220571
 10
-202.398815
 20
84.036979
 10
-202.44686
 20
83.970973
 10
-202.492293
 20
83.903107
 10
-202.53524
 20
83.833711
 10
-202.571856
 20
83.770201
 10
-202.606602
 20
83.70577
 10
-202.639522
 20
83.640472
 10
-202.727732
 20
83.439914
 10
-202.800987
 20
83.23349
 10
-202.822274
 20
83.163629
 10
-202.842064
 20
83.093332
 10
-202.8604
 20
83.022653
 10
-202.878973
 20
82.944332
 10
-202.895844
 20
82.865646
 10
-202.911029
 20
82.786625
 10
-202.946635
 20
82.547898
 10
-202.967669
 20
82.307371
 10
-202.97152
 20
82.226951
 10
-202.973818
 20
82.146464
 10
-202.97458
 20
82.065944
 10
-202.973818
 20
81.985424
 10
-202.97152
 20
81.904937
 10
-202.967669
 20
81.824517
 10
-202.946635
 20
81.58399
 10
-202.911029
 20
81.345263
 10
-202.895844
 20
81.266242
 10
-202.878973
 20
81.187556
 10
-202.8604
 20
81.109235
 10
-202.842064
 20
81.038556
 10
-202.822274
 20
80.968258
 10
-202.800987
 20
80.898398
 10
-202.727732
 20
80.691974
 10
-202.639522
 20
80.491416
 10
-202.606602
 20
80.426118
 10
-202.571856
 20
80.361687
 10
-202.53524
 20
80.298177
 10
-202.492293
 20
80.228781
 10
-202.44686
 20
80.160915
 10
-202.398815
 20
80.094909
 10
-202.237743
 20
79.911317
 10
-202.177985
 20
79.856021
 10
-202.114981
 20
79.804221
 10
-202.048605
 20
79.756245
 10
-201.990899
 20
79.719571
 10
-201.931048
 20
79.686065
 10
-201.869322
 20
79.656033
 10
-201.675569
 20
79.589844
 10
-201.609019
 20
79.57677
 10
-201.541934
 20
79.568702
 10
-201.47458
 20
79.565944
 10
-201.407227
 20
79.568702
 10
-201.340141
 20
79.57677
 10
-201.273592
 20
79.589844
 10
-201.079839
 20
79.656033
 10
-201.018112
 20
79.686065
 10
-200.958262
 20
79.719571
 10
-200.900555
 20
79.756245
 10
-200.83418
 20
79.804221
 10
-200.771176
 20
79.856021
 10
-200.711417
 20
79.911317
 10
-200.550345
 20
80.094909
 10
-200.5023
 20
80.160915
 10
-200.456868
 20
80.228781
 10
-200.41392
 20
80.298177
 10
-200.365517
 20
80.383065
 10
-200.320411
 20
80.469557
 10
-200.278505
 20
80.557527
 10
-200.170999
 20
80.829028
 10
-200.14091
 20
80.921633
 10
-200.113529
 20
81.015078
 10
-200.088761
 20
81.109235
 10
-200.064376
 20
81.213745
 10
-200.043007
 20
81.318888
 10
-200.024616
 20
81.424583
 10
-199.986912
 20
81.744197
 10
-199.980035
 20
81.851314
 10
-199.975937
 20
81.95859
 10
-199.97458
 20
82.065944
 10
-199.975937
 20
82.173298
 10
-199.980035
 20
82.280574
 10
-199.986912
 20
82.387691
 10
-200.024616
 20
82.707305
 10
-200.043007
 20
82.813
 10
-200.064376
 20
82.918143
 10
-200.088761
 20
83.022653
 10
-200.113529
 20
83.11681
 10
-200.14091
 20
83.210255
 10
-200.170999
 20
83.30286
 10
-200.278505
 20
83.574361
 10
-200.320411
 20
83.662331
 10
-200.365517
 20
83.748823
 10
-200.41392
 20
83.833711
 10
-200.479265
 20
83.937252
 10
-200.550345
 20
84.036979
 10
-200.627587
 20
84.131787
 10
-200.711417
 20
84.220571
 10
-200.802264
 20
84.302224
 10
-200.900555
 20
84.375643
 10
-201.005984
 20
84.43939
 10
-201.117663
 20
84.492079
 10
-201.234031
 20
84.531925
 10
-201.353524
 20
84.557142
 10
-201.47458
 20
84.565944
  0
LWPOLYLINE
  5
1FA
100
AcDbEntity
  8
3
370
    50
100
AcDbPolyline
 90
      114
 70
     0
 10
-201.47458
 20
83.565944
 10
-201.509183
 20
83.561643
 10
-201.54332
 20
83.549642
 10
-201.576528
 20
83.531299
 10
-201.60834
 20
83.507967
 10
-201.638293
 20
83.481004
 10
-201.665922
 20
83.451763
 10
-201.692931
 20
83.418699
 10
-201.716959
 20
83.384642
 10
-201.73832
 20
83.349691
 10
-201.789553
 20
83.240433
 10
-201.803399
 20
83.202869
 10
-201.816154
 20
83.164894
 10
-201.828134
 20
83.126604
 10
-201.839926
 20
83.086962
 10
-201.851227
 20
83.047105
 10
-201.862034
 20
83.007048
 10
-201.891459
 20
82.885821
 10
-201.916317
 20
82.763327
 10
-201.923573
 20
82.722284
 10
-201.930309
 20
82.68116
 10
-201.93652
 20
82.639969
 10
-201.941788
 20
82.601898
 10
-201.946618
 20
82.563786
 10
-201.951021
 20
82.525636
 10
-201.961778
 20
82.410989
 10
-201.96909
 20
82.296105
 10
-201.973258
 20
82.181064
 10
-201.974
 20
82.142695
 10
-201.974437
 20
82.104321
 10
-201.97458
 20
82.065944
 10
-201.974437
 20
82.027567
 10
-201.974
 20
81.989193
 10
-201.973258
 20
81.950824
 10
-201.96909
 20
81.835783
 10
-201.961778
 20
81.720899
 10
-201.951021
 20
81.606252
 10
-201.946618
 20
81.568102
 10
-201.941788
 20
81.52999
 10
-201.93652
 20
81.491919
 10
-201.930309
 20
81.450728
 10
-201.923573
 20
81.409604
 10
-201.916317
 20
81.368561
 10
-201.891459
 20
81.246067
 10
-201.862034
 20
81.12484
 10
-201.851227
 20
81.084783
 10
-201.839926
 20
81.044926
 10
-201.828134
 20
81.005284
 10
-201.816154
 20
80.966994
 10
-201.803399
 20
80.929019
 10
-201.789553
 20
80.891455
 10
-201.73832
 20
80.782197
 10
-201.716959
 20
80.747246
 10
-201.692931
 20
80.713189
 10
-201.665922
 20
80.680125
 10
-201.638293
 20
80.650884
 10
-201.60834
 20
80.623921
 10
-201.576528
 20
80.600589
 10
-201.54332
 20
80.582246
 10
-201.509183
 20
80.570245
 10
-201.47458
 20
80.565944
 10
-201.439978
 20
80.570245
 10
-201.405841
 20
80.582246
 10
-201.372633
 20
80.600589
 10
-201.34082
 20
80.623921
 10
-201.310867
 20
80.650884
 10
-201.283239
 20
80.680125
 10
-201.256229
 20
80.713189
 10
-201.232202
 20
80.747246
 10
-201.210841
 20
80.782197
 10
-201.159607
 20
80.891455
 10
-201.145762
 20
80.929019
 10
-201.133006
 20
80.966994
 10
-201.121027
 20
81.005284
 10
-201.105413
 20
81.058188
 10
-201.090674
 20
81.111466
 10
-201.076816
 20
81.165084
 10
-201.040617
 20
81.327613
 10
-201.030367
 20
81.382232
 10
-201.021039
 20
81.437012
 10
-201.012641
 20
81.491919
 10
-201.006124
 20
81.539514
 10
-201.000288
 20
81.587172
 10
-200.995111
 20
81.634887
 10
-200.983315
 20
81.778317
 10
-200.976666
 20
81.922053
 10
-200.975493
 20
81.970007
 10
-200.974805
 20
82.017973
 10
-200.97458
 20
82.065944
 10
-200.974805
 20
82.113915
 10
-200.975493
 20
82.161881
 10
-200.976666
 20
82.209835
 10
-200.983315
 20
82.353571
 10
-200.995111
 20
82.497001
 10
-201.000288
 20
82.544716
 10
-201.006124
 20
82.592374
 10
-201.012641
 20
82.639969
 10
-201.021039
 20
82.694876
 10
-201.030367
 20
82.749656
 10
-201.040617
 20
82.804275
 10
-201.076816
 20
82.966804
 10
-201.090674
 20
83.020421
 10
-201.105413
 20
83.0737
 10
-201.121027
 20
83.126604
 10
-201.139267
 20
83.183927
 10
-201.159607
 20
83.240433
 10
-201.18311
 20
83.295796
 10
-201.210841
 20
83.349691
 10
-201.243862
 20
83.401788
 10
-201.283239
 20
83.451763
 10
-201.325582
 20
83.494855
 10
-201.372633
 20
83.531299
 10
-201.422822
 20
83.55652
 10
-201.47458
 20
83.565944
  0
LINE
  5
26E
100
AcDbEntity
  8
3
370
    50
100
AcDbLine
 10
-203.47458
 20
84.265944
 30
0.0
 11
-203.47458
 21
81.565944
 31
0.0
  0
LINE
  5
26F
100
AcDbEntity
  8
3
370
    50
100
AcDbLine
 10
-204.47458
 20
83.44791
 30
0.0
 11
-204.47458
 21
81.665944
 31
0.0
  0
LINE
  5
270
100
AcDbEntity
  8
3
370
    50
100
AcDbLine
 10
-203.47458
 20
80.565944
 30
0.0
 11
-203.27458
 21
80.565944
 31
0.0
  0
LINE
  5
271
100
AcDbEntity
  8
3
370
    50
100
AcDbLine
 10
-205.25376
 20
81.565944
 30
0.0
 11
-204.57458
 21
81.565944
 31
0.0
  0
LINE
  5
272
100
AcDbEntity
  8
3
370
    50
100
AcDbLine
 10
-204.557498
 20
84.400108
 30
0.0
 11
-205.942908
 21
81.629288
 31
0.0
  0
LINE
  5
273
100
AcDbEntity
  8
3
370
    50
100
AcDbLine
 10
-204.47458
 20
83.44791
 30
0.0
 11
-205.343203
 21
81.710665
 31
0.0
  0
ARC
  5
274
100
AcDbEntity
  8
3
370
    50
100
AcDbCircle
 10
-205.25376
 20
81.665944
 30
0.0
 40
0.1
100
AcDbArc
 50
153.434949
 51
270.0
  0
ARC
  5
275
100
AcDbEntity
  8
3
370
    50
100
AcDbCircle
 10
-204.57458
 20
81.665944
 30
0.0
 40
0.1
100
AcDbArc
 50
270.0
 51
360.0
  0
LINE
  5
276
100
AcDbEntity
  8
3
370
    50
100
AcDbLine
 10
-203.47458
 20
81.565944
 30
0.0
 11
-203.27458
 21
81.565944
 31
0.0
  0
LINE
  5
277
100
AcDbEntity
  8
3
370
    50
100
AcDbLine
 10
-203.47458
 20
79.865944
 30
0.0
 11
-203.47458
 21
80.565944
 31
0.0
  0
LINE
  5
278
100
AcDbEntity
  8
3
370
    50
100
AcDbLine
 10
-204.47458
 20
79.865944
 30
0.0
 11
-204.47458
 21
80.565944
 31
0.0
  0
LINE
  5
279
100
AcDbEntity
  8
3
370
    50
100
AcDbLine
 10
-205.67458
 20
80.565944
 30
0.0
 11
-204.47458
 21
80.565944
 31
0.0
  0
LINE
  5
27A
100
AcDbEntity
  8
3
370
    50
100
AcDbLine
 10
-202.97458
 20
81.265944
 30
0.0
 11
-202.97458
 21
80.865944
 31
0.0
  0
ARC
  5
27B
100
AcDbEntity
  8
3
370
    50
100
AcDbCircle
 10
-204.28917
 20
84.265944
 30
0.0
 40
0.3
100
AcDbArc
 50
90.0
 51
153.434949
  0
ARC
  5
27C
100
AcDbEntity
  8
3
370
    50
100
AcDbCircle
 10
-203.77458
 20
84.265944
 30
0.0
 40
0.3
100
AcDbArc
 50
0.0
 51
90.0
  0
ARC
  5
27D
100
AcDbEntity
  8
3
370
    50
100
AcDbCircle
 10
-205.67458
 20
80.865944
 30
0.0
 40
0.3
100
AcDbArc
 50
180.0
 51
270.0
  0
ARC
  5
27E
100
AcDbEntity
  8
3
370
    50
100
AcDbCircle
 10
-203.27458
 20
81.265944
 30
0.0
 40
0.3
100
AcDbArc
 50
0.0
 51
90.0
  0
ARC
  5
27F
100
AcDbEntity
  8
3
370
    50
100
AcDbCircle
 10
-203.27458
 20
80.865944
 30
0.0
 40
0.3
100
AcDbArc
 50
270.0
 51
360.0
  0
ARC
  5
280
100
AcDbEntity
  8
3
370
    50
100
AcDbCircle
 10
-204.17458
 20
79.865944
 30
0.0
 40
0.3
100
AcDbArc
 50
180.0
 51
270.0
  0
ARC
  5
281
100
AcDbEntity
  8
3
370
    50
100
AcDbCircle
 10
-203.77458
 20
79.865944
 30
0.0
 40
0.3
100
AcDbArc
 50
270.0
 51
360.0
  0
LINE
  5
282
100
AcDbEntity
  8
3
370
    25
100
AcDbLine
 10
-205.798012
 20
80.592513
 30
0.0
 11
-204.82458
 21
81.565944
 31
0.0
  0
LINE
  5
283
100
AcDbEntity
  8
3
370
    25
100
AcDbLine
 10
-204.47458
 20
81.915944
 30
0.0
 11
-203.47458
 21
82.915944
 31
0.0
  0
LINE
  5
284
100
AcDbEntity
  8
3
370
    25
100
AcDbLine
 10
-205.541738
 20
80.565944
 30
0.0
 11
-204.532412
 21
81.57527
 31
0.0
  0
LINE
  5
285
100
AcDbEntity
  8
3
370
    25
100
AcDbLine
 10
-204.483906
 20
81.623776
 30
0.0
 11
-203.47458
 21
82.633101
 31
0.0
  0
LINE
  5
286
100
AcDbEntity
  8
3
370
    25
100
AcDbLine
 10
-205.258895
 20
80.565944
 30
0.0
 11
-203.47458
 21
82.350259
 31
0.0
  0
LINE
  5
287
100
AcDbEntity
  8
3
370
    25
100
AcDbLine
 10
-204.976052
 20
80.565944
 30
0.0
 11
-203.47458
 21
82.067416
 31
0.0
  0
LINE
  5
288
100
AcDbEntity
  8
3
370
    25
100
AcDbLine
 10
-204.693209
 20
80.565944
 30
0.0
 11
-203.47458
 21
81.784573
 31
0.0
  0
LINE
  5
289
100
AcDbEntity
  8
3
370
    25
100
AcDbLine
 10
-204.47458
 20
80.50173
 30
0.0
 11
-203.410367
 21
81.565944
 31
0.0
  0
LINE
  5
28A
100
AcDbEntity
  8
3
370
    25
100
AcDbLine
 10
-204.47458
 20
80.218888
 30
0.0
 11
-203.153183
 21
81.540285
 31
0.0
  0
LINE
  5
28B
100
AcDbEntity
  8
3
370
    25
100
AcDbLine
 10
-204.47458
 20
79.936045
 30
0.0
 11
-203.007686
 21
81.402939
 31
0.0
  0
LINE
  5
28C
100
AcDbEntity
  8
3
370
    25
100
AcDbLine
 10
-204.425806
 20
79.701976
 30
0.0
 11
-202.97458
 21
81.153202
 31
0.0
  0
LINE
  5
28D
100
AcDbEntity
  8
3
370
    25
100
AcDbLine
 10
-204.265034
 20
79.579905
 30
0.0
 11
-203.47458
 21
80.37036
 31
0.0
  0
LINE
  5
28E
100
AcDbEntity
  8
3
370
    25
100
AcDbLine
 10
-203.278996
 20
80.565944
 30
0.0
 11
-202.97458
 21
80.87036
 31
0.0
  0
LINE
  5
28F
100
AcDbEntity
  8
3
370
    25
100
AcDbLine
 10
-203.996153
 20
79.565944
 30
0.0
 11
-203.47458
 21
80.087517
 31
0.0
  0
LINE
  5
290
100
AcDbEntity
  8
3
370
    25
100
AcDbLine
 10
-203.70517
 20
79.574084
 30
0.0
 11
-203.48272
 21
79.796534
 31
0.0
  0
LINE
  5
291
100
AcDbEntity
  8
3
370
    25
100
AcDbLine
 10
-205.942467
 20
80.7309
 30
0.0
 11
-205.107423
 21
81.565944
 31
0.0
  0
LINE
  5
292
100
AcDbEntity
  8
3
370
    25
100
AcDbLine
 10
-204.47458
 20
82.198787
 30
0.0
 11
-203.47458
 21
83.198787
 31
0.0
  0
LINE
  5
293
100
AcDbEntity
  8
3
370
    25
100
AcDbLine
 10
-205.97458
 20
80.981629
 30
0.0
 11
-205.340327
 21
81.615883
 31
0.0
  0
LINE
  5
294
100
AcDbEntity
  8
3
370
    25
100
AcDbLine
 10
-204.47458
 20
82.481629
 30
0.0
 11
-203.47458
 21
83.481629
 31
0.0
  0
LINE
  5
295
100
AcDbEntity
  8
3
370
    25
100
AcDbLine
 10
-205.97458
 20
81.264472
 30
0.0
 11
-205.158018
 21
82.081034
 31
0.0
  0
LINE
  5
296
100
AcDbEntity
  8
3
370
    25
100
AcDbLine
 10
-204.47458
 20
82.764472
 30
0.0
 11
-203.47458
 21
83.764472
 31
0.0
  0
LINE
  5
297
100
AcDbEntity
  8
3
370
    25
100
AcDbLine
 10
-205.968957
 20
81.552938
 30
0.0
 11
-204.875175
 21
82.64672
 31
0.0
  0
LINE
  5
298
100
AcDbEntity
  8
3
370
    25
100
AcDbLine
 10
-204.47458
 20
83.047315
 30
0.0
 11
-203.47458
 21
84.047315
 31
0.0
  0
LINE
  5
299
100
AcDbEntity
  8
3
370
    25
100
AcDbLine
 10
-203.480332
 20
84.324406
 30
0.0
 11
-204.47458
 21
83.330158
 31
0.0
  0
LINE
  5
29A
100
AcDbEntity
  8
3
370
    25
100
AcDbLine
 10
-204.592333
 20
83.212405
 30
0.0
 11
-205.710367
 21
82.094371
 31
0.0
  0
LINE
  5
29B
100
AcDbEntity
  8
3
370
    25
100
AcDbLine
 10
-203.587285
 20
84.500295
 30
0.0
 11
-205.427524
 21
82.660057
 31
0.0
  0
LINE
  5
29C
100
AcDbEntity
  8
3
370
    25
100
AcDbLine
 10
-203.804479
 20
84.565944
 30
0.0
 11
-205.144681
 21
83.225742
 31
0.0
  0
LINE
  5
29D
100
AcDbEntity
  8
3
370
    25
100
AcDbLine
 10
-204.087322
 20
84.565944
 30
0.0
 11
-204.861839
 21
83.791427
 31
0.0
  0
LINE
  5
29E
100
AcDbEntity
  8
3
370
    25
100
AcDbLine
 10
-204.386336
 20
84.549773
 30
0.0
 11
-204.578996
 21
84.357113
 31
0.0
  0
HATCH
  5
29F
100
AcDbEntity
  8
3
370
    25
100
AcDbHatch
 10
0.0
 20
0.0
 30
0.0
210
0.0
220
0.0
230
1.0
  2
_U
 70
     0
 71
     1
 91
        2
 92
        1
 93
        8
 72
     1
 10
-201.47458
 20
84.565944000000002
 11
-202.53523999999999
 21
83.833710999999994
 72
     1
 10
-202.53523999999999
 20
83.833710999999994
 11
-202.97458
 21
82.065944000000002
 72
     1
 10
-202.97458
 20
82.065944000000002
 11
-202.53523999999999
 21
80.298176999999995
 72
     1
 10
-202.53523999999999
 20
80.298176999999995
 11
-201.47458
 21
79.565944000000002
 72
     1
 10
-201.47458
 20
79.565944000000002
 11
-200.41391999999999
 21
80.298176999999995
 72
     1
 10
-200.41391999999999
 20
80.298176999999995
 11
-199.97458
 21
82.065944000000002
 72
     1
 10
-199.97458
 20
82.065944000000002
 11
-200.41391999999999
 21
83.833710999999994
 72
     1
 10
-200.41391999999999
 20
83.833710999999994
 11
-201.47458
 21
84.565944000000002
 97
        8
330
0
330
0
330
0
330
0
330
0
330
0
330
0
330
0
 92
        0
 93
        9
 72
     1
 10
-201.47458
 20
83.565944000000002
 11
-201.82813400000001
 21
83.126604
 72
     1
 10
-201.82813400000001
 20
83.126604
 11
-201.97458
 21
82.065944000000002
 72
     1
 10
-201.97458
 20
82.065944000000002
 11
-201.93652
 21
81.491918999999996
 72
     1
 10
-201.93652
 20
81.491918999999996
 11
-201.66592199999999
 21
80.680125000000004
 72
     1
 10
-201.66592199999999
 20
80.680125000000004
 11
-201.121027
 21
81.005284000000003
 72
     1
 10
-201.121027
 20
81.005284000000003
 11
-200.97458
 21
82.065944000000002
 72
     1
 10
-200.97458
 20
82.065944000000002
 11
-201.012641
 21
82.639968999999994
 72
     1
 10
-201.012641
 20
82.639968999999994
 11
-201.28323900000001
 21
83.451763
 72
     1
 10
-201.28323900000001
 20
83.451763
 11
-201.47458
 21
83.565944000000002
 97
        9
330
0
330
0
330
0
330
0
330
0
330
0
330
0
330
0
330
0
 75
     0
 76
     0
 52
45.0
 41
1.0
 77
     0
 78
     1
 53
45.0
 43
0.0
 44
0.0
 45
-0.141421
 46
0.141421
 79
     0
 98
        1
 10
0.0
 20
0.0
  0
LINE
  5
2A0
100
AcDbEntity
  8
3
370
    50
100
AcDbLine
 10
-205.97458
 20
81.495124
 30
0.0
 11
-205.97458
 21
80.865944
 31
0.0
  0
ARC
  5
2A1
100
AcDbEntity
  8
3
370
    50
100
AcDbCircle
 10
-205.67458
 20
81.495124
 30
0.0
 40
0.3
100
AcDbArc
 50
153.434949
 51
180.0
  0
POINT
  5
2A2
100
AcDbEntity
  8
3
370
    50
100
AcDbPoint
 10
-57.374424
 20
-52.15124
 30
0.0
  0
POINT
  5
2A3
100
AcDbEntity
  8
3
370
    50
100
AcDbPoint
 10
-198.97458
 20
-52.15124
 30
0.0
  0
POINT
  5
2A4
100
AcDbEntity
  8
3
370
    50
100
AcDbPoint
 10
-55.323712
 20
-39.268163
 30
0.0
  0
POINT
  5
2A5
100
AcDbEntity
  8
3
370
    50
100
AcDbPoint
 10
-55.323712
 20
-39.268163
 30
0.0
  0
POINT
  5
2A6
100
AcDbEntity
  8
3
370
    50
100
AcDbPoint
 10
-20.501631
 20
-39.268163
 30
0.0
  0
LINE
  5
2A7
100
AcDbEntity
  8
3
370
    50
100
AcDbLine
 10
-57.374424
 20
-52.15124
 30
0.0
 11
-57.374424
 21
-73.65124
 31
0.0
  0
LINE
  5
2A8
100
AcDbEntity
  8
3
370
    50
100
AcDbLine
 10
-56.874424
 20
-30.15124
 30
0.0
 11
-55.117942
 21
-30.15124
 31
0.0
  0
LINE
  5
2A9
100
AcDbEntity
  8
3
370
    50
100
AcDbLine
 10
-57.374424
 20
-30.65124
 30
0.0
 11
-57.374424
 21
-52.15124
 31
0.0
  0
ARC
  5
2AA
100
AcDbEntity
  8
3
370
    50
100
AcDbCircle
 10
-56.874424
 20
-30.65124
 30
0.0
 40
0.5
100
AcDbArc
 50
90.0
 51
180.0
  0
LINE
  5
2AB
100
AcDbEntity
  8
3
370
    50
100
AcDbLine
 10
-14.873964
 20
-63.15124
 30
0.0
 11
-14.873964
 21
-41.15124
 31
0.0
  0
LINE
  5
2AC
100
AcDbEntity
  8
3
370
    50
100
AcDbLine
 10
-14.873424
 20
-52.15124
 30
0.0
 11
-14.873424
 21
-63.151607
 31
0.0
  0
LINE
  5
2AD
100
AcDbEntity
  8
3
370
    50
100
AcDbLine
 10
-14.873424
 20
-52.15124
 30
0.0
 11
-14.873424
 21
-41.151607
 31
0.0
  0
LINE
  5
2AE
100
AcDbEntity
  8
3
370
    50
100
AcDbLine
 10
-14.873964
 20
-63.15124
 30
0.0
 11
-17.424208
 21
-72.668878
 31
0.0
  0
LINE
  5
2AF
100
AcDbEntity
  8
3
370
    50
100
AcDbLine
 10
-14.873964
 20
-41.15124
 30
0.0
 11
-17.424208
 21
-31.633602
 31
0.0
  0
ARC
  5
2B0
100
AcDbEntity
  8
3
370
    50
100
AcDbCircle
 10
-19.356059
 20
-32.15124
 30
0.0
 40
2.0
100
AcDbArc
 50
15.0
 51
90.921024
  0
LINE
  5
2B1
100
AcDbEntity
  8
3
370
    50
100
AcDbLine
 10
-56.874424
 20
-74.15124
 30
0.0
 11
-19.356059
 21
-74.15124
 31
0.0
  0
ARC
  5
2B2
100
AcDbEntity
  8
3
370
    50
100
AcDbCircle
 10
-56.874424
 20
-73.65124
 30
0.0
 40
0.5
100
AcDbArc
 50
180.0
 51
270.0
  0
ARC
  5
2B3
100
AcDbEntity
  8
3
370
    50
100
AcDbCircle
 10
-19.356059
 20
-72.15124
 30
0.0
 40
2.0
100
AcDbArc
 50
270.0
 51
345.0
  0
LINE
  5
2B4
100
AcDbEntity
  8
3
370
    50
100
AcDbLine
 10
-21.839978
 20
-28.824579
 30
0.0
 11
-21.839978
 21
-29.774326
 31
0.0
  0
LINE
  5
2B5
100
AcDbEntity
  8
3
370
    50
100
AcDbLine
 10
-54.729239
 20
-28.824579
 30
0.0
 11
-54.729239
 21
-29.774326
 31
0.0
  0
LINE
  5
2B6
100
AcDbEntity
  8
3
370
    50
100
AcDbLine
 10
-23.839978
 20
-31.774326
 30
0.0
 11
-52.729239
 21
-31.774326
 31
0.0
  0
LINE
  5
2B7
100
AcDbEntity
  8
3
370
    50
100
AcDbLine
 10
-23.839978
 20
-26.824579
 30
0.0
 11
-52.729239
 21
-26.824579
 31
0.0
  0
LINE
  5
2B8
100
AcDbEntity
  8
3
370
    50
100
AcDbLine
 10
-21.839978
 20
-31.774326
 30
0.0
 11
-18.141315
 21
-41.610935
 31
0.0
  0
LINE
  5
2B9
100
AcDbEntity
  8
3
370
    50
100
AcDbLine
 10
-54.729239
 20
-31.774326
 30
0.0
 11
-57.374424
 21
-42.461737
 31
0.0
  0
LINE
  5
2BA
100
AcDbEntity
  8
3
370
    50
100
AcDbLine
 10
-17.821406
 20
-72.556998
 30
0.0
 11
-17.821406
 21
-43.370696
 31
0.0
  0
LINE
  5
2BB
100
AcDbEntity
  8
3
370
    50
100
AcDbLine
 10
-17.821406
 20
-39.148406
 30
0.0
 11
-17.821406
 21
-31.655125
 31
0.0
  0
ARC
  5
2BC
100
AcDbEntity
  8
3
370
    50
100
AcDbCircle
 10
-23.839978
 20
-28.824579
 30
0.0
 40
2.0
100
AcDbArc
 50
0.0
 51
90.0
  0
ARC
  5
2BD
100
AcDbEntity
  8
3
370
    50
100
AcDbCircle
 10
-23.839978
 20
-29.774326
 30
0.0
 40
2.0
100
AcDbArc
 50
270.0
 51
360.0
  0
ARC
  5
2BE
100
AcDbEntity
  8
3
370
    50
100
AcDbCircle
 10
-52.729239
 20
-28.824579
 30
0.0
 40
2.0
100
AcDbArc
 50
90.0
 51
180.0
  0
ARC
  5
2BF
100
AcDbEntity
  8
3
370
    50
100
AcDbCircle
 10
-52.729239
 20
-29.774326
 30
0.0
 40
2.0
100
AcDbArc
 50
180.0
 51
270.0
  0
LINE
  5
2C0
100
AcDbEntity
  8
3
370
    50
100
AcDbLine
 10
-21.967942
 20
-28.120675
 30
0.0
 11
-17.821406
 21
-39.148406
 31
0.0
  0
LINE
  5
2C1
100
AcDbEntity
  8
3
370
    50
100
AcDbLine
 10
-54.670658
 20
-28.344068
 30
0.0
 11
-57.374424
 21
-39.268163
 31
0.0
  0
LINE
  5
2C2
100
AcDbEntity
  8
3
370
    50
100
AcDbLine
 10
-19.356059
 20
-30.15124
 30
0.0
 11
-21.204429
 21
-30.15124
 31
0.0
  0
ARC
  5
2C3
100
AcDbEntity
  8
3
370
    50
100
AcDbCircle
 10
-22.821406
 20
-43.370696
 30
0.0
 40
5.0
100
AcDbArc
 50
360.0
 51
20.606759
  0
LINE
  5
2C4
100
AcDbEntity
  8
3
370
    25
100
AcDbLine
 10
-20.5012
 20
-39.268163
 30
0.0
 11
-55.32328
 21
-39.268163
 31
0.0
  0
LINE
  5
2C5
100
AcDbEntity
  8
3
370
    50
100
AcDbLine
 10
-204.28917
 20
-33.799064
 30
0.0
 11
-203.77458
 21
-33.799064
 31
0.0
  0
LINE
  5
2C6
100
AcDbEntity
  8
3
370
    50
100
AcDbLine
 10
-204.17458
 20
-38.799064
 30
0.0
 11
-203.77458
 21
-38.799064
 31
0.0
  0
LWPOLYLINE
  5
2C7
100
AcDbEntity
  8
3
370
    50
100
AcDbPolyline
 90
      114
 70
     0
 10
-201.47458
 20
-33.799064
 10
-201.541934
 20
-33.801822
 10
-201.609019
 20
-33.809891
 10
-201.675569
 20
-33.822964
 10
-201.869322
 20
-33.889154
 10
-201.931048
 20
-33.919186
 10
-201.990899
 20
-33.952692
 10
-202.048605
 20
-33.989366
 10
-202.114981
 20
-34.037342
 10
-202.177985
 20
-34.089142
 10
-202.237743
 20
-34.144438
 10
-202.398815
 20
-34.328029
 10
-202.44686
 20
-34.394036
 10
-202.492293
 20
-34.461901
 10
-202.53524
 20
-34.531298
 10
-202.571856
 20
-34.594808
 10
-202.606602
 20
-34.659239
 10
-202.639522
 20
-34.724537
 10
-202.727732
 20
-34.925095
 10
-202.800987
 20
-35.131518
 10
-202.822274
 20
-35.201379
 10
-202.842064
 20
-35.271676
 10
-202.8604
 20
-35.342356
 10
-202.878973
 20
-35.420676
 10
-202.895844
 20
-35.499363
 10
-202.911029
 20
-35.578383
 10
-202.946635
 20
-35.81711
 10
-202.967669
 20
-36.057637
 10
-202.97152
 20
-36.138057
 10
-202.973818
 20
-36.218544
 10
-202.97458
 20
-36.299064
 10
-202.973818
 20
-36.379585
 10
-202.97152
 20
-36.460071
 10
-202.967669
 20
-36.540492
 10
-202.946635
 20
-36.781019
 10
-202.911029
 20
-37.019746
 10
-202.895844
 20
-37.098766
 10
-202.878973
 20
-37.177453
 10
-202.8604
 20
-37.255773
 10
-202.842064
 20
-37.326453
 10
-202.822274
 20
-37.39675
 10
-202.800987
 20
-37.46661
 10
-202.727732
 20
-37.673034
 10
-202.639522
 20
-37.873592
 10
-202.606602
 20
-37.93889
 10
-202.571856
 20
-38.003321
 10
-202.53524
 20
-38.066831
 10
-202.492293
 20
-38.136228
 10
-202.44686
 20
-38.204093
 10
-202.398815
 20
-38.2701
 10
-202.237743
 20
-38.453691
 10
-202.177985
 20
-38.508987
 10
-202.114981
 20
-38.560787
 10
-202.048605
 20
-38.608763
 10
-201.990899
 20
-38.645437
 10
-201.931048
 20
-38.678943
 10
-201.869322
 20
-38.708975
 10
-201.675569
 20
-38.775164
 10
-201.609019
 20
-38.788238
 10
-201.541934
 20
-38.796307
 10
-201.47458
 20
-38.799064
 10
-201.407227
 20
-38.796307
 10
-201.340141
 20
-38.788238
 10
-201.273592
 20
-38.775164
 10
-201.079839
 20
-38.708975
 10
-201.018112
 20
-38.678943
 10
-200.958262
 20
-38.645437
 10
-200.900555
 20
-38.608763
 10
-200.83418
 20
-38.560787
 10
-200.771176
 20
-38.508987
 10
-200.711417
 20
-38.453691
 10
-200.550345
 20
-38.2701
 10
-200.5023
 20
-38.204093
 10
-200.456868
 20
-38.136228
 10
-200.41392
 20
-38.066831
 10
-200.365517
 20
-37.981944
 10
-200.320411
 20
-37.895451
 10
-200.278505
 20
-37.807481
 10
-200.170999
 20
-37.535981
 10
-200.14091
 20
-37.443375
 10
-200.113529
 20
-37.34993
 10
-200.088761
 20
-37.255773
 10
-200.064376
 20
-37.151263
 10
-200.043007
 20
-37.046121
 10
-200.024616
 20
-36.940426
 10
-199.986912
 20
-36.620812
 10
-199.980035
 20
-36.513694
 10
-199.975937
 20
-36.406419
 10
-199.97458
 20
-36.299064
 10
-199.975937
 20
-36.19171
 10
-199.980035
 20
-36.084435
 10
-199.986912
 20
-35.977317
 10
-200.024616
 20
-35.657703
 10
-200.043007
 20
-35.552008
 10
-200.064376
 20
-35.446866
 10
-200.088761
 20
-35.342356
 10
-200.113529
 20
-35.248198
 10
-200.14091
 20
-35.154753
 10
-200.170999
 20
-35.062148
 10
-200.278505
 20
-34.790648
 10
-200.320411
 20
-34.702678
 10
-200.365517
 20
-34.616185
 10
-200.41392
 20
-34.531298
 10
-200.479265
 20
-34.427757
 10
-200.550345
 20
-34.328029
 10
-200.627587
 20
-34.233221
 10
-200.711417
 20
-34.144438
 10
-200.802264
 20
-34.062784
 10
-200.900555
 20
-33.989366
 10
-201.005984
 20
-33.925619
 10
-201.117663
 20
-33.872929
 10
-201.234031
 20
-33.833084
 10
-201.353524
 20
-33.807867
 10
-201.47458
 20
-33.799064
  0
LWPOLYLINE
  5
33B
100
AcDbEntity
  8
3
370
    50
100
AcDbPolyline
 90
      114
 70
     0
 10
-201.47458
 20
-34.799064
 10
-201.509183
 20
-34.803366
 10
-201.54332
 20
-34.815366
 10
-201.576528
 20
-34.83371
 10
-201.60834
 20
-34.857041
 10
-201.638293
 20
-34.884005
 10
-201.665922
 20
-34.913245
 10
-201.692931
 20
-34.94631
 10
-201.716959
 20
-34.980366
 10
-201.73832
 20
-35.015318
 10
-201.789553
 20
-35.124576
 10
-201.803399
 20
-35.16214
 10
-201.816154
 20
-35.200115
 10
-201.828134
 20
-35.238404
 10
-201.839926
 20
-35.278046
 10
-201.851227
 20
-35.317903
 10
-201.862034
 20
-35.357961
 10
-201.891459
 20
-35.479187
 10
-201.916317
 20
-35.601681
 10
-201.923573
 20
-35.642724
 10
-201.930309
 20
-35.683849
 10
-201.93652
 20
-35.725039
 10
-201.941788
 20
-35.76311
 10
-201.946618
 20
-35.801222
 10
-201.951021
 20
-35.839372
 10
-201.961778
 20
-35.95402
 10
-201.96909
 20
-36.068904
 10
-201.973258
 20
-36.183945
 10
-201.974
 20
-36.222313
 10
-201.974437
 20
-36.260687
 10
-201.97458
 20
-36.299064
 10
-201.974437
 20
-36.337442
 10
-201.974
 20
-36.375816
 10
-201.973258
 20
-36.414184
 10
-201.96909
 20
-36.529225
 10
-201.961778
 20
-36.644109
 10
-201.951021
 20
-36.758757
 10
-201.946618
 20
-36.796907
 10
-201.941788
 20
-36.835019
 10
-201.93652
 20
-36.87309
 10
-201.930309
 20
-36.91428
 10
-201.923573
 20
-36.955405
 10
-201.916317
 20
-36.996448
 10
-201.891459
 20
-37.118942
 10
-201.862034
 20
-37.240168
 10
-201.851227
 20
-37.280226
 10
-201.839926
 20
-37.320083
 10
-201.828134
 20
-37.359725
 10
-201.816154
 20
-37.398014
 10
-201.803399
 20
-37.435989
 10
-201.789553
 20
-37.473553
 10
-201.73832
 20
-37.582811
 10
-201.716959
 20
-37.617763
 10
-201.692931
 20
-37.651819
 10
-201.665922
 20
-37.684884
 10
-201.638293
 20
-37.714124
 10
-201.60834
 20
-37.741088
 10
-201.576528
 20
-37.764419
 10
-201.54332
 20
-37.782763
 10
-201.509183
 20
-37.794763
 10
-201.47458
 20
-37.799064
 10
-201.439978
 20
-37.794763
 10
-201.405841
 20
-37.782763
 10
-201.372633
 20
-37.764419
 10
-201.34082
 20
-37.741088
 10
-201.310867
 20
-37.714124
 10
-201.283239
 20
-37.684884
 10
-201.256229
 20
-37.651819
 10
-201.232202
 20
-37.617763
 10
-201.210841
 20
-37.582811
 10
-201.159607
 20
-37.473553
 10
-201.145762
 20
-37.435989
 10
-201.133006
 20
-37.398014
 10
-201.121027
 20
-37.359725
 10
-201.105413
 20
-37.30682
 10
-201.090674
 20
-37.253542
 10
-201.076816
 20
-37.199925
 10
-201.040617
 20
-37.037395
 10
-201.030367
 20
-36.982777
 10
-201.021039
 20
-36.927996
 10
-201.012641
 20
-36.87309
 10
-201.006124
 20
-36.825494
 10
-201.000288
 20
-36.777836
 10
-200.995111
 20
-36.730121
 10
-200.983315
 20
-36.586692
 10
-200.976666
 20
-36.442955
 10
-200.975493
 20
-36.395001
 10
-200.974805
 20
-36.347036
 10
-200.97458
 20
-36.299064
 10
-200.974805
 20
-36.251093
 10
-200.975493
 20
-36.203128
 10
-200.976666
 20
-36.155174
 10
-200.983315
 20
-36.011437
 10
-200.995111
 20
-35.868008
 10
-201.000288
 20
-35.820293
 10
-201.006124
 20
-35.772635
 10
-201.012641
 20
-35.725039
 10
-201.021039
 20
-35.670132
 10
-201.030367
 20
-35.615352
 10
-201.040617
 20
-35.560734
 10
-201.076816
 20
-35.398204
 10
-201.090674
 20
-35.344587
 10
-201.105413
 20
-35.291309
 10
-201.121027
 20
-35.238404
 10
-201.139267
 20
-35.181082
 10
-201.159607
 20
-35.124576
 10
-201.18311
 20
-35.069212
 10
-201.210841
 20
-35.015318
 10
-201.243862
 20
-34.96322
 10
-201.283239
 20
-34.913245
 10
-201.325582
 20
-34.870154
 10
-201.372633
 20
-34.83371
 10
-201.422822
 20
-34.808488
 10
-201.47458
 20
-34.799064
  0
LINE
  5
3AF
100
AcDbEntity
  8
3
370
    50
100
AcDbLine
 10
-203.47458
 20
-34.099064
 30
0.0
 11
-203.47458
 21
-36.799064
 31
0.0
  0
LINE
  5
3B0
100
AcDbEntity
  8
3
370
    50
100
AcDbLine
 10
-204.47458
 20
-34.917098
 30
0.0
 11
-204.47458
 21
-36.699064
 31
0.0
  0
LINE
  5
3B1
100
AcDbEntity
  8
3
370
    50
100
AcDbLine
 10
-203.47458
 20
-37.799064
 30
0.0
 11
-203.27458
 21
-37.799064
 31
0.0
  0
LINE
  5
3B2
100
AcDbEntity
  8
3
370
    50
100
AcDbLine
 10
-205.25376
 20
-36.799064
 30
0.0
 11
-204.57458
 21
-36.799064
 31
0.0
  0
LINE
  5
3B3
100
AcDbEntity
  8
3
370
    50
100
AcDbLine
 10
-204.557498
 20
-33.9649
 30
0.0
 11
-205.942908
 21
-36.735721
 31
0.0
  0
LINE
  5
3B4
100
AcDbEntity
  8
3
370
    50
100
AcDbLine
 10
-204.47458
 20
-34.917098
 30
0.0
 11
-205.343203
 21
-36.654343
 31
0.0
  0
ARC
  5
3B5
100
AcDbEntity
  8
3
370
    50
100
AcDbCircle
 10
-205.25376
 20
-36.699064
 30
0.0
 40
0.1
100
AcDbArc
 50
153.434949
 51
270.0
  0
ARC
  5
3B6
100
AcDbEntity
  8
3
370
    50
100
AcDbCircle
 10
-204.57458
 20
-36.699064
 30
0.0
 40
0.1
100
AcDbArc
 50
270.0
 51
360.0
  0
LINE
  5
3B7
100
AcDbEntity
  8
3
370
    50
100
AcDbLine
 10
-203.47458
 20
-36.799064
 30
0.0
 11
-203.27458
 21
-36.799064
 31
0.0
  0
LINE
  5
3B8
100
AcDbEntity
  8
3
370
    50
100
AcDbLine
 10
-203.47458
 20
-38.499064
 30
0.0
 11
-203.47458
 21
-37.799064
 31
0.0
  0
LINE
  5
3B9
100
AcDbEntity
  8
3
370
    50
100
AcDbLine
 10
-204.47458
 20
-38.499064
 30
0.0
 11
-204.47458
 21
-37.799064
 31
0.0
  0
LINE
  5
3BA
100
AcDbEntity
  8
3
370
    50
100
AcDbLine
 10
-205.67458
 20
-37.799064
 30
0.0
 11
-204.47458
 21
-37.799064
 31
0.0
  0
LINE
  5
3BB
100
AcDbEntity
  8
3
370
    50
100
AcDbLine
 10
-202.97458
 20
-37.099064
 30
0.0
 11
-202.97458
 21
-37.499064
 31
0.0
  0
ARC
  5
3BC
100
AcDbEntity
  8
3
370
    50
100
AcDbCircle
 10
-204.28917
 20
-34.099064
 30
0.0
 40
0.3
100
AcDbArc
 50
90.0
 51
153.434949
  0
ARC
  5
3BD
100
AcDbEntity
  8
3
370
    50
100
AcDbCircle
 10
-203.77458
 20
-34.099064
 30
0.0
 40
0.3
100
AcDbArc
 50
0.0
 51
90.0
  0
ARC
  5
3BE
100
AcDbEntity
  8
3
370
    50
100
AcDbCircle
 10
-205.67458
 20
-37.499064
 30
0.0
 40
0.3
100
AcDbArc
 50
180.0
 51
270.0
  0
ARC
  5
3BF
100
AcDbEntity
  8
3
370
    50
100
AcDbCircle
 10
-203.27458
 20
-37.099064
 30
0.0
 40
0.3
100
AcDbArc
 50
0.0
 51
90.0
  0
ARC
  5
3C0
100
AcDbEntity
  8
3
370
    50
100
AcDbCircle
 10
-203.27458
 20
-37.499064
 30
0.0
 40
0.3
100
AcDbArc
 50
270.0
 51
360.0
  0
ARC
  5
3C1
100
AcDbEntity
  8
3
370
    50
100
AcDbCircle
 10
-204.17458
 20
-38.499064
 30
0.0
 40
0.3
100
AcDbArc
 50
180.0
 51
270.0
  0
ARC
  5
3C2
100
AcDbEntity
  8
3
370
    50
100
AcDbCircle
 10
-203.77458
 20
-38.499064
 30
0.0
 40
0.3
100
AcDbArc
 50
270.0
 51
360.0
  0
LINE
  5
3C3
100
AcDbEntity
  8
3
370
    25
100
AcDbLine
 10
-205.798012
 20
-37.772496
 30
0.0
 11
-204.82458
 21
-36.799064
 31
0.0
  0
LINE
  5
3C4
100
AcDbEntity
  8
3
370
    25
100
AcDbLine
 10
-204.47458
 20
-36.449064
 30
0.0
 11
-203.47458
 21
-35.449064
 31
0.0
  0
LINE
  5
3C5
100
AcDbEntity
  8
3
370
    25
100
AcDbLine
 10
-205.541738
 20
-37.799064
 30
0.0
 11
-204.532412
 21
-36.789739
 31
0.0
  0
LINE
  5
3C6
100
AcDbEntity
  8
3
370
    25
100
AcDbLine
 10
-204.483906
 20
-36.741233
 30
0.0
 11
-203.47458
 21
-35.731907
 31
0.0
  0
LINE
  5
3C7
100
AcDbEntity
  8
3
370
    25
100
AcDbLine
 10
-205.258895
 20
-37.799064
 30
0.0
 11
-203.47458
 21
-36.01475
 31
0.0
  0
LINE
  5
3C8
100
AcDbEntity
  8
3
370
    25
100
AcDbLine
 10
-204.976052
 20
-37.799064
 30
0.0
 11
-203.47458
 21
-36.297593
 31
0.0
  0
LINE
  5
3C9
100
AcDbEntity
  8
3
370
    25
100
AcDbLine
 10
-204.693209
 20
-37.799064
 30
0.0
 11
-203.47458
 21
-36.580435
 31
0.0
  0
LINE
  5
3CA
100
AcDbEntity
  8
3
370
    25
100
AcDbLine
 10
-204.47458
 20
-37.863278
 30
0.0
 11
-203.410367
 21
-36.799064
 31
0.0
  0
LINE
  5
3CB
100
AcDbEntity
  8
3
370
    25
100
AcDbLine
 10
-204.47458
 20
-38.146121
 30
0.0
 11
-203.153183
 21
-36.824724
 31
0.0
  0
LINE
  5
3CC
100
AcDbEntity
  8
3
370
    25
100
AcDbLine
 10
-204.47458
 20
-38.428963
 30
0.0
 11
-203.007686
 21
-36.96207
 31
0.0
  0
LINE
  5
3CD
100
AcDbEntity
  8
3
370
    25
100
AcDbLine
 10
-204.425806
 20
-38.663032
 30
0.0
 11
-202.97458
 21
-37.211806
 31
0.0
  0
LINE
  5
3CE
100
AcDbEntity
  8
3
370
    25
100
AcDbLine
 10
-204.265034
 20
-38.785103
 30
0.0
 11
-203.47458
 21
-37.994649
 31
0.0
  0
LINE
  5
3CF
100
AcDbEntity
  8
3
370
    25
100
AcDbLine
 10
-203.278996
 20
-37.799064
 30
0.0
 11
-202.97458
 21
-37.494649
 31
0.0
  0
LINE
  5
3D0
100
AcDbEntity
  8
3
370
    25
100
AcDbLine
 10
-203.996153
 20
-38.799064
 30
0.0
 11
-203.47458
 21
-38.277492
 31
0.0
  0
LINE
  5
3D1
100
AcDbEntity
  8
3
370
    25
100
AcDbLine
 10
-203.70517
 20
-38.790925
 30
0.0
 11
-203.48272
 21
-38.568474
 31
0.0
  0
LINE
  5
3D2
100
AcDbEntity
  8
3
370
    25
100
AcDbLine
 10
-205.942467
 20
-37.634108
 30
0.0
 11
-205.107423
 21
-36.799064
 31
0.0
  0
LINE
  5
3D3
100
AcDbEntity
  8
3
370
    25
100
AcDbLine
 10
-204.47458
 20
-36.166222
 30
0.0
 11
-203.47458
 21
-35.166222
 31
0.0
  0
LINE
  5
3D4
100
AcDbEntity
  8
3
370
    25
100
AcDbLine
 10
-205.97458
 20
-37.383379
 30
0.0
 11
-205.340327
 21
-36.749126
 31
0.0
  0
LINE
  5
3D5
100
AcDbEntity
  8
3
370
    25
100
AcDbLine
 10
-204.47458
 20
-35.883379
 30
0.0
 11
-203.47458
 21
-34.883379
 31
0.0
  0
LINE
  5
3D6
100
AcDbEntity
  8
3
370
    25
100
AcDbLine
 10
-205.97458
 20
-37.100536
 30
0.0
 11
-205.158018
 21
-36.283974
 31
0.0
  0
LINE
  5
3D7
100
AcDbEntity
  8
3
370
    25
100
AcDbLine
 10
-204.47458
 20
-35.600536
 30
0.0
 11
-203.47458
 21
-34.600536
 31
0.0
  0
LINE
  5
3D8
100
AcDbEntity
  8
3
370
    25
100
AcDbLine
 10
-205.968957
 20
-36.81207
 30
0.0
 11
-204.875175
 21
-35.718289
 31
0.0
  0
LINE
  5
3D9
100
AcDbEntity
  8
3
370
    25
100
AcDbLine
 10
-204.47458
 20
-35.317694
 30
0.0
 11
-203.47458
 21
-34.317694
 31
0.0
  0
LINE
  5
3DA
100
AcDbEntity
  8
3
370
    25
100
AcDbLine
 10
-203.480332
 20
-34.040602
 30
0.0
 11
-204.47458
 21
-35.034851
 31
0.0
  0
LINE
  5
3DB
100
AcDbEntity
  8
3
370
    25
100
AcDbLine
 10
-204.592333
 20
-35.152603
 30
0.0
 11
-205.710367
 21
-36.270637
 31
0.0
  0
LINE
  5
3DC
100
AcDbEntity
  8
3
370
    25
100
AcDbLine
 10
-203.587285
 20
-33.864713
 30
0.0
 11
-205.427524
 21
-35.704952
 31
0.0
  0
LINE
  5
3DD
100
AcDbEntity
  8
3
370
    25
100
AcDbLine
 10
-203.804479
 20
-33.799064
 30
0.0
 11
-205.144681
 21
-35.139267
 31
0.0
  0
LINE
  5
3DE
100
AcDbEntity
  8
3
370
    25
100
AcDbLine
 10
-204.087322
 20
-33.799064
 30
0.0
 11
-204.861839
 21
-34.573581
 31
0.0
  0
LINE
  5
3DF
100
AcDbEntity
  8
3
370
    25
100
AcDbLine
 10
-204.386336
 20
-33.815236
 30
0.0
 11
-204.578996
 21
-34.007896
 31
0.0
  0
HATCH
  5
3E0
100
AcDbEntity
  8
3
370
    25
100
AcDbHatch
 10
0.0
 20
0.0
 30
0.0
210
0.0
220
0.0
230
1.0
  2
_U
 70
     0
 71
     1
 91
        2
 92
        1
 93
        8
 72
     1
 10
-201.47458
 20
-33.799064000000001
 11
-202.53523999999999
 21
-34.531298
 72
     1
 10
-202.53523999999999
 20
-34.531298
 11
-202.97458
 21
-36.299064000000001
 72
     1
 10
-202.97458
 20
-36.299064000000001
 11
-202.53523999999999
 21
-38.066831000000001
 72
     1
 10
-202.53523999999999
 20
-38.066831000000001
 11
-201.47458
 21
-38.799064000000001
 72
     1
 10
-201.47458
 20
-38.799064000000001
 11
-200.41391999999999
 21
-38.066831000000001
 72
     1
 10
-200.41391999999999
 20
-38.066831000000001
 11
-199.97458
 21
-36.299064000000001
 72
     1
 10
-199.97458
 20
-36.299064000000001
 11
-200.41391999999999
 21
-34.531298
 72
     1
 10
-200.41391999999999
 20
-34.531298
 11
-201.47458
 21
-33.799064000000001
 97
        8
330
0
330
0
330
0
330
0
330
0
330
0
330
0
330
0
 92
        0
 93
        9
 72
     1
 10
-201.47458
 20
-34.799064000000001
 11
-201.82813400000001
 21
-35.238404000000003
 72
     1
 10
-201.82813400000001
 20
-35.238404000000003
 11
-201.97458
 21
-36.299064000000001
 72
     1
 10
-201.97458
 20
-36.299064000000001
 11
-201.93652
 21
-36.873089999999998
 72
     1
 10
-201.93652
 20
-36.873089999999998
 11
-201.66592199999999
 21
-37.684883999999997
 72
     1
 10
-201.66592199999999
 20
-37.684883999999997
 11
-201.121027
 21
-37.359724999999997
 72
     1
 10
-201.121027
 20
-37.359724999999997
 11
-200.97458
 21
-36.299064000000001
 72
     1
 10
-200.97458
 20
-36.299064000000001
 11
-201.012641
 21
-35.725039000000002
 72
     1
 10
-201.012641
 20
-35.725039000000002
 11
-201.28323900000001
 21
-34.913245000000003
 72
     1
 10
-201.28323900000001
 20
-34.913245000000003
 11
-201.47458
 21
-34.799064000000001
 97
        9
330
0
330
0
330
0
330
0
330
0
330
0
330
0
330
0
330
0
 75
     0
 76
     0
 52
45.0
 41
1.0
 77
     0
 78
     1
 53
45.0
 43
0.0
 44
0.0
 45
-0.141421
 46
0.141421
 79
     0
 98
        1
 10
0.0
 20
0.0
  0
LINE
  5
3E1
100
AcDbEntity
  8
3
370
    50
100
AcDbLine
 10
-205.97458
 20
-36.869885
 30
0.0
 11
-205.97458
 21
-37.499064
 31
0.0
  0
ARC
  5
3E2
100
AcDbEntity
  8
3
370
    50
100
AcDbCircle
 10
-205.67458
 20
-36.869885
 30
0.0
 40
0.3
100
AcDbArc
 50
153.434949
 51
180.0
  0
LINE
  5
3E3
100
AcDbEntity
  8
3
370
    50
100
AcDbLine
 10
-202.47458
 20
-41.299064
 30
0.0
 11
-203.47458
 21
-41.299064
 31
0.0
  0
LINE
  5
3E4
100
AcDbEntity
  8
3
370
    50
100
AcDbLine
 10
-202.47458
 20
-74.15124
 30
0.0
 11
-202.47458
 21
-41.299064
 31
0.0
  0
LINE
  5
3E5
100
AcDbEntity
  8
3
370
    50
100
AcDbLine
 10
-203.47458
 20
-74.15124
 30
0.0
 11
-203.47458
 21
-41.299064
 31
0.0
  0
LINE
  5
3E6
100
AcDbEntity
  8
3
370
    50
100
AcDbLine
 10
-198.97458
 20
-30.65124
 30
0.0
 11
-198.97458
 21
-52.15124
 31
0.0
  0
LINE
  5
3E7
100
AcDbEntity
  8
3
370
    50
100
AcDbLine
 10
-236.992583
 20
-74.15124
 30
0.0
 11
-199.47458
 21
-74.15124
 31
0.0
  0
LINE
  5
3E8
100
AcDbEntity
  8
3
370
    50
100
AcDbLine
 10
-241.47458
 20
-41.150873
 30
0.0
 11
-241.47458
 21
-63.151607
 31
0.0
  0
LINE
  5
3E9
100
AcDbEntity
  8
3
370
    50
100
AcDbLine
 10
-198.97458
 20
-32.45124
 30
0.0
 11
-198.97458
 21
-52.15124
 31
0.0
  0
LINE
  5
3EA
100
AcDbEntity
  8
3
370
    50
100
AcDbLine
 10
-198.97458
 20
-73.65124
 30
0.0
 11
-198.97458
 21
-52.15124
 31
0.0
  0
LINE
  5
3EB
100
AcDbEntity
  8
3
370
    50
100
AcDbLine
 10
-198.97458
 20
-71.85124
 30
0.0
 11
-198.97458
 21
-52.15124
 31
0.0
  0
LINE
  5
3EC
100
AcDbEntity
  8
3
370
    50
100
AcDbLine
 10
-241.47458
 20
-41.150873
 30
0.0
 11
-238.924435
 21
-31.633602
 31
0.0
  0
LINE
  5
3ED
100
AcDbEntity
  8
3
370
    50
100
AcDbLine
 10
-241.47458
 20
-63.151607
 30
0.0
 11
-238.924435
 21
-72.668878
 31
0.0
  0
ARC
  5
3EE
100
AcDbEntity
  8
3
370
    50
100
AcDbCircle
 10
-236.992583
 20
-32.15124
 30
0.0
 40
2.0
100
AcDbArc
 50
90.0
 51
165.0
  0
ARC
  5
3EF
100
AcDbEntity
  8
3
370
    50
100
AcDbCircle
 10
-236.992583
 20
-72.15124
 30
0.0
 40
2.0
100
AcDbArc
 50
195.0
 51
270.0
  0
ARC
  5
3F0
100
AcDbEntity
  8
3
370
    50
100
AcDbCircle
 10
-199.47458
 20
-30.65124
 30
0.0
 40
0.5
100
AcDbArc
 50
0.0
 51
90.0
  0
ARC
  5
3F1
100
AcDbEntity
  8
3
370
    50
100
AcDbCircle
 10
-199.47458
 20
-73.65124
 30
0.0
 40
0.5
100
AcDbArc
 50
270.0
 51
360.0
  0
ELLIPSE
  5
3F2
100
AcDbEntity
  8
3
370
    50
100
AcDbEllipse
 10
-211.97458
 20
-35.552633
 30
0.0
 11
3.5
 21
0.0
 31
0.0
210
0.0
220
0.0
230
1.0
 40
0.763714
 41
0.0
 42
6.2831849999999996
  0
LINE
  5
3F3
100
AcDbEntity
  8
3
370
    50
100
AcDbLine
 10
-208.47458
 20
-35.552633
 30
0.0
 11
-208.47458
 21
-39.795274
 31
0.0
  0
LINE
  5
3F4
100
AcDbEntity
  8
3
370
    50
100
AcDbLine
 10
-215.47458
 20
-35.552633
 30
0.0
 11
-215.47458
 21
-39.795274
 31
0.0
  0
ELLIPSE
  5
3F5
100
AcDbEntity
  8
3
370
    50
100
AcDbEllipse
 10
-211.97458
 20
-39.795274
 30
0.0
 11
3.5
 21
0.0
 31
0.0
210
0.0
220
0.0
230
1.0
 40
0.763714
 41
3.1415929999999999
 42
0.0
  0
LINE
  5
3F6
100
AcDbEntity
  8
3
370
    50
100
AcDbLine
 10
-236.992583
 20
-30.15124
 30
0.0
 11
-209.989312
 21
-30.15124
 31
0.0
  0
LINE
  5
3F7
100
AcDbEntity
  8
3
370
    50
100
AcDbLine
 10
-209.989312
 20
-30.15124
 30
0.0
 11
-199.47458
 21
-30.15124
 31
0.0
  0
LINE
  5
3F8
100
AcDbEntity
  8
3
370
    50
100
AcDbLine
 10
-235.124443
 20
-35.334832
 30
0.0
 11
-225.641869
 21
-35.334832
 31
0.0
  0
LINE
  5
3F9
100
AcDbEntity
  8
3
370
    50
100
AcDbLine
 10
-235.971976
 20
-30.385085
 30
0.0
 11
-224.303631
 21
-30.385085
 31
0.0
  0
LINE
  5
3FA
100
AcDbEntity
  8
3
370
    50
100
AcDbLine
 10
-222.737823
 20
-35.334832
 30
0.0
 11
-221.913844
 21
-38.668138
 31
0.0
  0
ARC
  5
3FB
100
AcDbEntity
  8
3
370
    50
100
AcDbCircle
 10
-217.059945
 20
-37.468275
 30
0.0
 40
5.0
100
AcDbArc
 50
193.884933
 51
270.0
  0
LINE
  5
3FC
100
AcDbEntity
  8
3
370
    50
100
AcDbLine
 10
-237.771248
 20
-35.334832
 30
0.0
 11
-238.527237
 21
-42.469359
 31
0.0
  0
LINE
  5
3FD
100
AcDbEntity
  8
3
370
    50
100
AcDbLine
 10
-222.362072
 20
-31.905139
 30
0.0
 11
-221.913844
 21
-33.718391
 31
0.0
  0
ARC
  5
3FE
100
AcDbEntity
  8
3
370
    50
100
AcDbCircle
 10
-217.059945
 20
-32.518527
 30
0.0
 40
5.0
100
AcDbArc
 50
193.884933
 51
270.0
  0
LINE
  5
3FF
100
AcDbEntity
  8
3
370
    50
100
AcDbLine
 10
-237.960841
 20
-32.17434
 30
0.0
 11
-238.527237
 21
-37.519612
 31
0.0
  0
ARC
  5
400
100
AcDbEntity
  8
3
370
    50
100
AcDbCircle
 10
-224.303631
 20
-32.385085
 30
0.0
 40
2.0
100
AcDbArc
 50
13.884933
 51
90.0
  0
ARC
  5
401
100
AcDbEntity
  8
3
370
    50
100
AcDbCircle
 10
-235.971976
 20
-32.385085
 30
0.0
 40
2.0
100
AcDbArc
 50
90.0
 51
173.951392
  0
ARC
  5
402
100
AcDbEntity
  8
3
370
    50
100
AcDbCircle
 10
-235.771248
 20
-33.334832
 30
0.0
 40
2.0
100
AcDbArc
 50
188.117936
 51
243.547871
  0
ARC
  5
403
100
AcDbEntity
  8
3
370
    50
100
AcDbCircle
 10
-224.737823
 20
-33.334832
 30
0.0
 40
2.0
100
AcDbArc
 50
270.0
 51
337.467588
  0
LINE
  5
404
100
AcDbEntity
  8
3
370
    50
100
AcDbLine
 10
-238.527237
 20
-70.886185
 30
0.0
 11
-238.527237
 21
-42.468275
 31
0.0
  0
LINE
  5
405
100
AcDbEntity
  8
3
370
    50
100
AcDbLine
 10
-238.527237
 20
-37.519612
 30
0.0
 11
-238.527237
 21
-31.633602
 31
0.0
  0
LINE
  5
406
100
AcDbEntity
  8
3
370
    25
100
AcDbLine
 10
-217.059945
 20
-42.468275
 30
0.0
 11
-237.845131
 21
-42.468275
 31
0.0
  0
LINE
  5
407
100
AcDbEntity
  8
3
370
    50
100
AcDbLine
 10
-202.47458
 20
-30.803415
 30
0.0
 11
-203.47458
 21
-30.803415
 31
0.0
  0
LINE
  5
408
100
AcDbEntity
  8
3
370
    50
100
AcDbLine
 10
-202.47458
 20
-30.803415
 30
0.0
 11
-203.47458
 21
-30.803415
 31
0.0
  0
LINE
  5
409
100
AcDbEntity
  8
3
370
    50
100
AcDbLine
 10
-202.47458
 20
-30.15124
 30
0.0
 11
-202.47458
 21
-30.803415
 31
0.0
  0
LINE
  5
40A
100
AcDbEntity
  8
3
370
    50
100
AcDbLine
 10
-203.47458
 20
-30.15124
 30
0.0
 11
-203.47458
 21
-30.803415
 31
0.0
  0
LINE
  5
40B
100
AcDbEntity
  8
3
370
    50
100
AcDbLine
 10
-202.47458
 20
-74.15124
 30
0.0
 11
-203.47458
 21
-74.15124
 31
0.0
  0
LINE
  5
40C
100
AcDbEntity
  8
3
370
    50
100
AcDbLine
 10
-202.47458
 20
-30.15124
 30
0.0
 11
-203.47458
 21
-30.15124
 31
0.0
  0
HATCH
  5
40D
100
AcDbEntity
  8
3
370
    25
100
AcDbHatch
 10
0.0
 20
0.0
 30
0.0
210
0.0
220
0.0
230
1.0
  2
_U
 70
     0
 71
     1
 91
        1
 92
        1
 93
        4
 72
     1
 10
-203.47458
 20
-41.299064000000001
 11
-202.47458
 21
-41.299064000000001
 72
     1
 10
-202.47458
 20
-41.299064000000001
 11
-202.47458
 21
-74.151240000000001
 72
     1
 10
-202.47458
 20
-74.151240000000001
 11
-203.47458
 21
-74.151240000000001
 72
     1
 10
-203.47458
 20
-74.151240000000001
 11
-203.47458
 21
-41.299064000000001
 97
        4
330
0
330
0
330
0
330
0
 75
     0
 76
     0
 52
45.0
 41
1.0
 77
     0
 78
     1
 53
45.0
 43
0.0
 44
0.0
 45
-0.141421
 46
0.141421
 79
     0
 98
        1
 10
0.0
 20
0.0
  0
HATCH
  5
40E
100
AcDbEntity
  8
3
370
    25
100
AcDbHatch
 10
0.0
 20
0.0
 30
0.0
210
0.0
220
0.0
230
1.0
  2
_U
 70
     0
 71
     1
 91
        1
 92
        1
 93
        6
 72
     1
 10
-203.47458
 20
-30.803415000000001
 11
-202.47458
 21
-30.803415000000001
 72
     1
 10
-202.47458
 20
-30.803415000000001
 11
-203.47458
 21
-30.803415000000001
 72
     1
 10
-203.47458
 20
-30.803415000000001
 11
-203.47458
 21
-30.151240000000001
 72
     1
 10
-203.47458
 20
-30.151240000000001
 11
-202.47458
 21
-30.151240000000001
 72
     1
 10
-202.47458
 20
-30.151240000000001
 11
-202.47458
 21
-30.803415000000001
 72
     1
 10
-202.47458
 20
-30.803415000000001
 11
-203.47458
 21
-30.803415000000001
 97
        6
330
0
330
0
330
0
330
0
330
0
330
0
 75
     0
 76
     0
 52
45.0
 41
1.0
 77
     0
 78
     1
 53
45.0
 43
0.0
 44
0.0
 45
-0.141421
 46
0.141421
 79
     0
 98
        1
 10
0.0
 20
0.0
  0
LINE
  5
40F
100
AcDbEntity
  8
3
370
    50
100
AcDbLine
 10
-167.673582
 20
137.118119
 30
0.0
 11
-167.673582
 21
139.118119
 31
0.0
  0
LINE
  5
410
100
AcDbEntity
  8
3
370
    50
100
AcDbLine
 10
-188.673582
 20
137.118119
 30
0.0
 11
-188.673582
 21
139.118119
 31
0.0
  0
LINE
  5
411
100
AcDbEntity
  8
3
370
    50
100
AcDbLine
 10
-188.673582
 20
137.118119
 30
0.0
 11
-186.473582
 21
137.118119
 31
0.0
  0
LINE
  5
412
100
AcDbEntity
  8
3
370
    50
100
AcDbLine
 10
-169.873582
 20
137.118119
 30
0.0
 11
-167.673582
 21
137.118119
 31
0.0
  0
ARC
  5
413
100
AcDbEntity
  8
3
370
    50
100
AcDbCircle
 10
-176.173582
 20
145.368119
 30
0.0
 40
14.0
100
AcDbArc
 50
333.485225
 51
26.514775
  0
ARC
  5
414
100
AcDbEntity
  8
3
370
    50
100
AcDbCircle
 10
-180.173582
 20
145.368119
 30
0.0
 40
14.0
100
AcDbArc
 50
153.485225
 51
206.514775
  0
LINE
  5
415
100
AcDbEntity
  8
3
370
    50
100
AcDbLine
 10
-192.701052
 20
139.118119
 30
0.0
 11
-178.173582
 21
139.118119
 31
0.0
  0
LINE
  5
416
100
AcDbEntity
  8
3
370
    50
100
AcDbLine
 10
-189.223582
 20
139.118119
 30
0.0
 11
-188.673582
 21
139.118119
 31
0.0
  0
LINE
  5
417
100
AcDbEntity
  8
3
370
    50
100
AcDbLine
 10
-178.173582
 20
139.118119
 30
0.0
 11
-163.646112
 21
139.118119
 31
0.0
  0
LINE
  5
418
100
AcDbEntity
  8
3
370
    50
100
AcDbLine
 10
-192.701052
 20
151.618119
 30
0.0
 11
-178.173582
 21
151.618119
 31
0.0
  0
LINE
  5
419
100
AcDbEntity
  8
3
370
    50
100
AcDbLine
 10
-178.173582
 20
151.618119
 30
0.0
 11
-163.646112
 21
151.618119
 31
0.0
  0
ELLIPSE
  5
41A
100
AcDbEntity
  8
3
370
    50
100
AcDbEllipse
 10
-178.173582
 20
145.368119
 30
0.0
 11
-5.5679999999999996
 21
0.0
 31
0.0
210
0.0
220
0.0
230
1.0
 40
0.76329
 41
4.7123889999999999
 42
1.5707960000000001
  0
ELLIPSE
  5
41B
100
AcDbEntity
  8
3
370
    50
100
AcDbEllipse
 10
-191.163963
 20
145.368119
 30
0.0
 11
0.0
 21
-4.25
 31
0.0
210
0.0
220
0.0
230
1.0
 40
0.655059
 41
0.0
 42
6.2831849999999996
  0
ELLIPSE
  5
41C
100
AcDbEntity
  8
3
370
    50
100
AcDbEllipse
 10
-178.173582
 20
145.368119
 30
0.0
 11
5.5679999999999996
 21
0.0
 31
0.0
210
0.0
220
0.0
230
1.0
 40
0.76329
 41
4.7123889999999999
 42
1.5707960000000001
  0
ELLIPSE
  5
41D
100
AcDbEntity
  8
3
370
    50
100
AcDbEllipse
 10
-165.183201
 20
145.368119
 30
0.0
 11
0.0
 21
4.25
 31
0.0
210
0.0
220
0.0
230
1.0
 40
0.655059
 41
0.0
 42
6.2831849999999996
  0
LINE
  5
41E
100
AcDbEntity
  8
3
370
    50
100
AcDbLine
 10
-88.673582
 20
137.118119
 30
0.0
 11
-88.673582
 21
139.118119
 31
0.0
  0
LINE
  5
41F
100
AcDbEntity
  8
3
370
    50
100
AcDbLine
 10
-67.673582
 20
137.118119
 30
0.0
 11
-67.673582
 21
139.118119
 31
0.0
  0
LINE
  5
420
100
AcDbEntity
  8
3
370
    50
100
AcDbLine
 10
-67.673582
 20
137.118119
 30
0.0
 11
-69.873582
 21
137.118119
 31
0.0
  0
LINE
  5
421
100
AcDbEntity
  8
3
370
    50
100
AcDbLine
 10
-86.473582
 20
137.118119
 30
0.0
 11
-88.673582
 21
137.118119
 31
0.0
  0
ARC
  5
422
100
AcDbEntity
  8
3
370
    50
100
AcDbCircle
 10
-80.173582
 20
145.368119
 30
0.0
 40
14.0
100
AcDbArc
 50
153.485225
 51
206.514775
  0
ARC
  5
423
100
AcDbEntity
  8
3
370
    50
100
AcDbCircle
 10
-76.173582
 20
145.368119
 30
0.0
 40
14.0
100
AcDbArc
 50
333.485225
 51
26.514775
  0
LINE
  5
424
100
AcDbEntity
  8
3
370
    50
100
AcDbLine
 10
-63.646112
 20
139.118119
 30
0.0
 11
-78.173582
 21
139.118119
 31
0.0
  0
LINE
  5
425
100
AcDbEntity
  8
3
370
    50
100
AcDbLine
 10
-67.123582
 20
139.118119
 30
0.0
 11
-67.673582
 21
139.118119
 31
0.0
  0
LINE
  5
426
100
AcDbEntity
  8
3
370
    50
100
AcDbLine
 10
-78.173582
 20
139.118119
 30
0.0
 11
-92.701052
 21
139.118119
 31
0.0
  0
LINE
  5
427
100
AcDbEntity
  8
3
370
    50
100
AcDbLine
 10
-63.646112
 20
151.618119
 30
0.0
 11
-78.173582
 21
151.618119
 31
0.0
  0
LINE
  5
428
100
AcDbEntity
  8
3
370
    50
100
AcDbLine
 10
-78.173582
 20
151.618119
 30
0.0
 11
-92.701052
 21
151.618119
 31
0.0
  0
ELLIPSE
  5
429
100
AcDbEntity
  8
3
370
    50
100
AcDbEllipse
 10
-78.173582
 20
145.368119
 30
0.0
 11
5.5679999999999996
 21
0.0
 31
0.0
210
0.0
220
0.0
230
1.0
 40
0.76329
 41
4.7123889999999999
 42
1.5707960000000001
  0
ELLIPSE
  5
42A
100
AcDbEntity
  8
3
370
    50
100
AcDbEllipse
 10
-65.183201
 20
145.368119
 30
0.0
 11
0.0
 21
4.25
 31
0.0
210
0.0
220
0.0
230
1.0
 40
0.655059
 41
0.0
 42
6.2831849999999996
  0
ELLIPSE
  5
42B
100
AcDbEntity
  8
3
370
    50
100
AcDbEllipse
 10
-78.173582
 20
145.368119
 30
0.0
 11
-5.5679999999999996
 21
0.0
 31
0.0
210
0.0
220
0.0
230
1.0
 40
0.76329
 41
4.7123889999999999
 42
1.5707960000000001
  0
ELLIPSE
  5
42C
100
AcDbEntity
  8
3
370
    50
100
AcDbEllipse
 10
-91.163963
 20
145.368119
 30
0.0
 11
0.0
 21
-4.25
 31
0.0
210
0.0
220
0.0
230
1.0
 40
0.655059
 41
0.0
 42
6.2831849999999996
  0
LINE
  5
42D
100
AcDbEntity
  8
3
370
    50
100
AcDbLine
 10
-198.97458
 20
119.618119
 30
0.0
 11
-198.17416
 21
119.618119
 31
0.0
  0
LINE
  5
42E
100
AcDbEntity
  8
3
370
    50
100
AcDbLine
 10
-198.97458
 20
82.618119
 30
0.0
 11
-198.17416
 21
82.618119
 31
0.0
  0
LINE
  5
42F
100
AcDbEntity
  8
3
370
    50
100
AcDbLine
 10
-114.597969
 20
-84.65124
 30
0.0
 11
-128.173582
 21
-84.65124
 31
0.0
  0
LINE
  5
430
100
AcDbEntity
  8
3
370
    50
100
AcDbLine
 10
-141.749195
 20
-84.65124
 30
0.0
 11
-128.173582
 21
-84.65124
 31
0.0
  0
LINE
  5
431
100
AcDbEntity
  8
3
370
    50
100
AcDbLine
 10
-58.173004
 20
-70.15124
 30
0.0
 11
-57.374424
 21
-70.15124
 31
0.0
  0
LINE
  5
432
100
AcDbEntity
  8
3
370
    50
100
AcDbLine
 10
-198.97458
 20
-70.65124
 30
0.0
 11
-198.17416
 21
-70.65124
 31
0.0
  0
LINE
  5
433
100
AcDbEntity
  8
3
370
    50
100
AcDbLine
 10
-198.97458
 20
-33.65124
 30
0.0
 11
-198.17416
 21
-33.65124
 31
0.0
  0
LINE
  5
434
100
AcDbEntity
  8
3
370
    25
100
AcDbLine
 10
-58.173004
 20
-34.65124
 30
0.0
 11
-57.374424
 21
-34.65124
 31
0.0
  0
LINE
  5
435
100
AcDbEntity
  8
3
370
    50
100
AcDbLine
 10
-135.173582
 20
-74.15124
 30
0.0
 11
-138.673582
 21
-74.15124
 31
0.0
  0
LINE
  5
436
100
AcDbEntity
  8
3
370
    50
100
AcDbLine
 10
-117.673582
 20
-74.15124
 30
0.0
 11
-121.173582
 21
-74.15124
 31
0.0
  0
LINE
  5
437
100
AcDbEntity
  8
3
370
    50
100
AcDbLine
 10
-121.173582
 20
-74.15124
 30
0.0
 11
-128.173582
 21
-74.15124
 31
0.0
  0
LINE
  5
438
100
AcDbEntity
  8
3
370
    50
100
AcDbLine
 10
-138.673582
 20
-74.15124
 30
0.0
 11
-141.119631
 21
-77.066327
 31
0.0
  0
LINE
  5
439
100
AcDbEntity
  8
3
370
    50
100
AcDbLine
 10
-117.673582
 20
-74.15124
 30
0.0
 11
-115.227534
 21
-77.066327
 31
0.0
  0
LINE
  5
43A
100
AcDbEntity
  8
3
370
    50
100
AcDbLine
 10
-115.227534
 20
-77.066327
 30
0.0
 11
-115.227534
 21
-84.65124
 31
0.0
  0
LINE
  5
43B
100
AcDbEntity
  8
3
370
    50
100
AcDbLine
 10
-141.119631
 20
-77.066327
 30
0.0
 11
-141.119631
 21
-84.65124
 31
0.0
  0
LINE
  5
43C
100
AcDbEntity
  8
3
370
    25
100
AcDbLine
 10
-140.319631
 20
-76.112924
 30
0.0
 11
-140.319631
 21
-84.65124
 31
0.0
  0
LINE
  5
43D
100
AcDbEntity
  8
3
370
    25
100
AcDbLine
 10
-116.027534
 20
-76.112924
 30
0.0
 11
-116.027534
 21
-84.65124
 31
0.0
  0
LINE
  5
43E
100
AcDbEntity
  8
3
370
    25
100
AcDbLine
 10
-116.027534
 20
-76.112924
 30
0.0
 11
-128.173582
 21
-76.112924
 31
0.0
  0
LINE
  5
43F
100
AcDbEntity
  8
3
370
    50
100
AcDbLine
 10
-123.93212
 20
-76.112924
 30
0.0
 11
-123.93212
 21
-82.265599
 31
0.0
  0
LINE
  5
440
100
AcDbEntity
  8
3
370
    50
100
AcDbLine
 10
-119.468996
 20
-76.112924
 30
0.0
 11
-119.468996
 21
-82.265599
 31
0.0
  0
LINE
  5
441
100
AcDbEntity
  8
3
370
    50
100
AcDbLine
 10
-115.227534
 20
-82.265599
 30
0.0
 11
-128.173582
 21
-82.265599
 31
0.0
  0
LINE
  5
442
100
AcDbEntity
  8
3
370
    25
100
AcDbLine
 10
-140.319631
 20
-76.112924
 30
0.0
 11
-128.173582
 21
-76.112924
 31
0.0
  0
LINE
  5
443
100
AcDbEntity
  8
3
370
    50
100
AcDbLine
 10
-132.415044
 20
-76.112924
 30
0.0
 11
-132.415044
 21
-82.265599
 31
0.0
  0
LINE
  5
444
100
AcDbEntity
  8
3
370
    50
100
AcDbLine
 10
-141.119631
 20
-82.265599
 30
0.0
 11
-128.173582
 21
-82.265599
 31
0.0
  0
LINE
  5
445
100
AcDbEntity
  8
3
370
    50
100
AcDbLine
 10
-136.878169
 20
-76.112924
 30
0.0
 11
-136.878169
 21
-82.265599
 31
0.0
  0
LINE
  5
446
100
AcDbEntity
  8
3
370
    25
  6
CENTER
100
AcDbLine
 10
-128.173582
 20
101.118119
 30
0.0
 11
-5.986553
 21
101.118119
 31
0.0
  0
LINE
  5
447
100
AcDbEntity
  8
3
370
    25
  6
CENTER
100
AcDbLine
 10
-128.173582
 20
67.457444
 30
0.0
 11
-128.173582
 21
151.126602
 31
0.0
  0
LINE
  5
448
100
AcDbEntity
  8
3
370
    25
  6
CENTER
100
AcDbLine
 10
-178.173582
 20
190.609116
 30
0.0
 11
-178.173582
 21
132.846848
 31
0.0
  0
LINE
  5
449
100
AcDbEntity
  8
3
370
    25
  6
CENTER
100
AcDbLine
 10
-5.986553
 20
-52.15124
 30
0.0
 11
-128.173582
 21
-52.15124
 31
0.0
  0
LINE
  5
44A
100
AcDbEntity
  8
3
370
    25
  6
CENTER
100
AcDbLine
 10
-128.173582
 20
-132.008667
 30
0.0
 11
-128.173582
 21
-20.22434
 31
0.0
  0
LINE
  5
44B
100
AcDbEntity
  8
3
370
    50
100
AcDbLine
 10
238.129525
 20
-39.15124
 30
0.0
 11
246.129525
 21
-39.15124
 31
0.0
  0
LINE
  5
44C
100
AcDbEntity
  8
3
370
    50
100
AcDbLine
 10
238.129525
 20
-65.15124
 30
0.0
 11
246.129525
 21
-65.15124
 31
0.0
  0
LINE
  5
44D
100
AcDbEntity
  8
3
370
    50
100
AcDbLine
 10
208.129525
 20
-30.15124
 30
0.0
 11
238.129525
 21
-30.15124
 31
0.0
  0
LINE
  5
44E
100
AcDbEntity
  8
3
370
    50
100
AcDbLine
 10
208.129525
 20
-74.15124
 30
0.0
 11
218.129525
 21
-74.15124
 31
0.0
  0
LINE
  5
44F
100
AcDbEntity
  8
3
370
    50
100
AcDbLine
 10
235.629525
 20
-74.15124
 30
0.0
 11
238.129525
 21
-74.15124
 31
0.0
  0
LINE
  5
450
100
AcDbEntity
  8
3
370
    50
100
AcDbLine
 10
238.129525
 20
-30.15124
 30
0.0
 11
238.129525
 21
-74.15124
 31
0.0
  0
POINT
  5
451
100
AcDbEntity
  8
3
370
    50
100
AcDbPoint
 10
208.129525
 20
-52.15124
 30
0.0
  0
LINE
  5
452
100
AcDbEntity
  8
3
370
    50
100
AcDbLine
 10
184.281481
 20
-42.137709
 30
0.0
 11
175.259049
 21
-39.720156
 31
0.0
  0
LINE
  5
453
100
AcDbEntity
  8
3
370
    50
100
AcDbLine
 10
182.469747
 20
-48.89919
 30
0.0
 11
173.447316
 21
-46.481637
 31
0.0
  0
ARC
  5
454
100
AcDbEntity
  8
3
370
    50
100
AcDbCircle
 10
208.129525
 20
-52.15124
 30
0.0
 40
37.0
100
AcDbArc
 50
162.543714
 51
167.456286
  0
ARC
  5
455
100
AcDbEntity
  8
3
370
    50
100
AcDbCircle
 10
174.741411
 20
-41.652008
 30
0.0
 40
2.0
100
AcDbArc
 50
75.0
 51
162.543714
  0
ARC
  5
456
100
AcDbEntity
  8
3
370
    50
100
AcDbCircle
 10
173.964954
 20
-44.549785
 30
0.0
 40
2.0
100
AcDbArc
 50
167.456286
 51
255.0
  0
ARC
  5
457
100
AcDbEntity
  8
3
370
    50
100
AcDbCircle
 10
185.575576
 20
-37.30808
 30
0.0
 40
5.0
100
AcDbArc
 50
255.0
 51
326.650365
  0
ARC
  5
458
100
AcDbEntity
  8
3
370
    50
100
AcDbCircle
 10
181.175652
 20
-53.728819
 30
0.0
 40
5.0
100
AcDbArc
 50
3.349635
 51
75.0
  0
ARC
  5
459
100
AcDbEntity
  8
3
370
    50
100
AcDbCircle
 10
208.129525
 20
-52.15124
 30
0.0
 40
22.0
100
AcDbArc
 50
183.349635
 51
146.650365
  0
LINE
  5
45A
100
AcDbEntity
  8
3
370
    50
100
AcDbLine
 10
217.238817
 20
-55.627344
 30
0.0
 11
219.944778
 21
-56.352404
 31
0.0
  0
LINE
  5
45B
100
AcDbEntity
  8
3
370
    50
100
AcDbLine
 10
217.756455
 20
-53.695492
 30
0.0
 11
220.462417
 21
-54.420552
 31
0.0
  0
LINE
  5
45C
100
AcDbEntity
  8
3
370
    50
100
AcDbLine
 10
220.462417
 20
-54.420552
 30
0.0
 11
219.944778
 21
-56.352404
 31
0.0
  0
ARC
  5
45D
100
AcDbEntity
  8
3
370
    25
100
AcDbCircle
 10
208.129525
 20
-52.15124
 30
0.0
 40
10.5
100
AcDbArc
 50
350.465024
 51
339.534976
  0
CIRCLE
  5
45E
100
AcDbEntity
  8
3
370
    50
100
AcDbCircle
 10
208.129525
 20
-52.15124
 30
0.0
 40
9.75
  0
CIRCLE
  5
45F
100
AcDbEntity
  8
3
370
    25
100
AcDbCircle
 10
208.129525
 20
-52.15124
 30
0.0
 40
9.25
  0
ARC
  5
460
100
AcDbEntity
  8
3
370
    50
100
AcDbCircle
 10
208.129525
 20
-52.15124
 30
0.0
 40
10.0
100
AcDbArc
 50
350.73917
 51
339.26083
  0
POINT
  5
461
100
AcDbEntity
  8
3
370
    50
100
AcDbPoint
 10
208.129525
 20
-52.15124
 30
0.0
  0
LINE
  5
462
100
AcDbEntity
  8
3
370
    50
100
AcDbLine
 10
214.983476
 20
-76.112924
 30
0.0
 11
214.983476
 21
-84.65124
 31
0.0
  0
LINE
  5
463
100
AcDbEntity
  8
3
370
    50
100
AcDbLine
 10
238.129525
 20
-39.65124
 30
0.0
 11
243.829525
 21
-39.65124
 31
0.0
  0
LINE
  5
464
100
AcDbEntity
  8
3
370
    50
100
AcDbLine
 10
244.129525
 20
-64.35124
 30
0.0
 11
244.129525
 21
-52.15124
 31
0.0
  0
LINE
  5
465
100
AcDbEntity
  8
3
370
    50
100
AcDbLine
 10
238.129525
 20
-64.65124
 30
0.0
 11
243.829525
 21
-64.65124
 31
0.0
  0
LINE
  5
466
100
AcDbEntity
  8
3
370
    50
100
AcDbLine
 10
244.129525
 20
-64.35124
 30
0.0
 11
243.829525
 21
-64.65124
 31
0.0
  0
LINE
  5
467
100
AcDbEntity
  8
3
370
    50
100
AcDbLine
 10
243.829525
 20
-39.65124
 30
0.0
 11
244.129525
 21
-39.95124
 31
0.0
  0
LINE
  5
468
100
AcDbEntity
  8
3
370
    50
100
AcDbLine
 10
244.129525
 20
-52.15124
 30
0.0
 11
244.129525
 21
-39.95124
 31
0.0
  0
LINE
  5
469
100
AcDbEntity
  8
3
370
    25
100
AcDbLine
 10
243.829525
 20
-64.65124
 30
0.0
 11
243.829525
 21
-39.65124
 31
0.0
  0
LINE
  5
46A
100
AcDbEntity
  8
3
370
    50
100
AcDbLine
 10
244.129525
 20
-41.65124
 30
0.0
 11
246.129525
 21
-41.65124
 31
0.0
  0
LINE
  5
46B
100
AcDbEntity
  8
3
370
    50
100
AcDbLine
 10
244.129525
 20
-62.65124
 30
0.0
 11
246.129525
 21
-62.65124
 31
0.0
  0
LINE
  5
46C
100
AcDbEntity
  8
3
370
    50
100
AcDbLine
 10
244.129525
 20
-62.65124
 30
0.0
 11
244.129525
 21
-60.45124
 31
0.0
  0
LINE
  5
46D
100
AcDbEntity
  8
3
370
    50
100
AcDbLine
 10
244.129525
 20
-43.85124
 30
0.0
 11
244.129525
 21
-41.65124
 31
0.0
  0
ARC
  5
46E
100
AcDbEntity
  8
3
370
    50
100
AcDbCircle
 10
252.379525
 20
-50.15124
 30
0.0
 40
14.0
100
AcDbArc
 50
63.485225
 51
116.514775
  0
ARC
  5
46F
100
AcDbEntity
  8
3
370
    50
100
AcDbCircle
 10
252.379525
 20
-54.15124
 30
0.0
 40
14.0
100
AcDbArc
 50
243.485225
 51
296.514775
  0
LINE
  5
470
100
AcDbEntity
  8
3
370
    50
100
AcDbLine
 10
246.129525
 20
-66.67871
 30
0.0
 11
246.129525
 21
-52.15124
 31
0.0
  0
LINE
  5
471
100
AcDbEntity
  8
3
370
    50
100
AcDbLine
 10
246.129525
 20
-63.20124
 30
0.0
 11
246.129525
 21
-62.65124
 31
0.0
  0
LINE
  5
472
100
AcDbEntity
  8
3
370
    50
100
AcDbLine
 10
246.129525
 20
-52.15124
 30
0.0
 11
246.129525
 21
-37.62377
 31
0.0
  0
LINE
  5
473
100
AcDbEntity
  8
3
370
    50
100
AcDbLine
 10
258.629525
 20
-66.67871
 30
0.0
 11
258.629525
 21
-52.15124
 31
0.0
  0
LINE
  5
474
100
AcDbEntity
  8
3
370
    50
100
AcDbLine
 10
258.629525
 20
-52.15124
 30
0.0
 11
258.629525
 21
-37.62377
 31
0.0
  0
ELLIPSE
  5
475
100
AcDbEntity
  8
3
370
    50
100
AcDbEllipse
 10
252.379525
 20
-52.15124
 30
0.0
 11
0.0
 21
-5.5679999999999996
 31
0.0
210
0.0
220
0.0
230
1.0
 40
0.76329
 41
4.7123889999999999
 42
1.5707960000000001
  0
ELLIPSE
  5
476
100
AcDbEntity
  8
3
370
    50
100
AcDbEllipse
 10
252.379525
 20
-65.141621
 30
0.0
 11
4.25
 21
0.0
 31
0.0
210
0.0
220
0.0
230
1.0
 40
0.655059
 41
0.0
 42
6.2831849999999996
  0
ELLIPSE
  5
477
100
AcDbEntity
  8
3
370
    50
100
AcDbEllipse
 10
252.379525
 20
-52.15124
 30
0.0
 11
0.0
 21
5.5679999999999996
 31
0.0
210
0.0
220
0.0
230
1.0
 40
0.76329
 41
4.7123889999999999
 42
1.5707960000000001
  0
ELLIPSE
  5
478
100
AcDbEntity
  8
3
370
    50
100
AcDbEllipse
 10
252.379525
 20
-39.160859
 30
0.0
 11
-4.25
 21
0.0
 31
0.0
210
0.0
220
0.0
230
1.0
 40
0.655059
 41
0.0
 42
6.2831849999999996
  0
LINE
  5
479
100
AcDbEntity
  8
3
370
    50
100
AcDbLine
 10
213.553912
 20
-84.65124
 30
0.0
 11
227.129525
 21
-84.65124
 31
0.0
  0
LINE
  5
47A
100
AcDbEntity
  8
3
370
    50
100
AcDbLine
 10
240.705137
 20
-84.65124
 30
0.0
 11
227.129525
 21
-84.65124
 31
0.0
  0
LINE
  5
47B
100
AcDbEntity
  8
3
370
    50
100
AcDbLine
 10
227.129525
 20
-74.15124
 30
0.0
 11
216.629525
 21
-74.15124
 31
0.0
  0
LINE
  5
47C
100
AcDbEntity
  8
3
370
    50
100
AcDbLine
 10
237.629525
 20
-74.15124
 30
0.0
 11
234.129525
 21
-74.15124
 31
0.0
  0
LINE
  5
47D
100
AcDbEntity
  8
3
370
    50
100
AcDbLine
 10
234.129525
 20
-74.15124
 30
0.0
 11
227.129525
 21
-74.15124
 31
0.0
  0
LINE
  5
47E
100
AcDbEntity
  8
3
370
    50
100
AcDbLine
 10
216.629525
 20
-74.15124
 30
0.0
 11
214.183476
 21
-77.066327
 31
0.0
  0
LINE
  5
47F
100
AcDbEntity
  8
3
370
    50
100
AcDbLine
 10
240.075573
 20
-77.066327
 30
0.0
 11
240.075573
 21
-84.65124
 31
0.0
  0
LINE
  5
480
100
AcDbEntity
  8
3
370
    50
100
AcDbLine
 10
214.183476
 20
-77.066327
 30
0.0
 11
214.183476
 21
-84.65124
 31
0.0
  0
LINE
  5
481
100
AcDbEntity
  8
3
370
    25
100
AcDbLine
 10
239.275573
 20
-76.112924
 30
0.0
 11
239.275573
 21
-84.65124
 31
0.0
  0
LINE
  5
482
100
AcDbEntity
  8
3
370
    50
100
AcDbLine
 10
220.129525
 20
-74.15124
 30
0.0
 11
216.629525
 21
-74.15124
 31
0.0
  0
LINE
  5
483
100
AcDbEntity
  8
3
370
    50
100
AcDbLine
 10
237.629525
 20
-74.15124
 30
0.0
 11
234.129525
 21
-74.15124
 31
0.0
  0
LINE
  5
484
100
AcDbEntity
  8
3
370
    50
100
AcDbLine
 10
234.129525
 20
-74.15124
 30
0.0
 11
227.129525
 21
-74.15124
 31
0.0
  0
LINE
  5
485
100
AcDbEntity
  8
3
370
    50
100
AcDbLine
 10
216.629525
 20
-74.15124
 30
0.0
 11
214.183476
 21
-77.066327
 31
0.0
  0
LINE
  5
486
100
AcDbEntity
  8
3
370
    50
100
AcDbLine
 10
237.629525
 20
-74.15124
 30
0.0
 11
240.075573
 21
-77.066327
 31
0.0
  0
LINE
  5
487
100
AcDbEntity
  8
3
370
    25
100
AcDbLine
 10
239.275573
 20
-76.112924
 30
0.0
 11
234.129525
 21
-76.112924
 31
0.0
  0
LINE
  5
488
100
AcDbEntity
  8
3
370
    50
100
AcDbLine
 10
235.834111
 20
-76.112924
 30
0.0
 11
235.834111
 21
-77.15124
 31
0.0
  0
LINE
  5
489
100
AcDbEntity
  8
3
370
    50
100
AcDbLine
 10
240.075573
 20
-82.265599
 30
0.0
 11
236.286927
 21
-82.265599
 31
0.0
  0
LINE
  5
48A
100
AcDbEntity
  8
3
370
    25
100
AcDbLine
 10
214.983476
 20
-76.112924
 30
0.0
 11
227.129525
 21
-76.112924
 31
0.0
  0
LINE
  5
48B
100
AcDbEntity
  8
3
370
    50
100
AcDbLine
 10
222.888063
 20
-76.112924
 30
0.0
 11
222.888063
 21
-82.265599
 31
0.0
  0
LINE
  5
48C
100
AcDbEntity
  8
3
370
    50
100
AcDbLine
 10
214.183476
 20
-82.265599
 30
0.0
 11
224.972122
 21
-82.265599
 31
0.0
  0
LINE
  5
48D
100
AcDbEntity
  8
3
370
    50
100
AcDbLine
 10
218.424938
 20
-76.112924
 30
0.0
 11
218.424938
 21
-82.265599
 31
0.0
  0
LINE
  5
48E
100
AcDbEntity
  8
3
370
    25
  6
CENTER
100
AcDbLine
 10
227.129525
 20
-72.124396
 30
0.0
 11
227.129525
 21
-117.41066
 31
0.0
  0
LINE
  5
48F
100
AcDbEntity
  8
3
370
    25
  6
CENTER
100
AcDbLine
 10
275.437866
 20
-52.15124
 30
0.0
 11
221.338715
 21
-52.15124
 31
0.0
  0
LINE
  5
490
100
AcDbEntity
  8
3
370
    25
  6
CENTER
100
AcDbLine
 10
180.129525
 20
-52.15124
 30
0.0
 11
236.129525
 21
-52.15124
 31
0.0
  0
LINE
  5
491
100
AcDbEntity
  8
3
370
    25
  6
CENTER
100
AcDbLine
 10
208.129525
 20
-80.15124
 30
0.0
 11
208.129525
 21
-24.15124
 31
0.0
  0
LINE
  5
492
100
AcDbEntity
  8
3
370
    50
100
AcDbLine
 10
-97.173582
 20
-77.15124
 30
0.0
 11
-82.173582
 21
-77.15124
 31
0.0
  0
LINE
  5
493
100
AcDbEntity
  8
3
370
    50
100
AcDbLine
 10
-97.173582
 20
-81.85124
 30
0.0
 11
-82.173582
 21
-81.85124
 31
0.0
  0
LINE
  5
494
100
AcDbEntity
  8
3
370
    50
100
AcDbLine
 10
-82.173582
 20
-77.15124
 30
0.0
 11
-82.173582
 21
-81.85124
 31
0.0
  0
ARC
  5
495
100
AcDbEntity
  8
3
370
    50
100
AcDbCircle
 10
-89.673582
 20
-52.803865
 30
0.0
 40
30.0
100
AcDbArc
 50
255.522488
 51
284.477512
  0
LINE
  5
496
100
AcDbEntity
  8
3
370
    50
100
AcDbLine
 10
-82.673582
 20
-77.15124
 30
0.0
 11
-82.673582
 21
-81.85124
 31
0.0
  0
LINE
  5
497
100
AcDbEntity
  8
3
370
    50
100
AcDbLine
 10
-83.273582
 20
-77.15124
 30
0.0
 11
-83.273582
 21
-81.85124
 31
0.0
  0
LINE
  5
498
100
AcDbEntity
  8
3
370
    50
100
AcDbLine
 10
-83.973582
 20
-77.15124
 30
0.0
 11
-83.973582
 21
-81.85124
 31
0.0
  0
LINE
  5
499
100
AcDbEntity
  8
3
370
    50
100
AcDbLine
 10
-84.973582
 20
-77.15124
 30
0.0
 11
-84.973582
 21
-81.85124
 31
0.0
  0
LINE
  5
49A
100
AcDbEntity
  8
3
370
    50
100
AcDbLine
 10
-86.173582
 20
-77.15124
 30
0.0
 11
-86.173582
 21
-81.85124
 31
0.0
  0
LINE
  5
49B
100
AcDbEntity
  8
3
370
    50
100
AcDbLine
 10
-87.373582
 20
-77.15124
 30
0.0
 11
-87.373582
 21
-81.85124
 31
0.0
  0
LINE
  5
49C
100
AcDbEntity
  8
3
370
    50
100
AcDbLine
 10
-86.173582
 20
-74.15124
 30
0.0
 11
-86.173582
 21
-77.15124
 31
0.0
  0
LINE
  5
49D
100
AcDbEntity
  8
3
370
    50
100
AcDbLine
 10
-93.173582
 20
-74.15124
 30
0.0
 11
-93.173582
 21
-77.15124
 31
0.0
  0
LINE
  5
49E
100
AcDbEntity
  8
3
370
    50
100
AcDbLine
 10
-97.173582
 20
-77.15124
 30
0.0
 11
-97.173582
 21
-81.85124
 31
0.0
  0
LINE
  5
49F
100
AcDbEntity
  8
3
370
    50
100
AcDbLine
 10
-88.573582
 20
-77.15124
 30
0.0
 11
-88.573582
 21
-81.85124
 31
0.0
  0
LINE
  5
4A0
100
AcDbEntity
  8
3
370
    50
100
AcDbLine
 10
-90.773582
 20
-77.15124
 30
0.0
 11
-90.773582
 21
-81.85124
 31
0.0
  0
LINE
  5
4A1
100
AcDbEntity
  8
3
370
    50
100
AcDbLine
 10
-91.973582
 20
-77.15124
 30
0.0
 11
-91.973582
 21
-81.85124
 31
0.0
  0
LINE
  5
4A2
100
AcDbEntity
  8
3
370
    50
100
AcDbLine
 10
-93.173582
 20
-77.15124
 30
0.0
 11
-93.173582
 21
-81.85124
 31
0.0
  0
LINE
  5
4A3
100
AcDbEntity
  8
3
370
    50
100
AcDbLine
 10
-94.373582
 20
-77.15124
 30
0.0
 11
-94.373582
 21
-81.85124
 31
0.0
  0
LINE
  5
4A4
100
AcDbEntity
  8
3
370
    50
100
AcDbLine
 10
-95.373582
 20
-77.15124
 30
0.0
 11
-95.373582
 21
-81.85124
 31
0.0
  0
LINE
  5
4A5
100
AcDbEntity
  8
3
370
    50
100
AcDbLine
 10
-96.073582
 20
-77.15124
 30
0.0
 11
-96.073582
 21
-81.85124
 31
0.0
  0
LINE
  5
4A6
100
AcDbEntity
  8
3
370
    50
100
AcDbLine
 10
-96.673582
 20
-77.15124
 30
0.0
 11
-96.673582
 21
-81.85124
 31
0.0
  0
ARC
  5
4A7
100
AcDbEntity
  8
3
370
    25
  6
DASHED
100
AcDbCircle
 10
209.707104
 20
-79.105112
 30
0.0
 40
5.0
100
AcDbArc
 50
93.349635
 51
165.0
  0
LINE
  5
4A8
100
AcDbEntity
  8
3
370
    25
  6
DASHED
100
AcDbLine
 10
204.877475
 20
-77.811017
 30
0.0
 11
202.459922
 21
-86.833449
 31
0.0
  0
ARC
  5
4A9
100
AcDbEntity
  8
3
370
    25
  6
DASHED
100
AcDbCircle
 10
200.52807
 20
-86.31581
 30
0.0
 40
2.0
100
AcDbArc
 50
257.456286
 51
345.0
  0
ARC
  5
4AA
100
AcDbEntity
  8
3
370
    25
  6
DASHED
100
AcDbCircle
 10
208.129525
 20
-52.15124
 30
0.0
 40
37.0
100
AcDbArc
 50
252.543714
 51
257.456286
  0
ARC
  5
4AB
100
AcDbEntity
  8
3
370
    25
  6
DASHED
100
AcDbCircle
 10
197.630292
 20
-85.539353
 30
0.0
 40
2.0
100
AcDbArc
 50
165.0
 51
252.543714
  0
LINE
  5
4AC
100
AcDbEntity
  8
3
370
    25
  6
DASHED
100
AcDbLine
 10
198.115994
 20
-75.999284
 30
0.0
 11
195.698441
 21
-85.021715
 31
0.0
  0
ARC
  5
4AD
100
AcDbEntity
  8
3
370
    25
  6
DASHED
100
AcDbCircle
 10
193.286365
 20
-74.705189
 30
0.0
 40
5.0
100
AcDbArc
 50
345.0
 51
56.650365
  0
LINE
  5
4AE
100
AcDbEntity
  8
3
370
    25
  6
CENTER
100
AcDbLine
 10
-128.173582
 20
101.118119
 30
0.0
 11
-250.360611
 21
101.118119
 31
0.0
  0
LINE
  5
4AF
100
AcDbEntity
  8
3
370
    25
  6
CENTER
100
AcDbLine
 10
-250.360611
 20
-52.15124
 30
0.0
 11
-128.173582
 21
-52.15124
 31
0.0
  0
TEXT
  5
4B0
100
AcDbEntity
  8
3
370
    50
100
AcDbText
 10
290.832582
 20
-240.013492
 30
0.0
 40
6.0
  1
１　２
 72
     5
 11
307.632582
 21
-240.013492
 31
0.0
100
AcDbText
  0
LINE
  5
4B1
100
AcDbEntity
  8
3
370
    25
100
AcDbLine
 10
-115.227534
 20
-77.066327
 30
0.0
 11
-141.119631
 21
-77.066327
 31
0.0
  0
ARC
  5
4B2
100
AcDbEntity
  8
3
370
    50
100
AcDbCircle
 10
216.854525
 20
-89.650685
 30
0.0
 40
5.0
100
AcDbArc
 50
221.840901
 51
270.0
  0
ARC
  5
4B3
100
AcDbEntity
  8
3
370
    50
100
AcDbCircle
 10
234.199239
 20
-89.650685
 30
0.0
 40
8.205286
100
AcDbArc
 50
32.369572
 51
37.543478
  0
ARC
  5
4B4
100
AcDbEntity
  8
3
370
    50
100
AcDbCircle
 10
237.404525
 20
-89.650685
 30
0.0
 40
5.0
100
AcDbArc
 50
270.0
 51
318.159099
  0
ARC
  5
4B5
100
AcDbEntity
  8
3
370
    50
100
AcDbCircle
 10
220.059811
 20
-89.650685
 30
0.0
 40
8.205286
100
AcDbArc
 50
142.456522
 51
147.630428
  0
LINE
  5
4B6
100
AcDbEntity
  8
3
370
    50
100
AcDbLine
 10
241.129525
 20
-92.986007
 30
0.0
 11
241.129525
 21
-85.257752
 31
0.0
  0
LINE
  5
4B7
100
AcDbEntity
  8
3
370
    50
100
AcDbLine
 10
213.129525
 20
-92.986007
 30
0.0
 11
213.129525
 21
-85.257752
 31
0.0
  0
LINE
  5
4B8
100
AcDbEntity
  8
3
370
    50
100
AcDbLine
 10
240.705137
 20
-84.650685
 30
0.0
 11
213.553912
 21
-84.650685
 31
0.0
  0
LINE
  5
4B9
100
AcDbEntity
  8
3
370
    50
100
AcDbLine
 10
235.029525
 20
-94.650685
 30
0.0
 11
216.854525
 21
-94.650685
 31
0.0
  0
LINE
  5
4BA
100
AcDbEntity
  8
3
370
    50
100
AcDbLine
 10
235.029525
 20
-94.650685
 30
0.0
 11
237.404525
 21
-94.650685
 31
0.0
  0
ARC
  5
4BB
100
AcDbEntity
  8
3
370
    50
100
AcDbCircle
 10
216.854525
 20
-89.650685
 30
0.0
 40
5.0
100
AcDbArc
 50
221.840901
 51
270.0
  0
ARC
  5
4BC
100
AcDbEntity
  8
3
370
    50
100
AcDbCircle
 10
237.404525
 20
-89.650685
 30
0.0
 40
5.0
100
AcDbArc
 50
270.0
 51
318.159099
  0
LINE
  5
4BD
100
AcDbEntity
  8
3
370
    50
100
AcDbLine
 10
241.129525
 20
-92.986007
 30
0.0
 11
241.129525
 21
-85.257752
 31
0.0
  0
LINE
  5
4BE
100
AcDbEntity
  8
3
370
    50
100
AcDbLine
 10
213.129525
 20
-92.986007
 30
0.0
 11
213.129525
 21
-85.257752
 31
0.0
  0
LINE
  5
4BF
100
AcDbEntity
  8
3
370
    50
100
AcDbLine
 10
216.854525
 20
-94.650685
 30
0.0
 11
237.404525
 21
-94.650685
 31
0.0
  0
ELLIPSE
  5
4C0
100
AcDbEntity
  8
3
370
    50
100
AcDbEllipse
 10
220.129525
 20
-89.12188
 30
0.0
 11
5.5560780000000003
 21
0.0
 31
0.0
210
0.0
220
0.0
230
1.0
 40
0.695478
 41
0.0
 42
6.2831849999999996
  0
ELLIPSE
  5
4C1
100
AcDbEntity
  8
3
370
    50
100
AcDbEllipse
 10
234.129525
 20
-89.12188
 30
0.0
 11
5.5560780000000003
 21
0.0
 31
0.0
210
0.0
220
0.0
230
1.0
 40
0.695478
 41
0.0
 42
6.2831849999999996
  0
POINT
  5
4C2
100
AcDbEntity
  8
3
370
    50
100
AcDbPoint
 10
227.129525
 20
-94.650685
 30
0.0
  0
POINT
  5
4C3
100
AcDbEntity
  8
3
370
    50
100
AcDbPoint
 10
227.129525
 20
-94.650685
 30
0.0
  0
LINE
  5
4C4
100
AcDbEntity
  8
3
370
    50
100
AcDbLine
 10
69.129831
 20
-115.15124
 30
0.0
 11
45.129831
 21
-115.15124
 31
0.0
  0
LINE
  5
4C5
100
AcDbEntity
  8
3
370
    50
100
AcDbLine
 10
69.129831
 20
-115.15124
 30
0.0
 11
69.129831
 21
-113.65124
 31
0.0
  0
LINE
  5
4C6
100
AcDbEntity
  8
3
370
    50
100
AcDbLine
 10
45.129831
 20
-115.15124
 30
0.0
 11
45.129831
 21
-113.65124
 31
0.0
  0
LINE
  5
4C7
100
AcDbEntity
  8
3
370
    50
100
AcDbLine
 10
240.129525
 20
-113.65124
 30
0.0
 11
57.129831
 21
-113.65124
 31
0.0
  0
LINE
  5
4C8
100
AcDbEntity
  8
3
370
    50
100
AcDbLine
 10
227.129525
 20
-100.65124
 30
0.0
 11
56.094071
 21
-100.65124
 31
0.0
  0
ARC
  5
4C9
100
AcDbEntity
  8
3
370
    50
100
AcDbCircle
 10
56.928479
 20
-138.65124
 30
0.0
 40
38.0
100
AcDbArc
 50
90.0
 51
110.23732
  0
LINE
  5
4CA
100
AcDbEntity
  8
3
370
    50
100
AcDbLine
 10
43.129831
 20
-113.65124
 30
0.0
 11
43.129831
 21
-103.935327
 31
0.0
  0
ARC
  5
4CB
100
AcDbEntity
  8
3
370
    50
100
AcDbCircle
 10
44.129831
 20
-103.935327
 30
0.0
 40
1.0
100
AcDbArc
 50
110.23732
 51
180.0
  0
LINE
  5
4CC
100
AcDbEntity
  8
3
370
    50
100
AcDbLine
 10
241.129525
 20
-100.65124
 30
0.0
 11
241.129525
 21
-112.65124
 31
0.0
  0
ARC
  5
4CD
100
AcDbEntity
  8
3
370
    50
100
AcDbCircle
 10
240.129525
 20
-112.65124
 30
0.0
 40
1.0
100
AcDbArc
 50
270.0
 51
360.0
  0
LINE
  5
4CE
100
AcDbEntity
  8
3
370
    50
100
AcDbLine
 10
213.129525
 20
-97.15124
 30
0.0
 11
213.129525
 21
-100.65124
 31
0.0
  0
LINE
  5
4CF
100
AcDbEntity
  8
3
370
    50
100
AcDbLine
 10
241.129525
 20
-97.15124
 30
0.0
 11
241.129525
 21
-100.65124
 31
0.0
  0
LINE
  5
4D0
100
AcDbEntity
  8
3
370
    50
100
AcDbLine
 10
213.129525
 20
-97.15124
 30
0.0
 11
213.629525
 21
-96.65124
 31
0.0
  0
LINE
  5
4D1
100
AcDbEntity
  8
3
370
    50
100
AcDbLine
 10
241.129525
 20
-97.15124
 30
0.0
 11
240.629525
 21
-96.65124
 31
0.0
  0
LINE
  5
4D2
100
AcDbEntity
  8
3
370
    50
100
AcDbLine
 10
219.154525
 20
-96.65124
 30
0.0
 11
219.154525
 21
-94.65124
 31
0.0
  0
LINE
  5
4D3
100
AcDbEntity
  8
3
370
    50
100
AcDbLine
 10
235.104525
 20
-96.65124
 30
0.0
 11
235.104525
 21
-94.65124
 31
0.0
  0
LINE
  5
4D4
100
AcDbEntity
  8
3
370
    50
100
AcDbLine
 10
240.629525
 20
-96.65124
 30
0.0
 11
227.129525
 21
-96.65124
 31
0.0
  0
LINE
  5
4D5
100
AcDbEntity
  8
3
370
    50
100
AcDbLine
 10
227.129525
 20
-96.65124
 30
0.0
 11
213.629525
 21
-96.65124
 31
0.0
  0
LINE
  5
4D6
100
AcDbEntity
  8
3
370
    50
100
AcDbLine
 10
214.204525
 20
-100.65124
 30
0.0
 11
213.129525
 21
-100.65124
 31
0.0
  0
LINE
  5
4D7
100
AcDbEntity
  8
3
370
    50
100
AcDbLine
 10
70.579831
 20
-113.65124
 30
0.0
 11
69.479831
 21
-113.65124
 31
0.0
  0
LINE
  5
4D8
100
AcDbEntity
  8
3
370
    50
100
AcDbLine
 10
57.129831
 20
-113.65124
 30
0.0
 11
43.129831
 21
-113.65124
 31
0.0
  0
LINE
  5
4D9
100
AcDbEntity
  8
3
370
    50
100
AcDbLine
 10
241.129525
 20
-97.15124
 30
0.0
 11
213.129525
 21
-97.15124
 31
0.0
  0
POINT
  5
4DA
100
AcDbEntity
  8
3
370
    50
100
AcDbPoint
 10
57.129831
 20
-107.15124
 30
0.0
  0
LINE
  5
4DB
100
AcDbEntity
  8
3
370
    50
100
AcDbLine
 10
-117.898582
 20
-94.65124
 30
0.0
 11
-138.448582
 21
-94.65124
 31
0.0
  0
LINE
  5
4DC
100
AcDbEntity
  8
3
370
    50
100
AcDbLine
 10
-114.597969
 20
-84.65124
 30
0.0
 11
-141.749195
 21
-84.65124
 31
0.0
  0
ARC
  5
4DD
100
AcDbEntity
  8
3
370
    50
100
AcDbCircle
 10
-138.448582
 20
-89.65124
 30
0.0
 40
5.0
100
AcDbArc
 50
180.0
 51
270.0
  0
ARC
  5
4DE
100
AcDbEntity
  8
3
370
    50
100
AcDbCircle
 10
-135.243296
 20
-89.65124
 30
0.0
 40
8.205286
100
AcDbArc
 50
142.456522
 51
180.0
  0
ELLIPSE
  5
4DF
100
AcDbEntity
  8
3
370
    50
100
AcDbEllipse
 10
-128.173582
 20
-89.122435
 30
0.0
 11
-6.10947
 21
0.0
 31
0.0
210
0.0
220
0.0
230
1.0
 40
0.632482
 41
0.0
 42
6.2831849999999996
  0
ELLIPSE
  5
4E0
100
AcDbEntity
  8
3
370
    50
100
AcDbEllipse
 10
-140.297938
 20
-89.122435
 30
0.0
 11
0.0
 21
-3.8641269999999999
 31
0.0
210
0.0
220
0.0
230
1.0
 40
0.790537
 41
0.0
 42
6.2831849999999996
  0
ELLIPSE
  5
4E1
100
AcDbEntity
  8
3
370
    50
100
AcDbEllipse
 10
-116.049226
 20
-89.122435
 30
0.0
 11
0.0
 21
3.8641269999999999
 31
0.0
210
0.0
220
0.0
230
1.0
 40
0.790537
 41
0.0
 42
6.2831849999999996
  0
ARC
  5
4E2
100
AcDbEntity
  8
3
370
    50
100
AcDbCircle
 10
-117.898582
 20
-89.65124
 30
0.0
 40
5.0
100
AcDbArc
 50
270.0
 51
0.0
  0
ARC
  5
4E3
100
AcDbEntity
  8
3
370
    50
100
AcDbCircle
 10
-121.103868
 20
-89.65124
 30
0.0
 40
8.205286
100
AcDbArc
 50
0.0
 51
37.543478
  0
LINE
  5
4E4
100
AcDbEntity
  8
3
370
    50
100
AcDbLine
 10
-114.173582
 20
-100.65124
 30
0.0
 11
-114.173582
 21
-111.65124
 31
0.0
  0
LINE
  5
4E5
100
AcDbEntity
  8
3
370
    50
100
AcDbLine
 10
-142.173582
 20
-97.15124
 30
0.0
 11
-142.173582
 21
-104.010224
 31
0.0
  0
LINE
  5
4E6
100
AcDbEntity
  8
3
370
    50
100
AcDbLine
 10
-114.173582
 20
-97.15124
 30
0.0
 11
-114.173582
 21
-100.65124
 31
0.0
  0
LINE
  5
4E7
100
AcDbEntity
  8
3
370
    50
100
AcDbLine
 10
-142.173582
 20
-97.15124
 30
0.0
 11
-141.673582
 21
-96.65124
 31
0.0
  0
LINE
  5
4E8
100
AcDbEntity
  8
3
370
    50
100
AcDbLine
 10
-114.173582
 20
-97.15124
 30
0.0
 11
-114.673582
 21
-96.65124
 31
0.0
  0
LINE
  5
4E9
100
AcDbEntity
  8
3
370
    50
100
AcDbLine
 10
-136.148582
 20
-96.65124
 30
0.0
 11
-136.148582
 21
-94.65124
 31
0.0
  0
LINE
  5
4EA
100
AcDbEntity
  8
3
370
    50
100
AcDbLine
 10
-120.198582
 20
-96.65124
 30
0.0
 11
-120.198582
 21
-94.65124
 31
0.0
  0
LINE
  5
4EB
100
AcDbEntity
  8
3
370
    50
100
AcDbLine
 10
-114.673582
 20
-96.65124
 30
0.0
 11
-128.173582
 21
-96.65124
 31
0.0
  0
LINE
  5
4EC
100
AcDbEntity
  8
3
370
    50
100
AcDbLine
 10
-128.173582
 20
-96.65124
 30
0.0
 11
-141.673582
 21
-96.65124
 31
0.0
  0
LINE
  5
4ED
100
AcDbEntity
  8
3
370
    50
100
AcDbLine
 10
-114.173582
 20
-97.15124
 30
0.0
 11
-142.173582
 21
-97.15124
 31
0.0
  0
LINE
  5
4EE
100
AcDbEntity
  8
3
370
    50
100
AcDbLine
 10
-140.173582
 20
-113.65124
 30
0.0
 11
-116.173582
 21
-113.65124
 31
0.0
  0
ARC
  5
4EF
100
AcDbEntity
  8
3
370
    50
100
AcDbCircle
 10
-128.173582
 20
-138.65124
 30
0.0
 40
38.0
100
AcDbArc
 50
69.430008
 51
110.569992
  0
LINE
  5
4F0
100
AcDbEntity
  8
3
370
    50
100
AcDbLine
 10
-114.173582
 20
-104.010224
 30
0.0
 11
-114.173582
 21
-111.65124
 31
0.0
  0
LINE
  5
4F1
100
AcDbEntity
  8
3
370
    50
100
AcDbLine
 10
-142.173582
 20
-104.010224
 30
0.0
 11
-142.173582
 21
-111.65124
 31
0.0
  0
ARC
  5
4F2
100
AcDbEntity
  8
3
370
    50
100
AcDbCircle
 10
-116.173582
 20
-111.65124
 30
0.0
 40
2.0
100
AcDbArc
 50
270.0
 51
360.0
  0
ARC
  5
4F3
100
AcDbEntity
  8
3
370
    50
100
AcDbCircle
 10
-140.173582
 20
-111.65124
 30
0.0
 40
2.0
100
AcDbArc
 50
180.0
 51
270.0
  0
ARC
  5
4F4
100
AcDbEntity
  8
3
370
    50
100
AcDbCircle
 10
-115.173582
 20
-104.010224
 30
0.0
 40
1.0
100
AcDbArc
 50
0.0
 51
69.430008
  0
ARC
  5
4F5
100
AcDbEntity
  8
3
370
    50
100
AcDbCircle
 10
-141.173582
 20
-104.010224
 30
0.0
 40
1.0
100
AcDbArc
 50
110.569992
 51
180.0
  0
LINE
  5
4F6
100
AcDbEntity
  8
3
370
    50
100
AcDbLine
 10
-136.148582
 20
-94.65124
 30
0.0
 11
-120.198582
 21
-94.65124
 31
0.0
  0
POINT
  5
4F7
100
AcDbEntity
  8
3
370
    50
100
AcDbPoint
 10
-128.173582
 20
-94.65124
 30
0.0
  0
POINT
  5
4F8
100
AcDbEntity
  8
3
370
    50
100
AcDbPoint
 10
-128.173582
 20
-94.65124
 30
0.0
  0
LINE
  5
4F9
100
AcDbEntity
  8
3
370
    50
100
AcDbLine
 10
-116.173582
 20
-115.15124
 30
0.0
 11
-140.173582
 21
-115.15124
 31
0.0
  0
LINE
  5
4FA
100
AcDbEntity
  8
3
370
    50
100
AcDbLine
 10
-116.173582
 20
-115.15124
 30
0.0
 11
-116.173582
 21
-113.65124
 31
0.0
  0
LINE
  5
4FB
100
AcDbEntity
  8
3
370
    50
100
AcDbLine
 10
-140.173582
 20
-115.15124
 30
0.0
 11
-140.173582
 21
-113.65124
 31
0.0
  0
LINE
  5
4FC
100
AcDbEntity
  8
3
370
    25
  6
CENTER
100
AcDbLine
 10
57.129831
 20
-109.43894
 30
0.0
 11
57.129831
 21
-123.139586
 31
0.0
  0
LINE
  5
4FD
100
AcDbEntity
  8
3
370
    25
100
AcDbLine
 10
214.183476
 20
-77.066327
 30
0.0
 11
227.129525
 21
-77.066327
 31
0.0
  0
LINE
  5
4FE
100
AcDbEntity
  8
3
370
    25
100
AcDbLine
 10
234.129525
 20
-77.066327
 30
0.0
 11
240.075573
 21
-77.066327
 31
0.0
  0
TEXT
  5
4FF
100
AcDbEntity
  8
3
370
    50
100
AcDbText
 10
336.070276
 20
-271.880939
 30
0.0
 40
6.4
  1
００２３０７
 72
     5
 11
373.190276
 21
-271.880939
 31
0.0
100
AcDbText
  0
LINE
  5
500
100
AcDbEntity
  8
3
370
    50
100
AcDbLine
 10
-257.805177
 20
228.293533
 30
0.0
 11
-238.605177
 21
228.293533
 31
0.0
  0
LINE
  5
501
100
AcDbEntity
  8
3
370
    50
100
AcDbLine
 10
-237.705177
 20
227.393533
 30
0.0
 11
-237.705177
 21
207.917861
 31
0.0
  0
LINE
  5
502
100
AcDbEntity
  8
3
370
    50
100
AcDbLine
 10
-258.705177
 20
227.393533
 30
0.0
 11
-258.705177
 21
207.917861
 31
0.0
  0
LINE
  5
503
100
AcDbEntity
  8
3
370
    50
100
AcDbLine
 10
-238.605177
 20
228.293533
 30
0.0
 11
-238.605177
 21
207.917861
 31
0.0
  0
LINE
  5
504
100
AcDbEntity
  8
3
370
    50
100
AcDbLine
 10
-257.805177
 20
228.293533
 30
0.0
 11
-257.805177
 21
207.917861
 31
0.0
  0
LINE
  5
505
100
AcDbEntity
  8
3
370
    50
100
AcDbLine
 10
-257.805177
 20
228.293533
 30
0.0
 11
-258.705177
 21
227.393533
 31
0.0
  0
LINE
  5
506
100
AcDbEntity
  8
3
370
    50
100
AcDbLine
 10
-238.605177
 20
228.293533
 30
0.0
 11
-237.705177
 21
227.393533
 31
0.0
  0
LINE
  5
507
100
AcDbEntity
  8
3
370
    50
100
AcDbLine
 10
-236.805177
 20
197.917861
 30
0.0
 11
-236.805177
 21
196.617861
 31
0.0
  0
LINE
  5
508
100
AcDbEntity
  8
3
370
    50
100
AcDbLine
 10
-259.605177
 20
197.917861
 30
0.0
 11
-259.605177
 21
196.617861
 31
0.0
  0
LINE
  5
509
100
AcDbEntity
  8
3
370
    50
100
AcDbLine
 10
-271.173582
 20
207.917861
 30
0.0
 11
-271.173582
 21
204.558981
 31
0.0
  0
LINE
  5
50A
100
AcDbEntity
  8
3
370
    50
100
AcDbLine
 10
-225.173582
 20
207.917861
 30
0.0
 11
-271.173582
 21
207.917861
 31
0.0
  0
ARC
  5
50B
100
AcDbEntity
  8
3
370
    50
100
AcDbCircle
 10
-261.673582
 20
199.917861
 30
0.0
 40
2.0
100
AcDbArc
 50
245.329488
 51
270.0
  0
LINE
  5
50C
100
AcDbEntity
  8
3
370
    50
100
AcDbLine
 10
-270.590982
 20
203.650258
 30
0.0
 11
-262.508381
 21
198.100415
 31
0.0
  0
LINE
  5
50D
100
AcDbEntity
  8
3
370
    50
100
AcDbLine
 10
-225.756183
 20
203.650258
 30
0.0
 11
-233.838783
 21
198.100415
 31
0.0
  0
ARC
  5
50E
100
AcDbEntity
  8
3
370
    50
100
AcDbCircle
 10
-270.173582
 20
204.558981
 30
0.0
 40
1.0
100
AcDbArc
 50
180.0
 51
245.329488
  0
LINE
  5
50F
100
AcDbEntity
  8
3
370
    50
100
AcDbLine
 10
-261.373582
 20
195.417861
 30
0.0
 11
-232.673582
 21
195.417861
 31
0.0
  0
LINE
  5
510
100
AcDbEntity
  8
3
370
    50
100
AcDbLine
 10
-261.373582
 20
196.617861
 30
0.0
 11
-232.673582
 21
196.617861
 31
0.0
  0
LINE
  5
511
100
AcDbEntity
  8
3
370
    50
100
AcDbLine
 10
-232.673582
 20
196.617861
 30
0.0
 11
-232.673582
 21
195.417861
 31
0.0
  0
LINE
  5
512
100
AcDbEntity
  8
3
370
    50
100
AcDbLine
 10
-261.373582
 20
196.617861
 30
0.0
 11
-261.373582
 21
195.417861
 31
0.0
  0
LINE
  5
513
100
AcDbEntity
  8
3
370
    50
100
AcDbLine
 10
-263.573582
 20
192.617861
 30
0.0
 11
-232.773582
 21
192.617861
 31
0.0
  0
LINE
  5
514
100
AcDbEntity
  8
3
370
    50
100
AcDbLine
 10
-225.173582
 20
204.558981
 30
0.0
 11
-225.173582
 21
207.917861
 31
0.0
  0
LINE
  5
515
100
AcDbEntity
  8
3
370
    50
100
AcDbLine
 10
-225.756183
 20
203.650258
 30
0.0
 11
-233.838783
 21
198.100415
 31
0.0
  0
ARC
  5
516
100
AcDbEntity
  8
3
370
    50
100
AcDbCircle
 10
-226.173582
 20
204.558981
 30
0.0
 40
1.0
100
AcDbArc
 50
294.670512
 51
0.0
  0
LINE
  5
517
100
AcDbEntity
  8
3
370
    50
100
AcDbLine
 10
-236.673582
 20
156.117861
 30
0.0
 11
-236.673582
 21
162.117861
 31
0.0
  0
LINE
  5
518
100
AcDbEntity
  8
3
370
    50
100
AcDbLine
 10
-259.673582
 20
156.117861
 30
0.0
 11
-259.673582
 21
162.117861
 31
0.0
  0
LINE
  5
519
100
AcDbEntity
  8
3
370
    50
100
AcDbLine
 10
-258.673582
 20
155.117861
 30
0.0
 11
-237.673582
 21
155.117861
 31
0.0
  0
ARC
  5
51A
100
AcDbEntity
  8
3
370
    50
100
AcDbCircle
 10
-237.673582
 20
156.117861
 30
0.0
 40
1.0
100
AcDbArc
 50
270.0
 51
360.0
  0
ARC
  5
51B
100
AcDbEntity
  8
3
370
    50
100
AcDbCircle
 10
-258.673582
 20
156.117861
 30
0.0
 40
1.0
100
AcDbArc
 50
180.0
 51
270.0
  0
LINE
  5
51C
100
AcDbEntity
  8
3
370
    50
100
AcDbLine
 10
-263.573582
 20
162.117861
 30
0.0
 11
-232.773582
 21
162.117861
 31
0.0
  0
ARC
  5
51D
100
AcDbEntity
  8
3
370
    50
100
AcDbCircle
 10
-183.229424
 20
177.118025
 30
0.0
 40
22.855625
100
AcDbArc
 50
337.11014
 51
22.88986
  0
LINE
  5
51E
100
AcDbEntity
  8
3
370
    50
100
AcDbLine
 10
-162.173582
 20
189.117861
 30
0.0
 11
-162.173582
 21
165.117861
 31
0.0
  0
LINE
  5
51F
100
AcDbEntity
  8
3
370
    50
100
AcDbLine
 10
-264.573582
 20
163.117861
 30
0.0
 11
-264.573582
 21
191.617861
 31
0.0
  0
LINE
  5
520
100
AcDbEntity
  8
3
370
    50
100
AcDbLine
 10
-232.773582
 20
162.117861
 30
0.0
 11
-231.773582
 21
163.117861
 31
0.0
  0
LINE
  5
521
100
AcDbEntity
  8
3
370
    50
100
AcDbLine
 10
-263.573582
 20
162.117861
 30
0.0
 11
-264.573582
 21
163.117861
 31
0.0
  0
LINE
  5
522
100
AcDbEntity
  8
3
370
    50
100
AcDbLine
 10
-264.573582
 20
191.617861
 30
0.0
 11
-263.573582
 21
192.617861
 31
0.0
  0
LINE
  5
523
100
AcDbEntity
  8
3
370
    50
100
AcDbLine
 10
-232.773582
 20
192.617861
 30
0.0
 11
-231.773582
 21
191.617861
 31
0.0
  0
LINE
  5
524
100
AcDbEntity
  8
3
370
    50
100
AcDbLine
 10
-231.773582
 20
163.117861
 30
0.0
 11
-231.773582
 21
164.117861
 31
0.0
  0
LINE
  5
525
100
AcDbEntity
  8
3
370
    50
100
AcDbLine
 10
-231.773582
 20
190.117861
 30
0.0
 11
-231.773582
 21
191.617861
 31
0.0
  0
LINE
  5
526
100
AcDbEntity
  8
3
370
    50
100
AcDbLine
 10
-162.173582
 20
165.117861
 30
0.0
 11
-248.173582
 21
165.117861
 31
0.0
  0
LINE
  5
527
100
AcDbEntity
  8
3
370
    50
100
AcDbLine
 10
-162.173582
 20
189.117861
 30
0.0
 11
-248.173582
 21
189.117861
 31
0.0
  0
ARC
  5
528
100
AcDbEntity
  8
3
370
    50
100
AcDbCircle
 10
-193.173582
 20
163.117861
 30
0.0
 40
2.0
100
AcDbArc
 50
0.0
 51
90.0
  0
ARC
  5
529
100
AcDbEntity
  8
3
370
    50
100
AcDbCircle
 10
-230.773582
 20
164.117861
 30
0.0
 40
1.0
100
AcDbArc
 50
90.0
 51
180.0
  0
ARC
  5
52A
100
AcDbEntity
  8
3
370
    50
100
AcDbCircle
 10
-230.773582
 20
190.117861
 30
0.0
 40
1.0
100
AcDbArc
 50
180.0
 51
270.0
  0
LINE
  5
52B
100
AcDbEntity
  8
3
370
    50
100
AcDbLine
 10
-165.173582
 20
163.117861
 30
0.0
 11
-165.173582
 21
151.617861
 31
0.0
  0
LINE
  5
52C
100
AcDbEntity
  8
3
370
    50
100
AcDbLine
 10
-191.173582
 20
163.117861
 30
0.0
 11
-191.173582
 21
151.617861
 31
0.0
  0
LINE
  5
52D
100
AcDbEntity
  8
3
370
    50
100
AcDbLine
 10
-231.773582
 20
163.117861
 30
0.0
 11
-264.573582
 21
163.117861
 31
0.0
  0
LINE
  5
52E
100
AcDbEntity
  8
3
370
    50
100
AcDbLine
 10
-236.673582
 20
192.617861
 30
0.0
 11
-236.673582
 21
195.417861
 31
0.0
  0
LINE
  5
52F
100
AcDbEntity
  8
3
370
    50
100
AcDbLine
 10
-259.673582
 20
192.617861
 30
0.0
 11
-259.673582
 21
195.417861
 31
0.0
  0
ARC
  5
530
100
AcDbEntity
  8
3
370
    50
100
AcDbCircle
 10
-163.173582
 20
163.117861
 30
0.0
 40
2.0
100
AcDbArc
 50
90.0
 51
180.0
  0
LINE
  5
531
100
AcDbEntity
  8
3
370
    50
100
AcDbLine
 10
-261.673582
 20
197.917861
 30
0.0
 11
-234.673582
 21
197.917861
 31
0.0
  0
ARC
  5
532
100
AcDbEntity
  8
3
370
    50
100
AcDbCircle
 10
-234.673582
 20
199.917861
 30
0.0
 40
2.0
100
AcDbArc
 50
270.0
 51
294.670512
  0
LINE
  5
533
100
AcDbEntity
  8
3
370
    50
100
AcDbLine
 10
-225.922246
 20
204.050296
 30
0.0
 11
-270.494695
 21
204.050296
 31
0.0
  0
LINE
  5
534
100
AcDbEntity
  8
3
370
    50
100
AcDbLine
 10
-258.705177
 20
227.393533
 30
0.0
 11
-237.705177
 21
227.393533
 31
0.0
  0
LINE
  5
535
100
AcDbEntity
  8
3
370
    50
100
AcDbLine
 10
1.458029
 20
228.293533
 30
0.0
 11
-17.741971
 21
228.293533
 31
0.0
  0
LINE
  5
536
100
AcDbEntity
  8
3
370
    50
100
AcDbLine
 10
-18.641971
 20
227.393533
 30
0.0
 11
-18.641971
 21
207.917861
 31
0.0
  0
LINE
  5
537
100
AcDbEntity
  8
3
370
    50
100
AcDbLine
 10
2.358029
 20
227.393533
 30
0.0
 11
2.358029
 21
207.917861
 31
0.0
  0
LINE
  5
538
100
AcDbEntity
  8
3
370
    50
100
AcDbLine
 10
-17.741971
 20
228.293533
 30
0.0
 11
-17.741971
 21
207.917861
 31
0.0
  0
LINE
  5
539
100
AcDbEntity
  8
3
370
    50
100
AcDbLine
 10
1.458029
 20
228.293533
 30
0.0
 11
1.458029
 21
207.917861
 31
0.0
  0
LINE
  5
53A
100
AcDbEntity
  8
3
370
    50
100
AcDbLine
 10
1.458029
 20
228.293533
 30
0.0
 11
2.358029
 21
227.393533
 31
0.0
  0
LINE
  5
53B
100
AcDbEntity
  8
3
370
    50
100
AcDbLine
 10
-17.741971
 20
228.293533
 30
0.0
 11
-18.641971
 21
227.393533
 31
0.0
  0
LINE
  5
53C
100
AcDbEntity
  8
3
370
    50
100
AcDbLine
 10
-19.541971
 20
197.917861
 30
0.0
 11
-19.541971
 21
196.617861
 31
0.0
  0
LINE
  5
53D
100
AcDbEntity
  8
3
370
    50
100
AcDbLine
 10
3.258029
 20
197.917861
 30
0.0
 11
3.258029
 21
196.617861
 31
0.0
  0
LINE
  5
53E
100
AcDbEntity
  8
3
370
    50
100
AcDbLine
 10
14.826434
 20
207.917861
 30
0.0
 11
14.826434
 21
204.558981
 31
0.0
  0
LINE
  5
53F
100
AcDbEntity
  8
3
370
    50
100
AcDbLine
 10
-31.173566
 20
207.917861
 30
0.0
 11
14.826434
 21
207.917861
 31
0.0
  0
ARC
  5
540
100
AcDbEntity
  8
3
370
    50
100
AcDbCircle
 10
5.326434
 20
199.917861
 30
0.0
 40
2.0
100
AcDbArc
 50
270.0
 51
294.670512
  0
LINE
  5
541
100
AcDbEntity
  8
3
370
    50
100
AcDbLine
 10
14.243834
 20
203.650258
 30
0.0
 11
6.161233
 21
198.100415
 31
0.0
  0
LINE
  5
542
100
AcDbEntity
  8
3
370
    50
100
AcDbLine
 10
-30.590965
 20
203.650258
 30
0.0
 11
-22.508365
 21
198.100415
 31
0.0
  0
ARC
  5
543
100
AcDbEntity
  8
3
370
    50
100
AcDbCircle
 10
13.826434
 20
204.558981
 30
0.0
 40
1.0
100
AcDbArc
 50
294.670512
 51
0.0
  0
LINE
  5
544
100
AcDbEntity
  8
3
370
    50
100
AcDbLine
 10
5.026434
 20
195.417861
 30
0.0
 11
-23.673566
 21
195.417861
 31
0.0
  0
LINE
  5
545
100
AcDbEntity
  8
3
370
    50
100
AcDbLine
 10
5.026434
 20
196.617861
 30
0.0
 11
-23.673566
 21
196.617861
 31
0.0
  0
LINE
  5
546
100
AcDbEntity
  8
3
370
    50
100
AcDbLine
 10
-23.673566
 20
196.617861
 30
0.0
 11
-23.673566
 21
195.417861
 31
0.0
  0
LINE
  5
547
100
AcDbEntity
  8
3
370
    50
100
AcDbLine
 10
5.026434
 20
196.617861
 30
0.0
 11
5.026434
 21
195.417861
 31
0.0
  0
LINE
  5
548
100
AcDbEntity
  8
3
370
    50
100
AcDbLine
 10
7.226434
 20
192.617861
 30
0.0
 11
-23.573566
 21
192.617861
 31
0.0
  0
LINE
  5
549
100
AcDbEntity
  8
3
370
    50
100
AcDbLine
 10
-31.173566
 20
204.558981
 30
0.0
 11
-31.173566
 21
207.917861
 31
0.0
  0
LINE
  5
54A
100
AcDbEntity
  8
3
370
    50
100
AcDbLine
 10
-30.590965
 20
203.650258
 30
0.0
 11
-22.508365
 21
198.100415
 31
0.0
  0
ARC
  5
54B
100
AcDbEntity
  8
3
370
    50
100
AcDbCircle
 10
-30.173566
 20
204.558981
 30
0.0
 40
1.0
100
AcDbArc
 50
180.0
 51
245.329488
  0
LINE
  5
54C
100
AcDbEntity
  8
3
370
    50
100
AcDbLine
 10
-19.673566
 20
156.117861
 30
0.0
 11
-19.673566
 21
162.117861
 31
0.0
  0
LINE
  5
54D
100
AcDbEntity
  8
3
370
    50
100
AcDbLine
 10
3.326434
 20
156.117861
 30
0.0
 11
3.326434
 21
162.117861
 31
0.0
  0
LINE
  5
54E
100
AcDbEntity
  8
3
370
    50
100
AcDbLine
 10
2.326434
 20
155.117861
 30
0.0
 11
-18.673566
 21
155.117861
 31
0.0
  0
ARC
  5
54F
100
AcDbEntity
  8
3
370
    50
100
AcDbCircle
 10
-18.673566
 20
156.117861
 30
0.0
 40
1.0
100
AcDbArc
 50
180.0
 51
270.0
  0
ARC
  5
550
100
AcDbEntity
  8
3
370
    50
100
AcDbCircle
 10
2.326434
 20
156.117861
 30
0.0
 40
1.0
100
AcDbArc
 50
270.0
 51
0.0
  0
LINE
  5
551
100
AcDbEntity
  8
3
370
    50
100
AcDbLine
 10
7.226434
 20
162.117861
 30
0.0
 11
-23.573566
 21
162.117861
 31
0.0
  0
ARC
  5
552
100
AcDbEntity
  8
3
370
    50
100
AcDbCircle
 10
-73.117724
 20
177.118025
 30
0.0
 40
22.855625
100
AcDbArc
 50
157.11014
 51
202.88986
  0
LINE
  5
553
100
AcDbEntity
  8
3
370
    50
100
AcDbLine
 10
-94.173566
 20
189.117861
 30
0.0
 11
-94.173566
 21
165.117861
 31
0.0
  0
LINE
  5
554
100
AcDbEntity
  8
3
370
    50
100
AcDbLine
 10
8.226434
 20
163.117861
 30
0.0
 11
8.226434
 21
191.617861
 31
0.0
  0
LINE
  5
555
100
AcDbEntity
  8
3
370
    50
100
AcDbLine
 10
-23.573566
 20
162.117861
 30
0.0
 11
-24.573566
 21
163.117861
 31
0.0
  0
LINE
  5
556
100
AcDbEntity
  8
3
370
    50
100
AcDbLine
 10
7.226434
 20
162.117861
 30
0.0
 11
8.226434
 21
163.117861
 31
0.0
  0
LINE
  5
557
100
AcDbEntity
  8
3
370
    50
100
AcDbLine
 10
8.226434
 20
191.617861
 30
0.0
 11
7.226434
 21
192.617861
 31
0.0
  0
LINE
  5
558
100
AcDbEntity
  8
3
370
    50
100
AcDbLine
 10
-23.573566
 20
192.617861
 30
0.0
 11
-24.573566
 21
191.617861
 31
0.0
  0
LINE
  5
559
100
AcDbEntity
  8
3
370
    50
100
AcDbLine
 10
-24.573566
 20
163.117861
 30
0.0
 11
-24.573566
 21
164.117861
 31
0.0
  0
LINE
  5
55A
100
AcDbEntity
  8
3
370
    50
100
AcDbLine
 10
-24.573566
 20
190.117861
 30
0.0
 11
-24.573566
 21
191.617861
 31
0.0
  0
LINE
  5
55B
100
AcDbEntity
  8
3
370
    50
100
AcDbLine
 10
-94.173566
 20
165.117861
 30
0.0
 11
-8.173566
 21
165.117861
 31
0.0
  0
LINE
  5
55C
100
AcDbEntity
  8
3
370
    50
100
AcDbLine
 10
-94.173566
 20
189.117861
 30
0.0
 11
-8.173566
 21
189.117861
 31
0.0
  0
ARC
  5
55D
100
AcDbEntity
  8
3
370
    50
100
AcDbCircle
 10
-63.173566
 20
163.117861
 30
0.0
 40
2.0
100
AcDbArc
 50
90.0
 51
180.0
  0
ARC
  5
55E
100
AcDbEntity
  8
3
370
    50
100
AcDbCircle
 10
-25.573566
 20
164.117861
 30
0.0
 40
1.0
100
AcDbArc
 50
0.0
 51
90.0
  0
ARC
  5
55F
100
AcDbEntity
  8
3
370
    50
100
AcDbCircle
 10
-25.573566
 20
190.117861
 30
0.0
 40
1.0
100
AcDbArc
 50
270.0
 51
360.0
  0
LINE
  5
560
100
AcDbEntity
  8
3
370
    50
100
AcDbLine
 10
-91.173566
 20
163.117861
 30
0.0
 11
-91.173566
 21
151.617861
 31
0.0
  0
LINE
  5
561
100
AcDbEntity
  8
3
370
    50
100
AcDbLine
 10
-65.173566
 20
163.117861
 30
0.0
 11
-65.173566
 21
151.617861
 31
0.0
  0
LINE
  5
562
100
AcDbEntity
  8
3
370
    50
100
AcDbLine
 10
-24.573566
 20
163.117861
 30
0.0
 11
8.226434
 21
163.117861
 31
0.0
  0
LINE
  5
563
100
AcDbEntity
  8
3
370
    50
100
AcDbLine
 10
-19.673566
 20
192.617861
 30
0.0
 11
-19.673566
 21
195.417861
 31
0.0
  0
LINE
  5
564
100
AcDbEntity
  8
3
370
    50
100
AcDbLine
 10
3.326434
 20
192.617861
 30
0.0
 11
3.326434
 21
195.417861
 31
0.0
  0
ARC
  5
565
100
AcDbEntity
  8
3
370
    50
100
AcDbCircle
 10
-93.173566
 20
163.117861
 30
0.0
 40
2.0
100
AcDbArc
 50
0.0
 51
90.0
  0
LINE
  5
566
100
AcDbEntity
  8
3
370
    50
100
AcDbLine
 10
5.326434
 20
197.917861
 30
0.0
 11
-21.673566
 21
197.917861
 31
0.0
  0
ARC
  5
567
100
AcDbEntity
  8
3
370
    50
100
AcDbCircle
 10
-21.673566
 20
199.917861
 30
0.0
 40
2.0
100
AcDbArc
 50
245.329488
 51
270.0
  0
LINE
  5
568
100
AcDbEntity
  8
3
370
    50
100
AcDbLine
 10
-30.424902
 20
204.050296
 30
0.0
 11
14.147547
 21
204.050296
 31
0.0
  0
LINE
  5
569
100
AcDbEntity
  8
3
370
    50
100
AcDbLine
 10
2.358029
 20
227.393533
 30
0.0
 11
-18.641971
 21
227.393533
 31
0.0
  0
LINE
  5
56A
100
AcDbEntity
  8
3
370
    50
100
AcDbLine
 10
-243.748582
 20
154.617861
 30
0.0
 11
-243.748582
 21
155.117861
 31
0.0
  0
LINE
  5
56B
100
AcDbEntity
  8
3
370
    50
100
AcDbLine
 10
-252.598582
 20
154.617861
 30
0.0
 11
-252.598582
 21
155.117861
 31
0.0
  0
LINE
  5
56C
100
AcDbEntity
  8
3
370
    50
100
AcDbLine
 10
-247.173582
 20
153.617861
 30
0.0
 11
-247.173582
 21
155.117861
 31
0.0
  0
LINE
  5
56D
100
AcDbEntity
  8
3
370
    50
100
AcDbLine
 10
-249.173582
 20
153.617861
 30
0.0
 11
-249.173582
 21
155.117861
 31
0.0
  0
LINE
  5
56E
100
AcDbEntity
  8
3
370
    50
100
AcDbLine
 10
-244.748582
 20
153.617861
 30
0.0
 11
-243.748582
 21
154.617861
 31
0.0
  0
LINE
  5
56F
100
AcDbEntity
  8
3
370
    50
100
AcDbLine
 10
-251.598582
 20
153.617861
 30
0.0
 11
-252.598582
 21
154.617861
 31
0.0
  0
LINE
  5
570
100
AcDbEntity
  8
3
370
    50
100
AcDbLine
 10
-251.598582
 20
153.617861
 30
0.0
 11
-249.173582
 21
153.617861
 31
0.0
  0
LINE
  5
571
100
AcDbEntity
  8
3
370
    50
100
AcDbLine
 10
-247.173582
 20
153.617861
 30
0.0
 11
-244.748582
 21
153.617861
 31
0.0
  0
LINE
  5
572
100
AcDbEntity
  8
3
370
    50
100
AcDbLine
 10
-254.654082
 20
160.617861
 30
0.0
 11
-241.693082
 21
160.617861
 31
0.0
  0
LINE
  5
573
100
AcDbEntity
  8
3
370
    50
100
AcDbLine
 10
-241.693082
 20
155.117861
 30
0.0
 11
-241.693082
 21
160.617861
 31
0.0
  0
LINE
  5
574
100
AcDbEntity
  8
3
370
    50
100
AcDbLine
 10
-254.654082
 20
155.117861
 30
0.0
 11
-254.654082
 21
160.617861
 31
0.0
  0
LINE
  5
575
100
AcDbEntity
  8
3
370
    50
100
AcDbLine
 10
-1.693066
 20
155.117861
 30
0.0
 11
-1.693066
 21
160.617861
 31
0.0
  0
LINE
  5
576
100
AcDbEntity
  8
3
370
    50
100
AcDbLine
 10
-1.693066
 20
155.117861
 30
0.0
 11
-1.693066
 21
160.617861
 31
0.0
  0
LINE
  5
577
100
AcDbEntity
  8
3
370
    50
100
AcDbLine
 10
-1.693066
 20
160.617861
 30
0.0
 11
-14.654066
 21
160.617861
 31
0.0
  0
LINE
  5
578
100
AcDbEntity
  8
3
370
    50
100
AcDbLine
 10
-14.654066
 20
155.117861
 30
0.0
 11
-14.654066
 21
160.617861
 31
0.0
  0
LINE
  5
579
100
AcDbEntity
  8
3
370
    50
100
AcDbLine
 10
-11.598566
 20
153.617861
 30
0.0
 11
-12.598566
 21
154.617861
 31
0.0
  0
LINE
  5
57A
100
AcDbEntity
  8
3
370
    50
100
AcDbLine
 10
-9.173566
 20
153.617861
 30
0.0
 11
-11.598566
 21
153.617861
 31
0.0
  0
LINE
  5
57B
100
AcDbEntity
  8
3
370
    50
100
AcDbLine
 10
-9.173566
 20
153.617861
 30
0.0
 11
-9.173566
 21
155.117861
 31
0.0
  0
LINE
  5
57C
100
AcDbEntity
  8
3
370
    50
100
AcDbLine
 10
-12.598566
 20
154.617861
 30
0.0
 11
-12.598566
 21
155.117861
 31
0.0
  0
LINE
  5
57D
100
AcDbEntity
  8
3
370
    50
100
AcDbLine
 10
-3.748566
 20
154.617861
 30
0.0
 11
-3.748566
 21
155.117861
 31
0.0
  0
LINE
  5
57E
100
AcDbEntity
  8
3
370
    50
100
AcDbLine
 10
-4.748566
 20
153.617861
 30
0.0
 11
-3.748566
 21
154.617861
 31
0.0
  0
LINE
  5
57F
100
AcDbEntity
  8
3
370
    50
100
AcDbLine
 10
-4.748566
 20
153.617861
 30
0.0
 11
-7.173566
 21
153.617861
 31
0.0
  0
LINE
  5
580
100
AcDbEntity
  8
3
370
    50
100
AcDbLine
 10
-7.173566
 20
153.617861
 30
0.0
 11
-7.173566
 21
155.117861
 31
0.0
  0
POINT
  5
581
100
AcDbEntity
  8
3
370
    50
100
AcDbPoint
 10
-8.141971
 20
228.293533
 30
0.0
  0
POINT
  5
582
100
AcDbEntity
  8
3
370
    50
100
AcDbPoint
 10
-248.205177
 20
228.293533
 30
0.0
  0
POINT
  5
583
100
AcDbEntity
  8
3
370
    50
100
AcDbPoint
 10
-78.173566
 20
165.117861
 30
0.0
  0
POINT
  5
584
100
AcDbEntity
  8
3
370
    50
100
AcDbPoint
 10
-178.173582
 20
165.117861
 30
0.0
  0
ARC
  5
585
100
AcDbEntity
  8
3
370
    50
100
AcDbCircle
 10
-29.476376
 20
-99.648735
 30
0.0
 40
23.0
100
AcDbArc
 50
177.234583
 51
92.765417
  0
POINT
  5
586
100
AcDbEntity
  8
3
370
    50
100
AcDbPoint
 10
-29.476376
 20
-99.648735
 30
0.0
  0
CIRCLE
  5
587
100
AcDbEntity
  8
3
370
    50
100
AcDbCircle
 10
-29.476376
 20
-99.648735
 30
0.0
 40
16.4
  0
CIRCLE
  5
588
100
AcDbEntity
  8
3
370
    50
100
AcDbCircle
 10
-29.476376
 20
-99.648735
 30
0.0
 40
4.425
  0
LINE
  5
589
100
AcDbEntity
  8
3
370
    50
100
AcDbLine
 10
-33.231484
 20
-101.98963
 30
0.0
 11
-27.135482
 21
-95.893627
 31
0.0
  0
LINE
  5
58A
100
AcDbEntity
  8
3
370
    50
100
AcDbLine
 10
-31.817271
 20
-103.403843
 30
0.0
 11
-25.721268
 21
-97.30784
 31
0.0
  0
CIRCLE
  5
58B
100
AcDbEntity
  8
3
370
    50
100
AcDbCircle
 10
-29.476376
 20
-99.648735
 30
0.0
 40
11.5
  0
LINE
  5
58C
100
AcDbEntity
  8
3
370
    50
100
AcDbLine
 10
-40.776466
 20
-97.513796
 30
0.0
 11
-31.611315
 21
-88.348645
 31
0.0
  0
LINE
  5
58D
100
AcDbEntity
  8
3
370
    50
100
AcDbLine
 10
-27.341437
 20
-110.948825
 30
0.0
 11
-18.176286
 21
-101.783674
 31
0.0
  0
CIRCLE
  5
58E
100
AcDbEntity
  8
3
370
    50
100
AcDbCircle
 10
-29.476376
 20
-99.648735
 30
0.0
 40
13.8
  0
CIRCLE
  5
58F
100
AcDbEntity
  8
3
370
    50
100
AcDbCircle
 10
-29.476376
 20
-99.648735
 30
0.0
 40
15.4
  0
LINE
  5
590
100
AcDbEntity
  8
3
370
    50
100
AcDbLine
 10
-74.217696
 20
-74.15124
 30
0.0
 11
-41.711431
 21
-110.569514
 31
0.0
  0
LINE
  5
591
100
AcDbEntity
  8
3
370
    50
100
AcDbLine
 10
-33.414123
 20
-74.15124
 30
0.0
 11
-18.555597
 21
-87.41368
 31
0.0
  0
ARC
  5
592
100
AcDbEntity
  8
3
370
    50
100
AcDbCircle
 10
-228.471326
 20
-99.648735
 30
0.0
 40
23.0
100
AcDbArc
 50
87.234583
 51
2.765417
  0
POINT
  5
593
100
AcDbEntity
  8
3
370
    50
100
AcDbPoint
 10
-228.471326
 20
-99.648735
 30
0.0
  0
CIRCLE
  5
594
100
AcDbEntity
  8
3
370
    50
100
AcDbCircle
 10
-228.471326
 20
-99.648735
 30
0.0
 40
16.4
  0
CIRCLE
  5
595
100
AcDbEntity
  8
3
370
    50
100
AcDbCircle
 10
-228.471326
 20
-99.648735
 30
0.0
 40
4.425
  0
LINE
  5
596
100
AcDbEntity
  8
3
370
    50
100
AcDbLine
 10
-224.716217
 20
-101.98963
 30
0.0
 11
-230.81222
 21
-95.893627
 31
0.0
  0
LINE
  5
597
100
AcDbEntity
  8
3
370
    50
100
AcDbLine
 10
-226.130431
 20
-103.403843
 30
0.0
 11
-232.226434
 21
-97.30784
 31
0.0
  0
CIRCLE
  5
598
100
AcDbEntity
  8
3
370
    50
100
AcDbCircle
 10
-228.471326
 20
-99.648735
 30
0.0
 40
11.5
  0
LINE
  5
599
100
AcDbEntity
  8
3
370
    50
100
AcDbLine
 10
-217.171235
 20
-97.513796
 30
0.0
 11
-226.336387
 21
-88.348645
 31
0.0
  0
LINE
  5
59A
100
AcDbEntity
  8
3
370
    50
100
AcDbLine
 10
-230.606264
 20
-110.948825
 30
0.0
 11
-239.771416
 21
-101.783674
 31
0.0
  0
CIRCLE
  5
59B
100
AcDbEntity
  8
3
370
    50
100
AcDbCircle
 10
-228.471326
 20
-99.648735
 30
0.0
 40
13.8
  0
CIRCLE
  5
59C
100
AcDbEntity
  8
3
370
    50
100
AcDbCircle
 10
-228.471326
 20
-99.648735
 30
0.0
 40
15.4
  0
LINE
  5
59D
100
AcDbEntity
  8
3
370
    50
100
AcDbLine
 10
-183.730006
 20
-74.15124
 30
0.0
 11
-216.23627
 21
-110.569514
 31
0.0
  0
LINE
  5
59E
100
AcDbEntity
  8
3
370
    50
100
AcDbLine
 10
-224.533579
 20
-74.15124
 30
0.0
 11
-239.392105
 21
-87.41368
 31
0.0
  0
LINE
  5
59F
100
AcDbEntity
  8
3
370
    50
100
AcDbLine
 10
-227.894641
 20
-77.15126
 30
0.0
 11
-239.392105
 21
-87.41368
 31
0.0
  0
LINE
  5
5A0
100
AcDbEntity
  8
3
370
    50
100
AcDbLine
 10
259.124525
 20
-40.17224
 30
0.0
 11
258.629525
 21
-40.17224
 31
0.0
  0
LINE
  5
5A1
100
AcDbEntity
  8
3
370
    50
100
AcDbLine
 10
259.124525
 20
-64.13024
 30
0.0
 11
258.629525
 21
-64.13024
 31
0.0
  0
LINE
  5
5A2
100
AcDbEntity
  8
3
370
    50
100
AcDbLine
 10
333.240033
 20
-91.148835
 30
0.0
 11
313.764033
 21
-91.148835
 31
0.0
  0
LINE
  5
5A3
100
AcDbEntity
  8
3
370
    50
100
AcDbLine
 10
333.240033
 20
-112.148835
 30
0.0
 11
313.764033
 21
-112.148835
 31
0.0
  0
LINE
  5
5A4
100
AcDbEntity
  8
3
370
    25
100
AcDbLine
 10
334.140033
 20
-92.048835
 30
0.0
 11
313.764033
 21
-92.048835
 31
0.0
  0
LINE
  5
5A5
100
AcDbEntity
  8
3
370
    25
100
AcDbLine
 10
334.140033
 20
-111.248835
 30
0.0
 11
313.764033
 21
-111.248835
 31
0.0
  0
LINE
  5
5A6
100
AcDbEntity
  8
3
370
    50
100
AcDbLine
 10
313.764033
 20
-124.61724
 30
0.0
 11
310.405153
 21
-124.61724
 31
0.0
  0
LINE
  5
5A7
100
AcDbEntity
  8
3
370
    50
100
AcDbLine
 10
313.764033
 20
-78.61724
 30
0.0
 11
313.764033
 21
-124.61724
 31
0.0
  0
ARC
  5
5A8
100
AcDbEntity
  8
3
370
    50
100
AcDbCircle
 10
305.764033
 20
-115.11724
 30
0.0
 40
2.0
100
AcDbArc
 50
180.0
 51
204.670512
  0
LINE
  5
5A9
100
AcDbEntity
  8
3
370
    50
100
AcDbLine
 10
309.49643
 20
-124.034639
 30
0.0
 11
303.946587
 21
-115.952039
 31
0.0
  0
ARC
  5
5AA
100
AcDbEntity
  8
3
370
    50
100
AcDbCircle
 10
305.764033
 20
-88.11724
 30
0.0
 40
2.0
100
AcDbArc
 50
155.329488
 51
180.0
  0
LINE
  5
5AB
100
AcDbEntity
  8
3
370
    50
100
AcDbLine
 10
309.49643
 20
-79.19984
 30
0.0
 11
303.946587
 21
-87.282441
 31
0.0
  0
ARC
  5
5AC
100
AcDbEntity
  8
3
370
    50
100
AcDbCircle
 10
310.405153
 20
-123.61724
 30
0.0
 40
1.0
100
AcDbArc
 50
204.670512
 51
270.0
  0
LINE
  5
5AD
100
AcDbEntity
  8
3
370
    50
100
AcDbLine
 10
302.564033
 20
-114.81724
 30
0.0
 11
302.564033
 21
-86.11724
 31
0.0
  0
LINE
  5
5AE
100
AcDbEntity
  8
3
370
    50
100
AcDbLine
 10
303.764033
 20
-114.81724
 30
0.0
 11
303.764033
 21
-86.11724
 31
0.0
  0
LINE
  5
5AF
100
AcDbEntity
  8
3
370
    50
100
AcDbLine
 10
303.764033
 20
-114.81724
 30
0.0
 11
302.564033
 21
-114.81724
 31
0.0
  0
LINE
  5
5B0
100
AcDbEntity
  8
3
370
    50
100
AcDbLine
 10
299.764033
 20
-117.04924
 30
0.0
 11
299.764033
 21
-86.21724
 31
0.0
  0
LINE
  5
5B1
100
AcDbEntity
  8
3
370
    50
100
AcDbLine
 10
310.405153
 20
-78.61724
 30
0.0
 11
313.764033
 21
-78.61724
 31
0.0
  0
LINE
  5
5B2
100
AcDbEntity
  8
3
370
    50
100
AcDbLine
 10
309.49643
 20
-79.19984
 30
0.0
 11
303.946587
 21
-87.282441
 31
0.0
  0
ARC
  5
5B3
100
AcDbEntity
  8
3
370
    50
100
AcDbCircle
 10
310.405153
 20
-79.61724
 30
0.0
 40
1.0
100
AcDbArc
 50
90.0
 51
155.329488
  0
LINE
  5
5B4
100
AcDbEntity
  8
3
370
    50
100
AcDbLine
 10
263.264033
 20
-90.11724
 30
0.0
 11
269.264033
 21
-90.11724
 31
0.0
  0
LINE
  5
5B5
100
AcDbEntity
  8
3
370
    50
100
AcDbLine
 10
263.264033
 20
-113.11724
 30
0.0
 11
269.264033
 21
-113.11724
 31
0.0
  0
LINE
  5
5B6
100
AcDbEntity
  8
3
370
    50
100
AcDbLine
 10
261.764033
 20
-97.19224
 30
0.0
 11
262.264033
 21
-97.19224
 31
0.0
  0
LINE
  5
5B7
100
AcDbEntity
  8
3
370
    50
100
AcDbLine
 10
261.764033
 20
-106.04224
 30
0.0
 11
262.264033
 21
-106.04224
 31
0.0
  0
LINE
  5
5B8
100
AcDbEntity
  8
3
370
    50
100
AcDbLine
 10
260.764033
 20
-100.61724
 30
0.0
 11
262.264033
 21
-100.61724
 31
0.0
  0
LINE
  5
5B9
100
AcDbEntity
  8
3
370
    50
100
AcDbLine
 10
260.764033
 20
-102.61724
 30
0.0
 11
262.264033
 21
-102.61724
 31
0.0
  0
LINE
  5
5BA
100
AcDbEntity
  8
3
370
    50
100
AcDbLine
 10
260.764033
 20
-98.19224
 30
0.0
 11
261.764033
 21
-97.19224
 31
0.0
  0
LINE
  5
5BB
100
AcDbEntity
  8
3
370
    50
100
AcDbLine
 10
260.764033
 20
-105.04224
 30
0.0
 11
261.764033
 21
-106.04224
 31
0.0
  0
LINE
  5
5BC
100
AcDbEntity
  8
3
370
    50
100
AcDbLine
 10
260.764033
 20
-105.04224
 30
0.0
 11
260.764033
 21
-102.61724
 31
0.0
  0
LINE
  5
5BD
100
AcDbEntity
  8
3
370
    50
100
AcDbLine
 10
260.764033
 20
-100.61724
 30
0.0
 11
260.764033
 21
-98.19224
 31
0.0
  0
LINE
  5
5BE
100
AcDbEntity
  8
3
370
    50
100
AcDbLine
 10
262.264033
 20
-112.11724
 30
0.0
 11
262.264033
 21
-91.11724
 31
0.0
  0
ARC
  5
5BF
100
AcDbEntity
  8
3
370
    50
100
AcDbCircle
 10
263.264033
 20
-91.11724
 30
0.0
 40
1.0
100
AcDbArc
 50
90.0
 51
180.0
  0
ARC
  5
5C0
100
AcDbEntity
  8
3
370
    50
100
AcDbCircle
 10
263.264033
 20
-112.11724
 30
0.0
 40
1.0
100
AcDbArc
 50
180.0
 51
270.0
  0
LINE
  5
5C1
100
AcDbEntity
  8
3
370
    50
100
AcDbLine
 10
270.264033
 20
-118.04924
 30
0.0
 11
298.764033
 21
-118.04924
 31
0.0
  0
LINE
  5
5C2
100
AcDbEntity
  8
3
370
    50
100
AcDbLine
 10
270.264033
 20
-85.21724
 30
0.0
 11
269.264033
 21
-86.21724
 31
0.0
  0
LINE
  5
5C3
100
AcDbEntity
  8
3
370
    50
100
AcDbLine
 10
269.264033
 20
-117.04924
 30
0.0
 11
270.264033
 21
-118.04924
 31
0.0
  0
LINE
  5
5C4
100
AcDbEntity
  8
3
370
    50
100
AcDbLine
 10
298.764033
 20
-118.04924
 30
0.0
 11
299.764033
 21
-117.04924
 31
0.0
  0
LINE
  5
5C5
100
AcDbEntity
  8
3
370
    50
100
AcDbLine
 10
270.264033
 20
-85.21724
 30
0.0
 11
271.264033
 21
-85.21724
 31
0.0
  0
LINE
  5
5C6
100
AcDbEntity
  8
3
370
    50
100
AcDbLine
 10
295.064033
 20
-85.21724
 30
0.0
 11
298.764033
 21
-85.21724
 31
0.0
  0
ARC
  5
5C7
100
AcDbEntity
  8
3
370
    50
100
AcDbCircle
 10
271.264033
 20
-84.21724
 30
0.0
 40
1.0
100
AcDbArc
 50
270.0
 51
360.0
  0
LINE
  5
5C8
100
AcDbEntity
  8
3
370
    50
100
AcDbLine
 10
269.264033
 20
-117.04924
 30
0.0
 11
269.264033
 21
-86.21724
 31
0.0
  0
LINE
  5
5C9
100
AcDbEntity
  8
3
370
    50
100
AcDbLine
 10
299.764033
 20
-90.21724
 30
0.0
 11
302.364033
 21
-90.21724
 31
0.0
  0
LINE
  5
5CA
100
AcDbEntity
  8
3
370
    50
100
AcDbLine
 10
299.764033
 20
-113.01724
 30
0.0
 11
302.364033
 21
-113.01724
 31
0.0
  0
LINE
  5
5CB
100
AcDbEntity
  8
3
370
    50
100
AcDbLine
 10
302.364033
 20
-113.01724
 30
0.0
 11
302.564033
 21
-112.81724
 31
0.0
  0
LINE
  5
5CC
100
AcDbEntity
  8
3
370
    50
100
AcDbLine
 10
302.364033
 20
-90.21724
 30
0.0
 11
302.564033
 21
-90.41724
 31
0.0
  0
LINE
  5
5CD
100
AcDbEntity
  8
3
370
    50
100
AcDbLine
 10
298.764033
 20
-85.21724
 30
0.0
 11
298.764033
 21
-118.04924
 31
0.0
  0
LINE
  5
5CE
100
AcDbEntity
  8
3
370
    50
100
AcDbLine
 10
270.264033
 20
-85.21724
 30
0.0
 11
270.264033
 21
-118.04924
 31
0.0
  0
LINE
  5
5CF
100
AcDbEntity
  8
3
370
    50
100
AcDbLine
 10
303.764033
 20
-88.11724
 30
0.0
 11
303.764033
 21
-115.11724
 31
0.0
  0
LINE
  5
5D0
100
AcDbEntity
  8
3
370
    50
100
AcDbLine
 10
309.896468
 20
-79.356522
 30
0.0
 11
309.896468
 21
-123.77713
 31
0.0
  0
LINE
  5
5D1
100
AcDbEntity
  8
3
370
    50
100
AcDbLine
 10
267.764033
 20
-108.09774
 30
0.0
 11
267.764033
 21
-95.13674
 31
0.0
  0
LINE
  5
5D2
100
AcDbEntity
  8
3
370
    50
100
AcDbLine
 10
262.264033
 20
-95.13674
 30
0.0
 11
267.764033
 21
-95.13674
 31
0.0
  0
LINE
  5
5D3
100
AcDbEntity
  8
3
370
    50
100
AcDbLine
 10
262.264033
 20
-108.09774
 30
0.0
 11
267.764033
 21
-108.09774
 31
0.0
  0
LINE
  5
5D4
100
AcDbEntity
  8
3
370
    50
100
AcDbLine
 10
282.414525
 20
-36.15124
 30
0.0
 11
292.064033
 21
-36.15124
 31
0.0
  0
ARC
  5
5D5
100
AcDbEntity
  8
3
370
    50
100
AcDbCircle
 10
292.064033
 20
-38.15124
 30
0.0
 40
2.0
100
AcDbArc
 50
0.0
 51
90.0
  0
ARC
  5
5D6
100
AcDbEntity
  8
3
370
    50
100
AcDbCircle
 10
295.064033
 20
-84.21724
 30
0.0
 40
1.0
100
AcDbArc
 50
180.0
 51
270.0
  0
LINE
  5
5D7
100
AcDbEntity
  8
3
370
    50
100
AcDbLine
 10
298.764033
 20
-85.21724
 30
0.0
 11
299.764033
 21
-86.21724
 31
0.0
  0
LINE
  5
5D8
100
AcDbEntity
  8
3
370
    50
100
AcDbLine
 10
302.564033
 20
-86.11724
 30
0.0
 11
303.764033
 21
-86.11724
 31
0.0
  0
LINE
  5
5D9
100
AcDbEntity
  8
3
370
    50
100
AcDbLine
 10
334.140033
 20
-111.248835
 30
0.0
 11
334.140033
 21
-92.048835
 31
0.0
  0
LINE
  5
5DA
100
AcDbEntity
  8
3
370
    25
100
AcDbLine
 10
333.240033
 20
-91.148835
 30
0.0
 11
333.240033
 21
-112.148835
 31
0.0
  0
LINE
  5
5DB
100
AcDbEntity
  8
3
370
    50
100
AcDbLine
 10
334.140033
 20
-92.048835
 30
0.0
 11
333.240033
 21
-91.148835
 31
0.0
  0
LINE
  5
5DC
100
AcDbEntity
  8
3
370
    50
100
AcDbLine
 10
334.140033
 20
-111.248835
 30
0.0
 11
333.240033
 21
-112.148835
 31
0.0
  0
LINE
  5
5DD
100
AcDbEntity
  8
3
370
    50
100
AcDbLine
 10
260.822879
 20
-39.15124
 30
0.0
 11
270.264033
 21
-39.15124
 31
0.0
  0
LINE
  5
5DE
100
AcDbEntity
  8
3
370
    50
100
AcDbLine
 10
294.064033
 20
-101.648835
 30
0.0
 11
294.064033
 21
-38.15124
 31
0.0
  0
LINE
  5
5DF
100
AcDbEntity
  8
3
370
    50
100
AcDbLine
 10
272.264033
 20
-36.15124
 30
0.0
 11
272.264033
 21
-101.648835
 31
0.0
  0
LINE
  5
5E0
100
AcDbEntity
  8
3
370
    50
100
AcDbLine
 10
272.264033
 20
-36.15124
 30
0.0
 11
292.064033
 21
-36.15124
 31
0.0
  0
ARC
  5
5E1
100
AcDbEntity
  8
3
370
    50
100
AcDbCircle
 10
292.064033
 20
-38.15124
 30
0.0
 40
2.0
100
AcDbArc
 50
0.0
 51
90.0
  0
ARC
  5
5E2
100
AcDbEntity
  8
3
370
    50
100
AcDbCircle
 10
270.264033
 20
-37.15124
 30
0.0
 40
2.0
100
AcDbArc
 50
270.0
 51
0.0
  0
LINE
  5
5E3
100
AcDbEntity
  8
3
370
    25
100
AcDbLine
 10
259.264033
 20
-40.05124
 30
0.0
 11
258.764525
 21
-40.05124
 31
0.0
  0
LINE
  5
5E4
100
AcDbEntity
  8
3
370
    50
100
AcDbLine
 10
259.264033
 20
-40.05124
 30
0.0
 11
260.822879
 21
-39.15124
 31
0.0
  0
LINE
  5
5E5
100
AcDbEntity
  8
3
370
    50
100
AcDbLine
 10
259.264033
 20
-40.05124
 30
0.0
 11
259.264033
 21
-64.25124
 31
0.0
  0
LINE
  5
5E6
100
AcDbEntity
  8
3
370
    50
100
AcDbLine
 10
260.822879
 20
-65.15124
 30
0.0
 11
270.264033
 21
-65.15124
 31
0.0
  0
ARC
  5
5E7
100
AcDbEntity
  8
3
370
    50
100
AcDbCircle
 10
270.264033
 20
-67.15124
 30
0.0
 40
2.0
100
AcDbArc
 50
360.0
 51
90.0
  0
LINE
  5
5E8
100
AcDbEntity
  8
3
370
    50
100
AcDbLine
 10
259.264033
 20
-64.25124
 30
0.0
 11
260.822879
 21
-65.15124
 31
0.0
  0
LINE
  5
5E9
100
AcDbEntity
  8
3
370
    25
100
AcDbLine
 10
259.264033
 20
-64.25124
 30
0.0
 11
258.764525
 21
-64.25124
 31
0.0
  0
LINE
  5
5EA
100
AcDbEntity
  8
3
370
    25
  6
CENTER
100
AcDbLine
 10
-78.173582
 20
190.609116
 30
0.0
 11
-78.173582
 21
132.846848
 31
0.0
  0
TEXT
  5
5EB
100
AcDbEntity
  8
3
370
    50
100
AcDbText
 10
345.098131
 20
-256.100293
 30
0.0
 40
6.0
  1
１９　１１　１１
 72
     5
 11
391.898131
 21
-256.100293
 31
0.0
100
AcDbText
  0
LINE
  5
5EC
100
AcDbEntity
  8
3
370
    25
  6
CENTER
100
AcDbLine
 10
-248.205177
 20
233.196618
 30
0.0
 11
-248.205177
 21
151.192855
 31
0.0
  0
LINE
  5
5ED
100
AcDbEntity
  8
3
370
    25
  6
CENTER
100
AcDbLine
 10
-8.141971
 20
233.196618
 30
0.0
 11
-8.141971
 21
149.192861
 31
0.0
  0
ENDSEC
  0
SECTION
  2
OBJECTS
  0
DICTIONARY
  5
686
100
AcDbDictionary
280
     0
281
     1
  3
ACAD_GROUP
350
687
  3
ACAD_MLINESTYLE
350
688
  0
DICTIONARY
  5
687
102
{ACAD_REACTORS
330
686
102
}
100
AcDbDictionary
280
     0
281
     1
  0
DICTIONARY
  5
688
102
{ACAD_REACTORS
330
686
102
}
100
AcDbDictionary
280
     0
281
     1
  3
Standard
350
689
  0
MLINESTYLE
  5
689
102
{ACAD_REACTORS
330
688
102
}
100
AcDbMlineStyle
  2
Standard
 70
     0
  3

 62
     0
 51
90.0
 52
90.0
 71
     2
 49
0.5
 62
   256
  6
ByLayer
 49
-0.5
 62
   256
  6
ByLayer
  0
ENDSEC
  0
EOF
