  0
SECTION
  2
HEADER
  9
$ACADVER
  1
AC1015
  9
$ACADMAINTVER
 70
     6
  9
$DWGCODEPAGE
  3
ANSI_932
  9
$INSBASE
 10
0.0
 20
0.0
 30
0.0
  9
$EXTMIN
 10
-841.0
 20
-594.0
 30
1.000000E+20
  9
$EXTMAX
 10
841.0
 20
594.0
 30
-1.000000E+20
  9
$LIMMIN
 10
-841.0
 20
-594.0
  9
$LIMMAX
 10
841.0
 20
594.0
  9
$ORTHOMODE
 70
     0
  9
$REGENMODE
 70
     1
  9
$FILLMODE
 70
     1
  9
$QTEXTMODE
 70
     0
  9
$MIRRTEXT
 70
     1
  9
$LTSCALE
 40
1.0
  9
$ATTMODE
 70
     1
  9
$TEXTSIZE
 40
0.2
  9
$TRACEWID
 40
0.05
  9
$TEXTSTYLE
  7
STANDARD
  9
$CLAYER
  8
0
  9
$CELTYPE
  6
CONTINUOUS
  9
$CECOLOR
 62
   256
  9
$CELTSCALE
 40
1.0
  9
$DISPSILH
 70
     0
  9
$DIMSCALE
 40
2.0
  9
$DIMASZ
 40
2.0
  9
$DIMEXO
 40
1.0
  9
$DIMDLI
 40
0.38
  9
$DIMRND
 40
0.0
  9
$DIMDLE
 40
0.0
  9
$DIMEXE
 40
2.0
  9
$DIMTP
 40
0.0
  9
$DIMTM
 40
0.0
  9
$DIMTXT
 40
3.5
  9
$DIMCEN
 40
0.09
  9
$DIMTSZ
 40
0.0
  9
$DIMTOL
 70
     0
  9
$DIMLIM
 70
     0
  9
$DIMTIH
 70
     0
  9
$DIMTOH
 70
     0
  9
$DIMSE1
 70
     0
  9
$DIMSE2
 70
     0
  9
$DIMTAD
 70
     1
  9
$DIMZIN
 70
     0
  9
$DIMBLK
  1

  9
$DIMASO
 70
     1
  9
$DIMSHO
 70
     1
  9
$DIMPOST
  1

  9
$DIMAPOST
  1

  9
$DIMALT
 70
     0
  9
$DIMALTD
 70
     2
  9
$DIMALTF
 40
25.4
  9
$DIMLFAC
 40
1.0
  9
$DIMTOFL
 70
     0
  9
$DIMTVP
 40
0.0
  9
$DIMTIX
 70
     0
  9
$DIMSOXD
 70
     0
  9
$DIMSAH
 70
     0
  9
$DIMBLK1
  1

  9
$DIMBLK2
  1

  9
$DIMSTYLE
  2
Standard
  9
$DIMCLRD
 70
     0
  9
$DIMCLRE
 70
     0
  9
$DIMCLRT
 70
     0
  9
$DIMTFAC
 40
1.0
  9
$DIMGAP
 40
0.5
  9
$DIMJUST
 70
     0
  9
$DIMSD1
 70
     0
  9
$DIMSD2
 70
     0
  9
$DIMTOLJ
 70
     1
  9
$DIMTZIN
 70
     0
  9
$DIMALTZ
 70
     0
  9
$DIMALTTZ
 70
     0
  9
$DIMUPT
 70
     0
  9
$DIMDEC
 70
     3
  9
$DIMTDEC
 70
     4
  9
$DIMALTU
 70
     2
  9
$DIMALTTD
 70
     2
  9
$DIMTXSTY
  7
STANDARD
  9
$DIMAUNIT
 70
     0
  9
$DIMADEC
 70
     0
  9
$DIMALTRND
 40
0.0
  9
$DIMAZIN
 70
     0
  9
$DIMDSEP
 70
     0
  9
$DIMATFIT
 70
     3
  9
$DIMFRAC
 70
     0
  9
$DIMLDRBLK
  1

  9
$DIMLUNIT
 70
     2
  9
$DIMLWD
 70
     0
  9
$DIMLWE
 70
     0
  9
$DIMTMOVE
 70
     0
  9
$LUNITS
 70
     2
  9
$LUPREC
 70
     4
  9
$SKETCHINC
 40
0.1
  9
$FILLETRAD
 40
0.0
  9
$AUNITS
 70
     0
  9
$AUPREC
 70
     0
  9
$MENU
  1
acad
  9
$ELEVATION
 40
0.0
  9
$PELEVATION
 40
0.0
  9
$THICKNESS
 40
0.0
  9
$LIMCHECK
 70
     0
  9
$CHAMFERA
 40
0.0
  9
$CHAMFERB
 40
0.0
  9
$CHAMFERC
 40
0.0
  9
$CHAMFERD
 40
0.0
  9
$SKPOLY
 70
     0
  9
$TDCREATE
 40
2454540.000000000
  9
$TDUCREATE
 40
0.000000000
  9
$TDUPDATE
 40
0.000000000
  9
$TDUUPDATE
 40
2447892.625000000
  9
$TDINDWG
 40
0.0000000000
  9
$TDUSRTIMER
 40
0.0000000000
  9
$USRTIMER
 70
     1
  9
$ANGBASE
 50
0.0
  9
$ANGDIR
 70
     0
  9
$PDMODE
 70
     0
  9
$PDSIZE
 40
0.0
  9
$PLINEWID
 40
0.0
  9
$SPLFRAME
 70
     0
  9
$SPLINETYPE
 70
     6
  9
$SPLINESEGS
 70
     8
  9
$HANDSEED
  5
40B
  9
$SURFTAB1
 70
     6
  9
$SURFTAB2
 70
     6
  9
$SURFTYPE
 70
     6
  9
$SURFU
 70
     6
  9
$SURFV
 70
     6
  9
$UCSBASE
  2

  9
$UCSNAME
  2

  9
$UCSORG
 10
0.0
 20
0.0
 30
0.0
  9
$UCSXDIR
 10
1.0
 20
0.0
 30
0.0
  9
$UCSYDIR
 10
0.0
 20
1.0
 30
0.0
  9
$UCSORTHOREF
  2

  9
$UCSORTHOVIEW
 70
     0
  9
$UCSORGTOP
 10
0.0
 20
0.0
 30
0.0
  9
$UCSORGBOTTOM
 10
0.0
 20
0.0
 30
0.0
  9
$UCSORGLEFT
 10
0.0
 20
0.0
 30
0.0
  9
$UCSORGRIGHT
 10
0.0
 20
0.0
 30
0.0
  9
$UCSORGFRONT
 10
0.0
 20
0.0
 30
0.0
  9
$UCSORGBACK
 10
0.0
 20
0.0
 30
0.0
  9
$PUCSBASE
  2

  9
$PUCSNAME
  2

  9
$PUCSORG
 10
0.0
 20
0.0
 30
0.0
  9
$PUCSXDIR
 10
1.0
 20
0.0
 30
0.0
  9
$PUCSYDIR
 10
0.0
 20
1.0
 30
0.0
  9
$PUCSORTHOREF
  2

  9
$PUCSORTHOVIEW
 70
     0
  9
$PUCSORGTOP
 10
0.0
 20
0.0
 30
0.0
  9
$PUCSORGBOTTOM
 10
0.0
 20
0.0
 30
0.0
  9
$PUCSORGLEFT
 10
0.0
 20
0.0
 30
0.0
  9
$PUCSORGRIGHT
 10
0.0
 20
0.0
 30
0.0
  9
$PUCSORGFRONT
 10
0.0
 20
0.0
 30
0.0
  9
$PUCSORGBACK
 10
0.0
 20
0.0
 30
0.0
  9
$USERI1
 70
     0
  9
$USERI2
 70
     0
  9
$USERI3
 70
     0
  9
$USERI4
 70
     0
  9
$USERI5
 70
     0
  9
$USERR1
 40
0.0
  9
$USERR2
 40
0.0
  9
$USERR3
 40
0.0
  9
$USERR4
 40
0.0
  9
$USERR5
 40
0.0
  9
$WORLDVIEW
 70
     1
  9
$SHADEDGE
 70
     3
  9
$SHADEDIF
 70
    70
  9
$TILEMODE
 70
     1
  9
$MAXACTVP
 70
    16
  9
$PINSBASE
 10
0.0
 20
0.0
 30
0.0
  9
$PLIMCHECK
 70
     0
  9
$PEXTMIN
 10
1.000000E+20
 20
1.000000E+20
 30
1.000000E+20
  9
$PEXTMAX
 10
-1.000000E+20
 20
-1.000000E+20
 30
-1.000000E+20
  9
$PLIMMIN
 10
0.0
 20
0.0
  9
$PLIMMAX
 10
12.0
 20
9.0
  9
$UNITMODE
 70
     0
  9
$VISRETAIN
 70
     0
  9
$PLINEGEN
 70
     1
  9
$PSLTSCALE
 70
     0
  9
$TREEDEPTH
 70
  3020
  9
$CMLSTYLE
  2
Standard
  9
$CMLJUST
 70
     0
  9
$CMLSCALE
 40
1.0
  9
$PROXYGRAPHICS
 70
     0
  9
$MEASUREMENT
 70
     0
  9
$CELWEIGHT
370
     0
  9
$ENDCAPS
280
     0
  9
$JOINSTYLE
280
     0
  9
$LWDISPLAY
290
     0
  9
$INSUNITS
 70
     0
  9
$HYPERLINKBASE
  1

  9
$STYLESHEET
  1

  9
$XEDIT
290
     1
  9
$CEPSNTYPE
380
     0
  9
$PSTYLEMODE
290
     1
  9
$FINGERPRINTGUID
  2

  9
$VERSIONGUID
  2

  9
$EXTNAMES
290
     1
  9
$PSVPSCALE
 40
0.0
  0
ENDSEC
  0
SECTION
  2
CLASSES
  0
CLASS
  1
LWPOLYLINE
  2
AcDbPolyline
  3
AutoCAD 2000
 90
        0
280
     0
281
     1
  0
CLASS
  1
IMAGE
  2
AcDbRasterImage
  3
ISM
 90
      127
280
     0
281
     1
  0
CLASS
  1
OLE2FRAME
  2
AcDbOle2Frame
  3
AutoCAD 2000
 90
        0
280
     0
281
     1
  0
CLASS
  1
HATCH
  2
AcDbHatch
  3
AutoCAD 2000
 90
        0
280
     0
281
     1
  0
CLASS
  1
DICTIONARYVAR
  2
AcDbDictionaryVar
  3
AutoCAD 2000
 90
        0
280
     0
281
     0
  0
CLASS
  1
RASTERVARIABLES
  2
AcDbRasterVariables
  3
ISM
 90
        0
280
     0
281
     0
  0
CLASS
  1
IMAGEDEF
  2
AcDbRasterImageDef
  3
ISM
 90
        0
280
     0
281
     0
  0
CLASS
  1
IMAGEDEF_REACTOR
  2
AcDbRasterImageDefReactor
  3
ISM
 90
        1
280
     0
281
     0
  0
CLASS
  1
IDBUFFER
  2
AcDbIdBuffer
  3
AutoCAD 2000
 90
        0
280
     0
281
     0
  0
CLASS
  1
SPATIAL_FILTER
  2
AcDbSpatialFilter
  3
AutoCAD 2000
 90
        0
280
     0
281
     0
  0
CLASS
  1
XRECORD
  2
AcDbXrecord
  3
AutoCAD 2000
 90
        0
280
     0
281
     0
  0
CLASS
  1
SORTENTSTABLE
  2
AcDbSortentsTable
  3
AutoCAD 2000
 90
        0
280
     0
281
     0
  0
CLASS
  1
LAYER_INDEX
  2
AcDbLayerIndex
  3
AutoCAD 2000
 90
        0
280
     0
281
     0
  0
CLASS
  1
SPATIAL_INDEX
  2
AcDbSpatialIndex
  3
AutoCAD 2000
 90
        0
280
     0
281
     0
  0
CLASS
  1
OBJECT_PTR
  2
CAseDLPNTableRecord
  3
"ASE-LPNTableRecord"
 90
        1
280
     0
281
     0
  0
CLASS
  1
LAYOUT
  2
AcDbLayout
  3
AutoCAD 2000
 90
        0
280
     0
281
     0
  0
CLASS
  1
PLOTSETTINGS
  2
AcDbPlotSettings
  3
AutoCAD 2000
 90
        0
280
     0
281
     0
  0
CLASS
  1
ACDBDICTIONARYWDFLT
  2
AcDbDictionaryWithDefault
  3
AutoCAD 2000
 90
        0
280
     0
281
     0
  0
CLASS
  1
ACDBPLACEHOLDER
  2
AcDbPlaceHolder
  3
AutoCAD 2000
 90
        0
280
     0
281
     0
  0
CLASS
  1
VBA_PROJECT
  2
AcDbVbaProject
  3
acadvba
 90
        0
280
     0
281
     0
  0
CLASS
  1
WIPEOUT
  2
AcDbWipeout
  3
WipeOut|AutoCAD Express Tool|expresstools@autodesk.com
 90
      127
280
     0
281
     1
  0
CLASS
  1
WIPEOUTVARIABLES
  2
AcDbWipeoutVariables
  3
WipeOut|AutoCAD Express Tool|expresstools@autodesk.com
 90
        0
280
     0
281
     0
  0
CLASS
  1
RTEXT
  2
RText
  3
RText|AutoCAD Express Tool|expresstools@autodesk.com
 90
        0
280
     0
281
     1
  0
CLASS
  1
ARCALIGNEDTEXT
  2
AcDbArcAlignedText
  3
ATEXT|AutoCAD Express Tool|expresstools@autodesk.com
 90
        0
280
     0
281
     1
  0
ENDSEC
  0
SECTION
  2
TABLES
  0
TABLE
  2
VPORT
  5
6
100
AcDbSymbolTable
 70
     1
  0
VPORT
  5
19
100
AcDbSymbolTableRecord
100
AcDbViewportTableRecord
  2
*ACTIVE
 70
     0
 10
0.0
 20
0.0
 11
1.0
 21
1.0
 12
0.0
 22
0.0
 13
0.0
 23
0.0
 14
1.0
 24
1.0
 15
0.0
 25
0.0
 16
0.0
 26
0.0
 36
1.0
 17
0.0
 27
0.0
 37
0.0
 40
1188.0
 41
1.415825
 42
50.0
 43
0.0
 44
0.0
 50
0.0
 51
0.0
 71
     0
 72
   500
 73
     1
 74
     1
 75
     0
 76
     0
 77
     0
 78
     0
281
     0
 65
     0
110
0.0
120
0.0
130
0.0
111
1.0
121
0.0
131
0.0
112
0.0
122
1.0
132
0.0
345
0
346
0
 79
     0
146
0.0
  0
ENDTAB
  0
TABLE
  2
LTYPE
  5
3
100
AcDbSymbolTable
 70
     9
  0
LTYPE
  5
C
100
AcDbSymbolTableRecord
100
AcDbLinetypeTableRecord
  2
ByBlock
 70
    64
  3

 72
    65
 73
     0
 40
0.0
  0
LTYPE
  5
D
100
AcDbSymbolTableRecord
100
AcDbLinetypeTableRecord
  2
ByLayer
 70
    64
  3

 72
    65
 73
     0
 40
0.0
  0
LTYPE
  5
E
100
AcDbSymbolTableRecord
100
AcDbLinetypeTableRecord
  2
CONTINUOUS
 70
     0
  3
Solid line
 72
    65
 73
     0
 40
0.0
  0
LTYPE
  5
F
100
AcDbSymbolTableRecord
100
AcDbLinetypeTableRecord
  2
DASHED
 70
     0
  3
__ __ __ __ __ __ __ __ __ __ __ __ __ __ __
 72
    65
 73
     2
 40
2.0
 49
1.2
 74
     0
 49
-0.8
 74
     0
  0
LTYPE
  5
10
100
AcDbSymbolTableRecord
100
AcDbLinetypeTableRecord
  2
CENTER
 70
     0
  3
____ _ ____ _ ____ _ ____ _ ____ _ ____ _ ____
 72
    65
 73
     4
 40
12.0
 49
9.0
 74
     0
 49
-1.0
 74
     0
 49
1.0
 74
     0
 49
-1.0
 74
     0
  0
LTYPE
  5
11
100
AcDbSymbolTableRecord
100
AcDbLinetypeTableRecord
  2
HIDDEN
 70
     0
  3
_ _ _ _ _ _ _ _ _ _ _ _ _ _ _ _ _ _ _ _ _ _ _
 72
    65
 73
     2
 40
3.2
 49
2.4
 74
     0
 49
-0.8
 74
     0
  0
LTYPE
  5
12
100
AcDbSymbolTableRecord
100
AcDbLinetypeTableRecord
  2
PHANTOM
 70
     0
  3
_____ _ _ _____ _ _ _____ _ _ _____ _ _ _____
 72
    65
 73
     6
 40
13.5
 49
9.0
 74
     0
 49
-1.0
 74
     0
 49
1.0
 74
     0
 49
-0.5
 74
     0
 49
1.0
 74
     0
 49
-1.0
 74
     0
  0
LTYPE
  5
13
100
AcDbSymbolTableRecord
100
AcDbLinetypeTableRecord
  2
DOT
 70
     0
  3
...............................................
 72
    65
 73
     2
 40
1.0
 49
0.5
 74
     0
 49
-0.5
 74
     0
  0
LTYPE
  5
14
100
AcDbSymbolTableRecord
100
AcDbLinetypeTableRecord
  2
DASHDOT
 70
     0
  3
__ . __ . __ . __ . __ . __ . __ . __ . __ . __
 72
    65
 73
     4
 40
8.0
 49
5.0
 74
     0
 49
-1.0
 74
     0
 49
1.0
 74
     0
 49
-1.0
 74
     0
  0
ENDTAB
  0
TABLE
  2
LAYER
  5
1
100
AcDbSymbolTable
 70
     4
  0
LAYER
  5
15
100
AcDbSymbolTableRecord
100
AcDbLayerTableRecord
  2
0
 70
     0
 62
   225
  6
CONTINUOUS
290
     1
370
    -3
390
0
  0
LAYER
  5
16
100
AcDbSymbolTableRecord
100
AcDbLayerTableRecord
  2
1
 70
     0
 62
     2
  6
CONTINUOUS
290
     1
370
    -3
390
0
  0
LAYER
  5
17
100
AcDbSymbolTableRecord
100
AcDbLayerTableRecord
  2
2
 70
     0
 62
     3
  6
CONTINUOUS
290
     1
370
    -3
390
0
  0
LAYER
  5
18
100
AcDbSymbolTableRecord
100
AcDbLayerTableRecord
  2
3
 70
     0
 62
     4
  6
CONTINUOUS
290
     1
370
    -3
390
0
  0
ENDTAB
  0
TABLE
  2
STYLE
  5
2
100
AcDbSymbolTable
 70
     1
  0
STYLE
  5
1B
100
AcDbSymbolTableRecord
100
AcDbTextStyleTableRecord
  2
STANDARD
 70
    64
 40
0.0
 41
1.0
 50
0.0
 71
     0
 42
1.0
  3
txt
  4
BIGFONT
  0
ENDTAB
  0
TABLE
  2
VIEW
  5
4
100
AcDbSymbolTable
 70
     0
  0
ENDTAB
  0
TABLE
  2
UCS
  5
5
100
AcDbSymbolTable
 70
     0
  0
ENDTAB
  0
TABLE
  2
APPID
  5
7
100
AcDbSymbolTable
 70
     1
  0
APPID
  5
1A
100
AcDbSymbolTableRecord
100
AcDbRegAppTableRecord
  2
ACAD
 70
     0
  0
ENDTAB
  0
TABLE
  2
DIMSTYLE
  5
8
100
AcDbSymbolTable
 70
     1
100
AcDbDimStyleTable
 71
     0
  0
DIMSTYLE
105
2D
100
AcDbSymbolTableRecord
100
AcDbDimStyleTableRecord
  2
Standard
 70
     0
  3

  4

 40
2.0
 41
2.0
 42
1.0
 43
0.38
 44
2.0
 45
0.0
 46
0.0
 47
0.0
 48
0.0
 71
     0
 72
     0
 73
     0
 74
     0
 75
     0
 76
     0
 77
     1
 78
     0
 79
     0
140
3.5
141
0.09
142
0.0
143
25.4
144
1.0
145
0.0
146
1.0
147
0.5
148
0.0
170
     0
171
     2
172
     0
173
     0
174
     0
175
     0
176
     0
177
     0
178
     0
179
     0
271
     3
272
     4
273
     2
274
     2
275
     0
276
     0
277
     2
278
    46
279
     0
280
     0
281
     0
282
     0
283
     1
284
     0
285
     0
286
     0
288
     0
289
     3
340
1B
341
0
342
0
343
0
344
0
371
    -2
372
    -2
  0
ENDTAB
  0
TABLE
  2
BLOCK_RECORD
  5
28
100
AcDbSymbolTable
 70
    10
  0
BLOCK_RECORD
  5
26
100
AcDbSymbolTableRecord
100
AcDbBlockTableRecord
  2
*Model_Space
340
0
  0
BLOCK_RECORD
  5
27
100
AcDbSymbolTableRecord
100
AcDbBlockTableRecord
  2
*Paper_Space
340
0
  0
BLOCK_RECORD
  5
1C
100
AcDbSymbolTableRecord
100
AcDbBlockTableRecord
  2
*D0
340
0
  0
BLOCK_RECORD
  5
1D
100
AcDbSymbolTableRecord
100
AcDbBlockTableRecord
  2
*D1
340
0
  0
BLOCK_RECORD
  5
1E
100
AcDbSymbolTableRecord
100
AcDbBlockTableRecord
  2
*D2
340
0
  0
BLOCK_RECORD
  5
1F
100
AcDbSymbolTableRecord
100
AcDbBlockTableRecord
  2
*D3
340
0
  0
BLOCK_RECORD
  5
20
100
AcDbSymbolTableRecord
100
AcDbBlockTableRecord
  2
*D4
340
0
  0
BLOCK_RECORD
  5
21
100
AcDbSymbolTableRecord
100
AcDbBlockTableRecord
  2
*D5
340
0
  0
BLOCK_RECORD
  5
22
100
AcDbSymbolTableRecord
100
AcDbBlockTableRecord
  2
*D6
340
0
  0
BLOCK_RECORD
  5
23
100
AcDbSymbolTableRecord
100
AcDbBlockTableRecord
  2
*D7
340
0
  0
BLOCK_RECORD
  5
24
100
AcDbSymbolTableRecord
100
AcDbBlockTableRecord
  2
*D8
340
0
  0
BLOCK_RECORD
  5
25
100
AcDbSymbolTableRecord
100
AcDbBlockTableRecord
  2
*D9
340
0
  0
ENDTAB
  0
ENDSEC
  0
SECTION
  2
BLOCKS
  0
BLOCK
  5
29
100
AcDbEntity
  8
0
390
0
100
AcDbBlockBegin
  2
*Model_Space
 70
     0
 10
0.0
 20
0.0
 30
0.0
  3
*Model_Space
  1

  0
ENDBLK
  5
2A
100
AcDbEntity
  8
0
390
0
100
AcDbBlockEnd
  0
BLOCK
  5
2B
100
AcDbEntity
 67
     1
  8
0
390
0
100
AcDbBlockBegin
  2
*Paper_Space
 70
     0
 10
0.0
 20
0.0
 30
0.0
  3
*Paper_Space
  1

  0
ENDBLK
  5
2C
100
AcDbEntity
 67
     1
  8
0
390
0
100
AcDbBlockEnd
  0
BLOCK
  5
394
100
AcDbEntity
  8
3
100
AcDbBlockBegin
  2
*D0
 70
     1
 10
0.0
 20
0.0
 30
0.0
  3
*D0
  1

  0
LINE
  5
395
100
AcDbEntity
  8
3
370
    25
100
AcDbLine
 10
-268.142574
 20
-65.977947
 30
0.0
 11
-287.622
 21
-47.192363
 31
0.0
  0
LINE
  5
396
100
AcDbEntity
  8
3
370
    25
100
AcDbLine
 10
-286.182379
 20
-48.580705
 30
0.0
 11
-289.609653
 21
-50.643179
 31
0.0
  0
LINE
  5
397
100
AcDbEntity
  8
3
370
    25
100
AcDbLine
 10
-286.182379
 20
-48.580705
 30
0.0
 11
-288.119248
 21
-52.080497
 31
0.0
  0
LINE
  5
398
100
AcDbEntity
  8
3
370
    25
100
AcDbLine
 10
-289.609653
 20
-50.643179
 30
0.0
 11
-288.119248
 21
-52.080497
 31
0.0
  0
LINE
  5
399
100
AcDbEntity
  8
3
370
    25
100
AcDbLine
 10
-286.182379
 20
-48.580705
 30
0.0
 11
-313.459188
 21
-76.864976
 31
0.0
  0
LINE
  5
39A
100
AcDbEntity
  8
3
370
    25
100
AcDbLine
 10
-313.459188
 20
-76.864976
 30
0.0
 11
-310.031915
 21
-74.802503
 31
0.0
  0
LINE
  5
39B
100
AcDbEntity
  8
3
370
    25
100
AcDbLine
 10
-313.459188
 20
-76.864976
 30
0.0
 11
-311.522319
 21
-73.365185
 31
0.0
  0
LINE
  5
39C
100
AcDbEntity
  8
3
370
    25
100
AcDbLine
 10
-310.031915
 20
-74.802503
 30
0.0
 11
-311.522319
 21
-73.365185
 31
0.0
  0
LINE
  5
39D
100
AcDbEntity
  8
3
370
    25
100
AcDbLine
 10
-295.419383
 20
-94.262218
 30
0.0
 11
-314.898808
 21
-75.476634
 31
0.0
  0
ENDBLK
  5
39E
100
AcDbEntity
  8
3
100
AcDbBlockEnd
  0
BLOCK
  5
39F
100
AcDbEntity
  8
3
100
AcDbBlockBegin
  2
*D1
 70
     1
 10
0.0
 20
0.0
 30
0.0
  3
*D1
  1

  0
LINE
  5
3A0
100
AcDbEntity
  8
3
370
    25
100
AcDbLine
 10
-294.979763
 20
-102.038043
 30
0.0
 11
-294.979763
 21
-241.902207
 31
0.0
  0
LINE
  5
3A1
100
AcDbEntity
  8
3
370
    25
100
AcDbLine
 10
-294.979763
 20
-239.902207
 30
0.0
 11
-291.116059
 21
-240.937484
 31
0.0
  0
LINE
  5
3A2
100
AcDbEntity
  8
3
370
    25
100
AcDbLine
 10
-294.979763
 20
-239.902207
 30
0.0
 11
-291.116059
 21
-238.866931
 31
0.0
  0
LINE
  5
3A3
100
AcDbEntity
  8
3
370
    25
100
AcDbLine
 10
-291.116059
 20
-240.937484
 30
0.0
 11
-291.116059
 21
-238.866931
 31
0.0
  0
LINE
  5
3A4
100
AcDbEntity
  8
3
370
    25
100
AcDbLine
 10
-294.979763
 20
-239.902207
 30
0.0
 11
-102.41122
 21
-239.902207
 31
0.0
  0
LINE
  5
3A5
100
AcDbEntity
  8
3
370
    25
100
AcDbLine
 10
-102.41122
 20
-239.902207
 30
0.0
 11
-106.274924
 21
-238.866931
 31
0.0
  0
LINE
  5
3A6
100
AcDbEntity
  8
3
370
    25
100
AcDbLine
 10
-102.41122
 20
-239.902207
 30
0.0
 11
-106.274924
 21
-240.937484
 31
0.0
  0
LINE
  5
3A7
100
AcDbEntity
  8
3
370
    25
100
AcDbLine
 10
-106.274924
 20
-238.866931
 30
0.0
 11
-106.274924
 21
-240.937484
 31
0.0
  0
LINE
  5
3A8
100
AcDbEntity
  8
3
370
    25
100
AcDbLine
 10
-102.41122
 20
-97.65056
 30
0.0
 11
-102.41122
 21
-241.902207
 31
0.0
  0
ENDBLK
  5
3A9
100
AcDbEntity
  8
3
100
AcDbBlockEnd
  0
BLOCK
  5
3AA
100
AcDbEntity
  8
3
100
AcDbBlockBegin
  2
*D2
 70
     1
 10
0.0
 20
0.0
 30
0.0
  3
*D2
  1

  0
LINE
  5
3AB
100
AcDbEntity
  8
3
370
    25
100
AcDbLine
 10
316.364378
 20
-120.650289
 30
0.0
 11
316.364378
 21
-196.165878
 31
0.0
  0
LINE
  5
3AC
100
AcDbEntity
  8
3
370
    25
100
AcDbLine
 10
316.364378
 20
-194.165878
 30
0.0
 11
312.500675
 21
-193.130602
 31
0.0
  0
LINE
  5
3AD
100
AcDbEntity
  8
3
370
    25
100
AcDbLine
 10
316.364378
 20
-194.165878
 30
0.0
 11
312.500675
 21
-195.201154
 31
0.0
  0
LINE
  5
3AE
100
AcDbEntity
  8
3
370
    25
100
AcDbLine
 10
312.500675
 20
-193.130602
 30
0.0
 11
312.500675
 21
-195.201154
 31
0.0
  0
LINE
  5
3AF
100
AcDbEntity
  8
3
370
    25
100
AcDbLine
 10
306.364378
 20
-194.165878
 30
0.0
 11
366.364378
 21
-194.165878
 31
0.0
  0
LINE
  5
3B0
100
AcDbEntity
  8
3
370
    25
100
AcDbLine
 10
330.364378
 20
-194.165878
 30
0.0
 11
334.228081
 21
-195.201154
 31
0.0
  0
LINE
  5
3B1
100
AcDbEntity
  8
3
370
    25
100
AcDbLine
 10
330.364378
 20
-194.165878
 30
0.0
 11
334.228081
 21
-193.130602
 31
0.0
  0
LINE
  5
3B2
100
AcDbEntity
  8
3
370
    25
100
AcDbLine
 10
334.228081
 20
-195.201154
 30
0.0
 11
334.228081
 21
-193.130602
 31
0.0
  0
LINE
  5
3B3
100
AcDbEntity
  8
3
370
    25
100
AcDbLine
 10
330.364378
 20
-106.950289
 30
0.0
 11
330.364378
 21
-196.165878
 31
0.0
  0
ENDBLK
  5
3B4
100
AcDbEntity
  8
3
100
AcDbBlockEnd
  0
BLOCK
  5
3B5
100
AcDbEntity
  8
3
100
AcDbBlockBegin
  2
*D3
 70
     1
 10
0.0
 20
0.0
 30
0.0
  3
*D3
  1

  0
LINE
  5
3B6
100
AcDbEntity
  8
3
370
    25
100
AcDbLine
 10
-266.702954
 20
-69.366289
 30
0.0
 11
-266.702954
 21
-208.491608
 31
0.0
  0
LINE
  5
3B7
100
AcDbEntity
  8
3
370
    25
100
AcDbLine
 10
-266.702954
 20
-206.491608
 30
0.0
 11
-262.839251
 21
-207.526884
 31
0.0
  0
LINE
  5
3B8
100
AcDbEntity
  8
3
370
    25
100
AcDbLine
 10
-266.702954
 20
-206.491608
 30
0.0
 11
-262.839251
 21
-205.456331
 31
0.0
  0
LINE
  5
3B9
100
AcDbEntity
  8
3
370
    25
100
AcDbLine
 10
-262.839251
 20
-207.526884
 30
0.0
 11
-262.839251
 21
-205.456331
 31
0.0
  0
LINE
  5
3BA
100
AcDbEntity
  8
3
370
    25
100
AcDbLine
 10
-266.702954
 20
-206.491608
 30
0.0
 11
-130.695491
 21
-206.491608
 31
0.0
  0
LINE
  5
3BB
100
AcDbEntity
  8
3
370
    25
100
AcDbLine
 10
-130.695491
 20
-206.491608
 30
0.0
 11
-134.559195
 21
-205.456331
 31
0.0
  0
LINE
  5
3BC
100
AcDbEntity
  8
3
370
    25
100
AcDbLine
 10
-130.695491
 20
-206.491608
 30
0.0
 11
-134.559195
 21
-207.526884
 31
0.0
  0
LINE
  5
3BD
100
AcDbEntity
  8
3
370
    25
100
AcDbLine
 10
-134.559195
 20
-205.456331
 30
0.0
 11
-134.559195
 21
-207.526884
 31
0.0
  0
LINE
  5
3BE
100
AcDbEntity
  8
3
370
    25
100
AcDbLine
 10
-130.695491
 20
-69.366289
 30
0.0
 11
-130.695491
 21
-208.491608
 31
0.0
  0
ENDBLK
  5
3BF
100
AcDbEntity
  8
3
100
AcDbBlockEnd
  0
BLOCK
  5
3C0
100
AcDbEntity
  8
3
100
AcDbBlockBegin
  2
*D4
 70
     1
 10
0.0
 20
0.0
 30
0.0
  3
*D4
  1

  0
TEXT
  5
3C1
100
AcDbEntity
  8
3
370
    25
100
AcDbText
 10
352.080109
 20
-102.650289
 30
0.0
 40
7.0
  1
４６
 50
90.0
 72
     5
 11
352.080109
 21
-90.050289
 31
0.0
100
AcDbText
  0
LINE
  5
3C2
100
AcDbEntity
  8
3
370
    25
100
AcDbLine
 10
318.364378
 20
-118.650289
 30
0.0
 11
355.080109
 21
-118.650289
 31
0.0
  0
LINE
  5
3C3
100
AcDbEntity
  8
3
370
    25
100
AcDbLine
 10
353.080109
 20
-118.650289
 30
0.0
 11
354.115385
 21
-114.786586
 31
0.0
  0
LINE
  5
3C4
100
AcDbEntity
  8
3
370
    25
100
AcDbLine
 10
353.080109
 20
-118.650289
 30
0.0
 11
352.044832
 21
-114.786586
 31
0.0
  0
LINE
  5
3C5
100
AcDbEntity
  8
3
370
    25
100
AcDbLine
 10
354.115385
 20
-114.786586
 30
0.0
 11
352.044832
 21
-114.786586
 31
0.0
  0
LINE
  5
3C6
100
AcDbEntity
  8
3
370
    25
100
AcDbLine
 10
353.080109
 20
-118.650289
 30
0.0
 11
353.080109
 21
-72.650289
 31
0.0
  0
LINE
  5
3C7
100
AcDbEntity
  8
3
370
    25
100
AcDbLine
 10
353.080109
 20
-72.650289
 30
0.0
 11
352.044832
 21
-76.513992
 31
0.0
  0
LINE
  5
3C8
100
AcDbEntity
  8
3
370
    25
100
AcDbLine
 10
353.080109
 20
-72.650289
 30
0.0
 11
354.115385
 21
-76.513992
 31
0.0
  0
LINE
  5
3C9
100
AcDbEntity
  8
3
370
    25
100
AcDbLine
 10
352.044832
 20
-76.513992
 30
0.0
 11
354.115385
 21
-76.513992
 31
0.0
  0
LINE
  5
3CA
100
AcDbEntity
  8
3
370
    25
100
AcDbLine
 10
318.364378
 20
-72.650289
 30
0.0
 11
355.080109
 21
-72.650289
 31
0.0
  0
ENDBLK
  5
3CB
100
AcDbEntity
  8
3
100
AcDbBlockEnd
  0
BLOCK
  5
3CC
100
AcDbEntity
  8
3
100
AcDbBlockBegin
  2
*D5
 70
     1
 10
0.0
 20
0.0
 30
0.0
  3
*D5
  1

  0
TEXT
  5
3CD
100
AcDbEntity
  8
3
370
    25
100
AcDbText
 10
-211.874886
 20
-105.87803
 30
0.0
 40
7.0
  1
１８０゜
 72
     5
 11
-185.274886
 21
-105.87803
 31
0.0
100
AcDbText
  0
LINE
  5
3CE
100
AcDbEntity
  8
3
370
    25
100
AcDbLine
 10
-237.950867
 20
-67.366289
 30
0.0
 11
-239.386626
 21
-67.366289
 31
0.0
  0
LINE
  5
3CF
100
AcDbEntity
  8
3
370
    25
100
AcDbLine
 10
-157.798904
 20
-67.366289
 30
0.0
 11
-156.363145
 21
-67.366289
 31
0.0
  0
LINE
  5
3D0
100
AcDbEntity
  8
3
370
    25
100
AcDbLine
 10
-237.386626
 20
-67.366289
 30
0.0
 11
-238.231756
 21
-71.275989
 31
0.0
  0
LINE
  5
3D1
100
AcDbEntity
  8
3
370
    25
100
AcDbLine
 10
-237.386626
 20
-67.366289
 30
0.0
 11
-236.16368
 21
-71.174754
 31
0.0
  0
LINE
  5
3D2
100
AcDbEntity
  8
3
370
    25
100
AcDbLine
 10
-238.231756
 20
-71.275989
 30
0.0
 11
-236.16368
 21
-71.174754
 31
0.0
  0
LINE
  5
3D3
100
AcDbEntity
  8
3
370
    25
100
AcDbLine
 10
-158.363145
 20
-67.366289
 30
0.0
 11
-159.586091
 21
-71.174754
 31
0.0
  0
LINE
  5
3D4
100
AcDbEntity
  8
3
370
    25
100
AcDbLine
 10
-158.363145
 20
-67.366289
 30
0.0
 11
-157.518015
 21
-71.275989
 31
0.0
  0
LINE
  5
3D5
100
AcDbEntity
  8
3
370
    25
100
AcDbLine
 10
-159.586091
 20
-71.174754
 30
0.0
 11
-157.518015
 21
-71.275989
 31
0.0
  0
ARC
  5
3D6
100
AcDbEntity
  8
3
370
    25
100
AcDbCircle
 10
-197.874886
 20
-67.366289
 30
0.0
 40
39.511741
100
AcDbArc
 50
180.0
 51
360.0
  0
ENDBLK
  5
3D7
100
AcDbEntity
  8
3
100
AcDbBlockEnd
  0
BLOCK
  5
3D8
100
AcDbEntity
  8
3
100
AcDbBlockBegin
  2
*D6
 70
     1
 10
0.0
 20
0.0
 30
0.0
  3
*D6
  1

  0
TEXT
  5
3D9
100
AcDbEntity
  8
3
370
    25
100
AcDbText
 10
27.890106
 20
-37.09017
 30
0.0
 40
7.0
  1
７５
 50
90.0
 72
     5
 11
27.890106
 21
-24.49017
 31
0.0
100
AcDbText
  0
LINE
  5
3DA
100
AcDbEntity
  8
3
370
    25
100
AcDbLine
 10
197.823582
 20
-67.366289
 30
0.0
 11
26.890106
 21
-67.366289
 31
0.0
  0
LINE
  5
3DB
100
AcDbEntity
  8
3
370
    25
100
AcDbLine
 10
28.890106
 20
-67.366289
 30
0.0
 11
29.925383
 21
-63.502586
 31
0.0
  0
LINE
  5
3DC
100
AcDbEntity
  8
3
370
    25
100
AcDbLine
 10
28.890106
 20
-67.366289
 30
0.0
 11
27.85483
 21
-63.502586
 31
0.0
  0
LINE
  5
3DD
100
AcDbEntity
  8
3
370
    25
100
AcDbLine
 10
29.925383
 20
-63.502586
 30
0.0
 11
27.85483
 21
-63.502586
 31
0.0
  0
LINE
  5
3DE
100
AcDbEntity
  8
3
370
    25
100
AcDbLine
 10
28.890106
 20
-67.366289
 30
0.0
 11
28.890106
 21
7.18595
 31
0.0
  0
LINE
  5
3DF
100
AcDbEntity
  8
3
370
    25
100
AcDbLine
 10
28.890106
 20
7.18595
 30
0.0
 11
27.85483
 21
3.322246
 31
0.0
  0
LINE
  5
3E0
100
AcDbEntity
  8
3
370
    25
100
AcDbLine
 10
28.890106
 20
7.18595
 30
0.0
 11
29.925383
 21
3.322246
 31
0.0
  0
LINE
  5
3E1
100
AcDbEntity
  8
3
370
    25
100
AcDbLine
 10
27.85483
 20
3.322246
 30
0.0
 11
29.925383
 21
3.322246
 31
0.0
  0
LINE
  5
3E2
100
AcDbEntity
  8
3
370
    25
100
AcDbLine
 10
238.726318
 20
7.18595
 30
0.0
 11
26.890106
 21
7.18595
 31
0.0
  0
ENDBLK
  5
3E3
100
AcDbEntity
  8
3
100
AcDbBlockEnd
  0
BLOCK
  5
3E4
100
AcDbEntity
  8
3
100
AcDbBlockBegin
  2
*D7
 70
     1
 10
0.0
 20
0.0
 30
0.0
  3
*D7
  1

  0
TEXT
  5
3E5
100
AcDbEntity
  8
3
370
    25
100
AcDbText
 10
135.226415
 20
-193.165878
 30
0.0
 40
7.0
  1
１７０
 72
     5
 11
154.826415
 21
-193.165878
 31
0.0
100
AcDbText
  0
LINE
  5
3E6
100
AcDbEntity
  8
3
370
    25
100
AcDbLine
 10
60.726243
 20
-162.766289
 30
0.0
 11
60.726243
 21
-196.165878
 31
0.0
  0
LINE
  5
3E7
100
AcDbEntity
  8
3
370
    25
100
AcDbLine
 10
60.726243
 20
-194.165878
 30
0.0
 11
64.589946
 21
-195.201154
 31
0.0
  0
LINE
  5
3E8
100
AcDbEntity
  8
3
370
    25
100
AcDbLine
 10
60.726243
 20
-194.165878
 30
0.0
 11
64.589946
 21
-193.130602
 31
0.0
  0
LINE
  5
3E9
100
AcDbEntity
  8
3
370
    25
100
AcDbLine
 10
64.589946
 20
-195.201154
 30
0.0
 11
64.589946
 21
-193.130602
 31
0.0
  0
LINE
  5
3EA
100
AcDbEntity
  8
3
370
    25
100
AcDbLine
 10
60.726243
 20
-194.165878
 30
0.0
 11
230.726587
 21
-194.165878
 31
0.0
  0
LINE
  5
3EB
100
AcDbEntity
  8
3
370
    25
100
AcDbLine
 10
230.726587
 20
-194.165878
 30
0.0
 11
226.862884
 21
-193.130602
 31
0.0
  0
LINE
  5
3EC
100
AcDbEntity
  8
3
370
    25
100
AcDbLine
 10
230.726587
 20
-194.165878
 30
0.0
 11
226.862884
 21
-195.201154
 31
0.0
  0
LINE
  5
3ED
100
AcDbEntity
  8
3
370
    25
100
AcDbLine
 10
226.862884
 20
-193.130602
 30
0.0
 11
226.862884
 21
-195.201154
 31
0.0
  0
LINE
  5
3EE
100
AcDbEntity
  8
3
370
    25
100
AcDbLine
 10
230.726587
 20
-100.840916
 30
0.0
 11
230.726587
 21
-196.165878
 31
0.0
  0
ENDBLK
  5
3EF
100
AcDbEntity
  8
3
100
AcDbBlockEnd
  0
BLOCK
  5
3F0
100
AcDbEntity
  8
3
100
AcDbBlockBegin
  2
*D8
 70
     1
 10
0.0
 20
0.0
 30
0.0
  3
*D8
  1

  0
LINE
  5
3F1
100
AcDbEntity
  8
3
370
    25
100
AcDbLine
 10
230.726587
 20
-100.840916
 30
0.0
 11
230.726587
 21
-196.165878
 31
0.0
  0
LINE
  5
3F2
100
AcDbEntity
  8
3
370
    25
100
AcDbLine
 10
230.726587
 20
-194.165878
 30
0.0
 11
234.59029
 21
-195.201154
 31
0.0
  0
LINE
  5
3F3
100
AcDbEntity
  8
3
370
    25
100
AcDbLine
 10
230.726587
 20
-194.165878
 30
0.0
 11
234.59029
 21
-193.130602
 31
0.0
  0
LINE
  5
3F4
100
AcDbEntity
  8
3
370
    25
100
AcDbLine
 10
234.59029
 20
-195.201154
 30
0.0
 11
234.59029
 21
-193.130602
 31
0.0
  0
LINE
  5
3F5
100
AcDbEntity
  8
3
370
    25
100
AcDbLine
 10
230.726587
 20
-194.165878
 30
0.0
 11
316.364378
 21
-194.165878
 31
0.0
  0
LINE
  5
3F6
100
AcDbEntity
  8
3
370
    25
100
AcDbLine
 10
316.364378
 20
-194.165878
 30
0.0
 11
312.500675
 21
-193.130602
 31
0.0
  0
LINE
  5
3F7
100
AcDbEntity
  8
3
370
    25
100
AcDbLine
 10
316.364378
 20
-194.165878
 30
0.0
 11
312.500675
 21
-195.201154
 31
0.0
  0
LINE
  5
3F8
100
AcDbEntity
  8
3
370
    25
100
AcDbLine
 10
312.500675
 20
-193.130602
 30
0.0
 11
312.500675
 21
-195.201154
 31
0.0
  0
LINE
  5
3F9
100
AcDbEntity
  8
3
370
    25
100
AcDbLine
 10
316.364378
 20
-120.650289
 30
0.0
 11
316.364378
 21
-196.165878
 31
0.0
  0
ENDBLK
  5
3FA
100
AcDbEntity
  8
3
100
AcDbBlockEnd
  0
BLOCK
  5
3FB
100
AcDbEntity
  8
3
100
AcDbBlockBegin
  2
*D9
 70
     1
 10
0.0
 20
0.0
 30
0.0
  3
*D9
  1

  0
LINE
  5
3FC
100
AcDbEntity
  8
3
370
    25
100
AcDbLine
 10
58.726243
 20
-162.690289
 30
0.0
 11
26.890106
 21
-162.690289
 31
0.0
  0
LINE
  5
3FD
100
AcDbEntity
  8
3
370
    25
100
AcDbLine
 10
28.890106
 20
-162.690289
 30
0.0
 11
29.925383
 21
-158.826586
 31
0.0
  0
LINE
  5
3FE
100
AcDbEntity
  8
3
370
    25
100
AcDbLine
 10
28.890106
 20
-162.690289
 30
0.0
 11
27.85483
 21
-158.826586
 31
0.0
  0
LINE
  5
3FF
100
AcDbEntity
  8
3
370
    25
100
AcDbLine
 10
29.925383
 20
-158.826586
 30
0.0
 11
27.85483
 21
-158.826586
 31
0.0
  0
LINE
  5
400
100
AcDbEntity
  8
3
370
    25
100
AcDbLine
 10
28.890106
 20
-162.690289
 30
0.0
 11
28.890106
 21
-67.366289
 31
0.0
  0
LINE
  5
401
100
AcDbEntity
  8
3
370
    25
100
AcDbLine
 10
28.890106
 20
-67.366289
 30
0.0
 11
27.85483
 21
-71.229992
 31
0.0
  0
LINE
  5
402
100
AcDbEntity
  8
3
370
    25
100
AcDbLine
 10
28.890106
 20
-67.366289
 30
0.0
 11
29.925383
 21
-71.229992
 31
0.0
  0
LINE
  5
403
100
AcDbEntity
  8
3
370
    25
100
AcDbLine
 10
27.85483
 20
-71.229992
 30
0.0
 11
29.925383
 21
-71.229992
 31
0.0
  0
LINE
  5
404
100
AcDbEntity
  8
3
370
    25
100
AcDbLine
 10
197.823582
 20
-67.366289
 30
0.0
 11
26.890106
 21
-67.366289
 31
0.0
  0
ENDBLK
  5
405
100
AcDbEntity
  8
3
100
AcDbBlockEnd
  0
ENDSEC
  0
SECTION
  2
ENTITIES
  0
LINE
  5
2E
100
AcDbEntity
  8
1
370
   100
100
AcDbLine
 10
-373.02157
 20
275.028767
 30
0.0
 11
394.982385
 21
275.028767
 31
0.0
  0
LINE
  5
2F
100
AcDbEntity
  8
1
370
   100
100
AcDbLine
 10
-373.02157
 20
275.028767
 30
0.0
 11
-373.02157
 21
-277.971881
 31
0.0
  0
LINE
  5
30
100
AcDbEntity
  8
1
370
   100
100
AcDbLine
 10
-373.02157
 20
-277.971881
 30
0.0
 11
394.982385
 21
-277.971881
 31
0.0
  0
LINE
  5
31
100
AcDbEntity
  8
1
370
   100
100
AcDbLine
 10
394.982385
 20
-277.971881
 30
0.0
 11
394.982385
 21
275.028767
 31
0.0
  0
TEXT
  5
32
100
AcDbEntity
  8
1
370
    50
100
AcDbText
 10
359.628442
 20
-226.252857
 30
0.0
 40
6.0
  1
設計
 72
     5
 11
370.428442
 21
-226.252857
 31
0.0
100
AcDbText
  0
TEXT
  5
33
100
AcDbEntity
  8
1
370
    50
100
AcDbText
 10
379.127478
 20
-226.099658
 30
0.0
 40
6.0
  1
製図
 72
     5
 11
389.927478
 21
-226.099658
 31
0.0
100
AcDbText
  0
TEXT
  5
34
100
AcDbEntity
  8
1
370
    50
100
AcDbText
 10
319.005745
 20
-226.252857
 30
0.0
 40
6.0
  1
承認
 72
     5
 11
329.805745
 21
-226.252857
 31
0.0
100
AcDbText
  0
TEXT
  5
35
100
AcDbEntity
  8
1
370
    50
100
AcDbText
 10
338.989679
 20
-226.19802
 30
0.0
 40
6.0
  1
検図
 72
     5
 11
349.789679
 21
-226.19802
 31
0.0
100
AcDbText
  0
LINE
  5
36
100
AcDbEntity
  8
1
370
    25
100
AcDbLine
 10
284.982385
 20
-227.971881
 30
0.0
 11
394.982385
 21
-227.971881
 31
0.0
  0
LINE
  5
37
100
AcDbEntity
  8
1
370
    25
100
AcDbLine
 10
342.482385
 20
-245.971881
 30
0.0
 11
342.482385
 21
-259.971881
 31
0.0
  0
TEXT
  5
38
100
AcDbEntity
  8
1
370
    50
100
AcDbText
 10
319.55159
 20
-256.012528
 30
0.0
 40
6.0
  1
日　付
 72
     5
 11
336.35159
 21
-256.012528
 31
0.0
100
AcDbText
  0
LINE
  5
39
100
AcDbEntity
  8
1
370
    50
100
AcDbLine
 10
40.982385
 20
-259.971881
 30
0.0
 11
394.982385
 21
-259.971881
 31
0.0
  0
TEXT
  5
3A
100
AcDbEntity
  8
1
370
    50
100
AcDbText
 10
287.775011
 20
-256.322406
 30
0.0
 40
6.0
  1
第三角法
 72
     5
 11
310.575011
 21
-256.322406
 31
0.0
100
AcDbText
  0
TEXT
  5
3B
100
AcDbEntity
  8
1
370
    50
100
AcDbText
 10
291.087419
 20
-225.99802
 30
0.0
 40
6.0
  1
尺　度
 72
     5
 11
307.887419
 21
-225.99802
 31
0.0
100
AcDbText
  0
LINE
  5
3C
100
AcDbEntity
  8
1
370
   100
100
AcDbLine
 10
40.982385
 20
-217.971881
 30
0.0
 11
394.982385
 21
-217.971881
 31
0.0
  0
LINE
  5
3D
100
AcDbEntity
  8
1
370
    50
100
AcDbLine
 10
211.982385
 20
-217.971881
 30
0.0
 11
211.982385
 21
-277.971881
 31
0.0
  0
LINE
  5
3E
100
AcDbEntity
  8
1
370
    25
100
AcDbLine
 10
374.982385
 20
-245.971881
 30
0.0
 11
374.982385
 21
-217.971881
 31
0.0
  0
LINE
  5
3F
100
AcDbEntity
  8
1
370
    25
100
AcDbLine
 10
354.982385
 20
-245.971881
 30
0.0
 11
354.982385
 21
-217.971881
 31
0.0
  0
LINE
  5
40
100
AcDbEntity
  8
1
370
    25
100
AcDbLine
 10
334.982385
 20
-245.971881
 30
0.0
 11
334.982385
 21
-217.971881
 31
0.0
  0
LINE
  5
41
100
AcDbEntity
  8
1
370
    50
100
AcDbLine
 10
284.982385
 20
-277.971881
 30
0.0
 11
284.982385
 21
-217.971881
 31
0.0
  0
LINE
  5
42
100
AcDbEntity
  8
1
370
    50
100
AcDbLine
 10
189.982385
 20
-217.971881
 30
0.0
 11
189.982385
 21
-277.971881
 31
0.0
  0
LINE
  5
43
100
AcDbEntity
  8
1
370
    50
100
AcDbLine
 10
62.982385
 20
-217.971881
 30
0.0
 11
62.982385
 21
-259.971881
 31
0.0
  0
LINE
  5
44
100
AcDbEntity
  8
1
370
    50
100
AcDbLine
 10
284.982385
 20
-245.971881
 30
0.0
 11
394.982385
 21
-245.971881
 31
0.0
  0
TEXT
  5
45
100
AcDbEntity
  8
1
370
    50
100
AcDbText
 10
287.101129
 20
-271.880939
 30
0.0
 40
6.0
  1
コードＮｏ
 41
0.9
 72
     5
 11
313.021129
 21
-271.880939
 31
0.0
100
AcDbText
  0
TEXT
  5
46
100
AcDbEntity
  8
1
370
   100
100
AcDbText
 10
52.886774
 20
-272.875659
 30
0.0
 40
8.0
  1
ミズタニバルブ工業株式会社
 41
1.2
 72
     5
 11
175.766774
 21
-272.875659
 31
0.0
100
AcDbText
  0
LINE
  5
47
100
AcDbEntity
  8
1
370
    50
100
AcDbLine
 10
40.982385
 20
-238.971881
 30
0.0
 11
284.982385
 21
-238.971881
 31
0.0
  0
LINE
  5
48
100
AcDbEntity
  8
1
370
    50
100
AcDbLine
 10
115.482385
 20
-238.971881
 30
0.0
 11
115.482385
 21
-259.971881
 31
0.0
  0
LINE
  5
49
100
AcDbEntity
  8
1
370
    50
100
AcDbLine
 10
137.482385
 20
-238.971881
 30
0.0
 11
137.482385
 21
-259.971881
 31
0.0
  0
LINE
  5
4A
100
AcDbEntity
  8
1
370
    50
100
AcDbLine
 10
314.982385
 20
-277.971881
 30
0.0
 11
314.982385
 21
-217.971881
 31
0.0
  0
TEXT
  5
4B
100
AcDbEntity
  8
1
370
    50
100
AcDbText
 10
345.098131
 20
-256.100293
 30
0.0
 40
6.0
  1
　　・　　・
 72
     5
 11
379.898131
 21
-256.100293
 31
0.0
100
AcDbText
  0
LINE
  5
4C
100
AcDbEntity
  8
1
370
   100
100
AcDbLine
 10
40.982385
 20
-217.971881
 30
0.0
 11
40.982385
 21
-277.971881
 31
0.0
  0
TEXT
  5
4D
100
AcDbEntity
  8
1
370
    50
100
AcDbText
 10
290.832582
 20
-240.013492
 30
0.0
 40
6.0
  1
　／ 
 72
     5
 11
301.632582
 21
-240.013492
 31
0.0
100
AcDbText
  0
TEXT
  5
4E
100
AcDbEntity
  8
1
370
    50
100
AcDbText
 10
193.904123
 20
-272.024909
 30
0.0
 40
6.0
  1
備 考 
 72
     5
 11
207.704123
 21
-272.024909
 31
0.0
100
AcDbText
  0
TEXT
  5
4F
100
AcDbEntity
  8
1
370
    50
100
AcDbText
 10
193.512534
 20
-230.89184
 30
0.0
 40
6.0
  1
仕 上
 72
     5
 11
207.312534
 21
-230.89184
 31
0.0
100
AcDbText
  0
TEXT
  5
50
100
AcDbEntity
  8
1
370
    50
100
AcDbText
 10
193.447176
 20
-248.891666
 30
0.0
 40
6.0
  1
表 面
 72
     5
 11
207.247176
 21
-248.891666
 31
0.0
100
AcDbText
  0
TEXT
  5
51
100
AcDbEntity
  8
1
370
    50
100
AcDbText
 10
193.447176
 20
-255.891666
 30
0.0
 40
6.0
  1
処 理
 72
     5
 11
207.247176
 21
-255.891666
 31
0.0
100
AcDbText
  0
TEXT
  5
52
100
AcDbEntity
  8
1
370
    50
100
AcDbText
 10
44.79335
 20
-231.693399
 30
0.0
 40
6.0
  1
品 名
 72
     5
 11
58.59335
 21
-231.693399
 31
0.0
100
AcDbText
  0
TEXT
  5
53
100
AcDbEntity
  8
1
370
    50
100
AcDbText
 10
44.397766
 20
-252.462534
 30
0.0
 40
6.0
  1
材 質
 72
     5
 11
58.197766
 21
-252.462534
 31
0.0
100
AcDbText
  0
TEXT
  5
54
100
AcDbEntity
  8
1
370
    50
100
AcDbText
 10
118.897766
 20
-252.462534
 30
0.0
 40
6.0
  1
規 格
 72
     5
 11
132.697766
 21
-252.462534
 31
0.0
100
AcDbText
  0
ARC
  5
55
100
AcDbEntity
  8
2
370
    50
100
AcDbCircle
 10
-191.426592
 20
-22.613953
 30
0.0
 40
100.746269
100
AcDbArc
 50
168.537652
 51
188.388164
  0
ARC
  5
56
100
AcDbEntity
  8
2
370
    50
100
AcDbCircle
 10
-341.979395
 20
-22.613953
 30
0.0
 40
100.746269
100
AcDbArc
 50
351.611836
 51
11.462348
  0
ARC
  5
57
100
AcDbEntity
  8
2
370
    50
100
AcDbCircle
 10
-266.702993
 20
-135.565554
 30
0.0
 40
141.044776
100
AcDbArc
 50
93.788374
 51
96.34007
  0
ARC
  5
58
100
AcDbEntity
  8
2
370
    50
100
AcDbCircle
 10
-266.702993
 20
-135.565554
 30
0.0
 40
141.044776
100
AcDbArc
 50
83.65993
 51
86.211626
  0
ARC
  5
59
100
AcDbEntity
  8
2
370
    50
100
AcDbCircle
 10
-281.277203
 20
-4.395121
 30
0.0
 40
9.067164
100
AcDbArc
 50
96.34007
 51
168.537652
  0
ARC
  5
5A
100
AcDbEntity
  8
2
370
    50
100
AcDbCircle
 10
-252.128784
 20
-4.395121
 30
0.0
 40
9.067164
100
AcDbArc
 50
11.462348
 51
83.65993
  0
ARC
  5
5B
100
AcDbEntity
  8
2
370
    50
100
AcDbCircle
 10
-283.121643
 20
-36.134946
 30
0.0
 40
8.059701
100
AcDbArc
 50
188.388164
 51
270.0
  0
ARC
  5
5C
100
AcDbEntity
  8
2
370
    50
100
AcDbCircle
 10
-250.284343
 20
-36.134946
 30
0.0
 40
8.059701
100
AcDbArc
 50
270.0
 51
351.611836
  0
LINE
  5
5D
100
AcDbEntity
  8
2
370
    50
100
AcDbLine
 10
-283.121643
 20
-44.194647
 30
0.0
 11
-250.284343
 21
-44.194647
 31
0.0
  0
LINE
  5
5E
100
AcDbEntity
  8
2
370
    50
100
AcDbLine
 10
-275.518292
 20
5.794582
 30
0.0
 11
-275.518292
 21
5.171024
 31
0.0
  0
LINE
  5
5F
100
AcDbEntity
  8
2
370
    50
100
AcDbLine
 10
-257.887695
 20
5.794582
 30
0.0
 11
-257.887695
 21
5.171024
 31
0.0
  0
ARC
  5
60
100
AcDbEntity
  8
2
370
    50
100
AcDbCircle
 10
-274.510829
 20
5.794582
 30
0.0
 40
1.007463
100
AcDbArc
 50
95.629843
 51
180.0
  0
ARC
  5
61
100
AcDbEntity
  8
2
370
    50
100
AcDbCircle
 10
-258.895157
 20
5.794582
 30
0.0
 40
1.007463
100
AcDbArc
 50
0.0
 51
84.370157
  0
ARC
  5
62
100
AcDbEntity
  8
2
370
    50
100
AcDbCircle
 10
-266.702993
 20
-73.411065
 30
0.0
 40
80.597015
100
AcDbArc
 50
84.370157
 51
95.629843
  0
LINE
  5
63
100
AcDbEntity
  8
2
370
    50
100
AcDbLine
 10
-276.022023
 20
5.171024
 30
0.0
 11
-266.702954
 21
5.171024
 31
0.0
  0
LINE
  5
64
100
AcDbEntity
  8
2
370
    50
100
AcDbLine
 10
-266.702954
 20
5.171024
 30
0.0
 11
-257.383963
 21
5.171024
 31
0.0
  0
LINE
  5
65
100
AcDbEntity
  8
2
370
    50
100
AcDbLine
 10
168.333028
 20
-58.55098
 30
0.0
 11
168.920617
 21
-58.55098
 31
0.0
  0
LINE
  5
66
100
AcDbEntity
  8
2
370
    50
100
AcDbLine
 10
168.920617
 20
-76.181577
 30
0.0
 11
168.333028
 21
-76.181577
 31
0.0
  0
ARC
  5
67
100
AcDbEntity
  8
2
370
    50
100
AcDbCircle
 10
168.333028
 20
-75.174114
 30
0.0
 40
1.007463
100
AcDbArc
 50
189.100302
 51
270.0
  0
ARC
  5
68
100
AcDbEntity
  8
2
370
    50
100
AcDbCircle
 10
168.333028
 20
-59.558443
 30
0.0
 40
1.007463
100
AcDbArc
 50
90.0
 51
170.899698
  0
LINE
  5
69
100
AcDbEntity
  8
2
370
    50
100
AcDbLine
 10
176.985591
 20
-51.320848
 30
0.0
 11
202.144667
 21
-50.765868
 31
0.0
  0
LINE
  5
6A
100
AcDbEntity
  8
2
370
    50
100
AcDbLine
 10
176.985591
 20
-83.41173
 30
0.0
 11
202.144667
 21
-83.96671
 31
0.0
  0
ARC
  5
6B
100
AcDbEntity
  8
2
370
    50
100
AcDbCircle
 10
177.185553
 20
-60.385807
 30
0.0
 40
9.067164
100
AcDbArc
 50
91.263673
 51
152.405115
  0
ARC
  5
6C
100
AcDbEntity
  8
2
370
    50
100
AcDbCircle
 10
177.185553
 20
-74.346771
 30
0.0
 40
9.067164
100
AcDbArc
 50
207.594885
 51
268.736327
  0
ARC
  5
6D
100
AcDbEntity
  8
2
370
    50
100
AcDbCircle
 10
202.166885
 20
-51.773086
 30
0.0
 40
1.007463
100
AcDbArc
 50
0.0
 51
91.263673
  0
ARC
  5
6E
100
AcDbEntity
  8
2
370
    50
100
AcDbCircle
 10
202.166885
 20
-82.959492
 30
0.0
 40
1.007463
100
AcDbArc
 50
268.736327
 51
360.0
  0
ARC
  5
6F
100
AcDbEntity
  8
2
370
    50
100
AcDbCircle
 10
170.935542
 20
-57.119091
 30
0.0
 40
2.014925
100
AcDbArc
 50
152.405115
 51
180.0
  0
ARC
  5
70
100
AcDbEntity
  8
2
370
    50
100
AcDbCircle
 10
170.935542
 20
-77.613488
 30
0.0
 40
2.014925
100
AcDbArc
 50
180.0
 51
207.594885
  0
LINE
  5
71
100
AcDbEntity
  8
2
370
    50
100
AcDbLine
 10
-164.687283
 20
-64.847632
 30
0.0
 11
-164.687283
 21
-69.884946
 31
0.0
  0
LINE
  5
72
100
AcDbEntity
  8
2
370
    50
100
AcDbLine
 10
-176.305829
 20
-64.343901
 30
0.0
 11
-175.321439
 21
-64.343901
 31
0.0
  0
LINE
  5
73
100
AcDbEntity
  8
2
370
    50
100
AcDbLine
 10
-176.305829
 20
-70.388677
 30
0.0
 11
-175.321439
 21
-70.388677
 31
0.0
  0
ARC
  5
74
100
AcDbEntity
  8
2
370
    50
100
AcDbCircle
 10
-166.198477
 20
-69.884946
 30
0.0
 40
1.511194
100
AcDbArc
 50
257.396547
 51
360.0
  0
ARC
  5
75
100
AcDbEntity
  8
2
370
    50
100
AcDbCircle
 10
-166.198477
 20
-64.847632
 30
0.0
 40
1.511194
100
AcDbArc
 50
0.0
 51
98.713388
  0
ARC
  5
76
100
AcDbEntity
  8
2
370
    50
100
AcDbCircle
 10
-175.321439
 20
-24.045394
 30
0.0
 40
40.298507
100
AcDbArc
 50
270.0
 51
282.603453
  0
ARC
  5
77
100
AcDbEntity
  8
2
370
    50
100
AcDbCircle
 10
-175.321439
 20
-110.687185
 30
0.0
 40
40.298507
100
AcDbArc
 50
77.396547
 51
90.0
  0
ARC
  5
78
100
AcDbEntity
  8
2
370
    50
100
AcDbCircle
 10
-176.305829
 20
-54.269274
 30
0.0
 40
10.074627
100
AcDbArc
 50
210.321686
 51
270.0
  0
ARC
  5
79
100
AcDbEntity
  8
2
370
    50
100
AcDbCircle
 10
-176.305829
 20
-80.463304
 30
0.0
 40
10.074627
100
AcDbArc
 50
90.0
 51
149.678314
  0
ARC
  5
7A
100
AcDbEntity
  8
2
370
    50
100
AcDbCircle
 10
-176.305829
 20
-54.269274
 30
0.0
 40
9.31903
100
AcDbArc
 50
210.321686
 51
263.003582
  0
ARC
  5
7B
100
AcDbEntity
  8
2
370
    50
100
AcDbCircle
 10
-176.305829
 20
-80.463304
 30
0.0
 40
9.31903
100
AcDbArc
 50
96.996418
 51
149.678314
  0
ARC
  5
7C
100
AcDbEntity
  8
2
370
    50
100
AcDbCircle
 10
-172.532303
 20
-111.212101
 30
0.0
 40
40.298507
100
AcDbArc
 50
81.286612
 51
96.996418
  0
ARC
  5
7D
100
AcDbEntity
  8
2
370
    50
100
AcDbCircle
 10
-172.532303
 20
-23.520477
 30
0.0
 40
40.298507
100
AcDbArc
 50
263.003582
 51
278.713388
  0
CIRCLE
  5
7E
100
AcDbEntity
  8
2
370
    50
100
AcDbCircle
 10
-198.699223
 20
-67.366289
 30
0.0
 40
8.815299
  0
ARC
  5
7F
100
AcDbEntity
  8
2
370
    50
100
AcDbCircle
 10
-198.699223
 20
-67.366289
 30
0.0
 40
15.867537
100
AcDbArc
 50
30.321686
 51
180.0
  0
ARC
  5
80
100
AcDbEntity
  8
2
370
    50
100
AcDbCircle
 10
-198.699223
 20
-67.366289
 30
0.0
 40
15.867537
100
AcDbArc
 50
180.0
 51
329.678314
  0
ARC
  5
81
100
AcDbEntity
  8
2
370
    50
100
AcDbCircle
 10
-198.699223
 20
-67.366289
 30
0.0
 40
16.623134
100
AcDbArc
 50
30.321686
 51
180.0
  0
ARC
  5
82
100
AcDbEntity
  8
2
370
    50
100
AcDbCircle
 10
-198.699223
 20
-67.366289
 30
0.0
 40
16.623134
100
AcDbArc
 50
180.0
 51
329.678314
  0
ARC
  5
83
100
AcDbEntity
  8
2
370
    50
100
AcDbCircle
 10
-377.18629
 20
-23.13297
 30
0.0
 40
120.895522
100
AcDbArc
 50
355.059572
 51
9.155483
  0
ARC
  5
84
100
AcDbEntity
  8
2
370
    50
100
AcDbCircle
 10
-156.219619
 20
-23.13297
 30
0.0
 40
120.895522
100
AcDbArc
 50
170.844517
 51
184.940428
  0
ARC
  5
85
100
AcDbEntity
  8
2
370
    50
100
AcDbCircle
 10
-266.702954
 20
-5.326657
 30
0.0
 40
8.986487
100
AcDbArc
 50
9.155483
 51
170.844517
  0
ARC
  5
86
100
AcDbEntity
  8
2
370
    50
100
AcDbCircle
 10
-266.702954
 20
-32.683267
 30
0.0
 40
10.000186
100
AcDbArc
 50
184.940428
 51
355.059572
  0
LINE
  5
87
100
AcDbEntity
  8
2
370
    50
100
AcDbLine
 10
-252.094745
 20
1.644905
 30
0.0
 11
-252.094745
 21
-39.661065
 31
0.0
  0
LINE
  5
88
100
AcDbEntity
  8
2
370
    50
100
AcDbLine
 10
-281.311163
 20
1.644905
 30
0.0
 11
-281.311163
 21
-39.661065
 31
0.0
  0
ARC
  5
89
100
AcDbEntity
  8
2
370
    50
100
AcDbCircle
 10
-341.979356
 20
-22.613953
 30
0.0
 40
100.242537
100
AcDbArc
 50
352.362481
 51
11.528523
  0
ARC
  5
8A
100
AcDbEntity
  8
2
370
    50
100
AcDbCircle
 10
-191.426552
 20
-22.613953
 30
0.0
 40
100.242537
100
AcDbArc
 50
168.471477
 51
187.637519
  0
ARC
  5
8B
100
AcDbEntity
  8
2
370
    50
100
AcDbCircle
 10
-281.74963
 20
-4.190684
 30
0.0
 40
8.059701
100
AcDbArc
 50
105.117347
 51
168.471477
  0
ARC
  5
8C
100
AcDbEntity
  8
2
370
    50
100
AcDbCircle
 10
-283.326088
 20
1.644905
 30
0.0
 40
2.014925
100
AcDbArc
 50
0.0
 51
105.117347
  0
ARC
  5
8D
100
AcDbEntity
  8
2
370
    50
100
AcDbCircle
 10
-251.656278
 20
-4.190684
 30
0.0
 40
8.059701
100
AcDbArc
 50
11.528523
 51
74.882653
  0
ARC
  5
8E
100
AcDbEntity
  8
2
370
    50
100
AcDbCircle
 10
-250.07982
 20
1.644905
 30
0.0
 40
2.014925
100
AcDbArc
 50
74.882653
 51
180.0
  0
ARC
  5
8F
100
AcDbEntity
  8
2
370
    50
100
AcDbCircle
 10
-282.791609
 20
-34.865553
 30
0.0
 40
8.059701
100
AcDbArc
 50
187.637519
 51
252.175397
  0
ARC
  5
90
100
AcDbEntity
  8
2
370
    50
100
AcDbCircle
 10
-284.333551
 20
-39.661065
 30
0.0
 40
3.022388
100
AcDbArc
 50
252.175397
 51
360.0
  0
ARC
  5
91
100
AcDbEntity
  8
2
370
    50
100
AcDbCircle
 10
-249.072357
 20
-39.661065
 30
0.0
 40
3.022388
100
AcDbArc
 50
180.0
 51
287.824603
  0
ARC
  5
92
100
AcDbEntity
  8
2
370
    50
100
AcDbCircle
 10
-250.6143
 20
-34.865553
 30
0.0
 40
8.059701
100
AcDbArc
 50
287.824603
 51
352.362481
  0
LINE
  5
93
100
AcDbEntity
  8
2
370
    50
100
AcDbLine
 10
163.883303
 20
-69.548304
 30
0.0
 11
163.883303
 21
-65.184274
 31
0.0
  0
LINE
  5
94
100
AcDbEntity
  8
2
370
    50
100
AcDbLine
 10
164.480428
 20
-63.752574
 30
0.0
 11
168.323492
 21
-59.946821
 31
0.0
  0
LINE
  5
95
100
AcDbEntity
  8
2
370
    50
100
AcDbLine
 10
168.323492
 20
-74.785757
 30
0.0
 11
164.480428
 21
-70.980005
 31
0.0
  0
LINE
  5
96
100
AcDbEntity
  8
2
370
    50
100
AcDbLine
 10
168.920617
 20
-77.613488
 30
0.0
 11
168.920617
 21
-76.217458
 31
0.0
  0
LINE
  5
97
100
AcDbEntity
  8
2
370
    50
100
AcDbLine
 10
168.920617
 20
-58.515121
 30
0.0
 11
168.920617
 21
-57.119091
 31
0.0
  0
ARC
  5
98
100
AcDbEntity
  8
2
370
    50
100
AcDbCircle
 10
217.077333
 20
-67.366278
 30
0.0
 40
50.373134
100
AcDbArc
 50
170.899698
 51
172.936326
  0
ARC
  5
99
100
AcDbEntity
  8
2
370
    50
100
AcDbCircle
 10
217.077333
 20
-67.366278
 30
0.0
 40
50.373134
100
AcDbArc
 50
187.063702
 51
189.100302
  0
ARC
  5
9A
100
AcDbEntity
  8
2
370
    50
100
AcDbCircle
 10
166.905691
 20
-58.515121
 30
0.0
 40
2.014925
100
AcDbArc
 50
314.720511
 51
0.0
  0
ARC
  5
9B
100
AcDbEntity
  8
2
370
    50
100
AcDbCircle
 10
166.905691
 20
-76.217458
 30
0.0
 40
2.014925
100
AcDbArc
 50
360.0
 51
45.279489
  0
ARC
  5
9C
100
AcDbEntity
  8
2
370
    50
100
AcDbCircle
 10
165.898229
 20
-65.184274
 30
0.0
 40
2.014925
100
AcDbArc
 50
134.720511
 51
180.0
  0
ARC
  5
9D
100
AcDbEntity
  8
2
370
    50
100
AcDbCircle
 10
165.898229
 20
-69.548304
 30
0.0
 40
2.014925
100
AcDbArc
 50
180.0
 51
225.279489
  0
ARC
  5
9E
100
AcDbEntity
  8
2
370
    50
100
AcDbCircle
 10
180.278576
 20
-197.247078
 30
0.0
 40
133.91064
100
AcDbArc
 50
85.337098
 51
96.456271
  0
ARC
  5
9F
100
AcDbEntity
  8
2
370
    50
100
AcDbCircle
 10
192.130675
 20
-51.935134
 30
0.0
 40
11.883851
100
AcDbArc
 50
265.337098
 51
327.621093
  0
ARC
  5
A0
100
AcDbEntity
  8
2
370
    50
100
AcDbCircle
 10
180.278576
 20
62.5145
 30
0.0
 40
133.91064
100
AcDbArc
 50
263.636374
 51
274.662902
  0
ARC
  5
A1
100
AcDbEntity
  8
2
370
    50
100
AcDbCircle
 10
192.130675
 20
-82.797445
 30
0.0
 40
11.883851
100
AcDbArc
 50
32.378907
 51
94.662902
  0
ARC
  5
A2
100
AcDbEntity
  8
2
370
    25
100
AcDbCircle
 10
242.465393
 20
-67.366289
 30
0.0
 40
41.30597
100
AcDbArc
 50
170.796655
 51
189.579339
  0
LINE
  5
A3
100
AcDbEntity
  8
2
370
    50
100
AcDbLine
 10
203.174348
 20
-51.773086
 30
0.0
 11
203.174348
 21
-82.959492
 31
0.0
  0
LINE
  5
A4
100
AcDbEntity
  8
2
370
    25
  6
CENTER
100
AcDbLine
 10
285.157684
 20
-67.366289
 30
0.0
 11
199.823582
 21
-67.366289
 31
0.0
  0
LINE
  5
A5
100
AcDbEntity
  8
2
370
    50
100
AcDbLine
 10
-278.792506
 20
-44.194647
 30
0.0
 11
-278.792506
 21
-69.884946
 31
0.0
  0
LINE
  5
A6
100
AcDbEntity
  8
2
370
    50
100
AcDbLine
 10
-254.613402
 20
-44.194647
 30
0.0
 11
-254.613402
 21
-45.20211
 31
0.0
  0
LINE
  5
A7
100
AcDbEntity
  8
2
370
    50
100
AcDbLine
 10
-142.785044
 20
-44.194647
 30
0.0
 11
-142.785044
 21
-45.20211
 31
0.0
  0
LINE
  5
A8
100
AcDbEntity
  8
2
370
    50
100
AcDbLine
 10
-118.605939
 20
-44.194647
 30
0.0
 11
-118.605939
 21
-69.884946
 31
0.0
  0
LINE
  5
A9
100
AcDbEntity
  8
2
370
    50
100
AcDbLine
 10
-142.785044
 20
-45.20211
 30
0.0
 11
-118.605939
 21
-45.20211
 31
0.0
  0
LINE
  5
AA
100
AcDbEntity
  8
2
370
    50
100
AcDbLine
 10
-278.792506
 20
-45.20211
 30
0.0
 11
-254.613402
 21
-45.20211
 31
0.0
  0
ARC
  5
AB
100
AcDbEntity
  8
2
370
    50
100
AcDbCircle
 10
-131.199223
 20
-69.884946
 30
0.0
 40
12.593284
100
AcDbArc
 50
270.0
 51
360.0
  0
ARC
  5
AC
100
AcDbEntity
  8
2
370
    50
100
AcDbCircle
 10
-266.199223
 20
-69.884946
 30
0.0
 40
12.593284
100
AcDbArc
 50
180.0
 51
270.0
  0
ARC
  5
AD
100
AcDbEntity
  8
2
370
    50
100
AcDbCircle
 10
-242.52385
 20
-45.20211
 30
0.0
 40
12.089552
100
AcDbArc
 50
180.0
 51
274.873779
  0
ARC
  5
AE
100
AcDbEntity
  8
2
370
    50
100
AcDbCircle
 10
-154.874596
 20
-45.20211
 30
0.0
 40
12.089552
100
AcDbArc
 50
265.126221
 51
360.0
  0
ARC
  5
AF
100
AcDbEntity
  8
2
370
    50
100
AcDbCircle
 10
-230.857708
 20
44.46364
 30
0.0
 40
100.746269
100
AcDbArc
 50
273.049601
 51
283.027259
  0
ARC
  5
B0
100
AcDbEntity
  8
2
370
    50
100
AcDbCircle
 10
-166.540738
 20
44.46364
 30
0.0
 40
100.746269
100
AcDbArc
 50
256.972741
 51
266.950399
  0
ARC
  5
B1
100
AcDbEntity
  8
2
370
    50
100
AcDbCircle
 10
-198.699223
 20
-559.157943
 30
0.0
 40
503.731343
100
AcDbArc
 50
85.126221
 51
86.950399
  0
ARC
  5
B2
100
AcDbEntity
  8
2
370
    50
100
AcDbCircle
 10
-198.699223
 20
-559.157943
 30
0.0
 40
503.731343
100
AcDbArc
 50
93.049601
 51
94.873779
  0
LINE
  5
B3
100
AcDbEntity
  8
2
370
    50
100
AcDbLine
 10
-173.512656
 20
-75.425991
 30
0.0
 11
-159.0301
 21
-75.425991
 31
0.0
  0
ARC
  5
B4
100
AcDbEntity
  8
2
370
    50
100
AcDbCircle
 10
-173.512656
 20
-87.515543
 30
0.0
 40
12.089552
100
AcDbArc
 50
90.0
 51
179.292627
  0
ARC
  5
B5
100
AcDbEntity
  8
2
370
    50
100
AcDbCircle
 10
-130.695491
 20
-52.254349
 30
0.0
 40
30.223881
100
AcDbArc
 50
242.047113
 51
270.0
  0
ARC
  5
B6
100
AcDbEntity
  8
2
370
    50
100
AcDbCircle
 10
-159.0301
 20
-105.649871
 30
0.0
 40
30.223881
100
AcDbArc
 50
62.047113
 51
90.0
  0
ARC
  5
B7
100
AcDbEntity
  8
2
370
    50
100
AcDbCircle
 10
-223.88579
 20
-87.515543
 30
0.0
 40
12.089552
100
AcDbArc
 50
0.707373
 51
90.0
  0
LINE
  5
B8
100
AcDbEntity
  8
2
370
    50
100
AcDbLine
 10
-223.88579
 20
-75.425991
 30
0.0
 11
-238.368346
 21
-75.425991
 31
0.0
  0
ARC
  5
B9
100
AcDbEntity
  8
2
370
    50
100
AcDbCircle
 10
-238.368346
 20
-105.649871
 30
0.0
 40
30.223881
100
AcDbArc
 50
90.0
 51
117.952887
  0
ARC
  5
BA
100
AcDbEntity
  8
2
370
    50
100
AcDbCircle
 10
-266.702954
 20
-52.254349
 30
0.0
 40
30.223881
100
AcDbArc
 50
270.0
 51
297.952887
  0
LINE
  5
BB
100
AcDbEntity
  8
2
370
    50
100
AcDbLine
 10
-142.785044
 20
-44.194647
 30
0.0
 11
-118.605939
 21
-44.194647
 31
0.0
  0
ARC
  5
BC
100
AcDbEntity
  8
2
370
    50
100
AcDbCircle
 10
-55.419051
 20
-22.613953
 30
0.0
 40
100.746269
100
AcDbArc
 50
168.537652
 51
188.388164
  0
ARC
  5
BD
100
AcDbEntity
  8
2
370
    50
100
AcDbCircle
 10
-55.41909
 20
-22.613953
 30
0.0
 40
100.242537
100
AcDbArc
 50
168.471477
 51
187.637519
  0
ARC
  5
BE
100
AcDbEntity
  8
2
370
    50
100
AcDbCircle
 10
-145.269662
 20
-4.395121
 30
0.0
 40
9.067164
100
AcDbArc
 50
96.34007
 51
168.537652
  0
ARC
  5
BF
100
AcDbEntity
  8
2
370
    50
100
AcDbCircle
 10
-145.742168
 20
-4.190684
 30
0.0
 40
8.059701
100
AcDbArc
 50
105.117347
 51
168.471477
  0
ARC
  5
C0
100
AcDbEntity
  8
2
370
    50
100
AcDbCircle
 10
-147.318626
 20
1.644905
 30
0.0
 40
2.014925
100
AcDbArc
 50
0.0
 51
105.117347
  0
LINE
  5
C1
100
AcDbEntity
  8
2
370
    50
100
AcDbLine
 10
-145.3037
 20
1.644905
 30
0.0
 11
-145.3037
 21
-39.661065
 31
0.0
  0
ARC
  5
C2
100
AcDbEntity
  8
2
370
    50
100
AcDbCircle
 10
-148.326088
 20
-39.661065
 30
0.0
 40
3.022388
100
AcDbArc
 50
252.175397
 51
360.0
  0
ARC
  5
C3
100
AcDbEntity
  8
2
370
    50
100
AcDbCircle
 10
-148.326088
 20
-39.661065
 30
0.0
 40
3.022388
100
AcDbArc
 50
252.175397
 51
360.0
  0
ARC
  5
C4
100
AcDbEntity
  8
2
370
    50
100
AcDbCircle
 10
-146.784146
 20
-34.865553
 30
0.0
 40
8.059701
100
AcDbArc
 50
187.637519
 51
252.175397
  0
ARC
  5
C5
100
AcDbEntity
  8
2
370
    50
100
AcDbCircle
 10
-147.114102
 20
-36.134946
 30
0.0
 40
8.059701
100
AcDbArc
 50
188.388164
 51
270.0
  0
LINE
  5
C6
100
AcDbEntity
  8
2
370
    50
100
AcDbLine
 10
-114.276803
 20
-44.194647
 30
0.0
 11
-147.114102
 21
-44.194647
 31
0.0
  0
ARC
  5
C7
100
AcDbEntity
  8
2
370
    50
100
AcDbCircle
 10
-114.276803
 20
-36.134946
 30
0.0
 40
8.059701
100
AcDbArc
 50
270.0
 51
351.611836
  0
ARC
  5
C8
100
AcDbEntity
  8
2
370
    50
100
AcDbCircle
 10
-205.971854
 20
-22.613953
 30
0.0
 40
100.746269
100
AcDbArc
 50
351.611836
 51
11.462348
  0
ARC
  5
C9
100
AcDbEntity
  8
2
370
    50
100
AcDbCircle
 10
-116.121243
 20
-4.395121
 30
0.0
 40
9.067164
100
AcDbArc
 50
11.462348
 51
83.65993
  0
ARC
  5
CA
100
AcDbEntity
  8
2
370
    50
100
AcDbCircle
 10
-116.121243
 20
-4.395121
 30
0.0
 40
9.067164
100
AcDbArc
 50
11.462348
 51
83.65993
  0
ARC
  5
CB
100
AcDbEntity
  8
2
370
    50
100
AcDbCircle
 10
-130.695452
 20
-135.565554
 30
0.0
 40
141.044776
100
AcDbArc
 50
83.65993
 51
86.211626
  0
LINE
  5
CC
100
AcDbEntity
  8
2
370
    50
100
AcDbLine
 10
-121.376423
 20
5.171024
 30
0.0
 11
-130.695491
 21
5.171024
 31
0.0
  0
LINE
  5
CD
100
AcDbEntity
  8
2
370
    50
100
AcDbLine
 10
-130.695491
 20
5.171024
 30
0.0
 11
-140.014482
 21
5.171024
 31
0.0
  0
ARC
  5
CE
100
AcDbEntity
  8
2
370
    50
100
AcDbCircle
 10
-130.695452
 20
-135.565554
 30
0.0
 40
141.044776
100
AcDbArc
 50
93.788374
 51
96.34007
  0
ARC
  5
CF
100
AcDbEntity
  8
2
370
    50
100
AcDbCircle
 10
-130.695452
 20
-135.565554
 30
0.0
 40
141.044776
100
AcDbArc
 50
93.788374
 51
96.34007
  0
ARC
  5
D0
100
AcDbEntity
  8
2
370
    50
100
AcDbCircle
 10
-130.695452
 20
-73.411065
 30
0.0
 40
80.597015
100
AcDbArc
 50
84.370157
 51
95.629843
  0
ARC
  5
D1
100
AcDbEntity
  8
2
370
    50
100
AcDbCircle
 10
-138.503288
 20
5.794582
 30
0.0
 40
1.007463
100
AcDbArc
 50
95.629843
 51
180.0
  0
ARC
  5
D2
100
AcDbEntity
  8
2
370
    50
100
AcDbCircle
 10
-122.887617
 20
5.794582
 30
0.0
 40
1.007463
100
AcDbArc
 50
0.0
 51
84.370157
  0
ARC
  5
D3
100
AcDbEntity
  8
2
370
    50
100
AcDbCircle
 10
-130.695491
 20
-5.326657
 30
0.0
 40
8.986487
100
AcDbArc
 50
9.155483
 51
170.844517
  0
ARC
  5
D4
100
AcDbEntity
  8
2
370
    50
100
AcDbCircle
 10
-20.212156
 20
-23.13297
 30
0.0
 40
120.895522
100
AcDbArc
 50
170.844517
 51
184.940428
  0
ARC
  5
D5
100
AcDbEntity
  8
2
370
    50
100
AcDbCircle
 10
-241.178827
 20
-23.13297
 30
0.0
 40
120.895522
100
AcDbArc
 50
355.059572
 51
9.155483
  0
ARC
  5
D6
100
AcDbEntity
  8
2
370
    50
100
AcDbCircle
 10
-130.695491
 20
-32.683267
 30
0.0
 40
10.000186
100
AcDbArc
 50
184.940428
 51
355.059572
  0
LINE
  5
D7
100
AcDbEntity
  8
2
370
    50
100
AcDbLine
 10
-116.087283
 20
1.644905
 30
0.0
 11
-116.087283
 21
-39.661065
 31
0.0
  0
ARC
  5
D8
100
AcDbEntity
  8
2
370
    50
100
AcDbCircle
 10
-114.072357
 20
1.644905
 30
0.0
 40
2.014925
100
AcDbArc
 50
74.882653
 51
180.0
  0
ARC
  5
D9
100
AcDbEntity
  8
2
370
    50
100
AcDbCircle
 10
-115.648815
 20
-4.190684
 30
0.0
 40
8.059701
100
AcDbArc
 50
11.528523
 51
74.882653
  0
ARC
  5
DA
100
AcDbEntity
  8
2
370
    50
100
AcDbCircle
 10
-205.971893
 20
-22.613953
 30
0.0
 40
100.242537
100
AcDbArc
 50
352.362481
 51
11.528523
  0
ARC
  5
DB
100
AcDbEntity
  8
2
370
    50
100
AcDbCircle
 10
-114.606837
 20
-34.865553
 30
0.0
 40
8.059701
100
AcDbArc
 50
287.824603
 51
352.362481
  0
ARC
  5
DC
100
AcDbEntity
  8
2
370
    50
100
AcDbCircle
 10
-114.606837
 20
-34.865553
 30
0.0
 40
8.059701
100
AcDbArc
 50
287.824603
 51
352.362481
  0
ARC
  5
DD
100
AcDbEntity
  8
2
370
    50
100
AcDbCircle
 10
-113.064894
 20
-39.661065
 30
0.0
 40
3.022388
100
AcDbArc
 50
180.0
 51
287.824603
  0
LINE
  5
DE
100
AcDbEntity
  8
2
370
    50
100
AcDbLine
 10
-130.695491
 20
5.171024
 30
0.0
 11
-140.014482
 21
5.171024
 31
0.0
  0
LINE
  5
DF
100
AcDbEntity
  8
2
370
    50
100
AcDbLine
 10
-121.880154
 20
5.794582
 30
0.0
 11
-121.880154
 21
5.171024
 31
0.0
  0
ARC
  5
E0
100
AcDbEntity
  8
2
370
    50
100
AcDbCircle
 10
-130.695452
 20
-135.565554
 30
0.0
 40
141.044776
100
AcDbArc
 50
83.65993
 51
86.211626
  0
ARC
  5
E1
100
AcDbEntity
  8
2
370
    50
100
AcDbCircle
 10
-138.503288
 20
5.794582
 30
0.0
 40
1.007463
100
AcDbArc
 50
95.629843
 51
180.0
  0
ARC
  5
E2
100
AcDbEntity
  8
2
370
    50
100
AcDbCircle
 10
-138.503288
 20
5.794582
 30
0.0
 40
1.007463
100
AcDbArc
 50
95.629843
 51
180.0
  0
LINE
  5
E3
100
AcDbEntity
  8
2
370
    50
100
AcDbLine
 10
-139.510751
 20
5.794582
 30
0.0
 11
-139.510751
 21
5.171024
 31
0.0
  0
LINE
  5
E4
100
AcDbEntity
  8
2
370
    50
100
AcDbLine
 10
210.226587
 20
-54.773006
 30
0.0
 11
210.226587
 21
-79.866289
 31
0.0
  0
LINE
  5
E5
100
AcDbEntity
  8
2
370
    50
100
AcDbLine
 10
203.174348
 20
-78.700244
 30
0.0
 11
210.226587
 21
-78.700244
 31
0.0
  0
LINE
  5
E6
100
AcDbEntity
  8
2
370
    50
100
AcDbLine
 10
203.174348
 20
-56.032334
 30
0.0
 11
210.226587
 21
-56.032334
 31
0.0
  0
LINE
  5
E7
100
AcDbEntity
  8
2
370
    50
100
AcDbLine
 10
228.133035
 20
-44.194647
 30
0.0
 11
228.133035
 21
-67.366289
 31
0.0
  0
ARC
  5
E8
100
AcDbEntity
  8
2
370
    50
100
AcDbCircle
 10
288.365845
 20
-856.946389
 30
0.0
 40
805.970149
100
AcDbArc
 50
94.285899
 51
95.563597
  0
LINE
  5
E9
100
AcDbEntity
  8
2
370
    50
100
AcDbLine
 10
240.726318
 20
-79.959573
 30
0.0
 11
259.364378
 21
-79.959573
 31
0.0
  0
ARC
  5
EA
100
AcDbEntity
  8
2
370
    50
100
AcDbCircle
 10
240.726318
 20
-67.366289
 30
0.0
 40
12.593284
100
AcDbArc
 50
180.0
 51
270.0
  0
LINE
  5
EB
100
AcDbEntity
  8
2
370
    50
100
AcDbLine
 10
254.830796
 20
-54.773006
 30
0.0
 11
259.364378
 21
-54.773006
 31
0.0
  0
LINE
  5
EC
100
AcDbEntity
  8
2
370
    50
100
AcDbLine
 10
253.319602
 20
-48.920176
 30
0.0
 11
253.319602
 21
-44.194647
 31
0.0
  0
ARC
  5
ED
100
AcDbEntity
  8
2
370
    50
100
AcDbCircle
 10
265.409154
 20
-48.920176
 30
0.0
 40
12.089552
100
AcDbArc
 50
180.0
 51
208.955024
  0
POINT
  5
EE
100
AcDbEntity
  8
2
370
    50
100
AcDbPoint
 10
-130.695491
 20
-45.20211
 30
0.0
  0
LINE
  5
EF
100
AcDbEntity
  8
2
370
    50
100
AcDbLine
 10
228.133035
 20
-45.20211
 30
0.0
 11
253.319602
 21
-45.20211
 31
0.0
  0
ARC
  5
F0
100
AcDbEntity
  8
2
370
    50
100
AcDbCircle
 10
316.002759
 20
-22.613953
 30
0.0
 40
100.746269
100
AcDbArc
 50
168.537652
 51
188.388164
  0
ARC
  5
F1
100
AcDbEntity
  8
2
370
    50
100
AcDbCircle
 10
316.00272
 20
-22.613953
 30
0.0
 40
100.242537
100
AcDbArc
 50
168.471477
 51
187.637519
  0
ARC
  5
F2
100
AcDbEntity
  8
2
370
    50
100
AcDbCircle
 10
226.152148
 20
-4.395121
 30
0.0
 40
9.067164
100
AcDbArc
 50
96.34007
 51
168.537652
  0
ARC
  5
F3
100
AcDbEntity
  8
2
370
    50
100
AcDbCircle
 10
225.679642
 20
-4.190684
 30
0.0
 40
8.059701
100
AcDbArc
 50
105.117347
 51
168.471477
  0
ARC
  5
F4
100
AcDbEntity
  8
2
370
    50
100
AcDbCircle
 10
224.103184
 20
1.644905
 30
0.0
 40
2.014925
100
AcDbArc
 50
0.0
 51
105.117347
  0
LINE
  5
F5
100
AcDbEntity
  8
2
370
    50
100
AcDbLine
 10
226.118109
 20
1.644905
 30
0.0
 11
226.118109
 21
-39.661065
 31
0.0
  0
ARC
  5
F6
100
AcDbEntity
  8
2
370
    50
100
AcDbCircle
 10
223.095721
 20
-39.661065
 30
0.0
 40
3.022388
100
AcDbArc
 50
252.175397
 51
360.0
  0
ARC
  5
F7
100
AcDbEntity
  8
2
370
    50
100
AcDbCircle
 10
224.637664
 20
-34.865553
 30
0.0
 40
8.059701
100
AcDbArc
 50
187.637519
 51
252.175397
  0
ARC
  5
F8
100
AcDbEntity
  8
2
370
    50
100
AcDbCircle
 10
224.307707
 20
-36.134946
 30
0.0
 40
8.059701
100
AcDbArc
 50
188.388164
 51
270.0
  0
LINE
  5
F9
100
AcDbEntity
  8
2
370
    50
100
AcDbLine
 10
257.145007
 20
-44.194647
 30
0.0
 11
224.307707
 21
-44.194647
 31
0.0
  0
ARC
  5
FA
100
AcDbEntity
  8
2
370
    50
100
AcDbCircle
 10
257.145007
 20
-36.134946
 30
0.0
 40
8.059701
100
AcDbArc
 50
270.0
 51
351.611836
  0
ARC
  5
FB
100
AcDbEntity
  8
2
370
    50
100
AcDbCircle
 10
165.449956
 20
-22.613953
 30
0.0
 40
100.746269
100
AcDbArc
 50
351.611836
 51
11.462348
  0
ARC
  5
FC
100
AcDbEntity
  8
2
370
    50
100
AcDbCircle
 10
255.300567
 20
-4.395121
 30
0.0
 40
9.067164
100
AcDbArc
 50
11.462348
 51
83.65993
  0
ARC
  5
FD
100
AcDbEntity
  8
2
370
    50
100
AcDbCircle
 10
255.300567
 20
-4.395121
 30
0.0
 40
9.067164
100
AcDbArc
 50
11.462348
 51
83.65993
  0
ARC
  5
FE
100
AcDbEntity
  8
2
370
    50
100
AcDbCircle
 10
240.726357
 20
-135.565554
 30
0.0
 40
141.044776
100
AcDbArc
 50
83.65993
 51
86.211626
  0
LINE
  5
FF
100
AcDbEntity
  8
2
370
    50
100
AcDbLine
 10
250.045387
 20
5.171024
 30
0.0
 11
240.726318
 21
5.171024
 31
0.0
  0
LINE
  5
100
100
AcDbEntity
  8
2
370
    50
100
AcDbLine
 10
240.726318
 20
5.171024
 30
0.0
 11
231.407327
 21
5.171024
 31
0.0
  0
ARC
  5
101
100
AcDbEntity
  8
2
370
    50
100
AcDbCircle
 10
240.726357
 20
-135.565554
 30
0.0
 40
141.044776
100
AcDbArc
 50
93.788374
 51
96.34007
  0
ARC
  5
102
100
AcDbEntity
  8
2
370
    50
100
AcDbCircle
 10
240.726357
 20
-73.411065
 30
0.0
 40
80.597015
100
AcDbArc
 50
84.370157
 51
95.629843
  0
ARC
  5
103
100
AcDbEntity
  8
2
370
    50
100
AcDbCircle
 10
232.918521
 20
5.794582
 30
0.0
 40
1.007463
100
AcDbArc
 50
95.629843
 51
180.0
  0
ARC
  5
104
100
AcDbEntity
  8
2
370
    50
100
AcDbCircle
 10
248.534193
 20
5.794582
 30
0.0
 40
1.007463
100
AcDbArc
 50
0.0
 51
84.370157
  0
ARC
  5
105
100
AcDbEntity
  8
2
370
    50
100
AcDbCircle
 10
240.726318
 20
-5.326657
 30
0.0
 40
8.986487
100
AcDbArc
 50
9.155483
 51
170.844517
  0
ARC
  5
106
100
AcDbEntity
  8
2
370
    50
100
AcDbCircle
 10
351.209654
 20
-23.13297
 30
0.0
 40
120.895522
100
AcDbArc
 50
170.844517
 51
184.940428
  0
ARC
  5
107
100
AcDbEntity
  8
2
370
    50
100
AcDbCircle
 10
130.242983
 20
-23.13297
 30
0.0
 40
120.895522
100
AcDbArc
 50
355.059572
 51
9.155483
  0
ARC
  5
108
100
AcDbEntity
  8
2
370
    50
100
AcDbCircle
 10
240.726318
 20
-32.683267
 30
0.0
 40
10.000186
100
AcDbArc
 50
184.940428
 51
355.059572
  0
LINE
  5
109
100
AcDbEntity
  8
2
370
    50
100
AcDbLine
 10
255.334527
 20
1.644905
 30
0.0
 11
255.334527
 21
-39.661065
 31
0.0
  0
ARC
  5
10A
100
AcDbEntity
  8
2
370
    50
100
AcDbCircle
 10
257.349453
 20
1.644905
 30
0.0
 40
2.014925
100
AcDbArc
 50
74.882653
 51
180.0
  0
ARC
  5
10B
100
AcDbEntity
  8
2
370
    50
100
AcDbCircle
 10
255.772994
 20
-4.190684
 30
0.0
 40
8.059701
100
AcDbArc
 50
11.528523
 51
74.882653
  0
ARC
  5
10C
100
AcDbEntity
  8
2
370
    50
100
AcDbCircle
 10
165.449916
 20
-22.613953
 30
0.0
 40
100.242537
100
AcDbArc
 50
352.362481
 51
11.528523
  0
ARC
  5
10D
100
AcDbEntity
  8
2
370
    50
100
AcDbCircle
 10
256.814973
 20
-34.865553
 30
0.0
 40
8.059701
100
AcDbArc
 50
287.824603
 51
352.362481
  0
ARC
  5
10E
100
AcDbEntity
  8
2
370
    50
100
AcDbCircle
 10
256.814973
 20
-34.865553
 30
0.0
 40
8.059701
100
AcDbArc
 50
287.824603
 51
352.362481
  0
ARC
  5
10F
100
AcDbEntity
  8
2
370
    50
100
AcDbCircle
 10
258.356915
 20
-39.661065
 30
0.0
 40
3.022388
100
AcDbArc
 50
180.0
 51
287.824603
  0
LINE
  5
110
100
AcDbEntity
  8
2
370
    50
100
AcDbLine
 10
240.726318
 20
5.171024
 30
0.0
 11
231.407327
 21
5.171024
 31
0.0
  0
LINE
  5
111
100
AcDbEntity
  8
2
370
    50
100
AcDbLine
 10
249.541656
 20
5.794582
 30
0.0
 11
249.541656
 21
5.171024
 31
0.0
  0
LINE
  5
112
100
AcDbEntity
  8
2
370
    50
100
AcDbLine
 10
231.911059
 20
5.794582
 30
0.0
 11
231.911059
 21
5.171024
 31
0.0
  0
LINE
  5
113
100
AcDbEntity
  8
2
370
    50
100
AcDbLine
 10
203.174348
 20
-54.773006
 30
0.0
 11
203.174348
 21
-79.959573
 31
0.0
  0
LINE
  5
114
100
AcDbEntity
  8
2
370
    50
100
AcDbLine
 10
-190.73993
 20
-162.689871
 30
0.0
 11
-206.65784
 21
-162.689871
 31
0.0
  0
LINE
  5
115
100
AcDbEntity
  8
2
370
    50
100
AcDbLine
 10
-190.73993
 20
-157.652558
 30
0.0
 11
-206.65784
 21
-157.652558
 31
0.0
  0
LINE
  5
116
100
AcDbEntity
  8
2
370
    50
100
AcDbLine
 10
-190.73993
 20
-98.766289
 30
0.0
 11
-190.73993
 21
-157.652558
 31
0.0
  0
LINE
  5
117
100
AcDbEntity
  8
2
370
    50
100
AcDbLine
 10
-206.65784
 20
-98.766289
 30
0.0
 11
-206.65784
 21
-157.652558
 31
0.0
  0
ARC
  5
118
100
AcDbEntity
  8
2
370
    50
100
AcDbCircle
 10
-198.698885
 20
-129.443603
 30
0.0
 40
7.958955
100
AcDbArc
 50
0.0
 51
180.0
  0
ARC
  5
119
100
AcDbEntity
  8
2
370
    50
100
AcDbCircle
 10
-203.512039
 20
-160.171215
 30
0.0
 40
4.029851
100
AcDbArc
 50
141.317813
 51
218.682187
  0
ARC
  5
11A
100
AcDbEntity
  8
2
370
    50
100
AcDbCircle
 10
-193.885731
 20
-160.171215
 30
0.0
 40
4.029851
100
AcDbArc
 50
321.317813
 51
38.682187
  0
POINT
  5
11B
100
AcDbEntity
  8
2
370
    50
100
AcDbPoint
 10
-198.698885
 20
-162.689871
 30
0.0
  0
POINT
  5
11C
100
AcDbEntity
  8
2
370
    50
100
AcDbPoint
 10
-198.698885
 20
-162.689871
 30
0.0
  0
POINT
  5
11D
100
AcDbEntity
  8
2
370
    50
100
AcDbPoint
 10
-131.199223
 20
7.184375
 30
0.0
  0
POINT
  5
11E
100
AcDbEntity
  8
2
370
    50
100
AcDbPoint
 10
-266.199223
 20
7.184375
 30
0.0
  0
LINE
  5
11F
100
AcDbEntity
  8
2
370
    50
100
AcDbLine
 10
261.364378
 20
-76.366289
 30
0.0
 11
261.364378
 21
-76.467298
 31
0.0
  0
LINE
  5
120
100
AcDbEntity
  8
2
370
    50
100
AcDbLine
 10
295.364378
 20
-54.066289
 30
0.0
 11
295.364378
 21
-83.900289
 31
0.0
  0
LINE
  5
121
100
AcDbEntity
  8
2
370
    50
100
AcDbLine
 10
281.864378
 20
-53.566289
 30
0.0
 11
294.864378
 21
-53.566289
 31
0.0
  0
LINE
  5
122
100
AcDbEntity
  8
2
370
    50
100
AcDbLine
 10
281.364378
 20
-54.366289
 30
0.0
 11
281.364378
 21
-84.150289
 31
0.0
  0
LINE
  5
123
100
AcDbEntity
  8
2
370
    50
100
AcDbLine
 10
281.364378
 20
-54.066289
 30
0.0
 11
281.364378
 21
-54.366289
 31
0.0
  0
LINE
  5
124
100
AcDbEntity
  8
2
370
    50
100
AcDbLine
 10
281.864378
 20
-84.150289
 30
0.0
 11
281.364378
 21
-84.150289
 31
0.0
  0
LINE
  5
125
100
AcDbEntity
  8
2
370
    50
100
AcDbLine
 10
303.364378
 20
-84.400289
 30
0.0
 11
295.864378
 21
-84.400289
 31
0.0
  0
LINE
  5
126
100
AcDbEntity
  8
2
370
    50
100
AcDbLine
 10
303.364378
 20
-106.900289
 30
0.0
 11
281.864378
 21
-106.900289
 31
0.0
  0
LINE
  5
127
100
AcDbEntity
  8
2
370
    50
100
AcDbLine
 10
274.364378
 20
-79.541794
 30
0.0
 11
274.364378
 21
-55.190785
 31
0.0
  0
LINE
  5
128
100
AcDbEntity
  8
2
370
    50
100
AcDbLine
 10
261.364378
 20
-52.116289
 30
0.0
 11
272.364378
 21
-52.116289
 31
0.0
  0
LINE
  5
129
100
AcDbEntity
  8
2
370
    50
100
AcDbLine
 10
261.364378
 20
-82.616289
 30
0.0
 11
272.364378
 21
-82.616289
 31
0.0
  0
LINE
  5
12A
100
AcDbEntity
  8
2
370
    50
100
AcDbLine
 10
274.364378
 20
-54.366289
 30
0.0
 11
281.364378
 21
-54.366289
 31
0.0
  0
LINE
  5
12B
100
AcDbEntity
  8
2
370
    50
100
AcDbLine
 10
274.364378
 20
-80.366289
 30
0.0
 11
281.364378
 21
-80.366289
 31
0.0
  0
LINE
  5
12C
100
AcDbEntity
  8
2
370
    50
100
AcDbLine
 10
274.364378
 20
-55.266289
 30
0.0
 11
277.364378
 21
-55.266289
 31
0.0
  0
LINE
  5
12D
100
AcDbEntity
  8
2
370
    50
100
AcDbLine
 10
277.364378
 20
-55.266289
 30
0.0
 11
278.923224
 21
-54.366289
 31
0.0
  0
LINE
  5
12E
100
AcDbEntity
  8
2
370
    50
100
AcDbLine
 10
274.364378
 20
-79.466289
 30
0.0
 11
277.364378
 21
-79.466289
 31
0.0
  0
LINE
  5
12F
100
AcDbEntity
  8
2
370
    50
100
AcDbLine
 10
277.364378
 20
-79.466289
 30
0.0
 11
278.923224
 21
-80.366289
 31
0.0
  0
LINE
  5
130
100
AcDbEntity
  8
2
370
    50
100
AcDbLine
 10
277.364378
 20
-79.466289
 30
0.0
 11
278.923224
 21
-80.366289
 31
0.0
  0
LINE
  5
131
100
AcDbEntity
  8
2
370
    50
100
AcDbLine
 10
274.364378
 20
-80.366289
 30
0.0
 11
281.364378
 21
-80.366289
 31
0.0
  0
LINE
  5
132
100
AcDbEntity
  8
2
370
    50
100
AcDbLine
 10
274.364378
 20
-79.466289
 30
0.0
 11
277.364378
 21
-79.466289
 31
0.0
  0
LINE
  5
133
100
AcDbEntity
  8
2
370
    50
100
AcDbLine
 10
281.864378
 20
-84.650289
 30
0.0
 11
278.100446
 21
-84.650289
 31
0.0
  0
LINE
  5
134
100
AcDbEntity
  8
2
370
    50
100
AcDbLine
 10
281.864378
 20
-106.650289
 30
0.0
 11
278.100446
 21
-106.650289
 31
0.0
  0
ARC
  5
135
100
AcDbEntity
  8
2
370
    50
100
AcDbCircle
 10
275.864378
 20
-90.650289
 30
0.0
 40
5.0
100
AcDbArc
 50
90.0
 51
180.0
  0
ARC
  5
136
100
AcDbEntity
  8
2
370
    50
100
AcDbCircle
 10
275.864378
 20
-100.650289
 30
0.0
 40
5.0
100
AcDbArc
 50
180.0
 51
270.0
  0
ARC
  5
137
100
AcDbEntity
  8
2
370
    50
100
AcDbCircle
 10
278.100446
 20
-87.650289
 30
0.0
 40
3.0
100
AcDbArc
 50
90.0
 51
138.189685
  0
LINE
  5
138
100
AcDbEntity
  8
2
370
    50
100
AcDbLine
 10
281.864378
 20
-106.900289
 30
0.0
 11
281.864378
 21
-84.150289
 31
0.0
  0
LINE
  5
139
100
AcDbEntity
  8
2
370
    50
100
AcDbLine
 10
269.962454
 20
-99.075289
 30
0.0
 11
269.962454
 21
-92.225289
 31
0.0
  0
LINE
  5
13A
100
AcDbEntity
  8
2
370
    50
100
AcDbLine
 10
270.864378
 20
-100.650289
 30
0.0
 11
270.864378
 21
-100.075289
 31
0.0
  0
LINE
  5
13B
100
AcDbEntity
  8
2
370
    50
100
AcDbLine
 10
270.864378
 20
-90.650289
 30
0.0
 11
270.864378
 21
-100.070468
 31
0.0
  0
ARC
  5
13C
100
AcDbEntity
  8
2
370
    50
100
AcDbCircle
 10
270.962454
 20
-92.225289
 30
0.0
 40
1.0
100
AcDbArc
 50
95.628401
 51
180.0
  0
LINE
  5
13D
100
AcDbEntity
  8
2
370
    50
100
AcDbLine
 10
277.364378
 20
-55.266289
 30
0.0
 11
277.364378
 21
-79.466289
 31
0.0
  0
ARC
  5
13E
100
AcDbEntity
  8
2
370
    50
100
AcDbCircle
 10
270.962454
 20
-99.075289
 30
0.0
 40
1.0
100
AcDbArc
 50
180.0
 51
264.371599
  0
ARC
  5
13F
100
AcDbEntity
  8
2
370
    50
100
AcDbCircle
 10
278.100446
 20
-103.650289
 30
0.0
 40
3.0
100
AcDbArc
 50
221.810315
 51
270.0
  0
LINE
  5
140
100
AcDbEntity
  8
2
370
    50
100
AcDbLine
 10
272.364378
 20
-76.467298
 30
0.0
 11
261.364378
 21
-76.467298
 31
0.0
  0
LINE
  5
141
100
AcDbEntity
  8
2
370
    50
100
AcDbLine
 10
272.364378
 20
-73.412982
 30
0.0
 11
261.364378
 21
-73.412982
 31
0.0
  0
LINE
  5
142
100
AcDbEntity
  8
2
370
    50
100
AcDbLine
 10
272.364378
 20
-61.319596
 30
0.0
 11
261.364378
 21
-61.319596
 31
0.0
  0
LINE
  5
143
100
AcDbEntity
  8
2
370
    50
100
AcDbLine
 10
272.364378
 20
-58.26528
 30
0.0
 11
261.364378
 21
-58.26528
 31
0.0
  0
ARC
  5
144
100
AcDbEntity
  8
2
370
    50
100
AcDbCircle
 10
264.223753
 20
-67.366289
 30
0.0
 40
10.140625
100
AcDbArc
 50
323.395774
 51
36.604226
  0
ARC
  5
145
100
AcDbEntity
  8
2
370
    50
100
AcDbCircle
 10
271.001247
 20
-79.541794
 30
0.0
 40
3.363131
100
AcDbArc
 50
293.910931
 51
66.089069
  0
LINE
  5
146
100
AcDbEntity
  8
2
370
    50
100
AcDbLine
 10
272.364378
 20
-58.26528
 30
0.0
 11
272.364378
 21
-61.319596
 31
0.0
  0
LINE
  5
147
100
AcDbEntity
  8
2
370
    50
100
AcDbLine
 10
272.364378
 20
-73.412982
 30
0.0
 11
272.364378
 21
-76.467298
 31
0.0
  0
ARC
  5
148
100
AcDbEntity
  8
2
370
    50
100
AcDbCircle
 10
271.001247
 20
-55.190785
 30
0.0
 40
3.363131
100
AcDbArc
 50
293.910931
 51
66.089069
  0
LINE
  5
149
100
AcDbEntity
  8
2
370
    50
100
AcDbLine
 10
281.864378
 20
-90.900289
 30
0.0
 11
275.864378
 21
-90.900289
 31
0.0
  0
LINE
  5
14A
100
AcDbEntity
  8
2
370
    50
100
AcDbLine
 10
281.864378
 20
-100.400289
 30
0.0
 11
275.864378
 21
-100.400289
 31
0.0
  0
LINE
  5
14B
100
AcDbEntity
  8
2
370
    50
100
AcDbLine
 10
275.864378
 20
-85.650289
 30
0.0
 11
275.864378
 21
-105.650289
 31
0.0
  0
ARC
  5
14C
100
AcDbEntity
  8
2
370
    50
100
AcDbCircle
 10
294.864378
 20
-54.066289
 30
0.0
 40
0.5
100
AcDbArc
 50
0.0
 51
90.0
  0
ARC
  5
14D
100
AcDbEntity
  8
2
370
    50
100
AcDbCircle
 10
281.864378
 20
-54.066289
 30
0.0
 40
0.5
100
AcDbArc
 50
90.0
 51
180.0
  0
ARC
  5
14E
100
AcDbEntity
  8
2
370
    50
100
AcDbCircle
 10
295.864378
 20
-83.900289
 30
0.0
 40
0.5
100
AcDbArc
 50
180.0
 51
270.0
  0
LINE
  5
14F
100
AcDbEntity
  8
2
370
    50
100
AcDbLine
 10
316.364378
 20
-118.650289
 30
0.0
 11
316.364378
 21
-72.650289
 31
0.0
  0
LINE
  5
150
100
AcDbEntity
  8
2
370
    50
100
AcDbLine
 10
313.864378
 20
-118.650289
 30
0.0
 11
313.864378
 21
-72.650289
 31
0.0
  0
LINE
  5
151
100
AcDbEntity
  8
2
370
    50
100
AcDbLine
 10
316.364378
 20
-85.150289
 30
0.0
 11
329.164378
 21
-85.150289
 31
0.0
  0
LINE
  5
152
100
AcDbEntity
  8
2
370
    25
100
AcDbLine
 10
316.364378
 20
-86.350289
 30
0.0
 11
330.364378
 21
-86.350289
 31
0.0
  0
LINE
  5
153
100
AcDbEntity
  8
2
370
    25
100
AcDbLine
 10
316.364378
 20
-104.950289
 30
0.0
 11
330.364378
 21
-104.950289
 31
0.0
  0
LINE
  5
154
100
AcDbEntity
  8
2
370
    50
100
AcDbLine
 10
316.364378
 20
-106.150289
 30
0.0
 11
329.164378
 21
-106.150289
 31
0.0
  0
LINE
  5
155
100
AcDbEntity
  8
2
370
    50
100
AcDbLine
 10
313.864378
 20
-118.650289
 30
0.0
 11
306.550644
 21
-108.411062
 31
0.0
  0
LINE
  5
156
100
AcDbEntity
  8
2
370
    50
100
AcDbLine
 10
313.864378
 20
-72.650289
 30
0.0
 11
306.550644
 21
-82.889516
 31
0.0
  0
LINE
  5
157
100
AcDbEntity
  8
2
370
    50
100
AcDbLine
 10
306.364378
 20
-86.350289
 30
0.0
 11
306.364378
 21
-104.950289
 31
0.0
  0
LINE
  5
158
100
AcDbEntity
  8
2
370
    50
100
AcDbLine
 10
306.364378
 20
-107.829824
 30
0.0
 11
306.364378
 21
-83.470754
 31
0.0
  0
ARC
  5
159
100
AcDbEntity
  8
2
370
    50
100
AcDbCircle
 10
307.364378
 20
-83.470754
 30
0.0
 40
1.0
100
AcDbArc
 50
144.462322
 51
180.0
  0
LINE
  5
15A
100
AcDbEntity
  8
2
370
    50
100
AcDbLine
 10
303.364378
 20
-84.400289
 30
0.0
 11
303.364378
 21
-106.900289
 31
0.0
  0
LINE
  5
15B
100
AcDbEntity
  8
2
370
    50
100
AcDbLine
 10
306.364378
 20
-86.350289
 30
0.0
 11
304.285917
 21
-85.150289
 31
0.0
  0
LINE
  5
15C
100
AcDbEntity
  8
2
370
    50
100
AcDbLine
 10
303.364378
 20
-106.150289
 30
0.0
 11
306.364378
 21
-106.150289
 31
0.0
  0
LINE
  5
15D
100
AcDbEntity
  8
2
370
    50
100
AcDbLine
 10
306.364378
 20
-86.350289
 30
0.0
 11
306.364378
 21
-104.950289
 31
0.0
  0
LINE
  5
15E
100
AcDbEntity
  8
2
370
    50
100
AcDbLine
 10
306.364378
 20
-104.950289
 30
0.0
 11
304.285917
 21
-106.150289
 31
0.0
  0
LINE
  5
15F
100
AcDbEntity
  8
2
370
    50
100
AcDbLine
 10
306.364378
 20
-86.350289
 30
0.0
 11
304.285917
 21
-85.150289
 31
0.0
  0
LINE
  5
160
100
AcDbEntity
  8
2
370
    50
100
AcDbLine
 10
306.364378
 20
-107.829824
 30
0.0
 11
306.364378
 21
-83.470754
 31
0.0
  0
LINE
  5
161
100
AcDbEntity
  8
2
370
    50
100
AcDbLine
 10
303.364378
 20
-84.400289
 30
0.0
 11
303.364378
 21
-106.900289
 31
0.0
  0
LINE
  5
162
100
AcDbEntity
  8
2
370
    50
100
AcDbLine
 10
303.364378
 20
-85.150289
 30
0.0
 11
306.364378
 21
-85.150289
 31
0.0
  0
LINE
  5
163
100
AcDbEntity
  8
2
370
    50
100
AcDbLine
 10
316.364378
 20
-72.650289
 30
0.0
 11
313.864378
 21
-72.650289
 31
0.0
  0
ARC
  5
164
100
AcDbEntity
  8
2
370
    50
100
AcDbCircle
 10
307.364378
 20
-107.829824
 30
0.0
 40
1.0
100
AcDbArc
 50
180.0
 51
215.537678
  0
LINE
  5
165
100
AcDbEntity
  8
2
370
    25
100
AcDbLine
 10
329.164378
 20
-106.150289
 30
0.0
 11
329.164378
 21
-85.150289
 31
0.0
  0
LINE
  5
166
100
AcDbEntity
  8
2
370
    50
100
AcDbLine
 10
330.364378
 20
-104.950289
 30
0.0
 11
330.364378
 21
-86.350289
 31
0.0
  0
LINE
  5
167
100
AcDbEntity
  8
2
370
    50
100
AcDbLine
 10
329.164378
 20
-106.150289
 30
0.0
 11
330.364378
 21
-104.950289
 31
0.0
  0
LINE
  5
168
100
AcDbEntity
  8
2
370
    50
100
AcDbLine
 10
330.364378
 20
-86.350289
 30
0.0
 11
329.164378
 21
-85.150289
 31
0.0
  0
LINE
  5
169
100
AcDbEntity
  8
2
370
    50
100
AcDbLine
 10
259.364378
 20
-79.541794
 30
0.0
 11
259.364378
 21
-55.190785
 31
0.0
  0
ARC
  5
16A
100
AcDbEntity
  8
2
370
    50
100
AcDbCircle
 10
262.727509
 20
-55.190785
 30
0.0
 40
3.363131
100
AcDbArc
 50
113.910931
 51
246.089069
  0
LINE
  5
16B
100
AcDbEntity
  8
2
370
    50
100
AcDbLine
 10
261.364378
 20
-58.26528
 30
0.0
 11
261.364378
 21
-61.319596
 31
0.0
  0
ARC
  5
16C
100
AcDbEntity
  8
2
370
    50
100
AcDbCircle
 10
269.505003
 20
-67.366289
 30
0.0
 40
10.140625
100
AcDbArc
 50
143.395774
 51
216.604226
  0
LINE
  5
16D
100
AcDbEntity
  8
2
370
    50
100
AcDbLine
 10
261.364378
 20
-73.412982
 30
0.0
 11
261.364378
 21
-76.467298
 31
0.0
  0
ARC
  5
16E
100
AcDbEntity
  8
2
370
    50
100
AcDbCircle
 10
262.727509
 20
-79.541794
 30
0.0
 40
3.363131
100
AcDbArc
 50
113.910931
 51
246.089069
  0
LINE
  5
16F
100
AcDbEntity
  8
2
370
    50
100
AcDbLine
 10
313.864378
 20
-118.650289
 30
0.0
 11
316.364378
 21
-118.650289
 31
0.0
  0
POINT
  5
170
100
AcDbEntity
  8
2
370
    50
100
AcDbPoint
 10
-130.695491
 20
-67.366289
 30
0.0
  0
POINT
  5
171
100
AcDbEntity
  8
2
370
    50
100
AcDbPoint
 10
-293.979763
 20
-95.65056
 30
0.0
  0
ARC
  5
172
100
AcDbEntity
  8
2
370
    50
100
AcDbCircle
 10
-293.979763
 20
-95.65056
 30
0.0
 40
23.0
100
AcDbArc
 50
80.234762
 51
14.182615
  0
CIRCLE
  5
173
100
AcDbEntity
  8
2
370
    50
100
AcDbCircle
 10
-102.41122
 20
-95.65056
 30
0.0
 40
11.25
  0
LINE
  5
174
100
AcDbEntity
  8
2
370
    50
100
AcDbLine
 10
-118.605939
 20
-60.257199
 30
0.0
 11
-94.456269
 21
-87.695609
 31
0.0
  0
POINT
  5
175
100
AcDbEntity
  8
2
370
    50
100
AcDbPoint
 10
-102.41122
 20
-95.65056
 30
0.0
  0
ARC
  5
176
100
AcDbEntity
  8
2
370
    50
100
AcDbCircle
 10
-102.41122
 20
-95.65056
 30
0.0
 40
23.0
100
AcDbArc
 50
167.866041
 51
102.133959
  0
CIRCLE
  5
177
100
AcDbEntity
  8
2
370
    50
100
AcDbCircle
 10
-102.41122
 20
-95.65056
 30
0.0
 40
10.0
  0
LINE
  5
178
100
AcDbEntity
  8
2
370
    50
100
AcDbLine
 10
-92.41122
 20
-100.233136
 30
0.0
 11
-92.41122
 21
-91.067985
 31
0.0
  0
ARC
  5
179
100
AcDbEntity
  8
2
370
    50
100
AcDbCircle
 10
-102.41122
 20
-95.65056
 30
0.0
 40
11.0
100
AcDbArc
 50
24.619977
 51
155.380023
  0
ARC
  5
17A
100
AcDbEntity
  8
2
370
    50
100
AcDbCircle
 10
-102.41122
 20
-95.65056
 30
0.0
 40
11.0
100
AcDbArc
 50
204.619977
 51
335.380023
  0
CIRCLE
  5
17B
100
AcDbEntity
  8
2
370
    50
100
AcDbCircle
 10
-102.41122
 20
-95.65056
 30
0.0
 40
4.5
  0
LINE
  5
17C
100
AcDbEntity
  8
2
370
    50
100
AcDbLine
 10
-103.41122
 20
-91.263078
 30
0.0
 11
-103.41122
 21
-100.038043
 31
0.0
  0
LINE
  5
17D
100
AcDbEntity
  8
2
370
    50
100
AcDbLine
 10
-101.41122
 20
-91.263078
 30
0.0
 11
-101.41122
 21
-100.038043
 31
0.0
  0
ARC
  5
17E
100
AcDbEntity
  8
2
370
    50
100
AcDbCircle
 10
-102.41122
 20
-95.65056
 30
0.0
 40
12.5
100
AcDbArc
 50
202.567101
 51
67.432899
  0
LINE
  5
17F
100
AcDbEntity
  8
2
370
    50
100
AcDbLine
 10
-110.366172
 20
-103.605512
 30
0.0
 11
-134.668601
 21
-82.215947
 31
0.0
  0
CIRCLE
  5
180
100
AcDbEntity
  8
2
370
    50
100
AcDbCircle
 10
-102.41122
 20
-95.65056
 30
0.0
 40
11.25
  0
LINE
  5
181
100
AcDbEntity
  8
2
370
    50
100
AcDbLine
 10
-113.195491
 20
-66.40445
 30
0.0
 11
-94.456269
 21
-87.695609
 31
0.0
  0
LINE
  5
182
100
AcDbEntity
  8
2
370
    50
100
AcDbLine
 10
-110.366172
 20
-103.605512
 30
0.0
 11
-132.793512
 21
-83.866289
 31
0.0
  0
POINT
  5
183
100
AcDbEntity
  8
2
370
    50
100
AcDbPoint
 10
-102.41122
 20
-95.65056
 30
0.0
  0
CIRCLE
  5
184
100
AcDbEntity
  8
2
370
    50
100
AcDbCircle
 10
-102.41122
 20
-95.65056
 30
0.0
 40
10.0
  0
LINE
  5
185
100
AcDbEntity
  8
2
370
    50
100
AcDbLine
 10
-92.41122
 20
-100.233136
 30
0.0
 11
-92.41122
 21
-91.067985
 31
0.0
  0
ARC
  5
186
100
AcDbEntity
  8
2
370
    50
100
AcDbCircle
 10
-102.41122
 20
-95.65056
 30
0.0
 40
11.0
100
AcDbArc
 50
24.619977
 51
155.380023
  0
ARC
  5
187
100
AcDbEntity
  8
2
370
    50
100
AcDbCircle
 10
-102.41122
 20
-95.65056
 30
0.0
 40
11.0
100
AcDbArc
 50
204.619977
 51
335.380023
  0
CIRCLE
  5
188
100
AcDbEntity
  8
2
370
    50
100
AcDbCircle
 10
-102.41122
 20
-95.65056
 30
0.0
 40
4.5
  0
LINE
  5
189
100
AcDbEntity
  8
2
370
    50
100
AcDbLine
 10
-103.41122
 20
-91.263078
 30
0.0
 11
-103.41122
 21
-100.038043
 31
0.0
  0
LINE
  5
18A
100
AcDbEntity
  8
2
370
    50
100
AcDbLine
 10
-101.41122
 20
-91.263078
 30
0.0
 11
-101.41122
 21
-100.038043
 31
0.0
  0
POINT
  5
18B
100
AcDbEntity
  8
2
370
    50
100
AcDbPoint
 10
-266.702954
 20
-67.366289
 30
0.0
  0
LINE
  5
18C
100
AcDbEntity
  8
2
370
    50
100
AcDbLine
 10
-304.745299
 20
-85.892487
 30
0.0
 11
-278.792506
 21
-63.05037
 31
0.0
  0
ARC
  5
18D
100
AcDbEntity
  8
2
370
    50
100
AcDbCircle
 10
-294.987225
 20
-95.65056
 30
0.0
 40
13.8
100
AcDbArc
 50
135.0
 51
315.0
  0
LINE
  5
18E
100
AcDbEntity
  8
2
370
    50
100
AcDbLine
 10
-265.005159
 20
-82.430506
 30
0.0
 11
-285.229152
 21
-105.408634
 31
0.0
  0
POINT
  5
18F
100
AcDbEntity
  8
2
370
    50
100
AcDbPoint
 10
-198.698822
 20
-85.349145
 30
0.0
  0
POINT
  5
190
100
AcDbEntity
  8
2
370
    50
100
AcDbPoint
 10
-198.698822
 20
-85.349145
 30
0.0
  0
LINE
  5
191
100
AcDbEntity
  8
2
370
    50
  6
DASHED
100
AcDbLine
 10
-232.711163
 20
-69.884946
 30
0.0
 11
-232.711163
 21
-64.847632
 31
0.0
  0
LINE
  5
192
100
AcDbEntity
  8
2
370
    50
  6
DASHED
100
AcDbLine
 10
-221.092617
 20
-70.388677
 30
0.0
 11
-222.077006
 21
-70.388677
 31
0.0
  0
LINE
  5
193
100
AcDbEntity
  8
2
370
    50
  6
DASHED
100
AcDbLine
 10
-221.092617
 20
-64.343901
 30
0.0
 11
-222.077006
 21
-64.343901
 31
0.0
  0
ARC
  5
194
100
AcDbEntity
  8
2
370
    50
  6
DASHED
100
AcDbCircle
 10
-231.199969
 20
-64.847632
 30
0.0
 40
1.511194
100
AcDbArc
 50
77.396547
 51
180.0
  0
ARC
  5
195
100
AcDbEntity
  8
2
370
    50
  6
DASHED
100
AcDbCircle
 10
-231.199969
 20
-69.884946
 30
0.0
 40
1.511194
100
AcDbArc
 50
180.0
 51
278.713388
  0
ARC
  5
196
100
AcDbEntity
  8
2
370
    50
  6
DASHED
100
AcDbCircle
 10
-222.077006
 20
-110.687185
 30
0.0
 40
40.298507
100
AcDbArc
 50
90.0
 51
102.603453
  0
ARC
  5
197
100
AcDbEntity
  8
2
370
    50
  6
DASHED
100
AcDbCircle
 10
-222.077006
 20
-24.045394
 30
0.0
 40
40.298507
100
AcDbArc
 50
257.396547
 51
270.0
  0
ARC
  5
198
100
AcDbEntity
  8
2
370
    50
  6
DASHED
100
AcDbCircle
 10
-221.092617
 20
-80.463304
 30
0.0
 40
10.074627
100
AcDbArc
 50
30.321686
 51
90.0
  0
ARC
  5
199
100
AcDbEntity
  8
2
370
    50
  6
DASHED
100
AcDbCircle
 10
-221.092617
 20
-54.269274
 30
0.0
 40
10.074627
100
AcDbArc
 50
270.0
 51
329.678314
  0
ARC
  5
19A
100
AcDbEntity
  8
2
370
    50
  6
DASHED
100
AcDbCircle
 10
-221.092617
 20
-80.463304
 30
0.0
 40
9.31903
100
AcDbArc
 50
30.321686
 51
83.003582
  0
ARC
  5
19B
100
AcDbEntity
  8
2
370
    50
  6
DASHED
100
AcDbCircle
 10
-221.092617
 20
-54.269274
 30
0.0
 40
9.31903
100
AcDbArc
 50
276.996418
 51
329.678314
  0
ARC
  5
19C
100
AcDbEntity
  8
2
370
    50
  6
DASHED
100
AcDbCircle
 10
-224.866143
 20
-23.520477
 30
0.0
 40
40.298507
100
AcDbArc
 50
261.286612
 51
276.996418
  0
ARC
  5
19D
100
AcDbEntity
  8
2
370
    50
  6
DASHED
100
AcDbCircle
 10
-224.866143
 20
-111.212101
 30
0.0
 40
40.298507
100
AcDbArc
 50
83.003582
 51
98.713388
  0
LINE
  5
19E
100
AcDbEntity
  8
2
370
    50
100
AcDbLine
 10
-245.533858
 20
164.494343
 30
0.0
 11
-227.261584
 21
164.494343
 31
0.0
  0
LINE
  5
19F
100
AcDbEntity
  8
2
370
    50
100
AcDbLine
 10
-236.467085
 20
147.494343
 30
0.0
 11
-223.811359
 21
147.494343
 31
0.0
  0
ARC
  5
1A0
100
AcDbEntity
  8
2
370
    50
100
AcDbCircle
 10
-245.533858
 20
176.494343
 30
0.0
 40
12.0
100
AcDbArc
 50
259.859001
 51
270.0
  0
LINE
  5
1A1
100
AcDbEntity
  8
2
370
    50
100
AcDbLine
 10
-213.699223
 20
167.994343
 30
0.0
 11
-213.699223
 21
170.244343
 31
0.0
  0
LINE
  5
1A2
100
AcDbEntity
  8
2
370
    25
100
AcDbLine
 10
-213.099223
 20
169.994343
 30
0.0
 11
-213.099223
 21
170.244343
 31
0.0
  0
LINE
  5
1A3
100
AcDbEntity
  8
2
370
    50
100
AcDbLine
 10
-213.099223
 20
169.994343
 30
0.0
 11
-213.699223
 21
169.394343
 31
0.0
  0
LINE
  5
1A4
100
AcDbEntity
  8
2
370
    50
100
AcDbLine
 10
-214.214787
 20
167.994343
 30
0.0
 11
-213.699223
 21
167.994343
 31
0.0
  0
ARC
  5
1A5
100
AcDbEntity
  8
2
370
    50
100
AcDbCircle
 10
-228.277148
 20
194.494343
 30
0.0
 40
30.0
100
AcDbArc
 50
270.0
 51
297.952887
  0
ARC
  5
1A6
100
AcDbEntity
  8
2
370
    50
100
AcDbCircle
 10
584.874465
 20
206.156731
 30
0.0
 40
800.0
100
AcDbArc
 50
184.992345
 51
185.786852
  0
ARC
  5
1A7
100
AcDbEntity
  8
2
370
    50
100
AcDbCircle
 10
-224.045078
 20
135.494343
 30
0.0
 40
12.0
100
AcDbArc
 50
4.992345
 51
90.0
  0
LINE
  5
1A8
100
AcDbEntity
  8
2
370
    50
100
AcDbLine
 10
-151.864587
 20
164.494343
 30
0.0
 11
-170.136862
 21
164.494343
 31
0.0
  0
LINE
  5
1A9
100
AcDbEntity
  8
2
370
    50
100
AcDbLine
 10
-160.93136
 20
147.494343
 30
0.0
 11
-173.587087
 21
147.494343
 31
0.0
  0
ARC
  5
1AA
100
AcDbEntity
  8
2
370
    50
100
AcDbCircle
 10
-151.864587
 20
176.494343
 30
0.0
 40
12.0
100
AcDbArc
 50
270.0
 51
280.140999
  0
LINE
  5
1AB
100
AcDbEntity
  8
2
370
    50
100
AcDbLine
 10
-183.699223
 20
167.994343
 30
0.0
 11
-183.699223
 21
170.244343
 31
0.0
  0
LINE
  5
1AC
100
AcDbEntity
  8
2
370
    50
100
AcDbLine
 10
-187.449223
 20
118.442343
 30
0.0
 11
-187.449223
 21
125.494343
 31
0.0
  0
LINE
  5
1AD
100
AcDbEntity
  8
2
370
    25
100
AcDbLine
 10
-184.299223
 20
169.994343
 30
0.0
 11
-184.299223
 21
170.244343
 31
0.0
  0
LINE
  5
1AE
100
AcDbEntity
  8
2
370
    50
100
AcDbLine
 10
-184.299223
 20
169.994343
 30
0.0
 11
-183.699223
 21
169.394343
 31
0.0
  0
ARC
  5
1AF
100
AcDbEntity
  8
2
370
    50
100
AcDbCircle
 10
-169.121298
 20
194.494343
 30
0.0
 40
30.0
100
AcDbArc
 50
242.047113
 51
270.0
  0
ARC
  5
1B0
100
AcDbEntity
  8
2
370
    50
100
AcDbCircle
 10
-982.27291
 20
206.156731
 30
0.0
 40
800.0
100
AcDbArc
 50
354.213148
 51
355.007655
  0
ARC
  5
1B1
100
AcDbEntity
  8
2
370
    50
100
AcDbCircle
 10
-173.353368
 20
135.494343
 30
0.0
 40
12.0
100
AcDbArc
 50
90.0
 51
175.007655
  0
ARC
  5
1B2
100
AcDbEntity
  8
2
370
    50
100
AcDbCircle
 10
-236.467085
 20
47.494343
 30
0.0
 40
100.0
100
AcDbArc
 50
90.0
 51
96.605273
  0
ARC
  5
1B3
100
AcDbEntity
  8
2
370
    50
100
AcDbCircle
 10
-160.93136
 20
47.494343
 30
0.0
 40
100.0
100
AcDbArc
 50
83.394727
 51
90.0
  0
LINE
  5
1B4
100
AcDbEntity
  8
2
370
    50
100
AcDbLine
 10
-211.048634
 20
125.494343
 30
0.0
 11
-209.949223
 21
125.494343
 31
0.0
  0
LINE
  5
1B5
100
AcDbEntity
  8
2
370
    50
100
AcDbLine
 10
-209.949223
 20
125.494343
 30
0.0
 11
-186.349812
 21
125.494343
 31
0.0
  0
LINE
  5
1B6
100
AcDbEntity
  8
2
370
    50
100
AcDbLine
 10
-93.121223
 20
249.386134
 30
0.0
 11
-111.721223
 21
249.386134
 31
0.0
  0
LINE
  5
1B7
100
AcDbEntity
  8
2
370
    50
100
AcDbLine
 10
-113.921223
 20
200.386134
 30
0.0
 11
-144.999223
 21
200.386134
 31
0.0
  0
LINE
  5
1B8
100
AcDbEntity
  8
2
370
    50
100
AcDbLine
 10
-113.671223
 20
214.386134
 30
0.0
 11
-144.999223
 21
214.386134
 31
0.0
  0
LINE
  5
1B9
100
AcDbEntity
  8
2
370
    50
100
AcDbLine
 10
-144.999223
 20
200.386134
 30
0.0
 11
-144.999223
 21
214.386134
 31
0.0
  0
LINE
  5
1BA
100
AcDbEntity
  8
2
370
    25
100
AcDbLine
 10
-143.199223
 20
193.386134
 30
0.0
 11
-143.199223
 21
196.386134
 31
0.0
  0
LINE
  5
1BB
100
AcDbEntity
  8
2
370
    25
100
AcDbLine
 10
-119.199223
 20
193.386134
 30
0.0
 11
-119.199223
 21
196.386134
 31
0.0
  0
LINE
  5
1BC
100
AcDbEntity
  8
2
370
    50
100
AcDbLine
 10
-144.399223
 20
193.226291
 30
0.0
 11
-144.399223
 21
200.386134
 31
0.0
  0
LINE
  5
1BD
100
AcDbEntity
  8
2
370
    50
100
AcDbLine
 10
-117.999223
 20
193.226291
 30
0.0
 11
-117.999223
 21
200.386134
 31
0.0
  0
LINE
  5
1BE
100
AcDbEntity
  8
2
370
    50
100
AcDbLine
 10
-91.171223
 20
222.386134
 30
0.0
 11
-113.671223
 21
222.386134
 31
0.0
  0
LINE
  5
1BF
100
AcDbEntity
  8
2
370
    25
100
AcDbLine
 10
-93.121223
 20
235.386134
 30
0.0
 11
-93.121223
 21
249.386134
 31
0.0
  0
LINE
  5
1C0
100
AcDbEntity
  8
2
370
    25
100
AcDbLine
 10
-111.721223
 20
235.386134
 30
0.0
 11
-111.721223
 21
249.386134
 31
0.0
  0
LINE
  5
1C1
100
AcDbEntity
  8
2
370
    50
100
AcDbLine
 10
-91.921223
 20
225.386134
 30
0.0
 11
-112.921223
 21
225.386134
 31
0.0
  0
LINE
  5
1C2
100
AcDbEntity
  8
2
370
    50
100
AcDbLine
 10
-111.721223
 20
225.386134
 30
0.0
 11
-112.921223
 21
223.307673
 31
0.0
  0
LINE
  5
1C3
100
AcDbEntity
  8
2
370
    50
100
AcDbLine
 10
-93.121223
 20
225.386134
 30
0.0
 11
-91.921223
 21
223.307673
 31
0.0
  0
LINE
  5
1C4
100
AcDbEntity
  8
2
370
    50
100
AcDbLine
 10
-111.721223
 20
249.386134
 30
0.0
 11
-112.921223
 21
248.186134
 31
0.0
  0
LINE
  5
1C5
100
AcDbEntity
  8
2
370
    50
100
AcDbLine
 10
-93.121223
 20
249.386134
 30
0.0
 11
-91.921223
 21
248.186134
 31
0.0
  0
LINE
  5
1C6
100
AcDbEntity
  8
2
370
    50
100
AcDbLine
 10
-91.921223
 20
248.186134
 30
0.0
 11
-112.921223
 21
248.186134
 31
0.0
  0
LINE
  5
1C7
100
AcDbEntity
  8
2
370
    50
100
AcDbLine
 10
-143.199223
 20
196.386134
 30
0.0
 11
-144.399223
 21
198.464595
 31
0.0
  0
LINE
  5
1C8
100
AcDbEntity
  8
2
370
    50
100
AcDbLine
 10
-119.199223
 20
196.386134
 30
0.0
 11
-117.999223
 21
198.464595
 31
0.0
  0
LINE
  5
1C9
100
AcDbEntity
  8
2
370
    50
100
AcDbLine
 10
-144.399223
 20
196.386134
 30
0.0
 11
-117.999223
 21
196.386134
 31
0.0
  0
LINE
  5
1CA
100
AcDbEntity
  8
2
370
    50
100
AcDbLine
 10
-113.671223
 20
214.386134
 30
0.0
 11
-113.671223
 21
222.386134
 31
0.0
  0
LINE
  5
1CB
100
AcDbEntity
  8
2
370
    50
100
AcDbLine
 10
-91.171223
 20
200.886134
 30
0.0
 11
-91.171223
 21
222.386134
 31
0.0
  0
LINE
  5
1CC
100
AcDbEntity
  8
2
370
    50
100
AcDbLine
 10
-91.921223
 20
222.386134
 30
0.0
 11
-91.921223
 21
225.386134
 31
0.0
  0
LINE
  5
1CD
100
AcDbEntity
  8
2
370
    50
100
AcDbLine
 10
-91.921223
 20
235.386134
 30
0.0
 11
-91.921223
 21
248.186134
 31
0.0
  0
LINE
  5
1CE
100
AcDbEntity
  8
2
370
    50
100
AcDbLine
 10
-112.921223
 20
222.386134
 30
0.0
 11
-112.921223
 21
225.386134
 31
0.0
  0
LINE
  5
1CF
100
AcDbEntity
  8
2
370
    50
100
AcDbLine
 10
-112.921223
 20
235.386134
 30
0.0
 11
-112.921223
 21
248.186134
 31
0.0
  0
LINE
  5
1D0
100
AcDbEntity
  8
2
370
    50
100
AcDbLine
 10
-122.199223
 20
180.386134
 30
0.0
 11
-122.098214
 21
180.386134
 31
0.0
  0
LINE
  5
1D1
100
AcDbEntity
  8
2
370
    50
100
AcDbLine
 10
-119.023718
 20
193.386134
 30
0.0
 11
-143.374727
 21
193.386134
 31
0.0
  0
LINE
  5
1D2
100
AcDbEntity
  8
2
370
    50
100
AcDbLine
 10
-146.449223
 20
180.386134
 30
0.0
 11
-146.449223
 21
191.386134
 31
0.0
  0
LINE
  5
1D3
100
AcDbEntity
  8
2
370
    50
100
AcDbLine
 10
-115.949223
 20
180.386134
 30
0.0
 11
-115.949223
 21
191.386134
 31
0.0
  0
LINE
  5
1D4
100
AcDbEntity
  8
2
370
    50
100
AcDbLine
 10
-122.098214
 20
191.386134
 30
0.0
 11
-122.098214
 21
180.386134
 31
0.0
  0
LINE
  5
1D5
100
AcDbEntity
  8
2
370
    50
100
AcDbLine
 10
-125.152529
 20
191.386134
 30
0.0
 11
-125.152529
 21
180.386134
 31
0.0
  0
LINE
  5
1D6
100
AcDbEntity
  8
2
370
    50
100
AcDbLine
 10
-137.245916
 20
191.386134
 30
0.0
 11
-137.245916
 21
180.386134
 31
0.0
  0
LINE
  5
1D7
100
AcDbEntity
  8
2
370
    50
100
AcDbLine
 10
-140.300232
 20
191.386134
 30
0.0
 11
-140.300232
 21
180.386134
 31
0.0
  0
ARC
  5
1D8
100
AcDbEntity
  8
2
370
    50
100
AcDbCircle
 10
-131.199223
 20
183.245509
 30
0.0
 40
10.140625
100
AcDbArc
 50
53.395774
 51
126.604226
  0
ARC
  5
1D9
100
AcDbEntity
  8
2
370
    50
100
AcDbCircle
 10
-119.023718
 20
190.023003
 30
0.0
 40
3.363131
100
AcDbArc
 50
23.910931
 51
156.089069
  0
LINE
  5
1DA
100
AcDbEntity
  8
2
370
    50
100
AcDbLine
 10
-140.300232
 20
191.386134
 30
0.0
 11
-137.245916
 21
191.386134
 31
0.0
  0
LINE
  5
1DB
100
AcDbEntity
  8
2
370
    50
100
AcDbLine
 10
-125.152529
 20
191.386134
 30
0.0
 11
-122.098214
 21
191.386134
 31
0.0
  0
ARC
  5
1DC
100
AcDbEntity
  8
2
370
    50
100
AcDbCircle
 10
-143.374727
 20
190.023003
 30
0.0
 40
3.363131
100
AcDbArc
 50
23.910931
 51
156.089069
  0
ARC
  5
1DD
100
AcDbEntity
  8
2
370
    50
100
AcDbCircle
 10
-143.374727
 20
181.749264
 30
0.0
 40
3.363131
100
AcDbArc
 50
203.910931
 51
336.089069
  0
LINE
  5
1DE
100
AcDbEntity
  8
2
370
    50
100
AcDbLine
 10
-140.300232
 20
180.386134
 30
0.0
 11
-137.245916
 21
180.386134
 31
0.0
  0
ARC
  5
1DF
100
AcDbEntity
  8
2
370
    50
100
AcDbCircle
 10
-131.199223
 20
188.526759
 30
0.0
 40
10.140625
100
AcDbArc
 50
233.395774
 51
306.604226
  0
LINE
  5
1E0
100
AcDbEntity
  8
2
370
    50
100
AcDbLine
 10
-125.152529
 20
180.386134
 30
0.0
 11
-122.098214
 21
180.386134
 31
0.0
  0
ARC
  5
1E1
100
AcDbEntity
  8
2
370
    50
100
AcDbCircle
 10
-119.023718
 20
181.749264
 30
0.0
 40
3.363131
100
AcDbArc
 50
203.910931
 51
336.089069
  0
LINE
  5
1E2
100
AcDbEntity
  8
2
370
    50
100
AcDbLine
 10
-79.421223
 20
235.386134
 30
0.0
 11
-125.421223
 21
235.386134
 31
0.0
  0
LINE
  5
1E3
100
AcDbEntity
  8
2
370
    50
100
AcDbLine
 10
-79.421223
 20
232.886134
 30
0.0
 11
-125.421223
 21
232.886134
 31
0.0
  0
LINE
  5
1E4
100
AcDbEntity
  8
2
370
    50
100
AcDbLine
 10
-79.421223
 20
232.886134
 30
0.0
 11
-89.66045
 21
225.5724
 31
0.0
  0
LINE
  5
1E5
100
AcDbEntity
  8
2
370
    50
100
AcDbLine
 10
-125.421223
 20
232.886134
 30
0.0
 11
-115.181996
 21
225.5724
 31
0.0
  0
LINE
  5
1E6
100
AcDbEntity
  8
2
370
    50
100
AcDbLine
 10
-90.241688
 20
225.386134
 30
0.0
 11
-114.600758
 21
225.386134
 31
0.0
  0
ARC
  5
1E7
100
AcDbEntity
  8
2
370
    50
100
AcDbCircle
 10
-114.600758
 20
226.386134
 30
0.0
 40
1.0
100
AcDbArc
 50
234.462322
 51
270.0
  0
LINE
  5
1E8
100
AcDbEntity
  8
2
370
    50
100
AcDbLine
 10
-90.241688
 20
225.386134
 30
0.0
 11
-114.600758
 21
225.386134
 31
0.0
  0
LINE
  5
1E9
100
AcDbEntity
  8
2
370
    50
100
AcDbLine
 10
-125.421223
 20
235.386134
 30
0.0
 11
-125.421223
 21
232.886134
 31
0.0
  0
ARC
  5
1EA
100
AcDbEntity
  8
2
370
    50
100
AcDbCircle
 10
-90.241688
 20
226.386134
 30
0.0
 40
1.0
100
AcDbArc
 50
270.0
 51
305.537678
  0
LINE
  5
1EB
100
AcDbEntity
  8
2
370
    50
100
AcDbLine
 10
-79.421223
 20
235.386134
 30
0.0
 11
-79.421223
 21
232.886134
 31
0.0
  0
LINE
  5
1EC
100
AcDbEntity
  8
2
370
    50
100
AcDbLine
 10
-306.227223
 20
200.386134
 30
0.0
 11
-252.399223
 21
200.386134
 31
0.0
  0
LINE
  5
1ED
100
AcDbEntity
  8
2
370
    50
100
AcDbLine
 10
-283.727223
 20
214.386134
 30
0.0
 11
-252.399223
 21
214.386134
 31
0.0
  0
LINE
  5
1EE
100
AcDbEntity
  8
2
370
    50
100
AcDbLine
 10
-252.399223
 20
200.386134
 30
0.0
 11
-252.399223
 21
214.386134
 31
0.0
  0
LINE
  5
1EF
100
AcDbEntity
  8
2
370
    25
100
AcDbLine
 10
-254.199223
 20
193.386134
 30
0.0
 11
-254.199223
 21
196.386134
 31
0.0
  0
LINE
  5
1F0
100
AcDbEntity
  8
2
370
    25
100
AcDbLine
 10
-278.199223
 20
193.386134
 30
0.0
 11
-278.199223
 21
196.386134
 31
0.0
  0
LINE
  5
1F1
100
AcDbEntity
  8
2
370
    50
100
AcDbLine
 10
-252.999223
 20
193.226291
 30
0.0
 11
-252.999223
 21
200.386134
 31
0.0
  0
LINE
  5
1F2
100
AcDbEntity
  8
2
370
    50
100
AcDbLine
 10
-279.399223
 20
193.226291
 30
0.0
 11
-279.399223
 21
200.386134
 31
0.0
  0
LINE
  5
1F3
100
AcDbEntity
  8
2
370
    50
100
AcDbLine
 10
-254.199223
 20
196.386134
 30
0.0
 11
-252.999223
 21
198.464595
 31
0.0
  0
LINE
  5
1F4
100
AcDbEntity
  8
2
370
    50
100
AcDbLine
 10
-278.199223
 20
196.386134
 30
0.0
 11
-279.399223
 21
198.464595
 31
0.0
  0
LINE
  5
1F5
100
AcDbEntity
  8
2
370
    50
100
AcDbLine
 10
-252.999223
 20
196.386134
 30
0.0
 11
-279.399223
 21
196.386134
 31
0.0
  0
LINE
  5
1F6
100
AcDbEntity
  8
2
370
    50
100
AcDbLine
 10
-275.199223
 20
180.386134
 30
0.0
 11
-275.300232
 21
180.386134
 31
0.0
  0
LINE
  5
1F7
100
AcDbEntity
  8
2
370
    50
100
AcDbLine
 10
-278.374727
 20
193.386134
 30
0.0
 11
-254.023718
 21
193.386134
 31
0.0
  0
LINE
  5
1F8
100
AcDbEntity
  8
2
370
    50
100
AcDbLine
 10
-250.949223
 20
180.386134
 30
0.0
 11
-250.949223
 21
191.386134
 31
0.0
  0
LINE
  5
1F9
100
AcDbEntity
  8
2
370
    50
100
AcDbLine
 10
-281.449223
 20
180.386134
 30
0.0
 11
-281.449223
 21
191.386134
 31
0.0
  0
LINE
  5
1FA
100
AcDbEntity
  8
2
370
    50
100
AcDbLine
 10
-275.300232
 20
191.386134
 30
0.0
 11
-275.300232
 21
180.386134
 31
0.0
  0
LINE
  5
1FB
100
AcDbEntity
  8
2
370
    50
100
AcDbLine
 10
-272.245916
 20
191.386134
 30
0.0
 11
-272.245916
 21
180.386134
 31
0.0
  0
LINE
  5
1FC
100
AcDbEntity
  8
2
370
    50
100
AcDbLine
 10
-260.152529
 20
191.386134
 30
0.0
 11
-260.152529
 21
180.386134
 31
0.0
  0
LINE
  5
1FD
100
AcDbEntity
  8
2
370
    50
100
AcDbLine
 10
-257.098214
 20
191.386134
 30
0.0
 11
-257.098214
 21
180.386134
 31
0.0
  0
ARC
  5
1FE
100
AcDbEntity
  8
2
370
    50
100
AcDbCircle
 10
-266.199223
 20
183.245509
 30
0.0
 40
10.140625
100
AcDbArc
 50
53.395774
 51
126.604226
  0
ARC
  5
1FF
100
AcDbEntity
  8
2
370
    50
100
AcDbCircle
 10
-278.374727
 20
190.023003
 30
0.0
 40
3.363131
100
AcDbArc
 50
23.910931
 51
156.089069
  0
LINE
  5
200
100
AcDbEntity
  8
2
370
    50
100
AcDbLine
 10
-257.098214
 20
191.386134
 30
0.0
 11
-260.152529
 21
191.386134
 31
0.0
  0
LINE
  5
201
100
AcDbEntity
  8
2
370
    50
100
AcDbLine
 10
-272.245916
 20
191.386134
 30
0.0
 11
-275.300232
 21
191.386134
 31
0.0
  0
ARC
  5
202
100
AcDbEntity
  8
2
370
    50
100
AcDbCircle
 10
-254.023718
 20
190.023003
 30
0.0
 40
3.363131
100
AcDbArc
 50
23.910931
 51
156.089069
  0
ARC
  5
203
100
AcDbEntity
  8
2
370
    50
100
AcDbCircle
 10
-254.023718
 20
181.749264
 30
0.0
 40
3.363131
100
AcDbArc
 50
203.910931
 51
336.089069
  0
LINE
  5
204
100
AcDbEntity
  8
2
370
    50
100
AcDbLine
 10
-257.098214
 20
180.386134
 30
0.0
 11
-260.152529
 21
180.386134
 31
0.0
  0
ARC
  5
205
100
AcDbEntity
  8
2
370
    50
100
AcDbCircle
 10
-266.199223
 20
188.526759
 30
0.0
 40
10.140625
100
AcDbArc
 50
233.395774
 51
306.604226
  0
LINE
  5
206
100
AcDbEntity
  8
2
370
    50
100
AcDbLine
 10
-272.245916
 20
180.386134
 30
0.0
 11
-275.300232
 21
180.386134
 31
0.0
  0
ARC
  5
207
100
AcDbEntity
  8
2
370
    50
100
AcDbCircle
 10
-278.374727
 20
181.749264
 30
0.0
 40
3.363131
100
AcDbArc
 50
203.910931
 51
336.089069
  0
LINE
  5
208
100
AcDbEntity
  8
2
370
    50
100
AcDbLine
 10
-119.454483
 20
178.386134
 30
0.0
 11
-119.023718
 21
178.386134
 31
0.0
  0
LINE
  5
209
100
AcDbEntity
  8
2
370
    50
100
AcDbLine
 10
-143.374727
 20
178.386134
 30
0.0
 11
-142.943963
 21
178.386134
 31
0.0
  0
LINE
  5
20A
100
AcDbEntity
  8
2
370
    50
100
AcDbLine
 10
-140.080783
 20
178.386134
 30
0.0
 11
-122.317663
 21
178.386134
 31
0.0
  0
LINE
  5
20B
100
AcDbEntity
  8
2
370
    50
100
AcDbLine
 10
-254.454483
 20
178.386134
 30
0.0
 11
-254.023718
 21
178.386134
 31
0.0
  0
LINE
  5
20C
100
AcDbEntity
  8
2
370
    50
100
AcDbLine
 10
-278.374727
 20
178.386134
 30
0.0
 11
-277.943963
 21
178.386134
 31
0.0
  0
LINE
  5
20D
100
AcDbEntity
  8
2
370
    50
100
AcDbLine
 10
-275.080783
 20
178.386134
 30
0.0
 11
-257.317663
 21
178.386134
 31
0.0
  0
CIRCLE
  5
20E
100
AcDbEntity
  8
2
370
    50
100
AcDbCircle
 10
-131.199223
 20
155.994343
 30
0.0
 40
8.8155
  0
CIRCLE
  5
20F
100
AcDbEntity
  8
2
370
    50
100
AcDbCircle
 10
-266.199223
 20
155.994343
 30
0.0
 40
8.8155
  0
ARC
  5
210
100
AcDbEntity
  8
2
370
    50
100
AcDbCircle
 10
-131.199223
 20
196.528843
 30
0.0
 40
20.2
100
AcDbArc
 50
239.552149
 51
300.447851
  0
ARC
  5
211
100
AcDbEntity
  8
2
370
    50
100
AcDbCircle
 10
-131.199223
 20
192.939343
 30
0.0
 40
17.9
100
AcDbArc
 50
233.238123
 51
306.761877
  0
ARC
  5
212
100
AcDbEntity
  8
2
370
    50
100
AcDbCircle
 10
-166.30313
 20
176.261593
 30
0.0
 40
20.2
100
AcDbArc
 50
299.552149
 51
0.447851
  0
ARC
  5
213
100
AcDbEntity
  8
2
370
    50
100
AcDbCircle
 10
-163.194531
 20
174.466843
 30
0.0
 40
17.9
100
AcDbArc
 50
293.238123
 51
6.761877
  0
ARC
  5
214
100
AcDbEntity
  8
2
370
    50
100
AcDbCircle
 10
-166.30313
 20
135.727093
 30
0.0
 40
20.2
100
AcDbArc
 50
359.552149
 51
60.447851
  0
ARC
  5
215
100
AcDbEntity
  8
2
370
    50
100
AcDbCircle
 10
-163.194531
 20
137.521843
 30
0.0
 40
17.9
100
AcDbArc
 50
353.238123
 51
66.761877
  0
ARC
  5
216
100
AcDbEntity
  8
2
370
    50
100
AcDbCircle
 10
-131.199223
 20
119.049343
 30
0.0
 40
17.9
100
AcDbArc
 50
53.238123
 51
126.761877
  0
ARC
  5
217
100
AcDbEntity
  8
2
370
    50
100
AcDbCircle
 10
-131.199223
 20
115.459843
 30
0.0
 40
20.2
100
AcDbArc
 50
59.552149
 51
120.447851
  0
ARC
  5
218
100
AcDbEntity
  8
2
370
    50
100
AcDbCircle
 10
-99.203914
 20
137.521843
 30
0.0
 40
17.9
100
AcDbArc
 50
113.238123
 51
186.761877
  0
ARC
  5
219
100
AcDbEntity
  8
2
370
    50
100
AcDbCircle
 10
-96.095316
 20
135.727093
 30
0.0
 40
20.2
100
AcDbArc
 50
119.552149
 51
180.447851
  0
ARC
  5
21A
100
AcDbEntity
  8
2
370
    50
100
AcDbCircle
 10
-99.203914
 20
174.466843
 30
0.0
 40
17.9
100
AcDbArc
 50
173.238123
 51
246.761877
  0
ARC
  5
21B
100
AcDbEntity
  8
2
370
    50
100
AcDbCircle
 10
-96.095316
 20
176.261593
 30
0.0
 40
20.2
100
AcDbArc
 50
179.552149
 51
240.447851
  0
ARC
  5
21C
100
AcDbEntity
  8
2
370
    50
100
AcDbCircle
 10
-131.199223
 20
155.994343
 30
0.0
 40
25.285
100
AcDbArc
 50
113.881225
 51
126.118775
  0
ARC
  5
21D
100
AcDbEntity
  8
2
370
    50
100
AcDbCircle
 10
-131.199223
 20
155.994343
 30
0.0
 40
25.285
100
AcDbArc
 50
173.881225
 51
186.118775
  0
ARC
  5
21E
100
AcDbEntity
  8
2
370
    50
100
AcDbCircle
 10
-131.199223
 20
155.994343
 30
0.0
 40
25.285
100
AcDbArc
 50
233.881225
 51
246.118775
  0
ARC
  5
21F
100
AcDbEntity
  8
2
370
    50
100
AcDbCircle
 10
-131.199223
 20
155.994343
 30
0.0
 40
25.285
100
AcDbArc
 50
293.881225
 51
306.118775
  0
ARC
  5
220
100
AcDbEntity
  8
2
370
    50
100
AcDbCircle
 10
-131.199223
 20
155.994343
 30
0.0
 40
25.285
100
AcDbArc
 50
353.881225
 51
6.118775
  0
ARC
  5
221
100
AcDbEntity
  8
2
370
    50
100
AcDbCircle
 10
-131.199223
 20
155.994343
 30
0.0
 40
25.285
100
AcDbArc
 50
53.881225
 51
66.118775
  0
ARC
  5
222
100
AcDbEntity
  8
2
370
    50
100
AcDbCircle
 10
-117.475925
 20
176.633319
 30
0.0
 40
0.5
100
AcDbArc
 50
353.238123
 51
56.379215
  0
ARC
  5
223
100
AcDbEntity
  8
2
370
    50
100
AcDbCircle
 10
-120.186994
 20
178.198555
 30
0.0
 40
0.5
100
AcDbArc
 50
63.620785
 51
126.761877
  0
ARC
  5
224
100
AcDbEntity
  8
2
370
    50
100
AcDbCircle
 10
-106.463697
 20
157.559579
 30
0.0
 40
0.5
100
AcDbArc
 50
0.0
 51
66.761877
  0
ARC
  5
225
100
AcDbEntity
  8
2
370
    50
100
AcDbCircle
 10
-106.463697
 20
154.429106
 30
0.0
 40
0.5
100
AcDbArc
 50
293.238123
 51
356.379215
  0
ARC
  5
226
100
AcDbEntity
  8
2
370
    50
100
AcDbCircle
 10
-117.475925
 20
135.355367
 30
0.0
 40
0.5
100
AcDbArc
 50
303.620785
 51
6.761877
  0
ARC
  5
227
100
AcDbEntity
  8
2
370
    50
100
AcDbCircle
 10
-120.186994
 20
133.79013
 30
0.0
 40
0.5
100
AcDbArc
 50
233.238123
 51
296.379215
  0
ARC
  5
228
100
AcDbEntity
  8
2
370
    50
100
AcDbCircle
 10
-142.211451
 20
133.79013
 30
0.0
 40
0.5
100
AcDbArc
 50
243.620785
 51
306.761877
  0
ARC
  5
229
100
AcDbEntity
  8
2
370
    50
100
AcDbCircle
 10
-144.92252
 20
135.355367
 30
0.0
 40
0.5
100
AcDbArc
 50
173.238123
 51
236.379215
  0
ARC
  5
22A
100
AcDbEntity
  8
2
370
    50
100
AcDbCircle
 10
-155.934749
 20
154.429106
 30
0.0
 40
0.5
100
AcDbArc
 50
183.620785
 51
246.761877
  0
ARC
  5
22B
100
AcDbEntity
  8
2
370
    50
100
AcDbCircle
 10
-155.934749
 20
157.559579
 30
0.0
 40
0.5
100
AcDbArc
 50
113.238123
 51
176.379215
  0
ARC
  5
22C
100
AcDbEntity
  8
2
370
    50
100
AcDbCircle
 10
-142.211451
 20
178.198555
 30
0.0
 40
0.5
100
AcDbArc
 50
53.238123
 51
116.379215
  0
ARC
  5
22D
100
AcDbEntity
  8
2
370
    50
100
AcDbCircle
 10
-144.92252
 20
176.633319
 30
0.0
 40
0.5
100
AcDbArc
 50
123.620785
 51
186.761877
  0
ARC
  5
22E
100
AcDbEntity
  8
2
370
    50
100
AcDbCircle
 10
-266.199223
 20
196.528843
 30
0.0
 40
20.2
100
AcDbArc
 50
239.552149
 51
300.447851
  0
ARC
  5
22F
100
AcDbEntity
  8
2
370
    50
100
AcDbCircle
 10
-266.199223
 20
192.939343
 30
0.0
 40
17.9
100
AcDbArc
 50
233.238123
 51
306.761877
  0
ARC
  5
230
100
AcDbEntity
  8
2
370
    50
100
AcDbCircle
 10
-231.095316
 20
176.261593
 30
0.0
 40
20.2
100
AcDbArc
 50
179.552149
 51
240.447851
  0
ARC
  5
231
100
AcDbEntity
  8
2
370
    50
100
AcDbCircle
 10
-234.203914
 20
174.466843
 30
0.0
 40
17.9
100
AcDbArc
 50
173.238123
 51
246.761877
  0
ARC
  5
232
100
AcDbEntity
  8
2
370
    50
100
AcDbCircle
 10
-231.095316
 20
135.727093
 30
0.0
 40
20.2
100
AcDbArc
 50
119.552149
 51
180.447851
  0
ARC
  5
233
100
AcDbEntity
  8
2
370
    50
100
AcDbCircle
 10
-234.203914
 20
137.521843
 30
0.0
 40
17.9
100
AcDbArc
 50
113.238123
 51
186.761877
  0
ARC
  5
234
100
AcDbEntity
  8
2
370
    50
100
AcDbCircle
 10
-266.199223
 20
119.049343
 30
0.0
 40
17.9
100
AcDbArc
 50
53.238123
 51
126.761877
  0
ARC
  5
235
100
AcDbEntity
  8
2
370
    50
100
AcDbCircle
 10
-266.199223
 20
115.459843
 30
0.0
 40
20.2
100
AcDbArc
 50
59.552149
 51
120.447851
  0
ARC
  5
236
100
AcDbEntity
  8
2
370
    50
100
AcDbCircle
 10
-298.194531
 20
137.521843
 30
0.0
 40
17.9
100
AcDbArc
 50
353.238123
 51
66.761877
  0
ARC
  5
237
100
AcDbEntity
  8
2
370
    50
100
AcDbCircle
 10
-301.30313
 20
135.727093
 30
0.0
 40
20.2
100
AcDbArc
 50
359.552149
 51
60.447851
  0
ARC
  5
238
100
AcDbEntity
  8
2
370
    50
100
AcDbCircle
 10
-298.194531
 20
174.466843
 30
0.0
 40
17.9
100
AcDbArc
 50
293.238123
 51
6.761877
  0
ARC
  5
239
100
AcDbEntity
  8
2
370
    50
100
AcDbCircle
 10
-301.30313
 20
176.261593
 30
0.0
 40
20.2
100
AcDbArc
 50
299.552149
 51
0.447851
  0
ARC
  5
23A
100
AcDbEntity
  8
2
370
    50
100
AcDbCircle
 10
-266.199223
 20
155.994343
 30
0.0
 40
25.285
100
AcDbArc
 50
53.881225
 51
66.118775
  0
ARC
  5
23B
100
AcDbEntity
  8
2
370
    50
100
AcDbCircle
 10
-266.199223
 20
155.994343
 30
0.0
 40
25.285
100
AcDbArc
 50
353.881225
 51
6.118775
  0
ARC
  5
23C
100
AcDbEntity
  8
2
370
    50
100
AcDbCircle
 10
-266.199223
 20
155.994343
 30
0.0
 40
25.285
100
AcDbArc
 50
293.881225
 51
306.118775
  0
ARC
  5
23D
100
AcDbEntity
  8
2
370
    50
100
AcDbCircle
 10
-266.199223
 20
155.994343
 30
0.0
 40
25.285
100
AcDbArc
 50
233.881225
 51
246.118775
  0
ARC
  5
23E
100
AcDbEntity
  8
2
370
    50
100
AcDbCircle
 10
-266.199223
 20
155.994343
 30
0.0
 40
25.285
100
AcDbArc
 50
173.881225
 51
186.118775
  0
ARC
  5
23F
100
AcDbEntity
  8
2
370
    50
100
AcDbCircle
 10
-266.199223
 20
155.994343
 30
0.0
 40
25.285
100
AcDbArc
 50
113.881225
 51
126.118775
  0
ARC
  5
240
100
AcDbEntity
  8
2
370
    50
100
AcDbCircle
 10
-279.92252
 20
176.633319
 30
0.0
 40
0.5
100
AcDbArc
 50
123.620785
 51
186.761877
  0
ARC
  5
241
100
AcDbEntity
  8
2
370
    50
100
AcDbCircle
 10
-277.211451
 20
178.198555
 30
0.0
 40
0.5
100
AcDbArc
 50
53.238123
 51
116.379215
  0
ARC
  5
242
100
AcDbEntity
  8
2
370
    50
100
AcDbCircle
 10
-290.934749
 20
157.559579
 30
0.0
 40
0.5
100
AcDbArc
 50
113.238123
 51
180.0
  0
ARC
  5
243
100
AcDbEntity
  8
2
370
    50
100
AcDbCircle
 10
-290.934749
 20
154.429106
 30
0.0
 40
0.5
100
AcDbArc
 50
183.620785
 51
246.761877
  0
ARC
  5
244
100
AcDbEntity
  8
2
370
    50
100
AcDbCircle
 10
-279.92252
 20
135.355367
 30
0.0
 40
0.5
100
AcDbArc
 50
173.238123
 51
236.379215
  0
ARC
  5
245
100
AcDbEntity
  8
2
370
    50
100
AcDbCircle
 10
-277.211451
 20
133.79013
 30
0.0
 40
0.5
100
AcDbArc
 50
243.620785
 51
306.761877
  0
ARC
  5
246
100
AcDbEntity
  8
2
370
    50
100
AcDbCircle
 10
-255.186994
 20
133.79013
 30
0.0
 40
0.5
100
AcDbArc
 50
233.238123
 51
296.379215
  0
ARC
  5
247
100
AcDbEntity
  8
2
370
    50
100
AcDbCircle
 10
-252.475925
 20
135.355367
 30
0.0
 40
0.5
100
AcDbArc
 50
303.620785
 51
6.761877
  0
ARC
  5
248
100
AcDbEntity
  8
2
370
    50
100
AcDbCircle
 10
-241.463697
 20
154.429106
 30
0.0
 40
0.5
100
AcDbArc
 50
293.238123
 51
356.379215
  0
ARC
  5
249
100
AcDbEntity
  8
2
370
    50
100
AcDbCircle
 10
-241.463697
 20
157.559579
 30
0.0
 40
0.5
100
AcDbArc
 50
3.620785
 51
66.761877
  0
ARC
  5
24A
100
AcDbEntity
  8
2
370
    50
100
AcDbCircle
 10
-255.186994
 20
178.198555
 30
0.0
 40
0.5
100
AcDbArc
 50
63.620785
 51
126.761877
  0
ARC
  5
24B
100
AcDbEntity
  8
2
370
    50
100
AcDbCircle
 10
-252.475925
 20
176.633319
 30
0.0
 40
0.5
100
AcDbArc
 50
353.238123
 51
56.379215
  0
LINE
  5
24C
100
AcDbEntity
  8
2
370
    50
100
AcDbLine
 10
-183.183659
 20
167.994343
 30
0.0
 11
-183.699223
 21
167.994343
 31
0.0
  0
LINE
  5
24D
100
AcDbEntity
  8
2
370
    50
100
AcDbLine
 10
-209.949223
 20
118.442343
 30
0.0
 11
-209.949223
 21
125.494343
 31
0.0
  0
LINE
  5
24E
100
AcDbEntity
  8
2
370
    50
100
AcDbLine
 10
-183.221525
 20
118.442343
 30
0.0
 11
-214.176921
 21
118.442343
 31
0.0
  0
LINE
  5
24F
100
AcDbEntity
  8
2
370
    50
100
AcDbLine
 10
-187.271382
 20
84.442343
 30
0.0
 11
-208.870516
 21
84.442343
 31
0.0
  0
LINE
  5
250
100
AcDbEntity
  8
2
370
    50
100
AcDbLine
 10
-182.221768
 20
117.420289
 30
0.0
 11
-182.227169
 21
117.175432
 31
0.0
  0
LINE
  5
251
100
AcDbEntity
  8
2
370
    50
100
AcDbLine
 10
-215.176678
 20
117.420289
 30
0.0
 11
-214.625809
 21
92.447576
 31
0.0
  0
ARC
  5
252
100
AcDbEntity
  8
2
370
    50
100
AcDbCircle
 10
-183.221525
 20
117.442343
 30
0.0
 40
1.0
100
AcDbArc
 50
358.736327
 51
90.0
  0
ARC
  5
253
100
AcDbEntity
  8
2
370
    50
100
AcDbCircle
 10
-214.176921
 20
117.442343
 30
0.0
 40
1.0
100
AcDbArc
 50
90.0
 51
181.263673
  0
ARC
  5
254
100
AcDbEntity
  8
2
370
    50
100
AcDbCircle
 10
-205.627998
 20
92.646057
 30
0.0
 40
9.0
100
AcDbArc
 50
181.263673
 51
242.405115
  0
ARC
  5
255
100
AcDbEntity
  8
2
370
    50
100
AcDbCircle
 10
-208.870516
 20
86.442343
 30
0.0
 40
2.0
100
AcDbArc
 50
242.405115
 51
270.0
  0
LINE
  5
256
100
AcDbEntity
  8
2
370
    50
100
AcDbLine
 10
-164.939223
 20
89.942343
 30
0.0
 11
-164.939223
 21
92.656351
 31
0.0
  0
ARC
  5
257
100
AcDbEntity
  8
2
370
    50
100
AcDbCircle
 10
-189.939223
 20
92.656351
 30
0.0
 40
25.0
100
AcDbArc
 50
0.0
 51
70.423228
  0
ARC
  5
258
100
AcDbEntity
  8
2
370
    50
100
AcDbCircle
 10
-175.439223
 20
89.942343
 30
0.0
 40
10.5
100
AcDbArc
 50
224.184385
 51
360.0
  0
ARC
  5
259
100
AcDbEntity
  8
2
370
    50
100
AcDbCircle
 10
-187.271382
 20
78.442343
 30
0.0
 40
6.0
100
AcDbArc
 50
44.184385
 51
90.0
  0
ARC
  5
25A
100
AcDbEntity
  8
2
370
    50
100
AcDbCircle
 10
-181.227413
 20
117.153379
 30
0.0
 40
1.0
100
AcDbArc
 50
178.736327
 51
250.423228
  0
ARC
  5
25B
100
AcDbEntity
  8
2
370
    25
100
AcDbCircle
 10
-191.770448
 20
92.646057
 30
0.0
 40
9.0
100
AcDbArc
 50
314.019588
 51
358.736327
  0
LINE
  5
25C
100
AcDbEntity
  8
2
370
    25
100
AcDbLine
 10
-182.303817
 20
113.700744
 30
0.0
 11
-182.772637
 21
92.447576
 31
0.0
  0
LINE
  5
25D
100
AcDbEntity
  8
2
370
    50
100
AcDbLine
 10
-304.277223
 20
249.386134
 30
0.0
 11
-285.677223
 21
249.386134
 31
0.0
  0
LINE
  5
25E
100
AcDbEntity
  8
2
370
    50
100
AcDbLine
 10
-306.227223
 20
222.386134
 30
0.0
 11
-283.727223
 21
222.386134
 31
0.0
  0
LINE
  5
25F
100
AcDbEntity
  8
2
370
    25
100
AcDbLine
 10
-304.277223
 20
235.386134
 30
0.0
 11
-304.277223
 21
249.386134
 31
0.0
  0
LINE
  5
260
100
AcDbEntity
  8
2
370
    25
100
AcDbLine
 10
-285.677223
 20
235.386134
 30
0.0
 11
-285.677223
 21
249.386134
 31
0.0
  0
LINE
  5
261
100
AcDbEntity
  8
2
370
    50
100
AcDbLine
 10
-305.477223
 20
225.386134
 30
0.0
 11
-284.477223
 21
225.386134
 31
0.0
  0
LINE
  5
262
100
AcDbEntity
  8
2
370
    50
100
AcDbLine
 10
-285.677223
 20
225.386134
 30
0.0
 11
-284.477223
 21
223.307673
 31
0.0
  0
LINE
  5
263
100
AcDbEntity
  8
2
370
    50
100
AcDbLine
 10
-304.277223
 20
225.386134
 30
0.0
 11
-305.477223
 21
223.307673
 31
0.0
  0
LINE
  5
264
100
AcDbEntity
  8
2
370
    50
100
AcDbLine
 10
-285.677223
 20
249.386134
 30
0.0
 11
-284.477223
 21
248.186134
 31
0.0
  0
LINE
  5
265
100
AcDbEntity
  8
2
370
    50
100
AcDbLine
 10
-304.277223
 20
249.386134
 30
0.0
 11
-305.477223
 21
248.186134
 31
0.0
  0
LINE
  5
266
100
AcDbEntity
  8
2
370
    50
100
AcDbLine
 10
-305.477223
 20
248.186134
 30
0.0
 11
-284.477223
 21
248.186134
 31
0.0
  0
LINE
  5
267
100
AcDbEntity
  8
2
370
    50
100
AcDbLine
 10
-283.727223
 20
214.386134
 30
0.0
 11
-283.727223
 21
222.386134
 31
0.0
  0
LINE
  5
268
100
AcDbEntity
  8
2
370
    50
100
AcDbLine
 10
-306.227223
 20
200.386134
 30
0.0
 11
-306.227223
 21
222.386134
 31
0.0
  0
LINE
  5
269
100
AcDbEntity
  8
2
370
    50
100
AcDbLine
 10
-305.477223
 20
222.386134
 30
0.0
 11
-305.477223
 21
225.386134
 31
0.0
  0
LINE
  5
26A
100
AcDbEntity
  8
2
370
    50
100
AcDbLine
 10
-305.477223
 20
235.386134
 30
0.0
 11
-305.477223
 21
248.186134
 31
0.0
  0
LINE
  5
26B
100
AcDbEntity
  8
2
370
    50
100
AcDbLine
 10
-284.477223
 20
222.386134
 30
0.0
 11
-284.477223
 21
225.386134
 31
0.0
  0
LINE
  5
26C
100
AcDbEntity
  8
2
370
    50
100
AcDbLine
 10
-284.477223
 20
235.386134
 30
0.0
 11
-284.477223
 21
248.186134
 31
0.0
  0
LINE
  5
26D
100
AcDbEntity
  8
2
370
    50
100
AcDbLine
 10
-317.977223
 20
235.386134
 30
0.0
 11
-271.977223
 21
235.386134
 31
0.0
  0
LINE
  5
26E
100
AcDbEntity
  8
2
370
    50
100
AcDbLine
 10
-317.977223
 20
232.886134
 30
0.0
 11
-271.977223
 21
232.886134
 31
0.0
  0
LINE
  5
26F
100
AcDbEntity
  8
2
370
    50
100
AcDbLine
 10
-317.977223
 20
232.886134
 30
0.0
 11
-307.737996
 21
225.5724
 31
0.0
  0
LINE
  5
270
100
AcDbEntity
  8
2
370
    50
100
AcDbLine
 10
-271.977223
 20
232.886134
 30
0.0
 11
-282.21645
 21
225.5724
 31
0.0
  0
LINE
  5
271
100
AcDbEntity
  8
2
370
    50
100
AcDbLine
 10
-307.156758
 20
225.386134
 30
0.0
 11
-282.797688
 21
225.386134
 31
0.0
  0
ARC
  5
272
100
AcDbEntity
  8
2
370
    50
100
AcDbCircle
 10
-282.797688
 20
226.386134
 30
0.0
 40
1.0
100
AcDbArc
 50
270.0
 51
305.537678
  0
LINE
  5
273
100
AcDbEntity
  8
2
370
    50
100
AcDbLine
 10
-307.156758
 20
225.386134
 30
0.0
 11
-282.797688
 21
225.386134
 31
0.0
  0
LINE
  5
274
100
AcDbEntity
  8
2
370
    50
100
AcDbLine
 10
-271.977223
 20
235.386134
 30
0.0
 11
-271.977223
 21
232.886134
 31
0.0
  0
ARC
  5
275
100
AcDbEntity
  8
2
370
    50
100
AcDbCircle
 10
-307.156758
 20
226.386134
 30
0.0
 40
1.0
100
AcDbArc
 50
234.462322
 51
270.0
  0
LINE
  5
276
100
AcDbEntity
  8
2
370
    50
100
AcDbLine
 10
-317.977223
 20
235.386134
 30
0.0
 11
-317.977223
 21
232.886134
 31
0.0
  0
LINE
  5
277
100
AcDbEntity
  8
2
370
    50
100
AcDbLine
 10
-113.921223
 20
200.886134
 30
0.0
 11
-113.921223
 21
200.386134
 31
0.0
  0
LINE
  5
278
100
AcDbEntity
  8
2
370
    50
100
AcDbLine
 10
-113.421223
 20
200.886134
 30
0.0
 11
-113.421223
 21
197.122202
 31
0.0
  0
LINE
  5
279
100
AcDbEntity
  8
2
370
    50
100
AcDbLine
 10
-91.421223
 20
200.886134
 30
0.0
 11
-91.421223
 21
197.122202
 31
0.0
  0
ARC
  5
27A
100
AcDbEntity
  8
2
370
    50
100
AcDbCircle
 10
-107.421223
 20
194.886134
 30
0.0
 40
5.0
100
AcDbArc
 50
180.0
 51
270.0
  0
ARC
  5
27B
100
AcDbEntity
  8
2
370
    50
100
AcDbCircle
 10
-97.421223
 20
194.886134
 30
0.0
 40
5.0
100
AcDbArc
 50
270.0
 51
360.0
  0
ARC
  5
27C
100
AcDbEntity
  8
2
370
    50
100
AcDbCircle
 10
-110.421223
 20
197.122202
 30
0.0
 40
3.0
100
AcDbArc
 50
180.0
 51
228.189685
  0
LINE
  5
27D
100
AcDbEntity
  8
2
370
    50
100
AcDbLine
 10
-91.171223
 20
200.886134
 30
0.0
 11
-113.921223
 21
200.886134
 31
0.0
  0
LINE
  5
27E
100
AcDbEntity
  8
2
370
    50
100
AcDbLine
 10
-98.996223
 20
188.98421
 30
0.0
 11
-105.846223
 21
188.98421
 31
0.0
  0
LINE
  5
27F
100
AcDbEntity
  8
2
370
    50
100
AcDbLine
 10
-97.421223
 20
189.886134
 30
0.0
 11
-97.996223
 21
189.886134
 31
0.0
  0
LINE
  5
280
100
AcDbEntity
  8
2
370
    50
100
AcDbLine
 10
-107.421223
 20
189.886134
 30
0.0
 11
-98.001044
 21
189.886134
 31
0.0
  0
ARC
  5
281
100
AcDbEntity
  8
2
370
    50
100
AcDbCircle
 10
-105.846223
 20
189.98421
 30
0.0
 40
1.0
100
AcDbArc
 50
185.628401
 51
270.0
  0
ARC
  5
282
100
AcDbEntity
  8
2
370
    50
100
AcDbCircle
 10
-98.996223
 20
189.98421
 30
0.0
 40
1.0
100
AcDbArc
 50
270.0
 51
354.371599
  0
ARC
  5
283
100
AcDbEntity
  8
2
370
    50
100
AcDbCircle
 10
-94.421223
 20
197.122202
 30
0.0
 40
3.0
100
AcDbArc
 50
311.810315
 51
360.0
  0
LINE
  5
284
100
AcDbEntity
  8
2
370
    50
100
AcDbLine
 10
-107.171223
 20
200.886134
 30
0.0
 11
-107.171223
 21
194.886134
 31
0.0
  0
LINE
  5
285
100
AcDbEntity
  8
2
370
    50
100
AcDbLine
 10
-97.671223
 20
200.886134
 30
0.0
 11
-97.671223
 21
194.886134
 31
0.0
  0
LINE
  5
286
100
AcDbEntity
  8
2
370
    50
100
AcDbLine
 10
-112.421223
 20
194.886134
 30
0.0
 11
-92.421223
 21
194.886134
 31
0.0
  0
LINE
  5
287
100
AcDbEntity
  8
2
370
    50
100
AcDbLine
 10
-211.476692
 20
129.836126
 30
0.0
 11
-277.621069
 21
93.000302
 31
0.0
  0
LINE
  5
288
100
AcDbEntity
  8
2
370
    50
100
AcDbLine
 10
-216.721323
 20
145.000268
 30
0.0
 11
-283.201581
 21
107.97739
 31
0.0
  0
LWPOLYLINE
  5
289
100
AcDbEntity
  8
2
370
    50
100
AcDbPolyline
 90
       34
 70
     0
 10
-283.201581
 20
107.97739
 10
-282.886514
 20
107.824313
 10
-282.579901
 20
107.657463
 10
-282.284764
 20
107.475537
 10
-282.004123
 20
107.277229
 10
-281.740999
 20
107.061234
 10
-281.498413
 20
106.826248
 10
-281.293157
 20
106.589831
 10
-281.107006
 20
106.337473
 10
-280.938669
 20
106.07081
 10
-280.527595
 20
105.201325
 10
-280.230265
 20
104.261915
 10
-280.150394
 20
103.940865
 10
-280.077987
 20
103.618582
 10
-280.011749
 20
103.2967
 10
-279.918303
 20
102.796634
 10
-279.837073
 20
102.300218
 10
-279.768344
 20
101.806121
 10
-279.712401
 20
101.313014
 10
-279.66953
 20
100.819566
 10
-279.640015
 20
100.324448
 10
-279.624739
 20
99.889946
 10
-279.616155
 20
99.453729
 10
-279.610555
 20
99.016369
 10
-279.574573
 20
97.703148
 10
-279.431938
 20
96.400234
 10
-279.343386
 20
95.97089
 10
-279.228149
 20
95.544981
 10
-279.08252
 20
95.123077
 10
-278.873463
 20
94.644288
 10
-278.620963
 20
94.182097
 10
-278.326846
 20
93.747022
 10
-277.992939
 20
93.349584
 10
-277.621069
 20
93.000302
  0
POINT
  5
2AD
100
AcDbEntity
  8
2
370
    50
100
AcDbPoint
 10
-183.199223
 20
182.444343
 30
0.0
  0
LINE
  5
2AE
100
AcDbEntity
  8
2
370
    50
100
AcDbLine
 10
-198.63852
 20
170.244343
 30
0.0
 11
-198.699223
 21
170.244343
 31
0.0
  0
LINE
  5
2AF
100
AcDbEntity
  8
2
370
    50
100
AcDbLine
 10
-198.699223
 20
170.244343
 30
0.0
 11
-214.199223
 21
170.244343
 31
0.0
  0
LINE
  5
2B0
100
AcDbEntity
  8
2
370
    50
100
AcDbLine
 10
-183.199223
 20
182.444343
 30
0.0
 11
-198.699223
 21
182.444343
 31
0.0
  0
LINE
  5
2B1
100
AcDbEntity
  8
2
370
    50
100
AcDbLine
 10
-198.699223
 20
170.244343
 30
0.0
 11
-183.199223
 21
170.244343
 31
0.0
  0
ARC
  5
2B2
100
AcDbEntity
  8
2
370
    50
100
AcDbCircle
 10
-192.352911
 20
176.344343
 30
0.0
 40
11.0
100
AcDbArc
 50
326.320587
 51
33.679413
  0
ARC
  5
2B3
100
AcDbEntity
  8
2
370
    50
100
AcDbCircle
 10
-205.045535
 20
176.344343
 30
0.0
 40
11.0
100
AcDbArc
 50
146.320587
 51
213.679413
  0
ELLIPSE
  5
2B4
100
AcDbEntity
  8
2
370
    50
100
AcDbEllipse
 10
-198.699223
 20
176.344343
 30
0.0
 11
6.4470000000000001
 21
0.0
 31
0.0
210
0.0
220
0.0
230
1.0
 40
0.868621
 41
4.7123889999999999
 42
1.5707960000000001
  0
ELLIPSE
  5
2B5
100
AcDbEntity
  8
2
370
    50
100
AcDbEllipse
 10
-184.843113
 20
176.344343
 30
0.0
 11
0.0
 21
5.5999999999999996
 31
0.0
210
0.0
220
0.0
230
1.0
 40
0.575625
 41
0.0
 42
6.2831849999999996
  0
LINE
  5
2B6
100
AcDbEntity
  8
2
370
    50
100
AcDbLine
 10
-184.949223
 20
189.744343
 30
0.0
 11
-212.449223
 21
189.744343
 31
0.0
  0
LINE
  5
2B7
100
AcDbEntity
  8
2
370
    50
100
AcDbLine
 10
-184.449223
 20
189.244343
 30
0.0
 11
-184.449223
 21
182.444343
 31
0.0
  0
LINE
  5
2B8
100
AcDbEntity
  8
2
370
    50
100
AcDbLine
 10
-212.949223
 20
189.244343
 30
0.0
 11
-212.949223
 21
182.444343
 31
0.0
  0
LINE
  5
2B9
100
AcDbEntity
  8
2
370
    50
100
AcDbLine
 10
-184.949223
 20
189.744343
 30
0.0
 11
-184.449223
 21
189.244343
 31
0.0
  0
LINE
  5
2BA
100
AcDbEntity
  8
2
370
    50
100
AcDbLine
 10
-212.449223
 20
189.744343
 30
0.0
 11
-212.949223
 21
189.244343
 31
0.0
  0
LINE
  5
2BB
100
AcDbEntity
  8
2
370
    25
100
AcDbLine
 10
-184.449223
 20
189.244343
 30
0.0
 11
-198.699223
 21
189.244343
 31
0.0
  0
LINE
  5
2BC
100
AcDbEntity
  8
2
370
    50
100
AcDbLine
 10
-214.199223
 20
182.444343
 30
0.0
 11
-198.699223
 21
182.444343
 31
0.0
  0
ELLIPSE
  5
2BD
100
AcDbEntity
  8
2
370
    50
100
AcDbEllipse
 10
-198.699223
 20
176.344343
 30
0.0
 11
-6.4470000000000001
 21
0.0
 31
0.0
210
0.0
220
0.0
230
1.0
 40
0.868621
 41
4.7123889999999999
 42
1.5707960000000001
  0
ELLIPSE
  5
2BE
100
AcDbEntity
  8
2
370
    50
100
AcDbEllipse
 10
-212.555333
 20
176.344343
 30
0.0
 11
0.0
 21
5.5999999999999996
 31
0.0
210
0.0
220
0.0
230
1.0
 40
0.575625
 41
0.0
 42
6.2831849999999996
  0
LINE
  5
2BF
100
AcDbEntity
  8
2
370
    25
100
AcDbLine
 10
-212.949223
 20
189.244343
 30
0.0
 11
-198.699223
 21
189.244343
 31
0.0
  0
LINE
  5
2C0
100
AcDbEntity
  8
2
370
    50
100
AcDbLine
 10
-198.63852
 20
170.244343
 30
0.0
 11
-198.699223
 21
170.244343
 31
0.0
  0
LINE
  5
2C1
100
AcDbEntity
  8
2
370
    50
100
AcDbLine
 10
-198.699223
 20
170.244343
 30
0.0
 11
-214.199223
 21
170.244343
 31
0.0
  0
LINE
  5
2C2
100
AcDbEntity
  8
2
370
    50
100
AcDbLine
 10
-183.199223
 20
182.444343
 30
0.0
 11
-198.699223
 21
182.444343
 31
0.0
  0
LINE
  5
2C3
100
AcDbEntity
  8
2
370
    50
100
AcDbLine
 10
-198.699223
 20
170.244343
 30
0.0
 11
-183.199223
 21
170.244343
 31
0.0
  0
ARC
  5
2C4
100
AcDbEntity
  8
2
370
    50
100
AcDbCircle
 10
-192.352911
 20
176.344343
 30
0.0
 40
11.0
100
AcDbArc
 50
326.320587
 51
33.679413
  0
ARC
  5
2C5
100
AcDbEntity
  8
2
370
    50
100
AcDbCircle
 10
-205.045535
 20
176.344343
 30
0.0
 40
11.0
100
AcDbArc
 50
146.320587
 51
213.679413
  0
ELLIPSE
  5
2C6
100
AcDbEntity
  8
2
370
    50
100
AcDbEllipse
 10
-198.699223
 20
176.344343
 30
0.0
 11
6.4470000000000001
 21
0.0
 31
0.0
210
0.0
220
0.0
230
1.0
 40
0.868621
 41
4.7123889999999999
 42
1.5707960000000001
  0
ELLIPSE
  5
2C7
100
AcDbEntity
  8
2
370
    50
100
AcDbEllipse
 10
-184.843113
 20
176.344343
 30
0.0
 11
0.0
 21
5.5999999999999996
 31
0.0
210
0.0
220
0.0
230
1.0
 40
0.575625
 41
0.0
 42
6.2831849999999996
  0
LINE
  5
2C8
100
AcDbEntity
  8
2
370
    50
100
AcDbLine
 10
-184.949223
 20
189.744343
 30
0.0
 11
-212.449223
 21
189.744343
 31
0.0
  0
LINE
  5
2C9
100
AcDbEntity
  8
2
370
    50
100
AcDbLine
 10
-184.449223
 20
189.244343
 30
0.0
 11
-184.449223
 21
182.444343
 31
0.0
  0
LINE
  5
2CA
100
AcDbEntity
  8
2
370
    50
100
AcDbLine
 10
-212.949223
 20
189.244343
 30
0.0
 11
-212.949223
 21
182.444343
 31
0.0
  0
LINE
  5
2CB
100
AcDbEntity
  8
2
370
    50
100
AcDbLine
 10
-184.949223
 20
189.744343
 30
0.0
 11
-184.449223
 21
189.244343
 31
0.0
  0
LINE
  5
2CC
100
AcDbEntity
  8
2
370
    50
100
AcDbLine
 10
-212.449223
 20
189.744343
 30
0.0
 11
-212.949223
 21
189.244343
 31
0.0
  0
LINE
  5
2CD
100
AcDbEntity
  8
2
370
    25
100
AcDbLine
 10
-184.449223
 20
189.244343
 30
0.0
 11
-198.699223
 21
189.244343
 31
0.0
  0
LINE
  5
2CE
100
AcDbEntity
  8
2
370
    50
100
AcDbLine
 10
-214.199223
 20
182.444343
 30
0.0
 11
-198.699223
 21
182.444343
 31
0.0
  0
ELLIPSE
  5
2CF
100
AcDbEntity
  8
2
370
    50
100
AcDbEllipse
 10
-198.699223
 20
176.344343
 30
0.0
 11
-6.4470000000000001
 21
0.0
 31
0.0
210
0.0
220
0.0
230
1.0
 40
0.868621
 41
4.7123889999999999
 42
1.5707960000000001
  0
ELLIPSE
  5
2D0
100
AcDbEntity
  8
2
370
    50
100
AcDbEllipse
 10
-212.555333
 20
176.344343
 30
0.0
 11
0.0
 21
5.5999999999999996
 31
0.0
210
0.0
220
0.0
230
1.0
 40
0.575625
 41
0.0
 42
6.2831849999999996
  0
LINE
  5
2D1
100
AcDbEntity
  8
2
370
    25
100
AcDbLine
 10
-212.949223
 20
189.244343
 30
0.0
 11
-198.699223
 21
189.244343
 31
0.0
  0
LINE
  5
2D2
100
AcDbEntity
  8
2
370
    50
100
AcDbLine
 10
-209.499223
 20
189.744343
 30
0.0
 11
-209.499223
 21
206.244343
 31
0.0
  0
LINE
  5
2D3
100
AcDbEntity
  8
2
370
    50
100
AcDbLine
 10
-187.899223
 20
189.744343
 30
0.0
 11
-187.899223
 21
206.244343
 31
0.0
  0
ARC
  5
2D4
100
AcDbEntity
  8
2
370
    50
100
AcDbCircle
 10
-198.699223
 20
206.244343
 30
0.0
 40
10.8
100
AcDbArc
 50
0.0
 51
180.0
  0
ARC
  5
2D5
100
AcDbEntity
  8
2
370
    50
100
AcDbCircle
 10
-198.699223
 20
206.244343
 30
0.0
 40
11.5
100
AcDbArc
 50
339.906033
 51
200.093967
  0
LINE
  5
2D6
100
AcDbEntity
  8
2
370
    50
100
AcDbLine
 10
210.226587
 20
-79.866289
 30
0.0
 11
210.226587
 21
-78.616289
 31
0.0
  0
LINE
  5
2D7
100
AcDbEntity
  8
2
370
    50
100
AcDbLine
 10
253.821161
 20
-52.366289
 30
0.0
 11
255.026587
 21
-52.366289
 31
0.0
  0
LINE
  5
2D8
100
AcDbEntity
  8
2
370
    50
100
AcDbLine
 10
255.026587
 20
-82.366289
 30
0.0
 11
252.726587
 21
-82.366289
 31
0.0
  0
LINE
  5
2D9
100
AcDbEntity
  8
2
370
    50
100
AcDbLine
 10
252.431315
 20
-82.866289
 30
0.0
 11
252.726587
 21
-82.866289
 31
0.0
  0
LINE
  5
2DA
100
AcDbEntity
  8
2
370
    50
100
AcDbLine
 10
252.726587
 20
-82.366289
 30
0.0
 11
252.726587
 21
-79.959573
 31
0.0
  0
LINE
  5
2DB
100
AcDbEntity
  8
2
370
    50
100
AcDbLine
 10
252.726587
 20
-82.866289
 30
0.0
 11
252.726587
 21
-82.366289
 31
0.0
  0
LINE
  5
2DC
100
AcDbEntity
  8
2
370
    25
100
AcDbLine
 10
254.726587
 20
-52.966289
 30
0.0
 11
255.026587
 21
-52.966289
 31
0.0
  0
LINE
  5
2DD
100
AcDbEntity
  8
2
370
    25
100
AcDbLine
 10
255.026587
 20
-81.766289
 30
0.0
 11
254.726587
 21
-81.766289
 31
0.0
  0
LINE
  5
2DE
100
AcDbEntity
  8
2
370
    50
100
AcDbLine
 10
254.726587
 20
-52.966289
 30
0.0
 11
254.126587
 21
-52.366289
 31
0.0
  0
LINE
  5
2DF
100
AcDbEntity
  8
2
370
    50
100
AcDbLine
 10
254.726587
 20
-81.766289
 30
0.0
 11
254.126587
 21
-82.366289
 31
0.0
  0
LINE
  5
2E0
100
AcDbEntity
  8
2
370
    50
100
AcDbLine
 10
243.726587
 20
-88.766289
 30
0.0
 11
243.726587
 21
-87.366289
 31
0.0
  0
ARC
  5
2E1
100
AcDbEntity
  8
2
370
    50
100
AcDbCircle
 10
252.578951
 20
-92.865199
 30
0.0
 40
10.0
100
AcDbArc
 50
89.154078
 51
146.640464
  0
LINE
  5
2E2
100
AcDbEntity
  8
2
370
    50
100
AcDbLine
 10
243.726587
 20
-87.366289
 30
0.0
 11
244.226587
 21
-87.366289
 31
0.0
  0
LINE
  5
2E3
100
AcDbEntity
  8
2
370
    50
100
AcDbLine
 10
217.226587
 20
-87.366289
 30
0.0
 11
243.726587
 21
-87.366289
 31
0.0
  0
ARC
  5
2E4
100
AcDbEntity
  8
2
370
    50
100
AcDbCircle
 10
207.451104
 20
-89.473406
 30
0.0
 40
10.0
100
AcDbArc
 50
12.164063
 51
73.886069
  0
LINE
  5
2E5
100
AcDbEntity
  8
2
370
    50
100
AcDbLine
 10
254.726587
 20
-52.966289
 30
0.0
 11
254.726587
 21
-54.580568
 31
0.0
  0
LINE
  5
2E6
100
AcDbEntity
  8
2
370
    50
100
AcDbLine
 10
217.726587
 20
-88.766289
 30
0.0
 11
243.726587
 21
-88.766289
 31
0.0
  0
LINE
  5
2E7
100
AcDbEntity
  8
2
370
    50
100
AcDbLine
 10
255.026587
 20
-67.426992
 30
0.0
 11
255.026587
 21
-67.366289
 31
0.0
  0
LINE
  5
2E8
100
AcDbEntity
  8
2
370
    50
100
AcDbLine
 10
267.226587
 20
-82.866289
 30
0.0
 11
267.226587
 21
-82.616289
 31
0.0
  0
LINE
  5
2E9
100
AcDbEntity
  8
2
370
    50
100
AcDbLine
 10
255.026587
 20
-79.959573
 30
0.0
 11
255.026587
 21
-82.866289
 31
0.0
  0
ARC
  5
2EA
100
AcDbEntity
  8
2
370
    50
100
AcDbCircle
 10
261.126587
 20
-73.712601
 30
0.0
 40
11.0
100
AcDbArc
 50
236.320587
 51
303.679413
  0
LINE
  5
2EB
100
AcDbEntity
  8
2
370
    50
100
AcDbLine
 10
274.526587
 20
-81.116289
 30
0.0
 11
274.526587
 21
-80.366289
 31
0.0
  0
LINE
  5
2EC
100
AcDbEntity
  8
2
370
    50
100
AcDbLine
 10
274.026587
 20
-81.616289
 30
0.0
 11
273.648343
 21
-81.616289
 31
0.0
  0
LINE
  5
2ED
100
AcDbEntity
  8
2
370
    50
100
AcDbLine
 10
274.526587
 20
-81.116289
 30
0.0
 11
274.026587
 21
-81.616289
 31
0.0
  0
LINE
  5
2EE
100
AcDbEntity
  8
2
370
    25
100
AcDbLine
 10
274.026587
 20
-81.616289
 30
0.0
 11
274.026587
 21
-81.010796
 31
0.0
  0
LINE
  5
2EF
100
AcDbEntity
  8
2
370
    50
100
AcDbLine
 10
267.226587
 20
-51.866289
 30
0.0
 11
267.226587
 21
-52.116289
 31
0.0
  0
LINE
  5
2F0
100
AcDbEntity
  8
2
370
    50
100
AcDbLine
 10
255.026587
 20
-54.773006
 30
0.0
 11
255.026587
 21
-51.866289
 31
0.0
  0
ARC
  5
2F1
100
AcDbEntity
  8
2
370
    50
100
AcDbCircle
 10
261.126587
 20
-61.019977
 30
0.0
 40
11.0
100
AcDbArc
 50
56.320587
 51
123.679413
  0
LINE
  5
2F2
100
AcDbEntity
  8
2
370
    50
100
AcDbLine
 10
274.526587
 20
-53.616289
 30
0.0
 11
274.526587
 21
-54.366289
 31
0.0
  0
LINE
  5
2F3
100
AcDbEntity
  8
2
370
    50
100
AcDbLine
 10
274.026587
 20
-53.116289
 30
0.0
 11
273.648343
 21
-53.116289
 31
0.0
  0
LINE
  5
2F4
100
AcDbEntity
  8
2
370
    50
100
AcDbLine
 10
274.526587
 20
-53.616289
 30
0.0
 11
274.026587
 21
-53.116289
 31
0.0
  0
LINE
  5
2F5
100
AcDbEntity
  8
2
370
    25
100
AcDbLine
 10
274.026587
 20
-53.116289
 30
0.0
 11
274.026587
 21
-53.721782
 31
0.0
  0
LINE
  5
2F6
100
AcDbEntity
  8
2
370
    50
100
AcDbLine
 10
279.526587
 20
-83.066289
 30
0.0
 11
279.526587
 21
-90.616289
 31
0.0
  0
LINE
  5
2F7
100
AcDbEntity
  8
2
370
    50
100
AcDbLine
 10
302.526587
 20
-83.066289
 30
0.0
 11
302.526587
 21
-84.400289
 31
0.0
  0
LINE
  5
2F8
100
AcDbEntity
  8
2
370
    25
100
AcDbLine
 10
301.776587
 20
-82.366289
 30
0.0
 11
301.826587
 21
-82.366289
 31
0.0
  0
LINE
  5
2F9
100
AcDbEntity
  8
2
370
    25
100
AcDbLine
 10
301.776587
 20
-82.366289
 30
0.0
 11
301.776587
 21
-84.400289
 31
0.0
  0
LINE
  5
2FA
100
AcDbEntity
  8
2
370
    25
100
AcDbLine
 10
280.276587
 20
-82.366289
 30
0.0
 11
280.276587
 21
-91.366289
 31
0.0
  0
LINE
  5
2FB
100
AcDbEntity
  8
2
370
    50
100
AcDbLine
 10
301.826587
 20
-71.766289
 30
0.0
 11
301.826587
 21
-82.366289
 31
0.0
  0
LINE
  5
2FC
100
AcDbEntity
  8
2
370
    50
100
AcDbLine
 10
280.226587
 20
-80.366289
 30
0.0
 11
280.226587
 21
-82.366289
 31
0.0
  0
LINE
  5
2FD
100
AcDbEntity
  8
2
370
    50
100
AcDbLine
 10
301.826587
 20
-82.366289
 30
0.0
 11
302.526587
 21
-83.066289
 31
0.0
  0
LINE
  5
2FE
100
AcDbEntity
  8
2
370
    50
100
AcDbLine
 10
280.226587
 20
-82.366289
 30
0.0
 11
279.526587
 21
-83.066289
 31
0.0
  0
ARC
  5
2FF
100
AcDbEntity
  8
2
370
    50
100
AcDbCircle
 10
286.826587
 20
-71.766289
 30
0.0
 40
15.0
100
AcDbArc
 50
0.0
 51
55.306513
  0
LINE
  5
300
100
AcDbEntity
  8
2
370
    25
  6
CENTER
100
AcDbLine
 10
230.726587
 20
-84.582086
 30
0.0
 11
230.726587
 21
-101.917818
 31
0.0
  0
POINT
  5
301
100
AcDbEntity
  8
2
370
    50
100
AcDbPoint
 10
230.726587
 20
-88.766289
 30
0.0
  0
LINE
  5
302
100
AcDbEntity
  8
2
370
    50
100
AcDbLine
 10
53.276243
 20
-162.690289
 30
0.0
 11
52.976243
 21
-162.690289
 31
0.0
  0
ARC
  5
303
100
AcDbEntity
  8
2
370
    50
100
AcDbCircle
 10
200.826587
 20
-99.790289
 30
0.0
 40
22.0
100
AcDbArc
 50
270.0
 51
2.667822
  0
ARC
  5
304
100
AcDbEntity
  8
2
370
    50
100
AcDbCircle
 10
90.626243
 20
-159.590289
 30
0.0
 40
22.0
100
AcDbArc
 50
90.0
 51
175.045556
  0
ARC
  5
305
100
AcDbEntity
  8
2
370
    50
100
AcDbCircle
 10
200.826587
 20
-99.790289
 30
0.0
 40
37.8
100
AcDbArc
 50
270.0
 51
1.55233
  0
ARC
  5
306
100
AcDbEntity
  8
2
370
    50
100
AcDbCircle
 10
90.626243
 20
-159.590289
 30
0.0
 40
37.8
100
AcDbArc
 50
90.0
 51
177.118839
  0
ARC
  5
307
100
AcDbEntity
  8
2
370
    50
100
AcDbCircle
 10
65.545536
 20
-160.138967
 30
0.0
 40
4.0
100
AcDbArc
 50
320.369767
 51
37.74654
  0
LINE
  5
308
100
AcDbEntity
  8
2
370
    50
100
AcDbLine
 10
68.708442
 20
-157.690289
 30
0.0
 11
52.874025
 21
-157.690289
 31
0.0
  0
ARC
  5
309
100
AcDbEntity
  8
2
370
    50
100
AcDbCircle
 10
56.046562
 20
-160.126476
 30
0.0
 40
4.0
100
AcDbArc
 50
142.479401
 51
219.862948
  0
LINE
  5
30A
100
AcDbEntity
  8
2
370
    50
100
AcDbLine
 10
53.276243
 20
-162.690289
 30
0.0
 11
68.626243
 21
-162.690289
 31
0.0
  0
LINE
  5
30B
100
AcDbEntity
  8
2
370
    50
100
AcDbLine
 10
246.126587
 20
-90.766289
 30
0.0
 11
246.126587
 21
-93.766289
 31
0.0
  0
LINE
  5
30C
100
AcDbEntity
  8
2
370
    50
100
AcDbLine
 10
215.326587
 20
-90.766289
 30
0.0
 11
215.326587
 21
-93.766289
 31
0.0
  0
ARC
  5
30D
100
AcDbEntity
  8
2
370
    50
100
AcDbCircle
 10
241.126587
 20
-93.766289
 30
0.0
 40
5.0
100
AcDbArc
 50
270.0
 51
360.0
  0
ARC
  5
30E
100
AcDbEntity
  8
2
370
    50
100
AcDbCircle
 10
244.126587
 20
-90.766289
 30
0.0
 40
2.0
100
AcDbArc
 50
0.0
 51
90.0
  0
LINE
  5
30F
100
AcDbEntity
  8
2
370
    50
100
AcDbLine
 10
217.326587
 20
-88.766289
 30
0.0
 11
244.126587
 21
-88.766289
 31
0.0
  0
ARC
  5
310
100
AcDbEntity
  8
2
370
    50
100
AcDbCircle
 10
217.326587
 20
-90.766289
 30
0.0
 40
2.0
100
AcDbArc
 50
90.0
 51
180.0
  0
ARC
  5
311
100
AcDbEntity
  8
2
370
    50
100
AcDbCircle
 10
220.326587
 20
-93.766289
 30
0.0
 40
5.0
100
AcDbArc
 50
180.0
 51
270.0
  0
LINE
  5
312
100
AcDbEntity
  8
2
370
    50
100
AcDbLine
 10
241.126587
 20
-98.766289
 30
0.0
 11
220.326587
 21
-98.766289
 31
0.0
  0
LINE
  5
313
100
AcDbEntity
  8
2
370
    50
100
AcDbLine
 10
239.426587
 20
-93.766289
 30
0.0
 11
237.426587
 21
-93.766289
 31
0.0
  0
LINE
  5
314
100
AcDbEntity
  8
2
370
    50
100
AcDbLine
 10
239.426587
 20
-90.766289
 30
0.0
 11
237.426587
 21
-90.766289
 31
0.0
  0
LINE
  5
315
100
AcDbEntity
  8
2
370
    50
100
AcDbLine
 10
239.426587
 20
-90.766289
 30
0.0
 11
239.426587
 21
-93.766289
 31
0.0
  0
LINE
  5
316
100
AcDbEntity
  8
2
370
    50
100
AcDbLine
 10
237.426587
 20
-90.766289
 30
0.0
 11
237.426587
 21
-93.766289
 31
0.0
  0
ARC
  5
317
100
AcDbEntity
  8
2
370
    50
100
AcDbCircle
 10
230.726587
 20
-100.988789
 30
0.0
 40
12.2225
100
AcDbArc
 50
56.758486
 51
123.241514
  0
ARC
  5
318
100
AcDbEntity
  8
2
370
    50
100
AcDbCircle
 10
244.126587
 20
-93.766289
 30
0.0
 40
2.0
100
AcDbArc
 50
270.0
 51
360.0
  0
ARC
  5
319
100
AcDbEntity
  8
2
370
    50
100
AcDbCircle
 10
230.726587
 20
-83.543789
 30
0.0
 40
12.2225
100
AcDbArc
 50
236.758486
 51
303.241514
  0
LINE
  5
31A
100
AcDbEntity
  8
2
370
    50
100
AcDbLine
 10
244.126587
 20
-95.766289
 30
0.0
 11
242.086836
 21
-95.766289
 31
0.0
  0
ARC
  5
31B
100
AcDbEntity
  8
2
370
    50
100
AcDbCircle
 10
242.256711
 20
-92.771103
 30
0.0
 40
3.0
100
AcDbArc
 50
199.373743
 51
266.753878
  0
ARC
  5
31C
100
AcDbEntity
  8
2
370
    50
100
AcDbCircle
 10
242.256711
 20
-91.761476
 30
0.0
 40
3.0
100
AcDbArc
 50
93.246122
 51
160.626257
  0
LINE
  5
31D
100
AcDbEntity
  8
2
370
    50
100
AcDbLine
 10
200.826587
 20
-137.590289
 30
0.0
 11
90.626243
 21
-137.590289
 31
0.0
  0
LINE
  5
31E
100
AcDbEntity
  8
2
370
    50
100
AcDbLine
 10
200.826569
 20
-121.790289
 30
0.0
 11
90.626243
 21
-121.790289
 31
0.0
  0
POINT
  5
31F
100
AcDbEntity
  8
2
370
    50
100
AcDbPoint
 10
60.726243
 20
-162.690289
 30
0.0
  0
LINE
  5
320
100
AcDbEntity
  8
2
370
    50
100
AcDbLine
 10
222.026587
 20
-90.766289
 30
0.0
 11
224.026587
 21
-90.766289
 31
0.0
  0
LINE
  5
321
100
AcDbEntity
  8
2
370
    50
100
AcDbLine
 10
224.026587
 20
-90.766289
 30
0.0
 11
224.026587
 21
-93.766289
 31
0.0
  0
LINE
  5
322
100
AcDbEntity
  8
2
370
    50
100
AcDbLine
 10
222.026587
 20
-93.766289
 30
0.0
 11
224.026587
 21
-93.766289
 31
0.0
  0
LINE
  5
323
100
AcDbEntity
  8
2
370
    50
100
AcDbLine
 10
222.026587
 20
-90.766289
 30
0.0
 11
222.026587
 21
-93.766289
 31
0.0
  0
ARC
  5
324
100
AcDbEntity
  8
2
370
    50
100
AcDbCircle
 10
219.196463
 20
-91.761476
 30
0.0
 40
3.0
100
AcDbArc
 50
19.373743
 51
86.753878
  0
ARC
  5
325
100
AcDbEntity
  8
2
370
    50
100
AcDbCircle
 10
219.196463
 20
-92.771103
 30
0.0
 40
3.0
100
AcDbArc
 50
273.246122
 51
340.626257
  0
ARC
  5
326
100
AcDbEntity
  8
2
370
    50
100
AcDbCircle
 10
217.326587
 20
-93.766289
 30
0.0
 40
2.0
100
AcDbArc
 50
180.0
 51
270.0
  0
ARC
  5
327
100
AcDbEntity
  8
2
370
    50
100
AcDbCircle
 10
217.326587
 20
-93.766289
 30
0.0
 40
2.0
100
AcDbArc
 50
180.0
 51
270.0
  0
LINE
  5
328
100
AcDbEntity
  8
2
370
    50
100
AcDbLine
 10
217.326587
 20
-95.766289
 30
0.0
 11
219.366338
 21
-95.766289
 31
0.0
  0
LINE
  5
329
100
AcDbEntity
  8
2
370
    50
100
AcDbLine
 10
217.726587
 20
-88.766289
 30
0.0
 11
217.726587
 21
-87.366289
 31
0.0
  0
ELLIPSE
  5
32A
100
AcDbEntity
  8
2
370
    50
100
AcDbEllipse
 10
261.126587
 20
-53.510179
 30
0.0
 11
5.5999999999999996
 21
0.0
 31
0.0
210
0.0
220
0.0
230
1.0
 40
0.575625
 41
0.44717
 42
3.5441319999999998
  0
ELLIPSE
  5
32B
100
AcDbEntity
  8
2
370
    50
100
AcDbEllipse
 10
261.126587
 20
-81.222399
 30
0.0
 11
5.5999999999999996
 21
0.0
 31
0.0
210
0.0
220
0.0
230
1.0
 40
0.575625
 41
2.7390530000000002
 42
5.8360159999999999
  0
LINE
  5
32C
100
AcDbEntity
  8
2
370
    25
100
AcDbLine
 10
280.226587
 20
-82.366289
 30
0.0
 11
281.364378
 21
-82.366289
 31
0.0
  0
LINE
  5
32D
100
AcDbEntity
  8
2
370
    25
100
AcDbLine
 10
295.364378
 20
-82.366289
 30
0.0
 11
301.776587
 21
-82.366289
 31
0.0
  0
LINE
  5
32E
100
AcDbEntity
  8
2
370
    50
100
AcDbLine
 10
279.526587
 20
-83.066289
 30
0.0
 11
281.364378
 21
-83.066289
 31
0.0
  0
LINE
  5
32F
100
AcDbEntity
  8
2
370
    50
100
AcDbLine
 10
295.364378
 20
-83.066289
 30
0.0
 11
302.526587
 21
-83.066289
 31
0.0
  0
POINT
  5
330
100
AcDbEntity
  8
2
370
    50
100
AcDbPoint
 10
230.726587
 20
-98.766289
 30
0.0
  0
POINT
  5
331
100
AcDbEntity
  8
2
370
    50
100
AcDbPoint
 10
-198.698822
 20
-98.766289
 30
0.0
  0
LINE
  5
332
100
AcDbEntity
  8
2
370
    50
100
AcDbLine
 10
-185.698822
 20
-88.766289
 30
0.0
 11
-185.698822
 21
-87.366289
 31
0.0
  0
LINE
  5
333
100
AcDbEntity
  8
2
370
    50
100
AcDbLine
 10
-185.698822
 20
-87.366289
 30
0.0
 11
-185.601287
 21
-87.366289
 31
0.0
  0
LINE
  5
334
100
AcDbEntity
  8
2
370
    50
100
AcDbLine
 10
-211.797159
 20
-87.366289
 30
0.0
 11
-185.698822
 21
-87.366289
 31
0.0
  0
LINE
  5
335
100
AcDbEntity
  8
2
370
    50
100
AcDbLine
 10
-211.698822
 20
-88.766289
 30
0.0
 11
-185.698822
 21
-88.766289
 31
0.0
  0
LINE
  5
336
100
AcDbEntity
  8
2
370
    50
100
AcDbLine
 10
-183.298822
 20
-90.766289
 30
0.0
 11
-183.298822
 21
-93.766289
 31
0.0
  0
LINE
  5
337
100
AcDbEntity
  8
2
370
    50
100
AcDbLine
 10
-214.098822
 20
-90.766289
 30
0.0
 11
-214.098822
 21
-93.766289
 31
0.0
  0
ARC
  5
338
100
AcDbEntity
  8
2
370
    50
100
AcDbCircle
 10
-188.298822
 20
-93.766289
 30
0.0
 40
5.0
100
AcDbArc
 50
270.0
 51
360.0
  0
ARC
  5
339
100
AcDbEntity
  8
2
370
    50
100
AcDbCircle
 10
-185.298822
 20
-90.766289
 30
0.0
 40
2.0
100
AcDbArc
 50
0.0
 51
90.0
  0
LINE
  5
33A
100
AcDbEntity
  8
2
370
    50
100
AcDbLine
 10
-212.098822
 20
-88.766289
 30
0.0
 11
-185.298822
 21
-88.766289
 31
0.0
  0
ARC
  5
33B
100
AcDbEntity
  8
2
370
    50
100
AcDbCircle
 10
-212.098822
 20
-90.766289
 30
0.0
 40
2.0
100
AcDbArc
 50
90.0
 51
180.0
  0
ARC
  5
33C
100
AcDbEntity
  8
2
370
    50
100
AcDbCircle
 10
-209.098822
 20
-93.766289
 30
0.0
 40
5.0
100
AcDbArc
 50
180.0
 51
270.0
  0
LINE
  5
33D
100
AcDbEntity
  8
2
370
    50
100
AcDbLine
 10
-188.298822
 20
-98.766289
 30
0.0
 11
-209.098822
 21
-98.766289
 31
0.0
  0
LINE
  5
33E
100
AcDbEntity
  8
2
370
    50
100
AcDbLine
 10
-189.998822
 20
-93.766289
 30
0.0
 11
-191.998822
 21
-93.766289
 31
0.0
  0
LINE
  5
33F
100
AcDbEntity
  8
2
370
    50
100
AcDbLine
 10
-189.998822
 20
-90.766289
 30
0.0
 11
-191.998822
 21
-90.766289
 31
0.0
  0
LINE
  5
340
100
AcDbEntity
  8
2
370
    50
100
AcDbLine
 10
-189.998822
 20
-90.766289
 30
0.0
 11
-189.998822
 21
-93.766289
 31
0.0
  0
LINE
  5
341
100
AcDbEntity
  8
2
370
    50
100
AcDbLine
 10
-191.998822
 20
-90.766289
 30
0.0
 11
-191.998822
 21
-93.766289
 31
0.0
  0
ARC
  5
342
100
AcDbEntity
  8
2
370
    50
100
AcDbCircle
 10
-198.698822
 20
-100.988789
 30
0.0
 40
12.2225
100
AcDbArc
 50
56.758486
 51
123.241514
  0
ARC
  5
343
100
AcDbEntity
  8
2
370
    50
100
AcDbCircle
 10
-185.298822
 20
-93.766289
 30
0.0
 40
2.0
100
AcDbArc
 50
270.0
 51
360.0
  0
ARC
  5
344
100
AcDbEntity
  8
2
370
    50
100
AcDbCircle
 10
-198.698822
 20
-83.543789
 30
0.0
 40
12.2225
100
AcDbArc
 50
236.758486
 51
303.241514
  0
LINE
  5
345
100
AcDbEntity
  8
2
370
    50
100
AcDbLine
 10
-185.298822
 20
-95.766289
 30
0.0
 11
-187.338573
 21
-95.766289
 31
0.0
  0
ARC
  5
346
100
AcDbEntity
  8
2
370
    50
100
AcDbCircle
 10
-187.168697
 20
-92.771103
 30
0.0
 40
3.0
100
AcDbArc
 50
199.373743
 51
266.753878
  0
ARC
  5
347
100
AcDbEntity
  8
2
370
    50
100
AcDbCircle
 10
-187.168697
 20
-91.761476
 30
0.0
 40
3.0
100
AcDbArc
 50
93.246122
 51
160.626257
  0
LINE
  5
348
100
AcDbEntity
  8
2
370
    50
100
AcDbLine
 10
-207.398822
 20
-90.766289
 30
0.0
 11
-205.398822
 21
-90.766289
 31
0.0
  0
LINE
  5
349
100
AcDbEntity
  8
2
370
    50
100
AcDbLine
 10
-205.398822
 20
-90.766289
 30
0.0
 11
-205.398822
 21
-93.766289
 31
0.0
  0
LINE
  5
34A
100
AcDbEntity
  8
2
370
    50
100
AcDbLine
 10
-207.398822
 20
-93.766289
 30
0.0
 11
-205.398822
 21
-93.766289
 31
0.0
  0
LINE
  5
34B
100
AcDbEntity
  8
2
370
    50
100
AcDbLine
 10
-207.398822
 20
-90.766289
 30
0.0
 11
-207.398822
 21
-93.766289
 31
0.0
  0
ARC
  5
34C
100
AcDbEntity
  8
2
370
    50
100
AcDbCircle
 10
-210.228946
 20
-91.761476
 30
0.0
 40
3.0
100
AcDbArc
 50
19.373743
 51
86.753878
  0
ARC
  5
34D
100
AcDbEntity
  8
2
370
    50
100
AcDbCircle
 10
-210.228946
 20
-92.771103
 30
0.0
 40
3.0
100
AcDbArc
 50
273.246122
 51
340.626257
  0
ARC
  5
34E
100
AcDbEntity
  8
2
370
    50
100
AcDbCircle
 10
-212.098822
 20
-93.766289
 30
0.0
 40
2.0
100
AcDbArc
 50
180.0
 51
270.0
  0
ARC
  5
34F
100
AcDbEntity
  8
2
370
    50
100
AcDbCircle
 10
-212.098822
 20
-93.766289
 30
0.0
 40
2.0
100
AcDbArc
 50
180.0
 51
270.0
  0
LINE
  5
350
100
AcDbEntity
  8
2
370
    50
100
AcDbLine
 10
-212.098822
 20
-95.766289
 30
0.0
 11
-210.05907
 21
-95.766289
 31
0.0
  0
LINE
  5
351
100
AcDbEntity
  8
2
370
    50
100
AcDbLine
 10
-211.698822
 20
-88.766289
 30
0.0
 11
-211.698822
 21
-87.366289
 31
0.0
  0
TEXT
  5
352
100
AcDbEntity
  8
3
370
    50
100
AcDbText
 10
233.540939
 20
-272.074585
 30
0.0
 40
6.0
  1
外観寸法図
 72
     5
 11
262.340939
 21
-272.074585
 31
0.0
100
AcDbText
  0
TEXT
  5
353
100
AcDbEntity
  8
3
370
    50
100
AcDbText
 10
329.488525
 20
-59.910968
 30
0.0
 40
7.0
  1
ＰＪ１／２
 72
     5
 11
363.088525
 21
-59.910968
 31
0.0
100
AcDbText
  0
LWPOLYLINE
  5
354
100
AcDbEntity
  8
3
370
    25
100
AcDbPolyline
 90
        3
 70
     0
 10
320.456268
 20
-85.410767
 10
326.477783
 20
-61.415739
 10
365.617584
 20
-61.415739
  0
LINE
  5
359
100
AcDbEntity
  8
3
370
    25
100
AcDbLine
 10
321.396699
 20
-81.663262
 30
0.0
 11
320.392558
 21
-81.411274
 31
0.0
  0
LINE
  5
35A
100
AcDbEntity
  8
3
370
    25
100
AcDbLine
 10
320.392558
 20
-81.411274
 30
0.0
 11
320.456268
 21
-85.410767
 31
0.0
  0
LINE
  5
35B
100
AcDbEntity
  8
3
370
    25
100
AcDbLine
 10
320.456268
 20
-85.410767
 30
0.0
 11
322.40084
 21
-81.91525
 31
0.0
  0
LINE
  5
35C
100
AcDbEntity
  8
3
370
    25
100
AcDbLine
 10
322.40084
 20
-81.91525
 30
0.0
 11
321.396699
 21
-81.663262
 31
0.0
  0
POINT
  5
35D
100
AcDbEntity
  8
3
370
    50
100
AcDbPoint
 10
240.726318
 20
7.18595
 30
0.0
  0
TEXT
  5
35E
100
AcDbEntity
  8
3
370
    50
100
AcDbText
 10
67.163475
 20
-236.444687
 30
0.0
 40
7.0
  1
ＭＷ－７１
 72
     5
 11
100.763475
 21
-236.444687
 31
0.0
100
AcDbText
  0
TEXT
  5
35F
100
AcDbEntity
  8
3
370
    50
100
AcDbText
 10
67.982487
 20
-227.59259
 30
0.0
 40
7.0
  1
壁付シャワー混合栓
 72
     5
 11
129.582487
 21
-227.59259
 31
0.0
100
AcDbText
  0
TEXT
  5
360
100
AcDbEntity
  8
3
370
    50
100
AcDbText
 10
334.972595
 20
-272.451202
 30
0.0
 40
7.0
  1
２００９００
 72
     5
 11
375.572595
 21
-272.451202
 31
0.0
100
AcDbText
  0
TEXT
  5
361
100
AcDbEntity
  8
3
370
    50
100
AcDbText
 10
-305.399791
 20
-67.06734
 30
0.0
 40
7.0
  1
４０
 50
46.038803
 72
     5
 11
-296.653236
 21
-57.997733
 31
0.0
100
AcDbText
  0
DIMENSION
  5
362
100
AcDbEntity
  8
3
370
    25
100
AcDbDimension
  2
*D0
 10
-313.459188
 20
-76.864976
 30
0.0
 11
-301.620309
 21
-61.334499
 31
0.0
 70
     1
 71
     0
 72
     0
 41
0.0
 42
0.0
  3
Standard
100
AcDbAlignedDimension
 13
-266.702954
 23
-67.366289
 33
0.0
 14
-293.979763
 24
-95.65056
 34
0.0
 50
46.038803
  0
TEXT
  5
363
100
AcDbEntity
  8
3
370
    50
100
AcDbText
 10
-240.695491
 20
-238.902207
 30
0.0
 40
7.0
  1
２００（ＭＡＸ　２１５）
 72
     5
 11
-158.095491
 21
-238.902207
 31
0.0
100
AcDbText
  0
DIMENSION
  5
364
100
AcDbEntity
  8
3
370
    25
100
AcDbDimension
  2
*D1
 10
-102.41122
 20
-239.902207
 30
0.0
 11
-198.695491
 21
-237.902207
 31
0.0
 71
     0
 72
     0
 41
0.0
 42
0.0
  3
Standard
100
AcDbAlignedDimension
 13
-294.979763
 23
-100.038043
 33
0.0
 14
-102.41122
 24
-95.65056
 34
0.0
100
AcDbRotatedDimension
  0
TEXT
  5
365
100
AcDbEntity
  8
3
370
    50
100
AcDbText
 10
338.364378
 20
-193.165878
 30
0.0
 40
7.0
  1
（１４）
 72
     5
 11
364.964378
 21
-193.165878
 31
0.0
100
AcDbText
  0
DIMENSION
  5
366
100
AcDbEntity
  8
3
370
    25
100
AcDbDimension
  2
*D2
 10
330.364378
 20
-194.165878
 30
0.0
 11
323.364378
 21
-192.165878
 31
0.0
 71
     0
 72
     0
 41
0.0
 42
0.0
  3
Standard
100
AcDbAlignedDimension
 13
316.364378
 23
-118.650289
 33
0.0
 14
330.364378
 24
-104.950289
 34
0.0
100
AcDbRotatedDimension
  0
TEXT
  5
367
100
AcDbEntity
  8
3
370
    50
100
AcDbText
 10
-209.199223
 20
-205.491608
 30
0.0
 40
7.0
  1
１３５
 72
     5
 11
-189.599223
 21
-205.491608
 31
0.0
100
AcDbText
  0
DIMENSION
  5
368
100
AcDbEntity
  8
3
370
    25
100
AcDbDimension
  2
*D3
 10
-130.695491
 20
-206.491608
 30
0.0
 11
-198.699223
 21
-204.491608
 31
0.0
 71
     0
 72
     0
 41
0.0
 42
0.0
  3
Standard
100
AcDbAlignedDimension
 13
-266.702954
 23
-67.366289
 33
0.0
 14
-130.695491
 24
-67.366289
 34
0.0
100
AcDbRotatedDimension
  0
TEXT
  5
369
100
AcDbEntity
  8
3
370
    50
100
AcDbText
 10
-280.053987
 20
30.72379
 30
0.0
 40
7.0
  1
（湯表示）
 72
     5
 11
-246.453987
 21
30.72379
 31
0.0
100
AcDbText
  0
TEXT
  5
36A
100
AcDbEntity
  8
3
370
    50
100
AcDbText
 10
-140.343788
 20
38.72379
 30
0.0
 40
7.0
  1
サックス
 72
     5
 11
-113.743788
 21
38.72379
 31
0.0
100
AcDbText
  0
TEXT
  5
36B
100
AcDbEntity
  8
3
370
    50
100
AcDbText
 10
-280.053987
 20
38.72379
 30
0.0
 40
7.0
  1
ピンク
 72
     5
 11
-260.453987
 21
38.72379
 31
0.0
100
AcDbText
  0
TEXT
  5
36C
100
AcDbEntity
  8
3
370
    50
100
AcDbText
 10
-140.343788
 20
30.72379
 30
0.0
 40
7.0
  1
（水表示）
 72
     5
 11
-106.743788
 21
30.72379
 31
0.0
100
AcDbText
  0
LWPOLYLINE
  5
36D
100
AcDbEntity
  8
3
370
    25
100
AcDbPolyline
 90
        2
 70
     0
 10
-265.758851
 20
7.546818
 10
-267.708131
 20
28.331402
  0
LWPOLYLINE
  5
371
100
AcDbEntity
  8
3
370
    25
100
AcDbPolyline
 90
        2
 70
     0
 10
-131.638923
 20
7.546818
 10
-129.689644
 20
28.331402
  0
POINT
  5
375
100
AcDbEntity
  8
3
370
    50
100
AcDbPoint
 10
-271.169815
 20
-59.65508
 30
0.0
  0
LWPOLYLINE
  5
376
100
AcDbEntity
  8
3
370
    25
100
AcDbPolyline
 90
        2
 70
     0
 10
-121.94523
 20
-48.92423
 10
-100.213289
 20
-41.001606
  0
DIMENSION
  5
37A
100
AcDbEntity
  8
3
370
    25
100
AcDbDimension
  2
*D4
 10
353.080109
 20
-72.650289
 30
0.0
 11
345.080109
 21
-95.650289
 31
0.0
 71
     0
 72
     0
 41
0.0
 42
0.0
  3
Standard
100
AcDbAlignedDimension
 13
316.364378
 23
-118.650289
 33
0.0
 14
316.364378
 24
-72.650289
 34
0.0
 50
90.0
100
AcDbRotatedDimension
  0
TEXT
  5
37B
100
AcDbEntity
  8
3
370
    50
100
AcDbText
 10
345.342804
 20
-255.615723
 30
0.0
 40
6.0
  1
０８　　６　２１
 72
     5
 11
392.142804
 21
-255.615723
 31
0.0
100
AcDbText
  0
POINT
  5
37C
100
AcDbEntity
  8
3
370
    50
100
AcDbPoint
 10
-198.699223
 20
-67.366289
 30
0.0
  0
LINE
  5
37D
100
AcDbEntity
  8
3
370
    25
  6
CENTER
100
AcDbLine
 10
-235.950867
 20
-67.366289
 30
0.0
 11
-159.798904
 21
-67.366289
 31
0.0
  0
DIMENSION
  5
37E
100
AcDbEntity
  8
3
370
    25
100
AcDbDimension
  2
*D5
 10
-161.234664
 20
-67.366289
 30
0.0
 11
-183.874886
 21
-105.87803
 31
0.0
 70
     2
 71
     0
 72
     0
 41
0.0
 42
0.0
  3
Standard
100
AcDb2LineAngularDimension
 13
-234.515107
 23
-67.366289
 33
0.0
 14
-197.874886
 24
-67.366289
 34
0.0
 15
-197.874886
 25
-67.366289
 35
0.0
 16
-197.874886
 26
-106.87803
 36
0.0
1001
ACAD
1000
DSTYLE
1002
{
1070
   275
1070
     0
1070
   179
1070
     0
1002
}
  0
TEXT
  5
37F
100
AcDbEntity
  8
3
370
    50
100
AcDbText
 10
-252.375916
 20
-85.42099
 30
0.0
 40
7.0
  1
パイプ吐水
 72
     5
 11
-218.775916
 21
-85.42099
 31
0.0
100
AcDbText
  0
TEXT
  5
380
100
AcDbEntity
  8
3
370
    50
100
AcDbText
 10
-180.711304
 20
-86.985088
 30
0.0
 40
7.0
  1
シャワー吐水
 72
     5
 11
-140.111304
 21
-86.985088
 31
0.0
100
AcDbText
  0
LINE
  5
381
100
AcDbEntity
  8
3
370
    50
100
AcDbLine
 10
-126.44499
 20
-52.238058
 30
0.0
 11
-126.44499
 21
-51.863077
 31
0.0
  0
LINE
  5
382
100
AcDbEntity
  8
3
370
    50
100
AcDbLine
 10
-126.44499
 20
-54.112964
 30
0.0
 11
-126.44499
 21
-54.487946
 31
0.0
  0
POINT
  5
383
100
AcDbEntity
  8
3
370
    50
100
AcDbPoint
 10
168.920617
 20
-67.366289
 30
0.0
  0
DIMENSION
  5
384
100
AcDbEntity
  8
3
370
    25
100
AcDbDimension
  2
*D6
 10
28.890106
 20
7.18595
 30
0.0
 11
20.890106
 21
-30.09017
 31
0.0
 71
     0
 72
     0
 41
0.0
 42
0.0
  3
Standard
100
AcDbAlignedDimension
 13
199.823582
 23
-67.366289
 33
0.0
 14
240.726318
 24
7.18595
 34
0.0
 50
90.0
100
AcDbRotatedDimension
  0
DIMENSION
  5
385
100
AcDbEntity
  8
3
370
    25
100
AcDbDimension
  2
*D7
 10
230.726587
 20
-194.165878
 30
0.0
 11
145.726415
 21
-189.665878
 31
0.0
 71
     0
 72
     0
 41
0.0
 42
0.0
  3
Standard
100
AcDbAlignedDimension
 13
60.726243
 23
-160.766289
 33
0.0
 14
230.726587
 24
-98.840916
 34
0.0
100
AcDbRotatedDimension
  0
TEXT
  5
386
100
AcDbEntity
  8
3
370
    50
100
AcDbText
 10
259.545482
 20
-193.165878
 30
0.0
 40
7.0
  1
（８９）
 72
     5
 11
286.145482
 21
-193.165878
 31
0.0
100
AcDbText
  0
DIMENSION
  5
387
100
AcDbEntity
  8
3
370
    25
100
AcDbDimension
  2
*D8
 10
316.364378
 20
-194.165878
 30
0.0
 11
273.545482
 21
-192.165878
 31
0.0
 71
     0
 72
     0
 41
0.0
 42
0.0
  3
Standard
100
AcDbAlignedDimension
 13
230.726587
 23
-98.840916
 33
0.0
 14
316.364378
 24
-118.650289
 34
0.0
100
AcDbRotatedDimension
  0
TEXT
  5
388
100
AcDbEntity
  8
3
370
    50
100
AcDbText
 10
27.890106
 20
-122.028289
 30
0.0
 40
7.0
  1
９５
 50
90.0
 72
     5
 11
27.890106
 21
-109.428289
 31
0.0
100
AcDbText
  0
DIMENSION
  5
389
100
AcDbEntity
  8
3
370
    25
100
AcDbDimension
  2
*D9
 10
28.890106
 20
-67.366289
 30
0.0
 11
26.390106
 21
-115.028289
 31
0.0
 71
     0
 72
     0
 41
0.0
 42
0.0
  3
Standard
100
AcDbAlignedDimension
 13
60.726243
 23
-162.690289
 33
0.0
 14
199.823582
 24
-67.366289
 34
0.0
 50
90.0
100
AcDbRotatedDimension
  0
LWPOLYLINE
  5
38A
100
AcDbEntity
  8
3
370
    25
100
AcDbPolyline
 90
        2
 70
     0
 10
-192.779358
 20
215.559799
 10
-181.403183
 20
239.233231
  0
LINE
  5
38E
100
AcDbEntity
  8
3
370
    25
100
AcDbLine
 10
-191.105868
 20
219.042275
 30
0.0
 11
-192.038994
 21
219.490685
 31
0.0
  0
LINE
  5
38F
100
AcDbEntity
  8
3
370
    25
100
AcDbLine
 10
-192.038994
 20
219.490685
 30
0.0
 11
-192.779358
 21
215.559799
 31
0.0
  0
LINE
  5
390
100
AcDbEntity
  8
3
370
    25
100
AcDbLine
 10
-192.779358
 20
215.559799
 30
0.0
 11
-190.172742
 21
218.593864
 31
0.0
  0
LINE
  5
391
100
AcDbEntity
  8
3
370
    25
100
AcDbLine
 10
-190.172742
 20
218.593864
 30
0.0
 11
-191.105868
 21
219.042275
 31
0.0
  0
TEXT
  5
392
100
AcDbEntity
  8
3
370
    50
100
AcDbText
 10
290.881073
 20
-239.310303
 30
0.0
 40
6.0
  1
１　２
 72
     5
 11
307.681073
 21
-239.310303
 31
0.0
100
AcDbText
  0
TEXT
  5
393
100
AcDbEntity
  8
3
370
    50
100
AcDbText
 10
-188.080994
 20
239.749405
 30
0.0
 40
7.0
  1
逆止弁内蔵
 72
     5
 11
-154.480994
 21
239.749405
 31
0.0
100
AcDbText
  0
ENDSEC
  0
SECTION
  2
OBJECTS
  0
DICTIONARY
  5
406
100
AcDbDictionary
280
     0
281
     1
  3
ACAD_GROUP
350
407
  3
ACAD_MLINESTYLE
350
408
  0
DICTIONARY
  5
407
102
{ACAD_REACTORS
330
406
102
}
100
AcDbDictionary
280
     0
281
     1
  0
DICTIONARY
  5
408
102
{ACAD_REACTORS
330
406
102
}
100
AcDbDictionary
280
     0
281
     1
  3
Standard
350
409
  0
MLINESTYLE
  5
409
102
{ACAD_REACTORS
330
408
102
}
100
AcDbMlineStyle
  2
Standard
 70
     0
  3

 62
     0
 51
90.0
 52
90.0
 71
     2
 49
0.5
 62
   256
  6
ByLayer
 49
-0.5
 62
   256
  6
ByLayer
  0
ENDSEC
  0
EOF
