  0
SECTION
  2
HEADER
  9
$ACADVER
  1
AC1015
  9
$ACADMAINTVER
 70
     6
  9
$DWGCODEPAGE
  3
ANSI_932
  9
$INSBASE
 10
0.0
 20
0.0
 30
0.0
  9
$EXTMIN
 10
-841.0
 20
-594.0
 30
1.000000E+20
  9
$EXTMAX
 10
841.0
 20
594.0
 30
-1.000000E+20
  9
$LIMMIN
 10
-841.0
 20
-594.0
  9
$LIMMAX
 10
841.0
 20
594.0
  9
$ORTHOMODE
 70
     0
  9
$REGENMODE
 70
     1
  9
$FILLMODE
 70
     1
  9
$QTEXTMODE
 70
     0
  9
$MIRRTEXT
 70
     1
  9
$LTSCALE
 40
1.0
  9
$ATTMODE
 70
     1
  9
$TEXTSIZE
 40
0.2
  9
$TRACEWID
 40
0.05
  9
$TEXTSTYLE
  7
STANDARD
  9
$CLAYER
  8
0
  9
$CELTYPE
  6
CONTINUOUS
  9
$CECOLOR
 62
   256
  9
$CELTSCALE
 40
1.0
  9
$DISPSILH
 70
     0
  9
$DIMSCALE
 40
2.0
  9
$DIMASZ
 40
2.0
  9
$DIMEXO
 40
1.0
  9
$DIMDLI
 40
0.38
  9
$DIMRND
 40
0.0
  9
$DIMDLE
 40
0.0
  9
$DIMEXE
 40
2.0
  9
$DIMTP
 40
0.0
  9
$DIMTM
 40
0.0
  9
$DIMTXT
 40
3.5
  9
$DIMCEN
 40
0.09
  9
$DIMTSZ
 40
0.0
  9
$DIMTOL
 70
     0
  9
$DIMLIM
 70
     0
  9
$DIMTIH
 70
     0
  9
$DIMTOH
 70
     0
  9
$DIMSE1
 70
     0
  9
$DIMSE2
 70
     0
  9
$DIMTAD
 70
     1
  9
$DIMZIN
 70
     0
  9
$DIMBLK
  1

  9
$DIMASO
 70
     1
  9
$DIMSHO
 70
     1
  9
$DIMPOST
  1

  9
$DIMAPOST
  1

  9
$DIMALT
 70
     0
  9
$DIMALTD
 70
     2
  9
$DIMALTF
 40
25.4
  9
$DIMLFAC
 40
1.0
  9
$DIMTOFL
 70
     0
  9
$DIMTVP
 40
0.0
  9
$DIMTIX
 70
     0
  9
$DIMSOXD
 70
     0
  9
$DIMSAH
 70
     0
  9
$DIMBLK1
  1

  9
$DIMBLK2
  1

  9
$DIMSTYLE
  2
Standard
  9
$DIMCLRD
 70
     0
  9
$DIMCLRE
 70
     0
  9
$DIMCLRT
 70
     0
  9
$DIMTFAC
 40
1.0
  9
$DIMGAP
 40
0.5
  9
$DIMJUST
 70
     0
  9
$DIMSD1
 70
     0
  9
$DIMSD2
 70
     0
  9
$DIMTOLJ
 70
     1
  9
$DIMTZIN
 70
     0
  9
$DIMALTZ
 70
     0
  9
$DIMALTTZ
 70
     0
  9
$DIMUPT
 70
     0
  9
$DIMDEC
 70
     3
  9
$DIMTDEC
 70
     4
  9
$DIMALTU
 70
     2
  9
$DIMALTTD
 70
     2
  9
$DIMTXSTY
  7
STANDARD
  9
$DIMAUNIT
 70
     0
  9
$DIMADEC
 70
     0
  9
$DIMALTRND
 40
0.0
  9
$DIMAZIN
 70
     0
  9
$DIMDSEP
 70
     0
  9
$DIMATFIT
 70
     3
  9
$DIMFRAC
 70
     0
  9
$DIMLDRBLK
  1

  9
$DIMLUNIT
 70
     2
  9
$DIMLWD
 70
     0
  9
$DIMLWE
 70
     0
  9
$DIMTMOVE
 70
     0
  9
$LUNITS
 70
     2
  9
$LUPREC
 70
     4
  9
$SKETCHINC
 40
0.1
  9
$FILLETRAD
 40
0.0
  9
$AUNITS
 70
     0
  9
$AUPREC
 70
     0
  9
$MENU
  1
acad
  9
$ELEVATION
 40
0.0
  9
$PELEVATION
 40
0.0
  9
$THICKNESS
 40
0.0
  9
$LIMCHECK
 70
     0
  9
$CHAMFERA
 40
0.0
  9
$CHAMFERB
 40
0.0
  9
$CHAMFERC
 40
0.0
  9
$CHAMFERD
 40
0.0
  9
$SKPOLY
 70
     0
  9
$TDCREATE
 40
2454540.000000000
  9
$TDUCREATE
 40
0.000000000
  9
$TDUPDATE
 40
0.000000000
  9
$TDUUPDATE
 40
2447892.625000000
  9
$TDINDWG
 40
0.0000000000
  9
$TDUSRTIMER
 40
0.0000000000
  9
$USRTIMER
 70
     1
  9
$ANGBASE
 50
0.0
  9
$ANGDIR
 70
     0
  9
$PDMODE
 70
     0
  9
$PDSIZE
 40
0.0
  9
$PLINEWID
 40
0.0
  9
$SPLFRAME
 70
     0
  9
$SPLINETYPE
 70
     6
  9
$SPLINESEGS
 70
     8
  9
$HANDSEED
  5
3EF
  9
$SURFTAB1
 70
     6
  9
$SURFTAB2
 70
     6
  9
$SURFTYPE
 70
     6
  9
$SURFU
 70
     6
  9
$SURFV
 70
     6
  9
$UCSBASE
  2

  9
$UCSNAME
  2

  9
$UCSORG
 10
0.0
 20
0.0
 30
0.0
  9
$UCSXDIR
 10
1.0
 20
0.0
 30
0.0
  9
$UCSYDIR
 10
0.0
 20
1.0
 30
0.0
  9
$UCSORTHOREF
  2

  9
$UCSORTHOVIEW
 70
     0
  9
$UCSORGTOP
 10
0.0
 20
0.0
 30
0.0
  9
$UCSORGBOTTOM
 10
0.0
 20
0.0
 30
0.0
  9
$UCSORGLEFT
 10
0.0
 20
0.0
 30
0.0
  9
$UCSORGRIGHT
 10
0.0
 20
0.0
 30
0.0
  9
$UCSORGFRONT
 10
0.0
 20
0.0
 30
0.0
  9
$UCSORGBACK
 10
0.0
 20
0.0
 30
0.0
  9
$PUCSBASE
  2

  9
$PUCSNAME
  2

  9
$PUCSORG
 10
0.0
 20
0.0
 30
0.0
  9
$PUCSXDIR
 10
1.0
 20
0.0
 30
0.0
  9
$PUCSYDIR
 10
0.0
 20
1.0
 30
0.0
  9
$PUCSORTHOREF
  2

  9
$PUCSORTHOVIEW
 70
     0
  9
$PUCSORGTOP
 10
0.0
 20
0.0
 30
0.0
  9
$PUCSORGBOTTOM
 10
0.0
 20
0.0
 30
0.0
  9
$PUCSORGLEFT
 10
0.0
 20
0.0
 30
0.0
  9
$PUCSORGRIGHT
 10
0.0
 20
0.0
 30
0.0
  9
$PUCSORGFRONT
 10
0.0
 20
0.0
 30
0.0
  9
$PUCSORGBACK
 10
0.0
 20
0.0
 30
0.0
  9
$USERI1
 70
     0
  9
$USERI2
 70
     0
  9
$USERI3
 70
     0
  9
$USERI4
 70
     0
  9
$USERI5
 70
     0
  9
$USERR1
 40
0.0
  9
$USERR2
 40
0.0
  9
$USERR3
 40
0.0
  9
$USERR4
 40
0.0
  9
$USERR5
 40
0.0
  9
$WORLDVIEW
 70
     1
  9
$SHADEDGE
 70
     3
  9
$SHADEDIF
 70
    70
  9
$TILEMODE
 70
     1
  9
$MAXACTVP
 70
    16
  9
$PINSBASE
 10
0.0
 20
0.0
 30
0.0
  9
$PLIMCHECK
 70
     0
  9
$PEXTMIN
 10
1.000000E+20
 20
1.000000E+20
 30
1.000000E+20
  9
$PEXTMAX
 10
-1.000000E+20
 20
-1.000000E+20
 30
-1.000000E+20
  9
$PLIMMIN
 10
0.0
 20
0.0
  9
$PLIMMAX
 10
12.0
 20
9.0
  9
$UNITMODE
 70
     0
  9
$VISRETAIN
 70
     0
  9
$PLINEGEN
 70
     1
  9
$PSLTSCALE
 70
     0
  9
$TREEDEPTH
 70
  3020
  9
$CMLSTYLE
  2
Standard
  9
$CMLJUST
 70
     0
  9
$CMLSCALE
 40
1.0
  9
$PROXYGRAPHICS
 70
     0
  9
$MEASUREMENT
 70
     0
  9
$CELWEIGHT
370
     0
  9
$ENDCAPS
280
     0
  9
$JOINSTYLE
280
     0
  9
$LWDISPLAY
290
     0
  9
$INSUNITS
 70
     0
  9
$HYPERLINKBASE
  1

  9
$STYLESHEET
  1

  9
$XEDIT
290
     1
  9
$CEPSNTYPE
380
     0
  9
$PSTYLEMODE
290
     1
  9
$FINGERPRINTGUID
  2

  9
$VERSIONGUID
  2

  9
$EXTNAMES
290
     1
  9
$PSVPSCALE
 40
0.0
  0
ENDSEC
  0
SECTION
  2
CLASSES
  0
CLASS
  1
LWPOLYLINE
  2
AcDbPolyline
  3
AutoCAD 2000
 90
        0
280
     0
281
     1
  0
CLASS
  1
IMAGE
  2
AcDbRasterImage
  3
ISM
 90
      127
280
     0
281
     1
  0
CLASS
  1
OLE2FRAME
  2
AcDbOle2Frame
  3
AutoCAD 2000
 90
        0
280
     0
281
     1
  0
CLASS
  1
HATCH
  2
AcDbHatch
  3
AutoCAD 2000
 90
        0
280
     0
281
     1
  0
CLASS
  1
DICTIONARYVAR
  2
AcDbDictionaryVar
  3
AutoCAD 2000
 90
        0
280
     0
281
     0
  0
CLASS
  1
RASTERVARIABLES
  2
AcDbRasterVariables
  3
ISM
 90
        0
280
     0
281
     0
  0
CLASS
  1
IMAGEDEF
  2
AcDbRasterImageDef
  3
ISM
 90
        0
280
     0
281
     0
  0
CLASS
  1
IMAGEDEF_REACTOR
  2
AcDbRasterImageDefReactor
  3
ISM
 90
        1
280
     0
281
     0
  0
CLASS
  1
IDBUFFER
  2
AcDbIdBuffer
  3
AutoCAD 2000
 90
        0
280
     0
281
     0
  0
CLASS
  1
SPATIAL_FILTER
  2
AcDbSpatialFilter
  3
AutoCAD 2000
 90
        0
280
     0
281
     0
  0
CLASS
  1
XRECORD
  2
AcDbXrecord
  3
AutoCAD 2000
 90
        0
280
     0
281
     0
  0
CLASS
  1
SORTENTSTABLE
  2
AcDbSortentsTable
  3
AutoCAD 2000
 90
        0
280
     0
281
     0
  0
CLASS
  1
LAYER_INDEX
  2
AcDbLayerIndex
  3
AutoCAD 2000
 90
        0
280
     0
281
     0
  0
CLASS
  1
SPATIAL_INDEX
  2
AcDbSpatialIndex
  3
AutoCAD 2000
 90
        0
280
     0
281
     0
  0
CLASS
  1
OBJECT_PTR
  2
CAseDLPNTableRecord
  3
"ASE-LPNTableRecord"
 90
        1
280
     0
281
     0
  0
CLASS
  1
LAYOUT
  2
AcDbLayout
  3
AutoCAD 2000
 90
        0
280
     0
281
     0
  0
CLASS
  1
PLOTSETTINGS
  2
AcDbPlotSettings
  3
AutoCAD 2000
 90
        0
280
     0
281
     0
  0
CLASS
  1
ACDBDICTIONARYWDFLT
  2
AcDbDictionaryWithDefault
  3
AutoCAD 2000
 90
        0
280
     0
281
     0
  0
CLASS
  1
ACDBPLACEHOLDER
  2
AcDbPlaceHolder
  3
AutoCAD 2000
 90
        0
280
     0
281
     0
  0
CLASS
  1
VBA_PROJECT
  2
AcDbVbaProject
  3
acadvba
 90
        0
280
     0
281
     0
  0
CLASS
  1
WIPEOUT
  2
AcDbWipeout
  3
WipeOut|AutoCAD Express Tool|expresstools@autodesk.com
 90
      127
280
     0
281
     1
  0
CLASS
  1
WIPEOUTVARIABLES
  2
AcDbWipeoutVariables
  3
WipeOut|AutoCAD Express Tool|expresstools@autodesk.com
 90
        0
280
     0
281
     0
  0
CLASS
  1
RTEXT
  2
RText
  3
RText|AutoCAD Express Tool|expresstools@autodesk.com
 90
        0
280
     0
281
     1
  0
CLASS
  1
ARCALIGNEDTEXT
  2
AcDbArcAlignedText
  3
ATEXT|AutoCAD Express Tool|expresstools@autodesk.com
 90
        0
280
     0
281
     1
  0
ENDSEC
  0
SECTION
  2
TABLES
  0
TABLE
  2
VPORT
  5
6
100
AcDbSymbolTable
 70
     1
  0
VPORT
  5
1A
100
AcDbSymbolTableRecord
100
AcDbViewportTableRecord
  2
*ACTIVE
 70
     0
 10
0.0
 20
0.0
 11
1.0
 21
1.0
 12
0.0
 22
0.0
 13
0.0
 23
0.0
 14
1.0
 24
1.0
 15
0.0
 25
0.0
 16
0.0
 26
0.0
 36
1.0
 17
0.0
 27
0.0
 37
0.0
 40
1188.0
 41
1.415825
 42
50.0
 43
0.0
 44
0.0
 50
0.0
 51
0.0
 71
     0
 72
   500
 73
     1
 74
     1
 75
     0
 76
     0
 77
     0
 78
     0
281
     0
 65
     0
110
0.0
120
0.0
130
0.0
111
1.0
121
0.0
131
0.0
112
0.0
122
1.0
132
0.0
345
0
346
0
 79
     0
146
0.0
  0
ENDTAB
  0
TABLE
  2
LTYPE
  5
3
100
AcDbSymbolTable
 70
     9
  0
LTYPE
  5
C
100
AcDbSymbolTableRecord
100
AcDbLinetypeTableRecord
  2
ByBlock
 70
    64
  3

 72
    65
 73
     0
 40
0.0
  0
LTYPE
  5
D
100
AcDbSymbolTableRecord
100
AcDbLinetypeTableRecord
  2
ByLayer
 70
    64
  3

 72
    65
 73
     0
 40
0.0
  0
LTYPE
  5
E
100
AcDbSymbolTableRecord
100
AcDbLinetypeTableRecord
  2
CONTINUOUS
 70
     0
  3
Solid line
 72
    65
 73
     0
 40
0.0
  0
LTYPE
  5
F
100
AcDbSymbolTableRecord
100
AcDbLinetypeTableRecord
  2
DASHED
 70
     0
  3
__ __ __ __ __ __ __ __ __ __ __ __ __ __ __
 72
    65
 73
     2
 40
2.0
 49
1.2
 74
     0
 49
-0.8
 74
     0
  0
LTYPE
  5
10
100
AcDbSymbolTableRecord
100
AcDbLinetypeTableRecord
  2
CENTER
 70
     0
  3
____ _ ____ _ ____ _ ____ _ ____ _ ____ _ ____
 72
    65
 73
     4
 40
12.0
 49
9.0
 74
     0
 49
-1.0
 74
     0
 49
1.0
 74
     0
 49
-1.0
 74
     0
  0
LTYPE
  5
11
100
AcDbSymbolTableRecord
100
AcDbLinetypeTableRecord
  2
HIDDEN
 70
     0
  3
_ _ _ _ _ _ _ _ _ _ _ _ _ _ _ _ _ _ _ _ _ _ _
 72
    65
 73
     2
 40
3.2
 49
2.4
 74
     0
 49
-0.8
 74
     0
  0
LTYPE
  5
12
100
AcDbSymbolTableRecord
100
AcDbLinetypeTableRecord
  2
PHANTOM
 70
     0
  3
_____ _ _ _____ _ _ _____ _ _ _____ _ _ _____
 72
    65
 73
     6
 40
13.5
 49
9.0
 74
     0
 49
-1.0
 74
     0
 49
1.0
 74
     0
 49
-0.5
 74
     0
 49
1.0
 74
     0
 49
-1.0
 74
     0
  0
LTYPE
  5
13
100
AcDbSymbolTableRecord
100
AcDbLinetypeTableRecord
  2
DOT
 70
     0
  3
...............................................
 72
    65
 73
     2
 40
1.0
 49
0.5
 74
     0
 49
-0.5
 74
     0
  0
LTYPE
  5
14
100
AcDbSymbolTableRecord
100
AcDbLinetypeTableRecord
  2
DASHDOT
 70
     0
  3
__ . __ . __ . __ . __ . __ . __ . __ . __ . __
 72
    65
 73
     4
 40
8.0
 49
5.0
 74
     0
 49
-1.0
 74
     0
 49
1.0
 74
     0
 49
-1.0
 74
     0
  0
ENDTAB
  0
TABLE
  2
LAYER
  5
1
100
AcDbSymbolTable
 70
     5
  0
LAYER
  5
15
100
AcDbSymbolTableRecord
100
AcDbLayerTableRecord
  2
0
 70
     0
 62
   225
  6
CONTINUOUS
290
     1
370
    -3
390
0
  0
LAYER
  5
16
100
AcDbSymbolTableRecord
100
AcDbLayerTableRecord
  2
1
 70
     0
 62
     2
  6
CONTINUOUS
290
     1
370
    -3
390
0
  0
LAYER
  5
17
100
AcDbSymbolTableRecord
100
AcDbLayerTableRecord
  2
2
 70
     0
 62
     3
  6
CONTINUOUS
290
     1
370
    -3
390
0
  0
LAYER
  5
18
100
AcDbSymbolTableRecord
100
AcDbLayerTableRecord
  2
3
 70
     0
 62
     4
  6
CONTINUOUS
290
     1
370
    -3
390
0
  0
LAYER
  5
19
100
AcDbSymbolTableRecord
100
AcDbLayerTableRecord
  2
4
 70
     0
 62
     1
  6
CONTINUOUS
290
     1
370
    -3
390
0
  0
ENDTAB
  0
TABLE
  2
STYLE
  5
2
100
AcDbSymbolTable
 70
     1
  0
STYLE
  5
1C
100
AcDbSymbolTableRecord
100
AcDbTextStyleTableRecord
  2
STANDARD
 70
    64
 40
0.0
 41
1.0
 50
0.0
 71
     0
 42
1.0
  3
txt
  4
BIGFONT
  0
ENDTAB
  0
TABLE
  2
VIEW
  5
4
100
AcDbSymbolTable
 70
     0
  0
ENDTAB
  0
TABLE
  2
UCS
  5
5
100
AcDbSymbolTable
 70
     0
  0
ENDTAB
  0
TABLE
  2
APPID
  5
7
100
AcDbSymbolTable
 70
     1
  0
APPID
  5
1B
100
AcDbSymbolTableRecord
100
AcDbRegAppTableRecord
  2
ACAD
 70
     0
  0
ENDTAB
  0
TABLE
  2
DIMSTYLE
  5
8
100
AcDbSymbolTable
 70
     1
100
AcDbDimStyleTable
 71
     0
  0
DIMSTYLE
105
2B
100
AcDbSymbolTableRecord
100
AcDbDimStyleTableRecord
  2
Standard
 70
     0
  3

  4

 40
2.0
 41
2.0
 42
1.0
 43
0.38
 44
2.0
 45
0.0
 46
0.0
 47
0.0
 48
0.0
 71
     0
 72
     0
 73
     0
 74
     0
 75
     0
 76
     0
 77
     1
 78
     0
 79
     0
140
3.5
141
0.09
142
0.0
143
25.4
144
1.0
145
0.0
146
1.0
147
0.5
148
0.0
170
     0
171
     2
172
     0
173
     0
174
     0
175
     0
176
     0
177
     0
178
     0
179
     0
271
     3
272
     4
273
     2
274
     2
275
     0
276
     0
277
     2
278
    46
279
     0
280
     0
281
     0
282
     0
283
     1
284
     0
285
     0
286
     0
288
     0
289
     3
340
1C
341
0
342
0
343
0
344
0
371
    -2
372
    -2
  0
ENDTAB
  0
TABLE
  2
BLOCK_RECORD
  5
26
100
AcDbSymbolTable
 70
     7
  0
BLOCK_RECORD
  5
24
100
AcDbSymbolTableRecord
100
AcDbBlockTableRecord
  2
*Model_Space
340
0
  0
BLOCK_RECORD
  5
25
100
AcDbSymbolTableRecord
100
AcDbBlockTableRecord
  2
*Paper_Space
340
0
  0
BLOCK_RECORD
  5
1D
100
AcDbSymbolTableRecord
100
AcDbBlockTableRecord
  2
*D0
340
0
  0
BLOCK_RECORD
  5
1E
100
AcDbSymbolTableRecord
100
AcDbBlockTableRecord
  2
*D1
340
0
  0
BLOCK_RECORD
  5
1F
100
AcDbSymbolTableRecord
100
AcDbBlockTableRecord
  2
*D2
340
0
  0
BLOCK_RECORD
  5
20
100
AcDbSymbolTableRecord
100
AcDbBlockTableRecord
  2
*D3
340
0
  0
BLOCK_RECORD
  5
21
100
AcDbSymbolTableRecord
100
AcDbBlockTableRecord
  2
*D4
340
0
  0
BLOCK_RECORD
  5
22
100
AcDbSymbolTableRecord
100
AcDbBlockTableRecord
  2
*D5
340
0
  0
BLOCK_RECORD
  5
23
100
AcDbSymbolTableRecord
100
AcDbBlockTableRecord
  2
*D6
340
0
  0
ENDTAB
  0
ENDSEC
  0
SECTION
  2
BLOCKS
  0
BLOCK
  5
27
100
AcDbEntity
  8
0
390
0
100
AcDbBlockBegin
  2
*Model_Space
 70
     0
 10
0.0
 20
0.0
 30
0.0
  3
*Model_Space
  1

  0
ENDBLK
  5
28
100
AcDbEntity
  8
0
390
0
100
AcDbBlockEnd
  0
BLOCK
  5
29
100
AcDbEntity
 67
     1
  8
0
390
0
100
AcDbBlockBegin
  2
*Paper_Space
 70
     0
 10
0.0
 20
0.0
 30
0.0
  3
*Paper_Space
  1

  0
ENDBLK
  5
2A
100
AcDbEntity
 67
     1
  8
0
390
0
100
AcDbBlockEnd
  0
BLOCK
  5
396
100
AcDbEntity
  8
3
100
AcDbBlockBegin
  2
*D0
 70
     1
 10
0.0
 20
0.0
 30
0.0
  3
*D0
  1

  0
TEXT
  5
397
100
AcDbEntity
  8
3
370
    25
100
AcDbText
 10
-306.156952
 20
-45.721824
 30
0.0
 40
8.0
  1
81
 50
90.0
 41
2.0
 72
     5
 11
-306.156952
 21
-32.921824
 31
0.0
100
AcDbText
  0
LINE
  5
398
100
AcDbEntity
  8
3
370
    25
100
AcDbLine
 10
-222.021856
 20
-77.9718
 30
0.0
 11
-307.156952
 21
-77.9718
 31
0.0
  0
LINE
  5
399
100
AcDbEntity
  8
3
370
    25
100
AcDbLine
 10
-305.156952
 20
-77.9718
 30
0.0
 11
-304.121676
 21
-74.108097
 31
0.0
  0
LINE
  5
39A
100
AcDbEntity
  8
3
370
    25
100
AcDbLine
 10
-305.156952
 20
-77.9718
 30
0.0
 11
-306.192228
 21
-74.108097
 31
0.0
  0
LINE
  5
39B
100
AcDbEntity
  8
3
370
    25
100
AcDbLine
 10
-304.121676
 20
-74.108097
 30
0.0
 11
-306.192228
 21
-74.108097
 31
0.0
  0
LINE
  5
39C
100
AcDbEntity
  8
3
370
    25
100
AcDbLine
 10
-305.156952
 20
-77.9718
 30
0.0
 11
-305.156952
 21
2.528153
 31
0.0
  0
LINE
  5
39D
100
AcDbEntity
  8
3
370
    25
100
AcDbLine
 10
-305.156952
 20
2.528153
 30
0.0
 11
-306.192228
 21
-1.335551
 31
0.0
  0
LINE
  5
39E
100
AcDbEntity
  8
3
370
    25
100
AcDbLine
 10
-305.156952
 20
2.528153
 30
0.0
 11
-304.121676
 21
-1.335551
 31
0.0
  0
LINE
  5
39F
100
AcDbEntity
  8
3
370
    25
100
AcDbLine
 10
-306.192228
 20
-1.335551
 30
0.0
 11
-304.121676
 21
-1.335551
 31
0.0
  0
LINE
  5
3A0
100
AcDbEntity
  8
3
370
    25
100
AcDbLine
 10
-202.034579
 20
2.528153
 30
0.0
 11
-307.156952
 21
2.528153
 31
0.0
  0
ENDBLK
  5
3A1
100
AcDbEntity
  8
3
100
AcDbBlockEnd
  0
BLOCK
  5
3A2
100
AcDbEntity
  8
3
100
AcDbBlockBegin
  2
*D1
 70
     1
 10
0.0
 20
0.0
 30
0.0
  3
*D1
  1

  0
TEXT
  5
3A3
100
AcDbEntity
  8
3
370
    25
100
AcDbText
 10
-306.156952
 20
-113.9718
 30
0.0
 40
8.0
  1
56
 50
90.0
 41
2.0
 72
     5
 11
-306.156952
 21
-101.1718
 31
0.0
100
AcDbText
  0
LINE
  5
3A4
100
AcDbEntity
  8
3
370
    25
100
AcDbLine
 10
-202.021856
 20
-133.9718
 30
0.0
 11
-307.156952
 21
-133.9718
 31
0.0
  0
LINE
  5
3A5
100
AcDbEntity
  8
3
370
    25
100
AcDbLine
 10
-305.156952
 20
-133.9718
 30
0.0
 11
-304.121676
 21
-130.108097
 31
0.0
  0
LINE
  5
3A6
100
AcDbEntity
  8
3
370
    25
100
AcDbLine
 10
-305.156952
 20
-133.9718
 30
0.0
 11
-306.192228
 21
-130.108097
 31
0.0
  0
LINE
  5
3A7
100
AcDbEntity
  8
3
370
    25
100
AcDbLine
 10
-304.121676
 20
-130.108097
 30
0.0
 11
-306.192228
 21
-130.108097
 31
0.0
  0
LINE
  5
3A8
100
AcDbEntity
  8
3
370
    25
100
AcDbLine
 10
-305.156952
 20
-133.9718
 30
0.0
 11
-305.156952
 21
-77.9718
 31
0.0
  0
LINE
  5
3A9
100
AcDbEntity
  8
3
370
    25
100
AcDbLine
 10
-305.156952
 20
-77.9718
 30
0.0
 11
-306.192228
 21
-81.835503
 31
0.0
  0
LINE
  5
3AA
100
AcDbEntity
  8
3
370
    25
100
AcDbLine
 10
-305.156952
 20
-77.9718
 30
0.0
 11
-304.121676
 21
-81.835503
 31
0.0
  0
LINE
  5
3AB
100
AcDbEntity
  8
3
370
    25
100
AcDbLine
 10
-306.192228
 20
-81.835503
 30
0.0
 11
-304.121676
 21
-81.835503
 31
0.0
  0
LINE
  5
3AC
100
AcDbEntity
  8
3
370
    25
100
AcDbLine
 10
-222.021856
 20
-77.9718
 30
0.0
 11
-307.156952
 21
-77.9718
 31
0.0
  0
ENDBLK
  5
3AD
100
AcDbEntity
  8
3
100
AcDbBlockEnd
  0
BLOCK
  5
3AE
100
AcDbEntity
  8
3
100
AcDbBlockBegin
  2
*D2
 70
     1
 10
0.0
 20
0.0
 30
0.0
  3
*D2
  1

  0
TEXT
  5
3AF
100
AcDbEntity
  8
3
370
    25
100
AcDbText
 10
82.080635
 20
-68.4718
 30
0.0
 40
8.0
  1
35
 50
90.0
 41
2.0
 72
     5
 11
82.080635
 21
-55.6718
 31
0.0
100
AcDbText
  0
LINE
  5
3B0
100
AcDbEntity
  8
3
370
    25
100
AcDbLine
 10
167.478144
 20
-77.9718
 30
0.0
 11
81.080635
 21
-77.9718
 31
0.0
  0
LINE
  5
3B1
100
AcDbEntity
  8
3
370
    25
100
AcDbLine
 10
83.080635
 20
-77.9718
 30
0.0
 11
84.115911
 21
-74.108097
 31
0.0
  0
LINE
  5
3B2
100
AcDbEntity
  8
3
370
    25
100
AcDbLine
 10
83.080635
 20
-77.9718
 30
0.0
 11
82.045359
 21
-74.108097
 31
0.0
  0
LINE
  5
3B3
100
AcDbEntity
  8
3
370
    25
100
AcDbLine
 10
84.115911
 20
-74.108097
 30
0.0
 11
82.045359
 21
-74.108097
 31
0.0
  0
LINE
  5
3B4
100
AcDbEntity
  8
3
370
    25
100
AcDbLine
 10
83.080635
 20
-77.9718
 30
0.0
 11
83.080635
 21
-42.9718
 31
0.0
  0
LINE
  5
3B5
100
AcDbEntity
  8
3
370
    25
100
AcDbLine
 10
83.080635
 20
-42.9718
 30
0.0
 11
82.045359
 21
-46.835503
 31
0.0
  0
LINE
  5
3B6
100
AcDbEntity
  8
3
370
    25
100
AcDbLine
 10
83.080635
 20
-42.9718
 30
0.0
 11
84.115911
 21
-46.835503
 31
0.0
  0
LINE
  5
3B7
100
AcDbEntity
  8
3
370
    25
100
AcDbLine
 10
82.045359
 20
-46.835503
 30
0.0
 11
84.115911
 21
-46.835503
 31
0.0
  0
LINE
  5
3B8
100
AcDbEntity
  8
3
370
    25
100
AcDbLine
 10
113.978144
 20
-42.9718
 30
0.0
 11
81.080635
 21
-42.9718
 31
0.0
  0
ENDBLK
  5
3B9
100
AcDbEntity
  8
3
100
AcDbBlockEnd
  0
BLOCK
  5
3BA
100
AcDbEntity
  8
3
100
AcDbBlockBegin
  2
*D3
 70
     1
 10
0.0
 20
0.0
 30
0.0
  3
*D3
  1

  0
TEXT
  5
3BB
100
AcDbEntity
  8
3
370
    25
100
AcDbText
 10
100.846723
 20
-65.970779
 30
0.0
 40
8.0
  1
15%%d
 50
352.5
 41
2.0
 72
     5
 11
121.468776
 21
-68.685724
 31
0.0
100
AcDbText
  0
LINE
  5
3BC
100
AcDbEntity
  8
3
370
    25
100
AcDbLine
 10
113.333422
 20
-52.842036
 30
0.0
 11
108.788858
 21
-69.802579
 31
0.0
  0
LINE
  5
3BD
100
AcDbEntity
  8
3
370
    25
100
AcDbLine
 10
115.978144
 20
-44.9718
 30
0.0
 11
115.978144
 21
-70.749067
 31
0.0
  0
LINE
  5
3BE
100
AcDbEntity
  8
3
370
    25
100
AcDbLine
 10
109.306496
 20
-67.870728
 30
0.0
 11
106.002025
 21
-65.616738
 31
0.0
  0
LINE
  5
3BF
100
AcDbEntity
  8
3
370
    25
100
AcDbLine
 10
109.306496
 20
-67.870728
 30
0.0
 11
105.317745
 21
-67.570952
 31
0.0
  0
LINE
  5
3C0
100
AcDbEntity
  8
3
370
    25
100
AcDbLine
 10
106.002025
 20
-65.616738
 30
0.0
 11
105.317745
 21
-67.570952
 31
0.0
  0
LINE
  5
3C1
100
AcDbEntity
  8
3
370
    25
100
AcDbLine
 10
115.978144
 20
-68.749067
 30
0.0
 11
119.908569
 21
-69.49187
 31
0.0
  0
LINE
  5
3C2
100
AcDbEntity
  8
3
370
    25
100
AcDbLine
 10
115.978144
 20
-68.749067
 30
0.0
 11
119.753394
 21
-67.427141
 31
0.0
  0
LINE
  5
3C3
100
AcDbEntity
  8
3
370
    25
100
AcDbLine
 10
119.908569
 20
-69.49187
 30
0.0
 11
119.753394
 21
-67.427141
 31
0.0
  0
ARC
  5
3C4
100
AcDbEntity
  8
3
370
    25
100
AcDbCircle
 10
115.978144
 20
-42.9718
 30
0.0
 40
25.777266
100
AcDbArc
 50
233.796798
 51
291.203202
  0
ENDBLK
  5
3C5
100
AcDbEntity
  8
3
100
AcDbBlockEnd
  0
BLOCK
  5
3C6
100
AcDbEntity
  8
3
100
AcDbBlockBegin
  2
*D4
 70
     1
 10
0.0
 20
0.0
 30
0.0
  3
*D4
  1

  0
TEXT
  5
3C7
100
AcDbEntity
  8
3
370
    25
100
AcDbText
 10
145.478144
 20
-153.012512
 30
0.0
 40
8.0
  1
75
 41
2.0
 72
     5
 11
158.278144
 21
-153.012512
 31
0.0
100
AcDbText
  0
LINE
  5
3C8
100
AcDbEntity
  8
3
370
    25
100
AcDbLine
 10
115.978144
 20
-44.9718
 30
0.0
 11
115.978144
 21
-156.012512
 31
0.0
  0
LINE
  5
3C9
100
AcDbEntity
  8
3
370
    25
100
AcDbLine
 10
115.978144
 20
-154.012512
 30
0.0
 11
119.841847
 21
-155.047788
 31
0.0
  0
LINE
  5
3CA
100
AcDbEntity
  8
3
370
    25
100
AcDbLine
 10
115.978144
 20
-154.012512
 30
0.0
 11
119.841847
 21
-152.977236
 31
0.0
  0
LINE
  5
3CB
100
AcDbEntity
  8
3
370
    25
100
AcDbLine
 10
119.841847
 20
-155.047788
 30
0.0
 11
119.841847
 21
-152.977236
 31
0.0
  0
LINE
  5
3CC
100
AcDbEntity
  8
3
370
    25
100
AcDbLine
 10
115.978144
 20
-154.012512
 30
0.0
 11
190.978144
 21
-154.012512
 31
0.0
  0
LINE
  5
3CD
100
AcDbEntity
  8
3
370
    25
100
AcDbLine
 10
190.978144
 20
-154.012512
 30
0.0
 11
187.114441
 21
-152.977236
 31
0.0
  0
LINE
  5
3CE
100
AcDbEntity
  8
3
370
    25
100
AcDbLine
 10
190.978144
 20
-154.012512
 30
0.0
 11
187.114441
 21
-155.047788
 31
0.0
  0
LINE
  5
3CF
100
AcDbEntity
  8
3
370
    25
100
AcDbLine
 10
187.114441
 20
-152.977236
 30
0.0
 11
187.114441
 21
-155.047788
 31
0.0
  0
LINE
  5
3D0
100
AcDbEntity
  8
3
370
    25
100
AcDbLine
 10
190.978144
 20
-147.322832
 30
0.0
 11
190.978144
 21
-156.012512
 31
0.0
  0
ENDBLK
  5
3D1
100
AcDbEntity
  8
3
100
AcDbBlockEnd
  0
BLOCK
  5
3D2
100
AcDbEntity
  8
3
100
AcDbBlockBegin
  2
*D5
 70
     1
 10
0.0
 20
0.0
 30
0.0
  3
*D5
  1

  0
TEXT
  5
3D3
100
AcDbEntity
  8
3
370
    25
100
AcDbText
 10
-161.021856
 20
-153.012512
 30
0.0
 40
8.0
  1
102
 41
2.0
 72
     5
 11
-140.221856
 21
-153.012512
 31
0.0
100
AcDbText
  0
LINE
  5
3D4
100
AcDbEntity
  8
3
370
    25
100
AcDbLine
 10
-200.021856
 20
-153.900144
 30
0.0
 11
-200.021856
 21
-156.012512
 31
0.0
  0
LINE
  5
3D5
100
AcDbEntity
  8
3
370
    25
100
AcDbLine
 10
-200.021856
 20
-154.012512
 30
0.0
 11
-196.158153
 21
-155.047788
 31
0.0
  0
LINE
  5
3D6
100
AcDbEntity
  8
3
370
    25
100
AcDbLine
 10
-200.021856
 20
-154.012512
 30
0.0
 11
-196.158153
 21
-152.977236
 31
0.0
  0
LINE
  5
3D7
100
AcDbEntity
  8
3
370
    25
100
AcDbLine
 10
-196.158153
 20
-155.047788
 30
0.0
 11
-196.158153
 21
-152.977236
 31
0.0
  0
LINE
  5
3D8
100
AcDbEntity
  8
3
370
    25
100
AcDbLine
 10
-200.021856
 20
-154.012512
 30
0.0
 11
-98.021856
 21
-154.012512
 31
0.0
  0
LINE
  5
3D9
100
AcDbEntity
  8
3
370
    25
100
AcDbLine
 10
-98.021856
 20
-154.012512
 30
0.0
 11
-101.885559
 21
-152.977236
 31
0.0
  0
LINE
  5
3DA
100
AcDbEntity
  8
3
370
    25
100
AcDbLine
 10
-98.021856
 20
-154.012512
 30
0.0
 11
-101.885559
 21
-155.047788
 31
0.0
  0
LINE
  5
3DB
100
AcDbEntity
  8
3
370
    25
100
AcDbLine
 10
-101.885559
 20
-152.977236
 30
0.0
 11
-101.885559
 21
-155.047788
 31
0.0
  0
LINE
  5
3DC
100
AcDbEntity
  8
3
370
    25
100
AcDbLine
 10
-98.021856
 20
-153.900144
 30
0.0
 11
-98.021856
 21
-156.012512
 31
0.0
  0
ENDBLK
  5
3DD
100
AcDbEntity
  8
3
100
AcDbBlockEnd
  0
BLOCK
  5
3DE
100
AcDbEntity
  8
3
100
AcDbBlockBegin
  2
*D6
 70
     1
 10
0.0
 20
0.0
 30
0.0
  3
*D6
  1

  0
TEXT
  5
3DF
100
AcDbEntity
  8
3
370
    25
100
AcDbText
 10
-51.097019
 20
162.109594
 30
0.0
 40
7.0
  1
４３
 50
90.0
 72
     5
 11
-51.097019
 21
174.709594
 31
0.0
100
AcDbText
  0
LINE
  5
3E0
100
AcDbEntity
  8
3
370
    25
100
AcDbLine
 10
-130.021856
 20
147.690986
 30
0.0
 11
-48.097019
 21
147.690986
 31
0.0
  0
LINE
  5
3E1
100
AcDbEntity
  8
3
370
    25
100
AcDbLine
 10
-50.097019
 20
147.690986
 30
0.0
 11
-49.061743
 21
151.55469
 31
0.0
  0
LINE
  5
3E2
100
AcDbEntity
  8
3
370
    25
100
AcDbLine
 10
-50.097019
 20
147.690986
 30
0.0
 11
-51.132295
 21
151.55469
 31
0.0
  0
LINE
  5
3E3
100
AcDbEntity
  8
3
370
    25
100
AcDbLine
 10
-49.061743
 20
151.55469
 30
0.0
 11
-51.132295
 21
151.55469
 31
0.0
  0
LINE
  5
3E4
100
AcDbEntity
  8
3
370
    25
100
AcDbLine
 10
-50.097019
 20
147.690986
 30
0.0
 11
-50.097019
 21
190.528202
 31
0.0
  0
LINE
  5
3E5
100
AcDbEntity
  8
3
370
    25
100
AcDbLine
 10
-50.097019
 20
190.528202
 30
0.0
 11
-51.132295
 21
186.664499
 31
0.0
  0
LINE
  5
3E6
100
AcDbEntity
  8
3
370
    25
100
AcDbLine
 10
-50.097019
 20
190.528202
 30
0.0
 11
-49.061743
 21
186.664499
 31
0.0
  0
LINE
  5
3E7
100
AcDbEntity
  8
3
370
    25
100
AcDbLine
 10
-51.132295
 20
186.664499
 30
0.0
 11
-49.061743
 21
186.664499
 31
0.0
  0
LINE
  5
3E8
100
AcDbEntity
  8
3
370
    25
100
AcDbLine
 10
-147.021856
 20
190.528202
 30
0.0
 11
-48.097019
 21
190.528202
 31
0.0
  0
ENDBLK
  5
3E9
100
AcDbEntity
  8
3
100
AcDbBlockEnd
  0
ENDSEC
  0
SECTION
  2
ENTITIES
  0
LINE
  5
2C
100
AcDbEntity
  8
1
370
   100
100
AcDbLine
 10
-373.02157
 20
275.028767
 30
0.0
 11
394.982385
 21
275.028767
 31
0.0
  0
LINE
  5
2D
100
AcDbEntity
  8
1
370
   100
100
AcDbLine
 10
-373.02157
 20
275.028767
 30
0.0
 11
-373.02157
 21
-277.971881
 31
0.0
  0
LINE
  5
2E
100
AcDbEntity
  8
1
370
   100
100
AcDbLine
 10
-373.02157
 20
-277.971881
 30
0.0
 11
394.982385
 21
-277.971881
 31
0.0
  0
LINE
  5
2F
100
AcDbEntity
  8
1
370
   100
100
AcDbLine
 10
394.982385
 20
-277.971881
 30
0.0
 11
394.982385
 21
275.028767
 31
0.0
  0
TEXT
  5
30
100
AcDbEntity
  8
1
370
    50
100
AcDbText
 10
359.628442
 20
-226.252857
 30
0.0
 40
6.0
  1
設計
 72
     5
 11
370.428442
 21
-226.252857
 31
0.0
100
AcDbText
  0
TEXT
  5
31
100
AcDbEntity
  8
1
370
    50
100
AcDbText
 10
379.127478
 20
-226.099658
 30
0.0
 40
6.0
  1
製図
 72
     5
 11
389.927478
 21
-226.099658
 31
0.0
100
AcDbText
  0
TEXT
  5
32
100
AcDbEntity
  8
1
370
    50
100
AcDbText
 10
319.005745
 20
-226.252857
 30
0.0
 40
6.0
  1
承認
 72
     5
 11
329.805745
 21
-226.252857
 31
0.0
100
AcDbText
  0
TEXT
  5
33
100
AcDbEntity
  8
1
370
    50
100
AcDbText
 10
338.989679
 20
-226.19802
 30
0.0
 40
6.0
  1
検図
 72
     5
 11
349.789679
 21
-226.19802
 31
0.0
100
AcDbText
  0
LINE
  5
34
100
AcDbEntity
  8
1
370
    25
100
AcDbLine
 10
284.982385
 20
-227.971881
 30
0.0
 11
394.982385
 21
-227.971881
 31
0.0
  0
LINE
  5
35
100
AcDbEntity
  8
1
370
    25
100
AcDbLine
 10
342.482385
 20
-245.971881
 30
0.0
 11
342.482385
 21
-259.971881
 31
0.0
  0
TEXT
  5
36
100
AcDbEntity
  8
1
370
    50
100
AcDbText
 10
319.55159
 20
-256.012528
 30
0.0
 40
6.0
  1
日　付
 72
     5
 11
336.35159
 21
-256.012528
 31
0.0
100
AcDbText
  0
LINE
  5
37
100
AcDbEntity
  8
1
370
    50
100
AcDbLine
 10
40.982385
 20
-259.971881
 30
0.0
 11
394.982385
 21
-259.971881
 31
0.0
  0
TEXT
  5
38
100
AcDbEntity
  8
1
370
    50
100
AcDbText
 10
287.775011
 20
-256.322406
 30
0.0
 40
6.0
  1
第三角法
 72
     5
 11
310.575011
 21
-256.322406
 31
0.0
100
AcDbText
  0
TEXT
  5
39
100
AcDbEntity
  8
1
370
    50
100
AcDbText
 10
291.087419
 20
-225.99802
 30
0.0
 40
6.0
  1
尺　度
 72
     5
 11
307.887419
 21
-225.99802
 31
0.0
100
AcDbText
  0
LINE
  5
3A
100
AcDbEntity
  8
1
370
   100
100
AcDbLine
 10
40.982385
 20
-217.971881
 30
0.0
 11
394.982385
 21
-217.971881
 31
0.0
  0
LINE
  5
3B
100
AcDbEntity
  8
1
370
    50
100
AcDbLine
 10
211.982385
 20
-217.971881
 30
0.0
 11
211.982385
 21
-277.971881
 31
0.0
  0
LINE
  5
3C
100
AcDbEntity
  8
1
370
    25
100
AcDbLine
 10
374.982385
 20
-245.971881
 30
0.0
 11
374.982385
 21
-217.971881
 31
0.0
  0
LINE
  5
3D
100
AcDbEntity
  8
1
370
    25
100
AcDbLine
 10
354.982385
 20
-245.971881
 30
0.0
 11
354.982385
 21
-217.971881
 31
0.0
  0
LINE
  5
3E
100
AcDbEntity
  8
1
370
    25
100
AcDbLine
 10
334.982385
 20
-245.971881
 30
0.0
 11
334.982385
 21
-217.971881
 31
0.0
  0
LINE
  5
3F
100
AcDbEntity
  8
1
370
    50
100
AcDbLine
 10
284.982385
 20
-277.971881
 30
0.0
 11
284.982385
 21
-217.971881
 31
0.0
  0
LINE
  5
40
100
AcDbEntity
  8
1
370
    50
100
AcDbLine
 10
189.982385
 20
-217.971881
 30
0.0
 11
189.982385
 21
-277.971881
 31
0.0
  0
LINE
  5
41
100
AcDbEntity
  8
1
370
    50
100
AcDbLine
 10
62.982385
 20
-217.971881
 30
0.0
 11
62.982385
 21
-259.971881
 31
0.0
  0
LINE
  5
42
100
AcDbEntity
  8
1
370
    50
100
AcDbLine
 10
284.982385
 20
-245.971881
 30
0.0
 11
394.982385
 21
-245.971881
 31
0.0
  0
TEXT
  5
43
100
AcDbEntity
  8
1
370
    50
100
AcDbText
 10
287.101129
 20
-271.880939
 30
0.0
 40
6.0
  1
コードＮｏ
 41
0.9
 72
     5
 11
313.021129
 21
-271.880939
 31
0.0
100
AcDbText
  0
TEXT
  5
44
100
AcDbEntity
  8
1
370
   100
100
AcDbText
 10
52.886774
 20
-272.875659
 30
0.0
 40
8.0
  1
ミズタニバルブ工業株式会社
 41
1.2
 72
     5
 11
175.766774
 21
-272.875659
 31
0.0
100
AcDbText
  0
LINE
  5
45
100
AcDbEntity
  8
1
370
    50
100
AcDbLine
 10
40.982385
 20
-238.971881
 30
0.0
 11
284.982385
 21
-238.971881
 31
0.0
  0
LINE
  5
46
100
AcDbEntity
  8
1
370
    50
100
AcDbLine
 10
115.482385
 20
-238.971881
 30
0.0
 11
115.482385
 21
-259.971881
 31
0.0
  0
LINE
  5
47
100
AcDbEntity
  8
1
370
    50
100
AcDbLine
 10
137.482385
 20
-238.971881
 30
0.0
 11
137.482385
 21
-259.971881
 31
0.0
  0
LINE
  5
48
100
AcDbEntity
  8
1
370
    50
100
AcDbLine
 10
314.982385
 20
-277.971881
 30
0.0
 11
314.982385
 21
-217.971881
 31
0.0
  0
TEXT
  5
49
100
AcDbEntity
  8
1
370
    50
100
AcDbText
 10
345.098131
 20
-256.100293
 30
0.0
 40
6.0
  1
　　・　　・
 72
     5
 11
379.898131
 21
-256.100293
 31
0.0
100
AcDbText
  0
LINE
  5
4A
100
AcDbEntity
  8
1
370
   100
100
AcDbLine
 10
40.982385
 20
-217.971881
 30
0.0
 11
40.982385
 21
-277.971881
 31
0.0
  0
TEXT
  5
4B
100
AcDbEntity
  8
1
370
    50
100
AcDbText
 10
290.832582
 20
-240.013492
 30
0.0
 40
6.0
  1
　／ 
 72
     5
 11
301.632582
 21
-240.013492
 31
0.0
100
AcDbText
  0
TEXT
  5
4C
100
AcDbEntity
  8
1
370
    50
100
AcDbText
 10
193.904123
 20
-272.024909
 30
0.0
 40
6.0
  1
備 考 
 72
     5
 11
207.704123
 21
-272.024909
 31
0.0
100
AcDbText
  0
TEXT
  5
4D
100
AcDbEntity
  8
1
370
    50
100
AcDbText
 10
193.512534
 20
-230.89184
 30
0.0
 40
6.0
  1
仕 上
 72
     5
 11
207.312534
 21
-230.89184
 31
0.0
100
AcDbText
  0
TEXT
  5
4E
100
AcDbEntity
  8
1
370
    50
100
AcDbText
 10
193.447176
 20
-248.891666
 30
0.0
 40
6.0
  1
表 面
 72
     5
 11
207.247176
 21
-248.891666
 31
0.0
100
AcDbText
  0
TEXT
  5
4F
100
AcDbEntity
  8
1
370
    50
100
AcDbText
 10
193.447176
 20
-255.891666
 30
0.0
 40
6.0
  1
処 理
 72
     5
 11
207.247176
 21
-255.891666
 31
0.0
100
AcDbText
  0
TEXT
  5
50
100
AcDbEntity
  8
1
370
    50
100
AcDbText
 10
44.79335
 20
-231.693399
 30
0.0
 40
6.0
  1
品 名
 72
     5
 11
58.59335
 21
-231.693399
 31
0.0
100
AcDbText
  0
TEXT
  5
51
100
AcDbEntity
  8
1
370
    50
100
AcDbText
 10
44.397766
 20
-252.462534
 30
0.0
 40
6.0
  1
材 質
 72
     5
 11
58.197766
 21
-252.462534
 31
0.0
100
AcDbText
  0
TEXT
  5
52
100
AcDbEntity
  8
1
370
    50
100
AcDbText
 10
118.897766
 20
-252.462534
 30
0.0
 40
6.0
  1
規 格
 72
     5
 11
132.697766
 21
-252.462534
 31
0.0
100
AcDbText
  0
LINE
  5
53
100
AcDbEntity
  8
2
370
    50
100
AcDbLine
 10
-86.021856
 20
-56.9718
 30
0.0
 11
-86.021856
 21
-48.471847
 31
0.0
  0
LINE
  5
54
100
AcDbEntity
  8
2
370
    50
100
AcDbLine
 10
-110.021856
 20
-56.9718
 30
0.0
 11
-110.021856
 21
-48.471847
 31
0.0
  0
ARC
  5
55
100
AcDbEntity
  8
2
370
    50
100
AcDbCircle
 10
-83.021856
 20
-56.9718
 30
0.0
 40
3.0
100
AcDbArc
 50
180.0
 51
270.0
  0
ARC
  5
56
100
AcDbEntity
  8
2
370
    50
100
AcDbCircle
 10
-113.021856
 20
-56.9718
 30
0.0
 40
3.0
100
AcDbArc
 50
270.0
 51
360.0
  0
LINE
  5
57
100
AcDbEntity
  8
2
370
    50
100
AcDbLine
 10
169.478144
 20
-77.9718
 30
0.0
 11
212.478144
 21
-77.9718
 31
0.0
  0
LINE
  5
58
100
AcDbEntity
  8
2
370
    25
  6
CENTER
100
AcDbLine
 10
-98.021856
 20
11.185038
 30
0.0
 11
-98.021856
 21
-151.900144
 31
0.0
  0
LINE
  5
59
100
AcDbEntity
  8
2
370
    50
100
AcDbLine
 10
-88.244356
 20
-80.9718
 30
0.0
 11
-88.744356
 21
-81.4718
 31
0.0
  0
LINE
  5
5A
100
AcDbEntity
  8
2
370
    50
100
AcDbLine
 10
-107.799356
 20
-80.9718
 30
0.0
 11
-107.299356
 21
-81.4718
 31
0.0
  0
LINE
  5
5B
100
AcDbEntity
  8
2
370
    50
100
AcDbLine
 10
-88.744356
 20
-81.4718
 30
0.0
 11
-107.299356
 21
-81.4718
 31
0.0
  0
LINE
  5
5C
100
AcDbEntity
  8
2
370
    50
100
AcDbLine
 10
-115.522303
 20
-100.7718
 30
0.0
 11
-115.522303
 21
-99.2718
 31
0.0
  0
LINE
  5
5D
100
AcDbEntity
  8
2
370
    50
100
AcDbLine
 10
-98.022303
 20
-99.2718
 30
0.0
 11
-115.522303
 21
-99.2718
 31
0.0
  0
LINE
  5
5E
100
AcDbEntity
  8
2
370
    50
100
AcDbLine
 10
-98.022303
 20
-100.7718
 30
0.0
 11
-115.522303
 21
-100.7718
 31
0.0
  0
LINE
  5
5F
100
AcDbEntity
  8
2
370
    50
100
AcDbLine
 10
-110.022303
 20
-109.4718
 30
0.0
 11
-98.022303
 21
-109.4718
 31
0.0
  0
LINE
  5
60
100
AcDbEntity
  8
2
370
    50
100
AcDbLine
 10
-111.772303
 20
-108.461437
 30
0.0
 11
-111.772303
 21
-102.9718
 31
0.0
  0
LINE
  5
61
100
AcDbEntity
  8
2
370
    50
100
AcDbLine
 10
-110.022303
 20
-109.4718
 30
0.0
 11
-111.772303
 21
-108.461437
 31
0.0
  0
LINE
  5
62
100
AcDbEntity
  8
2
370
    50
100
AcDbLine
 10
-118.022303
 20
-102.4718
 30
0.0
 11
-118.022303
 21
-101.2718
 31
0.0
  0
LINE
  5
63
100
AcDbEntity
  8
2
370
    50
100
AcDbLine
 10
-98.022303
 20
-102.9718
 30
0.0
 11
-112.342854
 21
-102.9718
 31
0.0
  0
LINE
  5
64
100
AcDbEntity
  8
2
370
    50
100
AcDbLine
 10
-118.022303
 20
-101.2718
 30
0.0
 11
-98.022303
 21
-101.2718
 31
0.0
  0
LINE
  5
65
100
AcDbEntity
  8
2
370
    50
100
AcDbLine
 10
-118.022303
 20
-102.4718
 30
0.0
 11
-98.022303
 21
-102.4718
 31
0.0
  0
ARC
  5
66
100
AcDbEntity
  8
2
370
    50
100
AcDbCircle
 10
-112.342854
 20
-97.9718
 30
0.0
 40
5.0
100
AcDbArc
 50
246.443536
 51
270.0
  0
ARC
  5
67
100
AcDbEntity
  8
2
370
    50
100
AcDbCircle
 10
-112.342854
 20
-105.7718
 30
0.0
 40
5.0
100
AcDbArc
 50
90.0
 51
113.556464
  0
ARC
  5
68
100
AcDbEntity
  8
2
370
    50
100
AcDbCircle
 10
-114.740769
 20
-103.4718
 30
0.0
 40
1.0
100
AcDbArc
 50
66.443536
 51
90.0
  0
ARC
  5
69
100
AcDbEntity
  8
2
370
    50
100
AcDbCircle
 10
-114.740769
 20
-100.2718
 30
0.0
 40
1.0
100
AcDbArc
 50
270.0
 51
293.556464
  0
LINE
  5
6A
100
AcDbEntity
  8
2
370
    50
100
AcDbLine
 10
-105.022303
 20
-108.461437
 30
0.0
 11
-105.022303
 21
-102.9718
 31
0.0
  0
ARC
  5
6B
100
AcDbEntity
  8
2
370
    50
100
AcDbCircle
 10
-98.022303
 20
-84.717907
 30
0.0
 40
24.753893
100
AcDbArc
 50
253.573579
 51
270.0
  0
ARC
  5
6C
100
AcDbEntity
  8
2
370
    50
100
AcDbCircle
 10
-108.397303
 20
-103.329721
 30
0.0
 40
6.142079
100
AcDbArc
 50
236.668091
 51
303.331909
  0
ARC
  5
6D
100
AcDbEntity
  8
2
370
    50
100
AcDbCircle
 10
-98.022303
 20
-86.7218
 30
0.0
 40
16.25
100
AcDbArc
 50
255.749967
 51
270.0
  0
ARC
  5
6E
100
AcDbEntity
  8
2
370
    50
100
AcDbCircle
 10
-106.272303
 20
-86.7218
 30
0.0
 40
16.25
100
AcDbArc
 50
255.749967
 51
277.069714
  0
ARC
  5
6F
100
AcDbEntity
  8
2
370
    50
100
AcDbCircle
 10
-102.272303
 20
-86.7218
 30
0.0
 40
16.25
100
AcDbArc
 50
255.749967
 51
277.514045
  0
ARC
  5
70
100
AcDbEntity
  8
2
370
    50
100
AcDbCircle
 10
-110.272303
 20
-86.7218
 30
0.0
 40
16.25
100
AcDbArc
 50
270.0
 51
277.069714
  0
ARC
  5
71
100
AcDbEntity
  8
2
370
    50
100
AcDbCircle
 10
-98.022303
 20
-117.0218
 30
0.0
 40
16.25
100
AcDbArc
 50
90.0
 51
104.250033
  0
ARC
  5
72
100
AcDbEntity
  8
2
370
    50
100
AcDbCircle
 10
-102.272303
 20
-117.0218
 30
0.0
 40
16.25
100
AcDbArc
 50
82.485955
 51
104.250033
  0
ARC
  5
73
100
AcDbEntity
  8
2
370
    50
100
AcDbCircle
 10
-106.272303
 20
-117.0218
 30
0.0
 40
16.25
100
AcDbArc
 50
82.930286
 51
104.250033
  0
ARC
  5
74
100
AcDbEntity
  8
2
370
    50
100
AcDbCircle
 10
-110.272303
 20
-117.0218
 30
0.0
 40
16.25
100
AcDbArc
 50
82.930286
 51
90.0
  0
LINE
  5
75
100
AcDbEntity
  8
2
370
    50
100
AcDbLine
 10
-109.521856
 20
-140.471845
 30
0.0
 11
-98.021856
 21
-140.471845
 31
0.0
  0
ARC
  5
76
100
AcDbEntity
  8
2
370
    50
100
AcDbCircle
 10
-95.746856
 20
-134.471845
 30
0.0
 40
15.025
100
AcDbArc
 50
156.463422
 51
203.536578
  0
LINE
  5
77
100
AcDbEntity
  8
2
370
    50
100
AcDbLine
 10
-109.521856
 20
-128.471845
 30
0.0
 11
-98.021856
 21
-128.471845
 31
0.0
  0
ELLIPSE
  5
78
100
AcDbEntity
  8
2
370
    50
100
AcDbEllipse
 10
-107.981148
 20
-134.471845
 30
0.0
 11
0.0
 21
6.0
 31
0.0
210
0.0
220
0.0
230
1.0
 40
0.458833
 41
0.0
 42
6.2831849999999996
  0
ELLIPSE
  5
79
100
AcDbEntity
  8
2
370
    50
100
AcDbEllipse
 10
-98.021856
 20
-134.471845
 30
0.0
 11
0.0
 21
6.0
 31
0.0
210
0.0
220
0.0
230
1.0
 40
0.926667
 41
0.0
 42
3.1415929999999999
  0
LINE
  5
7A
100
AcDbEntity
  8
2
370
    50
100
AcDbLine
 10
-80.521409
 20
-100.7718
 30
0.0
 11
-80.521409
 21
-99.2718
 31
0.0
  0
LINE
  5
7B
100
AcDbEntity
  8
2
370
    50
100
AcDbLine
 10
-98.021409
 20
-99.2718
 30
0.0
 11
-80.521409
 21
-99.2718
 31
0.0
  0
LINE
  5
7C
100
AcDbEntity
  8
2
370
    50
100
AcDbLine
 10
-98.021409
 20
-100.7718
 30
0.0
 11
-80.521409
 21
-100.7718
 31
0.0
  0
LINE
  5
7D
100
AcDbEntity
  8
2
370
    50
100
AcDbLine
 10
-86.021409
 20
-109.4718
 30
0.0
 11
-98.021409
 21
-109.4718
 31
0.0
  0
LINE
  5
7E
100
AcDbEntity
  8
2
370
    50
100
AcDbLine
 10
-84.271409
 20
-108.461437
 30
0.0
 11
-84.271409
 21
-102.9718
 31
0.0
  0
LINE
  5
7F
100
AcDbEntity
  8
2
370
    50
100
AcDbLine
 10
-86.021409
 20
-109.4718
 30
0.0
 11
-84.271409
 21
-108.461437
 31
0.0
  0
LINE
  5
80
100
AcDbEntity
  8
2
370
    50
100
AcDbLine
 10
-78.021409
 20
-102.4718
 30
0.0
 11
-78.021409
 21
-101.2718
 31
0.0
  0
LINE
  5
81
100
AcDbEntity
  8
2
370
    50
100
AcDbLine
 10
-98.021409
 20
-102.9718
 30
0.0
 11
-83.700858
 21
-102.9718
 31
0.0
  0
LINE
  5
82
100
AcDbEntity
  8
2
370
    50
100
AcDbLine
 10
-78.021409
 20
-101.2718
 30
0.0
 11
-98.021409
 21
-101.2718
 31
0.0
  0
LINE
  5
83
100
AcDbEntity
  8
2
370
    50
100
AcDbLine
 10
-78.021409
 20
-102.4718
 30
0.0
 11
-98.021409
 21
-102.4718
 31
0.0
  0
ARC
  5
84
100
AcDbEntity
  8
2
370
    50
100
AcDbCircle
 10
-83.700858
 20
-97.9718
 30
0.0
 40
5.0
100
AcDbArc
 50
270.0
 51
293.556464
  0
ARC
  5
85
100
AcDbEntity
  8
2
370
    50
100
AcDbCircle
 10
-83.700858
 20
-105.7718
 30
0.0
 40
5.0
100
AcDbArc
 50
66.443536
 51
90.0
  0
ARC
  5
86
100
AcDbEntity
  8
2
370
    50
100
AcDbCircle
 10
-81.302943
 20
-103.4718
 30
0.0
 40
1.0
100
AcDbArc
 50
90.0
 51
113.556464
  0
ARC
  5
87
100
AcDbEntity
  8
2
370
    50
100
AcDbCircle
 10
-81.302943
 20
-100.2718
 30
0.0
 40
1.0
100
AcDbArc
 50
246.443536
 51
270.0
  0
LINE
  5
88
100
AcDbEntity
  8
2
370
    50
100
AcDbLine
 10
-91.021409
 20
-108.461437
 30
0.0
 11
-91.021409
 21
-102.9718
 31
0.0
  0
ARC
  5
89
100
AcDbEntity
  8
2
370
    50
100
AcDbCircle
 10
-98.021409
 20
-84.717907
 30
0.0
 40
24.753893
100
AcDbArc
 50
270.0
 51
286.426421
  0
ARC
  5
8A
100
AcDbEntity
  8
2
370
    50
100
AcDbCircle
 10
-87.646409
 20
-103.329721
 30
0.0
 40
6.142079
100
AcDbArc
 50
236.668091
 51
303.331909
  0
ARC
  5
8B
100
AcDbEntity
  8
2
370
    50
100
AcDbCircle
 10
-89.771409
 20
-86.7218
 30
0.0
 40
16.25
100
AcDbArc
 50
262.930286
 51
284.250033
  0
ARC
  5
8C
100
AcDbEntity
  8
2
370
    50
100
AcDbCircle
 10
-93.771409
 20
-86.7218
 30
0.0
 40
16.25
100
AcDbArc
 50
262.485955
 51
284.250033
  0
ARC
  5
8D
100
AcDbEntity
  8
2
370
    50
100
AcDbCircle
 10
-85.771409
 20
-86.7218
 30
0.0
 40
16.25
100
AcDbArc
 50
262.930286
 51
270.0
  0
ARC
  5
8E
100
AcDbEntity
  8
2
370
    50
100
AcDbCircle
 10
-93.771409
 20
-117.0218
 30
0.0
 40
16.25
100
AcDbArc
 50
75.749967
 51
97.514045
  0
ARC
  5
8F
100
AcDbEntity
  8
2
370
    50
100
AcDbCircle
 10
-89.771409
 20
-117.0218
 30
0.0
 40
16.25
100
AcDbArc
 50
75.749967
 51
97.069714
  0
ARC
  5
90
100
AcDbEntity
  8
2
370
    50
100
AcDbCircle
 10
-85.771409
 20
-117.0218
 30
0.0
 40
16.25
100
AcDbArc
 50
90.0
 51
97.069714
  0
LINE
  5
91
100
AcDbEntity
  8
2
370
    50
100
AcDbLine
 10
-86.521856
 20
-140.471845
 30
0.0
 11
-98.021856
 21
-140.471845
 31
0.0
  0
ARC
  5
92
100
AcDbEntity
  8
2
370
    50
100
AcDbCircle
 10
-100.296856
 20
-134.471845
 30
0.0
 40
15.025
100
AcDbArc
 50
336.463422
 51
23.536578
  0
LINE
  5
93
100
AcDbEntity
  8
2
370
    50
100
AcDbLine
 10
-86.521856
 20
-128.471845
 30
0.0
 11
-98.021856
 21
-128.471845
 31
0.0
  0
ELLIPSE
  5
94
100
AcDbEntity
  8
2
370
    50
100
AcDbEllipse
 10
-88.062564
 20
-134.471845
 30
0.0
 11
0.0
 21
6.0
 31
0.0
210
0.0
220
0.0
230
1.0
 40
0.458833
 41
0.0
 42
6.2831849999999996
  0
ELLIPSE
  5
95
100
AcDbEntity
  8
2
370
    50
100
AcDbEllipse
 10
-98.021856
 20
-134.471845
 30
0.0
 11
0.0
 21
6.0
 31
0.0
210
0.0
220
0.0
230
1.0
 40
0.926667
 41
3.1415929999999999
 42
0.0
  0
LINE
  5
96
100
AcDbEntity
  8
2
370
    50
100
AcDbLine
 10
-87.544356
 20
-128.471845
 30
0.0
 11
-87.544356
 21
-109.4718
 31
0.0
  0
LINE
  5
97
100
AcDbEntity
  8
2
370
    50
100
AcDbLine
 10
-87.544356
 20
-99.2718
 30
0.0
 11
-87.544356
 21
-80.9718
 31
0.0
  0
LINE
  5
98
100
AcDbEntity
  8
2
370
    25
100
AcDbLine
 10
-88.744356
 20
-128.471845
 30
0.0
 11
-88.744356
 21
-109.4718
 31
0.0
  0
LINE
  5
99
100
AcDbEntity
  8
2
370
    25
100
AcDbLine
 10
-88.744356
 20
-99.2718
 30
0.0
 11
-88.744356
 21
-81.4718
 31
0.0
  0
LINE
  5
9A
100
AcDbEntity
  8
2
370
    50
100
AcDbLine
 10
-108.499356
 20
-128.471845
 30
0.0
 11
-108.499356
 21
-109.4718
 31
0.0
  0
LINE
  5
9B
100
AcDbEntity
  8
2
370
    50
100
AcDbLine
 10
-108.499356
 20
-99.2718
 30
0.0
 11
-108.499356
 21
-80.9718
 31
0.0
  0
LINE
  5
9C
100
AcDbEntity
  8
2
370
    25
100
AcDbLine
 10
-107.299356
 20
-128.471845
 30
0.0
 11
-107.299356
 21
-109.4718
 31
0.0
  0
LINE
  5
9D
100
AcDbEntity
  8
2
370
    25
100
AcDbLine
 10
-107.299356
 20
-99.2718
 30
0.0
 11
-107.299356
 21
-81.4718
 31
0.0
  0
LINE
  5
9E
100
AcDbEntity
  8
2
370
    50
100
AcDbLine
 10
200.755644
 20
-80.9718
 30
0.0
 11
200.255644
 21
-81.4718
 31
0.0
  0
LINE
  5
9F
100
AcDbEntity
  8
2
370
    50
100
AcDbLine
 10
181.200644
 20
-80.9718
 30
0.0
 11
181.700644
 21
-81.4718
 31
0.0
  0
LINE
  5
A0
100
AcDbEntity
  8
2
370
    50
100
AcDbLine
 10
200.255644
 20
-81.4718
 30
0.0
 11
181.700644
 21
-81.4718
 31
0.0
  0
LINE
  5
A1
100
AcDbEntity
  8
2
370
    50
100
AcDbLine
 10
173.477697
 20
-100.4718
 30
0.0
 11
173.477697
 21
-98.9718
 31
0.0
  0
LINE
  5
A2
100
AcDbEntity
  8
2
370
    50
100
AcDbLine
 10
190.977697
 20
-98.9718
 30
0.0
 11
173.477697
 21
-98.9718
 31
0.0
  0
LINE
  5
A3
100
AcDbEntity
  8
2
370
    50
100
AcDbLine
 10
190.977697
 20
-100.4718
 30
0.0
 11
173.477697
 21
-100.4718
 31
0.0
  0
LINE
  5
A4
100
AcDbEntity
  8
2
370
    50
100
AcDbLine
 10
178.977697
 20
-109.1718
 30
0.0
 11
190.977697
 21
-109.1718
 31
0.0
  0
LINE
  5
A5
100
AcDbEntity
  8
2
370
    50
100
AcDbLine
 10
177.227697
 20
-108.161437
 30
0.0
 11
177.227697
 21
-102.6718
 31
0.0
  0
LINE
  5
A6
100
AcDbEntity
  8
2
370
    50
100
AcDbLine
 10
178.977697
 20
-109.1718
 30
0.0
 11
177.227697
 21
-108.161437
 31
0.0
  0
LINE
  5
A7
100
AcDbEntity
  8
2
370
    50
100
AcDbLine
 10
170.977697
 20
-102.1718
 30
0.0
 11
170.977697
 21
-100.9718
 31
0.0
  0
LINE
  5
A8
100
AcDbEntity
  8
2
370
    50
100
AcDbLine
 10
190.977697
 20
-102.6718
 30
0.0
 11
176.657146
 21
-102.6718
 31
0.0
  0
LINE
  5
A9
100
AcDbEntity
  8
2
370
    50
100
AcDbLine
 10
170.977697
 20
-100.9718
 30
0.0
 11
190.977697
 21
-100.9718
 31
0.0
  0
LINE
  5
AA
100
AcDbEntity
  8
2
370
    50
100
AcDbLine
 10
170.977697
 20
-102.1718
 30
0.0
 11
190.977697
 21
-102.1718
 31
0.0
  0
ARC
  5
AB
100
AcDbEntity
  8
2
370
    50
100
AcDbCircle
 10
176.657146
 20
-97.6718
 30
0.0
 40
5.0
100
AcDbArc
 50
246.443536
 51
270.0
  0
ARC
  5
AC
100
AcDbEntity
  8
2
370
    50
100
AcDbCircle
 10
176.657146
 20
-105.4718
 30
0.0
 40
5.0
100
AcDbArc
 50
90.0
 51
113.556464
  0
ARC
  5
AD
100
AcDbEntity
  8
2
370
    50
100
AcDbCircle
 10
174.259231
 20
-103.1718
 30
0.0
 40
1.0
100
AcDbArc
 50
66.443536
 51
90.0
  0
ARC
  5
AE
100
AcDbEntity
  8
2
370
    50
100
AcDbCircle
 10
174.259231
 20
-99.9718
 30
0.0
 40
1.0
100
AcDbArc
 50
270.0
 51
293.556464
  0
LINE
  5
AF
100
AcDbEntity
  8
2
370
    50
100
AcDbLine
 10
183.977697
 20
-108.161437
 30
0.0
 11
183.977697
 21
-102.6718
 31
0.0
  0
ARC
  5
B0
100
AcDbEntity
  8
2
370
    50
100
AcDbCircle
 10
190.977697
 20
-84.417907
 30
0.0
 40
24.753893
100
AcDbArc
 50
253.573579
 51
270.0
  0
ARC
  5
B1
100
AcDbEntity
  8
2
370
    50
100
AcDbCircle
 10
180.602697
 20
-103.029721
 30
0.0
 40
6.142079
100
AcDbArc
 50
236.668091
 51
303.331909
  0
ARC
  5
B2
100
AcDbEntity
  8
2
370
    50
100
AcDbCircle
 10
190.977697
 20
-86.4218
 30
0.0
 40
16.25
100
AcDbArc
 50
255.749967
 51
270.0
  0
ARC
  5
B3
100
AcDbEntity
  8
2
370
    50
100
AcDbCircle
 10
182.727697
 20
-86.4218
 30
0.0
 40
16.25
100
AcDbArc
 50
255.749967
 51
277.069714
  0
ARC
  5
B4
100
AcDbEntity
  8
2
370
    50
100
AcDbCircle
 10
186.727697
 20
-86.4218
 30
0.0
 40
16.25
100
AcDbArc
 50
255.749967
 51
277.514045
  0
ARC
  5
B5
100
AcDbEntity
  8
2
370
    50
100
AcDbCircle
 10
178.727697
 20
-86.4218
 30
0.0
 40
16.25
100
AcDbArc
 50
270.0
 51
277.069714
  0
ARC
  5
B6
100
AcDbEntity
  8
2
370
    50
100
AcDbCircle
 10
190.977697
 20
-116.7218
 30
0.0
 40
16.25
100
AcDbArc
 50
90.0
 51
104.250033
  0
ARC
  5
B7
100
AcDbEntity
  8
2
370
    50
100
AcDbCircle
 10
186.727697
 20
-116.7218
 30
0.0
 40
16.25
100
AcDbArc
 50
82.485955
 51
104.250033
  0
ARC
  5
B8
100
AcDbEntity
  8
2
370
    50
100
AcDbCircle
 10
182.727697
 20
-116.7218
 30
0.0
 40
16.25
100
AcDbArc
 50
82.930286
 51
104.250033
  0
ARC
  5
B9
100
AcDbEntity
  8
2
370
    50
100
AcDbCircle
 10
178.727697
 20
-116.7218
 30
0.0
 40
16.25
100
AcDbArc
 50
82.930286
 51
90.0
  0
LINE
  5
BA
100
AcDbEntity
  8
2
370
    50
100
AcDbLine
 10
179.478144
 20
-140.471845
 30
0.0
 11
190.978144
 21
-140.471845
 31
0.0
  0
ARC
  5
BB
100
AcDbEntity
  8
2
370
    50
100
AcDbCircle
 10
193.253144
 20
-134.471845
 30
0.0
 40
15.025
100
AcDbArc
 50
156.463422
 51
203.536578
  0
LINE
  5
BC
100
AcDbEntity
  8
2
370
    50
100
AcDbLine
 10
179.478144
 20
-128.471845
 30
0.0
 11
190.978144
 21
-128.471845
 31
0.0
  0
ELLIPSE
  5
BD
100
AcDbEntity
  8
2
370
    50
100
AcDbEllipse
 10
181.018852
 20
-134.471845
 30
0.0
 11
0.0
 21
6.0
 31
0.0
210
0.0
220
0.0
230
1.0
 40
0.458833
 41
0.0
 42
6.2831849999999996
  0
ELLIPSE
  5
BE
100
AcDbEntity
  8
2
370
    50
100
AcDbEllipse
 10
190.978144
 20
-134.471845
 30
0.0
 11
0.0
 21
6.0
 31
0.0
210
0.0
220
0.0
230
1.0
 40
0.926667
 41
0.0
 42
3.1415929999999999
  0
LINE
  5
BF
100
AcDbEntity
  8
2
370
    50
100
AcDbLine
 10
208.478591
 20
-100.4718
 30
0.0
 11
208.478591
 21
-98.9718
 31
0.0
  0
LINE
  5
C0
100
AcDbEntity
  8
2
370
    50
100
AcDbLine
 10
190.978591
 20
-98.9718
 30
0.0
 11
208.478591
 21
-98.9718
 31
0.0
  0
LINE
  5
C1
100
AcDbEntity
  8
2
370
    50
100
AcDbLine
 10
190.978591
 20
-100.4718
 30
0.0
 11
208.478591
 21
-100.4718
 31
0.0
  0
LINE
  5
C2
100
AcDbEntity
  8
2
370
    50
100
AcDbLine
 10
202.978591
 20
-109.1718
 30
0.0
 11
190.978591
 21
-109.1718
 31
0.0
  0
LINE
  5
C3
100
AcDbEntity
  8
2
370
    50
100
AcDbLine
 10
204.728591
 20
-108.161437
 30
0.0
 11
204.728591
 21
-102.6718
 31
0.0
  0
LINE
  5
C4
100
AcDbEntity
  8
2
370
    50
100
AcDbLine
 10
202.978591
 20
-109.1718
 30
0.0
 11
204.728591
 21
-108.161437
 31
0.0
  0
LINE
  5
C5
100
AcDbEntity
  8
2
370
    50
100
AcDbLine
 10
210.978591
 20
-102.1718
 30
0.0
 11
210.978591
 21
-100.9718
 31
0.0
  0
LINE
  5
C6
100
AcDbEntity
  8
2
370
    50
100
AcDbLine
 10
190.978591
 20
-102.6718
 30
0.0
 11
205.299142
 21
-102.6718
 31
0.0
  0
LINE
  5
C7
100
AcDbEntity
  8
2
370
    50
100
AcDbLine
 10
210.978591
 20
-100.9718
 30
0.0
 11
190.978591
 21
-100.9718
 31
0.0
  0
LINE
  5
C8
100
AcDbEntity
  8
2
370
    50
100
AcDbLine
 10
210.978591
 20
-102.1718
 30
0.0
 11
190.978591
 21
-102.1718
 31
0.0
  0
ARC
  5
C9
100
AcDbEntity
  8
2
370
    50
100
AcDbCircle
 10
205.299142
 20
-97.6718
 30
0.0
 40
5.0
100
AcDbArc
 50
270.0
 51
293.556464
  0
ARC
  5
CA
100
AcDbEntity
  8
2
370
    50
100
AcDbCircle
 10
205.299142
 20
-105.4718
 30
0.0
 40
5.0
100
AcDbArc
 50
66.443536
 51
90.0
  0
ARC
  5
CB
100
AcDbEntity
  8
2
370
    50
100
AcDbCircle
 10
207.697057
 20
-103.1718
 30
0.0
 40
1.0
100
AcDbArc
 50
90.0
 51
113.556464
  0
ARC
  5
CC
100
AcDbEntity
  8
2
370
    50
100
AcDbCircle
 10
207.697057
 20
-99.9718
 30
0.0
 40
1.0
100
AcDbArc
 50
246.443536
 51
270.0
  0
LINE
  5
CD
100
AcDbEntity
  8
2
370
    50
100
AcDbLine
 10
197.978591
 20
-108.161437
 30
0.0
 11
197.978591
 21
-102.6718
 31
0.0
  0
ARC
  5
CE
100
AcDbEntity
  8
2
370
    50
100
AcDbCircle
 10
190.978591
 20
-84.417907
 30
0.0
 40
24.753893
100
AcDbArc
 50
270.0
 51
286.426421
  0
ARC
  5
CF
100
AcDbEntity
  8
2
370
    50
100
AcDbCircle
 10
201.353591
 20
-103.029721
 30
0.0
 40
6.142079
100
AcDbArc
 50
236.668091
 51
303.331909
  0
ARC
  5
D0
100
AcDbEntity
  8
2
370
    50
100
AcDbCircle
 10
199.228591
 20
-86.4218
 30
0.0
 40
16.25
100
AcDbArc
 50
262.930286
 51
284.250033
  0
ARC
  5
D1
100
AcDbEntity
  8
2
370
    50
100
AcDbCircle
 10
195.228591
 20
-86.4218
 30
0.0
 40
16.25
100
AcDbArc
 50
262.485955
 51
284.250033
  0
ARC
  5
D2
100
AcDbEntity
  8
2
370
    50
100
AcDbCircle
 10
203.228591
 20
-86.4218
 30
0.0
 40
16.25
100
AcDbArc
 50
262.930286
 51
270.0
  0
ARC
  5
D3
100
AcDbEntity
  8
2
370
    50
100
AcDbCircle
 10
195.228591
 20
-116.7218
 30
0.0
 40
16.25
100
AcDbArc
 50
75.749967
 51
97.514045
  0
ARC
  5
D4
100
AcDbEntity
  8
2
370
    50
100
AcDbCircle
 10
199.228591
 20
-116.7218
 30
0.0
 40
16.25
100
AcDbArc
 50
75.749967
 51
97.069714
  0
ARC
  5
D5
100
AcDbEntity
  8
2
370
    50
100
AcDbCircle
 10
203.228591
 20
-116.7218
 30
0.0
 40
16.25
100
AcDbArc
 50
90.0
 51
97.069714
  0
LINE
  5
D6
100
AcDbEntity
  8
2
370
    50
100
AcDbLine
 10
202.478144
 20
-140.471845
 30
0.0
 11
190.978144
 21
-140.471845
 31
0.0
  0
ARC
  5
D7
100
AcDbEntity
  8
2
370
    50
100
AcDbCircle
 10
188.703144
 20
-134.471845
 30
0.0
 40
15.025
100
AcDbArc
 50
336.463422
 51
23.536578
  0
LINE
  5
D8
100
AcDbEntity
  8
2
370
    50
100
AcDbLine
 10
202.478144
 20
-128.471845
 30
0.0
 11
190.978144
 21
-128.471845
 31
0.0
  0
ELLIPSE
  5
D9
100
AcDbEntity
  8
2
370
    50
100
AcDbEllipse
 10
200.937436
 20
-134.471845
 30
0.0
 11
0.0
 21
6.0
 31
0.0
210
0.0
220
0.0
230
1.0
 40
0.458833
 41
0.0
 42
6.2831849999999996
  0
ELLIPSE
  5
DA
100
AcDbEntity
  8
2
370
    50
100
AcDbEllipse
 10
190.978144
 20
-134.471845
 30
0.0
 11
0.0
 21
6.0
 31
0.0
210
0.0
220
0.0
230
1.0
 40
0.926667
 41
3.1415929999999999
 42
0.0
  0
LINE
  5
DB
100
AcDbEntity
  8
2
370
    50
100
AcDbLine
 10
201.455644
 20
-128.471845
 30
0.0
 11
201.455644
 21
-109.1718
 31
0.0
  0
LINE
  5
DC
100
AcDbEntity
  8
2
370
    50
100
AcDbLine
 10
201.455644
 20
-98.9718
 30
0.0
 11
201.455644
 21
-80.9718
 31
0.0
  0
LINE
  5
DD
100
AcDbEntity
  8
2
370
    25
100
AcDbLine
 10
200.255644
 20
-128.471845
 30
0.0
 11
200.255644
 21
-109.1718
 31
0.0
  0
LINE
  5
DE
100
AcDbEntity
  8
2
370
    25
100
AcDbLine
 10
200.255644
 20
-98.9718
 30
0.0
 11
200.255644
 21
-81.4718
 31
0.0
  0
LINE
  5
DF
100
AcDbEntity
  8
2
370
    50
100
AcDbLine
 10
180.500644
 20
-128.471845
 30
0.0
 11
180.500644
 21
-109.1718
 31
0.0
  0
LINE
  5
E0
100
AcDbEntity
  8
2
370
    50
100
AcDbLine
 10
180.500644
 20
-98.9718
 30
0.0
 11
180.500644
 21
-80.9718
 31
0.0
  0
LINE
  5
E1
100
AcDbEntity
  8
2
370
    25
100
AcDbLine
 10
181.700644
 20
-128.471845
 30
0.0
 11
181.700644
 21
-109.1718
 31
0.0
  0
LINE
  5
E2
100
AcDbEntity
  8
2
370
    25
100
AcDbLine
 10
181.700644
 20
-98.9718
 30
0.0
 11
181.700644
 21
-81.4718
 31
0.0
  0
LINE
  5
E3
100
AcDbEntity
  8
2
370
    50
100
AcDbLine
 10
169.478144
 20
-80.9718
 30
0.0
 11
212.478144
 21
-80.9718
 31
0.0
  0
POINT
  5
E4
100
AcDbEntity
  8
2
370
    50
100
AcDbPoint
 10
-98.021314
 20
169.028034
 30
0.0
  0
POINT
  5
E5
100
AcDbEntity
  8
2
370
    50
100
AcDbPoint
 10
-98.021783
 20
169.028202
 30
0.0
  0
ARC
  5
E6
100
AcDbEntity
  8
2
370
    50
100
AcDbCircle
 10
205.978144
 20
-56.9718
 30
0.0
 40
3.0
100
AcDbArc
 50
180.0
 51
270.0
  0
ARC
  5
E7
100
AcDbEntity
  8
2
370
    50
100
AcDbCircle
 10
175.978144
 20
-56.9718
 30
0.0
 40
3.0
100
AcDbArc
 50
270.0
 51
360.0
  0
LINE
  5
E8
100
AcDbEntity
  8
2
370
    50
100
AcDbLine
 10
-78.021856
 20
-77.9718
 30
0.0
 11
-220.021856
 21
-77.9718
 31
0.0
  0
LINE
  5
E9
100
AcDbEntity
  8
2
370
    50
100
AcDbLine
 10
-78.021856
 20
-80.9718
 30
0.0
 11
-220.021856
 21
-80.9718
 31
0.0
  0
ARC
  5
EA
100
AcDbEntity
  8
2
370
    50
100
AcDbCircle
 10
-23.290334
 20
-27.05101
 30
0.0
 40
100.0
100
AcDbArc
 50
168.537652
 51
188.388164
  0
ARC
  5
EB
100
AcDbEntity
  8
2
370
    50
100
AcDbCircle
 10
-112.475386
 20
-8.967133
 30
0.0
 40
9.0
100
AcDbArc
 50
96.34007
 51
168.537652
  0
ARC
  5
EC
100
AcDbEntity
  8
2
370
    50
100
AcDbCircle
 10
-98.009133
 20
-139.165933
 30
0.0
 40
140.0
100
AcDbArc
 50
93.788374
 51
96.34007
  0
ARC
  5
ED
100
AcDbEntity
  8
2
370
    50
100
AcDbCircle
 10
-105.759133
 20
1.147091
 30
0.0
 40
1.0
100
AcDbArc
 50
95.629843
 51
180.0
  0
ARC
  5
EE
100
AcDbEntity
  8
2
370
    50
100
AcDbCircle
 10
-98.009133
 20
-77.471847
 30
0.0
 40
80.0
100
AcDbArc
 50
84.370157
 51
95.629843
  0
ARC
  5
EF
100
AcDbEntity
  8
2
370
    50
100
AcDbCircle
 10
-90.259133
 20
1.147091
 30
0.0
 40
1.0
100
AcDbArc
 50
0.0
 51
84.370157
  0
LINE
  5
F0
100
AcDbEntity
  8
2
370
    50
100
AcDbLine
 10
-88.759133
 20
0.528153
 30
0.0
 11
-107.259133
 21
0.528153
 31
0.0
  0
ARC
  5
F1
100
AcDbEntity
  8
2
370
    50
100
AcDbCircle
 10
-98.009133
 20
-139.165933
 30
0.0
 40
140.0
100
AcDbArc
 50
83.65993
 51
86.211626
  0
ARC
  5
F2
100
AcDbEntity
  8
2
370
    50
100
AcDbCircle
 10
-83.542881
 20
-8.967133
 30
0.0
 40
9.0
100
AcDbArc
 50
11.462348
 51
83.65993
  0
ARC
  5
F3
100
AcDbEntity
  8
2
370
    50
100
AcDbCircle
 10
-172.727932
 20
-27.05101
 30
0.0
 40
100.0
100
AcDbArc
 50
351.611836
 51
11.462348
  0
ARC
  5
F4
100
AcDbEntity
  8
2
370
    50
100
AcDbCircle
 10
-81.712103
 20
-40.471847
 30
0.0
 40
8.0
100
AcDbArc
 50
270.0
 51
351.611836
  0
LINE
  5
F5
100
AcDbEntity
  8
2
370
    50
100
AcDbLine
 10
-81.712103
 20
-48.471847
 30
0.0
 11
-114.306163
 21
-48.471847
 31
0.0
  0
ARC
  5
F6
100
AcDbEntity
  8
2
370
    50
100
AcDbCircle
 10
-114.306163
 20
-40.471847
 30
0.0
 40
8.0
100
AcDbArc
 50
188.388164
 51
270.0
  0
LINE
  5
F7
100
AcDbEntity
  8
2
370
    50
100
AcDbLine
 10
-89.259133
 20
1.147091
 30
0.0
 11
-89.259133
 21
0.528153
 31
0.0
  0
LINE
  5
F8
100
AcDbEntity
  8
2
370
    50
100
AcDbLine
 10
-106.759133
 20
1.147091
 30
0.0
 11
-106.759133
 21
0.528153
 31
0.0
  0
ARC
  5
F9
100
AcDbEntity
  8
2
370
    50
100
AcDbCircle
 10
-207.674074
 20
-27.566182
 30
0.0
 40
120.0
100
AcDbArc
 50
355.059572
 51
9.155483
  0
ARC
  5
FA
100
AcDbEntity
  8
2
370
    50
100
AcDbCircle
 10
11.655807
 20
-27.566182
 30
0.0
 40
120.0
100
AcDbArc
 50
170.844517
 51
184.940428
  0
ARC
  5
FB
100
AcDbEntity
  8
2
370
    50
100
AcDbCircle
 10
-98.009133
 20
-9.891768
 30
0.0
 40
8.91992
100
AcDbArc
 50
9.155483
 51
170.844517
  0
ARC
  5
FC
100
AcDbEntity
  8
2
370
    50
100
AcDbCircle
 10
-98.009133
 20
-37.045737
 30
0.0
 40
9.926111
100
AcDbArc
 50
184.940428
 51
355.059572
  0
LINE
  5
FD
100
AcDbEntity
  8
2
370
    50
100
AcDbLine
 10
-83.509133
 20
-2.971847
 30
0.0
 11
-83.509133
 21
-43.971847
 31
0.0
  0
LINE
  5
FE
100
AcDbEntity
  8
2
370
    50
100
AcDbLine
 10
-112.509133
 20
-2.971847
 30
0.0
 11
-112.509133
 21
-43.971847
 31
0.0
  0
ARC
  5
FF
100
AcDbEntity
  8
2
370
    50
100
AcDbCircle
 10
-172.727932
 20
-27.05101
 30
0.0
 40
99.5
100
AcDbArc
 50
352.362481
 51
11.528523
  0
ARC
  5
100
100
AcDbEntity
  8
2
370
    50
100
AcDbCircle
 10
-23.290334
 20
-27.05101
 30
0.0
 40
99.5
100
AcDbArc
 50
168.471477
 51
187.637519
  0
ARC
  5
101
100
AcDbEntity
  8
2
370
    50
100
AcDbCircle
 10
-112.944352
 20
-8.76421
 30
0.0
 40
8.0
100
AcDbArc
 50
105.117347
 51
168.471477
  0
ARC
  5
102
100
AcDbEntity
  8
2
370
    50
100
AcDbCircle
 10
-114.509133
 20
-2.971847
 30
0.0
 40
2.0
100
AcDbArc
 50
0.0
 51
105.117347
  0
ARC
  5
103
100
AcDbEntity
  8
2
370
    50
100
AcDbCircle
 10
-83.073914
 20
-8.76421
 30
0.0
 40
8.0
100
AcDbArc
 50
11.528523
 51
74.882653
  0
ARC
  5
104
100
AcDbEntity
  8
2
370
    50
100
AcDbCircle
 10
-81.509133
 20
-2.971847
 30
0.0
 40
2.0
100
AcDbArc
 50
74.882653
 51
180.0
  0
ARC
  5
105
100
AcDbEntity
  8
2
370
    50
100
AcDbCircle
 10
-113.978613
 20
-39.211857
 30
0.0
 40
8.0
100
AcDbArc
 50
187.637519
 51
252.175397
  0
ARC
  5
106
100
AcDbEntity
  8
2
370
    50
100
AcDbCircle
 10
-115.509133
 20
-43.971847
 30
0.0
 40
3.0
100
AcDbArc
 50
252.175397
 51
360.0
  0
ARC
  5
107
100
AcDbEntity
  8
2
370
    50
100
AcDbCircle
 10
-80.509133
 20
-43.971847
 30
0.0
 40
3.0
100
AcDbArc
 50
180.0
 51
287.824603
  0
ARC
  5
108
100
AcDbEntity
  8
2
370
    50
100
AcDbCircle
 10
-82.039654
 20
-39.211857
 30
0.0
 40
8.0
100
AcDbArc
 50
287.824603
 51
352.362481
  0
CIRCLE
  5
109
100
AcDbEntity
  8
2
370
    50
100
AcDbCircle
 10
-98.021783
 20
169.028202
 30
0.0
 40
8.0
  0
ARC
  5
10A
100
AcDbEntity
  8
2
370
    50
100
AcDbCircle
 10
-133.269017
 20
189.378202
 30
0.0
 40
20.2
100
AcDbArc
 50
300.807097
 51
359.193658
  0
ARC
  5
10B
100
AcDbEntity
  8
2
370
    50
100
AcDbCircle
 10
-129.97812
 20
187.478202
 30
0.0
 40
17.9
100
AcDbArc
 50
292.120687
 51
7.879313
  0
ARC
  5
10C
100
AcDbEntity
  8
2
370
    50
100
AcDbCircle
 10
-129.97812
 20
150.578202
 30
0.0
 40
17.9
100
AcDbArc
 50
352.120687
 51
67.879313
  0
ARC
  5
10D
100
AcDbEntity
  8
2
370
    50
100
AcDbCircle
 10
-133.269017
 20
148.678202
 30
0.0
 40
20.2
100
AcDbArc
 50
0.806342
 51
59.192903
  0
ARC
  5
10E
100
AcDbEntity
  8
2
370
    50
100
AcDbCircle
 10
-98.021783
 20
132.128202
 30
0.0
 40
17.9
100
AcDbArc
 50
52.120687
 51
127.879313
  0
ARC
  5
10F
100
AcDbEntity
  8
2
370
    50
100
AcDbCircle
 10
-98.021783
 20
128.328202
 30
0.0
 40
20.2
100
AcDbArc
 50
60.804497
 51
119.193992
  0
ARC
  5
110
100
AcDbEntity
  8
2
370
    50
100
AcDbCircle
 10
-66.065446
 20
150.578202
 30
0.0
 40
17.9
100
AcDbArc
 50
112.136637
 51
187.879313
  0
ARC
  5
111
100
AcDbEntity
  8
2
370
    50
100
AcDbCircle
 10
-66.065446
 20
187.478202
 30
0.0
 40
17.9
100
AcDbArc
 50
172.120687
 51
247.879313
  0
ARC
  5
112
100
AcDbEntity
  8
2
370
    50
100
AcDbCircle
 10
-62.774549
 20
189.378202
 30
0.0
 40
20.2
100
AcDbArc
 50
180.804164
 51
239.196591
  0
ARC
  5
113
100
AcDbEntity
  8
2
370
    50
100
AcDbCircle
 10
-98.021783
 20
205.928202
 30
0.0
 40
17.9
100
AcDbArc
 50
232.120687
 51
307.879313
  0
ARC
  5
114
100
AcDbEntity
  8
2
370
    50
100
AcDbCircle
 10
-98.021783
 20
209.728202
 30
0.0
 40
20.2
100
AcDbArc
 50
240.806008
 51
299.195503
  0
ARC
  5
115
100
AcDbEntity
  8
2
370
    50
100
AcDbCircle
 10
-62.774549
 20
148.678202
 30
0.0
 40
20.2
100
AcDbArc
 50
120.803409
 51
179.195836
  0
ARC
  5
116
100
AcDbEntity
  8
2
370
    50
100
AcDbCircle
 10
-98.021246
 20
169.028202
 30
0.0
 40
25.28
100
AcDbArc
 50
114.046586
 51
125.955719
  0
ARC
  5
117
100
AcDbEntity
  8
2
370
    50
100
AcDbCircle
 10
-98.021246
 20
169.028202
 30
0.0
 40
25.28
100
AcDbArc
 50
174.045037
 51
185.954963
  0
ARC
  5
118
100
AcDbEntity
  8
2
370
    50
100
AcDbCircle
 10
-98.021246
 20
169.028202
 30
0.0
 40
25.28
100
AcDbArc
 50
234.044281
 51
245.953414
  0
ARC
  5
119
100
AcDbEntity
  8
2
370
    50
100
AcDbCircle
 10
-98.021246
 20
169.028202
 30
0.0
 40
25.28
100
AcDbArc
 50
294.045074
 51
305.952621
  0
ARC
  5
11A
100
AcDbEntity
  8
2
370
    50
100
AcDbCircle
 10
-98.021246
 20
169.028202
 30
0.0
 40
25.28
100
AcDbArc
 50
354.046623
 51
5.953377
  0
ARC
  5
11B
100
AcDbEntity
  8
2
370
    50
100
AcDbCircle
 10
-98.021246
 20
169.028202
 30
0.0
 40
25.28
100
AcDbArc
 50
54.047379
 51
65.954926
  0
ARC
  5
11C
100
AcDbEntity
  8
2
370
    50
100
AcDbCircle
 10
-108.118583
 20
146.398748
 30
0.0
 40
0.5
100
AcDbArc
 50
245.953414
 51
299.193992
  0
ARC
  5
11D
100
AcDbEntity
  8
2
370
    50
100
AcDbCircle
 10
-112.571067
 20
148.96951
 30
0.0
 40
0.5
100
AcDbArc
 50
180.806342
 51
234.044281
  0
ARC
  5
11E
100
AcDbEntity
  8
2
370
    50
100
AcDbCircle
 10
-122.667527
 20
166.457359
 30
0.0
 40
0.5
100
AcDbArc
 50
185.954963
 51
239.192903
  0
ARC
  5
11F
100
AcDbEntity
  8
2
370
    50
100
AcDbCircle
 10
-122.667527
 20
171.599045
 30
0.0
 40
0.5
100
AcDbArc
 50
120.807097
 51
174.045037
  0
ARC
  5
120
100
AcDbEntity
  8
2
370
    50
100
AcDbCircle
 10
-112.571067
 20
189.086894
 30
0.0
 40
0.5
100
AcDbArc
 50
125.955719
 51
179.193658
  0
ARC
  5
121
100
AcDbEntity
  8
2
370
    50
100
AcDbCircle
 10
-108.118583
 20
191.657656
 30
0.0
 40
0.5
100
AcDbArc
 50
60.806008
 51
114.046586
  0
ARC
  5
122
100
AcDbEntity
  8
2
370
    50
100
AcDbCircle
 10
-87.924506
 20
191.657922
 30
0.0
 40
0.5
100
AcDbArc
 50
65.954926
 51
119.195503
  0
ARC
  5
123
100
AcDbEntity
  8
2
370
    50
100
AcDbCircle
 10
-83.47251
 20
189.08768
 30
0.0
 40
0.5
100
AcDbArc
 50
0.804164
 51
54.047379
  0
ARC
  5
124
100
AcDbEntity
  8
2
370
    50
100
AcDbCircle
 10
-73.374894
 20
171.598363
 30
0.0
 40
0.5
100
AcDbArc
 50
5.953377
 51
59.196591
  0
ARC
  5
125
100
AcDbEntity
  8
2
370
    50
100
AcDbCircle
 10
-73.374894
 20
166.458041
 30
0.0
 40
0.5
100
AcDbArc
 50
300.803409
 51
354.046623
  0
ARC
  5
126
100
AcDbEntity
  8
2
370
    50
100
AcDbCircle
 10
-83.47251
 20
148.968723
 30
0.0
 40
0.5
100
AcDbArc
 50
305.952621
 51
359.195836
  0
ARC
  5
127
100
AcDbEntity
  8
2
370
    50
100
AcDbCircle
 10
-87.924506
 20
146.398481
 30
0.0
 40
0.5
100
AcDbArc
 50
240.804497
 51
294.045074
  0
POINT
  5
128
100
AcDbEntity
  8
2
370
    50
100
AcDbPoint
 10
-98.021783
 20
169.028202
 30
0.0
  0
ARC
  5
129
100
AcDbEntity
  8
2
370
    50
100
AcDbCircle
 10
-235.269017
 20
189.378202
 30
0.0
 40
20.2
100
AcDbArc
 50
300.807097
 51
359.193658
  0
ARC
  5
12A
100
AcDbEntity
  8
2
370
    50
100
AcDbCircle
 10
-231.97812
 20
187.478202
 30
0.0
 40
17.9
100
AcDbArc
 50
292.120687
 51
7.879313
  0
ARC
  5
12B
100
AcDbEntity
  8
2
370
    50
100
AcDbCircle
 10
-231.97812
 20
150.578202
 30
0.0
 40
17.9
100
AcDbArc
 50
352.120687
 51
67.879313
  0
ARC
  5
12C
100
AcDbEntity
  8
2
370
    50
100
AcDbCircle
 10
-235.269017
 20
148.678202
 30
0.0
 40
20.2
100
AcDbArc
 50
0.806342
 51
59.192903
  0
ARC
  5
12D
100
AcDbEntity
  8
2
370
    50
100
AcDbCircle
 10
-200.021783
 20
132.128202
 30
0.0
 40
17.9
100
AcDbArc
 50
52.120687
 51
127.879313
  0
ARC
  5
12E
100
AcDbEntity
  8
2
370
    50
100
AcDbCircle
 10
-200.021783
 20
128.328202
 30
0.0
 40
20.2
100
AcDbArc
 50
60.804497
 51
119.193992
  0
ARC
  5
12F
100
AcDbEntity
  8
2
370
    50
100
AcDbCircle
 10
-168.065446
 20
150.578202
 30
0.0
 40
17.9
100
AcDbArc
 50
112.136637
 51
187.879313
  0
ARC
  5
130
100
AcDbEntity
  8
2
370
    50
100
AcDbCircle
 10
-168.065446
 20
187.478202
 30
0.0
 40
17.9
100
AcDbArc
 50
172.120687
 51
247.879313
  0
ARC
  5
131
100
AcDbEntity
  8
2
370
    50
100
AcDbCircle
 10
-164.774549
 20
189.378202
 30
0.0
 40
20.2
100
AcDbArc
 50
180.804164
 51
239.196591
  0
ARC
  5
132
100
AcDbEntity
  8
2
370
    50
100
AcDbCircle
 10
-200.021783
 20
205.928202
 30
0.0
 40
17.9
100
AcDbArc
 50
232.120687
 51
307.879313
  0
ARC
  5
133
100
AcDbEntity
  8
2
370
    50
100
AcDbCircle
 10
-200.021783
 20
209.728202
 30
0.0
 40
20.2
100
AcDbArc
 50
240.806008
 51
299.195503
  0
ARC
  5
134
100
AcDbEntity
  8
2
370
    50
100
AcDbCircle
 10
-164.774549
 20
148.678202
 30
0.0
 40
20.2
100
AcDbArc
 50
120.803409
 51
179.195836
  0
ARC
  5
135
100
AcDbEntity
  8
2
370
    50
100
AcDbCircle
 10
-200.021246
 20
169.028202
 30
0.0
 40
25.28
100
AcDbArc
 50
114.046586
 51
125.955719
  0
ARC
  5
136
100
AcDbEntity
  8
2
370
    50
100
AcDbCircle
 10
-200.021246
 20
169.028202
 30
0.0
 40
25.28
100
AcDbArc
 50
174.045037
 51
185.954963
  0
ARC
  5
137
100
AcDbEntity
  8
2
370
    50
100
AcDbCircle
 10
-200.021246
 20
169.028202
 30
0.0
 40
25.28
100
AcDbArc
 50
234.044281
 51
245.953414
  0
ARC
  5
138
100
AcDbEntity
  8
2
370
    50
100
AcDbCircle
 10
-200.021246
 20
169.028202
 30
0.0
 40
25.28
100
AcDbArc
 50
294.045074
 51
305.952621
  0
ARC
  5
139
100
AcDbEntity
  8
2
370
    50
100
AcDbCircle
 10
-200.021246
 20
169.028202
 30
0.0
 40
25.28
100
AcDbArc
 50
354.046623
 51
5.953377
  0
ARC
  5
13A
100
AcDbEntity
  8
2
370
    50
100
AcDbCircle
 10
-200.021246
 20
169.028202
 30
0.0
 40
25.28
100
AcDbArc
 50
54.047379
 51
65.954926
  0
ARC
  5
13B
100
AcDbEntity
  8
2
370
    50
100
AcDbCircle
 10
-210.118583
 20
146.398748
 30
0.0
 40
0.5
100
AcDbArc
 50
245.953414
 51
299.193992
  0
ARC
  5
13C
100
AcDbEntity
  8
2
370
    50
100
AcDbCircle
 10
-214.571067
 20
148.96951
 30
0.0
 40
0.5
100
AcDbArc
 50
180.806342
 51
234.044281
  0
ARC
  5
13D
100
AcDbEntity
  8
2
370
    50
100
AcDbCircle
 10
-224.667527
 20
166.457359
 30
0.0
 40
0.5
100
AcDbArc
 50
185.954963
 51
239.192903
  0
ARC
  5
13E
100
AcDbEntity
  8
2
370
    50
100
AcDbCircle
 10
-224.667527
 20
171.599045
 30
0.0
 40
0.5
100
AcDbArc
 50
120.807097
 51
174.045037
  0
ARC
  5
13F
100
AcDbEntity
  8
2
370
    50
100
AcDbCircle
 10
-214.571067
 20
189.086894
 30
0.0
 40
0.5
100
AcDbArc
 50
125.955719
 51
179.193658
  0
ARC
  5
140
100
AcDbEntity
  8
2
370
    50
100
AcDbCircle
 10
-210.118583
 20
191.657656
 30
0.0
 40
0.5
100
AcDbArc
 50
60.806008
 51
114.046586
  0
ARC
  5
141
100
AcDbEntity
  8
2
370
    50
100
AcDbCircle
 10
-189.924506
 20
191.657922
 30
0.0
 40
0.5
100
AcDbArc
 50
65.954926
 51
119.195503
  0
ARC
  5
142
100
AcDbEntity
  8
2
370
    50
100
AcDbCircle
 10
-185.47251
 20
189.08768
 30
0.0
 40
0.5
100
AcDbArc
 50
0.804164
 51
54.047379
  0
ARC
  5
143
100
AcDbEntity
  8
2
370
    50
100
AcDbCircle
 10
-175.374894
 20
171.598363
 30
0.0
 40
0.5
100
AcDbArc
 50
5.953377
 51
59.196591
  0
ARC
  5
144
100
AcDbEntity
  8
2
370
    50
100
AcDbCircle
 10
-175.374894
 20
166.458041
 30
0.0
 40
0.5
100
AcDbArc
 50
300.803409
 51
354.046623
  0
ARC
  5
145
100
AcDbEntity
  8
2
370
    50
100
AcDbCircle
 10
-185.47251
 20
148.968723
 30
0.0
 40
0.5
100
AcDbArc
 50
305.952621
 51
359.195836
  0
ARC
  5
146
100
AcDbEntity
  8
2
370
    50
100
AcDbCircle
 10
-189.924506
 20
146.398481
 30
0.0
 40
0.5
100
AcDbArc
 50
240.804497
 51
294.045074
  0
CIRCLE
  5
147
100
AcDbEntity
  8
2
370
    50
100
AcDbCircle
 10
-200.021783
 20
169.028202
 30
0.0
 40
8.0
  0
POINT
  5
148
100
AcDbEntity
  8
2
370
    50
100
AcDbPoint
 10
-200.021783
 20
169.028202
 30
0.0
  0
POINT
  5
149
100
AcDbEntity
  8
2
370
    50
100
AcDbPoint
 10
-98.021856
 20
-17.471847
 30
0.0
  0
LINE
  5
14A
100
AcDbEntity
  8
2
370
    50
100
AcDbLine
 10
-212.021856
 20
-56.9718
 30
0.0
 11
-212.021856
 21
-48.471847
 31
0.0
  0
LINE
  5
14B
100
AcDbEntity
  8
2
370
    50
100
AcDbLine
 10
-188.021856
 20
-56.9718
 30
0.0
 11
-188.021856
 21
-48.471847
 31
0.0
  0
ARC
  5
14C
100
AcDbEntity
  8
2
370
    50
100
AcDbCircle
 10
-215.021856
 20
-56.9718
 30
0.0
 40
3.0
100
AcDbArc
 50
270.0
 51
360.0
  0
ARC
  5
14D
100
AcDbEntity
  8
2
370
    50
100
AcDbCircle
 10
-185.021856
 20
-56.9718
 30
0.0
 40
3.0
100
AcDbArc
 50
180.0
 51
270.0
  0
LINE
  5
14E
100
AcDbEntity
  8
2
370
    25
  6
CENTER
100
AcDbLine
 10
-200.021856
 20
11.185038
 30
0.0
 11
-200.021856
 21
-151.900144
 31
0.0
  0
LINE
  5
14F
100
AcDbEntity
  8
2
370
    50
100
AcDbLine
 10
-209.799356
 20
-80.9718
 30
0.0
 11
-209.299356
 21
-81.4718
 31
0.0
  0
LINE
  5
150
100
AcDbEntity
  8
2
370
    50
100
AcDbLine
 10
-190.244356
 20
-80.9718
 30
0.0
 11
-190.744356
 21
-81.4718
 31
0.0
  0
LINE
  5
151
100
AcDbEntity
  8
2
370
    50
100
AcDbLine
 10
-209.299356
 20
-81.4718
 30
0.0
 11
-190.744356
 21
-81.4718
 31
0.0
  0
LINE
  5
152
100
AcDbEntity
  8
2
370
    50
100
AcDbLine
 10
-182.521409
 20
-100.7718
 30
0.0
 11
-182.521409
 21
-99.2718
 31
0.0
  0
LINE
  5
153
100
AcDbEntity
  8
2
370
    50
100
AcDbLine
 10
-200.021409
 20
-99.2718
 30
0.0
 11
-182.521409
 21
-99.2718
 31
0.0
  0
LINE
  5
154
100
AcDbEntity
  8
2
370
    50
100
AcDbLine
 10
-200.021409
 20
-100.7718
 30
0.0
 11
-182.521409
 21
-100.7718
 31
0.0
  0
LINE
  5
155
100
AcDbEntity
  8
2
370
    50
100
AcDbLine
 10
-188.021409
 20
-109.4718
 30
0.0
 11
-200.021409
 21
-109.4718
 31
0.0
  0
LINE
  5
156
100
AcDbEntity
  8
2
370
    50
100
AcDbLine
 10
-186.271409
 20
-108.461437
 30
0.0
 11
-186.271409
 21
-102.9718
 31
0.0
  0
LINE
  5
157
100
AcDbEntity
  8
2
370
    50
100
AcDbLine
 10
-188.021409
 20
-109.4718
 30
0.0
 11
-186.271409
 21
-108.461437
 31
0.0
  0
LINE
  5
158
100
AcDbEntity
  8
2
370
    50
100
AcDbLine
 10
-180.021409
 20
-102.4718
 30
0.0
 11
-180.021409
 21
-101.2718
 31
0.0
  0
LINE
  5
159
100
AcDbEntity
  8
2
370
    50
100
AcDbLine
 10
-200.021409
 20
-102.9718
 30
0.0
 11
-185.700858
 21
-102.9718
 31
0.0
  0
LINE
  5
15A
100
AcDbEntity
  8
2
370
    50
100
AcDbLine
 10
-180.021409
 20
-101.2718
 30
0.0
 11
-200.021409
 21
-101.2718
 31
0.0
  0
LINE
  5
15B
100
AcDbEntity
  8
2
370
    50
100
AcDbLine
 10
-180.021409
 20
-102.4718
 30
0.0
 11
-200.021409
 21
-102.4718
 31
0.0
  0
ARC
  5
15C
100
AcDbEntity
  8
2
370
    50
100
AcDbCircle
 10
-185.700858
 20
-97.9718
 30
0.0
 40
5.0
100
AcDbArc
 50
270.0
 51
293.556464
  0
ARC
  5
15D
100
AcDbEntity
  8
2
370
    50
100
AcDbCircle
 10
-185.700858
 20
-105.7718
 30
0.0
 40
5.0
100
AcDbArc
 50
66.443536
 51
90.0
  0
ARC
  5
15E
100
AcDbEntity
  8
2
370
    50
100
AcDbCircle
 10
-183.302943
 20
-103.4718
 30
0.0
 40
1.0
100
AcDbArc
 50
90.0
 51
113.556464
  0
ARC
  5
15F
100
AcDbEntity
  8
2
370
    50
100
AcDbCircle
 10
-183.302943
 20
-100.2718
 30
0.0
 40
1.0
100
AcDbArc
 50
246.443536
 51
270.0
  0
LINE
  5
160
100
AcDbEntity
  8
2
370
    50
100
AcDbLine
 10
-193.021409
 20
-108.461437
 30
0.0
 11
-193.021409
 21
-102.9718
 31
0.0
  0
ARC
  5
161
100
AcDbEntity
  8
2
370
    50
100
AcDbCircle
 10
-200.021409
 20
-84.717907
 30
0.0
 40
24.753893
100
AcDbArc
 50
270.0
 51
286.426421
  0
ARC
  5
162
100
AcDbEntity
  8
2
370
    50
100
AcDbCircle
 10
-189.646409
 20
-103.329721
 30
0.0
 40
6.142079
100
AcDbArc
 50
236.668091
 51
303.331909
  0
ARC
  5
163
100
AcDbEntity
  8
2
370
    50
100
AcDbCircle
 10
-200.021409
 20
-86.7218
 30
0.0
 40
16.25
100
AcDbArc
 50
270.0
 51
284.250033
  0
ARC
  5
164
100
AcDbEntity
  8
2
370
    50
100
AcDbCircle
 10
-191.771409
 20
-86.7218
 30
0.0
 40
16.25
100
AcDbArc
 50
262.930286
 51
284.250033
  0
ARC
  5
165
100
AcDbEntity
  8
2
370
    50
100
AcDbCircle
 10
-195.771409
 20
-86.7218
 30
0.0
 40
16.25
100
AcDbArc
 50
262.485955
 51
284.250033
  0
ARC
  5
166
100
AcDbEntity
  8
2
370
    50
100
AcDbCircle
 10
-187.771409
 20
-86.7218
 30
0.0
 40
16.25
100
AcDbArc
 50
262.930286
 51
270.0
  0
ARC
  5
167
100
AcDbEntity
  8
2
370
    50
100
AcDbCircle
 10
-200.021409
 20
-117.0218
 30
0.0
 40
16.25
100
AcDbArc
 50
75.749967
 51
90.0
  0
ARC
  5
168
100
AcDbEntity
  8
2
370
    50
100
AcDbCircle
 10
-195.771409
 20
-117.0218
 30
0.0
 40
16.25
100
AcDbArc
 50
75.749967
 51
97.514045
  0
ARC
  5
169
100
AcDbEntity
  8
2
370
    50
100
AcDbCircle
 10
-191.771409
 20
-117.0218
 30
0.0
 40
16.25
100
AcDbArc
 50
75.749967
 51
97.069714
  0
ARC
  5
16A
100
AcDbEntity
  8
2
370
    50
100
AcDbCircle
 10
-187.771409
 20
-117.0218
 30
0.0
 40
16.25
100
AcDbArc
 50
90.0
 51
97.069714
  0
LINE
  5
16B
100
AcDbEntity
  8
2
370
    50
100
AcDbLine
 10
-188.521856
 20
-140.471845
 30
0.0
 11
-200.021856
 21
-140.471845
 31
0.0
  0
ARC
  5
16C
100
AcDbEntity
  8
2
370
    50
100
AcDbCircle
 10
-202.296856
 20
-134.471845
 30
0.0
 40
15.025
100
AcDbArc
 50
336.463422
 51
23.536578
  0
LINE
  5
16D
100
AcDbEntity
  8
2
370
    50
100
AcDbLine
 10
-188.521856
 20
-128.471845
 30
0.0
 11
-200.021856
 21
-128.471845
 31
0.0
  0
ELLIPSE
  5
16E
100
AcDbEntity
  8
2
370
    50
100
AcDbEllipse
 10
-190.062564
 20
-134.471845
 30
0.0
 11
0.0
 21
6.0
 31
0.0
210
0.0
220
0.0
230
1.0
 40
0.458833
 41
0.0
 42
6.2831849999999996
  0
ELLIPSE
  5
16F
100
AcDbEntity
  8
2
370
    50
100
AcDbEllipse
 10
-200.021856
 20
-134.471845
 30
0.0
 11
0.0
 21
6.0
 31
0.0
210
0.0
220
0.0
230
1.0
 40
0.926667
 41
3.1415929999999999
 42
0.0
  0
LINE
  5
170
100
AcDbEntity
  8
2
370
    50
100
AcDbLine
 10
-217.522303
 20
-100.7718
 30
0.0
 11
-217.522303
 21
-99.2718
 31
0.0
  0
LINE
  5
171
100
AcDbEntity
  8
2
370
    50
100
AcDbLine
 10
-200.022303
 20
-99.2718
 30
0.0
 11
-217.522303
 21
-99.2718
 31
0.0
  0
LINE
  5
172
100
AcDbEntity
  8
2
370
    50
100
AcDbLine
 10
-200.022303
 20
-100.7718
 30
0.0
 11
-217.522303
 21
-100.7718
 31
0.0
  0
LINE
  5
173
100
AcDbEntity
  8
2
370
    50
100
AcDbLine
 10
-212.022303
 20
-109.4718
 30
0.0
 11
-200.022303
 21
-109.4718
 31
0.0
  0
LINE
  5
174
100
AcDbEntity
  8
2
370
    50
100
AcDbLine
 10
-213.772303
 20
-108.461437
 30
0.0
 11
-213.772303
 21
-102.9718
 31
0.0
  0
LINE
  5
175
100
AcDbEntity
  8
2
370
    50
100
AcDbLine
 10
-212.022303
 20
-109.4718
 30
0.0
 11
-213.772303
 21
-108.461437
 31
0.0
  0
LINE
  5
176
100
AcDbEntity
  8
2
370
    50
100
AcDbLine
 10
-220.022303
 20
-102.4718
 30
0.0
 11
-220.022303
 21
-101.2718
 31
0.0
  0
LINE
  5
177
100
AcDbEntity
  8
2
370
    50
100
AcDbLine
 10
-200.022303
 20
-102.9718
 30
0.0
 11
-214.342854
 21
-102.9718
 31
0.0
  0
LINE
  5
178
100
AcDbEntity
  8
2
370
    50
100
AcDbLine
 10
-220.022303
 20
-101.2718
 30
0.0
 11
-200.022303
 21
-101.2718
 31
0.0
  0
LINE
  5
179
100
AcDbEntity
  8
2
370
    50
100
AcDbLine
 10
-220.022303
 20
-102.4718
 30
0.0
 11
-200.022303
 21
-102.4718
 31
0.0
  0
ARC
  5
17A
100
AcDbEntity
  8
2
370
    50
100
AcDbCircle
 10
-214.342854
 20
-97.9718
 30
0.0
 40
5.0
100
AcDbArc
 50
246.443536
 51
270.0
  0
ARC
  5
17B
100
AcDbEntity
  8
2
370
    50
100
AcDbCircle
 10
-214.342854
 20
-105.7718
 30
0.0
 40
5.0
100
AcDbArc
 50
90.0
 51
113.556464
  0
ARC
  5
17C
100
AcDbEntity
  8
2
370
    50
100
AcDbCircle
 10
-216.740769
 20
-103.4718
 30
0.0
 40
1.0
100
AcDbArc
 50
66.443536
 51
90.0
  0
ARC
  5
17D
100
AcDbEntity
  8
2
370
    50
100
AcDbCircle
 10
-216.740769
 20
-100.2718
 30
0.0
 40
1.0
100
AcDbArc
 50
270.0
 51
293.556464
  0
LINE
  5
17E
100
AcDbEntity
  8
2
370
    50
100
AcDbLine
 10
-207.022303
 20
-108.461437
 30
0.0
 11
-207.022303
 21
-102.9718
 31
0.0
  0
ARC
  5
17F
100
AcDbEntity
  8
2
370
    50
100
AcDbCircle
 10
-200.022303
 20
-84.717907
 30
0.0
 40
24.753893
100
AcDbArc
 50
253.573579
 51
270.0
  0
ARC
  5
180
100
AcDbEntity
  8
2
370
    50
100
AcDbCircle
 10
-210.397303
 20
-103.329721
 30
0.0
 40
6.142079
100
AcDbArc
 50
236.668091
 51
303.331909
  0
ARC
  5
181
100
AcDbEntity
  8
2
370
    50
100
AcDbCircle
 10
-208.272303
 20
-86.7218
 30
0.0
 40
16.25
100
AcDbArc
 50
255.749967
 51
277.069714
  0
ARC
  5
182
100
AcDbEntity
  8
2
370
    50
100
AcDbCircle
 10
-204.272303
 20
-86.7218
 30
0.0
 40
16.25
100
AcDbArc
 50
255.749967
 51
277.514045
  0
ARC
  5
183
100
AcDbEntity
  8
2
370
    50
100
AcDbCircle
 10
-212.272303
 20
-86.7218
 30
0.0
 40
16.25
100
AcDbArc
 50
270.0
 51
277.069714
  0
ARC
  5
184
100
AcDbEntity
  8
2
370
    50
100
AcDbCircle
 10
-204.272303
 20
-117.0218
 30
0.0
 40
16.25
100
AcDbArc
 50
82.485955
 51
104.250033
  0
ARC
  5
185
100
AcDbEntity
  8
2
370
    50
100
AcDbCircle
 10
-208.272303
 20
-117.0218
 30
0.0
 40
16.25
100
AcDbArc
 50
82.930286
 51
104.250033
  0
ARC
  5
186
100
AcDbEntity
  8
2
370
    50
100
AcDbCircle
 10
-212.272303
 20
-117.0218
 30
0.0
 40
16.25
100
AcDbArc
 50
82.930286
 51
90.0
  0
LINE
  5
187
100
AcDbEntity
  8
2
370
    50
100
AcDbLine
 10
-211.521856
 20
-140.471845
 30
0.0
 11
-200.021856
 21
-140.471845
 31
0.0
  0
ARC
  5
188
100
AcDbEntity
  8
2
370
    50
100
AcDbCircle
 10
-197.746856
 20
-134.471845
 30
0.0
 40
15.025
100
AcDbArc
 50
156.463422
 51
203.536578
  0
LINE
  5
189
100
AcDbEntity
  8
2
370
    50
100
AcDbLine
 10
-211.521856
 20
-128.471845
 30
0.0
 11
-200.021856
 21
-128.471845
 31
0.0
  0
ELLIPSE
  5
18A
100
AcDbEntity
  8
2
370
    50
100
AcDbEllipse
 10
-209.981148
 20
-134.471845
 30
0.0
 11
0.0
 21
6.0
 31
0.0
210
0.0
220
0.0
230
1.0
 40
0.458833
 41
0.0
 42
6.2831849999999996
  0
ELLIPSE
  5
18B
100
AcDbEntity
  8
2
370
    50
100
AcDbEllipse
 10
-200.021856
 20
-134.471845
 30
0.0
 11
0.0
 21
6.0
 31
0.0
210
0.0
220
0.0
230
1.0
 40
0.926667
 41
0.0
 42
3.1415929999999999
  0
LINE
  5
18C
100
AcDbEntity
  8
2
370
    50
100
AcDbLine
 10
-210.499356
 20
-128.471845
 30
0.0
 11
-210.499356
 21
-109.4718
 31
0.0
  0
LINE
  5
18D
100
AcDbEntity
  8
2
370
    50
100
AcDbLine
 10
-210.499356
 20
-99.2718
 30
0.0
 11
-210.499356
 21
-80.9718
 31
0.0
  0
LINE
  5
18E
100
AcDbEntity
  8
2
370
    25
100
AcDbLine
 10
-209.299356
 20
-128.471845
 30
0.0
 11
-209.299356
 21
-109.4718
 31
0.0
  0
LINE
  5
18F
100
AcDbEntity
  8
2
370
    25
100
AcDbLine
 10
-209.299356
 20
-99.2718
 30
0.0
 11
-209.299356
 21
-81.4718
 31
0.0
  0
LINE
  5
190
100
AcDbEntity
  8
2
370
    50
100
AcDbLine
 10
-189.544356
 20
-128.471845
 30
0.0
 11
-189.544356
 21
-109.4718
 31
0.0
  0
LINE
  5
191
100
AcDbEntity
  8
2
370
    50
100
AcDbLine
 10
-189.544356
 20
-99.2718
 30
0.0
 11
-189.544356
 21
-80.9718
 31
0.0
  0
LINE
  5
192
100
AcDbEntity
  8
2
370
    25
100
AcDbLine
 10
-190.744356
 20
-128.471845
 30
0.0
 11
-190.744356
 21
-109.4718
 31
0.0
  0
LINE
  5
193
100
AcDbEntity
  8
2
370
    25
100
AcDbLine
 10
-190.744356
 20
-99.2718
 30
0.0
 11
-190.744356
 21
-81.4718
 31
0.0
  0
ARC
  5
194
100
AcDbEntity
  8
2
370
    50
100
AcDbCircle
 10
-274.753378
 20
-27.05101
 30
0.0
 40
100.0
100
AcDbArc
 50
351.611836
 51
11.462348
  0
ARC
  5
195
100
AcDbEntity
  8
2
370
    50
100
AcDbCircle
 10
-185.568326
 20
-8.967133
 30
0.0
 40
9.0
100
AcDbArc
 50
11.462348
 51
83.65993
  0
ARC
  5
196
100
AcDbEntity
  8
2
370
    50
100
AcDbCircle
 10
-200.034579
 20
-139.165933
 30
0.0
 40
140.0
100
AcDbArc
 50
83.65993
 51
86.211626
  0
ARC
  5
197
100
AcDbEntity
  8
2
370
    50
100
AcDbCircle
 10
-192.284579
 20
1.147091
 30
0.0
 40
1.0
100
AcDbArc
 50
0.0
 51
84.370157
  0
ARC
  5
198
100
AcDbEntity
  8
2
370
    50
100
AcDbCircle
 10
-200.034579
 20
-77.471847
 30
0.0
 40
80.0
100
AcDbArc
 50
84.370157
 51
95.629843
  0
ARC
  5
199
100
AcDbEntity
  8
2
370
    50
100
AcDbCircle
 10
-207.784579
 20
1.147091
 30
0.0
 40
1.0
100
AcDbArc
 50
95.629843
 51
180.0
  0
LINE
  5
19A
100
AcDbEntity
  8
2
370
    50
100
AcDbLine
 10
-209.284579
 20
0.528153
 30
0.0
 11
-190.784579
 21
0.528153
 31
0.0
  0
ARC
  5
19B
100
AcDbEntity
  8
2
370
    50
100
AcDbCircle
 10
-200.034579
 20
-139.165933
 30
0.0
 40
140.0
100
AcDbArc
 50
93.788374
 51
96.34007
  0
ARC
  5
19C
100
AcDbEntity
  8
2
370
    50
100
AcDbCircle
 10
-214.500832
 20
-8.967133
 30
0.0
 40
9.0
100
AcDbArc
 50
96.34007
 51
168.537652
  0
ARC
  5
19D
100
AcDbEntity
  8
2
370
    50
100
AcDbCircle
 10
-125.31578
 20
-27.05101
 30
0.0
 40
100.0
100
AcDbArc
 50
168.537652
 51
188.388164
  0
ARC
  5
19E
100
AcDbEntity
  8
2
370
    50
100
AcDbCircle
 10
-216.331609
 20
-40.471847
 30
0.0
 40
8.0
100
AcDbArc
 50
188.388164
 51
270.0
  0
LINE
  5
19F
100
AcDbEntity
  8
2
370
    50
100
AcDbLine
 10
-216.331609
 20
-48.471847
 30
0.0
 11
-183.737549
 21
-48.471847
 31
0.0
  0
ARC
  5
1A0
100
AcDbEntity
  8
2
370
    50
100
AcDbCircle
 10
-183.737549
 20
-40.471847
 30
0.0
 40
8.0
100
AcDbArc
 50
270.0
 51
351.611836
  0
LINE
  5
1A1
100
AcDbEntity
  8
2
370
    50
100
AcDbLine
 10
-208.784579
 20
1.147091
 30
0.0
 11
-208.784579
 21
0.528153
 31
0.0
  0
LINE
  5
1A2
100
AcDbEntity
  8
2
370
    50
100
AcDbLine
 10
-191.284579
 20
1.147091
 30
0.0
 11
-191.284579
 21
0.528153
 31
0.0
  0
ARC
  5
1A3
100
AcDbEntity
  8
2
370
    50
100
AcDbCircle
 10
-90.369638
 20
-27.566182
 30
0.0
 40
120.0
100
AcDbArc
 50
170.844517
 51
184.940428
  0
ARC
  5
1A4
100
AcDbEntity
  8
2
370
    50
100
AcDbCircle
 10
-309.69952
 20
-27.566182
 30
0.0
 40
120.0
100
AcDbArc
 50
355.059572
 51
9.155483
  0
ARC
  5
1A5
100
AcDbEntity
  8
2
370
    50
100
AcDbCircle
 10
-200.034579
 20
-9.891768
 30
0.0
 40
8.91992
100
AcDbArc
 50
9.155483
 51
170.844517
  0
ARC
  5
1A6
100
AcDbEntity
  8
2
370
    50
100
AcDbCircle
 10
-200.034579
 20
-37.045737
 30
0.0
 40
9.926111
100
AcDbArc
 50
184.940428
 51
355.059572
  0
LINE
  5
1A7
100
AcDbEntity
  8
2
370
    50
100
AcDbLine
 10
-214.534579
 20
-2.971847
 30
0.0
 11
-214.534579
 21
-43.971847
 31
0.0
  0
LINE
  5
1A8
100
AcDbEntity
  8
2
370
    50
100
AcDbLine
 10
-185.534579
 20
-2.971847
 30
0.0
 11
-185.534579
 21
-43.971847
 31
0.0
  0
ARC
  5
1A9
100
AcDbEntity
  8
2
370
    50
100
AcDbCircle
 10
-125.31578
 20
-27.05101
 30
0.0
 40
99.5
100
AcDbArc
 50
168.471477
 51
187.637519
  0
ARC
  5
1AA
100
AcDbEntity
  8
2
370
    50
100
AcDbCircle
 10
-274.753378
 20
-27.05101
 30
0.0
 40
99.5
100
AcDbArc
 50
352.362481
 51
11.528523
  0
ARC
  5
1AB
100
AcDbEntity
  8
2
370
    50
100
AcDbCircle
 10
-185.09936
 20
-8.76421
 30
0.0
 40
8.0
100
AcDbArc
 50
11.528523
 51
74.882653
  0
ARC
  5
1AC
100
AcDbEntity
  8
2
370
    50
100
AcDbCircle
 10
-183.534579
 20
-2.971847
 30
0.0
 40
2.0
100
AcDbArc
 50
74.882653
 51
180.0
  0
ARC
  5
1AD
100
AcDbEntity
  8
2
370
    50
100
AcDbCircle
 10
-214.969798
 20
-8.76421
 30
0.0
 40
8.0
100
AcDbArc
 50
105.117347
 51
168.471477
  0
ARC
  5
1AE
100
AcDbEntity
  8
2
370
    50
100
AcDbCircle
 10
-216.534579
 20
-2.971847
 30
0.0
 40
2.0
100
AcDbArc
 50
0.0
 51
105.117347
  0
ARC
  5
1AF
100
AcDbEntity
  8
2
370
    50
100
AcDbCircle
 10
-184.0651
 20
-39.211857
 30
0.0
 40
8.0
100
AcDbArc
 50
287.824603
 51
352.362481
  0
ARC
  5
1B0
100
AcDbEntity
  8
2
370
    50
100
AcDbCircle
 10
-182.534579
 20
-43.971847
 30
0.0
 40
3.0
100
AcDbArc
 50
180.0
 51
287.824603
  0
ARC
  5
1B1
100
AcDbEntity
  8
2
370
    50
100
AcDbCircle
 10
-217.534579
 20
-43.971847
 30
0.0
 40
3.0
100
AcDbArc
 50
252.175397
 51
360.0
  0
ARC
  5
1B2
100
AcDbEntity
  8
2
370
    50
100
AcDbCircle
 10
-216.004058
 20
-39.211857
 30
0.0
 40
8.0
100
AcDbArc
 50
187.637519
 51
252.175397
  0
POINT
  5
1B3
100
AcDbEntity
  8
2
370
    50
100
AcDbPoint
 10
-200.021856
 20
-17.471847
 30
0.0
  0
POINT
  5
1B4
100
AcDbEntity
  8
2
370
    50
100
AcDbPoint
 10
-200.021856
 20
-133.9718
 30
0.0
  0
POINT
  5
1B5
100
AcDbEntity
  8
2
370
    50
100
AcDbPoint
 10
-98.021856
 20
-133.9718
 30
0.0
  0
ARC
  5
1B6
100
AcDbEntity
  8
2
370
    50
100
AcDbCircle
 10
-149.021783
 20
-697.221798
 30
0.0
 40
887.75
100
AcDbArc
 50
87.639981
 51
92.359953
  0
LINE
  5
1B7
100
AcDbEntity
  8
2
370
    50
100
AcDbLine
 10
202.978144
 20
-56.9718
 30
0.0
 11
202.978144
 21
-48.471847
 31
0.0
  0
LINE
  5
1B8
100
AcDbEntity
  8
2
370
    50
100
AcDbLine
 10
178.978144
 20
-56.9718
 30
0.0
 11
178.978144
 21
-48.471847
 31
0.0
  0
ARC
  5
1B9
100
AcDbEntity
  8
2
370
    50
100
AcDbCircle
 10
265.709666
 20
-27.05101
 30
0.0
 40
100.0
100
AcDbArc
 50
168.537652
 51
188.388164
  0
ARC
  5
1BA
100
AcDbEntity
  8
2
370
    50
100
AcDbCircle
 10
176.524614
 20
-8.967133
 30
0.0
 40
9.0
100
AcDbArc
 50
96.34007
 51
168.537652
  0
ARC
  5
1BB
100
AcDbEntity
  8
2
370
    50
100
AcDbCircle
 10
190.990867
 20
-139.165933
 30
0.0
 40
140.0
100
AcDbArc
 50
93.788374
 51
96.34007
  0
ARC
  5
1BC
100
AcDbEntity
  8
2
370
    50
100
AcDbCircle
 10
183.240867
 20
1.147091
 30
0.0
 40
1.0
100
AcDbArc
 50
95.629843
 51
180.0
  0
ARC
  5
1BD
100
AcDbEntity
  8
2
370
    50
100
AcDbCircle
 10
190.990867
 20
-77.471847
 30
0.0
 40
80.0
100
AcDbArc
 50
84.370157
 51
95.629843
  0
ARC
  5
1BE
100
AcDbEntity
  8
2
370
    50
100
AcDbCircle
 10
198.740867
 20
1.147091
 30
0.0
 40
1.0
100
AcDbArc
 50
0.0
 51
84.370157
  0
LINE
  5
1BF
100
AcDbEntity
  8
2
370
    50
100
AcDbLine
 10
200.240867
 20
0.528153
 30
0.0
 11
181.740867
 21
0.528153
 31
0.0
  0
ARC
  5
1C0
100
AcDbEntity
  8
2
370
    50
100
AcDbCircle
 10
190.990867
 20
-139.165933
 30
0.0
 40
140.0
100
AcDbArc
 50
83.65993
 51
86.211626
  0
ARC
  5
1C1
100
AcDbEntity
  8
2
370
    50
100
AcDbCircle
 10
205.457119
 20
-8.967133
 30
0.0
 40
9.0
100
AcDbArc
 50
11.462348
 51
83.65993
  0
ARC
  5
1C2
100
AcDbEntity
  8
2
370
    50
100
AcDbCircle
 10
116.272068
 20
-27.05101
 30
0.0
 40
100.0
100
AcDbArc
 50
351.611836
 51
11.462348
  0
ARC
  5
1C3
100
AcDbEntity
  8
2
370
    50
100
AcDbCircle
 10
207.287897
 20
-40.471847
 30
0.0
 40
8.0
100
AcDbArc
 50
270.0
 51
351.611836
  0
LINE
  5
1C4
100
AcDbEntity
  8
2
370
    50
100
AcDbLine
 10
207.287897
 20
-48.471847
 30
0.0
 11
178.990867
 21
-48.471847
 31
0.0
  0
LINE
  5
1C5
100
AcDbEntity
  8
2
370
    50
100
AcDbLine
 10
178.990867
 20
-48.471847
 30
0.0
 11
174.693837
 21
-48.471847
 31
0.0
  0
ARC
  5
1C6
100
AcDbEntity
  8
2
370
    50
100
AcDbCircle
 10
174.693837
 20
-40.471847
 30
0.0
 40
8.0
100
AcDbArc
 50
188.388164
 51
270.0
  0
LINE
  5
1C7
100
AcDbEntity
  8
2
370
    50
100
AcDbLine
 10
199.740867
 20
1.147091
 30
0.0
 11
199.740867
 21
0.528153
 31
0.0
  0
LINE
  5
1C8
100
AcDbEntity
  8
2
370
    50
100
AcDbLine
 10
182.240867
 20
1.147091
 30
0.0
 11
182.240867
 21
0.528153
 31
0.0
  0
ARC
  5
1C9
100
AcDbEntity
  8
2
370
    50
100
AcDbCircle
 10
81.325926
 20
-27.566182
 30
0.0
 40
120.0
100
AcDbArc
 50
355.059572
 51
9.155483
  0
ARC
  5
1CA
100
AcDbEntity
  8
2
370
    50
100
AcDbCircle
 10
300.655807
 20
-27.566182
 30
0.0
 40
120.0
100
AcDbArc
 50
170.844517
 51
184.940428
  0
ARC
  5
1CB
100
AcDbEntity
  8
2
370
    50
100
AcDbCircle
 10
190.990867
 20
-9.891768
 30
0.0
 40
8.91992
100
AcDbArc
 50
9.155483
 51
170.844517
  0
ARC
  5
1CC
100
AcDbEntity
  8
2
370
    50
100
AcDbCircle
 10
190.990867
 20
-37.045737
 30
0.0
 40
9.926111
100
AcDbArc
 50
184.940428
 51
355.059572
  0
LINE
  5
1CD
100
AcDbEntity
  8
2
370
    50
100
AcDbLine
 10
205.490867
 20
-2.971847
 30
0.0
 11
205.490867
 21
-43.971847
 31
0.0
  0
LINE
  5
1CE
100
AcDbEntity
  8
2
370
    50
100
AcDbLine
 10
176.490867
 20
-2.971847
 30
0.0
 11
176.490867
 21
-43.971847
 31
0.0
  0
ARC
  5
1CF
100
AcDbEntity
  8
2
370
    50
100
AcDbCircle
 10
116.272068
 20
-27.05101
 30
0.0
 40
99.5
100
AcDbArc
 50
352.362481
 51
11.528523
  0
ARC
  5
1D0
100
AcDbEntity
  8
2
370
    50
100
AcDbCircle
 10
265.709666
 20
-27.05101
 30
0.0
 40
99.5
100
AcDbArc
 50
168.471477
 51
187.637519
  0
ARC
  5
1D1
100
AcDbEntity
  8
2
370
    50
100
AcDbCircle
 10
176.055648
 20
-8.76421
 30
0.0
 40
8.0
100
AcDbArc
 50
105.117347
 51
168.471477
  0
ARC
  5
1D2
100
AcDbEntity
  8
2
370
    50
100
AcDbCircle
 10
174.490867
 20
-2.971847
 30
0.0
 40
2.0
100
AcDbArc
 50
0.0
 51
105.117347
  0
ARC
  5
1D3
100
AcDbEntity
  8
2
370
    50
100
AcDbCircle
 10
205.926086
 20
-8.76421
 30
0.0
 40
8.0
100
AcDbArc
 50
11.528523
 51
74.882653
  0
ARC
  5
1D4
100
AcDbEntity
  8
2
370
    50
100
AcDbCircle
 10
207.490867
 20
-2.971847
 30
0.0
 40
2.0
100
AcDbArc
 50
74.882653
 51
180.0
  0
ARC
  5
1D5
100
AcDbEntity
  8
2
370
    50
100
AcDbCircle
 10
175.021387
 20
-39.211857
 30
0.0
 40
8.0
100
AcDbArc
 50
187.637519
 51
252.175397
  0
ARC
  5
1D6
100
AcDbEntity
  8
2
370
    50
100
AcDbCircle
 10
173.490867
 20
-43.971847
 30
0.0
 40
3.0
100
AcDbArc
 50
252.175397
 51
360.0
  0
ARC
  5
1D7
100
AcDbEntity
  8
2
370
    50
100
AcDbCircle
 10
208.490867
 20
-43.971847
 30
0.0
 40
3.0
100
AcDbArc
 50
180.0
 51
287.824603
  0
ARC
  5
1D8
100
AcDbEntity
  8
2
370
    50
100
AcDbCircle
 10
206.960346
 20
-39.211857
 30
0.0
 40
8.0
100
AcDbArc
 50
287.824603
 51
352.362481
  0
LINE
  5
1D9
100
AcDbEntity
  8
2
370
    50
100
AcDbLine
 10
-218.021856
 20
-59.9718
 30
0.0
 11
-80.021856
 21
-59.9718
 31
0.0
  0
LINE
  5
1DA
100
AcDbEntity
  8
2
370
    50
100
AcDbLine
 10
-220.021856
 20
-80.9718
 30
0.0
 11
-220.021856
 21
-61.9718
 31
0.0
  0
LINE
  5
1DB
100
AcDbEntity
  8
2
370
    50
100
AcDbLine
 10
-78.021856
 20
-80.9718
 30
0.0
 11
-78.021856
 21
-61.9718
 31
0.0
  0
ARC
  5
1DC
100
AcDbEntity
  8
2
370
    50
100
AcDbCircle
 10
-218.021856
 20
-61.9718
 30
0.0
 40
2.0
100
AcDbArc
 50
90.0
 51
180.0
  0
ARC
  5
1DD
100
AcDbEntity
  8
2
370
    50
100
AcDbCircle
 10
-80.021856
 20
-61.9718
 30
0.0
 40
2.0
100
AcDbArc
 50
0.0
 51
90.0
  0
LINE
  5
1DE
100
AcDbEntity
  8
2
370
    50
100
AcDbLine
 10
171.478144
 20
-59.9718
 30
0.0
 11
210.478144
 21
-59.9718
 31
0.0
  0
LINE
  5
1DF
100
AcDbEntity
  8
2
370
    50
100
AcDbLine
 10
212.478144
 20
-61.9718
 30
0.0
 11
212.478144
 21
-80.9718
 31
0.0
  0
LINE
  5
1E0
100
AcDbEntity
  8
2
370
    50
100
AcDbLine
 10
169.478144
 20
-61.9718
 30
0.0
 11
169.478144
 21
-80.9718
 31
0.0
  0
ARC
  5
1E1
100
AcDbEntity
  8
2
370
    50
100
AcDbCircle
 10
210.478144
 20
-61.9718
 30
0.0
 40
2.0
100
AcDbArc
 50
0.0
 51
90.0
  0
POINT
  5
1E2
100
AcDbEntity
  8
2
370
    50
100
AcDbPoint
 10
115.978144
 20
-42.9718
 30
0.0
  0
LINE
  5
1E3
100
AcDbEntity
  8
2
370
    50
100
AcDbLine
 10
125.154439
 20
-45.430581
 30
0.0
 11
106.801849
 21
-40.513019
 31
0.0
  0
LINE
  5
1E4
100
AcDbEntity
  8
2
370
    50
100
AcDbLine
 10
136.735162
 20
-39.733779
 30
0.0
 11
105.898173
 21
-31.471033
 31
0.0
  0
LINE
  5
1E5
100
AcDbEntity
  8
2
370
    50
100
AcDbLine
 10
107.164693
 20
-33.36331
 30
0.0
 11
105.741188
 21
-38.675902
 31
0.0
  0
LINE
  5
1E6
100
AcDbEntity
  8
2
370
    50
100
AcDbLine
 10
128.415061
 20
-39.057329
 30
0.0
 11
126.991557
 21
-44.369921
 31
0.0
  0
LINE
  5
1E7
100
AcDbEntity
  8
2
370
    50
100
AcDbLine
 10
129.134874
 20
-24.238698
 30
0.0
 11
109.465622
 21
-18.968337
 31
0.0
  0
LINE
  5
1E8
100
AcDbEntity
  8
2
370
    50
100
AcDbLine
 10
104.795328
 20
-29.858744
 30
0.0
 11
105.707018
 21
-21.539314
 31
0.0
  0
ARC
  5
1E9
100
AcDbEntity
  8
2
370
    50
100
AcDbCircle
 10
108.689165
 20
-21.866115
 30
0.0
 40
3.0
100
AcDbArc
 50
75.0
 51
173.746162
  0
ARC
  5
1EA
100
AcDbEntity
  8
2
370
    50
100
AcDbCircle
 10
129.86395
 20
-39.445557
 30
0.0
 40
1.5
100
AcDbArc
 50
75.0
 51
165.0
  0
ARC
  5
1EB
100
AcDbEntity
  8
2
370
    50
100
AcDbCircle
 10
105.715804
 20
-32.975081
 30
0.0
 40
1.5
100
AcDbArc
 50
345.0
 51
75.0
  0
ARC
  5
1EC
100
AcDbEntity
  8
2
370
    50
100
AcDbCircle
 10
106.286402
 20
-30.022144
 30
0.0
 40
1.5
100
AcDbArc
 50
173.746162
 51
255.0
  0
ARC
  5
1ED
100
AcDbEntity
  8
2
370
    50
100
AcDbCircle
 10
107.190077
 20
-39.064131
 30
0.0
 40
1.5
100
AcDbArc
 50
165.0
 51
255.0
  0
ARC
  5
1EE
100
AcDbEntity
  8
2
370
    50
100
AcDbCircle
 10
125.542668
 20
-43.981692
 30
0.0
 40
1.5
100
AcDbArc
 50
255.0
 51
345.0
  0
ARC
  5
1EF
100
AcDbEntity
  8
2
370
    50
100
AcDbCircle
 10
113.441448
 20
-126.667103
 30
0.0
 40
90.0
100
AcDbArc
 50
59.015247
 51
75.0
  0
ARC
  5
1F0
100
AcDbEntity
  8
2
370
    50
100
AcDbCircle
 10
171.478144
 20
-61.9718
 30
0.0
 40
2.0
100
AcDbArc
 50
90.0
 51
180.0
  0
ARC
  5
1F1
100
AcDbEntity
  8
2
370
    50
100
AcDbCircle
 10
149.478144
 20
-66.6558
 30
0.0
 40
20.0
100
AcDbArc
 50
0.0
 51
59.015247
  0
ARC
  5
1F2
100
AcDbEntity
  8
2
370
    50
100
AcDbCircle
 10
51.489161
 20
-314.016445
 30
0.0
 40
300.0
100
AcDbArc
 50
57.756398
 51
59.671085
  0
ARC
  5
1F3
100
AcDbEntity
  8
2
370
    50
100
AcDbCircle
 10
51.489161
 20
-314.016445
 30
0.0
 40
300.0
100
AcDbArc
 50
67.522196
 51
75.0
  0
POINT
  5
1F4
100
AcDbEntity
  8
2
370
    50
100
AcDbPoint
 10
-149.021856
 20
-42.9718
 30
0.0
  0
ELLIPSE
  5
1F5
100
AcDbEntity
  8
2
370
    50
100
AcDbEllipse
 10
-149.021856
 20
-42.9718
 30
0.0
 11
8.5
 21
0.0
 31
0.0
210
0.0
220
0.0
230
1.0
 40
0.258824
 41
0.0
 42
6.2831849999999996
  0
ELLIPSE
  5
1F6
100
AcDbEntity
  8
2
370
    50
100
AcDbEllipse
 10
-149.021856
 20
-42.9718
 30
0.0
 11
11.0
 21
0.0
 31
0.0
210
0.0
220
0.0
230
1.0
 40
0.258818
 41
0.0
 42
6.2831849999999996
  0
POINT
  5
1F7
100
AcDbEntity
  8
2
370
    50
100
AcDbPoint
 10
-149.021856
 20
-34.761431
 30
0.0
  0
LINE
  5
1F8
100
AcDbEntity
  8
2
370
    50
100
AcDbLine
 10
-160.021856
 20
-34.761431
 30
0.0
 11
-160.021856
 21
-42.9718
 31
0.0
  0
LINE
  5
1F9
100
AcDbEntity
  8
2
370
    50
100
AcDbLine
 10
-138.021856
 20
-34.761431
 30
0.0
 11
-138.021856
 21
-42.9718
 31
0.0
  0
ELLIPSE
  5
1FA
100
AcDbEntity
  8
2
370
    50
100
AcDbEllipse
 10
-149.021856
 20
-34.761431
 30
0.0
 11
11.0
 21
0.0
 31
0.0
210
0.0
220
0.0
230
1.0
 40
0.258818
 41
0.0
 42
3.1415929999999999
  0
LINE
  5
1FB
100
AcDbEntity
  8
2
370
    50
100
AcDbLine
 10
-165.60291
 20
-56.443433
 30
0.0
 11
-161.512586
 21
-21.994678
 31
0.0
  0
LINE
  5
1FC
100
AcDbEntity
  8
2
370
    50
100
AcDbLine
 10
-136.531126
 20
-21.994678
 30
0.0
 11
-132.440802
 21
-56.443433
 31
0.0
  0
ELLIPSE
  5
1FD
100
AcDbEntity
  8
2
370
    50
100
AcDbEllipse
 10
-149.021856
 20
-34.761431
 30
0.0
 11
14.0
 21
0.0
 31
0.0
210
0.0
220
0.0
230
1.0
 40
0.258821
 41
0.030722
 42
3.1108709999999999
  0
POINT
  5
1FE
100
AcDbEntity
  8
2
370
    50
100
AcDbPoint
 10
-149.021856
 20
-22.204395
 30
0.0
  0
ELLIPSE
  5
1FF
100
AcDbEntity
  8
2
370
    50
100
AcDbEllipse
 10
-149.021856
 20
-22.204395
 30
0.0
 11
12.515499999999999
 21
0.0
 31
0.0
210
0.0
220
0.0
230
1.0
 40
0.26647
 41
0.062925
 42
3.078668
  0
ARC
  5
200
100
AcDbEntity
  8
2
370
    50
100
AcDbCircle
 10
-169.575008
 20
-55.9718
 30
0.0
 40
4.0
100
AcDbArc
 50
270.0
 51
353.228604
  0
ARC
  5
201
100
AcDbEntity
  8
2
370
    50
100
AcDbCircle
 10
-128.468704
 20
-55.9718
 30
0.0
 40
4.0
100
AcDbArc
 50
186.771396
 51
270.0
  0
LINE
  5
202
100
AcDbEntity
  8
2
370
    50
100
AcDbLine
 10
-162.490931
 20
95.614955
 30
0.0
 11
-165.836103
 21
144.9514
 31
0.0
  0
LINE
  5
203
100
AcDbEntity
  8
2
370
    50
100
AcDbLine
 10
-161.507598
 20
95.931342
 30
0.0
 11
-165.882422
 21
187.448584
 31
0.0
  0
LINE
  5
204
100
AcDbEntity
  8
2
370
    50
100
AcDbLine
 10
-132.16129
 20
187.448587
 30
0.0
 11
-136.536114
 21
95.931342
 31
0.0
  0
LINE
  5
205
100
AcDbEntity
  8
2
370
    50
100
AcDbLine
 10
-135.552781
 20
95.614955
 30
0.0
 11
-132.207609
 21
144.951397
 31
0.0
  0
ARC
  5
206
100
AcDbEntity
  8
2
370
    50
100
AcDbCircle
 10
-149.021856
 20
96.528202
 30
0.0
 40
13.5
100
AcDbArc
 50
183.878904
 51
356.121096
  0
ARC
  5
207
100
AcDbEntity
  8
2
370
    50
100
AcDbCircle
 10
-149.021856
 20
96.528202
 30
0.0
 40
12.5
100
AcDbArc
 50
182.736842
 51
357.263158
  0
ARC
  5
208
100
AcDbEntity
  8
2
370
    50
100
AcDbCircle
 10
-149.021783
 20
1035.278202
 30
0.0
 40
887.75
100
AcDbArc
 50
267.640047
 51
268.725819
  0
ARC
  5
209
100
AcDbEntity
  8
2
370
    50
100
AcDbCircle
 10
-149.021783
 20
1035.278202
 30
0.0
 40
887.75
100
AcDbArc
 50
271.274172
 51
272.360019
  0
ARC
  5
20A
100
AcDbEntity
  8
2
370
    50
100
AcDbCircle
 10
-168.879
 20
187.305337
 30
0.0
 40
3.0
100
AcDbArc
 50
2.736842
 51
91.286047
  0
ARC
  5
20B
100
AcDbEntity
  8
2
370
    50
100
AcDbCircle
 10
-129.164712
 20
187.305341
 30
0.0
 40
3.0
100
AcDbArc
 50
88.713962
 51
177.263158
  0
ARC
  5
20C
100
AcDbEntity
  8
2
370
    50
100
AcDbCircle
 10
-168.829231
 20
144.748456
 30
0.0
 40
3.0
100
AcDbArc
 50
3.878904
 51
88.725819
  0
ARC
  5
20D
100
AcDbEntity
  8
2
370
    50
100
AcDbCircle
 10
-129.214481
 20
144.748453
 30
0.0
 40
3.0
100
AcDbArc
 50
91.274172
 51
176.121096
  0
LINE
  5
20E
100
AcDbEntity
  8
2
370
    50
100
AcDbLine
 10
164.036142
 20
-75.912342
 30
0.0
 11
162.742047
 21
-71.082713
 31
0.0
  0
LINE
  5
20F
100
AcDbEntity
  8
2
370
    50
100
AcDbLine
 10
163.095601
 20
-70.47034
 30
0.0
 11
169.478144
 21
-68.760143
 31
0.0
  0
LINE
  5
210
100
AcDbEntity
  8
2
370
    50
100
AcDbLine
 10
164.648515
 20
-76.265895
 30
0.0
 11
169.478144
 21
-74.9718
 31
0.0
  0
LINE
  5
211
100
AcDbEntity
  8
2
370
    50
100
AcDbLine
 10
163.095601
 20
-70.47034
 30
0.0
 11
162.742047
 21
-71.082713
 31
0.0
  0
LINE
  5
212
100
AcDbEntity
  8
2
370
    50
100
AcDbLine
 10
164.036142
 20
-75.912342
 30
0.0
 11
164.648515
 21
-76.265895
 31
0.0
  0
LINE
  5
213
100
AcDbEntity
  8
2
370
    25
100
AcDbLine
 10
163.095601
 20
-70.47034
 30
0.0
 11
164.648515
 21
-76.265895
 31
0.0
  0
CIRCLE
  5
214
100
AcDbEntity
  8
2
370
    50
100
AcDbCircle
 10
166.675101
 20
-72.617045
 30
0.0
 40
1.75
  0
LINE
  5
215
100
AcDbEntity
  8
2
370
    50
100
AcDbLine
 10
-146.021856
 20
-73.368118
 30
0.0
 11
-146.021856
 21
-71.006462
 31
0.0
  0
ELLIPSE
  5
216
100
AcDbEntity
  8
2
370
    50
100
AcDbEllipse
 10
-148.936321
 20
-71.69349
 30
0.0
 11
3.0
 21
0.0
 31
0.0
210
0.0
220
0.0
230
1.0
 40
0.965926
 41
0.239367
 42
1.5993120000000001
  0
ELLIPSE
  5
217
100
AcDbEntity
  8
2
370
    50
100
AcDbEllipse
 10
-149.021856
 20
-73.98049
 30
0.0
 11
3.0
 21
0.0
 31
0.0
210
0.0
220
0.0
230
1.0
 40
0.965926
 41
0.10586
 42
1.5707960000000001
  0
ELLIPSE
  5
218
100
AcDbEntity
  8
2
370
    50
100
AcDbEllipse
 10
-149.021856
 20
-73.368118
 30
0.0
 11
3.0
 21
0.0
 31
0.0
210
0.0
220
0.0
230
1.0
 40
0.965926
 41
4.7123889999999999
 42
6.1773249999999997
  0
LINE
  5
219
100
AcDbEntity
  8
2
370
    50
100
AcDbLine
 10
-152.021856
 20
-73.368118
 30
0.0
 11
-152.021856
 21
-71.006462
 31
0.0
  0
ELLIPSE
  5
21A
100
AcDbEntity
  8
2
370
    50
100
AcDbEllipse
 10
-149.107391
 20
-71.69349
 30
0.0
 11
-3.0
 21
0.0
 31
0.0
210
0.0
220
0.0
230
1.0
 40
0.965926
 41
4.6838730000000002
 42
6.0438179999999999
  0
ELLIPSE
  5
21B
100
AcDbEntity
  8
2
370
    50
100
AcDbEllipse
 10
-149.021856
 20
-73.98049
 30
0.0
 11
-3.0
 21
0.0
 31
0.0
210
0.0
220
0.0
230
1.0
 40
0.965926
 41
4.7123889999999999
 42
6.1773249999999997
  0
ELLIPSE
  5
21C
100
AcDbEntity
  8
2
370
    50
100
AcDbEllipse
 10
-149.021856
 20
-73.368118
 30
0.0
 11
-3.0
 21
0.0
 31
0.0
210
0.0
220
0.0
230
1.0
 40
0.965926
 41
0.0
 42
1.5707960000000001
  0
ELLIPSE
  5
21D
100
AcDbEntity
  8
2
370
    25
100
AcDbEllipse
 10
-149.021856
 20
-73.368118
 30
0.0
 11
-3.0
 21
0.0
 31
0.0
210
0.0
220
0.0
230
1.0
 40
0.965926
 41
3.027183
 42
0.0
  0
TEXT
  5
21E
100
AcDbEntity
  8
3
370
    50
100
AcDbText
 10
230.278992
 20
-272.075134
 30
0.0
 40
7.0
  1
外観寸法図
 72
     5
 11
263.878992
 21
-272.075134
 31
0.0
100
AcDbText
  0
TEXT
  5
21F
100
AcDbEntity
  8
3
370
    50
100
AcDbText
 10
288.320221
 20
-239.912292
 30
0.0
 40
7.0
  1
１
 72
     5
 11
293.920221
 21
-239.912292
 31
0.0
100
AcDbText
  0
TEXT
  5
220
100
AcDbEntity
  8
3
370
    50
100
AcDbText
 10
303.537354
 20
-240.199203
 30
0.0
 40
7.0
  1
２
 72
     5
 11
309.137354
 21
-240.199203
 31
0.0
100
AcDbText
  0
TEXT
  5
221
100
AcDbEntity
  8
3
370
    50
100
AcDbText
 10
63.982487
 20
-227.59259
 30
0.0
 40
7.0
  1
台付混合栓　Ｍ－３２付き
 72
     5
 11
146.582487
 21
-227.59259
 31
0.0
100
AcDbText
  0
TEXT
  5
222
100
AcDbEntity
  8
3
370
    50
100
AcDbText
 10
63.982487
 20
-235.994034
 30
0.0
 40
7.0
  1
Ｋ１３－３８Ｂ－Ｍ３２
 72
     5
 11
139.582487
 21
-235.994034
 31
0.0
100
AcDbText
  0
TEXT
  5
223
100
AcDbEntity
  8
3
370
    50
100
AcDbText
 10
322.774139
 20
-273.055786
 30
0.0
 40
10.5
  1
３００２３８
 72
     5
 11
383.674139
 21
-273.055786
 31
0.0
100
AcDbText
  0
LWPOLYLINE
  5
224
100
AcDbEntity
  8
3
370
    25
100
AcDbPolyline
 90
        3
 70
     0
 10
-87.544356
 20
-118.581831
 10
-65.019476
 20
-139.817747
 10
-23.676153
 20
-139.817747
  0
LINE
  5
229
100
AcDbEntity
  8
3
370
    25
100
AcDbLine
 10
-84.733053
 20
-121.232261
 30
0.0
 11
-84.022872
 21
-120.478974
 31
0.0
  0
LINE
  5
22A
100
AcDbEntity
  8
3
370
    25
100
AcDbLine
 10
-84.022872
 20
-120.478974
 30
0.0
 11
-87.544356
 21
-118.581831
 31
0.0
  0
LINE
  5
22B
100
AcDbEntity
  8
3
370
    25
100
AcDbLine
 10
-87.544356
 20
-118.581831
 30
0.0
 11
-85.443233
 21
-121.985547
 31
0.0
  0
LINE
  5
22C
100
AcDbEntity
  8
3
370
    25
100
AcDbLine
 10
-85.443233
 20
-121.985547
 30
0.0
 11
-84.733053
 21
-121.232261
 31
0.0
  0
TEXT
  5
22D
100
AcDbEntity
  8
3
370
    50
100
AcDbText
 10
-62.552099
 20
-138.526091
 30
0.0
 40
7.0
  1
ＰＪ１／２
 72
     5
 11
-28.952099
 21
-138.526091
 31
0.0
100
AcDbText
  0
LINE
  5
22E
100
AcDbEntity
  8
3
370
    25
  6
CENTER
100
AcDbLine
 10
119.648208
 20
-29.274936
 30
0.0
 11
113.85106
 21
-50.910185
 31
0.0
  0
DIMENSION
  5
22F
100
AcDbEntity
  8
3
370
    25
100
AcDbDimension
  2
*D0
 10
-305.156952
 20
2.528153
 30
0.0
 11
-314.156952
 21
-37.721824
 31
0.0
 71
     0
 72
     0
 41
0.0
 42
0.0
  3
Standard
100
AcDbAlignedDimension
 13
-220.021856
 23
-77.9718
 33
0.0
 14
-200.034579
 24
2.528153
 34
0.0
 50
90.0
100
AcDbRotatedDimension
  0
DIMENSION
  5
230
100
AcDbEntity
  8
3
370
    25
100
AcDbDimension
  2
*D1
 10
-305.156952
 20
-77.9718
 30
0.0
 11
-314.156952
 21
-105.9718
 31
0.0
 71
     0
 72
     0
 41
0.0
 42
0.0
  3
Standard
100
AcDbAlignedDimension
 13
-200.021856
 23
-133.9718
 33
0.0
 14
-220.021856
 24
-77.9718
 34
0.0
 50
90.0
100
AcDbRotatedDimension
  0
DIMENSION
  5
231
100
AcDbEntity
  8
3
370
    25
100
AcDbDimension
  2
*D2
 10
83.080635
 20
-42.9718
 30
0.0
 11
74.080635
 21
-60.4718
 31
0.0
 71
     0
 72
     0
 41
0.0
 42
0.0
  3
Standard
100
AcDbAlignedDimension
 13
169.478144
 23
-77.9718
 33
0.0
 14
115.978144
 24
-42.9718
 34
0.0
 50
90.0
100
AcDbRotatedDimension
  0
DIMENSION
  5
232
100
AcDbEntity
  8
3
370
    25
100
AcDbDimension
  2
*D3
 10
115.978144
 20
-42.974378
 30
0.0
 11
124.6414
 21
-69.103408
 31
0.0
 70
     2
 71
     0
 72
     0
 41
0.0
 42
0.0
  3
Standard
100
AcDb2LineAngularDimension
 13
115.977477
 23
-42.97429
 33
0.0
 14
115.978144
 24
-42.9718
 34
0.0
 15
115.978144
 25
-42.9718
 35
0.0
 16
112.613535
 26
-68.528539
 36
0.0
1001
ACAD
1000
DSTYLE
1002
{
1070
   275
1070
     0
1070
   179
1070
     0
1002
}
  0
DIMENSION
  5
233
100
AcDbEntity
  8
3
370
    25
100
AcDbDimension
  2
*D4
 10
190.978144
 20
-154.012512
 30
0.0
 11
153.478144
 21
-149.012512
 31
0.0
 71
     0
 72
     0
 41
0.0
 42
0.0
  3
Standard
100
AcDbAlignedDimension
 13
115.978144
 23
-42.9718
 33
0.0
 14
190.978144
 24
-145.322832
 34
0.0
100
AcDbRotatedDimension
  0
DIMENSION
  5
234
100
AcDbEntity
  8
3
370
    25
100
AcDbDimension
  2
*D5
 10
-98.021856
 20
-154.012512
 30
0.0
 11
-149.021856
 21
-149.012512
 31
0.0
 71
     0
 72
     0
 41
0.0
 42
0.0
  3
Standard
100
AcDbAlignedDimension
 13
-200.021856
 23
-151.900144
 33
0.0
 14
-98.021856
 24
-151.900144
 34
0.0
100
AcDbRotatedDimension
  0
TEXT
  5
235
100
AcDbEntity
  8
3
370
    50
100
AcDbText
 10
-213.87662
 20
26.067566
 30
0.0
 40
7.0
  1
（湯表示）
 72
     5
 11
-180.27662
 21
26.067566
 31
0.0
100
AcDbText
  0
TEXT
  5
236
100
AcDbEntity
  8
3
370
    50
100
AcDbText
 10
-106.728135
 20
33.629931
 30
0.0
 40
7.0
  1
サックス
 72
     5
 11
-80.128135
 21
33.629931
 31
0.0
100
AcDbText
  0
TEXT
  5
237
100
AcDbEntity
  8
3
370
    50
100
AcDbText
 10
-213.87662
 20
34.067566
 30
0.0
 40
7.0
  1
ピンク
 72
     5
 11
-194.27662
 21
34.067566
 31
0.0
100
AcDbText
  0
TEXT
  5
238
100
AcDbEntity
  8
3
370
    50
100
AcDbText
 10
-106.728135
 20
25.629931
 30
0.0
 40
7.0
  1
（水表示）
 72
     5
 11
-73.128135
 21
25.629931
 31
0.0
100
AcDbText
  0
LWPOLYLINE
  5
239
100
AcDbEntity
  8
3
370
    25
100
AcDbPolyline
 90
        2
 70
     0
 10
-199.581485
 20
2.890595
 10
-201.530764
 20
23.675179
  0
LWPOLYLINE
  5
23D
100
AcDbEntity
  8
3
370
    25
100
AcDbPolyline
 90
        2
 70
     0
 10
-98.023271
 20
2.452959
 10
-96.073991
 20
23.237543
  0
TEXT
  5
241
100
AcDbEntity
  8
3
370
    50
100
AcDbText
 10
344.88205
 20
-256.268799
 30
0.0
 40
6.0
  1
９８　　２　２５
 72
     5
 11
391.68205
 21
-256.268799
 31
0.0
100
AcDbText
  0
DIMENSION
  5
242
100
AcDbEntity
  8
3
370
    25
100
AcDbDimension
  2
*D6
 10
-50.097019
 20
190.528202
 30
0.0
 11
-58.097019
 21
169.109594
 31
0.0
 71
     0
 72
     0
 41
0.0
 42
0.0
  3
Standard
100
AcDbAlignedDimension
 13
-132.021856
 23
147.690986
 33
0.0
 14
-149.021856
 24
190.528202
 34
0.0
 50
90.0
100
AcDbRotatedDimension
  0
LINE
  5
243
100
AcDbEntity
  8
4
370
    50
100
AcDbLine
 10
-190.017324
 20
-62.777152
 30
0.0
 11
-190.017324
 21
-75.127152
 31
0.0
  0
LINE
  5
244
100
AcDbEntity
  8
4
370
    50
100
AcDbLine
 10
-209.017324
 20
-62.777152
 30
0.0
 11
-209.017324
 21
-75.127152
 31
0.0
  0
LINE
  5
245
100
AcDbEntity
  8
4
370
    50
100
AcDbLine
 10
-189.067324
 20
-62.777152
 30
0.0
 11
-189.067324
 21
-75.127152
 31
0.0
  0
LINE
  5
246
100
AcDbEntity
  8
4
370
    50
100
AcDbLine
 10
-209.967324
 20
-62.777152
 30
0.0
 11
-209.967324
 21
-75.127152
 31
0.0
  0
LINE
  5
247
100
AcDbEntity
  8
4
370
    50
100
AcDbLine
 10
-191.917324
 20
-60.877152
 30
0.0
 11
-207.117324
 21
-60.877152
 31
0.0
  0
LINE
  5
248
100
AcDbEntity
  8
4
370
    50
100
AcDbLine
 10
-191.917324
 20
-77.027152
 30
0.0
 11
-207.117324
 21
-77.027152
 31
0.0
  0
LINE
  5
249
100
AcDbEntity
  8
4
370
    50
100
AcDbLine
 10
-190.017324
 20
-66.577152
 30
0.0
 11
-209.017324
 21
-66.577152
 31
0.0
  0
ARC
  5
24A
100
AcDbEntity
  8
4
370
    50
100
AcDbCircle
 10
-207.117324
 20
-62.777152
 30
0.0
 40
2.85
100
AcDbArc
 50
90.0
 51
180.0
  0
ARC
  5
24B
100
AcDbEntity
  8
4
370
    50
100
AcDbCircle
 10
-191.917324
 20
-62.777152
 30
0.0
 40
2.85
100
AcDbArc
 50
0.0
 51
90.0
  0
ARC
  5
24C
100
AcDbEntity
  8
4
370
    50
100
AcDbCircle
 10
-191.917324
 20
-75.127152
 30
0.0
 40
2.85
100
AcDbArc
 50
270.0
 51
0.0
  0
ARC
  5
24D
100
AcDbEntity
  8
4
370
    50
100
AcDbCircle
 10
-207.117324
 20
-75.127152
 30
0.0
 40
2.85
100
AcDbArc
 50
180.0
 51
270.0
  0
ARC
  5
24E
100
AcDbEntity
  8
4
370
    50
100
AcDbCircle
 10
-207.117324
 20
-62.777152
 30
0.0
 40
1.9
100
AcDbArc
 50
90.0
 51
180.0
  0
ARC
  5
24F
100
AcDbEntity
  8
4
370
    50
100
AcDbCircle
 10
-191.917324
 20
-62.777152
 30
0.0
 40
1.9
100
AcDbArc
 50
360.0
 51
90.0
  0
ARC
  5
250
100
AcDbEntity
  8
4
370
    50
100
AcDbCircle
 10
-191.917324
 20
-75.127152
 30
0.0
 40
1.9
100
AcDbArc
 50
270.0
 51
360.0
  0
ARC
  5
251
100
AcDbEntity
  8
4
370
    50
100
AcDbCircle
 10
-207.117324
 20
-75.127152
 30
0.0
 40
1.9
100
AcDbArc
 50
180.0
 51
270.0
  0
POINT
  5
252
100
AcDbEntity
  8
4
370
    50
100
AcDbPoint
 10
-204.742324
 20
-71.802152
 30
0.0
  0
CIRCLE
  5
253
100
AcDbEntity
  8
4
370
    50
100
AcDbCircle
 10
-204.742324
 20
-71.802152
 30
0.0
 40
3.8
  0
LINE
  5
254
100
AcDbEntity
  8
4
370
    50
100
AcDbLine
 10
-206.919511
 20
-69.28909
 30
0.0
 11
-202.229262
 21
-73.979339
 31
0.0
  0
LINE
  5
255
100
AcDbEntity
  8
4
370
    50
100
AcDbLine
 10
-207.255387
 20
-69.624965
 30
0.0
 11
-202.565137
 21
-74.315215
 31
0.0
  0
ARC
  5
256
100
AcDbEntity
  8
4
370
    50
100
AcDbCircle
 10
-204.742324
 20
-71.802152
 30
0.0
 40
3.325
100
AcDbArc
 50
319.096044
 51
130.903956
  0
ARC
  5
257
100
AcDbEntity
  8
4
370
    50
100
AcDbCircle
 10
-204.742324
 20
-71.802152
 30
0.0
 40
3.325
100
AcDbArc
 50
139.096044
 51
310.903956
  0
LINE
  5
258
100
AcDbEntity
  8
4
370
    50
100
AcDbLine
 10
-202.842324
 20
-73.366276
 30
0.0
 11
-202.842324
 21
-70.234652
 31
0.0
  0
LINE
  5
259
100
AcDbEntity
  8
4
370
    50
100
AcDbLine
 10
-203.507324
 20
-72.277152
 30
0.0
 11
-203.507324
 21
-69.759652
 31
0.0
  0
LINE
  5
25A
100
AcDbEntity
  8
4
370
    50
100
AcDbLine
 10
-204.172324
 20
-71.802152
 30
0.0
 11
-204.172324
 21
-69.284652
 31
0.0
  0
LINE
  5
25B
100
AcDbEntity
  8
4
370
    50
100
AcDbLine
 10
-204.837324
 20
-71.802152
 30
0.0
 11
-204.837324
 21
-69.284652
 31
0.0
  0
LINE
  5
25C
100
AcDbEntity
  8
4
370
    50
100
AcDbLine
 10
-205.002233
 20
-74.652152
 30
0.0
 11
-203.792324
 21
-74.652152
 31
0.0
  0
ARC
  5
25D
100
AcDbEntity
  8
4
370
    50
100
AcDbCircle
 10
-204.504824
 20
-69.284652
 30
0.0
 40
0.3325
100
AcDbArc
 50
0.0
 51
180.0
  0
ARC
  5
25E
100
AcDbEntity
  8
4
370
    50
100
AcDbCircle
 10
-205.169824
 20
-69.759652
 30
0.0
 40
0.3325
100
AcDbArc
 50
0.0
 51
180.0
  0
ARC
  5
25F
100
AcDbEntity
  8
4
370
    50
100
AcDbCircle
 10
-203.839824
 20
-69.759652
 30
0.0
 40
0.3325
100
AcDbArc
 50
0.0
 51
180.0
  0
ARC
  5
260
100
AcDbEntity
  8
4
370
    50
100
AcDbCircle
 10
-203.174824
 20
-70.234652
 30
0.0
 40
0.3325
100
AcDbArc
 50
0.0
 51
180.0
  0
ARC
  5
261
100
AcDbEntity
  8
4
370
    50
100
AcDbCircle
 10
-203.792324
 20
-73.702152
 30
0.0
 40
0.95
100
AcDbArc
 50
270.0
 51
342.20057
  0
LINE
  5
262
100
AcDbEntity
  8
4
370
    50
100
AcDbLine
 10
-205.502324
 20
-72.752152
 30
0.0
 11
-205.502324
 21
-71.378028
 31
0.0
  0
LINE
  5
263
100
AcDbEntity
  8
4
370
    50
100
AcDbLine
 10
-205.502324
 20
-70.706276
 30
0.0
 11
-205.502324
 21
-69.759652
 31
0.0
  0
LINE
  5
264
100
AcDbEntity
  8
4
370
    50
100
AcDbLine
 10
-206.488032
 20
-71.895353
 30
0.0
 11
-205.502324
 21
-72.752152
 31
0.0
  0
LINE
  5
265
100
AcDbEntity
  8
4
370
    50
100
AcDbLine
 10
-207.050589
 20
-72.397246
 30
0.0
 11
-205.785394
 21
-74.239887
 31
0.0
  0
ARC
  5
266
100
AcDbEntity
  8
4
370
    50
100
AcDbCircle
 10
-206.737324
 20
-72.182152
 30
0.0
 40
0.38
100
AcDbArc
 50
49.002125
 51
214.474285
  0
ARC
  5
267
100
AcDbEntity
  8
4
370
    50
100
AcDbCircle
 10
-205.002233
 20
-73.702152
 30
0.0
 40
0.95
100
AcDbArc
 50
214.474285
 51
270.0
  0
TEXT
  5
268
100
AcDbEntity
  8
4
370
    50
100
AcDbText
 10
-198.91428
 20
-69.565412
 30
0.0
 40
2.09
  1
やけどの
 72
     5
 11
-190.97228
 21
-69.565412
 31
0.0
100
AcDbText
  0
TEXT
  5
269
100
AcDbEntity
  8
4
370
    50
100
AcDbText
 10
-198.91428
 20
-72.605412
 30
0.0
 40
2.09
  1
恐れあり
 72
     5
 11
-190.97228
 21
-72.605412
 31
0.0
100
AcDbText
  0
TEXT
  5
26A
100
AcDbEntity
  8
4
370
    50
100
AcDbText
 10
-198.91428
 20
-75.645412
 30
0.0
 40
2.09
  1
さわるな
 72
     5
 11
-190.97228
 21
-75.645412
 31
0.0
100
AcDbText
  0
TEXT
  5
26B
100
AcDbEntity
  8
4
370
    50
100
AcDbText
 10
-200.606124
 20
-65.787505
 30
0.0
 40
3.8
  1
注 意
 72
     5
 11
-191.866124
 21
-65.787505
 31
0.0
100
AcDbText
  0
LINE
  5
26C
100
AcDbEntity
  8
4
370
    50
100
AcDbLine
 10
-201.632497
 20
-66.102152
 30
0.0
 11
-207.117324
 21
-66.102152
 31
0.0
  0
LINE
  5
26D
100
AcDbEntity
  8
4
370
    50
100
AcDbLine
 10
-207.117324
 20
-66.102152
 30
0.0
 11
-204.37491
 21
-61.352152
 31
0.0
  0
LINE
  5
26E
100
AcDbEntity
  8
4
370
    50
100
AcDbLine
 10
-204.37491
 20
-61.352152
 30
0.0
 11
-201.632497
 21
-66.102152
 31
0.0
  0
TEXT
  5
26F
100
AcDbEntity
  8
4
370
    50
100
AcDbText
 10
-206.242728
 20
-65.84045
 30
0.0
 40
3.8
  1
！
 72
     5
 11
-203.202728
 21
-65.84045
 31
0.0
100
AcDbText
  0
LINE
  5
270
100
AcDbEntity
  8
4
370
    25
100
AcDbLine
 10
-208.542324
 20
-71.802152
 30
0.0
 11
-208.027175
 21
-71.287003
 31
0.0
  0
LINE
  5
271
100
AcDbEntity
  8
4
370
    25
100
AcDbLine
 10
-206.810262
 20
-70.07009
 30
0.0
 11
-206.474386
 21
-69.734214
 31
0.0
  0
LINE
  5
272
100
AcDbEntity
  8
4
370
    25
100
AcDbLine
 10
-205.257473
 20
-68.517301
 30
0.0
 11
-204.742324
 21
-68.002152
 31
0.0
  0
LINE
  5
273
100
AcDbEntity
  8
4
370
    25
100
AcDbLine
 10
-208.532503
 20
-72.075174
 30
0.0
 11
-208.06142
 21
-71.604091
 31
0.0
  0
LINE
  5
274
100
AcDbEntity
  8
4
370
    25
100
AcDbLine
 10
-206.668841
 20
-70.211511
 30
0.0
 11
-206.332965
 21
-69.875636
 31
0.0
  0
LINE
  5
275
100
AcDbEntity
  8
4
370
    25
100
AcDbLine
 10
-204.940386
 20
-68.483056
 30
0.0
 11
-204.469302
 21
-68.011973
 31
0.0
  0
LINE
  5
276
100
AcDbEntity
  8
4
370
    25
100
AcDbLine
 10
-208.505362
 20
-72.330875
 30
0.0
 11
-208.06612
 21
-71.891633
 31
0.0
  0
LINE
  5
277
100
AcDbEntity
  8
4
370
    25
100
AcDbLine
 10
-206.527419
 20
-70.352933
 30
0.0
 11
-206.191544
 21
-70.017057
 31
0.0
  0
LINE
  5
278
100
AcDbEntity
  8
4
370
    25
100
AcDbLine
 10
-204.652843
 20
-68.478356
 30
0.0
 11
-204.213601
 21
-68.039115
 31
0.0
  0
LINE
  5
279
100
AcDbEntity
  8
4
370
    25
100
AcDbLine
 10
-208.463545
 20
-72.571901
 30
0.0
 11
-208.048365
 21
-72.156721
 31
0.0
  0
LINE
  5
27A
100
AcDbEntity
  8
4
370
    25
100
AcDbLine
 10
-206.385998
 20
-70.494354
 30
0.0
 11
-206.050122
 21
-70.158478
 31
0.0
  0
LINE
  5
27B
100
AcDbEntity
  8
4
370
    25
100
AcDbLine
 10
-204.387755
 20
-68.496111
 30
0.0
 11
-203.972575
 21
-68.080931
 31
0.0
  0
LINE
  5
27C
100
AcDbEntity
  8
4
370
    25
100
AcDbLine
 10
-208.408935
 20
-72.800134
 30
0.0
 11
-208.012463
 21
-72.403662
 31
0.0
  0
LINE
  5
27D
100
AcDbEntity
  8
4
370
    25
100
AcDbLine
 10
-206.244577
 20
-70.635775
 30
0.0
 11
-205.908701
 21
-70.2999
 31
0.0
  0
LINE
  5
27E
100
AcDbEntity
  8
4
370
    25
100
AcDbLine
 10
-204.140814
 20
-68.532013
 30
0.0
 11
-203.744343
 21
-68.135542
 31
0.0
  0
LINE
  5
27F
100
AcDbEntity
  8
4
370
    25
100
AcDbLine
 10
-208.342915
 20
-73.016956
 30
0.0
 11
-207.961253
 21
-72.635294
 31
0.0
  0
LINE
  5
280
100
AcDbEntity
  8
4
370
    25
100
AcDbLine
 10
-206.103155
 20
-70.777197
 30
0.0
 11
-205.76728
 21
-70.441321
 31
0.0
  0
LINE
  5
281
100
AcDbEntity
  8
4
370
    25
100
AcDbLine
 10
-203.909182
 20
-68.583224
 30
0.0
 11
-203.52752
 21
-68.201562
 31
0.0
  0
LINE
  5
282
100
AcDbEntity
  8
4
370
    25
100
AcDbLine
 10
-208.266529
 20
-73.223413
 30
0.0
 11
-207.896703
 21
-72.853588
 31
0.0
  0
LINE
  5
283
100
AcDbEntity
  8
4
370
    25
100
AcDbLine
 10
-205.961734
 20
-70.918618
 30
0.0
 11
-205.625858
 21
-70.582742
 31
0.0
  0
LINE
  5
284
100
AcDbEntity
  8
4
370
    25
100
AcDbLine
 10
-203.690889
 20
-68.647773
 30
0.0
 11
-203.321063
 21
-68.277948
 31
0.0
  0
LINE
  5
285
100
AcDbEntity
  8
4
370
    25
100
AcDbLine
 10
-208.180577
 20
-73.420304
 30
0.0
 11
-207.820236
 21
-73.059962
 31
0.0
  0
LINE
  5
286
100
AcDbEntity
  8
4
370
    25
100
AcDbLine
 10
-205.820313
 20
-71.06004
 30
0.0
 11
-205.484437
 21
-70.724164
 31
0.0
  0
LINE
  5
287
100
AcDbEntity
  8
4
370
    25
100
AcDbLine
 10
-203.484514
 20
-68.724241
 30
0.0
 11
-203.124172
 21
-68.363899
 31
0.0
  0
LINE
  5
288
100
AcDbEntity
  8
4
370
    25
100
AcDbLine
 10
-208.085678
 20
-73.608248
 30
0.0
 11
-207.732894
 21
-73.255464
 31
0.0
  0
LINE
  5
289
100
AcDbEntity
  8
4
370
    25
100
AcDbLine
 10
-205.678891
 20
-71.201461
 30
0.0
 11
-205.343015
 21
-70.865585
 31
0.0
  0
LINE
  5
28A
100
AcDbEntity
  8
4
370
    25
100
AcDbLine
 10
-203.289012
 20
-68.811582
 30
0.0
 11
-202.936228
 21
-68.458798
 31
0.0
  0
LINE
  5
28B
100
AcDbEntity
  8
4
370
    25
100
AcDbLine
 10
-207.98231
 20
-73.787723
 30
0.0
 11
-207.635458
 21
-73.440871
 31
0.0
  0
LINE
  5
28C
100
AcDbEntity
  8
4
370
    25
100
AcDbLine
 10
-205.53747
 20
-71.342882
 30
0.0
 11
-205.201594
 21
-71.007007
 31
0.0
  0
LINE
  5
28D
100
AcDbEntity
  8
4
370
    25
100
AcDbLine
 10
-203.103605
 20
-68.909018
 30
0.0
 11
-202.756754
 21
-68.562166
 31
0.0
  0
LINE
  5
28E
100
AcDbEntity
  8
4
370
    25
100
AcDbLine
 10
-207.870839
 20
-73.959094
 30
0.0
 11
-207.528507
 21
-73.616762
 31
0.0
  0
LINE
  5
28F
100
AcDbEntity
  8
4
370
    25
100
AcDbLine
 10
-205.396048
 20
-71.484304
 30
0.0
 11
-205.060173
 21
-71.148428
 31
0.0
  0
LINE
  5
290
100
AcDbEntity
  8
4
370
    25
100
AcDbLine
 10
-202.927714
 20
-69.015969
 30
0.0
 11
-202.585383
 21
-68.673638
 31
0.0
  0
LINE
  5
291
100
AcDbEntity
  8
4
370
    25
100
AcDbLine
 10
-207.751537
 20
-74.122635
 30
0.0
 11
-207.412463
 21
-73.783561
 31
0.0
  0
LINE
  5
292
100
AcDbEntity
  8
4
370
    25
100
AcDbLine
 10
-205.254627
 20
-71.625725
 30
0.0
 11
-204.918751
 21
-71.289849
 31
0.0
  0
LINE
  5
293
100
AcDbEntity
  8
4
370
    25
100
AcDbLine
 10
-202.760915
 20
-69.132013
 30
0.0
 11
-202.421842
 21
-68.792939
 31
0.0
  0
LINE
  5
294
100
AcDbEntity
  8
4
370
    25
100
AcDbLine
 10
-207.624599
 20
-74.278539
 30
0.0
 11
-207.287623
 21
-73.941563
 31
0.0
  0
LINE
  5
295
100
AcDbEntity
  8
4
370
    25
100
AcDbLine
 10
-205.113206
 20
-71.767146
 30
0.0
 11
-204.77733
 21
-71.431271
 31
0.0
  0
LINE
  5
296
100
AcDbEntity
  8
4
370
    25
100
AcDbLine
 10
-202.602913
 20
-69.256854
 30
0.0
 11
-202.265937
 21
-68.919878
 31
0.0
  0
LINE
  5
297
100
AcDbEntity
  8
4
370
    25
100
AcDbLine
 10
-207.490148
 20
-74.426931
 30
0.0
 11
-207.154172
 21
-74.090955
 31
0.0
  0
LINE
  5
298
100
AcDbEntity
  8
4
370
    25
100
AcDbLine
 10
-204.971784
 20
-71.908568
 30
0.0
 11
-204.635909
 21
-71.572692
 31
0.0
  0
LINE
  5
299
100
AcDbEntity
  8
4
370
    25
100
AcDbLine
 10
-202.453522
 20
-69.390305
 30
0.0
 11
-202.117545
 21
-69.054328
 31
0.0
  0
LINE
  5
29A
100
AcDbEntity
  8
4
370
    25
100
AcDbLine
 10
-207.348243
 20
-74.567869
 30
0.0
 11
-207.012197
 21
-74.231823
 31
0.0
  0
LINE
  5
29B
100
AcDbEntity
  8
4
370
    25
100
AcDbLine
 10
-204.830363
 20
-72.049989
 30
0.0
 11
-204.494487
 21
-71.714113
 31
0.0
  0
LINE
  5
29C
100
AcDbEntity
  8
4
370
    25
100
AcDbLine
 10
-202.312653
 20
-69.532279
 30
0.0
 11
-201.976608
 21
-69.196234
 31
0.0
  0
LINE
  5
29D
100
AcDbEntity
  8
4
370
    25
100
AcDbLine
 10
-207.198879
 20
-74.701348
 30
0.0
 11
-206.861694
 21
-74.364163
 31
0.0
  0
LINE
  5
29E
100
AcDbEntity
  8
4
370
    25
100
AcDbLine
 10
-204.688942
 20
-72.19141
 30
0.0
 11
-204.353066
 21
-71.855535
 31
0.0
  0
LINE
  5
29F
100
AcDbEntity
  8
4
370
    25
100
AcDbLine
 10
-202.180314
 20
-69.682782
 30
0.0
 11
-201.843128
 21
-69.345597
 31
0.0
  0
LINE
  5
2A0
100
AcDbEntity
  8
4
370
    25
100
AcDbLine
 10
-207.041991
 20
-74.827302
 30
0.0
 11
-206.702561
 21
-74.487873
 31
0.0
  0
LINE
  5
2A1
100
AcDbEntity
  8
4
370
    25
100
AcDbLine
 10
-204.54752
 20
-72.332832
 30
0.0
 11
-204.211645
 21
-71.996956
 31
0.0
  0
LINE
  5
2A2
100
AcDbEntity
  8
4
370
    25
100
AcDbLine
 10
-202.056604
 20
-69.841915
 30
0.0
 11
-201.717174
 21
-69.502485
 31
0.0
  0
LINE
  5
2A3
100
AcDbEntity
  8
4
370
    25
100
AcDbLine
 10
-206.877445
 20
-74.945599
 30
0.0
 11
-206.5346
 21
-74.602754
 31
0.0
  0
LINE
  5
2A4
100
AcDbEntity
  8
4
370
    25
100
AcDbLine
 10
-204.406099
 20
-72.474253
 30
0.0
 11
-204.070223
 21
-72.138377
 31
0.0
  0
LINE
  5
2A5
100
AcDbEntity
  8
4
370
    25
100
AcDbLine
 10
-201.941722
 20
-70.009876
 30
0.0
 11
-201.598877
 21
-69.667031
 31
0.0
  0
LINE
  5
2A6
100
AcDbEntity
  8
4
370
    25
100
AcDbLine
 10
-206.705038
 20
-75.056035
 30
0.0
 11
-206.357499
 21
-74.708496
 31
0.0
  0
LINE
  5
2A7
100
AcDbEntity
  8
4
370
    25
100
AcDbLine
 10
-204.264678
 20
-72.615674
 30
0.0
 11
-203.928802
 21
-72.279799
 31
0.0
  0
LINE
  5
2A8
100
AcDbEntity
  8
4
370
    25
100
AcDbLine
 10
-201.83598
 20
-70.186977
 30
0.0
 11
-201.488441
 21
-69.839438
 31
0.0
  0
LINE
  5
2A9
100
AcDbEntity
  8
4
370
    25
100
AcDbLine
 10
-206.524486
 20
-75.158325
 30
0.0
 11
-206.170817
 21
-74.804657
 31
0.0
  0
LINE
  5
2AA
100
AcDbEntity
  8
4
370
    25
100
AcDbLine
 10
-204.123256
 20
-72.757096
 30
0.0
 11
-203.787381
 21
-72.42122
 31
0.0
  0
LINE
  5
2AB
100
AcDbEntity
  8
4
370
    25
100
AcDbLine
 10
-201.73982
 20
-70.373659
 30
0.0
 11
-201.386151
 21
-70.01999
 31
0.0
  0
LINE
  5
2AC
100
AcDbEntity
  8
4
370
    25
100
AcDbLine
 10
-206.335409
 20
-75.252091
 30
0.0
 11
-205.973952
 21
-74.890634
 31
0.0
  0
LINE
  5
2AD
100
AcDbEntity
  8
4
370
    25
100
AcDbLine
 10
-203.981835
 20
-72.898517
 30
0.0
 11
-203.645959
 21
-72.562641
 31
0.0
  0
LINE
  5
2AE
100
AcDbEntity
  8
4
370
    25
100
AcDbLine
 10
-201.653843
 20
-70.570525
 30
0.0
 11
-201.292385
 21
-70.209067
 31
0.0
  0
LINE
  5
2AF
100
AcDbEntity
  8
4
370
    25
100
AcDbLine
 10
-206.137313
 20
-75.336838
 30
0.0
 11
-205.766094
 21
-74.965619
 31
0.0
  0
LINE
  5
2B0
100
AcDbEntity
  8
4
370
    25
100
AcDbLine
 10
-203.840414
 20
-73.039939
 30
0.0
 11
-203.504538
 21
-72.704063
 31
0.0
  0
LINE
  5
2B1
100
AcDbEntity
  8
4
370
    25
100
AcDbLine
 10
-201.578858
 20
-70.778383
 30
0.0
 11
-201.207638
 21
-70.407163
 31
0.0
  0
LINE
  5
2B2
100
AcDbEntity
  8
4
370
    25
100
AcDbLine
 10
-205.929559
 20
-75.411927
 30
0.0
 11
-205.546157
 21
-75.028524
 31
0.0
  0
LINE
  5
2B3
100
AcDbEntity
  8
4
370
    25
100
AcDbLine
 10
-203.698992
 20
-73.18136
 30
0.0
 11
-203.363116
 21
-72.845484
 31
0.0
  0
LINE
  5
2B4
100
AcDbEntity
  8
4
370
    25
100
AcDbLine
 10
-201.515952
 20
-70.99832
 30
0.0
 11
-201.13255
 21
-70.614917
 31
0.0
  0
LINE
  5
2B5
100
AcDbEntity
  8
4
370
    25
100
AcDbLine
 10
-205.711319
 20
-75.47653
 30
0.0
 11
-205.312662
 21
-75.077872
 31
0.0
  0
LINE
  5
2B6
100
AcDbEntity
  8
4
370
    25
100
AcDbLine
 10
-203.557571
 20
-73.322781
 30
0.0
 11
-203.221695
 21
-72.986906
 31
0.0
  0
LINE
  5
2B7
100
AcDbEntity
  8
4
370
    25
100
AcDbLine
 10
-201.466604
 20
-71.231815
 30
0.0
 11
-201.067947
 21
-70.833157
 31
0.0
  0
LINE
  5
2B8
100
AcDbEntity
  8
4
370
    25
100
AcDbLine
 10
-205.481511
 20
-75.529564
 30
0.0
 11
-205.063546
 21
-75.111599
 31
0.0
  0
LINE
  5
2B9
100
AcDbEntity
  8
4
370
    25
100
AcDbLine
 10
-203.41615
 20
-73.464203
 30
0.0
 11
-203.080274
 21
-73.128327
 31
0.0
  0
LINE
  5
2BA
100
AcDbEntity
  8
4
370
    25
100
AcDbLine
 10
-201.432877
 20
-71.48093
 30
0.0
 11
-201.014912
 21
-71.062965
 31
0.0
  0
LINE
  5
2BB
100
AcDbEntity
  8
4
370
    25
100
AcDbLine
 10
-205.238698
 20
-75.569593
 30
0.0
 11
-204.795826
 21
-75.126722
 31
0.0
  0
LINE
  5
2BC
100
AcDbEntity
  8
4
370
    25
100
AcDbLine
 10
-203.274728
 20
-73.605624
 30
0.0
 11
-202.938852
 21
-73.269748
 31
0.0
  0
LINE
  5
2BD
100
AcDbEntity
  8
4
370
    25
100
AcDbLine
 10
-201.417755
 20
-71.74865
 30
0.0
 11
-200.974883
 21
-71.305779
 31
0.0
  0
LINE
  5
2BE
100
AcDbEntity
  8
4
370
    25
100
AcDbLine
 10
-204.980916
 20
-75.594655
 30
0.0
 11
-204.504928
 21
-75.118667
 31
0.0
  0
LINE
  5
2BF
100
AcDbEntity
  8
4
370
    25
100
AcDbLine
 10
-203.133307
 20
-73.747045
 30
0.0
 11
-202.797431
 21
-73.41117
 31
0.0
  0
LINE
  5
2C0
100
AcDbEntity
  8
4
370
    25
100
AcDbLine
 10
-201.42581
 20
-72.039548
 30
0.0
 11
-200.949822
 21
-71.56356
 31
0.0
  0
LINE
  5
2C1
100
AcDbEntity
  8
4
370
    25
100
AcDbLine
 10
-204.705391
 20
-75.601973
 30
0.0
 11
-204.183228
 21
-75.079809
 31
0.0
  0
LINE
  5
2C2
100
AcDbEntity
  8
4
370
    25
100
AcDbLine
 10
-202.991885
 20
-73.888467
 30
0.0
 11
-202.65601
 21
-73.552591
 31
0.0
  0
LINE
  5
2C3
100
AcDbEntity
  8
4
370
    25
100
AcDbLine
 10
-201.464667
 20
-72.361248
 30
0.0
 11
-200.942504
 21
-71.839085
 31
0.0
  0
LINE
  5
2C4
100
AcDbEntity
  8
4
370
    25
100
AcDbLine
 10
-204.407992
 20
-75.587416
 30
0.0
 11
-203.816124
 21
-74.995548
 31
0.0
  0
LINE
  5
2C5
100
AcDbEntity
  8
4
370
    25
100
AcDbLine
 10
-202.850464
 20
-74.029888
 30
0.0
 11
-202.514588
 21
-73.694012
 31
0.0
  0
LINE
  5
2C6
100
AcDbEntity
  8
4
370
    25
100
AcDbLine
 10
-201.548928
 20
-72.728352
 30
0.0
 11
-200.95706
 21
-72.136484
 31
0.0
  0
LINE
  5
2C7
100
AcDbEntity
  8
4
370
    25
100
AcDbLine
 10
-204.082089
 20
-75.544356
 30
0.0
 11
-203.367208
 21
-74.829474
 31
0.0
  0
LINE
  5
2C8
100
AcDbEntity
  8
4
370
    25
100
AcDbLine
 10
-202.709043
 20
-74.171309
 30
0.0
 11
-202.373167
 21
-73.835434
 31
0.0
  0
LINE
  5
2C9
100
AcDbEntity
  8
4
370
    25
100
AcDbLine
 10
-201.715002
 20
-73.177269
 30
0.0
 11
-201.00012
 21
-72.462387
 31
0.0
  0
LINE
  5
2CA
100
AcDbEntity
  8
4
370
    25
100
AcDbLine
 10
-203.715751
 20
-75.460861
 30
0.0
 11
-202.599301
 21
-74.34441
 31
0.0
  0
LINE
  5
2CB
100
AcDbEntity
  8
4
370
    25
100
AcDbLine
 10
-202.567621
 20
-74.312731
 30
0.0
 11
-202.231746
 21
-73.976855
 31
0.0
  0
LINE
  5
2CC
100
AcDbEntity
  8
4
370
    25
100
AcDbLine
 10
-202.200066
 20
-73.945175
 30
0.0
 11
-201.083616
 21
-72.828725
 31
0.0
  0
LINE
  5
2CD
100
AcDbEntity
  8
4
370
    25
100
AcDbLine
 10
-203.282682
 20
-75.310634
 30
0.0
 11
-201.233842
 21
-73.261794
 31
0.0
  0
LINE
  5
2CE
100
AcDbEntity
  8
4
370
    25
100
AcDbLine
 10
-202.688537
 20
-74.999332
 30
0.0
 11
-201.545144
 21
-73.855939
 31
0.0
  0
LINE
  5
2CF
100
AcDbEntity
  8
4
370
    25
100
AcDbLine
 10
-208.530914
 20
-71.5079
 30
0.0
 11
-207.950112
 21
-70.927098
 31
0.0
  0
LINE
  5
2D0
100
AcDbEntity
  8
4
370
    25
100
AcDbLine
 10
-206.951683
 20
-69.928669
 30
0.0
 11
-206.615808
 21
-69.592793
 31
0.0
  0
LINE
  5
2D1
100
AcDbEntity
  8
4
370
    25
100
AcDbLine
 10
-205.617379
 20
-68.594364
 30
0.0
 11
-205.036577
 21
-68.013562
 31
0.0
  0
LINE
  5
2D2
100
AcDbEntity
  8
4
370
    25
100
AcDbLine
 10
-208.492074
 20
-71.186217
 30
0.0
 11
-207.798671
 21
-70.492814
 31
0.0
  0
LINE
  5
2D3
100
AcDbEntity
  8
4
370
    25
100
AcDbLine
 10
-207.093105
 20
-69.787247
 30
0.0
 11
-206.757229
 21
-69.451372
 31
0.0
  0
LINE
  5
2D4
100
AcDbEntity
  8
4
370
    25
100
AcDbLine
 10
-206.051662
 20
-68.745805
 30
0.0
 11
-205.35826
 21
-68.052402
 31
0.0
  0
LINE
  5
2D5
100
AcDbEntity
  8
4
370
    25
100
AcDbLine
 10
-208.414845
 20
-70.826145
 30
0.0
 11
-207.421002
 21
-69.832302
 31
0.0
  0
LINE
  5
2D6
100
AcDbEntity
  8
4
370
    25
100
AcDbLine
 10
-207.234526
 20
-69.645826
 30
0.0
 11
-206.89865
 21
-69.30995
 31
0.0
  0
LINE
  5
2D7
100
AcDbEntity
  8
4
370
    25
100
AcDbLine
 10
-206.712175
 20
-69.123474
 30
0.0
 11
-205.718331
 21
-68.129631
 31
0.0
  0
LINE
  5
2D8
100
AcDbEntity
  8
4
370
    25
100
AcDbLine
 10
-208.275903
 20
-70.40436
 30
0.0
 11
-206.140117
 21
-68.268574
 31
0.0
  0
LINE
  5
2D9
100
AcDbEntity
  8
4
370
    25
100
AcDbLine
 10
-207.999811
 20
-69.845425
 30
0.0
 11
-206.699051
 21
-68.544665
 31
0.0
  0
TEXT
  5
2DA
100
AcDbEntity
  8
4
370
    50
100
AcDbText
 10
-286.55234
 20
-51.348667
 30
0.0
 40
7.0
  1
（やけど注意表示）
 72
     5
 11
-224.95234
 21
-51.348667
 31
0.0
100
AcDbText
  0
LWPOLYLINE
  5
2DB
100
AcDbEntity
  8
4
370
    25
100
AcDbPolyline
 90
        2
 70
     0
 10
-211.122683
 20
-62.349432
 10
-230.294375
 20
-53.548801
  0
LWPOLYLINE
  5
2DF
100
AcDbEntity
  8
4
370
    25
100
AcDbPolyline
 90
        2
 70
     0
 10
-97.586716
 20
-69.250778
 10
-70.836258
 20
-57.742561
  0
LINE
  5
2E3
100
AcDbEntity
  8
4
370
    25
100
AcDbLine
 10
-94.037516
 20
-67.72389
 30
0.0
 11
-94.446645
 21
-66.772885
 31
0.0
  0
LINE
  5
2E4
100
AcDbEntity
  8
4
370
    25
100
AcDbLine
 10
-94.446645
 20
-66.772885
 30
0.0
 11
-97.586716
 21
-69.250778
 31
0.0
  0
LINE
  5
2E5
100
AcDbEntity
  8
4
370
    25
100
AcDbLine
 10
-97.586716
 20
-69.250778
 30
0.0
 11
-93.628388
 21
-68.674895
 31
0.0
  0
LINE
  5
2E6
100
AcDbEntity
  8
4
370
    25
100
AcDbLine
 10
-93.628388
 20
-68.674895
 30
0.0
 11
-94.037516
 21
-67.72389
 31
0.0
  0
LINE
  5
2E7
100
AcDbEntity
  8
4
370
    50
100
AcDbLine
 10
-115.244641
 20
-69.548134
 30
0.0
 11
-112.882065
 21
-69.548134
 31
0.0
  0
LINE
  5
2E8
100
AcDbEntity
  8
4
370
    50
100
AcDbLine
 10
-115.244641
 20
-68.918156
 30
0.0
 11
-112.444551
 21
-69.311683
 31
0.0
  0
LINE
  5
2E9
100
AcDbEntity
  8
4
370
    50
100
AcDbLine
 10
-112.821175
 20
-68.375124
 30
0.0
 11
-115.244641
 21
-68.034528
 31
0.0
  0
LINE
  5
2EA
100
AcDbEntity
  8
4
370
    50
100
AcDbLine
 10
-115.244641
 20
-67.798077
 30
0.0
 11
-112.444551
 21
-67.798077
 31
0.0
  0
ARC
  5
2EB
100
AcDbEntity
  8
4
370
    50
100
AcDbCircle
 10
-112.882065
 20
-67.360563
 30
0.0
 40
0.437514
100
AcDbArc
 50
0.0
 51
90.0
  0
ARC
  5
2EC
100
AcDbEntity
  8
4
370
    50
100
AcDbCircle
 10
-112.882065
 20
-68.80838
 30
0.0
 40
0.437514
100
AcDbArc
 50
360.0
 51
82.0
  0
ARC
  5
2ED
100
AcDbEntity
  8
4
370
    50
100
AcDbCircle
 10
-112.882065
 20
-69.985648
 30
0.0
 40
0.437514
100
AcDbArc
 50
0.0
 51
90.0
  0
LINE
  5
2EE
100
AcDbEntity
  8
4
370
    50
100
AcDbLine
 10
-111.569523
 20
-66.923049
 30
0.0
 11
-111.569523
 21
-67.798077
 31
0.0
  0
LINE
  5
2EF
100
AcDbEntity
  8
4
370
    50
100
AcDbLine
 10
-111.569523
 20
-67.798077
 30
0.0
 11
-110.344483
 21
-67.798077
 31
0.0
  0
LINE
  5
2F0
100
AcDbEntity
  8
4
370
    50
100
AcDbLine
 10
-109.469455
 20
-67.360563
 30
0.0
 11
-109.469455
 21
-68.4981
 31
0.0
  0
LINE
  5
2F1
100
AcDbEntity
  8
4
370
    50
100
AcDbLine
 10
-110.344483
 20
-67.798077
 30
0.0
 11
-110.344483
 21
-68.4981
 31
0.0
  0
LINE
  5
2F2
100
AcDbEntity
  8
4
370
    50
100
AcDbLine
 10
-112.007037
 20
-69.548134
 30
0.0
 11
-111.394517
 21
-69.548134
 31
0.0
  0
ARC
  5
2F3
100
AcDbEntity
  8
4
370
    50
100
AcDbCircle
 10
-111.394517
 20
-68.4981
 30
0.0
 40
1.050034
100
AcDbArc
 50
270.0
 51
360.0
  0
ARC
  5
2F4
100
AcDbEntity
  8
4
370
    50
100
AcDbCircle
 10
-108.151547
 20
-67.449673
 30
0.0
 40
2.100068
100
AcDbArc
 50
228.524141
 51
272.241513
  0
ARC
  5
2F5
100
AcDbEntity
  8
4
370
    50
100
AcDbCircle
 10
-108.151547
 20
-67.449673
 30
0.0
 40
2.975096
100
AcDbArc
 50
232.173442
 51
271.582042
  0
LINE
  5
2F6
100
AcDbEntity
  8
4
370
    50
100
AcDbLine
 10
-108.440212
 20
-68.323094
 30
0.0
 11
-107.429817
 21
-68.323094
 31
0.0
  0
LINE
  5
2F7
100
AcDbEntity
  8
4
370
    50
100
AcDbLine
 10
-107.631896
 20
-66.923049
 30
0.0
 11
-108.440212
 21
-68.323094
 31
0.0
  0
LINE
  5
2F8
100
AcDbEntity
  8
4
370
    50
100
AcDbLine
 10
-107.126698
 20
-67.798077
 30
0.0
 11
-107.429817
 21
-68.323094
 31
0.0
  0
LINE
  5
2F9
100
AcDbEntity
  8
4
370
    50
100
AcDbLine
 10
-107.126698
 20
-67.798077
 30
0.0
 11
-106.406856
 21
-67.798077
 31
0.0
  0
ARC
  5
2FA
100
AcDbEntity
  8
4
370
    50
100
AcDbCircle
 10
-105.969342
 20
-67.360563
 30
0.0
 40
0.437514
100
AcDbArc
 50
0.0
 51
90.0
  0
LINE
  5
2FB
100
AcDbEntity
  8
4
370
    50
100
AcDbLine
 10
-107.631896
 20
-69.548134
 30
0.0
 11
-107.45689
 21
-69.548134
 31
0.0
  0
ARC
  5
2FC
100
AcDbEntity
  8
4
370
    50
100
AcDbCircle
 10
-107.45689
 20
-68.4981
 30
0.0
 40
1.925062
100
AcDbArc
 50
270.0
 51
360.0
  0
LINE
  5
2FD
100
AcDbEntity
  8
4
370
    50
100
AcDbLine
 10
-106.931873
 20
-69.023117
 30
0.0
 11
-106.547534
 21
-69.023117
 31
0.0
  0
LINE
  5
2FE
100
AcDbEntity
  8
4
370
    50
100
AcDbLine
 10
-106.931873
 20
-68.148088
 30
0.0
 11
-106.406856
 21
-68.148088
 31
0.0
  0
LINE
  5
2FF
100
AcDbEntity
  8
4
370
    50
100
AcDbLine
 10
-106.931873
 20
-69.023117
 30
0.0
 11
-106.931873
 21
-68.148088
 31
0.0
  0
LINE
  5
300
100
AcDbEntity
  8
4
370
    50
100
AcDbLine
 10
-106.406856
 20
-67.798077
 30
0.0
 11
-106.406856
 21
-68.148088
 31
0.0
  0
ARC
  5
301
100
AcDbEntity
  8
4
370
    50
100
AcDbCircle
 10
-107.45689
 20
-68.4981
 30
0.0
 40
1.050034
100
AcDbArc
 50
270.0
 51
330.0
  0
LINE
  5
302
100
AcDbEntity
  8
4
370
    50
100
AcDbLine
 10
-105.094314
 20
-67.798077
 30
0.0
 11
-102.994246
 21
-67.798077
 31
0.0
  0
LINE
  5
303
100
AcDbEntity
  8
4
370
    50
100
AcDbLine
 10
-105.094314
 20
-69.548134
 30
0.0
 11
-103.43176
 21
-69.548134
 31
0.0
  0
ARC
  5
304
100
AcDbEntity
  8
4
370
    50
100
AcDbCircle
 10
-103.43176
 20
-67.360563
 30
0.0
 40
0.437514
100
AcDbArc
 50
0.0
 51
90.0
  0
ARC
  5
305
100
AcDbEntity
  8
4
370
    50
100
AcDbCircle
 10
-103.43176
 20
-69.985648
 30
0.0
 40
0.437514
100
AcDbArc
 50
0.0
 51
90.0
  0
ARC
  5
306
100
AcDbEntity
  8
4
370
    50
100
AcDbCircle
 10
-111.394517
 20
-68.4981
 30
0.0
 40
1.925062
100
AcDbArc
 50
270.0
 51
317.461176
  0
ARC
  5
307
100
AcDbEntity
  8
4
370
    50
100
AcDbCircle
 10
-111.394517
 20
-68.4981
 30
0.0
 40
1.925062
100
AcDbArc
 50
344.17338
 51
360.0
  0
CIRCLE
  5
308
100
AcDbEntity
  8
4
370
    50
100
AcDbCircle
 10
-108.68193
 20
-67.185557
 30
0.0
 40
0.262508
  0
CIRCLE
  5
309
100
AcDbEntity
  8
4
370
    50
100
AcDbCircle
 10
-109.206947
 20
-67.185557
 30
0.0
 40
0.262508
  0
LINE
  5
30A
100
AcDbEntity
  8
4
370
    50
100
AcDbLine
 10
-112.007037
 20
-69.548134
 30
0.0
 11
-112.007037
 21
-70.423162
 31
0.0
  0
LINE
  5
30B
100
AcDbEntity
  8
4
370
    50
100
AcDbLine
 10
-108.06941
 20
-69.548134
 30
0.0
 11
-108.06941
 21
-70.423162
 31
0.0
  0
LINE
  5
30C
100
AcDbEntity
  8
4
370
    50
100
AcDbLine
 10
-107.631896
 20
-69.548134
 30
0.0
 11
-107.631896
 21
-70.423162
 31
0.0
  0
LINE
  5
30D
100
AcDbEntity
  8
4
370
    50
100
AcDbLine
 10
-105.531828
 20
-67.360563
 30
0.0
 11
-105.531828
 21
-68.4981
 31
0.0
  0
LINE
  5
30E
100
AcDbEntity
  8
4
370
    50
100
AcDbLine
 10
-115.244641
 20
-66.923049
 30
0.0
 11
-112.882065
 21
-66.923049
 31
0.0
  0
LINE
  5
30F
100
AcDbEntity
  8
4
370
    50
100
AcDbLine
 10
-111.569523
 20
-66.923049
 30
0.0
 11
-109.906969
 21
-66.923049
 31
0.0
  0
LINE
  5
310
100
AcDbEntity
  8
4
370
    50
100
AcDbLine
 10
-107.631896
 20
-66.923049
 30
0.0
 11
-105.969342
 21
-66.923049
 31
0.0
  0
LINE
  5
311
100
AcDbEntity
  8
4
370
    50
100
AcDbLine
 10
-105.094314
 20
-66.923049
 30
0.0
 11
-103.43176
 21
-66.923049
 31
0.0
  0
LINE
  5
312
100
AcDbEntity
  8
4
370
    50
100
AcDbLine
 10
-105.094314
 20
-70.423162
 30
0.0
 11
-102.994246
 21
-70.423162
 31
0.0
  0
LINE
  5
313
100
AcDbEntity
  8
4
370
    50
100
AcDbLine
 10
-107.631896
 20
-70.423162
 30
0.0
 11
-107.45689
 21
-70.423162
 31
0.0
  0
LINE
  5
314
100
AcDbEntity
  8
4
370
    50
100
AcDbLine
 10
-115.244641
 20
-70.423162
 30
0.0
 11
-112.444551
 21
-70.423162
 31
0.0
  0
LINE
  5
315
100
AcDbEntity
  8
4
370
    50
100
AcDbLine
 10
-112.444551
 20
-67.798077
 30
0.0
 11
-112.444551
 21
-67.360563
 31
0.0
  0
LINE
  5
316
100
AcDbEntity
  8
4
370
    50
100
AcDbLine
 10
-112.444551
 20
-70.423162
 30
0.0
 11
-112.444551
 21
-69.985648
 31
0.0
  0
LINE
  5
317
100
AcDbEntity
  8
4
370
    50
100
AcDbLine
 10
-112.444551
 20
-69.311683
 30
0.0
 11
-112.444551
 21
-68.80838
 31
0.0
  0
LINE
  5
318
100
AcDbEntity
  8
4
370
    50
100
AcDbLine
 10
-115.244641
 20
-70.423162
 30
0.0
 11
-115.244641
 21
-69.548134
 31
0.0
  0
LINE
  5
319
100
AcDbEntity
  8
4
370
    50
100
AcDbLine
 10
-115.244641
 20
-68.918156
 30
0.0
 11
-115.244641
 21
-68.034528
 31
0.0
  0
LINE
  5
31A
100
AcDbEntity
  8
4
370
    50
100
AcDbLine
 10
-115.244641
 20
-67.798077
 30
0.0
 11
-115.244641
 21
-66.923049
 31
0.0
  0
LINE
  5
31B
100
AcDbEntity
  8
4
370
    50
100
AcDbLine
 10
-102.994246
 20
-67.798077
 30
0.0
 11
-102.994246
 21
-67.360563
 31
0.0
  0
LINE
  5
31C
100
AcDbEntity
  8
4
370
    50
100
AcDbLine
 10
-105.094314
 20
-70.423162
 30
0.0
 11
-105.094314
 21
-69.548134
 31
0.0
  0
LINE
  5
31D
100
AcDbEntity
  8
4
370
    50
100
AcDbLine
 10
-105.094314
 20
-67.798077
 30
0.0
 11
-105.094314
 21
-66.923049
 31
0.0
  0
LINE
  5
31E
100
AcDbEntity
  8
4
370
    50
100
AcDbLine
 10
-112.007037
 20
-70.423162
 30
0.0
 11
-111.394517
 21
-70.423162
 31
0.0
  0
LINE
  5
31F
100
AcDbEntity
  8
4
370
    50
100
AcDbLine
 10
-108.249316
 20
-70.423162
 30
0.0
 11
-108.06941
 21
-70.423162
 31
0.0
  0
ARC
  5
320
100
AcDbEntity
  8
4
370
    50
100
AcDbCircle
 10
-109.906969
 20
-67.360563
 30
0.0
 40
0.437514
100
AcDbArc
 50
0.0
 51
90.0
  0
POINT
  5
321
100
AcDbEntity
  8
4
370
    50
100
AcDbPoint
 10
-122.944766
 20
-68.673105
 30
0.0
  0
LINE
  5
322
100
AcDbEntity
  8
4
370
    50
100
AcDbLine
 10
-123.119771
 20
-69.460631
 30
0.0
 11
-123.119771
 21
-67.88558
 31
0.0
  0
LINE
  5
323
100
AcDbEntity
  8
4
370
    50
100
AcDbLine
 10
-122.76976
 20
-67.88558
 30
0.0
 11
-122.76976
 21
-69.460631
 31
0.0
  0
LINE
  5
324
100
AcDbEntity
  8
4
370
    50
100
AcDbLine
 10
-122.76976
 20
-67.88558
 30
0.0
 11
-123.119771
 21
-67.88558
 31
0.0
  0
LINE
  5
325
100
AcDbEntity
  8
4
370
    50
100
AcDbLine
 10
-122.76976
 20
-69.460631
 30
0.0
 11
-123.119771
 21
-69.460631
 31
0.0
  0
LINE
  5
326
100
AcDbEntity
  8
4
370
    50
100
AcDbLine
 10
-124.008996
 20
-69.737335
 30
0.0
 11
-124.182243
 21
-69.910582
 31
0.0
  0
LINE
  5
327
100
AcDbEntity
  8
4
370
    50
100
AcDbLine
 10
-122.069738
 20
-67.88558
 30
0.0
 11
-121.859731
 21
-67.88558
 31
0.0
  0
LINE
  5
328
100
AcDbEntity
  8
4
370
    50
100
AcDbLine
 10
-122.507252
 20
-69.460631
 30
0.0
 11
-122.227243
 21
-69.460631
 31
0.0
  0
LINE
  5
329
100
AcDbEntity
  8
4
370
    50
100
AcDbLine
 10
-122.507252
 20
-69.460631
 30
0.0
 11
-122.507252
 21
-69.180622
 31
0.0
  0
LINE
  5
32A
100
AcDbEntity
  8
4
370
    50
100
AcDbLine
 10
-121.859731
 20
-68.165589
 30
0.0
 11
-121.859731
 21
-67.88558
 31
0.0
  0
LINE
  5
32B
100
AcDbEntity
  8
4
370
    50
100
AcDbLine
 10
-122.017236
 20
-68.165589
 30
0.0
 11
-121.859731
 21
-68.165589
 31
0.0
  0
LINE
  5
32C
100
AcDbEntity
  8
4
370
    50
100
AcDbLine
 10
-122.367662
 20
-68.6435
 30
0.0
 11
-122.148658
 21
-68.847137
 31
0.0
  0
ARC
  5
32D
100
AcDbEntity
  8
4
370
    50
100
AcDbCircle
 10
-122.017236
 20
-68.340595
 30
0.0
 40
0.175006
100
AcDbArc
 50
90.0
 51
227.082289
  0
LINE
  5
32E
100
AcDbEntity
  8
4
370
    50
100
AcDbLine
 10
-122.136405
 20
-68.468757
 30
0.0
 11
-121.917402
 21
-68.672394
 31
0.0
  0
ARC
  5
32F
100
AcDbEntity
  8
4
370
    50
100
AcDbCircle
 10
-122.227243
 20
-69.005616
 30
0.0
 40
0.455015
100
AcDbArc
 50
270.0
 51
47.082289
  0
ARC
  5
330
100
AcDbEntity
  8
4
370
    50
100
AcDbCircle
 10
-122.279744
 20
-68.988116
 30
0.0
 40
0.192506
100
AcDbArc
 50
270.0
 51
47.082289
  0
ARC
  5
331
100
AcDbEntity
  8
4
370
    50
100
AcDbCircle
 10
-122.069738
 20
-68.323094
 30
0.0
 40
0.437514
100
AcDbArc
 50
90.0
 51
227.082289
  0
LINE
  5
332
100
AcDbEntity
  8
4
370
    50
100
AcDbLine
 10
-122.279744
 20
-69.180622
 30
0.0
 11
-122.507252
 21
-69.180622
 31
0.0
  0
LINE
  5
333
100
AcDbEntity
  8
4
370
    50
100
AcDbLine
 10
-123.749792
 20
-68.837611
 30
0.0
 11
-123.749792
 21
-67.88558
 31
0.0
  0
LINE
  5
334
100
AcDbEntity
  8
4
370
    50
100
AcDbLine
 10
-123.434782
 20
-68.837611
 30
0.0
 11
-123.434782
 21
-67.88558
 31
0.0
  0
LINE
  5
335
100
AcDbEntity
  8
4
370
    50
100
AcDbLine
 10
-123.434782
 20
-67.88558
 30
0.0
 11
-123.749792
 21
-67.88558
 31
0.0
  0
ARC
  5
336
100
AcDbEntity
  8
4
370
    50
100
AcDbCircle
 10
-124.057802
 20
-68.837611
 30
0.0
 40
0.62302
100
AcDbArc
 50
190.22669
 51
360.0
  0
ARC
  5
337
100
AcDbEntity
  8
4
370
    50
100
AcDbCircle
 10
-124.092803
 20
-68.837611
 30
0.0
 40
0.343011
100
AcDbArc
 50
190.573586
 51
360.0
  0
ARC
  5
338
100
AcDbEntity
  8
4
370
    50
100
AcDbCircle
 10
-122.944766
 20
-68.673105
 30
0.0
 40
1.505049
100
AcDbArc
 50
225.0
 51
188.720397
  0
ARC
  5
339
100
AcDbEntity
  8
4
370
    50
100
AcDbCircle
 10
-122.944766
 20
-68.673105
 30
0.0
 40
1.750056
100
AcDbArc
 50
225.0
 51
189.066832
  0
LINE
  5
33A
100
AcDbEntity
  8
4
370
    50
100
AcDbLine
 10
-100.544105
 20
-70.423162
 30
0.0
 11
-100.544105
 21
-68.089753
 31
0.0
  0
LINE
  5
33B
100
AcDbEntity
  8
4
370
    50
100
AcDbLine
 10
-101.94415
 20
-70.423162
 30
0.0
 11
-101.94415
 21
-68.089753
 31
0.0
  0
LINE
  5
33C
100
AcDbEntity
  8
4
370
    50
100
AcDbLine
 10
-102.294161
 20
-70.423162
 30
0.0
 11
-101.594139
 21
-70.423162
 31
0.0
  0
LINE
  5
33D
100
AcDbEntity
  8
4
370
    50
100
AcDbLine
 10
-100.894116
 20
-70.423162
 30
0.0
 11
-100.194093
 21
-70.423162
 31
0.0
  0
LINE
  5
33E
100
AcDbEntity
  8
4
370
    50
100
AcDbLine
 10
-124.432416
 20
-68.90129
 30
0.0
 11
-124.42999
 21
-68.900553
 31
0.0
  0
HATCH
  5
33F
100
AcDbEntity
  8
4
370
    25
100
AcDbHatch
 10
0.0
 20
0.0
 30
0.0
210
0.0
220
0.0
230
1.0
  2
_U
 70
     0
 71
     1
 91
        1
 92
        1
 93
        4
 72
     1
 10
-122.76976000000001
 20
-67.885580000000004
 11
-122.76976000000001
 21
-69.460631000000006
 72
     1
 10
-122.76976000000001
 20
-69.460631000000006
 11
-123.119771
 21
-69.460631000000006
 72
     1
 10
-123.119771
 20
-69.460631000000006
 11
-123.119771
 21
-67.885580000000004
 72
     1
 10
-123.119771
 20
-67.885580000000004
 11
-122.76976000000001
 21
-67.885580000000004
 97
        4
330
0
330
0
330
0
330
0
 75
     0
 76
     0
 52
45.0
 41
1.0
 77
     0
 78
     1
 53
45.0
 43
0.0
 44
0.0
 45
-0.282843
 46
0.282843
 79
     0
 98
        1
 10
0.0
 20
0.0
  0
LINE
  5
340
100
AcDbEntity
  8
4
370
    25
100
AcDbLine
 10
-122.060783
 20
-69.429089
 30
0.0
 11
-121.803769
 21
-69.172075
 31
0.0
  0
LINE
  5
341
100
AcDbEntity
  8
4
370
    25
100
AcDbLine
 10
-122.507252
 20
-69.309872
 30
0.0
 11
-122.378001
 21
-69.180622
 31
0.0
  0
LINE
  5
342
100
AcDbEntity
  8
4
370
    25
100
AcDbLine
 10
-122.104914
 20
-68.907535
 30
0.0
 11
-121.893603
 21
-68.696224
 31
0.0
  0
LINE
  5
343
100
AcDbEntity
  8
4
370
    25
100
AcDbLine
 10
-121.859731
 20
-68.096666
 30
0.0
 11
-121.928654
 21
-68.165589
 31
0.0
  0
LINE
  5
344
100
AcDbEntity
  8
4
370
    25
100
AcDbLine
 10
-122.176405
 20
-68.413341
 30
0.0
 11
-122.387208
 21
-68.624144
 31
0.0
  0
LINE
  5
345
100
AcDbEntity
  8
4
370
    25
100
AcDbLine
 10
-122.465659
 20
-68.136909
 30
0.0
 11
-122.255923
 21
-67.927173
 31
0.0
  0
LINE
  5
346
100
AcDbEntity
  8
4
370
    25
100
AcDbLine
 10
-123.740184
 20
-70.231953
 30
0.0
 11
-123.55762
 21
-70.04939
 31
0.0
  0
LINE
  5
347
100
AcDbEntity
  8
4
370
    25
100
AcDbLine
 10
-121.56849
 20
-68.060259
 30
0.0
 11
-121.385918
 21
-67.877687
 31
0.0
  0
LINE
  5
348
100
AcDbEntity
  8
4
370
    25
100
AcDbLine
 10
-123.324101
 20
-70.381556
 30
0.0
 11
-123.113835
 21
-70.17129
 31
0.0
  0
LINE
  5
349
100
AcDbEntity
  8
4
370
    25
100
AcDbLine
 10
-121.44659
 20
-68.504045
 30
0.0
 11
-121.236315
 21
-68.29377
 31
0.0
  0
LINE
  5
34A
100
AcDbEntity
  8
4
370
    25
100
AcDbLine
 10
-122.793469
 20
-70.41661
 30
0.0
 11
-122.487974
 21
-70.111115
 31
0.0
  0
LINE
  5
34B
100
AcDbEntity
  8
4
370
    25
100
AcDbLine
 10
-121.506765
 20
-69.129905
 30
0.0
 11
-121.201261
 21
-68.824402
 31
0.0
  0
LINE
  5
34C
100
AcDbEntity
  8
4
370
    25
100
AcDbLine
 10
-121.84813
 20
-70.036956
 30
0.0
 11
-121.580915
 21
-69.769741
 31
0.0
  0
LINE
  5
34D
100
AcDbEntity
  8
4
370
    25
100
AcDbLine
 10
-124.079414
 20
-70.005498
 30
0.0
 11
-123.905801
 21
-69.831885
 31
0.0
  0
LINE
  5
34E
100
AcDbEntity
  8
4
370
    25
100
AcDbLine
 10
-121.785995
 20
-67.712079
 30
0.0
 11
-121.612373
 21
-67.538457
 31
0.0
  0
LINE
  5
34F
100
AcDbEntity
  8
4
370
    25
100
AcDbLine
 10
-124.111416
 20
-69.471814
 30
0.0
 11
-123.434782
 21
-68.79518
 31
0.0
  0
LINE
  5
350
100
AcDbEntity
  8
4
370
    25
100
AcDbLine
 10
-122.081063
 20
-67.441462
 30
0.0
 11
-121.905011
 21
-67.26541
 31
0.0
  0
LINE
  5
351
100
AcDbEntity
  8
4
370
    25
100
AcDbLine
 10
-124.497571
 20
-69.292284
 30
0.0
 11
-124.309109
 21
-69.103822
 31
0.0
  0
LINE
  5
352
100
AcDbEntity
  8
4
370
    25
100
AcDbLine
 10
-123.749792
 20
-68.544505
 30
0.0
 11
-123.434782
 21
-68.229495
 31
0.0
  0
LINE
  5
353
100
AcDbEntity
  8
4
370
    25
100
AcDbLine
 10
-122.456669
 20
-67.251382
 30
0.0
 11
-122.265527
 21
-67.060241
 31
0.0
  0
LINE
  5
354
100
AcDbEntity
  8
4
370
    25
100
AcDbLine
 10
-124.678985
 20
-68.908013
 30
0.0
 11
-124.446819
 21
-68.675847
 31
0.0
  0
LINE
  5
355
100
AcDbEntity
  8
4
370
    25
100
AcDbLine
 10
-123.749792
 20
-67.978819
 30
0.0
 11
-123.656552
 21
-67.88558
 31
0.0
  0
LINE
  5
356
100
AcDbEntity
  8
4
370
    25
100
AcDbLine
 10
-122.942033
 20
-67.171061
 30
0.0
 11
-122.709858
 21
-66.938886
 31
0.0
  0
LINE
  5
357
100
AcDbEntity
  8
4
370
    25
100
AcDbLine
 10
-124.65939
 20
-68.322732
 30
0.0
 11
-124.222888
 21
-67.88623
 31
0.0
  0
LINE
  5
358
100
AcDbEntity
  8
4
370
    25
100
AcDbLine
 10
-123.731649
 20
-67.394991
 30
0.0
 11
-123.295139
 21
-66.958481
 31
0.0
  0
LINE
  5
359
100
AcDbEntity
  8
4
370
    50
100
AcDbLine
 10
-102.994246
 20
-69.985648
 30
0.0
 11
-102.994246
 21
-70.423162
 31
0.0
  0
LINE
  5
35A
100
AcDbEntity
  8
4
370
    50
100
AcDbLine
 10
-119.094641
 20
-68.089753
 30
0.0
 11
-119.794664
 21
-68.089753
 31
0.0
  0
LINE
  5
35B
100
AcDbEntity
  8
4
370
    50
100
AcDbLine
 10
-100.544105
 20
-68.089753
 30
0.0
 11
-101.244127
 21
-69.302228
 31
0.0
  0
LINE
  5
35C
100
AcDbEntity
  8
4
370
    50
100
AcDbLine
 10
-101.94415
 20
-68.089753
 30
0.0
 11
-101.244127
 21
-69.302228
 31
0.0
  0
LINE
  5
35D
100
AcDbEntity
  8
4
370
    50
100
AcDbLine
 10
-119.444653
 20
-68.089753
 30
0.0
 11
-119.444653
 21
-69.723139
 31
0.0
  0
LINE
  5
35E
100
AcDbEntity
  8
4
370
    50
100
AcDbLine
 10
-116.644562
 20
-68.089753
 30
0.0
 11
-115.94454
 21
-68.089753
 31
0.0
  0
LINE
  5
35F
100
AcDbEntity
  8
4
370
    50
100
AcDbLine
 10
-118.044608
 20
-68.089753
 30
0.0
 11
-118.74463
 21
-68.089753
 31
0.0
  0
LINE
  5
360
100
AcDbEntity
  8
4
370
    50
100
AcDbLine
 10
-118.394619
 20
-68.089753
 30
0.0
 11
-117.983176
 21
-70.423162
 31
0.0
  0
LINE
  5
361
100
AcDbEntity
  8
4
370
    50
100
AcDbLine
 10
-117.983176
 20
-70.423162
 30
0.0
 11
-117.344585
 21
-68.668647
 31
0.0
  0
LINE
  5
362
100
AcDbEntity
  8
4
370
    50
100
AcDbLine
 10
-116.705994
 20
-70.423162
 30
0.0
 11
-117.344585
 21
-68.668647
 31
0.0
  0
LINE
  5
363
100
AcDbEntity
  8
4
370
    50
100
AcDbLine
 10
-116.294551
 20
-68.089753
 30
0.0
 11
-116.705994
 21
-70.423162
 31
0.0
  0
ARC
  5
364
100
AcDbEntity
  8
4
370
    50
100
AcDbCircle
 10
-120.144675
 20
-69.723139
 30
0.0
 40
0.700023
100
AcDbArc
 50
180.0
 51
360.0
  0
LINE
  5
365
100
AcDbEntity
  8
4
370
    50
100
AcDbLine
 10
-124.694822
 20
-65.923017
 30
0.0
 11
-100.694047
 21
-65.923017
 31
0.0
  0
LINE
  5
366
100
AcDbEntity
  8
4
370
    50
100
AcDbLine
 10
-124.694822
 20
-71.423194
 30
0.0
 11
-100.694047
 21
-71.423194
 31
0.0
  0
POINT
  5
367
100
AcDbEntity
  8
4
370
    50
100
AcDbPoint
 10
-122.944766
 20
-68.673105
 30
0.0
  0
LINE
  5
368
100
AcDbEntity
  8
4
370
    50
100
AcDbLine
 10
-125.694855
 20
-70.423162
 30
0.0
 11
-125.694855
 21
-66.923049
 31
0.0
  0
LINE
  5
369
100
AcDbEntity
  8
4
370
    50
100
AcDbLine
 10
-99.694015
 20
-70.423162
 30
0.0
 11
-99.694015
 21
-66.923049
 31
0.0
  0
HATCH
  5
36A
100
AcDbEntity
  8
4
370
    25
100
AcDbHatch
 10
0.0
 20
0.0
 30
0.0
210
0.0
220
0.0
230
1.0
  2
_U
 70
     0
 71
     1
 91
        1
 92
        1
 93
        5
 72
     1
 10
-112.444551
 20
-67.798077000000006
 11
-112.444551
 21
-67.360562999999999
 72
     2
 10
-112.882065
 20
-67.360562999999999
 40
0.437514
 50
0.0
 51
90.0
 73
     1
 72
     1
 10
-112.882065
 20
-66.923049000000006
 11
-115.244641
 21
-66.923049000000006
 72
     1
 10
-115.244641
 20
-66.923049000000006
 11
-115.244641
 21
-67.798077000000006
 72
     1
 10
-115.244641
 20
-67.798077000000006
 11
-112.444551
 21
-67.798077000000006
 97
        5
330
0
330
0
330
0
330
0
330
0
 75
     0
 76
     0
 52
45.0
 41
1.0
 77
     0
 78
     1
 53
45.0
 43
0.0
 44
0.0
 45
-0.282843
 46
0.282843
 79
     0
 98
        1
 10
0.0
 20
0.0
  0
HATCH
  5
36B
100
AcDbEntity
  8
4
370
    25
100
AcDbHatch
 10
0.0
 20
0.0
 30
0.0
210
0.0
220
0.0
230
1.0
  2
_U
 70
     0
 71
     1
 91
        1
 92
        1
 93
        5
 72
     2
 10
-112.882065
 20
-68.80838
 40
0.437514
 50
0.0
 51
82.0
 73
     1
 72
     1
 10
-112.821175
 20
-68.375124
 11
-115.244641
 21
-68.034527999999995
 72
     1
 10
-115.244641
 20
-68.034527999999995
 11
-115.244641
 21
-68.918155999999996
 72
     1
 10
-115.244641
 20
-68.918155999999996
 11
-112.444551
 21
-69.311683000000002
 72
     1
 10
-112.444551
 20
-69.311683000000002
 11
-112.444551
 21
-68.80838
 97
        5
330
0
330
0
330
0
330
0
330
0
 75
     0
 76
     0
 52
45.0
 41
1.0
 77
     0
 78
     1
 53
45.0
 43
0.0
 44
0.0
 45
-0.282843
 46
0.282843
 79
     0
 98
        1
 10
0.0
 20
0.0
  0
HATCH
  5
36C
100
AcDbEntity
  8
4
370
    25
100
AcDbHatch
 10
0.0
 20
0.0
 30
0.0
210
0.0
220
0.0
230
1.0
  2
_U
 70
     0
 71
     1
 91
        1
 92
        1
 93
        5
 72
     2
 10
-112.882065
 20
-69.985647999999998
 40
0.437514
 50
0.0
 51
90.0
 73
     1
 72
     1
 10
-112.882065
 20
-69.548134000000005
 11
-115.244641
 21
-69.548134000000005
 72
     1
 10
-115.244641
 20
-69.548134000000005
 11
-115.244641
 21
-70.423162000000005
 72
     1
 10
-115.244641
 20
-70.423162000000005
 11
-112.444551
 21
-70.423162000000005
 72
     1
 10
-112.444551
 20
-70.423162000000005
 11
-112.444551
 21
-69.985647999999998
 97
        5
330
0
330
0
330
0
330
0
330
0
 75
     0
 76
     0
 52
45.0
 41
1.0
 77
     0
 78
     1
 53
45.0
 43
0.0
 44
0.0
 45
-0.282843
 46
0.282843
 79
     0
 98
        1
 10
0.0
 20
0.0
  0
LINE
  5
36D
100
AcDbEntity
  8
4
370
    25
100
AcDbLine
 10
-110.344483
 20
-67.798077
 30
0.0
 11
-109.5976
 21
-67.051194
 31
0.0
  0
LINE
  5
36E
100
AcDbEntity
  8
4
370
    25
100
AcDbLine
 10
-112.007037
 20
-70.026316
 30
0.0
 11
-111.528854
 21
-69.548134
 31
0.0
  0
LINE
  5
36F
100
AcDbEntity
  8
4
370
    25
100
AcDbLine
 10
-110.344483
 20
-68.363763
 30
0.0
 11
-109.469455
 21
-67.488734
 31
0.0
  0
LINE
  5
370
100
AcDbEntity
  8
4
370
    25
100
AcDbLine
 10
-111.838197
 20
-70.423162
 30
0.0
 11
-110.705424
 21
-69.290389
 31
0.0
  0
LINE
  5
371
100
AcDbEntity
  8
4
370
    25
100
AcDbLine
 10
-110.602228
 20
-69.187193
 30
0.0
 11
-109.469455
 21
-68.05442
 31
0.0
  0
LINE
  5
372
100
AcDbEntity
  8
4
370
    25
100
AcDbLine
 10
-111.268374
 20
-70.419025
 30
0.0
 11
-109.473592
 21
-68.624242
 31
0.0
  0
LINE
  5
373
100
AcDbEntity
  8
4
370
    25
100
AcDbLine
 10
-110.470649
 20
-70.186984
 30
0.0
 11
-109.412618
 21
-69.128954
 31
0.0
  0
LINE
  5
374
100
AcDbEntity
  8
4
370
    25
100
AcDbLine
 10
-109.704921
 20
-69.986942
 30
0.0
 11
-109.060717
 21
-69.342738
 31
0.0
  0
LINE
  5
375
100
AcDbEntity
  8
4
370
    25
100
AcDbLine
 10
-109.332452
 20
-70.180159
 30
0.0
 11
-108.64358
 21
-69.491287
 31
0.0
  0
LINE
  5
376
100
AcDbEntity
  8
4
370
    25
100
AcDbLine
 10
-108.912195
 20
-70.325587
 30
0.0
 11
-108.136293
 21
-69.549685
 31
0.0
  0
LINE
  5
377
100
AcDbEntity
  8
4
370
    25
100
AcDbLine
 10
-108.432039
 20
-70.411116
 30
0.0
 11
-108.06941
 21
-70.048487
 31
0.0
  0
LINE
  5
378
100
AcDbEntity
  8
4
370
    25
100
AcDbLine
 10
-110.03514
 20
-66.923049
 30
0.0
 11
-110.910169
 21
-67.798077
 31
0.0
  0
LINE
  5
379
100
AcDbEntity
  8
4
370
    25
100
AcDbLine
 10
-110.600826
 20
-66.923049
 30
0.0
 11
-111.475854
 21
-67.798077
 31
0.0
  0
LINE
  5
37A
100
AcDbEntity
  8
4
370
    25
100
AcDbLine
 10
-111.166511
 20
-66.923049
 30
0.0
 11
-111.569523
 21
-67.32606
 31
0.0
  0
HATCH
  5
37B
100
AcDbEntity
  8
4
370
    25
100
AcDbHatch
 10
0.0
 20
0.0
 30
0.0
210
0.0
220
0.0
230
1.0
  2
_U
 70
     0
 71
     1
 91
        1
 92
        1
 93
        1
 72
     2
 10
-109.206947
 20
-67.185557000000003
 40
0.262508
 50
0.0
 51
360.0
 73
     1
 97
        1
330
0
 75
     0
 76
     0
 52
45.0
 41
1.0
 77
     0
 78
     1
 53
45.0
 43
0.0
 44
0.0
 45
-0.282843
 46
0.282843
 79
     0
 98
        1
 10
0.0
 20
0.0
  0
HATCH
  5
37C
100
AcDbEntity
  8
4
370
    25
100
AcDbHatch
 10
0.0
 20
0.0
 30
0.0
210
0.0
220
0.0
230
1.0
  2
_U
 70
     0
 71
     1
 91
        1
 92
        1
 93
        1
 72
     2
 10
-108.68192999999999
 20
-67.185557000000003
 40
0.262508
 50
0.0
 51
360.0
 73
     1
 97
        1
330
0
 75
     0
 76
     0
 52
45.0
 41
1.0
 77
     0
 78
     1
 53
45.0
 43
0.0
 44
0.0
 45
-0.282843
 46
0.282843
 79
     0
 98
        1
 10
0.0
 20
0.0
  0
LINE
  5
37D
100
AcDbEntity
  8
4
370
    25
100
AcDbLine
 10
-103.869274
 20
-67.798077
 30
0.0
 11
-103.122391
 21
-67.051194
 31
0.0
  0
LINE
  5
37E
100
AcDbEntity
  8
4
370
    25
100
AcDbLine
 10
-103.303589
 20
-67.798077
 30
0.0
 11
-102.994246
 21
-67.488734
 31
0.0
  0
LINE
  5
37F
100
AcDbEntity
  8
4
370
    25
100
AcDbLine
 10
-103.559931
 20
-66.923049
 30
0.0
 11
-104.43496
 21
-67.798077
 31
0.0
  0
LINE
  5
380
100
AcDbEntity
  8
4
370
    25
100
AcDbLine
 10
-104.125617
 20
-66.923049
 30
0.0
 11
-105.000645
 21
-67.798077
 31
0.0
  0
LINE
  5
381
100
AcDbEntity
  8
4
370
    25
100
AcDbLine
 10
-104.691302
 20
-66.923049
 30
0.0
 11
-105.094314
 21
-67.32606
 31
0.0
  0
HATCH
  5
382
100
AcDbEntity
  8
4
370
    25
100
AcDbHatch
 10
0.0
 20
0.0
 30
0.0
210
0.0
220
0.0
230
1.0
  2
_U
 70
     0
 71
     1
 91
        1
 92
        1
 93
        5
 72
     2
 10
-103.43176
 20
-69.985647999999998
 40
0.437514
 50
0.0
 51
90.0
 73
     1
 72
     1
 10
-103.43176
 20
-69.548134000000005
 11
-105.094314
 21
-69.548134000000005
 72
     1
 10
-105.094314
 20
-69.548134000000005
 11
-105.094314
 21
-70.423162000000005
 72
     1
 10
-105.094314
 20
-70.423162000000005
 11
-102.994246
 21
-70.423162000000005
 72
     1
 10
-102.994246
 20
-70.423162000000005
 11
-102.994246
 21
-69.985647999999998
 97
        5
330
0
330
0
330
0
330
0
330
0
 75
     0
 76
     0
 52
45.0
 41
1.0
 77
     0
 78
     1
 53
45.0
 43
0.0
 44
0.0
 45
-0.282843
 46
0.282843
 79
     0
 98
        1
 10
0.0
 20
0.0
  0
LINE
  5
383
100
AcDbEntity
  8
4
370
    25
100
AcDbLine
 10
-106.931873
 20
-68.323094
 30
0.0
 11
-106.756867
 21
-68.148088
 31
0.0
  0
LINE
  5
384
100
AcDbEntity
  8
4
370
    25
100
AcDbLine
 10
-106.406856
 20
-67.798077
 30
0.0
 11
-105.659973
 21
-67.051194
 31
0.0
  0
LINE
  5
385
100
AcDbEntity
  8
4
370
    25
100
AcDbLine
 10
-107.631896
 20
-69.588802
 30
0.0
 11
-107.591227
 21
-69.548134
 31
0.0
  0
LINE
  5
386
100
AcDbEntity
  8
4
370
    25
100
AcDbLine
 10
-106.931873
 20
-68.888779
 30
0.0
 11
-105.531828
 21
-67.488734
 31
0.0
  0
LINE
  5
387
100
AcDbEntity
  8
4
370
    25
100
AcDbLine
 10
-107.631896
 20
-70.154488
 30
0.0
 11
-106.767797
 21
-69.290389
 31
0.0
  0
LINE
  5
388
100
AcDbEntity
  8
4
370
    25
100
AcDbLine
 10
-106.664601
 20
-69.187193
 30
0.0
 11
-105.531828
 21
-68.05442
 31
0.0
  0
LINE
  5
389
100
AcDbEntity
  8
4
370
    25
100
AcDbLine
 10
-107.330747
 20
-70.419025
 30
0.0
 11
-105.535965
 21
-68.624242
 31
0.0
  0
LINE
  5
38A
100
AcDbEntity
  8
4
370
    25
100
AcDbLine
 10
-106.533022
 20
-70.186984
 30
0.0
 11
-105.768005
 21
-69.421968
 31
0.0
  0
LINE
  5
38B
100
AcDbEntity
  8
4
370
    25
100
AcDbLine
 10
-107.497559
 20
-68.323094
 30
0.0
 11
-107.337279
 21
-68.162815
 31
0.0
  0
LINE
  5
38C
100
AcDbEntity
  8
4
370
    25
100
AcDbLine
 10
-106.972542
 20
-67.798077
 30
0.0
 11
-106.097513
 21
-66.923049
 31
0.0
  0
LINE
  5
38D
100
AcDbEntity
  8
4
370
    25
100
AcDbLine
 10
-108.063244
 20
-68.323094
 30
0.0
 11
-106.663199
 21
-66.923049
 31
0.0
  0
LINE
  5
38E
100
AcDbEntity
  8
4
370
    25
100
AcDbLine
 10
-108.18242
 20
-67.876584
 30
0.0
 11
-107.228884
 21
-66.923049
 31
0.0
  0
ARC
  5
38F
100
AcDbEntity
  8
4
370
    50
100
AcDbCircle
 10
-124.694822
 20
-66.923049
 30
0.0
 40
1.000032
100
AcDbArc
 50
90.0
 51
180.0
  0
ARC
  5
390
100
AcDbEntity
  8
4
370
    50
100
AcDbCircle
 10
-124.694822
 20
-70.423162
 30
0.0
 40
1.000032
100
AcDbArc
 50
180.0
 51
270.0
  0
ARC
  5
391
100
AcDbEntity
  8
4
370
    50
100
AcDbCircle
 10
-100.694047
 20
-66.923049
 30
0.0
 40
1.000032
100
AcDbArc
 50
0.0
 51
90.0
  0
ARC
  5
392
100
AcDbEntity
  8
4
370
    50
100
AcDbCircle
 10
-100.694047
 20
-70.423162
 30
0.0
 40
1.000032
100
AcDbArc
 50
270.0
 51
360.0
  0
TEXT
  5
393
100
AcDbEntity
  8
4
370
    50
100
AcDbText
 10
-69.820389
 20
-60.450348
 30
0.0
 40
7.0
  1
（商標表示）
 72
     5
 11
-29.220389
 21
-60.450348
 31
0.0
100
AcDbText
  0
LINE
  5
394
100
AcDbEntity
  8
4
370
    50
100
AcDbLine
 10
-191.917324
 20
-59.927152
 30
0.0
 11
-207.117324
 21
-59.927152
 31
0.0
  0
LINE
  5
395
100
AcDbEntity
  8
4
370
    50
100
AcDbLine
 10
-191.917324
 20
-77.977152
 30
0.0
 11
-207.117324
 21
-77.977152
 31
0.0
  0
ENDSEC
  0
SECTION
  2
OBJECTS
  0
DICTIONARY
  5
3EA
100
AcDbDictionary
280
     0
281
     1
  3
ACAD_GROUP
350
3EB
  3
ACAD_MLINESTYLE
350
3EC
  0
DICTIONARY
  5
3EB
102
{ACAD_REACTORS
330
3EA
102
}
100
AcDbDictionary
280
     0
281
     1
  0
DICTIONARY
  5
3EC
102
{ACAD_REACTORS
330
3EA
102
}
100
AcDbDictionary
280
     0
281
     1
  3
Standard
350
3ED
  0
MLINESTYLE
  5
3ED
102
{ACAD_REACTORS
330
3EC
102
}
100
AcDbMlineStyle
  2
Standard
 70
     0
  3

 62
     0
 51
90.0
 52
90.0
 71
     2
 49
0.5
 62
   256
  6
ByLayer
 49
-0.5
 62
   256
  6
ByLayer
  0
ENDSEC
  0
EOF
