  0
SECTION
  2
HEADER
  9
$ACADVER
  1
AC1015
  9
$ACADMAINTVER
 70
     6
  9
$DWGCODEPAGE
  3
ANSI_932
  9
$INSBASE
 10
0.0
 20
0.0
 30
0.0
  9
$EXTMIN
 10
-841.0
 20
-594.0
 30
1.000000E+20
  9
$EXTMAX
 10
841.0
 20
594.0
 30
-1.000000E+20
  9
$LIMMIN
 10
-841.0
 20
-594.0
  9
$LIMMAX
 10
841.0
 20
594.0
  9
$ORTHOMODE
 70
     0
  9
$REGENMODE
 70
     1
  9
$FILLMODE
 70
     1
  9
$QTEXTMODE
 70
     0
  9
$MIRRTEXT
 70
     1
  9
$LTSCALE
 40
1.0
  9
$ATTMODE
 70
     1
  9
$TEXTSIZE
 40
0.2
  9
$TRACEWID
 40
0.05
  9
$TEXTSTYLE
  7
STANDARD
  9
$CLAYER
  8
0
  9
$CELTYPE
  6
CONTINUOUS
  9
$CECOLOR
 62
   256
  9
$CELTSCALE
 40
1.0
  9
$DISPSILH
 70
     0
  9
$DIMSCALE
 40
2.0
  9
$DIMASZ
 40
2.0
  9
$DIMEXO
 40
1.0
  9
$DIMDLI
 40
0.38
  9
$DIMRND
 40
0.0
  9
$DIMDLE
 40
0.0
  9
$DIMEXE
 40
2.0
  9
$DIMTP
 40
0.0
  9
$DIMTM
 40
0.0
  9
$DIMTXT
 40
3.5
  9
$DIMCEN
 40
0.09
  9
$DIMTSZ
 40
0.0
  9
$DIMTOL
 70
     0
  9
$DIMLIM
 70
     0
  9
$DIMTIH
 70
     0
  9
$DIMTOH
 70
     0
  9
$DIMSE1
 70
     0
  9
$DIMSE2
 70
     0
  9
$DIMTAD
 70
     1
  9
$DIMZIN
 70
     0
  9
$DIMBLK
  1

  9
$DIMASO
 70
     1
  9
$DIMSHO
 70
     1
  9
$DIMPOST
  1

  9
$DIMAPOST
  1

  9
$DIMALT
 70
     0
  9
$DIMALTD
 70
     2
  9
$DIMALTF
 40
25.4
  9
$DIMLFAC
 40
1.0
  9
$DIMTOFL
 70
     0
  9
$DIMTVP
 40
0.0
  9
$DIMTIX
 70
     0
  9
$DIMSOXD
 70
     0
  9
$DIMSAH
 70
     0
  9
$DIMBLK1
  1

  9
$DIMBLK2
  1

  9
$DIMSTYLE
  2
Standard
  9
$DIMCLRD
 70
     0
  9
$DIMCLRE
 70
     0
  9
$DIMCLRT
 70
     0
  9
$DIMTFAC
 40
1.0
  9
$DIMGAP
 40
0.5
  9
$DIMJUST
 70
     0
  9
$DIMSD1
 70
     0
  9
$DIMSD2
 70
     0
  9
$DIMTOLJ
 70
     1
  9
$DIMTZIN
 70
     0
  9
$DIMALTZ
 70
     0
  9
$DIMALTTZ
 70
     0
  9
$DIMUPT
 70
     0
  9
$DIMDEC
 70
     3
  9
$DIMTDEC
 70
     4
  9
$DIMALTU
 70
     2
  9
$DIMALTTD
 70
     2
  9
$DIMTXSTY
  7
STANDARD
  9
$DIMAUNIT
 70
     0
  9
$DIMADEC
 70
     0
  9
$DIMALTRND
 40
0.0
  9
$DIMAZIN
 70
     0
  9
$DIMDSEP
 70
     0
  9
$DIMATFIT
 70
     3
  9
$DIMFRAC
 70
     0
  9
$DIMLDRBLK
  1

  9
$DIMLUNIT
 70
     2
  9
$DIMLWD
 70
     0
  9
$DIMLWE
 70
     0
  9
$DIMTMOVE
 70
     0
  9
$LUNITS
 70
     2
  9
$LUPREC
 70
     4
  9
$SKETCHINC
 40
0.1
  9
$FILLETRAD
 40
0.0
  9
$AUNITS
 70
     0
  9
$AUPREC
 70
     0
  9
$MENU
  1
acad
  9
$ELEVATION
 40
0.0
  9
$PELEVATION
 40
0.0
  9
$THICKNESS
 40
0.0
  9
$LIMCHECK
 70
     0
  9
$CHAMFERA
 40
0.0
  9
$CHAMFERB
 40
0.0
  9
$CHAMFERC
 40
0.0
  9
$CHAMFERD
 40
0.0
  9
$SKPOLY
 70
     0
  9
$TDCREATE
 40
2453383.000000000
  9
$TDUCREATE
 40
0.000000000
  9
$TDUPDATE
 40
0.000000000
  9
$TDUUPDATE
 40
2447892.625000000
  9
$TDINDWG
 40
0.0000000000
  9
$TDUSRTIMER
 40
0.0000000000
  9
$USRTIMER
 70
     1
  9
$ANGBASE
 50
0.0
  9
$ANGDIR
 70
     0
  9
$PDMODE
 70
     0
  9
$PDSIZE
 40
0.0
  9
$PLINEWID
 40
0.0
  9
$SPLFRAME
 70
     0
  9
$SPLINETYPE
 70
     6
  9
$SPLINESEGS
 70
     8
  9
$HANDSEED
  5
28B
  9
$SURFTAB1
 70
     6
  9
$SURFTAB2
 70
     6
  9
$SURFTYPE
 70
     6
  9
$SURFU
 70
     6
  9
$SURFV
 70
     6
  9
$UCSBASE
  2

  9
$UCSNAME
  2

  9
$UCSORG
 10
0.0
 20
0.0
 30
0.0
  9
$UCSXDIR
 10
1.0
 20
0.0
 30
0.0
  9
$UCSYDIR
 10
0.0
 20
1.0
 30
0.0
  9
$UCSORTHOREF
  2

  9
$UCSORTHOVIEW
 70
     0
  9
$UCSORGTOP
 10
0.0
 20
0.0
 30
0.0
  9
$UCSORGBOTTOM
 10
0.0
 20
0.0
 30
0.0
  9
$UCSORGLEFT
 10
0.0
 20
0.0
 30
0.0
  9
$UCSORGRIGHT
 10
0.0
 20
0.0
 30
0.0
  9
$UCSORGFRONT
 10
0.0
 20
0.0
 30
0.0
  9
$UCSORGBACK
 10
0.0
 20
0.0
 30
0.0
  9
$PUCSBASE
  2

  9
$PUCSNAME
  2

  9
$PUCSORG
 10
0.0
 20
0.0
 30
0.0
  9
$PUCSXDIR
 10
1.0
 20
0.0
 30
0.0
  9
$PUCSYDIR
 10
0.0
 20
1.0
 30
0.0
  9
$PUCSORTHOREF
  2

  9
$PUCSORTHOVIEW
 70
     0
  9
$PUCSORGTOP
 10
0.0
 20
0.0
 30
0.0
  9
$PUCSORGBOTTOM
 10
0.0
 20
0.0
 30
0.0
  9
$PUCSORGLEFT
 10
0.0
 20
0.0
 30
0.0
  9
$PUCSORGRIGHT
 10
0.0
 20
0.0
 30
0.0
  9
$PUCSORGFRONT
 10
0.0
 20
0.0
 30
0.0
  9
$PUCSORGBACK
 10
0.0
 20
0.0
 30
0.0
  9
$USERI1
 70
     0
  9
$USERI2
 70
     0
  9
$USERI3
 70
     0
  9
$USERI4
 70
     0
  9
$USERI5
 70
     0
  9
$USERR1
 40
0.0
  9
$USERR2
 40
0.0
  9
$USERR3
 40
0.0
  9
$USERR4
 40
0.0
  9
$USERR5
 40
0.0
  9
$WORLDVIEW
 70
     1
  9
$SHADEDGE
 70
     3
  9
$SHADEDIF
 70
    70
  9
$TILEMODE
 70
     1
  9
$MAXACTVP
 70
    16
  9
$PINSBASE
 10
0.0
 20
0.0
 30
0.0
  9
$PLIMCHECK
 70
     0
  9
$PEXTMIN
 10
1.000000E+20
 20
1.000000E+20
 30
1.000000E+20
  9
$PEXTMAX
 10
-1.000000E+20
 20
-1.000000E+20
 30
-1.000000E+20
  9
$PLIMMIN
 10
0.0
 20
0.0
  9
$PLIMMAX
 10
12.0
 20
9.0
  9
$UNITMODE
 70
     0
  9
$VISRETAIN
 70
     0
  9
$PLINEGEN
 70
     1
  9
$PSLTSCALE
 70
     0
  9
$TREEDEPTH
 70
  3020
  9
$CMLSTYLE
  2
Standard
  9
$CMLJUST
 70
     0
  9
$CMLSCALE
 40
1.0
  9
$PROXYGRAPHICS
 70
     0
  9
$MEASUREMENT
 70
     0
  9
$CELWEIGHT
370
     0
  9
$ENDCAPS
280
     0
  9
$JOINSTYLE
280
     0
  9
$LWDISPLAY
290
     0
  9
$INSUNITS
 70
     0
  9
$HYPERLINKBASE
  1

  9
$STYLESHEET
  1

  9
$XEDIT
290
     1
  9
$CEPSNTYPE
380
     0
  9
$PSTYLEMODE
290
     1
  9
$FINGERPRINTGUID
  2

  9
$VERSIONGUID
  2

  9
$EXTNAMES
290
     1
  9
$PSVPSCALE
 40
0.0
  0
ENDSEC
  0
SECTION
  2
CLASSES
  0
CLASS
  1
LWPOLYLINE
  2
AcDbPolyline
  3
AutoCAD 2000
 90
        0
280
     0
281
     1
  0
CLASS
  1
IMAGE
  2
AcDbRasterImage
  3
ISM
 90
      127
280
     0
281
     1
  0
CLASS
  1
OLE2FRAME
  2
AcDbOle2Frame
  3
AutoCAD 2000
 90
        0
280
     0
281
     1
  0
CLASS
  1
HATCH
  2
AcDbHatch
  3
AutoCAD 2000
 90
        0
280
     0
281
     1
  0
CLASS
  1
DICTIONARYVAR
  2
AcDbDictionaryVar
  3
AutoCAD 2000
 90
        0
280
     0
281
     0
  0
CLASS
  1
RASTERVARIABLES
  2
AcDbRasterVariables
  3
ISM
 90
        0
280
     0
281
     0
  0
CLASS
  1
IMAGEDEF
  2
AcDbRasterImageDef
  3
ISM
 90
        0
280
     0
281
     0
  0
CLASS
  1
IMAGEDEF_REACTOR
  2
AcDbRasterImageDefReactor
  3
ISM
 90
        1
280
     0
281
     0
  0
CLASS
  1
IDBUFFER
  2
AcDbIdBuffer
  3
AutoCAD 2000
 90
        0
280
     0
281
     0
  0
CLASS
  1
SPATIAL_FILTER
  2
AcDbSpatialFilter
  3
AutoCAD 2000
 90
        0
280
     0
281
     0
  0
CLASS
  1
XRECORD
  2
AcDbXrecord
  3
AutoCAD 2000
 90
        0
280
     0
281
     0
  0
CLASS
  1
SORTENTSTABLE
  2
AcDbSortentsTable
  3
AutoCAD 2000
 90
        0
280
     0
281
     0
  0
CLASS
  1
LAYER_INDEX
  2
AcDbLayerIndex
  3
AutoCAD 2000
 90
        0
280
     0
281
     0
  0
CLASS
  1
SPATIAL_INDEX
  2
AcDbSpatialIndex
  3
AutoCAD 2000
 90
        0
280
     0
281
     0
  0
CLASS
  1
OBJECT_PTR
  2
CAseDLPNTableRecord
  3
"ASE-LPNTableRecord"
 90
        1
280
     0
281
     0
  0
CLASS
  1
LAYOUT
  2
AcDbLayout
  3
AutoCAD 2000
 90
        0
280
     0
281
     0
  0
CLASS
  1
PLOTSETTINGS
  2
AcDbPlotSettings
  3
AutoCAD 2000
 90
        0
280
     0
281
     0
  0
CLASS
  1
ACDBDICTIONARYWDFLT
  2
AcDbDictionaryWithDefault
  3
AutoCAD 2000
 90
        0
280
     0
281
     0
  0
CLASS
  1
ACDBPLACEHOLDER
  2
AcDbPlaceHolder
  3
AutoCAD 2000
 90
        0
280
     0
281
     0
  0
CLASS
  1
VBA_PROJECT
  2
AcDbVbaProject
  3
acadvba
 90
        0
280
     0
281
     0
  0
CLASS
  1
WIPEOUT
  2
AcDbWipeout
  3
WipeOut|AutoCAD Express Tool|expresstools@autodesk.com
 90
      127
280
     0
281
     1
  0
CLASS
  1
WIPEOUTVARIABLES
  2
AcDbWipeoutVariables
  3
WipeOut|AutoCAD Express Tool|expresstools@autodesk.com
 90
        0
280
     0
281
     0
  0
CLASS
  1
RTEXT
  2
RText
  3
RText|AutoCAD Express Tool|expresstools@autodesk.com
 90
        0
280
     0
281
     1
  0
CLASS
  1
ARCALIGNEDTEXT
  2
AcDbArcAlignedText
  3
ATEXT|AutoCAD Express Tool|expresstools@autodesk.com
 90
        0
280
     0
281
     1
  0
ENDSEC
  0
SECTION
  2
TABLES
  0
TABLE
  2
VPORT
  5
6
100
AcDbSymbolTable
 70
     1
  0
VPORT
  5
19
100
AcDbSymbolTableRecord
100
AcDbViewportTableRecord
  2
*ACTIVE
 70
     0
 10
0.0
 20
0.0
 11
1.0
 21
1.0
 12
0.0
 22
0.0
 13
0.0
 23
0.0
 14
1.0
 24
1.0
 15
0.0
 25
0.0
 16
0.0
 26
0.0
 36
1.0
 17
0.0
 27
0.0
 37
0.0
 40
1188.0
 41
1.415825
 42
50.0
 43
0.0
 44
0.0
 50
0.0
 51
0.0
 71
     0
 72
   500
 73
     1
 74
     1
 75
     0
 76
     0
 77
     0
 78
     0
281
     0
 65
     0
110
0.0
120
0.0
130
0.0
111
1.0
121
0.0
131
0.0
112
0.0
122
1.0
132
0.0
345
0
346
0
 79
     0
146
0.0
  0
ENDTAB
  0
TABLE
  2
LTYPE
  5
3
100
AcDbSymbolTable
 70
     9
  0
LTYPE
  5
C
100
AcDbSymbolTableRecord
100
AcDbLinetypeTableRecord
  2
ByBlock
 70
    64
  3

 72
    65
 73
     0
 40
0.0
  0
LTYPE
  5
D
100
AcDbSymbolTableRecord
100
AcDbLinetypeTableRecord
  2
ByLayer
 70
    64
  3

 72
    65
 73
     0
 40
0.0
  0
LTYPE
  5
E
100
AcDbSymbolTableRecord
100
AcDbLinetypeTableRecord
  2
CONTINUOUS
 70
     0
  3
Solid line
 72
    65
 73
     0
 40
0.0
  0
LTYPE
  5
F
100
AcDbSymbolTableRecord
100
AcDbLinetypeTableRecord
  2
DASHED
 70
     0
  3
__ __ __ __ __ __ __ __ __ __ __ __ __ __ __
 72
    65
 73
     2
 40
2.0
 49
1.2
 74
     0
 49
-0.8
 74
     0
  0
LTYPE
  5
10
100
AcDbSymbolTableRecord
100
AcDbLinetypeTableRecord
  2
CENTER
 70
     0
  3
____ _ ____ _ ____ _ ____ _ ____ _ ____ _ ____
 72
    65
 73
     4
 40
12.0
 49
9.0
 74
     0
 49
-1.0
 74
     0
 49
1.0
 74
     0
 49
-1.0
 74
     0
  0
LTYPE
  5
11
100
AcDbSymbolTableRecord
100
AcDbLinetypeTableRecord
  2
HIDDEN
 70
     0
  3
_ _ _ _ _ _ _ _ _ _ _ _ _ _ _ _ _ _ _ _ _ _ _
 72
    65
 73
     2
 40
3.2
 49
2.4
 74
     0
 49
-0.8
 74
     0
  0
LTYPE
  5
12
100
AcDbSymbolTableRecord
100
AcDbLinetypeTableRecord
  2
PHANTOM
 70
     0
  3
_____ _ _ _____ _ _ _____ _ _ _____ _ _ _____
 72
    65
 73
     6
 40
13.5
 49
9.0
 74
     0
 49
-1.0
 74
     0
 49
1.0
 74
     0
 49
-0.5
 74
     0
 49
1.0
 74
     0
 49
-1.0
 74
     0
  0
LTYPE
  5
13
100
AcDbSymbolTableRecord
100
AcDbLinetypeTableRecord
  2
DOT
 70
     0
  3
...............................................
 72
    65
 73
     2
 40
1.0
 49
0.5
 74
     0
 49
-0.5
 74
     0
  0
LTYPE
  5
14
100
AcDbSymbolTableRecord
100
AcDbLinetypeTableRecord
  2
DASHDOT
 70
     0
  3
__ . __ . __ . __ . __ . __ . __ . __ . __ . __
 72
    65
 73
     4
 40
8.0
 49
5.0
 74
     0
 49
-1.0
 74
     0
 49
1.0
 74
     0
 49
-1.0
 74
     0
  0
ENDTAB
  0
TABLE
  2
LAYER
  5
1
100
AcDbSymbolTable
 70
     4
  0
LAYER
  5
15
100
AcDbSymbolTableRecord
100
AcDbLayerTableRecord
  2
0
 70
     0
 62
     7
  6
CONTINUOUS
290
     1
370
    -3
390
0
  0
LAYER
  5
16
100
AcDbSymbolTableRecord
100
AcDbLayerTableRecord
  2
1
 70
     0
 62
     7
  6
CONTINUOUS
290
     1
370
    -3
390
0
  0
LAYER
  5
17
100
AcDbSymbolTableRecord
100
AcDbLayerTableRecord
  2
2
 70
     0
 62
     7
  6
CONTINUOUS
290
     1
370
    -3
390
0
  0
LAYER
  5
18
100
AcDbSymbolTableRecord
100
AcDbLayerTableRecord
  2
3
 70
     0
 62
     7
  6
CONTINUOUS
290
     1
370
    -3
390
0
  0
ENDTAB
  0
TABLE
  2
STYLE
  5
2
100
AcDbSymbolTable
 70
     1
  0
STYLE
  5
1B
100
AcDbSymbolTableRecord
100
AcDbTextStyleTableRecord
  2
STANDARD
 70
    64
 40
0.0
 41
1.0
 50
0.0
 71
     0
 42
1.0
  3
txt
  4
BIGFONT
  0
ENDTAB
  0
TABLE
  2
VIEW
  5
4
100
AcDbSymbolTable
 70
     0
  0
ENDTAB
  0
TABLE
  2
UCS
  5
5
100
AcDbSymbolTable
 70
     0
  0
ENDTAB
  0
TABLE
  2
APPID
  5
7
100
AcDbSymbolTable
 70
     1
  0
APPID
  5
1A
100
AcDbSymbolTableRecord
100
AcDbRegAppTableRecord
  2
ACAD
 70
     0
  0
ENDTAB
  0
TABLE
  2
DIMSTYLE
  5
8
100
AcDbSymbolTable
 70
     1
100
AcDbDimStyleTable
 71
     0
  0
DIMSTYLE
105
2C
100
AcDbSymbolTableRecord
100
AcDbDimStyleTableRecord
  2
Standard
 70
     0
  3

  4

 40
2.0
 41
2.0
 42
1.0
 43
0.38
 44
2.0
 45
0.0
 46
0.0
 47
0.0
 48
0.0
 71
     0
 72
     0
 73
     0
 74
     0
 75
     0
 76
     0
 77
     1
 78
     0
 79
     0
140
3.5
141
0.09
142
0.0
143
25.4
144
1.0
145
0.0
146
1.0
147
0.5
148
0.0
170
     0
171
     2
172
     0
173
     0
174
     0
175
     0
176
     0
177
     0
178
     0
179
     0
271
     3
272
     4
273
     2
274
     2
275
     0
276
     0
277
     2
278
    46
279
     0
280
     0
281
     0
282
     0
283
     1
284
     0
285
     0
286
     0
288
     0
289
     3
340
1B
341
0
342
0
343
0
344
0
371
    -2
372
    -2
  0
ENDTAB
  0
TABLE
  2
BLOCK_RECORD
  5
27
100
AcDbSymbolTable
 70
     9
  0
BLOCK_RECORD
  5
25
100
AcDbSymbolTableRecord
100
AcDbBlockTableRecord
  2
*Model_Space
340
0
  0
BLOCK_RECORD
  5
26
100
AcDbSymbolTableRecord
100
AcDbBlockTableRecord
  2
*Paper_Space
340
0
  0
BLOCK_RECORD
  5
1C
100
AcDbSymbolTableRecord
100
AcDbBlockTableRecord
  2
*D0
340
0
  0
BLOCK_RECORD
  5
1D
100
AcDbSymbolTableRecord
100
AcDbBlockTableRecord
  2
*D1
340
0
  0
BLOCK_RECORD
  5
1E
100
AcDbSymbolTableRecord
100
AcDbBlockTableRecord
  2
*D2
340
0
  0
BLOCK_RECORD
  5
1F
100
AcDbSymbolTableRecord
100
AcDbBlockTableRecord
  2
*D3
340
0
  0
BLOCK_RECORD
  5
20
100
AcDbSymbolTableRecord
100
AcDbBlockTableRecord
  2
*D4
340
0
  0
BLOCK_RECORD
  5
21
100
AcDbSymbolTableRecord
100
AcDbBlockTableRecord
  2
*D5
340
0
  0
BLOCK_RECORD
  5
22
100
AcDbSymbolTableRecord
100
AcDbBlockTableRecord
  2
*D6
340
0
  0
BLOCK_RECORD
  5
23
100
AcDbSymbolTableRecord
100
AcDbBlockTableRecord
  2
*D7
340
0
  0
BLOCK_RECORD
  5
24
100
AcDbSymbolTableRecord
100
AcDbBlockTableRecord
  2
*D8
340
0
  0
ENDTAB
  0
ENDSEC
  0
SECTION
  2
BLOCKS
  0
BLOCK
  5
28
100
AcDbEntity
  8
0
390
0
100
AcDbBlockBegin
  2
*Model_Space
 70
     0
 10
0.0
 20
0.0
 30
0.0
  3
*Model_Space
  1

  0
ENDBLK
  5
29
100
AcDbEntity
  8
0
390
0
100
AcDbBlockEnd
  0
BLOCK
  5
2A
100
AcDbEntity
 67
     1
  8
0
390
0
100
AcDbBlockBegin
  2
*Paper_Space
 70
     0
 10
0.0
 20
0.0
 30
0.0
  3
*Paper_Space
  1

  0
ENDBLK
  5
2B
100
AcDbEntity
 67
     1
  8
0
390
0
100
AcDbBlockEnd
  0
BLOCK
  5
221
100
AcDbEntity
  8
3
100
AcDbBlockBegin
  2
*D0
 70
     1
 10
0.0
 20
0.0
 30
0.0
  3
*D0
  1

  0
TEXT
  5
222
100
AcDbEntity
  8
3
370
    25
100
AcDbText
 10
271.472357
 20
-19.952081
 30
0.0
 40
8.0
  1
３０
 72
     5
 11
285.872357
 21
-19.952081
 31
0.0
100
AcDbText
  0
LINE
  5
223
100
AcDbEntity
  8
3
370
    25
100
AcDbLine
 10
264.472357
 20
-42.818101
 30
0.0
 11
264.472357
 21
-18.952081
 31
0.0
  0
LINE
  5
224
100
AcDbEntity
  8
3
370
    25
100
AcDbLine
 10
264.472357
 20
-20.952081
 30
0.0
 11
268.33606
 21
-21.987357
 31
0.0
  0
LINE
  5
225
100
AcDbEntity
  8
3
370
    25
100
AcDbLine
 10
264.472357
 20
-20.952081
 30
0.0
 11
268.33606
 21
-19.916805
 31
0.0
  0
LINE
  5
226
100
AcDbEntity
  8
3
370
    25
100
AcDbLine
 10
268.33606
 20
-21.987357
 30
0.0
 11
268.33606
 21
-19.916805
 31
0.0
  0
LINE
  5
227
100
AcDbEntity
  8
3
370
    25
100
AcDbLine
 10
264.472357
 20
-20.952081
 30
0.0
 11
294.472357
 21
-20.952081
 31
0.0
  0
LINE
  5
228
100
AcDbEntity
  8
3
370
    25
100
AcDbLine
 10
294.472357
 20
-20.952081
 30
0.0
 11
290.608654
 21
-19.916805
 31
0.0
  0
LINE
  5
229
100
AcDbEntity
  8
3
370
    25
100
AcDbLine
 10
294.472357
 20
-20.952081
 30
0.0
 11
290.608654
 21
-21.987357
 31
0.0
  0
LINE
  5
22A
100
AcDbEntity
  8
3
370
    25
100
AcDbLine
 10
290.608654
 20
-19.916805
 30
0.0
 11
290.608654
 21
-21.987357
 31
0.0
  0
LINE
  5
22B
100
AcDbEntity
  8
3
370
    25
100
AcDbLine
 10
294.472357
 20
-91.055146
 30
0.0
 11
294.472357
 21
-18.952081
 31
0.0
  0
ENDBLK
  5
22C
100
AcDbEntity
  8
3
100
AcDbBlockEnd
  0
BLOCK
  5
22D
100
AcDbEntity
  8
3
100
AcDbBlockBegin
  2
*D1
 70
     1
 10
0.0
 20
0.0
 30
0.0
  3
*D1
  1

  0
LINE
  5
22E
100
AcDbEntity
  8
3
370
    25
100
AcDbLine
 10
296.472357
 20
-102.632646
 30
0.0
 11
349.376556
 21
-102.632646
 31
0.0
  0
LINE
  5
22F
100
AcDbEntity
  8
3
370
    25
100
AcDbLine
 10
347.376556
 20
-102.632646
 30
0.0
 11
348.411833
 21
-98.768943
 31
0.0
  0
LINE
  5
230
100
AcDbEntity
  8
3
370
    25
100
AcDbLine
 10
347.376556
 20
-102.632646
 30
0.0
 11
346.34128
 21
-98.768943
 31
0.0
  0
LINE
  5
231
100
AcDbEntity
  8
3
370
    25
100
AcDbLine
 10
348.411833
 20
-98.768943
 30
0.0
 11
346.34128
 21
-98.768943
 31
0.0
  0
LINE
  5
232
100
AcDbEntity
  8
3
370
    25
100
AcDbLine
 10
347.376556
 20
-102.632646
 30
0.0
 11
347.376556
 21
-44.181907
 31
0.0
  0
LINE
  5
233
100
AcDbEntity
  8
3
370
    25
100
AcDbLine
 10
347.376556
 20
-44.181907
 30
0.0
 11
346.34128
 21
-48.04561
 31
0.0
  0
LINE
  5
234
100
AcDbEntity
  8
3
370
    25
100
AcDbLine
 10
347.376556
 20
-44.181907
 30
0.0
 11
348.411833
 21
-48.04561
 31
0.0
  0
LINE
  5
235
100
AcDbEntity
  8
3
370
    25
100
AcDbLine
 10
346.34128
 20
-48.04561
 30
0.0
 11
348.411833
 21
-48.04561
 31
0.0
  0
LINE
  5
236
100
AcDbEntity
  8
3
370
    25
100
AcDbLine
 10
266.472357
 20
-44.181907
 30
0.0
 11
349.376556
 21
-44.181907
 31
0.0
  0
ENDBLK
  5
237
100
AcDbEntity
  8
3
100
AcDbBlockEnd
  0
BLOCK
  5
238
100
AcDbEntity
  8
3
100
AcDbBlockBegin
  2
*D2
 70
     1
 10
0.0
 20
0.0
 30
0.0
  3
*D2
  1

  0
LINE
  5
239
100
AcDbEntity
  8
3
370
    25
100
AcDbLine
 10
-291.008169
 20
-91.669628
 30
0.0
 11
-291.008169
 21
-68.412597
 31
0.0
  0
LINE
  5
23A
100
AcDbEntity
  8
3
370
    25
100
AcDbLine
 10
-291.008169
 20
-70.412597
 30
0.0
 11
-294.871872
 21
-69.377321
 31
0.0
  0
LINE
  5
23B
100
AcDbEntity
  8
3
370
    25
100
AcDbLine
 10
-291.008169
 20
-70.412597
 30
0.0
 11
-294.871872
 21
-71.447873
 31
0.0
  0
LINE
  5
23C
100
AcDbEntity
  8
3
370
    25
100
AcDbLine
 10
-294.871872
 20
-69.377321
 30
0.0
 11
-294.871872
 21
-71.447873
 31
0.0
  0
LINE
  5
23D
100
AcDbEntity
  8
3
370
    25
100
AcDbLine
 10
-315.008169
 20
-70.412597
 30
0.0
 11
-267.922815
 21
-70.412597
 31
0.0
  0
LINE
  5
23E
100
AcDbEntity
  8
3
370
    25
100
AcDbLine
 10
-277.922815
 20
-70.412597
 30
0.0
 11
-274.059112
 21
-71.447873
 31
0.0
  0
LINE
  5
23F
100
AcDbEntity
  8
3
370
    25
100
AcDbLine
 10
-277.922815
 20
-70.412597
 30
0.0
 11
-274.059112
 21
-69.377321
 31
0.0
  0
LINE
  5
240
100
AcDbEntity
  8
3
370
    25
100
AcDbLine
 10
-274.059112
 20
-71.447873
 30
0.0
 11
-274.059112
 21
-69.377321
 31
0.0
  0
LINE
  5
241
100
AcDbEntity
  8
3
370
    25
100
AcDbLine
 10
-277.922815
 20
-90.209274
 30
0.0
 11
-277.922815
 21
-68.412597
 31
0.0
  0
ENDBLK
  5
242
100
AcDbEntity
  8
3
100
AcDbBlockEnd
  0
BLOCK
  5
243
100
AcDbEntity
  8
3
100
AcDbBlockBegin
  2
*D3
 70
     1
 10
0.0
 20
0.0
 30
0.0
  3
*D3
  1

  0
LINE
  5
244
100
AcDbEntity
  8
3
370
    25
100
AcDbLine
 10
-291.008169
 20
-91.669628
 30
0.0
 11
-291.008169
 21
-18.952081
 31
0.0
  0
LINE
  5
245
100
AcDbEntity
  8
3
370
    25
100
AcDbLine
 10
-291.008169
 20
-20.952081
 30
0.0
 11
-287.144465
 21
-21.987357
 31
0.0
  0
LINE
  5
246
100
AcDbEntity
  8
3
370
    25
100
AcDbLine
 10
-291.008169
 20
-20.952081
 30
0.0
 11
-287.144465
 21
-19.916805
 31
0.0
  0
LINE
  5
247
100
AcDbEntity
  8
3
370
    25
100
AcDbLine
 10
-287.144465
 20
-21.987357
 30
0.0
 11
-287.144465
 21
-19.916805
 31
0.0
  0
LINE
  5
248
100
AcDbEntity
  8
3
370
    25
100
AcDbLine
 10
-291.008169
 20
-20.952081
 30
0.0
 11
264.472357
 21
-20.952081
 31
0.0
  0
LINE
  5
249
100
AcDbEntity
  8
3
370
    25
100
AcDbLine
 10
264.472357
 20
-20.952081
 30
0.0
 11
260.608654
 21
-19.916805
 31
0.0
  0
LINE
  5
24A
100
AcDbEntity
  8
3
370
    25
100
AcDbLine
 10
264.472357
 20
-20.952081
 30
0.0
 11
260.608654
 21
-21.987357
 31
0.0
  0
LINE
  5
24B
100
AcDbEntity
  8
3
370
    25
100
AcDbLine
 10
260.608654
 20
-19.916805
 30
0.0
 11
260.608654
 21
-21.987357
 31
0.0
  0
LINE
  5
24C
100
AcDbEntity
  8
3
370
    25
100
AcDbLine
 10
264.472357
 20
-56.317403
 30
0.0
 11
264.472357
 21
-18.952081
 31
0.0
  0
ENDBLK
  5
24D
100
AcDbEntity
  8
3
100
AcDbBlockEnd
  0
BLOCK
  5
24E
100
AcDbEntity
  8
3
100
AcDbBlockBegin
  2
*D4
 70
     1
 10
0.0
 20
0.0
 30
0.0
  3
*D4
  1

  0
LINE
  5
24F
100
AcDbEntity
  8
3
370
    25
100
AcDbLine
 10
-291.008169
 20
-91.669628
 30
0.0
 11
-291.008169
 21
5.71691
 31
0.0
  0
LINE
  5
250
100
AcDbEntity
  8
3
370
    25
100
AcDbLine
 10
-291.008169
 20
3.71691
 30
0.0
 11
-287.144465
 21
2.681634
 31
0.0
  0
LINE
  5
251
100
AcDbEntity
  8
3
370
    25
100
AcDbLine
 10
-291.008169
 20
3.71691
 30
0.0
 11
-287.144465
 21
4.752186
 31
0.0
  0
LINE
  5
252
100
AcDbEntity
  8
3
370
    25
100
AcDbLine
 10
-287.144465
 20
2.681634
 30
0.0
 11
-287.144465
 21
4.752186
 31
0.0
  0
LINE
  5
253
100
AcDbEntity
  8
3
370
    25
100
AcDbLine
 10
-291.008169
 20
3.71691
 30
0.0
 11
294.472357
 21
3.71691
 31
0.0
  0
LINE
  5
254
100
AcDbEntity
  8
3
370
    25
100
AcDbLine
 10
294.472357
 20
3.71691
 30
0.0
 11
290.608654
 21
4.752186
 31
0.0
  0
LINE
  5
255
100
AcDbEntity
  8
3
370
    25
100
AcDbLine
 10
294.472357
 20
3.71691
 30
0.0
 11
290.608654
 21
2.681634
 31
0.0
  0
LINE
  5
256
100
AcDbEntity
  8
3
370
    25
100
AcDbLine
 10
290.608654
 20
4.752186
 30
0.0
 11
290.608654
 21
2.681634
 31
0.0
  0
LINE
  5
257
100
AcDbEntity
  8
3
370
    25
100
AcDbLine
 10
294.472357
 20
-91.055146
 30
0.0
 11
294.472357
 21
5.71691
 31
0.0
  0
ENDBLK
  5
258
100
AcDbEntity
  8
3
100
AcDbBlockEnd
  0
BLOCK
  5
259
100
AcDbEntity
  8
3
100
AcDbBlockBegin
  2
*D5
 70
     1
 10
0.0
 20
0.0
 30
0.0
  3
*D5
  1

  0
LINE
  5
25A
100
AcDbEntity
  8
3
370
    25
100
AcDbLine
 10
-186.007885
 20
102.260304
 30
0.0
 11
-186.007885
 21
129.730985
 31
0.0
  0
LINE
  5
25B
100
AcDbEntity
  8
3
370
    25
100
AcDbLine
 10
-186.007885
 20
127.730985
 30
0.0
 11
-189.871589
 21
128.766261
 31
0.0
  0
LINE
  5
25C
100
AcDbEntity
  8
3
370
    25
100
AcDbLine
 10
-186.007885
 20
127.730985
 30
0.0
 11
-189.871589
 21
126.695709
 31
0.0
  0
LINE
  5
25D
100
AcDbEntity
  8
3
370
    25
100
AcDbLine
 10
-189.871589
 20
128.766261
 30
0.0
 11
-189.871589
 21
126.695709
 31
0.0
  0
LINE
  5
25E
100
AcDbEntity
  8
3
370
    25
100
AcDbLine
 10
-210.007885
 20
127.730985
 30
0.0
 11
-162.922532
 21
127.730985
 31
0.0
  0
LINE
  5
25F
100
AcDbEntity
  8
3
370
    25
100
AcDbLine
 10
-172.922532
 20
127.730985
 30
0.0
 11
-169.058829
 21
126.695709
 31
0.0
  0
LINE
  5
260
100
AcDbEntity
  8
3
370
    25
100
AcDbLine
 10
-172.922532
 20
127.730985
 30
0.0
 11
-169.058829
 21
128.766261
 31
0.0
  0
LINE
  5
261
100
AcDbEntity
  8
3
370
    25
100
AcDbLine
 10
-169.058829
 20
126.695709
 30
0.0
 11
-169.058829
 21
128.766261
 31
0.0
  0
LINE
  5
262
100
AcDbEntity
  8
3
370
    25
100
AcDbLine
 10
-172.922532
 20
103.720657
 30
0.0
 11
-172.922532
 21
129.730985
 31
0.0
  0
ENDBLK
  5
263
100
AcDbEntity
  8
3
100
AcDbBlockEnd
  0
BLOCK
  5
264
100
AcDbEntity
  8
3
100
AcDbBlockBegin
  2
*D6
 70
     1
 10
0.0
 20
0.0
 30
0.0
  3
*D6
  1

  0
LINE
  5
265
100
AcDbEntity
  8
3
370
    25
100
AcDbLine
 10
-186.007885
 20
102.260304
 30
0.0
 11
-186.007885
 21
163.302625
 31
0.0
  0
LINE
  5
266
100
AcDbEntity
  8
3
370
    25
100
AcDbLine
 10
-186.007885
 20
161.302625
 30
0.0
 11
-182.144182
 21
160.267349
 31
0.0
  0
LINE
  5
267
100
AcDbEntity
  8
3
370
    25
100
AcDbLine
 10
-186.007885
 20
161.302625
 30
0.0
 11
-182.144182
 21
162.337901
 31
0.0
  0
LINE
  5
268
100
AcDbEntity
  8
3
370
    25
100
AcDbLine
 10
-182.144182
 20
160.267349
 30
0.0
 11
-182.144182
 21
162.337901
 31
0.0
  0
LINE
  5
269
100
AcDbEntity
  8
3
370
    25
100
AcDbLine
 10
-186.007885
 20
161.302625
 30
0.0
 11
144.47264
 21
161.302625
 31
0.0
  0
LINE
  5
26A
100
AcDbEntity
  8
3
370
    25
100
AcDbLine
 10
144.47264
 20
161.302625
 30
0.0
 11
140.608937
 21
162.337901
 31
0.0
  0
LINE
  5
26B
100
AcDbEntity
  8
3
370
    25
100
AcDbLine
 10
144.47264
 20
161.302625
 30
0.0
 11
140.608937
 21
160.267349
 31
0.0
  0
LINE
  5
26C
100
AcDbEntity
  8
3
370
    25
100
AcDbLine
 10
140.608937
 20
162.337901
 30
0.0
 11
140.608937
 21
160.267349
 31
0.0
  0
LINE
  5
26D
100
AcDbEntity
  8
3
370
    25
100
AcDbLine
 10
144.47264
 20
151.11183
 30
0.0
 11
144.47264
 21
163.302625
 31
0.0
  0
ENDBLK
  5
26E
100
AcDbEntity
  8
3
100
AcDbBlockEnd
  0
BLOCK
  5
26F
100
AcDbEntity
  8
3
100
AcDbBlockBegin
  2
*D7
 70
     1
 10
0.0
 20
0.0
 30
0.0
  3
*D7
  1

  0
LINE
  5
270
100
AcDbEntity
  8
3
370
    25
100
AcDbLine
 10
-186.007885
 20
102.260304
 30
0.0
 11
-186.007885
 21
186.542172
 31
0.0
  0
LINE
  5
271
100
AcDbEntity
  8
3
370
    25
100
AcDbLine
 10
-186.007885
 20
184.542172
 30
0.0
 11
-182.144182
 21
183.506896
 31
0.0
  0
LINE
  5
272
100
AcDbEntity
  8
3
370
    25
100
AcDbLine
 10
-186.007885
 20
184.542172
 30
0.0
 11
-182.144182
 21
185.577449
 31
0.0
  0
LINE
  5
273
100
AcDbEntity
  8
3
370
    25
100
AcDbLine
 10
-182.144182
 20
183.506896
 30
0.0
 11
-182.144182
 21
185.577449
 31
0.0
  0
LINE
  5
274
100
AcDbEntity
  8
3
370
    25
100
AcDbLine
 10
-186.007885
 20
184.542172
 30
0.0
 11
174.47264
 21
184.542172
 31
0.0
  0
LINE
  5
275
100
AcDbEntity
  8
3
370
    25
100
AcDbLine
 10
174.47264
 20
184.542172
 30
0.0
 11
170.608937
 21
185.577449
 31
0.0
  0
LINE
  5
276
100
AcDbEntity
  8
3
370
    25
100
AcDbLine
 10
174.47264
 20
184.542172
 30
0.0
 11
170.608937
 21
183.506896
 31
0.0
  0
LINE
  5
277
100
AcDbEntity
  8
3
370
    25
100
AcDbLine
 10
170.608937
 20
185.577449
 30
0.0
 11
170.608937
 21
183.506896
 31
0.0
  0
LINE
  5
278
100
AcDbEntity
  8
3
370
    25
100
AcDbLine
 10
174.47264
 20
102.874785
 30
0.0
 11
174.47264
 21
186.542172
 31
0.0
  0
ENDBLK
  5
279
100
AcDbEntity
  8
3
100
AcDbBlockEnd
  0
BLOCK
  5
27A
100
AcDbEntity
  8
3
100
AcDbBlockBegin
  2
*D8
 70
     1
 10
0.0
 20
0.0
 30
0.0
  3
*D8
  1

  0
TEXT
  5
27B
100
AcDbEntity
  8
3
370
    25
100
AcDbText
 10
151.47264
 20
162.302625
 30
0.0
 40
8.0
  1
３０
 72
     5
 11
165.87264
 21
162.302625
 31
0.0
100
AcDbText
  0
LINE
  5
27C
100
AcDbEntity
  8
3
370
    25
100
AcDbLine
 10
144.47264
 20
151.11183
 30
0.0
 11
144.47264
 21
163.302625
 31
0.0
  0
LINE
  5
27D
100
AcDbEntity
  8
3
370
    25
100
AcDbLine
 10
144.47264
 20
161.302625
 30
0.0
 11
148.336344
 21
160.267349
 31
0.0
  0
LINE
  5
27E
100
AcDbEntity
  8
3
370
    25
100
AcDbLine
 10
144.47264
 20
161.302625
 30
0.0
 11
148.336344
 21
162.337901
 31
0.0
  0
LINE
  5
27F
100
AcDbEntity
  8
3
370
    25
100
AcDbLine
 10
148.336344
 20
160.267349
 30
0.0
 11
148.336344
 21
162.337901
 31
0.0
  0
LINE
  5
280
100
AcDbEntity
  8
3
370
    25
100
AcDbLine
 10
144.47264
 20
161.302625
 30
0.0
 11
174.47264
 21
161.302625
 31
0.0
  0
LINE
  5
281
100
AcDbEntity
  8
3
370
    25
100
AcDbLine
 10
174.47264
 20
161.302625
 30
0.0
 11
170.608937
 21
162.337901
 31
0.0
  0
LINE
  5
282
100
AcDbEntity
  8
3
370
    25
100
AcDbLine
 10
174.47264
 20
161.302625
 30
0.0
 11
170.608937
 21
160.267349
 31
0.0
  0
LINE
  5
283
100
AcDbEntity
  8
3
370
    25
100
AcDbLine
 10
170.608937
 20
162.337901
 30
0.0
 11
170.608937
 21
160.267349
 31
0.0
  0
LINE
  5
284
100
AcDbEntity
  8
3
370
    25
100
AcDbLine
 10
174.47264
 20
102.874785
 30
0.0
 11
174.47264
 21
163.302625
 31
0.0
  0
ENDBLK
  5
285
100
AcDbEntity
  8
3
100
AcDbBlockEnd
  0
ENDSEC
  0
SECTION
  2
ENTITIES
  0
LINE
  5
2D
100
AcDbEntity
  8
1
370
   100
100
AcDbLine
 10
-373.02157
 20
275.028767
 30
0.0
 11
394.982385
 21
275.028767
 31
0.0
  0
LINE
  5
2E
100
AcDbEntity
  8
1
370
   100
100
AcDbLine
 10
-373.02157
 20
275.028767
 30
0.0
 11
-373.02157
 21
-277.971881
 31
0.0
  0
LINE
  5
2F
100
AcDbEntity
  8
1
370
   100
100
AcDbLine
 10
-373.02157
 20
-277.971881
 30
0.0
 11
394.982385
 21
-277.971881
 31
0.0
  0
LINE
  5
30
100
AcDbEntity
  8
1
370
   100
100
AcDbLine
 10
394.982385
 20
-277.971881
 30
0.0
 11
394.982385
 21
275.028767
 31
0.0
  0
TEXT
  5
31
100
AcDbEntity
  8
1
370
    50
100
AcDbText
 10
359.628442
 20
-226.252857
 30
0.0
 40
6.0
  1
設計
 72
     5
 11
370.428442
 21
-226.252857
 31
0.0
100
AcDbText
  0
TEXT
  5
32
100
AcDbEntity
  8
1
370
    50
100
AcDbText
 10
379.127478
 20
-226.099658
 30
0.0
 40
6.0
  1
製図
 72
     5
 11
389.927478
 21
-226.099658
 31
0.0
100
AcDbText
  0
TEXT
  5
33
100
AcDbEntity
  8
1
370
    50
100
AcDbText
 10
319.005745
 20
-226.252857
 30
0.0
 40
6.0
  1
承認
 72
     5
 11
329.805745
 21
-226.252857
 31
0.0
100
AcDbText
  0
TEXT
  5
34
100
AcDbEntity
  8
1
370
    50
100
AcDbText
 10
338.989679
 20
-226.19802
 30
0.0
 40
6.0
  1
検図
 72
     5
 11
349.789679
 21
-226.19802
 31
0.0
100
AcDbText
  0
LINE
  5
35
100
AcDbEntity
  8
1
370
    25
100
AcDbLine
 10
284.982385
 20
-227.971881
 30
0.0
 11
394.982385
 21
-227.971881
 31
0.0
  0
LINE
  5
36
100
AcDbEntity
  8
1
370
    25
100
AcDbLine
 10
342.482385
 20
-245.971881
 30
0.0
 11
342.482385
 21
-259.971881
 31
0.0
  0
TEXT
  5
37
100
AcDbEntity
  8
1
370
    50
100
AcDbText
 10
319.55159
 20
-256.012528
 30
0.0
 40
6.0
  1
日　付
 72
     5
 11
336.35159
 21
-256.012528
 31
0.0
100
AcDbText
  0
LINE
  5
38
100
AcDbEntity
  8
1
370
    50
100
AcDbLine
 10
40.982385
 20
-259.971881
 30
0.0
 11
394.982385
 21
-259.971881
 31
0.0
  0
TEXT
  5
39
100
AcDbEntity
  8
1
370
    50
100
AcDbText
 10
287.775011
 20
-256.322406
 30
0.0
 40
6.0
  1
第三角法
 72
     5
 11
310.575011
 21
-256.322406
 31
0.0
100
AcDbText
  0
TEXT
  5
3A
100
AcDbEntity
  8
1
370
    50
100
AcDbText
 10
291.087419
 20
-225.99802
 30
0.0
 40
6.0
  1
尺　度
 72
     5
 11
307.887419
 21
-225.99802
 31
0.0
100
AcDbText
  0
LINE
  5
3B
100
AcDbEntity
  8
1
370
   100
100
AcDbLine
 10
40.982385
 20
-217.971881
 30
0.0
 11
394.982385
 21
-217.971881
 31
0.0
  0
LINE
  5
3C
100
AcDbEntity
  8
1
370
    50
100
AcDbLine
 10
211.982385
 20
-217.971881
 30
0.0
 11
211.982385
 21
-277.971881
 31
0.0
  0
LINE
  5
3D
100
AcDbEntity
  8
1
370
    25
100
AcDbLine
 10
374.982385
 20
-245.971881
 30
0.0
 11
374.982385
 21
-217.971881
 31
0.0
  0
LINE
  5
3E
100
AcDbEntity
  8
1
370
    25
100
AcDbLine
 10
354.982385
 20
-245.971881
 30
0.0
 11
354.982385
 21
-217.971881
 31
0.0
  0
LINE
  5
3F
100
AcDbEntity
  8
1
370
    25
100
AcDbLine
 10
334.982385
 20
-245.971881
 30
0.0
 11
334.982385
 21
-217.971881
 31
0.0
  0
LINE
  5
40
100
AcDbEntity
  8
1
370
    50
100
AcDbLine
 10
284.982385
 20
-277.971881
 30
0.0
 11
284.982385
 21
-217.971881
 31
0.0
  0
LINE
  5
41
100
AcDbEntity
  8
1
370
    50
100
AcDbLine
 10
189.982385
 20
-217.971881
 30
0.0
 11
189.982385
 21
-277.971881
 31
0.0
  0
LINE
  5
42
100
AcDbEntity
  8
1
370
    50
100
AcDbLine
 10
62.982385
 20
-217.971881
 30
0.0
 11
62.982385
 21
-259.971881
 31
0.0
  0
LINE
  5
43
100
AcDbEntity
  8
1
370
    50
100
AcDbLine
 10
284.982385
 20
-245.971881
 30
0.0
 11
394.982385
 21
-245.971881
 31
0.0
  0
TEXT
  5
44
100
AcDbEntity
  8
1
370
    50
100
AcDbText
 10
287.101129
 20
-271.880939
 30
0.0
 40
6.0
  1
コードＮｏ
 41
0.9
 72
     5
 11
313.021129
 21
-271.880939
 31
0.0
100
AcDbText
  0
TEXT
  5
45
100
AcDbEntity
  8
1
370
   100
100
AcDbText
 10
52.886774
 20
-272.875659
 30
0.0
 40
8.0
  1
ミズタニバルブ工業株式会社
 41
1.2
 72
     5
 11
175.766774
 21
-272.875659
 31
0.0
100
AcDbText
  0
LINE
  5
46
100
AcDbEntity
  8
1
370
    50
100
AcDbLine
 10
40.982385
 20
-238.971881
 30
0.0
 11
284.982385
 21
-238.971881
 31
0.0
  0
LINE
  5
47
100
AcDbEntity
  8
1
370
    50
100
AcDbLine
 10
115.482385
 20
-238.971881
 30
0.0
 11
115.482385
 21
-259.971881
 31
0.0
  0
LINE
  5
48
100
AcDbEntity
  8
1
370
    50
100
AcDbLine
 10
137.482385
 20
-238.971881
 30
0.0
 11
137.482385
 21
-259.971881
 31
0.0
  0
LINE
  5
49
100
AcDbEntity
  8
1
370
    50
100
AcDbLine
 10
314.982385
 20
-277.971881
 30
0.0
 11
314.982385
 21
-217.971881
 31
0.0
  0
TEXT
  5
4A
100
AcDbEntity
  8
1
370
    50
100
AcDbText
 10
345.098131
 20
-256.100293
 30
0.0
 40
6.0
  1
　　・　　・
 72
     5
 11
379.898131
 21
-256.100293
 31
0.0
100
AcDbText
  0
LINE
  5
4B
100
AcDbEntity
  8
1
370
   100
100
AcDbLine
 10
40.982385
 20
-217.971881
 30
0.0
 11
40.982385
 21
-277.971881
 31
0.0
  0
TEXT
  5
4C
100
AcDbEntity
  8
1
370
    50
100
AcDbText
 10
290.832582
 20
-240.013492
 30
0.0
 40
6.0
  1
　／ 
 72
     5
 11
301.632582
 21
-240.013492
 31
0.0
100
AcDbText
  0
TEXT
  5
4D
100
AcDbEntity
  8
1
370
    50
100
AcDbText
 10
193.904123
 20
-272.024909
 30
0.0
 40
6.0
  1
備 考 
 72
     5
 11
207.704123
 21
-272.024909
 31
0.0
100
AcDbText
  0
TEXT
  5
4E
100
AcDbEntity
  8
1
370
    50
100
AcDbText
 10
193.512534
 20
-230.89184
 30
0.0
 40
6.0
  1
仕 上
 72
     5
 11
207.312534
 21
-230.89184
 31
0.0
100
AcDbText
  0
TEXT
  5
4F
100
AcDbEntity
  8
1
370
    50
100
AcDbText
 10
193.447176
 20
-248.891666
 30
0.0
 40
6.0
  1
表 面
 72
     5
 11
207.247176
 21
-248.891666
 31
0.0
100
AcDbText
  0
TEXT
  5
50
100
AcDbEntity
  8
1
370
    50
100
AcDbText
 10
193.447176
 20
-255.891666
 30
0.0
 40
6.0
  1
処 理
 72
     5
 11
207.247176
 21
-255.891666
 31
0.0
100
AcDbText
  0
TEXT
  5
51
100
AcDbEntity
  8
1
370
    50
100
AcDbText
 10
44.79335
 20
-231.693399
 30
0.0
 40
6.0
  1
品 名
 72
     5
 11
58.59335
 21
-231.693399
 31
0.0
100
AcDbText
  0
TEXT
  5
52
100
AcDbEntity
  8
1
370
    50
100
AcDbText
 10
44.397766
 20
-252.462534
 30
0.0
 40
6.0
  1
材 質
 72
     5
 11
58.197766
 21
-252.462534
 31
0.0
100
AcDbText
  0
TEXT
  5
53
100
AcDbEntity
  8
1
370
    50
100
AcDbText
 10
118.897766
 20
-252.462534
 30
0.0
 40
6.0
  1
規 格
 72
     5
 11
132.697766
 21
-252.462534
 31
0.0
100
AcDbText
  0
LINE
  5
54
100
AcDbEntity
  8
2
370
    50
100
AcDbLine
 10
156.47264
 20
107.774785
 30
0.0
 11
156.47264
 21
115.797285
 31
0.0
  0
LINE
  5
55
100
AcDbEntity
  8
2
370
    50
100
AcDbLine
 10
132.47264
 20
109.297285
 30
0.0
 11
132.47264
 21
115.797285
 31
0.0
  0
LINE
  5
56
100
AcDbEntity
  8
2
370
    50
100
AcDbLine
 10
174.47264
 20
82.019785
 30
0.0
 11
174.47264
 21
100.574785
 31
0.0
  0
LINE
  5
57
100
AcDbEntity
  8
2
370
    50
100
AcDbLine
 10
173.27264
 20
101.774785
 30
0.0
 11
162.47264
 21
101.774785
 31
0.0
  0
LINE
  5
58
100
AcDbEntity
  8
2
370
    50
100
AcDbLine
 10
110.609071
 20
105.765642
 30
0.0
 11
120.47264
 21
105.765642
 31
0.0
  0
LINE
  5
59
100
AcDbEntity
  8
2
370
    50
100
AcDbLine
 10
110.609071
 20
76.828929
 30
0.0
 11
120.47264
 21
76.828929
 31
0.0
  0
LINE
  5
5A
100
AcDbEntity
  8
2
370
    50
100
AcDbLine
 10
173.27264
 20
80.819785
 30
0.0
 11
163.27264
 21
80.819785
 31
0.0
  0
ARC
  5
5B
100
AcDbEntity
  8
2
370
    50
100
AcDbCircle
 10
144.47264
 20
126.797285
 30
0.0
 40
50.0
100
AcDbArc
 50
253.478043
 51
291.361312
  0
ARC
  5
5C
100
AcDbEntity
  8
2
370
    50
100
AcDbCircle
 10
162.47264
 20
107.774785
 30
0.0
 40
6.0
100
AcDbArc
 50
180.0
 51
270.0
  0
ARC
  5
5D
100
AcDbEntity
  8
2
370
    50
100
AcDbCircle
 10
126.47264
 20
109.297285
 30
0.0
 40
6.0
100
AcDbArc
 50
270.0
 51
360.0
  0
ARC
  5
5E
100
AcDbEntity
  8
2
370
    50
100
AcDbCircle
 10
126.47264
 20
111.823766
 30
0.0
 40
8.52648
100
AcDbArc
 50
225.276182
 51
270.0
  0
ARC
  5
5F
100
AcDbEntity
  8
2
370
    50
100
AcDbCircle
 10
127.253674
 20
68.748727
 30
0.0
 40
10.548559
100
AcDbArc
 50
73.478043
 51
130.003906
  0
LINE
  5
60
100
AcDbEntity
  8
2
370
    25
100
AcDbLine
 10
174.47264
 20
100.574785
 30
0.0
 11
164.47264
 21
100.574785
 31
0.0
  0
LINE
  5
61
100
AcDbEntity
  8
2
370
    25
100
AcDbLine
 10
174.47264
 20
82.019785
 30
0.0
 11
164.47264
 21
82.019785
 31
0.0
  0
LINE
  5
62
100
AcDbEntity
  8
2
370
    50
100
AcDbLine
 10
174.47264
 20
100.574785
 30
0.0
 11
173.27264
 21
101.774785
 31
0.0
  0
LINE
  5
63
100
AcDbEntity
  8
2
370
    50
100
AcDbLine
 10
164.47264
 20
100.574785
 30
0.0
 11
163.27264
 21
101.774785
 31
0.0
  0
LINE
  5
64
100
AcDbEntity
  8
2
370
    50
100
AcDbLine
 10
174.47264
 20
82.019785
 30
0.0
 11
173.27264
 21
80.819785
 31
0.0
  0
LINE
  5
65
100
AcDbEntity
  8
2
370
    50
100
AcDbLine
 10
164.47264
 20
82.019785
 30
0.0
 11
162.685041
 21
80.232186
 31
0.0
  0
LINE
  5
66
100
AcDbEntity
  8
2
370
    50
100
AcDbLine
 10
109.47264
 20
103.797285
 30
0.0
 11
110.609071
 21
105.765642
 31
0.0
  0
LINE
  5
67
100
AcDbEntity
  8
2
370
    50
100
AcDbLine
 10
109.47264
 20
78.797285
 30
0.0
 11
110.609071
 21
76.828929
 31
0.0
  0
LINE
  5
68
100
AcDbEntity
  8
2
370
    50
100
AcDbLine
 10
120.47264
 20
105.765642
 30
0.0
 11
120.47264
 21
76.828929
 31
0.0
  0
LINE
  5
69
100
AcDbEntity
  8
2
370
    50
100
AcDbLine
 10
110.609071
 20
98.837642
 30
0.0
 11
119.337071
 21
98.837642
 31
0.0
  0
LINE
  5
6A
100
AcDbEntity
  8
2
370
    50
100
AcDbLine
 10
110.609071
 20
97.105642
 30
0.0
 11
119.337071
 21
97.105642
 31
0.0
  0
ARC
  5
6B
100
AcDbEntity
  8
2
370
    50
100
AcDbCircle
 10
115.201124
 20
102.262343
 30
0.0
 40
5.728484
100
AcDbArc
 50
142.297773
 51
216.715161
  0
ARC
  5
6C
100
AcDbEntity
  8
2
370
    50
100
AcDbCircle
 10
124.884257
 20
91.297285
 30
0.0
 40
15.411616
100
AcDbArc
 50
157.859338
 51
202.140662
  0
LINE
  5
6D
100
AcDbEntity
  8
2
370
    50
100
AcDbLine
 10
110.609071
 20
97.105642
 30
0.0
 11
110.609071
 21
98.837642
 31
0.0
  0
LINE
  5
6E
100
AcDbEntity
  8
2
370
    50
100
AcDbLine
 10
119.337071
 20
97.105642
 30
0.0
 11
119.337071
 21
98.837642
 31
0.0
  0
ARC
  5
6F
100
AcDbEntity
  8
2
370
    50
100
AcDbCircle
 10
114.621471
 20
102.301642
 30
0.0
 40
5.851169
100
AcDbArc
 50
323.699628
 51
36.300372
  0
LINE
  5
70
100
AcDbEntity
  8
2
370
    50
100
AcDbLine
 10
110.609071
 20
85.488929
 30
0.0
 11
119.337071
 21
85.488929
 31
0.0
  0
LINE
  5
71
100
AcDbEntity
  8
2
370
    50
100
AcDbLine
 10
110.609071
 20
83.756929
 30
0.0
 11
119.337071
 21
83.756929
 31
0.0
  0
ARC
  5
72
100
AcDbEntity
  8
2
370
    50
100
AcDbCircle
 10
115.201124
 20
80.332228
 30
0.0
 40
5.728484
100
AcDbArc
 50
143.284839
 51
217.702227
  0
ARC
  5
73
100
AcDbEntity
  8
2
370
    50
100
AcDbCircle
 10
114.621471
 20
80.292929
 30
0.0
 40
5.851169
100
AcDbArc
 50
323.699628
 51
36.300372
  0
LINE
  5
74
100
AcDbEntity
  8
2
370
    50
100
AcDbLine
 10
119.337071
 20
85.488929
 30
0.0
 11
119.337071
 21
83.756929
 31
0.0
  0
LINE
  5
75
100
AcDbEntity
  8
2
370
    50
100
AcDbLine
 10
110.609071
 20
85.488929
 30
0.0
 11
110.609071
 21
83.756929
 31
0.0
  0
ARC
  5
76
100
AcDbEntity
  8
2
370
    50
100
AcDbCircle
 10
105.050187
 20
91.297285
 30
0.0
 40
15.422454
100
AcDbArc
 50
337.875719
 51
22.124281
  0
LINE
  5
77
100
AcDbEntity
  8
2
370
    50
100
AcDbLine
 10
132.47264
 20
114.697285
 30
0.0
 11
156.47264
 21
114.697285
 31
0.0
  0
LINE
  5
78
100
AcDbEntity
  8
2
370
    25
100
AcDbLine
 10
173.27264
 20
101.774785
 30
0.0
 11
173.27264
 21
80.819785
 31
0.0
  0
LINE
  5
79
100
AcDbEntity
  8
2
370
    25
100
AcDbLine
 10
164.47264
 20
100.574785
 30
0.0
 11
164.47264
 21
82.019785
 31
0.0
  0
LINE
  5
7A
100
AcDbEntity
  8
2
370
    50
100
AcDbLine
 10
163.27264
 20
101.774785
 30
0.0
 11
163.27264
 21
80.819785
 31
0.0
  0
LINE
  5
7B
100
AcDbEntity
  8
2
370
    50
100
AcDbLine
 10
109.47264
 20
80.297285
 30
0.0
 11
109.47264
 21
102.297285
 31
0.0
  0
LINE
  5
7C
100
AcDbEntity
  8
2
370
    50
100
AcDbLine
 10
133.07264
 20
115.297285
 30
0.0
 11
132.47264
 21
114.697285
 31
0.0
  0
LINE
  5
7D
100
AcDbEntity
  8
2
370
    50
100
AcDbLine
 10
155.87264
 20
115.297285
 30
0.0
 11
156.47264
 21
114.697285
 31
0.0
  0
LINE
  5
7E
100
AcDbEntity
  8
2
370
    50
100
AcDbLine
 10
133.07264
 20
115.297285
 30
0.0
 11
155.87264
 21
115.297285
 31
0.0
  0
LINE
  5
7F
100
AcDbEntity
  8
2
370
    25
100
AcDbLine
 10
155.87264
 20
115.297285
 30
0.0
 11
155.87264
 21
115.797285
 31
0.0
  0
LINE
  5
80
100
AcDbEntity
  8
2
370
    25
100
AcDbLine
 10
133.07264
 20
115.297285
 30
0.0
 11
133.07264
 21
115.797285
 31
0.0
  0
LINE
  5
81
100
AcDbEntity
  8
2
370
    50
100
AcDbLine
 10
277.005894
 20
-78.132646
 30
0.0
 11
276.472318
 21
-78.132646
 31
0.0
  0
LINE
  5
82
100
AcDbEntity
  8
2
370
    50
100
AcDbLine
 10
252.005894
 20
-78.132646
 30
0.0
 11
276.472357
 21
-78.132646
 31
0.0
  0
LINE
  5
83
100
AcDbEntity
  8
2
370
    50
100
AcDbLine
 10
276.472357
 20
-86.155146
 30
0.0
 11
276.472357
 21
-78.132646
 31
0.0
  0
LINE
  5
84
100
AcDbEntity
  8
2
370
    50
100
AcDbLine
 10
252.472357
 20
-84.632646
 30
0.0
 11
252.472357
 21
-78.132646
 31
0.0
  0
LINE
  5
85
100
AcDbEntity
  8
2
370
    50
100
AcDbLine
 10
294.472357
 20
-111.910146
 30
0.0
 11
294.472357
 21
-93.355146
 31
0.0
  0
LINE
  5
86
100
AcDbEntity
  8
2
370
    50
100
AcDbLine
 10
293.272357
 20
-92.155146
 30
0.0
 11
282.472357
 21
-92.155146
 31
0.0
  0
LINE
  5
87
100
AcDbEntity
  8
2
370
    50
100
AcDbLine
 10
230.608788
 20
-88.16429
 30
0.0
 11
240.472357
 21
-88.16429
 31
0.0
  0
LINE
  5
88
100
AcDbEntity
  8
2
370
    50
100
AcDbLine
 10
230.608788
 20
-117.101003
 30
0.0
 11
240.472357
 21
-117.101003
 31
0.0
  0
LINE
  5
89
100
AcDbEntity
  8
2
370
    50
100
AcDbLine
 10
293.272357
 20
-113.110146
 30
0.0
 11
283.272357
 21
-113.110146
 31
0.0
  0
ARC
  5
8A
100
AcDbEntity
  8
2
370
    50
100
AcDbCircle
 10
264.472357
 20
-67.132646
 30
0.0
 40
50.0
100
AcDbArc
 50
253.478043
 51
291.361312
  0
ARC
  5
8B
100
AcDbEntity
  8
2
370
    50
100
AcDbCircle
 10
282.472357
 20
-86.155146
 30
0.0
 40
6.0
100
AcDbArc
 50
180.0
 51
270.0
  0
ARC
  5
8C
100
AcDbEntity
  8
2
370
    50
100
AcDbCircle
 10
246.472357
 20
-84.632646
 30
0.0
 40
6.0
100
AcDbArc
 50
270.0
 51
360.0
  0
ARC
  5
8D
100
AcDbEntity
  8
2
370
    50
100
AcDbCircle
 10
246.472357
 20
-82.106166
 30
0.0
 40
8.52648
100
AcDbArc
 50
225.276182
 51
270.0
  0
ARC
  5
8E
100
AcDbEntity
  8
2
370
    50
100
AcDbCircle
 10
247.253391
 20
-125.181205
 30
0.0
 40
10.548559
100
AcDbArc
 50
73.478043
 51
130.003906
  0
LINE
  5
8F
100
AcDbEntity
  8
2
370
    25
100
AcDbLine
 10
294.472357
 20
-93.355146
 30
0.0
 11
284.472357
 21
-93.355146
 31
0.0
  0
LINE
  5
90
100
AcDbEntity
  8
2
370
    25
100
AcDbLine
 10
294.472357
 20
-111.910146
 30
0.0
 11
284.472357
 21
-111.910146
 31
0.0
  0
LINE
  5
91
100
AcDbEntity
  8
2
370
    50
100
AcDbLine
 10
294.472357
 20
-93.355146
 30
0.0
 11
293.272357
 21
-92.155146
 31
0.0
  0
LINE
  5
92
100
AcDbEntity
  8
2
370
    50
100
AcDbLine
 10
284.472357
 20
-93.355146
 30
0.0
 11
283.272357
 21
-92.155146
 31
0.0
  0
LINE
  5
93
100
AcDbEntity
  8
2
370
    50
100
AcDbLine
 10
294.472357
 20
-111.910146
 30
0.0
 11
293.272357
 21
-113.110146
 31
0.0
  0
LINE
  5
94
100
AcDbEntity
  8
2
370
    50
100
AcDbLine
 10
284.472357
 20
-111.910146
 30
0.0
 11
282.684758
 21
-113.697745
 31
0.0
  0
LINE
  5
95
100
AcDbEntity
  8
2
370
    50
100
AcDbLine
 10
229.472357
 20
-90.132646
 30
0.0
 11
230.608788
 21
-88.16429
 31
0.0
  0
LINE
  5
96
100
AcDbEntity
  8
2
370
    50
100
AcDbLine
 10
240.472357
 20
-88.16429
 30
0.0
 11
240.472357
 21
-117.101003
 31
0.0
  0
LINE
  5
97
100
AcDbEntity
  8
2
370
    50
100
AcDbLine
 10
230.608788
 20
-95.09229
 30
0.0
 11
239.336788
 21
-95.09229
 31
0.0
  0
LINE
  5
98
100
AcDbEntity
  8
2
370
    50
100
AcDbLine
 10
230.608788
 20
-96.82429
 30
0.0
 11
239.336788
 21
-96.82429
 31
0.0
  0
ARC
  5
99
100
AcDbEntity
  8
2
370
    50
100
AcDbCircle
 10
235.200841
 20
-91.667589
 30
0.0
 40
5.728484
100
AcDbArc
 50
142.297773
 51
216.715161
  0
ARC
  5
9A
100
AcDbEntity
  8
2
370
    50
100
AcDbCircle
 10
244.883974
 20
-102.632646
 30
0.0
 40
15.411616
100
AcDbArc
 50
157.859338
 51
202.140662
  0
LINE
  5
9B
100
AcDbEntity
  8
2
370
    50
100
AcDbLine
 10
230.608788
 20
-96.82429
 30
0.0
 11
230.608788
 21
-95.09229
 31
0.0
  0
LINE
  5
9C
100
AcDbEntity
  8
2
370
    50
100
AcDbLine
 10
239.336788
 20
-96.82429
 30
0.0
 11
239.336788
 21
-95.09229
 31
0.0
  0
ARC
  5
9D
100
AcDbEntity
  8
2
370
    50
100
AcDbCircle
 10
234.621188
 20
-91.62829
 30
0.0
 40
5.851169
100
AcDbArc
 50
323.699628
 51
36.300372
  0
LINE
  5
9E
100
AcDbEntity
  8
2
370
    50
100
AcDbLine
 10
230.608788
 20
-108.441003
 30
0.0
 11
239.336788
 21
-108.441003
 31
0.0
  0
LINE
  5
9F
100
AcDbEntity
  8
2
370
    50
100
AcDbLine
 10
230.608788
 20
-110.173003
 30
0.0
 11
239.336788
 21
-110.173003
 31
0.0
  0
ARC
  5
A0
100
AcDbEntity
  8
2
370
    50
100
AcDbCircle
 10
235.200841
 20
-113.597704
 30
0.0
 40
5.728484
100
AcDbArc
 50
143.284839
 51
217.702227
  0
ARC
  5
A1
100
AcDbEntity
  8
2
370
    50
100
AcDbCircle
 10
234.621188
 20
-113.637003
 30
0.0
 40
5.851169
100
AcDbArc
 50
323.699628
 51
36.300372
  0
LINE
  5
A2
100
AcDbEntity
  8
2
370
    50
100
AcDbLine
 10
239.336788
 20
-108.441003
 30
0.0
 11
239.336788
 21
-110.173003
 31
0.0
  0
LINE
  5
A3
100
AcDbEntity
  8
2
370
    50
100
AcDbLine
 10
230.608788
 20
-108.441003
 30
0.0
 11
230.608788
 21
-110.173003
 31
0.0
  0
ARC
  5
A4
100
AcDbEntity
  8
2
370
    50
100
AcDbCircle
 10
225.049904
 20
-102.632646
 30
0.0
 40
15.422454
100
AcDbArc
 50
337.875719
 51
22.124281
  0
LINE
  5
A5
100
AcDbEntity
  8
2
370
    50
100
AcDbLine
 10
252.472357
 20
-79.232646
 30
0.0
 11
276.472357
 21
-79.232646
 31
0.0
  0
LINE
  5
A6
100
AcDbEntity
  8
2
370
    25
100
AcDbLine
 10
293.272357
 20
-92.155146
 30
0.0
 11
293.272357
 21
-113.110146
 31
0.0
  0
LINE
  5
A7
100
AcDbEntity
  8
2
370
    25
100
AcDbLine
 10
284.472357
 20
-93.355146
 30
0.0
 11
284.472357
 21
-111.910146
 31
0.0
  0
LINE
  5
A8
100
AcDbEntity
  8
2
370
    50
100
AcDbLine
 10
283.272357
 20
-92.155146
 30
0.0
 11
283.272357
 21
-113.110146
 31
0.0
  0
LINE
  5
A9
100
AcDbEntity
  8
2
370
    50
100
AcDbLine
 10
229.472357
 20
-113.632646
 30
0.0
 11
229.472357
 21
-91.632646
 31
0.0
  0
LINE
  5
AA
100
AcDbEntity
  8
2
370
    50
100
AcDbLine
 10
253.072357
 20
-78.632646
 30
0.0
 11
252.472357
 21
-79.232646
 31
0.0
  0
LINE
  5
AB
100
AcDbEntity
  8
2
370
    50
100
AcDbLine
 10
275.872357
 20
-78.632646
 30
0.0
 11
276.472357
 21
-79.232646
 31
0.0
  0
LINE
  5
AC
100
AcDbEntity
  8
2
370
    50
100
AcDbLine
 10
253.072357
 20
-78.632646
 30
0.0
 11
275.872357
 21
-78.632646
 31
0.0
  0
LINE
  5
AD
100
AcDbEntity
  8
2
370
    25
100
AcDbLine
 10
275.872357
 20
-78.632646
 30
0.0
 11
275.872357
 21
-78.132646
 31
0.0
  0
LINE
  5
AE
100
AcDbEntity
  8
2
370
    25
100
AcDbLine
 10
253.072357
 20
-78.632646
 30
0.0
 11
253.072357
 21
-78.132646
 31
0.0
  0
ARC
  5
AF
100
AcDbEntity
  8
2
370
    50
100
AcDbCircle
 10
240.972357
 20
-53.881907
 30
0.0
 40
6.5
100
AcDbArc
 50
51.50005
 51
308.49995
  0
LINE
  5
B0
100
AcDbEntity
  8
2
370
    50
100
AcDbLine
 10
252.64393
 20
-49.881907
 30
0.0
 11
248.131268
 21
-49.881907
 31
0.0
  0
ARC
  5
B1
100
AcDbEntity
  8
2
370
    50
100
AcDbCircle
 10
248.131268
 20
-44.881907
 30
0.0
 40
5.0
100
AcDbArc
 50
231.50005
 51
270.0
  0
ARC
  5
B2
100
AcDbEntity
  8
2
370
    50
100
AcDbCircle
 10
248.131268
 20
-62.881907
 30
0.0
 40
5.0
100
AcDbArc
 50
90.0
 51
128.49995
  0
ARC
  5
B3
100
AcDbEntity
  8
2
370
    50
100
AcDbCircle
 10
252.64393
 20
-46.881907
 30
0.0
 40
3.0
100
AcDbArc
 50
270.0
 51
330.0
  0
LINE
  5
B4
100
AcDbEntity
  8
2
370
    50
100
AcDbLine
 10
252.64393
 20
-57.881907
 30
0.0
 11
248.131268
 21
-57.881907
 31
0.0
  0
ARC
  5
B5
100
AcDbEntity
  8
2
370
    50
100
AcDbCircle
 10
252.64393
 20
-60.881907
 30
0.0
 40
3.0
100
AcDbArc
 50
30.0
 51
90.0
  0
ARC
  5
B6
100
AcDbEntity
  8
2
370
    50
100
AcDbCircle
 10
256.108032
 20
-48.881907
 30
0.0
 40
1.0
100
AcDbArc
 50
90.0
 51
150.0
  0
ARC
  5
B7
100
AcDbEntity
  8
2
370
    50
100
AcDbCircle
 10
256.108032
 20
-58.881907
 30
0.0
 40
1.0
100
AcDbArc
 50
210.0
 51
270.0
  0
ARC
  5
B8
100
AcDbEntity
  8
2
370
    50
100
AcDbCircle
 10
287.972357
 20
-53.881907
 30
0.0
 40
6.5
100
AcDbArc
 50
231.50005
 51
128.49995
  0
LINE
  5
B9
100
AcDbEntity
  8
2
370
    50
100
AcDbLine
 10
276.300784
 20
-49.881907
 30
0.0
 11
280.813447
 21
-49.881907
 31
0.0
  0
ARC
  5
BA
100
AcDbEntity
  8
2
370
    50
100
AcDbCircle
 10
280.813447
 20
-44.881907
 30
0.0
 40
5.0
100
AcDbArc
 50
270.0
 51
308.49995
  0
ARC
  5
BB
100
AcDbEntity
  8
2
370
    50
100
AcDbCircle
 10
280.813447
 20
-62.881907
 30
0.0
 40
5.0
100
AcDbArc
 50
51.50005
 51
90.0
  0
ARC
  5
BC
100
AcDbEntity
  8
2
370
    50
100
AcDbCircle
 10
276.300784
 20
-46.881907
 30
0.0
 40
3.0
100
AcDbArc
 50
210.0
 51
270.0
  0
LINE
  5
BD
100
AcDbEntity
  8
2
370
    50
100
AcDbLine
 10
276.300784
 20
-57.881907
 30
0.0
 11
280.813447
 21
-57.881907
 31
0.0
  0
ARC
  5
BE
100
AcDbEntity
  8
2
370
    50
100
AcDbCircle
 10
276.300784
 20
-60.881907
 30
0.0
 40
3.0
100
AcDbArc
 50
90.0
 51
150.0
  0
ARC
  5
BF
100
AcDbEntity
  8
2
370
    50
100
AcDbCircle
 10
272.836683
 20
-48.881907
 30
0.0
 40
1.0
100
AcDbArc
 50
30.0
 51
90.0
  0
ARC
  5
C0
100
AcDbEntity
  8
2
370
    50
100
AcDbCircle
 10
272.836683
 20
-58.881907
 30
0.0
 40
1.0
100
AcDbArc
 50
270.0
 51
330.0
  0
LINE
  5
C1
100
AcDbEntity
  8
2
370
    50
100
AcDbLine
 10
272.836683
 20
-47.881907
 30
0.0
 11
266.972357
 21
-47.881907
 31
0.0
  0
LINE
  5
C2
100
AcDbEntity
  8
2
370
    50
100
AcDbLine
 10
256.108032
 20
-47.881907
 30
0.0
 11
262.092357
 21
-47.881907
 31
0.0
  0
LINE
  5
C3
100
AcDbEntity
  8
2
370
    50
100
AcDbLine
 10
266.972357
 20
-47.881907
 30
0.0
 11
271.172357
 21
-47.881907
 31
0.0
  0
LINE
  5
C4
100
AcDbEntity
  8
2
370
    50
100
AcDbLine
 10
261.972357
 20
-47.881907
 30
0.0
 11
257.772357
 21
-47.881907
 31
0.0
  0
LINE
  5
C5
100
AcDbEntity
  8
2
370
    50
100
AcDbLine
 10
266.972357
 20
-59.881907
 30
0.0
 11
272.836683
 21
-59.881907
 31
0.0
  0
LINE
  5
C6
100
AcDbEntity
  8
2
370
    50
100
AcDbLine
 10
257.772357
 20
-47.881907
 30
0.0
 11
262.092357
 21
-47.881907
 31
0.0
  0
LINE
  5
C7
100
AcDbEntity
  8
2
370
    50
100
AcDbLine
 10
257.772357
 20
-45.381907
 30
0.0
 11
271.172357
 21
-45.381907
 31
0.0
  0
LINE
  5
C8
100
AcDbEntity
  8
2
370
    50
100
AcDbLine
 10
257.772357
 20
-45.381907
 30
0.0
 11
257.772357
 21
-47.881907
 31
0.0
  0
ARC
  5
C9
100
AcDbEntity
  8
2
370
    50
100
AcDbCircle
 10
260.772357
 20
-46.631907
 30
0.0
 40
3.25
100
AcDbArc
 50
157.380135
 51
202.619865
  0
ARC
  5
CA
100
AcDbEntity
  8
2
370
    50
100
AcDbCircle
 10
264.472357
 20
-63.486073
 30
0.0
 40
19.304167
100
AcDbArc
 50
69.691467
 51
110.308533
  0
ARC
  5
CB
100
AcDbEntity
  8
2
370
    50
100
AcDbCircle
 10
268.172357
 20
-46.631907
 30
0.0
 40
3.25
100
AcDbArc
 50
337.380135
 51
22.619865
  0
LINE
  5
CC
100
AcDbEntity
  8
2
370
    50
100
AcDbLine
 10
271.172357
 20
-45.381907
 30
0.0
 11
271.172357
 21
-47.881907
 31
0.0
  0
LINE
  5
CD
100
AcDbEntity
  8
2
370
    50
100
AcDbLine
 10
271.172357
 20
-47.881907
 30
0.0
 11
266.852357
 21
-47.881907
 31
0.0
  0
LINE
  5
CE
100
AcDbEntity
  8
2
370
    50
100
AcDbLine
 10
270.472357
 20
-66.132646
 30
0.0
 11
258.472357
 21
-66.132646
 31
0.0
  0
LINE
  5
CF
100
AcDbEntity
  8
2
370
    25
100
AcDbLine
 10
276.972357
 20
-71.132646
 30
0.0
 11
251.972357
 21
-71.132646
 31
0.0
  0
ARC
  5
D0
100
AcDbEntity
  8
2
370
    50
100
AcDbCircle
 10
273.401643
 20
-74.632646
 30
0.0
 40
5.0
100
AcDbArc
 50
315.572996
 51
44.427004
  0
ARC
  5
D1
100
AcDbEntity
  8
2
370
    50
100
AcDbCircle
 10
255.543071
 20
-74.632646
 30
0.0
 40
5.0
100
AcDbArc
 50
135.572996
 51
224.427004
  0
LINE
  5
D2
100
AcDbEntity
  8
2
370
    50
100
AcDbLine
 10
258.472357
 20
-66.132646
 30
0.0
 11
251.972357
 21
-71.132646
 31
0.0
  0
LINE
  5
D3
100
AcDbEntity
  8
2
370
    50
100
AcDbLine
 10
270.472357
 20
-66.132646
 30
0.0
 11
276.972357
 21
-71.132646
 31
0.0
  0
ELLIPSE
  5
D4
100
AcDbEntity
  8
2
370
    50
100
AcDbEllipse
 10
264.472357
 20
-74.632646
 30
0.0
 11
5.0
 21
0.0
 31
0.0
210
0.0
220
0.0
230
1.0
 40
0.6
 41
0.0
 42
6.2831849999999996
  0
ELLIPSE
  5
D5
100
AcDbEntity
  8
2
370
    50
100
AcDbEllipse
 10
275.901643
 20
-74.632646
 30
0.0
 11
0.0
 21
3.0
 31
0.0
210
0.0
220
0.0
230
1.0
 40
0.833333
 41
0.0
 42
6.2831849999999996
  0
ELLIPSE
  5
D6
100
AcDbEntity
  8
2
370
    50
100
AcDbEllipse
 10
253.043071
 20
-74.632646
 30
0.0
 11
0.0
 21
-3.0
 31
0.0
210
0.0
220
0.0
230
1.0
 40
0.833333
 41
0.0
 42
6.2831849999999996
  0
LINE
  5
D7
100
AcDbEntity
  8
2
370
    50
100
AcDbLine
 10
269.222357
 20
-66.132646
 30
0.0
 11
269.222357
 21
-59.881907
 31
0.0
  0
LINE
  5
D8
100
AcDbEntity
  8
2
370
    50
100
AcDbLine
 10
259.722357
 20
-66.132646
 30
0.0
 11
259.722357
 21
-59.881907
 31
0.0
  0
LINE
  5
D9
100
AcDbEntity
  8
2
370
    50
100
AcDbLine
 10
276.972357
 20
-78.132646
 30
0.0
 11
251.972357
 21
-78.132646
 31
0.0
  0
CIRCLE
  5
DA
100
AcDbEntity
  8
2
370
    50
100
AcDbCircle
 10
264.472357
 20
-53.881907
 30
0.0
 40
6.5
  0
LINE
  5
DB
100
AcDbEntity
  8
2
370
    50
100
AcDbLine
 10
261.972357
 20
-59.881907
 30
0.0
 11
256.108032
 21
-59.881907
 31
0.0
  0
LINE
  5
DC
100
AcDbEntity
  8
2
370
    50
100
AcDbLine
 10
261.972357
 20
-47.881907
 30
0.0
 11
257.772357
 21
-47.881907
 31
0.0
  0
ARC
  5
DD
100
AcDbEntity
  8
2
370
    50
100
AcDbCircle
 10
120.97264
 20
140.048025
 30
0.0
 40
6.5
100
AcDbArc
 50
51.50005
 51
308.49995
  0
LINE
  5
DE
100
AcDbEntity
  8
2
370
    50
100
AcDbLine
 10
132.644213
 20
144.048025
 30
0.0
 11
128.131551
 21
144.048025
 31
0.0
  0
ARC
  5
DF
100
AcDbEntity
  8
2
370
    50
100
AcDbCircle
 10
128.131551
 20
149.048025
 30
0.0
 40
5.0
100
AcDbArc
 50
231.50005
 51
270.0
  0
ARC
  5
E0
100
AcDbEntity
  8
2
370
    50
100
AcDbCircle
 10
128.131551
 20
131.048025
 30
0.0
 40
5.0
100
AcDbArc
 50
90.0
 51
128.49995
  0
ARC
  5
E1
100
AcDbEntity
  8
2
370
    50
100
AcDbCircle
 10
132.644213
 20
147.048025
 30
0.0
 40
3.0
100
AcDbArc
 50
270.0
 51
330.0
  0
LINE
  5
E2
100
AcDbEntity
  8
2
370
    50
100
AcDbLine
 10
132.644213
 20
136.048025
 30
0.0
 11
128.131551
 21
136.048025
 31
0.0
  0
ARC
  5
E3
100
AcDbEntity
  8
2
370
    50
100
AcDbCircle
 10
132.644213
 20
133.048025
 30
0.0
 40
3.0
100
AcDbArc
 50
30.0
 51
90.0
  0
ARC
  5
E4
100
AcDbEntity
  8
2
370
    50
100
AcDbCircle
 10
136.108315
 20
145.048025
 30
0.0
 40
1.0
100
AcDbArc
 50
90.0
 51
150.0
  0
ARC
  5
E5
100
AcDbEntity
  8
2
370
    50
100
AcDbCircle
 10
136.108315
 20
135.048025
 30
0.0
 40
1.0
100
AcDbArc
 50
210.0
 51
270.0
  0
ARC
  5
E6
100
AcDbEntity
  8
2
370
    50
100
AcDbCircle
 10
167.97264
 20
140.048025
 30
0.0
 40
6.5
100
AcDbArc
 50
231.50005
 51
128.49995
  0
LINE
  5
E7
100
AcDbEntity
  8
2
370
    50
100
AcDbLine
 10
156.301067
 20
144.048025
 30
0.0
 11
160.81373
 21
144.048025
 31
0.0
  0
ARC
  5
E8
100
AcDbEntity
  8
2
370
    50
100
AcDbCircle
 10
160.81373
 20
149.048025
 30
0.0
 40
5.0
100
AcDbArc
 50
270.0
 51
308.49995
  0
ARC
  5
E9
100
AcDbEntity
  8
2
370
    50
100
AcDbCircle
 10
160.81373
 20
131.048025
 30
0.0
 40
5.0
100
AcDbArc
 50
51.50005
 51
90.0
  0
ARC
  5
EA
100
AcDbEntity
  8
2
370
    50
100
AcDbCircle
 10
156.301067
 20
147.048025
 30
0.0
 40
3.0
100
AcDbArc
 50
210.0
 51
270.0
  0
LINE
  5
EB
100
AcDbEntity
  8
2
370
    50
100
AcDbLine
 10
156.301067
 20
136.048025
 30
0.0
 11
160.81373
 21
136.048025
 31
0.0
  0
ARC
  5
EC
100
AcDbEntity
  8
2
370
    50
100
AcDbCircle
 10
156.301067
 20
133.048025
 30
0.0
 40
3.0
100
AcDbArc
 50
90.0
 51
150.0
  0
ARC
  5
ED
100
AcDbEntity
  8
2
370
    50
100
AcDbCircle
 10
152.836966
 20
145.048025
 30
0.0
 40
1.0
100
AcDbArc
 50
30.0
 51
90.0
  0
ARC
  5
EE
100
AcDbEntity
  8
2
370
    50
100
AcDbCircle
 10
152.836966
 20
135.048025
 30
0.0
 40
1.0
100
AcDbArc
 50
270.0
 51
330.0
  0
LINE
  5
EF
100
AcDbEntity
  8
2
370
    50
100
AcDbLine
 10
152.836966
 20
146.048025
 30
0.0
 11
146.97264
 21
146.048025
 31
0.0
  0
LINE
  5
F0
100
AcDbEntity
  8
2
370
    50
100
AcDbLine
 10
136.108315
 20
146.048025
 30
0.0
 11
142.09264
 21
146.048025
 31
0.0
  0
LINE
  5
F1
100
AcDbEntity
  8
2
370
    50
100
AcDbLine
 10
146.97264
 20
146.048025
 30
0.0
 11
151.17264
 21
146.048025
 31
0.0
  0
LINE
  5
F2
100
AcDbEntity
  8
2
370
    50
100
AcDbLine
 10
141.97264
 20
146.048025
 30
0.0
 11
137.77264
 21
146.048025
 31
0.0
  0
LINE
  5
F3
100
AcDbEntity
  8
2
370
    50
100
AcDbLine
 10
146.97264
 20
134.048025
 30
0.0
 11
152.836966
 21
134.048025
 31
0.0
  0
LINE
  5
F4
100
AcDbEntity
  8
2
370
    50
100
AcDbLine
 10
137.77264
 20
146.048025
 30
0.0
 11
142.09264
 21
146.048025
 31
0.0
  0
LINE
  5
F5
100
AcDbEntity
  8
2
370
    50
100
AcDbLine
 10
137.77264
 20
148.548025
 30
0.0
 11
151.17264
 21
148.548025
 31
0.0
  0
LINE
  5
F6
100
AcDbEntity
  8
2
370
    50
100
AcDbLine
 10
137.77264
 20
148.548025
 30
0.0
 11
137.77264
 21
146.048025
 31
0.0
  0
ARC
  5
F7
100
AcDbEntity
  8
2
370
    50
100
AcDbCircle
 10
140.77264
 20
147.298025
 30
0.0
 40
3.25
100
AcDbArc
 50
157.380135
 51
202.619865
  0
ARC
  5
F8
100
AcDbEntity
  8
2
370
    50
100
AcDbCircle
 10
144.47264
 20
130.443858
 30
0.0
 40
19.304167
100
AcDbArc
 50
69.691467
 51
110.308533
  0
ARC
  5
F9
100
AcDbEntity
  8
2
370
    50
100
AcDbCircle
 10
148.17264
 20
147.298025
 30
0.0
 40
3.25
100
AcDbArc
 50
337.380135
 51
22.619865
  0
LINE
  5
FA
100
AcDbEntity
  8
2
370
    50
100
AcDbLine
 10
151.17264
 20
148.548025
 30
0.0
 11
151.17264
 21
146.048025
 31
0.0
  0
LINE
  5
FB
100
AcDbEntity
  8
2
370
    50
100
AcDbLine
 10
151.17264
 20
146.048025
 30
0.0
 11
146.85264
 21
146.048025
 31
0.0
  0
LINE
  5
FC
100
AcDbEntity
  8
2
370
    50
100
AcDbLine
 10
150.47264
 20
127.797285
 30
0.0
 11
138.47264
 21
127.797285
 31
0.0
  0
LINE
  5
FD
100
AcDbEntity
  8
2
370
    50
100
AcDbLine
 10
156.97264
 20
122.797285
 30
0.0
 11
131.97264
 21
122.797285
 31
0.0
  0
ARC
  5
FE
100
AcDbEntity
  8
2
370
    50
100
AcDbCircle
 10
153.401926
 20
119.297285
 30
0.0
 40
5.0
100
AcDbArc
 50
315.572996
 51
44.427004
  0
ARC
  5
FF
100
AcDbEntity
  8
2
370
    50
100
AcDbCircle
 10
135.543355
 20
119.297285
 30
0.0
 40
5.0
100
AcDbArc
 50
135.572996
 51
224.427004
  0
LINE
  5
100
100
AcDbEntity
  8
2
370
    50
100
AcDbLine
 10
138.47264
 20
127.797285
 30
0.0
 11
131.97264
 21
122.797285
 31
0.0
  0
LINE
  5
101
100
AcDbEntity
  8
2
370
    50
100
AcDbLine
 10
150.47264
 20
127.797285
 30
0.0
 11
156.97264
 21
122.797285
 31
0.0
  0
ELLIPSE
  5
102
100
AcDbEntity
  8
2
370
    50
100
AcDbEllipse
 10
144.47264
 20
119.297285
 30
0.0
 11
5.0
 21
0.0
 31
0.0
210
0.0
220
0.0
230
1.0
 40
0.6
 41
0.0
 42
6.2831849999999996
  0
ELLIPSE
  5
103
100
AcDbEntity
  8
2
370
    50
100
AcDbEllipse
 10
155.901926
 20
119.297285
 30
0.0
 11
0.0
 21
3.0
 31
0.0
210
0.0
220
0.0
230
1.0
 40
0.833333
 41
0.0
 42
6.2831849999999996
  0
ELLIPSE
  5
104
100
AcDbEntity
  8
2
370
    50
100
AcDbEllipse
 10
133.043355
 20
119.297285
 30
0.0
 11
0.0
 21
-3.0
 31
0.0
210
0.0
220
0.0
230
1.0
 40
0.833333
 41
0.0
 42
6.2831849999999996
  0
LINE
  5
105
100
AcDbEntity
  8
2
370
    50
100
AcDbLine
 10
149.22264
 20
127.797285
 30
0.0
 11
149.22264
 21
134.048025
 31
0.0
  0
LINE
  5
106
100
AcDbEntity
  8
2
370
    50
100
AcDbLine
 10
139.72264
 20
127.797285
 30
0.0
 11
139.72264
 21
134.048025
 31
0.0
  0
LINE
  5
107
100
AcDbEntity
  8
2
370
    50
100
AcDbLine
 10
156.97264
 20
115.797285
 30
0.0
 11
131.97264
 21
115.797285
 31
0.0
  0
CIRCLE
  5
108
100
AcDbEntity
  8
2
370
    50
100
AcDbCircle
 10
144.47264
 20
140.048025
 30
0.0
 40
6.5
  0
LINE
  5
109
100
AcDbEntity
  8
2
370
    50
100
AcDbLine
 10
141.97264
 20
134.048025
 30
0.0
 11
136.108315
 21
134.048025
 31
0.0
  0
LINE
  5
10A
100
AcDbEntity
  8
2
370
    50
100
AcDbLine
 10
141.97264
 20
146.048025
 30
0.0
 11
137.77264
 21
146.048025
 31
0.0
  0
POINT
  5
10B
100
AcDbEntity
  8
2
370
    50
100
AcDbPoint
 10
264.472357
 20
-44.181907
 30
0.0
  0
POINT
  5
10C
100
AcDbEntity
  8
2
370
    50
100
AcDbPoint
 10
294.472357
 20
-102.632646
 30
0.0
  0
LINE
  5
10D
100
AcDbEntity
  8
2
370
    50
100
AcDbLine
 10
-172.922532
 20
101.720657
 30
0.0
 11
-184.803373
 21
101.464817
 31
0.0
  0
LINE
  5
10E
100
AcDbEntity
  8
2
370
    50
100
AcDbLine
 10
-184.803373
 20
81.129754
 30
0.0
 11
-172.922532
 21
80.873914
 31
0.0
  0
LINE
  5
10F
100
AcDbEntity
  8
2
370
    50
100
AcDbLine
 10
-174.007885
 20
100.635304
 30
0.0
 11
-172.868404
 21
101.774785
 31
0.0
  0
LINE
  5
110
100
AcDbEntity
  8
2
370
    50
100
AcDbLine
 10
-174.007885
 20
81.959267
 30
0.0
 11
-172.868404
 21
80.819785
 31
0.0
  0
LINE
  5
111
100
AcDbEntity
  8
2
370
    25
100
AcDbLine
 10
-174.007885
 20
81.959267
 30
0.0
 11
-186.007885
 21
82.334267
 31
0.0
  0
LINE
  5
112
100
AcDbEntity
  8
2
370
    25
100
AcDbLine
 10
-174.007885
 20
100.635304
 30
0.0
 11
-186.007885
 21
100.260304
 31
0.0
  0
LINE
  5
113
100
AcDbEntity
  8
2
370
    50
100
AcDbLine
 10
-186.007885
 20
100.260304
 30
0.0
 11
-184.803373
 21
101.464817
 31
0.0
  0
LINE
  5
114
100
AcDbEntity
  8
2
370
    50
100
AcDbLine
 10
-186.007885
 20
82.334267
 30
0.0
 11
-184.803373
 21
81.129754
 31
0.0
  0
LINE
  5
115
100
AcDbEntity
  8
2
370
    50
100
AcDbLine
 10
-186.007885
 20
82.334267
 30
0.0
 11
-186.007885
 21
100.260304
 31
0.0
  0
LINE
  5
116
100
AcDbEntity
  8
2
370
    50
100
AcDbLine
 10
-277.922815
 20
-92.209274
 30
0.0
 11
-289.803656
 21
-92.465115
 31
0.0
  0
LINE
  5
117
100
AcDbEntity
  8
2
370
    50
100
AcDbLine
 10
-289.803656
 20
-112.800178
 30
0.0
 11
-277.922815
 21
-113.056018
 31
0.0
  0
LINE
  5
118
100
AcDbEntity
  8
2
370
    50
100
AcDbLine
 10
-279.008169
 20
-93.294628
 30
0.0
 11
-277.868687
 21
-92.155146
 31
0.0
  0
LINE
  5
119
100
AcDbEntity
  8
2
370
    50
100
AcDbLine
 10
-279.008169
 20
-111.970665
 30
0.0
 11
-277.868687
 21
-113.110146
 31
0.0
  0
LINE
  5
11A
100
AcDbEntity
  8
2
370
    25
100
AcDbLine
 10
-279.008169
 20
-111.970665
 30
0.0
 11
-291.008169
 21
-111.595665
 31
0.0
  0
LINE
  5
11B
100
AcDbEntity
  8
2
370
    25
100
AcDbLine
 10
-279.008169
 20
-93.294628
 30
0.0
 11
-291.008169
 21
-93.669628
 31
0.0
  0
LINE
  5
11C
100
AcDbEntity
  8
2
370
    50
100
AcDbLine
 10
-291.008169
 20
-93.669628
 30
0.0
 11
-289.803656
 21
-92.465115
 31
0.0
  0
LINE
  5
11D
100
AcDbEntity
  8
2
370
    50
100
AcDbLine
 10
-291.008169
 20
-111.595665
 30
0.0
 11
-289.803656
 21
-112.800178
 31
0.0
  0
POINT
  5
11E
100
AcDbEntity
  8
2
370
    50
100
AcDbPoint
 10
-194.655517
 20
98.897285
 30
0.0
  0
LINE
  5
11F
100
AcDbEntity
  8
2
370
    25
100
AcDbLine
 10
-174.007885
 20
81.959267
 30
0.0
 11
-174.007885
 21
100.635304
 31
0.0
  0
LINE
  5
120
100
AcDbEntity
  8
2
370
    50
100
AcDbLine
 10
-291.008169
 20
-93.669628
 30
0.0
 11
-291.008169
 21
-111.595665
 31
0.0
  0
LINE
  5
121
100
AcDbEntity
  8
2
370
    25
100
AcDbLine
 10
-279.008169
 20
-93.294628
 30
0.0
 11
-279.008169
 21
-111.970665
 31
0.0
  0
LINE
  5
122
100
AcDbEntity
  8
2
370
    50
100
AcDbLine
 10
220.972357
 20
-96.282646
 30
0.0
 11
-6.508335
 21
-96.282646
 31
0.0
  0
LINE
  5
123
100
AcDbEntity
  8
2
370
    50
100
AcDbLine
 10
220.972357
 20
-108.982646
 30
0.0
 11
-6.508335
 21
-108.982646
 31
0.0
  0
LINE
  5
124
100
AcDbEntity
  8
2
370
    50
100
AcDbLine
 10
-277.868687
 20
-92.155146
 30
0.0
 11
-256.554948
 21
-92.155146
 31
0.0
  0
LINE
  5
125
100
AcDbEntity
  8
2
370
    50
100
AcDbLine
 10
-239.554948
 20
-92.155146
 30
0.0
 11
-60.982074
 21
-92.155146
 31
0.0
  0
LINE
  5
126
100
AcDbEntity
  8
2
370
    50
100
AcDbLine
 10
-277.868687
 20
-113.110146
 30
0.0
 11
-256.554948
 21
-113.110146
 31
0.0
  0
LINE
  5
127
100
AcDbEntity
  8
2
370
    50
100
AcDbLine
 10
-239.554948
 20
-113.110146
 30
0.0
 11
-60.982074
 21
-113.110146
 31
0.0
  0
LINE
  5
128
100
AcDbEntity
  8
2
370
    50
100
AcDbLine
 10
-172.868404
 20
101.774785
 30
0.0
 11
-151.554665
 21
101.774785
 31
0.0
  0
LINE
  5
129
100
AcDbEntity
  8
2
370
    50
100
AcDbLine
 10
-134.554665
 20
101.774785
 30
0.0
 11
46.498902
 21
101.774785
 31
0.0
  0
LINE
  5
12A
100
AcDbEntity
  8
2
370
    50
100
AcDbLine
 10
-172.868404
 20
80.819785
 30
0.0
 11
-151.554665
 21
80.819785
 31
0.0
  0
LINE
  5
12B
100
AcDbEntity
  8
2
370
    50
100
AcDbLine
 10
-134.554665
 20
80.819785
 30
0.0
 11
46.498902
 21
80.819785
 31
0.0
  0
LINE
  5
12C
100
AcDbEntity
  8
2
370
    50
100
AcDbLine
 10
-151.554665
 20
121.474785
 30
0.0
 11
-151.554665
 21
61.474785
 31
0.0
  0
LINE
  5
12D
100
AcDbEntity
  8
2
370
    50
100
AcDbLine
 10
-134.554665
 20
106.474785
 30
0.0
 11
-134.554665
 21
76.474785
 31
0.0
  0
LINE
  5
12E
100
AcDbEntity
  8
2
370
    50
100
AcDbLine
 10
-149.554665
 20
61.474785
 30
0.0
 11
-151.554665
 21
61.474785
 31
0.0
  0
ARC
  5
12F
100
AcDbEntity
  8
2
370
    50
100
AcDbCircle
 10
-149.554665
 20
76.474785
 30
0.0
 40
15.0
100
AcDbArc
 50
270.0
 51
360.0
  0
ARC
  5
130
100
AcDbEntity
  8
2
370
    50
100
AcDbCircle
 10
-149.554665
 20
106.474785
 30
0.0
 40
15.0
100
AcDbArc
 50
0.0
 51
90.0
  0
LINE
  5
131
100
AcDbEntity
  8
2
370
    50
100
AcDbLine
 10
-256.554948
 20
-72.455146
 30
0.0
 11
-256.554948
 21
-132.455146
 31
0.0
  0
LINE
  5
132
100
AcDbEntity
  8
2
370
    50
100
AcDbLine
 10
-239.554948
 20
-87.455146
 30
0.0
 11
-239.554948
 21
-117.455146
 31
0.0
  0
LINE
  5
133
100
AcDbEntity
  8
2
370
    50
100
AcDbLine
 10
-254.554948
 20
-72.455146
 30
0.0
 11
-256.554948
 21
-72.455146
 31
0.0
  0
LINE
  5
134
100
AcDbEntity
  8
2
370
    50
100
AcDbLine
 10
-254.554948
 20
-132.455146
 30
0.0
 11
-256.554948
 21
-132.455146
 31
0.0
  0
ARC
  5
135
100
AcDbEntity
  8
2
370
    50
100
AcDbCircle
 10
-254.554948
 20
-117.455146
 30
0.0
 40
15.0
100
AcDbArc
 50
270.0
 51
360.0
  0
ARC
  5
136
100
AcDbEntity
  8
2
370
    50
100
AcDbCircle
 10
-254.554948
 20
-87.455146
 30
0.0
 40
15.0
100
AcDbArc
 50
0.0
 51
90.0
  0
LINE
  5
137
100
AcDbEntity
  8
2
370
    50
100
AcDbLine
 10
77.498902
 20
104.797285
 30
0.0
 11
47.498902
 21
104.797285
 31
0.0
  0
LINE
  5
138
100
AcDbEntity
  8
2
370
    50
100
AcDbLine
 10
78.498902
 20
103.797285
 30
0.0
 11
77.498902
 21
104.797285
 31
0.0
  0
LINE
  5
139
100
AcDbEntity
  8
2
370
    50
100
AcDbLine
 10
46.498902
 20
103.797285
 30
0.0
 11
47.498902
 21
104.797285
 31
0.0
  0
LINE
  5
13A
100
AcDbEntity
  8
2
370
    50
100
AcDbLine
 10
77.498902
 20
77.797285
 30
0.0
 11
47.498902
 21
77.797285
 31
0.0
  0
LINE
  5
13B
100
AcDbEntity
  8
2
370
    50
100
AcDbLine
 10
46.498902
 20
78.797285
 30
0.0
 11
47.498902
 21
77.797285
 31
0.0
  0
LINE
  5
13C
100
AcDbEntity
  8
2
370
    50
100
AcDbLine
 10
77.498902
 20
86.198266
 30
0.0
 11
47.498902
 21
86.198266
 31
0.0
  0
LINE
  5
13D
100
AcDbEntity
  8
2
370
    50
100
AcDbLine
 10
77.498902
 20
83.021478
 30
0.0
 11
47.498902
 21
83.021478
 31
0.0
  0
LINE
  5
13E
100
AcDbEntity
  8
2
370
    50
100
AcDbLine
 10
77.498902
 20
83.021478
 30
0.0
 11
77.498902
 21
86.198266
 31
0.0
  0
LINE
  5
13F
100
AcDbEntity
  8
2
370
    50
100
AcDbLine
 10
78.498902
 20
79.297285
 30
0.0
 11
82.472521
 21
79.297285
 31
0.0
  0
LINE
  5
140
100
AcDbEntity
  8
2
370
    50
100
AcDbLine
 10
78.498902
 20
78.797285
 30
0.0
 11
78.498902
 21
103.797285
 31
0.0
  0
LINE
  5
141
100
AcDbEntity
  8
2
370
    50
100
AcDbLine
 10
78.498902
 20
78.797285
 30
0.0
 11
77.498902
 21
77.797285
 31
0.0
  0
LINE
  5
142
100
AcDbEntity
  8
2
370
    50
100
AcDbLine
 10
47.498902
 20
83.021478
 30
0.0
 11
47.498902
 21
86.198266
 31
0.0
  0
ARC
  5
143
100
AcDbEntity
  8
2
370
    50
100
AcDbCircle
 10
64.998902
 20
91.297285
 30
0.0
 40
13.5
100
AcDbArc
 50
337.808393
 51
22.191607
  0
ARC
  5
144
100
AcDbEntity
  8
2
370
    50
100
AcDbCircle
 10
74.589337
 20
80.409382
 30
0.0
 40
3.910065
100
AcDbArc
 50
318.083714
 51
41.916286
  0
ARC
  5
145
100
AcDbEntity
  8
2
370
    50
100
AcDbCircle
 10
59.998902
 20
91.297285
 30
0.0
 40
13.5
100
AcDbArc
 50
157.808393
 51
202.191607
  0
ARC
  5
146
100
AcDbEntity
  8
2
370
    50
100
AcDbCircle
 10
50.408466
 20
80.409382
 30
0.0
 40
3.910065
100
AcDbArc
 50
138.083714
 51
221.916286
  0
LINE
  5
147
100
AcDbEntity
  8
2
370
    25
100
AcDbLine
 10
80.498902
 20
80.047285
 30
0.0
 11
80.498902
 21
102.547285
 31
0.0
  0
LINE
  5
148
100
AcDbEntity
  8
2
370
    50
100
AcDbLine
 10
80.498902
 20
80.047285
 30
0.0
 11
79.199863
 21
79.297285
 31
0.0
  0
LINE
  5
149
100
AcDbEntity
  8
2
370
    50
100
AcDbLine
 10
78.498902
 20
103.297285
 30
0.0
 11
82.472521
 21
103.297285
 31
0.0
  0
LINE
  5
14A
100
AcDbEntity
  8
2
370
    50
100
AcDbLine
 10
46.498902
 20
103.797285
 30
0.0
 11
46.498902
 21
78.797285
 31
0.0
  0
LINE
  5
14B
100
AcDbEntity
  8
2
370
    25
100
AcDbLine
 10
80.498902
 20
80.047285
 30
0.0
 11
82.472521
 21
80.047285
 31
0.0
  0
LINE
  5
14C
100
AcDbEntity
  8
2
370
    25
100
AcDbLine
 10
80.498902
 20
102.547285
 30
0.0
 11
82.472521
 21
102.547285
 31
0.0
  0
LINE
  5
14D
100
AcDbEntity
  8
2
370
    50
100
AcDbLine
 10
80.498902
 20
102.547285
 30
0.0
 11
79.199863
 21
103.297285
 31
0.0
  0
LINE
  5
14E
100
AcDbEntity
  8
2
370
    50
100
AcDbLine
 10
82.472521
 20
105.297285
 30
0.0
 11
82.472521
 21
77.297285
 31
0.0
  0
LINE
  5
14F
100
AcDbEntity
  8
2
370
    50
100
AcDbLine
 10
100.97264
 20
105.297285
 30
0.0
 11
100.97264
 21
77.297285
 31
0.0
  0
LINE
  5
150
100
AcDbEntity
  8
2
370
    50
100
AcDbLine
 10
83.472521
 20
106.297285
 30
0.0
 11
99.97264
 21
106.297285
 31
0.0
  0
LINE
  5
151
100
AcDbEntity
  8
2
370
    50
100
AcDbLine
 10
83.472521
 20
76.297285
 30
0.0
 11
99.97264
 21
76.297285
 31
0.0
  0
LINE
  5
152
100
AcDbEntity
  8
2
370
    50
100
AcDbLine
 10
100.97264
 20
105.297285
 30
0.0
 11
99.97264
 21
106.297285
 31
0.0
  0
LINE
  5
153
100
AcDbEntity
  8
2
370
    50
100
AcDbLine
 10
82.472521
 20
105.297285
 30
0.0
 11
83.472521
 21
106.297285
 31
0.0
  0
LINE
  5
154
100
AcDbEntity
  8
2
370
    50
100
AcDbLine
 10
82.472521
 20
77.297285
 30
0.0
 11
83.472521
 21
76.297285
 31
0.0
  0
LINE
  5
155
100
AcDbEntity
  8
2
370
    50
100
AcDbLine
 10
100.97264
 20
77.297285
 30
0.0
 11
99.97264
 21
76.297285
 31
0.0
  0
LINE
  5
156
100
AcDbEntity
  8
2
370
    50
100
AcDbLine
 10
99.97264
 20
85.912121
 30
0.0
 11
83.472521
 21
85.912121
 31
0.0
  0
LINE
  5
157
100
AcDbEntity
  8
2
370
    50
100
AcDbLine
 10
83.472521
 20
81.865512
 30
0.0
 11
99.97264
 21
81.865512
 31
0.0
  0
LINE
  5
158
100
AcDbEntity
  8
2
370
    50
100
AcDbLine
 10
99.97264
 20
81.865512
 30
0.0
 11
99.97264
 21
85.912121
 31
0.0
  0
LINE
  5
159
100
AcDbEntity
  8
2
370
    50
100
AcDbLine
 10
83.472521
 20
81.865512
 30
0.0
 11
83.472521
 21
85.912121
 31
0.0
  0
ARC
  5
15A
100
AcDbEntity
  8
2
370
    50
100
AcDbCircle
 10
96.601186
 20
79.081399
 30
0.0
 40
4.372413
100
AcDbArc
 50
320.450448
 51
39.549552
  0
ARC
  5
15B
100
AcDbEntity
  8
2
370
    50
100
AcDbCircle
 10
85.97264
 20
91.297285
 30
0.0
 40
15.0
100
AcDbArc
 50
338.96053
 51
21.03947
  0
ARC
  5
15C
100
AcDbEntity
  8
2
370
    50
100
AcDbCircle
 10
97.472521
 20
91.297285
 30
0.0
 40
15.0
100
AcDbArc
 50
158.96053
 51
201.03947
  0
ARC
  5
15D
100
AcDbEntity
  8
2
370
    50
100
AcDbCircle
 10
86.843976
 20
79.081399
 30
0.0
 40
4.372413
100
AcDbArc
 50
140.450448
 51
219.549552
  0
LINE
  5
15E
100
AcDbEntity
  8
2
370
    50
100
AcDbLine
 10
77.498902
 20
99.573093
 30
0.0
 11
77.498902
 21
96.396305
 31
0.0
  0
LINE
  5
15F
100
AcDbEntity
  8
2
370
    50
100
AcDbLine
 10
77.498902
 20
96.396305
 30
0.0
 11
47.498902
 21
96.396305
 31
0.0
  0
LINE
  5
160
100
AcDbEntity
  8
2
370
    50
100
AcDbLine
 10
77.498902
 20
99.573093
 30
0.0
 11
47.498902
 21
99.573093
 31
0.0
  0
LINE
  5
161
100
AcDbEntity
  8
2
370
    50
100
AcDbLine
 10
47.498902
 20
99.573093
 30
0.0
 11
47.498902
 21
96.396305
 31
0.0
  0
ARC
  5
162
100
AcDbEntity
  8
2
370
    50
100
AcDbCircle
 10
74.589337
 20
102.185189
 30
0.0
 40
3.910065
100
AcDbArc
 50
318.083714
 51
41.916286
  0
ARC
  5
163
100
AcDbEntity
  8
2
370
    50
100
AcDbCircle
 10
50.408466
 20
102.185189
 30
0.0
 40
3.910065
100
AcDbArc
 50
138.083714
 51
221.916286
  0
LINE
  5
164
100
AcDbEntity
  8
2
370
    50
100
AcDbLine
 10
99.97264
 20
100.729059
 30
0.0
 11
99.97264
 21
96.68245
 31
0.0
  0
LINE
  5
165
100
AcDbEntity
  8
2
370
    50
100
AcDbLine
 10
83.472521
 20
100.729059
 30
0.0
 11
83.472521
 21
96.68245
 31
0.0
  0
LINE
  5
166
100
AcDbEntity
  8
2
370
    50
100
AcDbLine
 10
99.97264
 20
96.68245
 30
0.0
 11
83.472521
 21
96.68245
 31
0.0
  0
LINE
  5
167
100
AcDbEntity
  8
2
370
    50
100
AcDbLine
 10
83.472521
 20
100.729059
 30
0.0
 11
99.97264
 21
100.729059
 31
0.0
  0
ARC
  5
168
100
AcDbEntity
  8
2
370
    50
100
AcDbCircle
 10
86.843976
 20
103.513172
 30
0.0
 40
4.372413
100
AcDbArc
 50
140.450448
 51
219.549552
  0
ARC
  5
169
100
AcDbEntity
  8
2
370
    50
100
AcDbCircle
 10
96.601186
 20
103.513172
 30
0.0
 40
4.372413
100
AcDbArc
 50
320.450448
 51
39.549552
  0
LINE
  5
16A
100
AcDbEntity
  8
2
370
    50
100
AcDbLine
 10
100.97264
 20
80.297285
 30
0.0
 11
100.97264
 21
102.297285
 31
0.0
  0
LINE
  5
16B
100
AcDbEntity
  8
2
370
    50
100
AcDbLine
 10
108.47264
 20
103.297285
 30
0.0
 11
101.97264
 21
103.297285
 31
0.0
  0
LINE
  5
16C
100
AcDbEntity
  8
2
370
    50
100
AcDbLine
 10
101.97264
 20
103.297285
 30
0.0
 11
100.97264
 21
102.297285
 31
0.0
  0
LINE
  5
16D
100
AcDbEntity
  8
2
370
    50
100
AcDbLine
 10
109.47264
 20
102.297285
 30
0.0
 11
108.47264
 21
103.297285
 31
0.0
  0
LINE
  5
16E
100
AcDbEntity
  8
2
370
    50
100
AcDbLine
 10
101.97264
 20
79.297285
 30
0.0
 11
100.97264
 21
80.297285
 31
0.0
  0
LINE
  5
16F
100
AcDbEntity
  8
2
370
    50
100
AcDbLine
 10
108.47264
 20
79.297285
 30
0.0
 11
101.97264
 21
79.297285
 31
0.0
  0
LINE
  5
170
100
AcDbEntity
  8
2
370
    50
100
AcDbLine
 10
109.47264
 20
80.297285
 30
0.0
 11
108.47264
 21
79.297285
 31
0.0
  0
LINE
  5
171
100
AcDbEntity
  8
2
370
    50
100
AcDbLine
 10
101.97264
 20
98.425649
 30
0.0
 11
101.97264
 21
96.093117
 31
0.0
  0
ARC
  5
172
100
AcDbEntity
  8
2
370
    50
100
AcDbCircle
 10
112.97264
 20
91.297285
 30
0.0
 40
12.0
100
AcDbArc
 50
156.443536
 51
203.556464
  0
ARC
  5
173
100
AcDbEntity
  8
2
370
    50
100
AcDbCircle
 10
104.438527
 20
100.861467
 30
0.0
 40
3.466094
100
AcDbArc
 50
135.351466
 51
224.648534
  0
ARC
  5
174
100
AcDbEntity
  8
2
370
    50
100
AcDbCircle
 10
97.47264
 20
91.297285
 30
0.0
 40
12.0
100
AcDbArc
 50
336.443536
 51
23.556464
  0
LINE
  5
175
100
AcDbEntity
  8
2
370
    50
100
AcDbLine
 10
108.47264
 20
98.425649
 30
0.0
 11
108.47264
 21
96.093117
 31
0.0
  0
ARC
  5
176
100
AcDbEntity
  8
2
370
    50
100
AcDbCircle
 10
106.006754
 20
100.861467
 30
0.0
 40
3.466094
100
AcDbArc
 50
315.351466
 51
44.648534
  0
LINE
  5
177
100
AcDbEntity
  8
2
370
    50
100
AcDbLine
 10
101.97264
 20
96.093117
 30
0.0
 11
108.47264
 21
96.093117
 31
0.0
  0
LINE
  5
178
100
AcDbEntity
  8
2
370
    50
100
AcDbLine
 10
101.97264
 20
98.425649
 30
0.0
 11
108.47264
 21
98.425649
 31
0.0
  0
LINE
  5
179
100
AcDbEntity
  8
2
370
    50
100
AcDbLine
 10
101.97264
 20
86.501454
 30
0.0
 11
108.47264
 21
86.501454
 31
0.0
  0
LINE
  5
17A
100
AcDbEntity
  8
2
370
    50
100
AcDbLine
 10
101.97264
 20
84.168922
 30
0.0
 11
101.97264
 21
86.501454
 31
0.0
  0
LINE
  5
17B
100
AcDbEntity
  8
2
370
    50
100
AcDbLine
 10
101.97264
 20
84.168922
 30
0.0
 11
108.47264
 21
84.168922
 31
0.0
  0
LINE
  5
17C
100
AcDbEntity
  8
2
370
    50
100
AcDbLine
 10
108.47264
 20
84.168922
 30
0.0
 11
108.47264
 21
86.501454
 31
0.0
  0
ARC
  5
17D
100
AcDbEntity
  8
2
370
    50
100
AcDbCircle
 10
106.006754
 20
81.733104
 30
0.0
 40
3.466094
100
AcDbArc
 50
315.351466
 51
44.648534
  0
ARC
  5
17E
100
AcDbEntity
  8
2
370
    50
100
AcDbCircle
 10
104.438527
 20
81.733104
 30
0.0
 40
3.466094
100
AcDbArc
 50
135.351466
 51
224.648534
  0
LINE
  5
17F
100
AcDbEntity
  8
2
370
    50
100
AcDbLine
 10
-29.982074
 20
-89.132646
 30
0.0
 11
-59.982074
 21
-89.132646
 31
0.0
  0
LINE
  5
180
100
AcDbEntity
  8
2
370
    50
100
AcDbLine
 10
-28.982074
 20
-90.132646
 30
0.0
 11
-29.982074
 21
-89.132646
 31
0.0
  0
LINE
  5
181
100
AcDbEntity
  8
2
370
    50
100
AcDbLine
 10
-60.982074
 20
-90.132646
 30
0.0
 11
-59.982074
 21
-89.132646
 31
0.0
  0
LINE
  5
182
100
AcDbEntity
  8
2
370
    50
100
AcDbLine
 10
-29.982074
 20
-116.132646
 30
0.0
 11
-59.982074
 21
-116.132646
 31
0.0
  0
LINE
  5
183
100
AcDbEntity
  8
2
370
    50
100
AcDbLine
 10
-60.982074
 20
-115.132646
 30
0.0
 11
-59.982074
 21
-116.132646
 31
0.0
  0
LINE
  5
184
100
AcDbEntity
  8
2
370
    50
100
AcDbLine
 10
-29.982074
 20
-107.731666
 30
0.0
 11
-59.982074
 21
-107.731666
 31
0.0
  0
LINE
  5
185
100
AcDbEntity
  8
2
370
    50
100
AcDbLine
 10
-29.982074
 20
-110.908454
 30
0.0
 11
-59.982074
 21
-110.908454
 31
0.0
  0
LINE
  5
186
100
AcDbEntity
  8
2
370
    50
100
AcDbLine
 10
-29.982074
 20
-110.908454
 30
0.0
 11
-29.982074
 21
-107.731666
 31
0.0
  0
LINE
  5
187
100
AcDbEntity
  8
2
370
    50
100
AcDbLine
 10
-28.982074
 20
-114.632646
 30
0.0
 11
-25.008454
 21
-114.632646
 31
0.0
  0
LINE
  5
188
100
AcDbEntity
  8
2
370
    50
100
AcDbLine
 10
-28.982074
 20
-115.132646
 30
0.0
 11
-28.982074
 21
-90.132646
 31
0.0
  0
LINE
  5
189
100
AcDbEntity
  8
2
370
    50
100
AcDbLine
 10
-28.982074
 20
-115.132646
 30
0.0
 11
-29.982074
 21
-116.132646
 31
0.0
  0
LINE
  5
18A
100
AcDbEntity
  8
2
370
    50
100
AcDbLine
 10
-59.982074
 20
-110.908454
 30
0.0
 11
-59.982074
 21
-107.731666
 31
0.0
  0
ARC
  5
18B
100
AcDbEntity
  8
2
370
    50
100
AcDbCircle
 10
-42.482074
 20
-102.632646
 30
0.0
 40
13.5
100
AcDbArc
 50
337.808393
 51
22.191607
  0
ARC
  5
18C
100
AcDbEntity
  8
2
370
    50
100
AcDbCircle
 10
-32.891638
 20
-113.52055
 30
0.0
 40
3.910065
100
AcDbArc
 50
318.083714
 51
41.916286
  0
ARC
  5
18D
100
AcDbEntity
  8
2
370
    50
100
AcDbCircle
 10
-47.482074
 20
-102.632646
 30
0.0
 40
13.5
100
AcDbArc
 50
157.808393
 51
202.191607
  0
ARC
  5
18E
100
AcDbEntity
  8
2
370
    50
100
AcDbCircle
 10
-57.072509
 20
-113.52055
 30
0.0
 40
3.910065
100
AcDbArc
 50
138.083714
 51
221.916286
  0
LINE
  5
18F
100
AcDbEntity
  8
2
370
    25
100
AcDbLine
 10
-26.982074
 20
-113.882646
 30
0.0
 11
-26.982074
 21
-91.382646
 31
0.0
  0
LINE
  5
190
100
AcDbEntity
  8
2
370
    50
100
AcDbLine
 10
-26.982074
 20
-113.882646
 30
0.0
 11
-28.281112
 21
-114.632646
 31
0.0
  0
LINE
  5
191
100
AcDbEntity
  8
2
370
    50
100
AcDbLine
 10
-28.982074
 20
-90.632646
 30
0.0
 11
-25.008454
 21
-90.632646
 31
0.0
  0
LINE
  5
192
100
AcDbEntity
  8
2
370
    50
100
AcDbLine
 10
-60.982074
 20
-90.132646
 30
0.0
 11
-60.982074
 21
-115.132646
 31
0.0
  0
LINE
  5
193
100
AcDbEntity
  8
2
370
    25
100
AcDbLine
 10
-26.982074
 20
-113.882646
 30
0.0
 11
-25.008454
 21
-113.882646
 31
0.0
  0
LINE
  5
194
100
AcDbEntity
  8
2
370
    25
100
AcDbLine
 10
-26.982074
 20
-91.382646
 30
0.0
 11
-25.008454
 21
-91.382646
 31
0.0
  0
LINE
  5
195
100
AcDbEntity
  8
2
370
    50
100
AcDbLine
 10
-26.982074
 20
-91.382646
 30
0.0
 11
-28.281112
 21
-90.632646
 31
0.0
  0
LINE
  5
196
100
AcDbEntity
  8
2
370
    50
100
AcDbLine
 10
-25.008454
 20
-88.632646
 30
0.0
 11
-25.008454
 21
-116.632646
 31
0.0
  0
LINE
  5
197
100
AcDbEntity
  8
2
370
    50
100
AcDbLine
 10
-6.508335
 20
-88.632646
 30
0.0
 11
-6.508335
 21
-116.632646
 31
0.0
  0
LINE
  5
198
100
AcDbEntity
  8
2
370
    50
100
AcDbLine
 10
-24.008454
 20
-87.632646
 30
0.0
 11
-7.508335
 21
-87.632646
 31
0.0
  0
LINE
  5
199
100
AcDbEntity
  8
2
370
    50
100
AcDbLine
 10
-24.008454
 20
-117.632646
 30
0.0
 11
-7.508335
 21
-117.632646
 31
0.0
  0
LINE
  5
19A
100
AcDbEntity
  8
2
370
    50
100
AcDbLine
 10
-6.508335
 20
-88.632646
 30
0.0
 11
-7.508335
 21
-87.632646
 31
0.0
  0
LINE
  5
19B
100
AcDbEntity
  8
2
370
    50
100
AcDbLine
 10
-25.008454
 20
-88.632646
 30
0.0
 11
-24.008454
 21
-87.632646
 31
0.0
  0
LINE
  5
19C
100
AcDbEntity
  8
2
370
    50
100
AcDbLine
 10
-25.008454
 20
-116.632646
 30
0.0
 11
-24.008454
 21
-117.632646
 31
0.0
  0
LINE
  5
19D
100
AcDbEntity
  8
2
370
    50
100
AcDbLine
 10
-6.508335
 20
-116.632646
 30
0.0
 11
-7.508335
 21
-117.632646
 31
0.0
  0
LINE
  5
19E
100
AcDbEntity
  8
2
370
    50
100
AcDbLine
 10
-7.508335
 20
-108.017811
 30
0.0
 11
-24.008454
 21
-108.017811
 31
0.0
  0
LINE
  5
19F
100
AcDbEntity
  8
2
370
    50
100
AcDbLine
 10
-24.008454
 20
-112.064419
 30
0.0
 11
-7.508335
 21
-112.064419
 31
0.0
  0
LINE
  5
1A0
100
AcDbEntity
  8
2
370
    50
100
AcDbLine
 10
-7.508335
 20
-112.064419
 30
0.0
 11
-7.508335
 21
-108.017811
 31
0.0
  0
LINE
  5
1A1
100
AcDbEntity
  8
2
370
    50
100
AcDbLine
 10
-24.008454
 20
-112.064419
 30
0.0
 11
-24.008454
 21
-108.017811
 31
0.0
  0
ARC
  5
1A2
100
AcDbEntity
  8
2
370
    50
100
AcDbCircle
 10
-10.87979
 20
-114.848533
 30
0.0
 40
4.372413
100
AcDbArc
 50
320.450448
 51
39.549552
  0
ARC
  5
1A3
100
AcDbEntity
  8
2
370
    50
100
AcDbCircle
 10
-21.508335
 20
-102.632646
 30
0.0
 40
15.0
100
AcDbArc
 50
338.96053
 51
21.03947
  0
ARC
  5
1A4
100
AcDbEntity
  8
2
370
    50
100
AcDbCircle
 10
-10.008454
 20
-102.632646
 30
0.0
 40
15.0
100
AcDbArc
 50
158.96053
 51
201.03947
  0
ARC
  5
1A5
100
AcDbEntity
  8
2
370
    50
100
AcDbCircle
 10
-20.637
 20
-114.848533
 30
0.0
 40
4.372413
100
AcDbArc
 50
140.450448
 51
219.549552
  0
LINE
  5
1A6
100
AcDbEntity
  8
2
370
    50
100
AcDbLine
 10
-29.982074
 20
-94.356838
 30
0.0
 11
-29.982074
 21
-97.533627
 31
0.0
  0
LINE
  5
1A7
100
AcDbEntity
  8
2
370
    50
100
AcDbLine
 10
-29.982074
 20
-97.533627
 30
0.0
 11
-59.982074
 21
-97.533627
 31
0.0
  0
LINE
  5
1A8
100
AcDbEntity
  8
2
370
    50
100
AcDbLine
 10
-29.982074
 20
-94.356838
 30
0.0
 11
-59.982074
 21
-94.356838
 31
0.0
  0
LINE
  5
1A9
100
AcDbEntity
  8
2
370
    50
100
AcDbLine
 10
-59.982074
 20
-94.356838
 30
0.0
 11
-59.982074
 21
-97.533627
 31
0.0
  0
ARC
  5
1AA
100
AcDbEntity
  8
2
370
    50
100
AcDbCircle
 10
-32.891638
 20
-91.744742
 30
0.0
 40
3.910065
100
AcDbArc
 50
318.083714
 51
41.916286
  0
ARC
  5
1AB
100
AcDbEntity
  8
2
370
    50
100
AcDbCircle
 10
-57.072509
 20
-91.744742
 30
0.0
 40
3.910065
100
AcDbArc
 50
138.083714
 51
221.916286
  0
LINE
  5
1AC
100
AcDbEntity
  8
2
370
    50
100
AcDbLine
 10
-7.508335
 20
-93.200873
 30
0.0
 11
-7.508335
 21
-97.247481
 31
0.0
  0
LINE
  5
1AD
100
AcDbEntity
  8
2
370
    50
100
AcDbLine
 10
-24.008454
 20
-93.200873
 30
0.0
 11
-24.008454
 21
-97.247481
 31
0.0
  0
LINE
  5
1AE
100
AcDbEntity
  8
2
370
    50
100
AcDbLine
 10
-7.508335
 20
-97.247481
 30
0.0
 11
-24.008454
 21
-97.247481
 31
0.0
  0
LINE
  5
1AF
100
AcDbEntity
  8
2
370
    50
100
AcDbLine
 10
-24.008454
 20
-93.200873
 30
0.0
 11
-7.508335
 21
-93.200873
 31
0.0
  0
ARC
  5
1B0
100
AcDbEntity
  8
2
370
    50
100
AcDbCircle
 10
-20.637
 20
-90.41676
 30
0.0
 40
4.372413
100
AcDbArc
 50
140.450448
 51
219.549552
  0
ARC
  5
1B1
100
AcDbEntity
  8
2
370
    50
100
AcDbCircle
 10
-10.87979
 20
-90.41676
 30
0.0
 40
4.372413
100
AcDbArc
 50
320.450448
 51
39.549552
  0
LINE
  5
1B2
100
AcDbEntity
  8
2
370
    50
100
AcDbLine
 10
-6.508335
 20
-113.632646
 30
0.0
 11
-6.508335
 21
-91.632646
 31
0.0
  0
LINE
  5
1B3
100
AcDbEntity
  8
2
370
    50
100
AcDbLine
 10
220.972357
 20
-113.632646
 30
0.0
 11
220.972357
 21
-91.632646
 31
0.0
  0
LINE
  5
1B4
100
AcDbEntity
  8
2
370
    50
100
AcDbLine
 10
228.472357
 20
-90.632646
 30
0.0
 11
221.972357
 21
-90.632646
 31
0.0
  0
LINE
  5
1B5
100
AcDbEntity
  8
2
370
    50
100
AcDbLine
 10
221.972357
 20
-90.632646
 30
0.0
 11
220.972357
 21
-91.632646
 31
0.0
  0
LINE
  5
1B6
100
AcDbEntity
  8
2
370
    50
100
AcDbLine
 10
229.472357
 20
-91.632646
 30
0.0
 11
228.472357
 21
-90.632646
 31
0.0
  0
LINE
  5
1B7
100
AcDbEntity
  8
2
370
    50
100
AcDbLine
 10
221.972357
 20
-114.632646
 30
0.0
 11
220.972357
 21
-113.632646
 31
0.0
  0
LINE
  5
1B8
100
AcDbEntity
  8
2
370
    50
100
AcDbLine
 10
228.472357
 20
-114.632646
 30
0.0
 11
221.972357
 21
-114.632646
 31
0.0
  0
LINE
  5
1B9
100
AcDbEntity
  8
2
370
    50
100
AcDbLine
 10
229.472357
 20
-113.632646
 30
0.0
 11
228.472357
 21
-114.632646
 31
0.0
  0
LINE
  5
1BA
100
AcDbEntity
  8
2
370
    50
100
AcDbLine
 10
221.972357
 20
-95.504283
 30
0.0
 11
221.972357
 21
-97.836815
 31
0.0
  0
ARC
  5
1BB
100
AcDbEntity
  8
2
370
    50
100
AcDbCircle
 10
232.972357
 20
-102.632646
 30
0.0
 40
12.0
100
AcDbArc
 50
156.443536
 51
203.556464
  0
ARC
  5
1BC
100
AcDbEntity
  8
2
370
    50
100
AcDbCircle
 10
224.438244
 20
-93.068464
 30
0.0
 40
3.466094
100
AcDbArc
 50
135.351466
 51
224.648534
  0
ARC
  5
1BD
100
AcDbEntity
  8
2
370
    50
100
AcDbCircle
 10
217.472357
 20
-102.632646
 30
0.0
 40
12.0
100
AcDbArc
 50
336.443536
 51
23.556464
  0
LINE
  5
1BE
100
AcDbEntity
  8
2
370
    50
100
AcDbLine
 10
228.472357
 20
-95.504283
 30
0.0
 11
228.472357
 21
-97.836815
 31
0.0
  0
ARC
  5
1BF
100
AcDbEntity
  8
2
370
    50
100
AcDbCircle
 10
226.00647
 20
-93.068464
 30
0.0
 40
3.466094
100
AcDbArc
 50
315.351466
 51
44.648534
  0
LINE
  5
1C0
100
AcDbEntity
  8
2
370
    50
100
AcDbLine
 10
221.972357
 20
-97.836815
 30
0.0
 11
228.472357
 21
-97.836815
 31
0.0
  0
LINE
  5
1C1
100
AcDbEntity
  8
2
370
    50
100
AcDbLine
 10
221.972357
 20
-95.504283
 30
0.0
 11
228.472357
 21
-95.504283
 31
0.0
  0
LINE
  5
1C2
100
AcDbEntity
  8
2
370
    50
100
AcDbLine
 10
221.972357
 20
-107.428478
 30
0.0
 11
228.472357
 21
-107.428478
 31
0.0
  0
LINE
  5
1C3
100
AcDbEntity
  8
2
370
    50
100
AcDbLine
 10
221.972357
 20
-109.76101
 30
0.0
 11
221.972357
 21
-107.428478
 31
0.0
  0
LINE
  5
1C4
100
AcDbEntity
  8
2
370
    50
100
AcDbLine
 10
221.972357
 20
-109.76101
 30
0.0
 11
228.472357
 21
-109.76101
 31
0.0
  0
LINE
  5
1C5
100
AcDbEntity
  8
2
370
    50
100
AcDbLine
 10
228.472357
 20
-109.76101
 30
0.0
 11
228.472357
 21
-107.428478
 31
0.0
  0
ARC
  5
1C6
100
AcDbEntity
  8
2
370
    50
100
AcDbCircle
 10
226.00647
 20
-112.196828
 30
0.0
 40
3.466094
100
AcDbArc
 50
315.351466
 51
44.648534
  0
ARC
  5
1C7
100
AcDbEntity
  8
2
370
    50
100
AcDbCircle
 10
224.438244
 20
-112.196828
 30
0.0
 40
3.466094
100
AcDbArc
 50
135.351466
 51
224.648534
  0
LINE
  5
1C8
100
AcDbEntity
  8
2
370
    50
100
AcDbLine
 10
109.47264
 20
102.297285
 30
0.0
 11
109.47264
 21
80.297285
 31
0.0
  0
POINT
  5
1C9
100
AcDbEntity
  8
2
370
    50
100
AcDbPoint
 10
109.47264
 20
91.297285
 30
0.0
  0
POINT
  5
1CA
100
AcDbEntity
  8
2
370
    50
100
AcDbPoint
 10
109.47264
 20
91.297285
 30
0.0
  0
LINE
  5
1CB
100
AcDbEntity
  8
2
370
    25
100
AcDbLine
 10
-184.803373
 20
101.464817
 30
0.0
 11
-184.803373
 21
81.129754
 31
0.0
  0
LINE
  5
1CC
100
AcDbEntity
  8
2
370
    50
100
AcDbLine
 10
-172.868404
 20
101.774785
 30
0.0
 11
-172.868404
 21
80.819785
 31
0.0
  0
LINE
  5
1CD
100
AcDbEntity
  8
2
370
    50
100
AcDbLine
 10
-277.868687
 20
-92.155146
 30
0.0
 11
-277.868687
 21
-113.110146
 31
0.0
  0
LINE
  5
1CE
100
AcDbEntity
  8
2
370
    25
100
AcDbLine
 10
-289.803656
 20
-92.465115
 30
0.0
 11
-289.803656
 21
-112.800178
 31
0.0
  0
LINE
  5
1CF
100
AcDbEntity
  8
2
370
    50
100
AcDbLine
 10
-149.554665
 20
121.474785
 30
0.0
 11
-151.554665
 21
121.474785
 31
0.0
  0
DIMENSION
  5
1D0
100
AcDbEntity
  8
3
370
    25
100
AcDbDimension
  2
*D0
 10
294.472357
 20
-20.952081
 30
0.0
 11
279.472357
 21
-15.952081
 31
0.0
 71
     0
 72
     0
 41
0.0
 42
0.0
  3
Standard
100
AcDbAlignedDimension
 13
264.472357
 23
-44.818101
 33
0.0
 14
294.472357
 24
-93.055146
 34
0.0
100
AcDbRotatedDimension
  0
LWPOLYLINE
  5
1D1
100
AcDbEntity
  8
3
370
    25
100
AcDbPolyline
 90
        3
 70
     0
 10
168.837627
 20
80.838193
 10
196.502148
 20
56.386023
 10
242.330265
 20
56.386023
  0
LINE
  5
1D6
100
AcDbEntity
  8
3
370
    25
100
AcDbLine
 10
171.732581
 20
78.279395
 30
0.0
 11
172.418209
 21
79.055096
 31
0.0
  0
LINE
  5
1D7
100
AcDbEntity
  8
3
370
    25
100
AcDbLine
 10
172.418209
 20
79.055096
 30
0.0
 11
168.837627
 21
80.838193
 31
0.0
  0
LINE
  5
1D8
100
AcDbEntity
  8
3
370
    25
100
AcDbLine
 10
168.837627
 20
80.838193
 30
0.0
 11
171.046954
 21
77.503695
 31
0.0
  0
LINE
  5
1D9
100
AcDbEntity
  8
3
370
    25
100
AcDbLine
 10
171.046954
 20
77.503695
 30
0.0
 11
171.732581
 21
78.279395
 31
0.0
  0
TEXT
  5
1DA
100
AcDbEntity
  8
3
370
    50
100
AcDbText
 10
198.715939
 20
56.878637
 30
0.0
 40
6.4
  1
ＰＪ１／２
 72
     5
 11
229.435939
 21
56.878637
 31
0.0
100
AcDbText
  0
TEXT
  5
1DB
100
AcDbEntity
  8
3
370
    50
100
AcDbText
 10
196.348942
 20
48.704421
 30
0.0
 40
6.4
  1
（給水栓ネジ）
 72
     5
 11
239.868942
 21
48.704421
 31
0.0
100
AcDbText
  0
TEXT
  5
1DC
100
AcDbEntity
  8
3
370
    50
100
AcDbText
 10
300.110062
 20
-142.266093
 30
0.0
 40
6.4
  1
（給水栓ネジ）
 72
     5
 11
343.630062
 21
-142.266093
 31
0.0
100
AcDbText
  0
LWPOLYLINE
  5
1DD
100
AcDbEntity
  8
3
370
    25
100
AcDbPolyline
 90
        3
 70
     0
 10
288.801765
 20
-113.328976
 10
299.952797
 20
-134.535244
 10
341.978127
 20
-134.535244
  0
LINE
  5
1E2
100
AcDbEntity
  8
3
370
    25
100
AcDbLine
 10
290.599988
 20
-116.748713
 30
0.0
 11
291.516304
 21
-116.26688
 31
0.0
  0
LINE
  5
1E3
100
AcDbEntity
  8
3
370
    25
100
AcDbLine
 10
291.516304
 20
-116.26688
 30
0.0
 11
288.801765
 21
-113.328976
 31
0.0
  0
LINE
  5
1E4
100
AcDbEntity
  8
3
370
    25
100
AcDbLine
 10
288.801765
 20
-113.328976
 30
0.0
 11
289.683672
 21
-117.230545
 31
0.0
  0
LINE
  5
1E5
100
AcDbEntity
  8
3
370
    25
100
AcDbLine
 10
289.683672
 20
-117.230545
 30
0.0
 11
290.599988
 21
-116.748713
 31
0.0
  0
TEXT
  5
1E6
100
AcDbEntity
  8
3
370
    50
100
AcDbText
 10
300.111092
 20
-133.08909
 30
0.0
 40
6.4
  1
ＰＪ１／２
 72
     5
 11
330.831092
 21
-133.08909
 31
0.0
100
AcDbText
  0
LINE
  5
1E7
100
AcDbEntity
  8
3
370
    25
  6
CENTER
100
AcDbLine
 10
144.47264
 20
149.11183
 30
0.0
 11
144.47264
 21
67.697939
 31
0.0
  0
LINE
  5
1E8
100
AcDbEntity
  8
3
370
    25
  6
CENTER
100
AcDbLine
 10
264.472357
 20
-44.818101
 30
0.0
 11
264.472357
 21
-126.231992
 31
0.0
  0
TEXT
  5
1E9
100
AcDbEntity
  8
3
370
    50
100
AcDbText
 10
291.167847
 20
-239.947845
 30
0.0
 40
6.0
  1
１　２
 72
     5
 11
307.967847
 21
-239.947845
 31
0.0
100
AcDbText
  0
TEXT
  5
1EA
100
AcDbEntity
  8
3
370
    50
100
AcDbText
 10
233.439911
 20
-272.173828
 30
0.0
 40
6.0
  1
外観寸法図
 72
     5
 11
262.239911
 21
-272.173828
 31
0.0
100
AcDbText
  0
TEXT
  5
1EB
100
AcDbEntity
  8
3
370
    50
100
AcDbText
 10
68.050728
 20
-227.043716
 30
0.0
 40
6.0
  1
可変式ストレート形止水栓
 72
     5
 11
138.850728
 21
-227.043716
 31
0.0
100
AcDbText
  0
TEXT
  5
1EC
100
AcDbEntity
  8
3
370
    50
100
AcDbText
 10
334.415771
 20
-271.619293
 30
0.0
 40
7.0
  1
５０２１０５
 72
     5
 11
375.015771
 21
-271.619293
 31
0.0
100
AcDbText
  0
TEXT
  5
1ED
100
AcDbEntity
  8
3
370
    50
100
AcDbText
 10
346.376556
 20
-87.407276
 30
0.0
 40
7.0
  1
（６０）
 50
90.0
 72
     5
 11
346.376556
 21
-60.807276
 31
0.0
100
AcDbText
  0
DIMENSION
  5
1EE
100
AcDbEntity
  8
3
370
    25
100
AcDbDimension
  2
*D1
 10
347.376556
 20
-44.181907
 30
0.0
 11
344.876556
 21
-73.407276
 31
0.0
 71
     0
 72
     0
 41
0.0
 42
0.0
  3
Standard
100
AcDbAlignedDimension
 13
294.472357
 23
-102.632646
 33
0.0
 14
264.472357
 24
-44.181907
 34
0.0
 50
90.0
100
AcDbRotatedDimension
  0
TEXT
  5
1EF
100
AcDbEntity
  8
3
370
    50
100
AcDbText
 10
-315.008169
 20
-69.412597
 30
0.0
 40
8.0
  1
１３
 72
     5
 11
-300.608169
 21
-69.412597
 31
0.0
100
AcDbText
  0
DIMENSION
  5
1F0
100
AcDbEntity
  8
3
370
    25
100
AcDbDimension
  2
*D2
 10
-277.922815
 20
-70.412597
 30
0.0
 11
-284.465492
 21
-68.412597
 31
0.0
 71
     0
 72
     0
 41
0.0
 42
0.0
  3
Standard
100
AcDbAlignedDimension
 13
-291.008169
 23
-93.669628
 33
0.0
 14
-277.922815
 24
-92.209274
 34
0.0
100
AcDbRotatedDimension
  0
LWPOLYLINE
  5
1F1
100
AcDbEntity
  8
3
370
    25
100
AcDbPolyline
 90
        2
 70
     0
 10
-148.729267
 20
-93.56906
 10
-136.912758
 20
-79.388544
  0
TEXT
  5
1F5
100
AcDbEntity
  8
3
370
    50
100
AcDbText
 10
-25.267906
 20
-19.952081
 30
0.0
 40
8.0
  1
５５５
 72
     5
 11
-2.867906
 21
-19.952081
 31
0.0
100
AcDbText
  0
DIMENSION
  5
1F6
100
AcDbEntity
  8
3
370
    25
100
AcDbDimension
  2
*D3
 10
264.472357
 20
-20.952081
 30
0.0
 11
-13.267906
 21
-18.952081
 31
0.0
 71
     0
 72
     0
 41
0.0
 42
0.0
  3
Standard
100
AcDbAlignedDimension
 13
-291.008169
 23
-93.669628
 33
0.0
 14
264.472357
 24
-58.317403
 34
0.0
100
AcDbRotatedDimension
  0
TEXT
  5
1F7
100
AcDbEntity
  8
3
370
    50
100
AcDbText
 10
-10.267906
 20
4.71691
 30
0.0
 40
8.0
  1
５８５
 72
     5
 11
12.132094
 21
4.71691
 31
0.0
100
AcDbText
  0
DIMENSION
  5
1F8
100
AcDbEntity
  8
3
370
    25
100
AcDbDimension
  2
*D4
 10
294.472357
 20
3.71691
 30
0.0
 11
1.732094
 21
5.71691
 31
0.0
 71
     0
 72
     0
 41
0.0
 42
0.0
  3
Standard
100
AcDbAlignedDimension
 13
-291.008169
 23
-93.669628
 33
0.0
 14
294.472357
 24
-93.055146
 34
0.0
100
AcDbRotatedDimension
  0
LWPOLYLINE
  5
1F9
100
AcDbEntity
  8
3
370
    25
100
AcDbPolyline
 90
        2
 70
     0
 10
52.569958
 20
-96.515037
 10
60.492719
 20
-76.827259
  0
TEXT
  5
1FD
100
AcDbEntity
  8
3
370
    50
100
AcDbText
 10
50.312694
 20
-74.864894
 30
0.0
 40
6.4
  1
給水管（可変側）
 72
     5
 11
100.232694
 21
-74.864894
 31
0.0
100
AcDbText
  0
TEXT
  5
1FE
100
AcDbEntity
  8
3
370
    50
100
AcDbText
 10
-145.547852
 20
-78.014926
 30
0.0
 40
6.4
  1
給水管（固定側）
 72
     5
 11
-95.627852
 21
-78.014926
 31
0.0
100
AcDbText
  0
LWPOLYLINE
  5
1FF
100
AcDbEntity
  8
3
370
    25
100
AcDbPolyline
 90
        3
 70
     0
 10
-284.099659
 20
-112.969879
 10
-297.757267
 20
-136.129601
 10
-324.035587
 20
-136.129601
  0
LINE
  5
204
100
AcDbEntity
  8
3
370
    25
100
AcDbLine
 10
-286.062289
 20
-116.297985
 30
0.0
 11
-285.170526
 21
-116.82387
 31
0.0
  0
LINE
  5
205
100
AcDbEntity
  8
3
370
    25
100
AcDbLine
 10
-285.170526
 20
-116.82387
 30
0.0
 11
-284.099659
 21
-112.969879
 31
0.0
  0
LINE
  5
206
100
AcDbEntity
  8
3
370
    25
100
AcDbLine
 10
-284.099659
 20
-112.969879
 30
0.0
 11
-286.954052
 21
-115.7721
 31
0.0
  0
LINE
  5
207
100
AcDbEntity
  8
3
370
    25
100
AcDbLine
 10
-286.954052
 20
-115.7721
 30
0.0
 11
-286.062289
 21
-116.297985
 31
0.0
  0
TEXT
  5
208
100
AcDbEntity
  8
3
370
    50
100
AcDbText
 10
-325.114884
 20
-134.739632
 30
0.0
 40
6.4
  1
Ｒ１／２
 72
     5
 11
-300.794884
 21
-134.739632
 31
0.0
100
AcDbText
  0
TEXT
  5
209
100
AcDbEntity
  8
3
370
    50
100
AcDbText
 10
-210.007885
 20
128.730985
 30
0.0
 40
8.0
  1
１３
 72
     5
 11
-195.607885
 21
128.730985
 31
0.0
100
AcDbText
  0
DIMENSION
  5
20A
100
AcDbEntity
  8
3
370
    25
100
AcDbDimension
  2
*D5
 10
-172.922532
 20
127.730985
 30
0.0
 11
-179.465209
 21
129.730985
 31
0.0
 71
     0
 72
     0
 41
0.0
 42
0.0
  3
Standard
100
AcDbAlignedDimension
 13
-186.007885
 23
100.260304
 33
0.0
 14
-172.922532
 24
101.720657
 34
0.0
100
AcDbRotatedDimension
  0
LWPOLYLINE
  5
20B
100
AcDbEntity
  8
3
370
    25
100
AcDbPolyline
 90
        2
 70
     0
 10
-57.172221
 20
100.596684
 10
-39.556018
 20
117.430853
  0
TEXT
  5
20F
100
AcDbEntity
  8
3
370
    50
100
AcDbText
 10
-32.767623
 20
162.302625
 30
0.0
 40
8.0
  1
３３０
 72
     5
 11
-10.367623
 21
162.302625
 31
0.0
100
AcDbText
  0
DIMENSION
  5
210
100
AcDbEntity
  8
3
370
    25
100
AcDbDimension
  2
*D6
 10
144.47264
 20
161.302625
 30
0.0
 11
-20.767623
 21
163.302625
 31
0.0
 71
     0
 72
     0
 41
0.0
 42
0.0
  3
Standard
100
AcDbAlignedDimension
 13
-186.007885
 23
100.260304
 33
0.0
 14
144.47264
 24
149.11183
 34
0.0
100
AcDbRotatedDimension
  0
TEXT
  5
211
100
AcDbEntity
  8
3
370
    50
100
AcDbText
 10
-17.767623
 20
185.542172
 30
0.0
 40
8.0
  1
３６０
 72
     5
 11
4.632377
 21
185.542172
 31
0.0
100
AcDbText
  0
DIMENSION
  5
212
100
AcDbEntity
  8
3
370
    25
100
AcDbDimension
  2
*D7
 10
174.47264
 20
184.542172
 30
0.0
 11
-5.767623
 21
186.542172
 31
0.0
 71
     0
 72
     0
 41
0.0
 42
0.0
  3
Standard
100
AcDbAlignedDimension
 13
-186.007885
 23
100.260304
 33
0.0
 14
174.47264
 24
100.874785
 34
0.0
100
AcDbRotatedDimension
  0
DIMENSION
  5
213
100
AcDbEntity
  8
3
370
    25
100
AcDbDimension
  2
*D8
 10
174.47264
 20
161.302625
 30
0.0
 11
159.47264
 21
166.302625
 31
0.0
 71
     0
 72
     0
 41
0.0
 42
0.0
  3
Standard
100
AcDbAlignedDimension
 13
144.47264
 23
149.11183
 33
0.0
 14
174.47264
 24
100.874785
 34
0.0
100
AcDbRotatedDimension
  0
TEXT
  5
214
100
AcDbEntity
  8
3
370
    50
100
AcDbText
 10
-49.667122
 20
119.3327
 30
0.0
 40
6.4
  1
給水管（固定側）
 72
     5
 11
0.252879
 21
119.3327
 31
0.0
100
AcDbText
  0
LWPOLYLINE
  5
215
100
AcDbEntity
  8
3
370
    25
100
AcDbPolyline
 90
        3
 70
     0
 10
-179.59846
 20
80.980304
 10
-193.256068
 20
57.820583
 10
-219.534389
 20
57.820583
  0
LINE
  5
21A
100
AcDbEntity
  8
3
370
    25
100
AcDbLine
 10
-181.56109
 20
77.652199
 30
0.0
 11
-180.669327
 21
77.126314
 31
0.0
  0
LINE
  5
21B
100
AcDbEntity
  8
3
370
    25
100
AcDbLine
 10
-180.669327
 20
77.126314
 30
0.0
 11
-179.59846
 21
80.980304
 31
0.0
  0
LINE
  5
21C
100
AcDbEntity
  8
3
370
    25
100
AcDbLine
 10
-179.59846
 20
80.980304
 30
0.0
 11
-182.452853
 21
78.178084
 31
0.0
  0
LINE
  5
21D
100
AcDbEntity
  8
3
370
    25
100
AcDbLine
 10
-182.452853
 20
78.178084
 30
0.0
 11
-181.56109
 21
77.652199
 31
0.0
  0
TEXT
  5
21E
100
AcDbEntity
  8
3
370
    50
100
AcDbText
 10
-220.613686
 20
59.210551
 30
0.0
 40
6.4
  1
Ｒ１／２
 72
     5
 11
-196.293685
 21
59.210551
 31
0.0
100
AcDbText
  0
LINE
  5
21F
100
AcDbEntity
  8
3
370
    25
  6
CENTER
100
AcDbLine
 10
144.47264
 20
149.11183
 30
0.0
 11
144.47264
 21
67.697939
 31
0.0
  0
TEXT
  5
220
100
AcDbEntity
  8
3
370
    50
100
AcDbText
 10
67.925156
 20
-237.151764
 30
0.0
 40
6.0
  1
Ｋ１３－２１ＧＡＸ－Ｌ
 72
     5
 11
132.725156
 21
-237.151764
 31
0.0
100
AcDbText
  0
ENDSEC
  0
SECTION
  2
OBJECTS
  0
DICTIONARY
  5
286
100
AcDbDictionary
280
     0
281
     1
  3
ACAD_GROUP
350
287
  3
ACAD_MLINESTYLE
350
288
  0
DICTIONARY
  5
287
102
{ACAD_REACTORS
330
286
102
}
100
AcDbDictionary
280
     0
281
     1
  0
DICTIONARY
  5
288
102
{ACAD_REACTORS
330
286
102
}
100
AcDbDictionary
280
     0
281
     1
  3
Standard
350
289
  0
MLINESTYLE
  5
289
102
{ACAD_REACTORS
330
288
102
}
100
AcDbMlineStyle
  2
Standard
 70
     0
  3

 62
     0
 51
90.0
 52
90.0
 71
     2
 49
0.5
 62
   256
  6
ByLayer
 49
-0.5
 62
   256
  6
ByLayer
  0
ENDSEC
  0
EOF
