  0
SECTION
  2
HEADER
  9
$ACADVER
  1
AC1015
  9
$ACADMAINTVER
 70
     6
  9
$DWGCODEPAGE
  3
ANSI_932
  9
$INSBASE
 10
0.0
 20
0.0
 30
0.0
  9
$EXTMIN
 10
-420.5
 20
-297.0
 30
1.000000E+20
  9
$EXTMAX
 10
420.5
 20
297.0
 30
-1.000000E+20
  9
$LIMMIN
 10
-420.5
 20
-297.0
  9
$LIMMAX
 10
420.5
 20
297.0
  9
$ORTHOMODE
 70
     0
  9
$REGENMODE
 70
     1
  9
$FILLMODE
 70
     1
  9
$QTEXTMODE
 70
     0
  9
$MIRRTEXT
 70
     1
  9
$LTSCALE
 40
1.0
  9
$ATTMODE
 70
     1
  9
$TEXTSIZE
 40
0.2
  9
$TRACEWID
 40
0.05
  9
$TEXTSTYLE
  7
STANDARD
  9
$CLAYER
  8
0
  9
$CELTYPE
  6
CONTINUOUS
  9
$CECOLOR
 62
   256
  9
$CELTSCALE
 40
1.0
  9
$DISPSILH
 70
     0
  9
$DIMSCALE
 40
1.0
  9
$DIMASZ
 40
2.0
  9
$DIMEXO
 40
1.0
  9
$DIMDLI
 40
0.38
  9
$DIMRND
 40
0.0
  9
$DIMDLE
 40
0.0
  9
$DIMEXE
 40
2.0
  9
$DIMTP
 40
0.0
  9
$DIMTM
 40
0.0
  9
$DIMTXT
 40
4.0
  9
$DIMCEN
 40
0.09
  9
$DIMTSZ
 40
0.0
  9
$DIMTOL
 70
     0
  9
$DIMLIM
 70
     0
  9
$DIMTIH
 70
     0
  9
$DIMTOH
 70
     0
  9
$DIMSE1
 70
     0
  9
$DIMSE2
 70
     0
  9
$DIMTAD
 70
     1
  9
$DIMZIN
 70
     0
  9
$DIMBLK
  1

  9
$DIMASO
 70
     1
  9
$DIMSHO
 70
     1
  9
$DIMPOST
  1

  9
$DIMAPOST
  1

  9
$DIMALT
 70
     0
  9
$DIMALTD
 70
     2
  9
$DIMALTF
 40
25.4
  9
$DIMLFAC
 40
1.0
  9
$DIMTOFL
 70
     0
  9
$DIMTVP
 40
0.0
  9
$DIMTIX
 70
     0
  9
$DIMSOXD
 70
     0
  9
$DIMSAH
 70
     0
  9
$DIMBLK1
  1

  9
$DIMBLK2
  1

  9
$DIMSTYLE
  2
Standard
  9
$DIMCLRD
 70
     0
  9
$DIMCLRE
 70
     0
  9
$DIMCLRT
 70
     0
  9
$DIMTFAC
 40
1.0
  9
$DIMGAP
 40
0.5
  9
$DIMJUST
 70
     0
  9
$DIMSD1
 70
     0
  9
$DIMSD2
 70
     0
  9
$DIMTOLJ
 70
     1
  9
$DIMTZIN
 70
     0
  9
$DIMALTZ
 70
     0
  9
$DIMALTTZ
 70
     0
  9
$DIMUPT
 70
     0
  9
$DIMDEC
 70
     1
  9
$DIMTDEC
 70
     4
  9
$DIMALTU
 70
     2
  9
$DIMALTTD
 70
     2
  9
$DIMTXSTY
  7
STANDARD
  9
$DIMAUNIT
 70
     0
  9
$DIMADEC
 70
     0
  9
$DIMALTRND
 40
0.0
  9
$DIMAZIN
 70
     0
  9
$DIMDSEP
 70
     0
  9
$DIMATFIT
 70
     3
  9
$DIMFRAC
 70
     0
  9
$DIMLDRBLK
  1

  9
$DIMLUNIT
 70
     2
  9
$DIMLWD
 70
     0
  9
$DIMLWE
 70
     0
  9
$DIMTMOVE
 70
     0
  9
$LUNITS
 70
     2
  9
$LUPREC
 70
     4
  9
$SKETCHINC
 40
0.1
  9
$FILLETRAD
 40
0.0
  9
$AUNITS
 70
     0
  9
$AUPREC
 70
     0
  9
$MENU
  1
acad
  9
$ELEVATION
 40
0.0
  9
$PELEVATION
 40
0.0
  9
$THICKNESS
 40
0.0
  9
$LIMCHECK
 70
     0
  9
$CHAMFERA
 40
0.0
  9
$CHAMFERB
 40
0.0
  9
$CHAMFERC
 40
0.0
  9
$CHAMFERD
 40
0.0
  9
$SKPOLY
 70
     0
  9
$TDCREATE
 40
2453056.000000000
  9
$TDUCREATE
 40
0.000000000
  9
$TDUPDATE
 40
0.000000000
  9
$TDUUPDATE
 40
2447892.625000000
  9
$TDINDWG
 40
0.0000000000
  9
$TDUSRTIMER
 40
0.0000000000
  9
$USRTIMER
 70
     1
  9
$ANGBASE
 50
0.0
  9
$ANGDIR
 70
     0
  9
$PDMODE
 70
     0
  9
$PDSIZE
 40
0.0
  9
$PLINEWID
 40
0.0
  9
$SPLFRAME
 70
     0
  9
$SPLINETYPE
 70
     6
  9
$SPLINESEGS
 70
     8
  9
$HANDSEED
  5
135
  9
$SURFTAB1
 70
     6
  9
$SURFTAB2
 70
     6
  9
$SURFTYPE
 70
     6
  9
$SURFU
 70
     6
  9
$SURFV
 70
     6
  9
$UCSBASE
  2

  9
$UCSNAME
  2

  9
$UCSORG
 10
0.0
 20
0.0
 30
0.0
  9
$UCSXDIR
 10
1.0
 20
0.0
 30
0.0
  9
$UCSYDIR
 10
0.0
 20
1.0
 30
0.0
  9
$UCSORTHOREF
  2

  9
$UCSORTHOVIEW
 70
     0
  9
$UCSORGTOP
 10
0.0
 20
0.0
 30
0.0
  9
$UCSORGBOTTOM
 10
0.0
 20
0.0
 30
0.0
  9
$UCSORGLEFT
 10
0.0
 20
0.0
 30
0.0
  9
$UCSORGRIGHT
 10
0.0
 20
0.0
 30
0.0
  9
$UCSORGFRONT
 10
0.0
 20
0.0
 30
0.0
  9
$UCSORGBACK
 10
0.0
 20
0.0
 30
0.0
  9
$PUCSBASE
  2

  9
$PUCSNAME
  2

  9
$PUCSORG
 10
0.0
 20
0.0
 30
0.0
  9
$PUCSXDIR
 10
1.0
 20
0.0
 30
0.0
  9
$PUCSYDIR
 10
0.0
 20
1.0
 30
0.0
  9
$PUCSORTHOREF
  2

  9
$PUCSORTHOVIEW
 70
     0
  9
$PUCSORGTOP
 10
0.0
 20
0.0
 30
0.0
  9
$PUCSORGBOTTOM
 10
0.0
 20
0.0
 30
0.0
  9
$PUCSORGLEFT
 10
0.0
 20
0.0
 30
0.0
  9
$PUCSORGRIGHT
 10
0.0
 20
0.0
 30
0.0
  9
$PUCSORGFRONT
 10
0.0
 20
0.0
 30
0.0
  9
$PUCSORGBACK
 10
0.0
 20
0.0
 30
0.0
  9
$USERI1
 70
     0
  9
$USERI2
 70
     0
  9
$USERI3
 70
     0
  9
$USERI4
 70
     0
  9
$USERI5
 70
     0
  9
$USERR1
 40
0.0
  9
$USERR2
 40
0.0
  9
$USERR3
 40
0.0
  9
$USERR4
 40
0.0
  9
$USERR5
 40
0.0
  9
$WORLDVIEW
 70
     1
  9
$SHADEDGE
 70
     3
  9
$SHADEDIF
 70
    70
  9
$TILEMODE
 70
     1
  9
$MAXACTVP
 70
    16
  9
$PINSBASE
 10
0.0
 20
0.0
 30
0.0
  9
$PLIMCHECK
 70
     0
  9
$PEXTMIN
 10
1.000000E+20
 20
1.000000E+20
 30
1.000000E+20
  9
$PEXTMAX
 10
-1.000000E+20
 20
-1.000000E+20
 30
-1.000000E+20
  9
$PLIMMIN
 10
0.0
 20
0.0
  9
$PLIMMAX
 10
12.0
 20
9.0
  9
$UNITMODE
 70
     0
  9
$VISRETAIN
 70
     0
  9
$PLINEGEN
 70
     1
  9
$PSLTSCALE
 70
     0
  9
$TREEDEPTH
 70
  3020
  9
$CMLSTYLE
  2
Standard
  9
$CMLJUST
 70
     0
  9
$CMLSCALE
 40
1.0
  9
$PROXYGRAPHICS
 70
     0
  9
$MEASUREMENT
 70
     0
  9
$CELWEIGHT
370
     0
  9
$ENDCAPS
280
     0
  9
$JOINSTYLE
280
     0
  9
$LWDISPLAY
290
     0
  9
$INSUNITS
 70
     0
  9
$HYPERLINKBASE
  1

  9
$STYLESHEET
  1

  9
$XEDIT
290
     1
  9
$CEPSNTYPE
380
     0
  9
$PSTYLEMODE
290
     1
  9
$FINGERPRINTGUID
  2

  9
$VERSIONGUID
  2

  9
$EXTNAMES
290
     1
  9
$PSVPSCALE
 40
0.0
  0
ENDSEC
  0
SECTION
  2
CLASSES
  0
CLASS
  1
LWPOLYLINE
  2
AcDbPolyline
  3
AutoCAD 2000
 90
        0
280
     0
281
     1
  0
CLASS
  1
IMAGE
  2
AcDbRasterImage
  3
ISM
 90
      127
280
     0
281
     1
  0
CLASS
  1
OLE2FRAME
  2
AcDbOle2Frame
  3
AutoCAD 2000
 90
        0
280
     0
281
     1
  0
CLASS
  1
HATCH
  2
AcDbHatch
  3
AutoCAD 2000
 90
        0
280
     0
281
     1
  0
CLASS
  1
DICTIONARYVAR
  2
AcDbDictionaryVar
  3
AutoCAD 2000
 90
        0
280
     0
281
     0
  0
CLASS
  1
RASTERVARIABLES
  2
AcDbRasterVariables
  3
ISM
 90
        0
280
     0
281
     0
  0
CLASS
  1
IMAGEDEF
  2
AcDbRasterImageDef
  3
ISM
 90
        0
280
     0
281
     0
  0
CLASS
  1
IMAGEDEF_REACTOR
  2
AcDbRasterImageDefReactor
  3
ISM
 90
        1
280
     0
281
     0
  0
CLASS
  1
IDBUFFER
  2
AcDbIdBuffer
  3
AutoCAD 2000
 90
        0
280
     0
281
     0
  0
CLASS
  1
SPATIAL_FILTER
  2
AcDbSpatialFilter
  3
AutoCAD 2000
 90
        0
280
     0
281
     0
  0
CLASS
  1
XRECORD
  2
AcDbXrecord
  3
AutoCAD 2000
 90
        0
280
     0
281
     0
  0
CLASS
  1
SORTENTSTABLE
  2
AcDbSortentsTable
  3
AutoCAD 2000
 90
        0
280
     0
281
     0
  0
CLASS
  1
LAYER_INDEX
  2
AcDbLayerIndex
  3
AutoCAD 2000
 90
        0
280
     0
281
     0
  0
CLASS
  1
SPATIAL_INDEX
  2
AcDbSpatialIndex
  3
AutoCAD 2000
 90
        0
280
     0
281
     0
  0
CLASS
  1
OBJECT_PTR
  2
CAseDLPNTableRecord
  3
"ASE-LPNTableRecord"
 90
        1
280
     0
281
     0
  0
CLASS
  1
LAYOUT
  2
AcDbLayout
  3
AutoCAD 2000
 90
        0
280
     0
281
     0
  0
CLASS
  1
PLOTSETTINGS
  2
AcDbPlotSettings
  3
AutoCAD 2000
 90
        0
280
     0
281
     0
  0
CLASS
  1
ACDBDICTIONARYWDFLT
  2
AcDbDictionaryWithDefault
  3
AutoCAD 2000
 90
        0
280
     0
281
     0
  0
CLASS
  1
ACDBPLACEHOLDER
  2
AcDbPlaceHolder
  3
AutoCAD 2000
 90
        0
280
     0
281
     0
  0
CLASS
  1
VBA_PROJECT
  2
AcDbVbaProject
  3
acadvba
 90
        0
280
     0
281
     0
  0
CLASS
  1
WIPEOUT
  2
AcDbWipeout
  3
WipeOut|AutoCAD Express Tool|expresstools@autodesk.com
 90
      127
280
     0
281
     1
  0
CLASS
  1
WIPEOUTVARIABLES
  2
AcDbWipeoutVariables
  3
WipeOut|AutoCAD Express Tool|expresstools@autodesk.com
 90
        0
280
     0
281
     0
  0
CLASS
  1
RTEXT
  2
RText
  3
RText|AutoCAD Express Tool|expresstools@autodesk.com
 90
        0
280
     0
281
     1
  0
CLASS
  1
ARCALIGNEDTEXT
  2
AcDbArcAlignedText
  3
ATEXT|AutoCAD Express Tool|expresstools@autodesk.com
 90
        0
280
     0
281
     1
  0
ENDSEC
  0
SECTION
  2
TABLES
  0
TABLE
  2
VPORT
  5
6
100
AcDbSymbolTable
 70
     1
  0
VPORT
  5
19
100
AcDbSymbolTableRecord
100
AcDbViewportTableRecord
  2
*ACTIVE
 70
     0
 10
0.0
 20
0.0
 11
1.0
 21
1.0
 12
0.0
 22
0.0
 13
0.0
 23
0.0
 14
1.0
 24
1.0
 15
0.0
 25
0.0
 16
0.0
 26
0.0
 36
1.0
 17
0.0
 27
0.0
 37
0.0
 40
594.0
 41
1.415825
 42
50.0
 43
0.0
 44
0.0
 50
0.0
 51
0.0
 71
     0
 72
   500
 73
     1
 74
     1
 75
     0
 76
     0
 77
     0
 78
     0
281
     0
 65
     0
110
0.0
120
0.0
130
0.0
111
1.0
121
0.0
131
0.0
112
0.0
122
1.0
132
0.0
345
0
346
0
 79
     0
146
0.0
  0
ENDTAB
  0
TABLE
  2
LTYPE
  5
3
100
AcDbSymbolTable
 70
     9
  0
LTYPE
  5
C
100
AcDbSymbolTableRecord
100
AcDbLinetypeTableRecord
  2
ByBlock
 70
    64
  3

 72
    65
 73
     0
 40
0.0
  0
LTYPE
  5
D
100
AcDbSymbolTableRecord
100
AcDbLinetypeTableRecord
  2
ByLayer
 70
    64
  3

 72
    65
 73
     0
 40
0.0
  0
LTYPE
  5
E
100
AcDbSymbolTableRecord
100
AcDbLinetypeTableRecord
  2
CONTINUOUS
 70
     0
  3
Solid line
 72
    65
 73
     0
 40
0.0
  0
LTYPE
  5
F
100
AcDbSymbolTableRecord
100
AcDbLinetypeTableRecord
  2
DASHED
 70
     0
  3
__ __ __ __ __ __ __ __ __ __ __ __ __ __ __
 72
    65
 73
     2
 40
2.0
 49
1.2
 74
     0
 49
-0.8
 74
     0
  0
LTYPE
  5
10
100
AcDbSymbolTableRecord
100
AcDbLinetypeTableRecord
  2
CENTER
 70
     0
  3
____ _ ____ _ ____ _ ____ _ ____ _ ____ _ ____
 72
    65
 73
     4
 40
12.0
 49
9.0
 74
     0
 49
-1.0
 74
     0
 49
1.0
 74
     0
 49
-1.0
 74
     0
  0
LTYPE
  5
11
100
AcDbSymbolTableRecord
100
AcDbLinetypeTableRecord
  2
HIDDEN
 70
     0
  3
_ _ _ _ _ _ _ _ _ _ _ _ _ _ _ _ _ _ _ _ _ _ _
 72
    65
 73
     2
 40
3.2
 49
2.4
 74
     0
 49
-0.8
 74
     0
  0
LTYPE
  5
12
100
AcDbSymbolTableRecord
100
AcDbLinetypeTableRecord
  2
PHANTOM
 70
     0
  3
_____ _ _ _____ _ _ _____ _ _ _____ _ _ _____
 72
    65
 73
     6
 40
13.5
 49
9.0
 74
     0
 49
-1.0
 74
     0
 49
1.0
 74
     0
 49
-0.5
 74
     0
 49
1.0
 74
     0
 49
-1.0
 74
     0
  0
LTYPE
  5
13
100
AcDbSymbolTableRecord
100
AcDbLinetypeTableRecord
  2
DOT
 70
     0
  3
...............................................
 72
    65
 73
     2
 40
1.0
 49
0.5
 74
     0
 49
-0.5
 74
     0
  0
LTYPE
  5
14
100
AcDbSymbolTableRecord
100
AcDbLinetypeTableRecord
  2
DASHDOT
 70
     0
  3
__ . __ . __ . __ . __ . __ . __ . __ . __ . __
 72
    65
 73
     4
 40
8.0
 49
5.0
 74
     0
 49
-1.0
 74
     0
 49
1.0
 74
     0
 49
-1.0
 74
     0
  0
ENDTAB
  0
TABLE
  2
LAYER
  5
1
100
AcDbSymbolTable
 70
     4
  0
LAYER
  5
15
100
AcDbSymbolTableRecord
100
AcDbLayerTableRecord
  2
0
 70
     0
 62
     7
  6
CONTINUOUS
290
     1
370
    -3
390
0
  0
LAYER
  5
16
100
AcDbSymbolTableRecord
100
AcDbLayerTableRecord
  2
1
 70
     0
 62
     7
  6
CONTINUOUS
290
     1
370
    -3
390
0
  0
LAYER
  5
17
100
AcDbSymbolTableRecord
100
AcDbLayerTableRecord
  2
2
 70
     0
 62
     7
  6
CONTINUOUS
290
     1
370
    -3
390
0
  0
LAYER
  5
18
100
AcDbSymbolTableRecord
100
AcDbLayerTableRecord
  2
3
 70
     0
 62
     7
  6
CONTINUOUS
290
     1
370
    -3
390
0
  0
ENDTAB
  0
TABLE
  2
STYLE
  5
2
100
AcDbSymbolTable
 70
     1
  0
STYLE
  5
1B
100
AcDbSymbolTableRecord
100
AcDbTextStyleTableRecord
  2
STANDARD
 70
    64
 40
0.0
 41
1.0
 50
0.0
 71
     0
 42
1.0
  3
txt
  4
BIGFONT
  0
ENDTAB
  0
TABLE
  2
VIEW
  5
4
100
AcDbSymbolTable
 70
     0
  0
ENDTAB
  0
TABLE
  2
UCS
  5
5
100
AcDbSymbolTable
 70
     0
  0
ENDTAB
  0
TABLE
  2
APPID
  5
7
100
AcDbSymbolTable
 70
     1
  0
APPID
  5
1A
100
AcDbSymbolTableRecord
100
AcDbRegAppTableRecord
  2
ACAD
 70
     0
  0
ENDTAB
  0
TABLE
  2
DIMSTYLE
  5
8
100
AcDbSymbolTable
 70
     1
100
AcDbDimStyleTable
 71
     0
  0
DIMSTYLE
105
27
100
AcDbSymbolTableRecord
100
AcDbDimStyleTableRecord
  2
Standard
 70
     0
  3

  4

 40
1.0
 41
2.0
 42
1.0
 43
0.38
 44
2.0
 45
0.0
 46
0.0
 47
0.0
 48
0.0
 71
     0
 72
     0
 73
     0
 74
     0
 75
     0
 76
     0
 77
     1
 78
     0
 79
     0
140
4.0
141
0.09
142
0.0
143
25.4
144
1.0
145
0.0
146
1.0
147
0.5
148
0.0
170
     0
171
     2
172
     0
173
     0
174
     0
175
     0
176
     0
177
     0
178
     0
179
     0
271
     1
272
     4
273
     2
274
     2
275
     0
276
     0
277
     2
278
    46
279
     0
280
     0
281
     0
282
     0
283
     1
284
     0
285
     0
286
     0
288
     0
289
     3
340
1B
341
0
342
0
343
0
344
0
371
    -2
372
    -2
  0
ENDTAB
  0
TABLE
  2
BLOCK_RECORD
  5
22
100
AcDbSymbolTable
 70
     4
  0
BLOCK_RECORD
  5
20
100
AcDbSymbolTableRecord
100
AcDbBlockTableRecord
  2
*Model_Space
340
0
  0
BLOCK_RECORD
  5
21
100
AcDbSymbolTableRecord
100
AcDbBlockTableRecord
  2
*Paper_Space
340
0
  0
BLOCK_RECORD
  5
1C
100
AcDbSymbolTableRecord
100
AcDbBlockTableRecord
  2
*D0
340
0
  0
BLOCK_RECORD
  5
1D
100
AcDbSymbolTableRecord
100
AcDbBlockTableRecord
  2
*D1
340
0
  0
BLOCK_RECORD
  5
1E
100
AcDbSymbolTableRecord
100
AcDbBlockTableRecord
  2
*D2
340
0
  0
BLOCK_RECORD
  5
1F
100
AcDbSymbolTableRecord
100
AcDbBlockTableRecord
  2
*D3
340
0
  0
ENDTAB
  0
ENDSEC
  0
SECTION
  2
BLOCKS
  0
BLOCK
  5
23
100
AcDbEntity
  8
0
390
0
100
AcDbBlockBegin
  2
*Model_Space
 70
     0
 10
0.0
 20
0.0
 30
0.0
  3
*Model_Space
  1

  0
ENDBLK
  5
24
100
AcDbEntity
  8
0
390
0
100
AcDbBlockEnd
  0
BLOCK
  5
25
100
AcDbEntity
 67
     1
  8
0
390
0
100
AcDbBlockBegin
  2
*Paper_Space
 70
     0
 10
0.0
 20
0.0
 30
0.0
  3
*Paper_Space
  1

  0
ENDBLK
  5
26
100
AcDbEntity
 67
     1
  8
0
390
0
100
AcDbBlockEnd
  0
BLOCK
  5
103
100
AcDbEntity
  8
3
100
AcDbBlockBegin
  2
*D0
 70
     1
 10
0.0
 20
0.0
 30
0.0
  3
*D0
  1

  0
TEXT
  5
104
100
AcDbEntity
  8
3
370
    25
100
AcDbText
 10
-58.652738
 20
-120.356368
 30
0.0
 40
4.0
  1
１３゜
 50
353.4
 72
     5
 11
-47.526963
 21
-121.643664
 31
0.0
100
AcDbText
  0
LINE
  5
105
100
AcDbEntity
  8
3
370
    25
100
AcDbLine
 10
-48.960019
 20
-84.5389
 30
0.0
 11
-57.675257
 21
-121.69651
 31
0.0
  0
LINE
  5
106
100
AcDbEntity
  8
3
370
    25
100
AcDbLine
 10
-47.989942
 20
-81.870125
 30
0.0
 11
-47.989942
 21
-122.817139
 31
0.0
  0
LINE
  5
107
100
AcDbEntity
  8
3
370
    25
100
AcDbLine
 10
-57.446906
 20
-120.722931
 30
0.0
 11
-59.186991
 21
-119.736976
 31
0.0
  0
LINE
  5
108
100
AcDbEntity
  8
3
370
    25
100
AcDbLine
 10
-57.446906
 20
-120.722931
 30
0.0
 11
-59.446841
 21
-120.739111
 31
0.0
  0
LINE
  5
109
100
AcDbEntity
  8
3
370
    25
100
AcDbLine
 10
-59.186991
 20
-119.736976
 30
0.0
 11
-59.446841
 21
-120.739111
 31
0.0
  0
LINE
  5
10A
100
AcDbEntity
  8
3
370
    25
100
AcDbLine
 10
-47.989942
 20
-121.817139
 30
0.0
 11
-46.046543
 21
-122.289579
 31
0.0
  0
LINE
  5
10B
100
AcDbEntity
  8
3
370
    25
100
AcDbLine
 10
-47.989942
 20
-121.817139
 30
0.0
 11
-46.070689
 21
-121.254584
 31
0.0
  0
LINE
  5
10C
100
AcDbEntity
  8
3
370
    25
100
AcDbLine
 10
-46.046543
 20
-122.289579
 30
0.0
 11
-46.070689
 21
-121.254584
 31
0.0
  0
ARC
  5
10D
100
AcDbEntity
  8
3
370
    25
100
AcDbCircle
 10
-47.989942
 20
-80.402958
 30
0.0
 40
41.414181
100
AcDbArc
 50
249.915908
 51
276.884092
  0
ENDBLK
  5
10E
100
AcDbEntity
  8
3
100
AcDbBlockEnd
  0
BLOCK
  5
10F
100
AcDbEntity
  8
3
100
AcDbBlockBegin
  2
*D1
 70
     1
 10
0.0
 20
0.0
 30
0.0
  3
*D1
  1

  0
LINE
  5
110
100
AcDbEntity
  8
3
370
    25
100
AcDbLine
 10
-48.989942
 20
-80.402958
 30
0.0
 11
-79.855576
 21
-80.402958
 31
0.0
  0
LINE
  5
111
100
AcDbEntity
  8
3
370
    25
100
AcDbLine
 10
-78.855576
 20
-80.402958
 30
0.0
 11
-78.337937
 21
-78.471106
 31
0.0
  0
LINE
  5
112
100
AcDbEntity
  8
3
370
    25
100
AcDbLine
 10
-78.855576
 20
-80.402958
 30
0.0
 11
-79.373214
 21
-78.471106
 31
0.0
  0
LINE
  5
113
100
AcDbEntity
  8
3
370
    25
100
AcDbLine
 10
-78.337937
 20
-78.471106
 30
0.0
 11
-79.373214
 21
-78.471106
 31
0.0
  0
LINE
  5
114
100
AcDbEntity
  8
3
370
    25
100
AcDbLine
 10
-78.855576
 20
-80.402958
 30
0.0
 11
-78.855576
 21
-30.56866
 31
0.0
  0
LINE
  5
115
100
AcDbEntity
  8
3
370
    25
100
AcDbLine
 10
-78.855576
 20
-30.56866
 30
0.0
 11
-79.373214
 21
-32.500512
 31
0.0
  0
LINE
  5
116
100
AcDbEntity
  8
3
370
    25
100
AcDbLine
 10
-78.855576
 20
-30.56866
 30
0.0
 11
-78.337937
 21
-32.500512
 31
0.0
  0
LINE
  5
117
100
AcDbEntity
  8
3
370
    25
100
AcDbLine
 10
-79.373214
 20
-32.500512
 30
0.0
 11
-78.337937
 21
-32.500512
 31
0.0
  0
LINE
  5
118
100
AcDbEntity
  8
3
370
    25
100
AcDbLine
 10
-61.319247
 20
-30.56866
 30
0.0
 11
-79.855576
 21
-30.56866
 31
0.0
  0
ENDBLK
  5
119
100
AcDbEntity
  8
3
100
AcDbBlockEnd
  0
BLOCK
  5
11A
100
AcDbEntity
  8
3
100
AcDbBlockBegin
  2
*D2
 70
     1
 10
0.0
 20
0.0
 30
0.0
  3
*D2
  1

  0
LINE
  5
11B
100
AcDbEntity
  8
3
370
    25
100
AcDbLine
 10
-78.855576
 20
-30.56866
 30
0.0
 11
-78.337937
 21
-28.636809
 31
0.0
  0
LINE
  5
11C
100
AcDbEntity
  8
3
370
    25
100
AcDbLine
 10
-78.855576
 20
-30.56866
 30
0.0
 11
-79.373214
 21
-28.636809
 31
0.0
  0
LINE
  5
11D
100
AcDbEntity
  8
3
370
    25
100
AcDbLine
 10
-78.337937
 20
-28.636809
 30
0.0
 11
-79.373214
 21
-28.636809
 31
0.0
  0
LINE
  5
11E
100
AcDbEntity
  8
3
370
    25
100
AcDbLine
 10
-78.855576
 20
-30.56866
 30
0.0
 11
-78.855576
 21
38.18134
 31
0.0
  0
LINE
  5
11F
100
AcDbEntity
  8
3
370
    25
100
AcDbLine
 10
-78.855576
 20
38.18134
 30
0.0
 11
-79.373214
 21
36.249488
 31
0.0
  0
LINE
  5
120
100
AcDbEntity
  8
3
370
    25
100
AcDbLine
 10
-78.855576
 20
38.18134
 30
0.0
 11
-78.337937
 21
36.249488
 31
0.0
  0
LINE
  5
121
100
AcDbEntity
  8
3
370
    25
100
AcDbLine
 10
-79.373214
 20
36.249488
 30
0.0
 11
-78.337937
 21
36.249488
 31
0.0
  0
LINE
  5
122
100
AcDbEntity
  8
3
370
    25
100
AcDbLine
 10
-40.042059
 20
38.18134
 30
0.0
 11
-79.855576
 21
38.18134
 31
0.0
  0
ENDBLK
  5
123
100
AcDbEntity
  8
3
100
AcDbBlockEnd
  0
BLOCK
  5
124
100
AcDbEntity
  8
3
100
AcDbBlockBegin
  2
*D3
 70
     1
 10
0.0
 20
0.0
 30
0.0
  3
*D3
  1

  0
TEXT
  5
125
100
AcDbEntity
  8
3
370
    25
100
AcDbText
 10
-11.042059
 20
49.6073
 30
0.0
 40
4.0
  1
６４
 72
     5
 11
-3.842059
 21
49.6073
 31
0.0
100
AcDbText
  0
LINE
  5
126
100
AcDbEntity
  8
3
370
    25
100
AcDbLine
 10
-39.042059
 20
42.171322
 30
0.0
 11
-39.042059
 21
50.1073
 31
0.0
  0
LINE
  5
127
100
AcDbEntity
  8
3
370
    25
100
AcDbLine
 10
-39.042059
 20
49.1073
 30
0.0
 11
-37.110207
 21
48.589662
 31
0.0
  0
LINE
  5
128
100
AcDbEntity
  8
3
370
    25
100
AcDbLine
 10
-39.042059
 20
49.1073
 30
0.0
 11
-37.110207
 21
49.624938
 31
0.0
  0
LINE
  5
129
100
AcDbEntity
  8
3
370
    25
100
AcDbLine
 10
-37.110207
 20
48.589662
 30
0.0
 11
-37.110207
 21
49.624938
 31
0.0
  0
LINE
  5
12A
100
AcDbEntity
  8
3
370
    25
100
AcDbLine
 10
-39.042059
 20
49.1073
 30
0.0
 11
24.957941
 21
49.1073
 31
0.0
  0
LINE
  5
12B
100
AcDbEntity
  8
3
370
    25
100
AcDbLine
 10
24.957941
 20
49.1073
 30
0.0
 11
23.02609
 21
49.624938
 31
0.0
  0
LINE
  5
12C
100
AcDbEntity
  8
3
370
    25
100
AcDbLine
 10
24.957941
 20
49.1073
 30
0.0
 11
23.02609
 21
48.589662
 31
0.0
  0
LINE
  5
12D
100
AcDbEntity
  8
3
370
    25
100
AcDbLine
 10
23.02609
 20
49.624938
 30
0.0
 11
23.02609
 21
48.589662
 31
0.0
  0
LINE
  5
12E
100
AcDbEntity
  8
3
370
    25
100
AcDbLine
 10
24.957941
 20
-20.29116
 30
0.0
 11
24.957941
 21
50.1073
 31
0.0
  0
ENDBLK
  5
12F
100
AcDbEntity
  8
3
100
AcDbBlockEnd
  0
ENDSEC
  0
SECTION
  2
ENTITIES
  0
LINE
  5
28
100
AcDbEntity
  8
1
370
   100
100
AcDbLine
 10
-186.510785
 20
137.514384
 30
0.0
 11
197.491193
 21
137.514384
 31
0.0
  0
LINE
  5
29
100
AcDbEntity
  8
1
370
   100
100
AcDbLine
 10
-186.510785
 20
137.514384
 30
0.0
 11
-186.510785
 21
-138.985941
 31
0.0
  0
LINE
  5
2A
100
AcDbEntity
  8
1
370
   100
100
AcDbLine
 10
-186.510785
 20
-138.985941
 30
0.0
 11
197.491193
 21
-138.985941
 31
0.0
  0
LINE
  5
2B
100
AcDbEntity
  8
1
370
   100
100
AcDbLine
 10
197.491193
 20
-138.985941
 30
0.0
 11
197.491193
 21
137.514384
 31
0.0
  0
TEXT
  5
2C
100
AcDbEntity
  8
1
370
    50
100
AcDbText
 10
179.814221
 20
-113.126428
 30
0.0
 40
3.0
  1
設計
 72
     5
 11
185.214221
 21
-113.126428
 31
0.0
100
AcDbText
  0
TEXT
  5
2D
100
AcDbEntity
  8
1
370
    50
100
AcDbText
 10
189.563739
 20
-113.049829
 30
0.0
 40
3.0
  1
製図
 72
     5
 11
194.963739
 21
-113.049829
 31
0.0
100
AcDbText
  0
TEXT
  5
2E
100
AcDbEntity
  8
1
370
    50
100
AcDbText
 10
159.502872
 20
-113.126428
 30
0.0
 40
3.0
  1
承認
 72
     5
 11
164.902872
 21
-113.126428
 31
0.0
100
AcDbText
  0
TEXT
  5
2F
100
AcDbEntity
  8
1
370
    50
100
AcDbText
 10
169.494839
 20
-113.09901
 30
0.0
 40
3.0
  1
検図
 72
     5
 11
174.894839
 21
-113.09901
 31
0.0
100
AcDbText
  0
LINE
  5
30
100
AcDbEntity
  8
1
370
    25
100
AcDbLine
 10
142.491193
 20
-113.985941
 30
0.0
 11
197.491193
 21
-113.985941
 31
0.0
  0
LINE
  5
31
100
AcDbEntity
  8
1
370
    25
100
AcDbLine
 10
171.241193
 20
-122.985941
 30
0.0
 11
171.241193
 21
-129.985941
 31
0.0
  0
TEXT
  5
32
100
AcDbEntity
  8
1
370
    50
100
AcDbText
 10
159.775795
 20
-128.006264
 30
0.0
 40
3.0
  1
日　付
 72
     5
 11
168.175795
 21
-128.006264
 31
0.0
100
AcDbText
  0
LINE
  5
33
100
AcDbEntity
  8
1
370
    50
100
AcDbLine
 10
20.491193
 20
-129.985941
 30
0.0
 11
197.491193
 21
-129.985941
 31
0.0
  0
TEXT
  5
34
100
AcDbEntity
  8
1
370
    50
100
AcDbText
 10
143.887505
 20
-128.161203
 30
0.0
 40
3.0
  1
第三角法
 72
     5
 11
155.287505
 21
-128.161203
 31
0.0
100
AcDbText
  0
TEXT
  5
35
100
AcDbEntity
  8
1
370
    50
100
AcDbText
 10
145.54371
 20
-112.99901
 30
0.0
 40
3.0
  1
尺　度
 72
     5
 11
153.94371
 21
-112.99901
 31
0.0
100
AcDbText
  0
LINE
  5
36
100
AcDbEntity
  8
1
370
   100
100
AcDbLine
 10
20.491193
 20
-108.985941
 30
0.0
 11
197.491193
 21
-108.985941
 31
0.0
  0
LINE
  5
37
100
AcDbEntity
  8
1
370
    50
100
AcDbLine
 10
105.991193
 20
-108.985941
 30
0.0
 11
105.991193
 21
-138.985941
 31
0.0
  0
LINE
  5
38
100
AcDbEntity
  8
1
370
    25
100
AcDbLine
 10
187.491193
 20
-122.985941
 30
0.0
 11
187.491193
 21
-108.985941
 31
0.0
  0
LINE
  5
39
100
AcDbEntity
  8
1
370
    25
100
AcDbLine
 10
177.491193
 20
-122.985941
 30
0.0
 11
177.491193
 21
-108.985941
 31
0.0
  0
LINE
  5
3A
100
AcDbEntity
  8
1
370
    25
100
AcDbLine
 10
167.491193
 20
-122.985941
 30
0.0
 11
167.491193
 21
-108.985941
 31
0.0
  0
LINE
  5
3B
100
AcDbEntity
  8
1
370
    50
100
AcDbLine
 10
142.491193
 20
-138.985941
 30
0.0
 11
142.491193
 21
-108.985941
 31
0.0
  0
LINE
  5
3C
100
AcDbEntity
  8
1
370
    50
100
AcDbLine
 10
94.991193
 20
-108.985941
 30
0.0
 11
94.991193
 21
-138.985941
 31
0.0
  0
LINE
  5
3D
100
AcDbEntity
  8
1
370
    50
100
AcDbLine
 10
31.491193
 20
-108.985941
 30
0.0
 11
31.491193
 21
-129.985941
 31
0.0
  0
LINE
  5
3E
100
AcDbEntity
  8
1
370
    50
100
AcDbLine
 10
142.491193
 20
-122.985941
 30
0.0
 11
197.491193
 21
-122.985941
 31
0.0
  0
TEXT
  5
3F
100
AcDbEntity
  8
1
370
    50
100
AcDbText
 10
143.550565
 20
-135.940469
 30
0.0
 40
3.0
  1
コードＮｏ
 41
0.9
 72
     5
 11
156.510565
 21
-135.940469
 31
0.0
100
AcDbText
  0
TEXT
  5
40
100
AcDbEntity
  8
1
370
   100
100
AcDbText
 10
26.443387
 20
-136.43783
 30
0.0
 40
4.0
  1
ミズタニバルブ工業株式会社
 41
1.2
 72
     5
 11
87.883387
 21
-136.43783
 31
0.0
100
AcDbText
  0
LINE
  5
41
100
AcDbEntity
  8
1
370
    50
100
AcDbLine
 10
20.491193
 20
-119.485941
 30
0.0
 11
142.491193
 21
-119.485941
 31
0.0
  0
LINE
  5
42
100
AcDbEntity
  8
1
370
    50
100
AcDbLine
 10
57.741193
 20
-119.485941
 30
0.0
 11
57.741193
 21
-129.985941
 31
0.0
  0
LINE
  5
43
100
AcDbEntity
  8
1
370
    50
100
AcDbLine
 10
68.741193
 20
-119.485941
 30
0.0
 11
68.741193
 21
-129.985941
 31
0.0
  0
LINE
  5
44
100
AcDbEntity
  8
1
370
    50
100
AcDbLine
 10
157.491193
 20
-138.985941
 30
0.0
 11
157.491193
 21
-108.985941
 31
0.0
  0
TEXT
  5
45
100
AcDbEntity
  8
1
370
    50
100
AcDbText
 10
172.549065
 20
-128.050147
 30
0.0
 40
3.0
  1
　　・　　・
 72
     5
 11
189.949065
 21
-128.050147
 31
0.0
100
AcDbText
  0
LINE
  5
46
100
AcDbEntity
  8
1
370
   100
100
AcDbLine
 10
20.491193
 20
-108.985941
 30
0.0
 11
20.491193
 21
-138.985941
 31
0.0
  0
TEXT
  5
47
100
AcDbEntity
  8
1
370
    50
100
AcDbText
 10
145.416291
 20
-120.006746
 30
0.0
 40
3.0
  1
　／ 
 72
     5
 11
150.816291
 21
-120.006746
 31
0.0
100
AcDbText
  0
TEXT
  5
48
100
AcDbEntity
  8
1
370
    50
100
AcDbText
 10
96.952061
 20
-136.012454
 30
0.0
 40
3.0
  1
備 考 
 72
     5
 11
103.852061
 21
-136.012454
 31
0.0
100
AcDbText
  0
TEXT
  5
49
100
AcDbEntity
  8
1
370
    50
100
AcDbText
 10
96.756267
 20
-115.44592
 30
0.0
 40
3.0
  1
仕 上
 72
     5
 11
103.656267
 21
-115.44592
 31
0.0
100
AcDbText
  0
TEXT
  5
4A
100
AcDbEntity
  8
1
370
    50
100
AcDbText
 10
96.723588
 20
-124.445833
 30
0.0
 40
3.0
  1
表 面
 72
     5
 11
103.623588
 21
-124.445833
 31
0.0
100
AcDbText
  0
TEXT
  5
4B
100
AcDbEntity
  8
1
370
    50
100
AcDbText
 10
96.723588
 20
-127.945833
 30
0.0
 40
3.0
  1
処 理
 72
     5
 11
103.623588
 21
-127.945833
 31
0.0
100
AcDbText
  0
TEXT
  5
4C
100
AcDbEntity
  8
1
370
    50
100
AcDbText
 10
22.396675
 20
-115.8467
 30
0.0
 40
3.0
  1
品 名
 72
     5
 11
29.296675
 21
-115.8467
 31
0.0
100
AcDbText
  0
TEXT
  5
4D
100
AcDbEntity
  8
1
370
    50
100
AcDbText
 10
22.198883
 20
-126.231267
 30
0.0
 40
3.0
  1
材 質
 72
     5
 11
29.098883
 21
-126.231267
 31
0.0
100
AcDbText
  0
TEXT
  5
4E
100
AcDbEntity
  8
1
370
    50
100
AcDbText
 10
59.448883
 20
-126.231267
 30
0.0
 40
3.0
  1
規 格
 72
     5
 11
66.348883
 21
-126.231267
 31
0.0
100
AcDbText
  0
LINE
  5
4F
100
AcDbEntity
  8
2
370
    50
100
AcDbLine
 10
8382.453473
 20
-33.133461
 30
0.0
 11
8382.453473
 21
73.09333
 31
0.0
  0
LINE
  5
50
100
AcDbEntity
  8
2
370
   100
100
AcDbLine
 10
20.491193
 20
-108.985941
 30
0.0
 11
197.491193
 21
-108.985941
 31
0.0
  0
LINE
  5
51
100
AcDbEntity
  8
2
370
    25
  6
CENTER
100
AcDbLine
 10
-156.954783
 20
-30.414172
 30
0.0
 11
-106.424004
 21
-30.414172
 31
0.0
  0
LINE
  5
52
100
AcDbEntity
  8
2
370
    25
  6
CENTER
100
AcDbLine
 10
-45.135556
 20
-68.233221
 30
0.0
 11
-48.731668
 21
-83.565321
 31
0.0
  0
ARC
  5
53
100
AcDbEntity
  8
2
370
    25
  6
CENTER
100
AcDbCircle
 10
-269.672059
 20
-15.56866
 30
0.0
 40
230.63
100
AcDbArc
 50
346.8
 51
360.0
  0
ARC
  5
54
100
AcDbEntity
  8
2
370
    50
100
AcDbCircle
 10
-69.21093
 20
-67.561906
 30
0.0
 40
35.0
100
AcDbArc
 50
336.931219
 51
2.752357
  0
ARC
  5
55
100
AcDbEntity
  8
2
370
    50
100
AcDbCircle
 10
30.673711
 20
-62.759983
 30
0.0
 40
65.0
100
AcDbArc
 50
161.662617
 51
182.752357
  0
LINE
  5
56
100
AcDbEntity
  8
2
370
    50
100
AcDbLine
 10
-56.673412
 20
-78.366268
 30
0.0
 11
-39.306472
 21
-82.439647
 31
0.0
  0
ELLIPSE
  5
57
100
AcDbEntity
  8
2
370
    50
100
AcDbEllipse
 10
-132.173511
 20
-80.248469
 30
0.0
 11
10.5
 21
0.0
 31
0.0
210
0.0
220
0.0
230
1.0
 40
0.229652
 41
0.0
 42
6.2831849999999996
  0
ARC
  5
58
100
AcDbEntity
  8
2
370
    50
100
AcDbCircle
 10
-80.676611
 20
-49.118682
 30
0.0
 40
43.0
100
AcDbArc
 50
150.979947
 51
195.782986
  0
ARC
  5
59
100
AcDbEntity
  8
2
370
    50
100
AcDbCircle
 10
-170.170399
 20
-74.414172
 30
0.0
 40
50.0
100
AcDbArc
 50
359.036344
 51
15.782986
  0
ARC
  5
5A
100
AcDbEntity
  8
2
370
    50
100
AcDbCircle
 10
-148.173511
 20
-74.784172
 30
0.0
 40
28.0
100
AcDbArc
 50
352.366511
 51
359.036344
  0
ARC
  5
5B
100
AcDbEntity
  8
2
370
    50
100
AcDbCircle
 10
-123.874149
 20
-77.928926
 30
0.0
 40
3.5
100
AcDbArc
 50
298.563029
 51
354.701727
  0
LINE
  5
5C
100
AcDbEntity
  8
2
370
    50
100
AcDbLine
 10
-27.228733
 20
-39.56866
 30
0.0
 11
-15.042059
 21
-39.56866
 31
0.0
  0
ARC
  5
5D
100
AcDbEntity
  8
2
370
    50
100
AcDbCircle
 10
-27.228733
 20
-43.56866
 30
0.0
 40
4.0
100
AcDbArc
 50
90.0
 51
161.662617
  0
ARC
  5
5E
100
AcDbEntity
  8
2
370
    50
100
AcDbCircle
 10
-23.27247
 20
-78.336674
 30
0.0
 40
35.0
100
AcDbArc
 50
144.631227
 51
176.668781
  0
LINE
  5
5F
100
AcDbEntity
  8
2
370
    50
100
AcDbLine
 10
24.957941
 20
-39.84616
 30
0.0
 11
24.957941
 21
-21.29116
 31
0.0
  0
ARC
  5
60
100
AcDbEntity
  8
2
370
    50
100
AcDbCircle
 10
-56.21671
 20
-76.41911
 30
0.0
 40
2.0
100
AcDbArc
 50
176.668781
 51
256.8
  0
ARC
  5
61
100
AcDbEntity
  8
2
370
    50
100
AcDbCircle
 10
-38.84977
 20
-80.492489
 30
0.0
 40
2.0
100
AcDbArc
 50
256.8
 51
336.931219
  0
ELLIPSE
  5
62
100
AcDbEntity
  8
2
370
    50
100
AcDbEllipse
 10
-132.173511
 20
-80.248469
 30
0.0
 11
8.4000000000000004
 21
0.0
 31
0.0
210
0.0
220
0.0
230
1.0
 40
0.226992
 41
0.0
 42
6.2831849999999996
  0
LINE
  5
63
100
AcDbEntity
  8
2
370
    25
  6
CENTER
100
AcDbLine
 10
-132.065028
 20
-83.410833
 30
0.0
 11
-132.065028
 21
48.783641
 31
0.0
  0
LINE
  5
64
100
AcDbEntity
  8
2
370
    25
  6
CENTER
100
AcDbLine
 10
-60.319247
 20
-30.56866
 30
0.0
 11
33.599005
 21
-30.56866
 31
0.0
  0
LINE
  5
65
100
AcDbEntity
  8
2
370
    50
100
AcDbLine
 10
3.957941
 20
-20.09116
 30
0.0
 11
23.757941
 21
-20.09116
 31
0.0
  0
LINE
  5
66
100
AcDbEntity
  8
2
370
    25
100
AcDbLine
 10
3.957941
 20
-21.29116
 30
0.0
 11
24.957941
 21
-21.29116
 31
0.0
  0
LINE
  5
67
100
AcDbEntity
  8
2
370
    50
100
AcDbLine
 10
24.957941
 20
-21.29116
 30
0.0
 11
23.757941
 21
-20.09116
 31
0.0
  0
LINE
  5
68
100
AcDbEntity
  8
2
370
    50
100
AcDbLine
 10
3.957941
 20
-18.56866
 30
0.0
 11
3.957941
 21
-30.56866
 31
0.0
  0
LINE
  5
69
100
AcDbEntity
  8
2
370
    50
100
AcDbLine
 10
2.393537
 20
-17.56866
 30
0.0
 11
2.957941
 21
-17.56866
 31
0.0
  0
LINE
  5
6A
100
AcDbEntity
  8
2
370
    50
100
AcDbLine
 10
2.957941
 20
-17.56866
 30
0.0
 11
3.957941
 21
-18.56866
 31
0.0
  0
ARC
  5
6B
100
AcDbEntity
  8
2
370
    50
100
AcDbCircle
 10
-15.042059
 20
8.43134
 30
0.0
 40
30.0
100
AcDbArc
 50
277.494717
 51
295.841933
  0
ARC
  5
6C
100
AcDbEntity
  8
2
370
    50
100
AcDbCircle
 10
2.393537
 20
-27.56866
 30
0.0
 40
10.0
100
AcDbArc
 50
90.0
 51
115.841933
  0
ARC
  5
6D
100
AcDbEntity
  8
2
370
    50
100
AcDbCircle
 10
-15.042059
 20
-69.56866
 30
0.0
 40
30.0
100
AcDbArc
 50
64.158067
 51
90.0
  0
LINE
  5
6E
100
AcDbEntity
  8
2
370
    50
100
AcDbLine
 10
3.957941
 20
-41.04616
 30
0.0
 11
23.757941
 21
-41.04616
 31
0.0
  0
LINE
  5
6F
100
AcDbEntity
  8
2
370
    25
100
AcDbLine
 10
3.957941
 20
-39.84616
 30
0.0
 11
24.957941
 21
-39.84616
 31
0.0
  0
LINE
  5
70
100
AcDbEntity
  8
2
370
    50
100
AcDbLine
 10
24.957941
 20
-39.84616
 30
0.0
 11
23.757941
 21
-41.04616
 31
0.0
  0
ARC
  5
71
100
AcDbEntity
  8
2
370
    50
100
AcDbCircle
 10
2.393537
 20
-33.56866
 30
0.0
 40
10.0
100
AcDbArc
 50
244.158067
 51
270.0
  0
LINE
  5
72
100
AcDbEntity
  8
2
370
    50
100
AcDbLine
 10
2.957941
 20
-43.56866
 30
0.0
 11
3.957941
 21
-42.56866
 31
0.0
  0
LINE
  5
73
100
AcDbEntity
  8
2
370
    50
100
AcDbLine
 10
2.393537
 20
-43.56866
 30
0.0
 11
2.957941
 21
-43.56866
 31
0.0
  0
LINE
  5
74
100
AcDbEntity
  8
2
370
    50
100
AcDbLine
 10
3.957941
 20
-30.56866
 30
0.0
 11
3.957941
 21
-42.56866
 31
0.0
  0
ARC
  5
75
100
AcDbEntity
  8
2
370
    50
100
AcDbCircle
 10
-132.065028
 20
-38.0409
 30
0.0
 40
75.0
100
AcDbArc
 50
67.378778
 51
112.621222
  0
ARC
  5
76
100
AcDbEntity
  8
2
370
    50
100
AcDbCircle
 10
-210.074427
 20
35.907014
 30
0.0
 40
110.0
100
AcDbArc
 50
333.577875
 51
355.176227
  0
LINE
  5
77
100
AcDbEntity
  8
2
370
    50
100
AcDbLine
 10
-132.065028
 20
-14.2909
 30
0.0
 11
-112.065028
 21
-14.2909
 31
0.0
  0
LINE
  5
78
100
AcDbEntity
  8
2
370
    50
100
AcDbLine
 10
-132.065028
 20
-14.2909
 30
0.0
 11
-152.065028
 21
-14.2909
 31
0.0
  0
ARC
  5
79
100
AcDbEntity
  8
2
370
    50
100
AcDbCircle
 10
-194.355108
 20
13.946358
 30
0.0
 40
87.0
100
AcDbArc
 50
330.979947
 51
341.060706
  0
ARC
  5
7A
100
AcDbEntity
  8
2
370
    50
100
AcDbCircle
 10
-69.774948
 20
13.946358
 30
0.0
 40
87.0
100
AcDbArc
 50
198.939294
 51
209.020053
  0
ARC
  5
7B
100
AcDbEntity
  8
2
370
    50
100
AcDbCircle
 10
-183.453445
 20
-49.118682
 30
0.0
 40
43.0
100
AcDbArc
 50
344.217014
 51
29.020053
  0
ARC
  5
7C
100
AcDbEntity
  8
2
370
    50
100
AcDbCircle
 10
-93.959656
 20
-74.414172
 30
0.0
 40
50.0
100
AcDbArc
 50
164.217014
 51
180.963656
  0
ARC
  5
7D
100
AcDbEntity
  8
2
370
    50
100
AcDbCircle
 10
-140.255907
 20
-77.928926
 30
0.0
 40
3.5
100
AcDbArc
 50
185.298273
 51
241.436971
  0
ARC
  5
7E
100
AcDbEntity
  8
2
370
    50
100
AcDbCircle
 10
-140.255907
 20
-77.928926
 30
0.0
 40
3.5
100
AcDbArc
 50
185.298273
 51
241.436971
  0
ARC
  5
7F
100
AcDbEntity
  8
2
370
    50
100
AcDbCircle
 10
-115.956545
 20
-74.784172
 30
0.0
 40
28.0
100
AcDbArc
 50
180.963656
 51
187.633489
  0
LINE
  5
80
100
AcDbEntity
  8
2
370
    50
100
AcDbLine
 10
-147.092927
 20
-14.2909
 30
0.0
 11
-147.092927
 21
-13.0409
 31
0.0
  0
LINE
  5
81
100
AcDbEntity
  8
2
370
    50
100
AcDbLine
 10
-117.092927
 20
-14.2909
 30
0.0
 11
-117.092927
 21
-13.0409
 31
0.0
  0
ARC
  5
82
100
AcDbEntity
  8
2
370
    50
100
AcDbCircle
 10
93.692382
 20
33.598841
 30
0.0
 40
160.0
100
AcDbArc
 50
197.577203
 51
205.683426
  0
ARC
  5
83
100
AcDbEntity
  8
2
370
    50
100
AcDbCircle
 10
-56.21671
 20
-76.41911
 30
0.0
 40
2.0
100
AcDbArc
 50
176.668781
 51
256.8
  0
LINE
  5
84
100
AcDbEntity
  8
2
370
    50
100
AcDbLine
 10
-39.042059
 20
-14.06866
 30
0.0
 11
-19.539484
 21
-14.06866
 31
0.0
  0
ARC
  5
85
100
AcDbEntity
  8
2
370
    50
100
AcDbCircle
 10
-71.227662
 20
-45.713069
 30
0.0
 40
23.0
100
AcDbArc
 50
325.7728
 51
25.683426
  0
ARC
  5
86
100
AcDbEntity
  8
2
370
    50
100
AcDbCircle
 10
-58.360707
 20
-14.56866
 30
0.0
 40
0.5
100
AcDbArc
 50
90.0
 51
197.577203
  0
ARC
  5
87
100
AcDbEntity
  8
2
370
    50
100
AcDbCircle
 10
-12.042059
 20
-14.372169
 30
0.0
 40
7.0
100
AcDbArc
 50
181.501256
 51
277.494717
  0
ARC
  5
88
100
AcDbEntity
  8
2
370
    50
100
AcDbCircle
 10
-19.539484
 20
-14.56866
 30
0.0
 40
0.5
100
AcDbArc
 50
1.501256
 51
90.0
  0
ARC
  5
89
100
AcDbEntity
  8
2
370
    50
100
AcDbCircle
 10
-39.042059
 20
-56.81866
 30
0.0
 40
95.0
100
AcDbArc
 50
76.63735
 51
103.36265
  0
ARC
  5
8A
100
AcDbEntity
  8
2
370
    50
100
AcDbCircle
 10
135.542149
 20
31.251192
 30
0.0
 40
200.0
100
AcDbArc
 50
180.005856
 51
192.614796
  0
LINE
  5
8B
100
AcDbEntity
  8
2
370
    50
100
AcDbLine
 10
-58.360707
 20
-14.06866
 30
0.0
 11
-39.042059
 21
-14.06866
 31
0.0
  0
LINE
  5
8C
100
AcDbEntity
  8
2
370
    50
100
AcDbLine
 10
-152.565028
 20
-13.0409
 30
0.0
 11
-111.565028
 21
-13.0409
 31
0.0
  0
LINE
  5
8D
100
AcDbEntity
  8
2
370
    50
100
AcDbLine
 10
-59.142
 20
-12.81866
 30
0.0
 11
-39.042059
 21
-12.81866
 31
0.0
  0
LINE
  5
8E
100
AcDbEntity
  8
2
370
    50
100
AcDbLine
 10
-18.942117
 20
-12.81866
 30
0.0
 11
-39.042059
 21
-12.81866
 31
0.0
  0
ARC
  5
8F
100
AcDbEntity
  8
2
370
    50
100
AcDbCircle
 10
-104.948102
 20
27.035381
 30
0.0
 40
4.5
100
AcDbArc
 50
355.176227
 51
67.378778
  0
ARC
  5
90
100
AcDbEntity
  8
2
370
    50
100
AcDbCircle
 10
-54.055629
 20
35.907014
 30
0.0
 40
110.0
100
AcDbArc
 50
184.823773
 51
206.422125
  0
ARC
  5
91
100
AcDbEntity
  8
2
370
    50
100
AcDbCircle
 10
-159.181953
 20
27.035381
 30
0.0
 40
4.5
100
AcDbArc
 50
112.621222
 51
184.823773
  0
LINE
  5
92
100
AcDbEntity
  8
2
370
    25
  6
CENTER
100
AcDbLine
 10
-39.042059
 20
-30.56866
 30
0.0
 11
-39.042059
 21
41.171322
 31
0.0
  0
ARC
  5
93
100
AcDbEntity
  8
2
370
    50
100
AcDbCircle
 10
-213.626266
 20
31.251192
 30
0.0
 40
200.0
100
AcDbArc
 50
347.385204
 51
359.994144
  0
ARC
  5
94
100
AcDbEntity
  8
2
370
    50
100
AcDbCircle
 10
-18.126267
 20
31.23121
 30
0.0
 40
4.5
100
AcDbArc
 50
359.994144
 51
76.63735
  0
ARC
  5
95
100
AcDbEntity
  8
2
370
    50
100
AcDbCircle
 10
-59.95785
 20
31.23121
 30
0.0
 40
4.5
100
AcDbArc
 50
103.36265
 51
180.005856
  0
ARC
  5
96
100
AcDbEntity
  8
2
370
    50
100
AcDbCircle
 10
-59.142
 20
-12.31866
 30
0.0
 40
0.5
100
AcDbArc
 50
192.614796
 51
270.0
  0
ARC
  5
97
100
AcDbEntity
  8
2
370
    50
100
AcDbCircle
 10
-18.942117
 20
-12.31866
 30
0.0
 40
0.5
100
AcDbArc
 50
270.0
 51
347.385204
  0
LINE
  5
98
100
AcDbEntity
  8
2
370
    25
  6
CENTER
100
AcDbLine
 10
-39.033379
 20
56.606908
 30
0.0
 11
-39.033379
 21
125.590284
 31
0.0
  0
LINE
  5
99
100
AcDbEntity
  8
2
370
    25
  6
CENTER
100
AcDbLine
 10
30.918826
 20
91.658043
 30
0.0
 11
-67.196915
 21
91.658043
 31
0.0
  0
ARC
  5
9A
100
AcDbEntity
  8
2
370
    50
100
AcDbCircle
 10
-12.133379
 20
76.158043
 30
0.0
 40
55.2
100
AcDbArc
 50
129.848891
 51
154.593396
  0
ARC
  5
9B
100
AcDbEntity
  8
2
370
    50
100
AcDbCircle
 10
-31.35633
 20
99.190154
 30
0.0
 40
25.2
100
AcDbArc
 50
112.572516
 51
129.848891
  0
ARC
  5
9C
100
AcDbEntity
  8
2
370
    50
100
AcDbCircle
 10
-39.033379
 20
117.658043
 30
0.0
 40
5.2
100
AcDbArc
 50
90.0
 51
112.572516
  0
ARC
  5
9D
100
AcDbEntity
  8
2
370
    50
100
AcDbCircle
 10
-39.231954
 20
89.02922
 30
0.0
 40
25.2
100
AcDbArc
 50
154.593396
 51
171.360415
  0
ARC
  5
9E
100
AcDbEntity
  8
2
370
    50
100
AcDbCircle
 10
-56.533379
 20
91.658043
 30
0.0
 40
7.7
100
AcDbArc
 50
171.360415
 51
180.0
  0
ARC
  5
9F
100
AcDbEntity
  8
2
370
    50
100
AcDbCircle
 10
-12.133379
 20
107.158043
 30
0.0
 40
55.2
100
AcDbArc
 50
205.406604
 51
230.151109
  0
ARC
  5
A0
100
AcDbEntity
  8
2
370
    50
100
AcDbCircle
 10
-31.35633
 20
84.125932
 30
0.0
 40
25.2
100
AcDbArc
 50
230.151109
 51
247.427484
  0
ARC
  5
A1
100
AcDbEntity
  8
2
370
    50
100
AcDbCircle
 10
-39.231954
 20
94.286865
 30
0.0
 40
25.2
100
AcDbArc
 50
188.639585
 51
205.406604
  0
ARC
  5
A2
100
AcDbEntity
  8
2
370
    50
100
AcDbCircle
 10
-56.533379
 20
91.658043
 30
0.0
 40
7.7
100
AcDbArc
 50
180.0
 51
188.639585
  0
ARC
  5
A3
100
AcDbEntity
  8
2
370
    50
100
AcDbCircle
 10
-39.033379
 20
65.658043
 30
0.0
 40
5.2
100
AcDbArc
 50
247.427484
 51
270.0
  0
ARC
  5
A4
100
AcDbEntity
  8
2
370
    50
100
AcDbCircle
 10
-39.033379
 20
65.658043
 30
0.0
 40
5.2
100
AcDbArc
 50
270.0
 51
292.572516
  0
ARC
  5
A5
100
AcDbEntity
  8
2
370
    50
100
AcDbCircle
 10
-46.710427
 20
84.125932
 30
0.0
 40
25.2
100
AcDbArc
 50
292.572516
 51
309.848891
  0
ARC
  5
A6
100
AcDbEntity
  8
2
370
    50
100
AcDbCircle
 10
-65.933379
 20
107.158043
 30
0.0
 40
55.2
100
AcDbArc
 50
309.848891
 51
334.593396
  0
ARC
  5
A7
100
AcDbEntity
  8
2
370
    50
100
AcDbCircle
 10
-38.834803
 20
94.286865
 30
0.0
 40
25.2
100
AcDbArc
 50
334.593396
 51
351.360415
  0
ARC
  5
A8
100
AcDbEntity
  8
2
370
    50
100
AcDbCircle
 10
-21.533379
 20
91.658043
 30
0.0
 40
7.7
100
AcDbArc
 50
351.360415
 51
360.0
  0
ARC
  5
A9
100
AcDbEntity
  8
2
370
    50
100
AcDbCircle
 10
-21.533379
 20
91.658043
 30
0.0
 40
7.7
100
AcDbArc
 50
0.0
 51
8.639585
  0
ARC
  5
AA
100
AcDbEntity
  8
2
370
    50
100
AcDbCircle
 10
-38.834803
 20
89.02922
 30
0.0
 40
25.2
100
AcDbArc
 50
8.639585
 51
25.406604
  0
ARC
  5
AB
100
AcDbEntity
  8
2
370
    50
100
AcDbCircle
 10
-65.933379
 20
76.158043
 30
0.0
 40
55.2
100
AcDbArc
 50
25.406604
 51
50.151109
  0
ARC
  5
AC
100
AcDbEntity
  8
2
370
    50
100
AcDbCircle
 10
-46.710427
 20
99.190154
 30
0.0
 40
25.2
100
AcDbArc
 50
50.151109
 51
67.427484
  0
ARC
  5
AD
100
AcDbEntity
  8
2
370
    50
100
AcDbCircle
 10
-39.033379
 20
117.658043
 30
0.0
 40
5.2
100
AcDbArc
 50
67.427484
 51
90.0
  0
LINE
  5
AE
100
AcDbEntity
  8
2
370
    50
100
AcDbLine
 10
24.966621
 20
82.380543
 30
0.0
 11
24.966621
 21
100.935543
 31
0.0
  0
LINE
  5
AF
100
AcDbEntity
  8
2
370
    50
100
AcDbLine
 10
3.966621
 20
102.135543
 30
0.0
 11
23.766621
 21
102.135543
 31
0.0
  0
LINE
  5
B0
100
AcDbEntity
  8
2
370
    25
100
AcDbLine
 10
3.966621
 20
100.935543
 30
0.0
 11
24.966621
 21
100.935543
 31
0.0
  0
LINE
  5
B1
100
AcDbEntity
  8
2
370
    50
100
AcDbLine
 10
24.966621
 20
100.935543
 30
0.0
 11
23.766621
 21
102.135543
 31
0.0
  0
LINE
  5
B2
100
AcDbEntity
  8
2
370
    50
100
AcDbLine
 10
3.966621
 20
91.658043
 30
0.0
 11
3.966621
 21
103.658043
 31
0.0
  0
LINE
  5
B3
100
AcDbEntity
  8
2
370
    50
100
AcDbLine
 10
2.402217
 20
104.658043
 30
0.0
 11
2.966621
 21
104.658043
 31
0.0
  0
LINE
  5
B4
100
AcDbEntity
  8
2
370
    50
100
AcDbLine
 10
2.966621
 20
104.658043
 30
0.0
 11
3.966621
 21
103.658043
 31
0.0
  0
ARC
  5
B5
100
AcDbEntity
  8
2
370
    50
100
AcDbCircle
 10
-15.033379
 20
130.658043
 30
0.0
 40
30.0
100
AcDbArc
 50
277.494717
 51
295.841933
  0
ARC
  5
B6
100
AcDbEntity
  8
2
370
    50
100
AcDbCircle
 10
2.402217
 20
94.658043
 30
0.0
 40
10.0
100
AcDbArc
 50
90.0
 51
115.841933
  0
ARC
  5
B7
100
AcDbEntity
  8
2
370
    50
100
AcDbCircle
 10
-15.033379
 20
52.658043
 30
0.0
 40
30.0
100
AcDbArc
 50
64.158067
 51
90.0
  0
LINE
  5
B8
100
AcDbEntity
  8
2
370
    50
100
AcDbLine
 10
3.966621
 20
81.180543
 30
0.0
 11
23.766621
 21
81.180543
 31
0.0
  0
LINE
  5
B9
100
AcDbEntity
  8
2
370
    25
100
AcDbLine
 10
3.966621
 20
82.380543
 30
0.0
 11
24.966621
 21
82.380543
 31
0.0
  0
LINE
  5
BA
100
AcDbEntity
  8
2
370
    50
100
AcDbLine
 10
10.966621
 20
81.180543
 30
0.0
 11
23.766621
 21
81.180543
 31
0.0
  0
LINE
  5
BB
100
AcDbEntity
  8
2
370
    50
100
AcDbLine
 10
24.966621
 20
82.380543
 30
0.0
 11
23.766621
 21
81.180543
 31
0.0
  0
ARC
  5
BC
100
AcDbEntity
  8
2
370
    50
100
AcDbCircle
 10
2.402217
 20
88.658043
 30
0.0
 40
10.0
100
AcDbArc
 50
244.158067
 51
270.0
  0
LINE
  5
BD
100
AcDbEntity
  8
2
370
    50
100
AcDbLine
 10
2.966621
 20
78.658043
 30
0.0
 11
3.966621
 21
79.658043
 31
0.0
  0
LINE
  5
BE
100
AcDbEntity
  8
2
370
    50
100
AcDbLine
 10
2.402217
 20
78.658043
 30
0.0
 11
2.966621
 21
78.658043
 31
0.0
  0
LINE
  5
BF
100
AcDbEntity
  8
2
370
    50
100
AcDbLine
 10
3.966621
 20
91.658043
 30
0.0
 11
3.966621
 21
79.658043
 31
0.0
  0
LINE
  5
C0
100
AcDbEntity
  8
2
370
    50
100
AcDbLine
 10
-16.46834
 20
82.658043
 30
0.0
 11
-15.033379
 21
82.658043
 31
0.0
  0
LINE
  5
C1
100
AcDbEntity
  8
2
370
    50
100
AcDbLine
 10
-16.46834
 20
100.658043
 30
0.0
 11
-15.033379
 21
100.658043
 31
0.0
  0
ARC
  5
C2
100
AcDbEntity
  8
2
370
    50
100
AcDbCircle
 10
-15.033379
 20
130.658043
 30
0.0
 40
30.0
100
AcDbArc
 50
270.0
 51
295.841933
  0
LINE
  5
C3
100
AcDbEntity
  8
2
370
    50
100
AcDbLine
 10
23.766621
 20
81.180543
 30
0.0
 11
23.766621
 21
102.135543
 31
0.0
  0
LINE
  5
C4
100
AcDbEntity
  8
2
370
    50
100
AcDbLine
 10
-54.069958
 20
-14.06866
 30
0.0
 11
-54.069958
 21
-12.81866
 31
0.0
  0
LINE
  5
C5
100
AcDbEntity
  8
2
370
    50
100
AcDbLine
 10
-24.069958
 20
-14.06866
 30
0.0
 11
-24.069958
 21
-12.81866
 31
0.0
  0
LINE
  5
C6
100
AcDbEntity
  8
2
370
    50
100
AcDbLine
 10
23.757941
 20
-41.04616
 30
0.0
 11
23.757941
 21
-20.09116
 31
0.0
  0
TEXT
  5
C7
100
AcDbEntity
  8
3
370
    50
100
AcDbText
 10
144.611786
 20
-119.884811
 30
0.0
 40
3.5
  1
１　１
 72
     5
 11
154.411786
 21
-119.884811
 31
0.0
100
AcDbText
  0
TEXT
  5
C8
100
AcDbEntity
  8
3
370
    50
100
AcDbText
 10
34.029404
 20
-126.342285
 30
0.0
 40
3.5
  1
　
 72
     5
 11
33.329404
 21
-126.342285
 31
0.0
100
AcDbText
  0
TEXT
  5
C9
100
AcDbEntity
  8
3
370
    50
100
AcDbText
 10
113.129543
 20
-136.621483
 30
0.0
 40
3.0
  1
外観寸法図
 72
     5
 11
127.529543
 21
-136.621483
 31
0.0
100
AcDbText
  0
LINE
  5
CA
100
AcDbEntity
  8
3
370
    50
100
AcDbLine
 10
-47.989942
 20
-80.402958
 30
0.0
 11
-47.989942
 21
-80.870125
 31
0.0
  0
TEXT
  5
CB
100
AcDbEntity
  8
3
370
    50
100
AcDbText
 10
23.454064
 20
-58.391603
 30
0.0
 40
3.2
  1
ＰＪ１／２
 72
     5
 11
38.814065
 21
-58.391603
 31
0.0
100
AcDbText
  0
LWPOLYLINE
  5
CC
100
AcDbEntity
  8
3
370
    25
100
AcDbPolyline
 90
        3
 70
     0
 10
17.121501
 20
-41.07814
 10
23.421335
 20
-59.304228
 10
39.674962
 20
-59.304228
  0
LINE
  5
D1
100
AcDbEntity
  8
3
370
    25
100
AcDbLine
 10
17.752607
 20
-42.903997
 30
0.0
 11
18.241844
 21
-42.734893
 31
0.0
  0
LINE
  5
D2
100
AcDbEntity
  8
3
370
    25
100
AcDbLine
 10
18.241844
 20
-42.734893
 30
0.0
 11
17.121501
 21
-41.07814
 31
0.0
  0
LINE
  5
D3
100
AcDbEntity
  8
3
370
    25
100
AcDbLine
 10
17.121501
 20
-41.07814
 30
0.0
 11
17.26337
 21
-43.073101
 31
0.0
  0
LINE
  5
D4
100
AcDbEntity
  8
3
370
    25
100
AcDbLine
 10
17.26337
 20
-43.073101
 30
0.0
 11
17.752607
 21
-42.903997
 31
0.0
  0
TEXT
  5
D5
100
AcDbEntity
  8
3
370
    50
100
AcDbText
 10
-73.811651
 20
-88.044508
 30
0.0
 40
3.2
  1
Ｍ１６．５
 72
     5
 11
-58.451651
 21
-88.044508
 31
0.0
100
AcDbText
  0
LWPOLYLINE
  5
D6
100
AcDbEntity
  8
3
370
    25
100
AcDbPolyline
 90
        3
 70
     0
 10
-56.112023
 20
-78.497941
 10
-57.580772
 20
-88.622026
 10
-73.189894
 20
-88.622026
  0
LINE
  5
DB
100
AcDbEntity
  8
3
370
    25
100
AcDbLine
 10
-56.389382
 20
-80.409778
 30
0.0
 11
-55.877107
 21
-80.484097
 31
0.0
  0
LINE
  5
DC
100
AcDbEntity
  8
3
370
    25
100
AcDbLine
 10
-55.877107
 20
-80.484097
 30
0.0
 11
-56.112023
 21
-78.497941
 31
0.0
  0
LINE
  5
DD
100
AcDbEntity
  8
3
370
    25
100
AcDbLine
 10
-56.112023
 20
-78.497941
 30
0.0
 11
-56.901658
 21
-80.33546
 31
0.0
  0
LINE
  5
DE
100
AcDbEntity
  8
3
370
    25
100
AcDbLine
 10
-56.901658
 20
-80.33546
 30
0.0
 11
-56.389382
 21
-80.409778
 31
0.0
  0
DIMENSION
  5
DF
100
AcDbEntity
  8
3
370
    25
100
AcDbDimension
  2
*D0
 10
-47.989942
 20
-80.870125
 30
0.0
 11
-46.732265
 21
-121.735614
 31
0.0
 70
     2
 71
     0
 72
     0
 41
0.0
 42
0.0
  3
Standard
100
AcDb2LineAngularDimension
 13
-48.731668
 23
-83.565321
 33
0.0
 14
-47.989942
 24
-80.402958
 34
0.0
 15
-47.989942
 25
-80.402958
 35
0.0
 16
-52.74997
 26
-121.542678
 36
0.0
1001
ACAD
1000
DSTYLE
1002
{
1070
   275
1070
     0
1070
   179
1070
     0
1002
}
  0
TEXT
  5
E0
100
AcDbEntity
  8
3
370
    50
100
AcDbText
 10
-79.355576
 20
-63.485809
 30
0.0
 40
4.0
  1
５０
 50
90.0
 72
     5
 11
-79.355576
 21
-56.285809
 31
0.0
100
AcDbText
  0
DIMENSION
  5
E1
100
AcDbEntity
  8
3
370
    25
100
AcDbDimension
  2
*D1
 10
-78.855576
 20
-30.56866
 30
0.0
 11
-81.355576
 21
-55.485809
 31
0.0
 71
     0
 72
     0
 41
0.0
 42
0.0
  3
Standard
100
AcDbAlignedDimension
 13
-47.989942
 23
-80.402958
 33
0.0
 14
-60.319247
 24
-30.56866
 34
0.0
 50
90.0
100
AcDbRotatedDimension
  0
TEXT
  5
E2
100
AcDbEntity
  8
3
370
    50
100
AcDbText
 10
-79.355576
 20
-4.19366
 30
0.0
 40
4.0
  1
６８
 50
90.0
 72
     5
 11
-79.355576
 21
3.00634
 31
0.0
100
AcDbText
  0
DIMENSION
  5
E3
100
AcDbEntity
  8
3
370
    25
100
AcDbDimension
  2
*D2
 10
-78.855576
 20
38.18134
 30
0.0
 11
-81.355576
 21
3.80634
 31
0.0
 71
     0
 72
     0
 41
0.0
 42
0.0
  3
Standard
100
AcDbAlignedDimension
 13
-78.855576
 23
-30.56866
 33
0.0
 14
-39.042059
 24
38.18134
 34
0.0
 50
90.0
100
AcDbRotatedDimension
  0
DIMENSION
  5
E4
100
AcDbEntity
  8
3
370
    25
100
AcDbDimension
  2
*D3
 10
24.957941
 20
49.1073
 30
0.0
 11
-7.042059
 21
51.6073
 31
0.0
 71
     0
 72
     0
 41
0.0
 42
0.0
  3
Standard
100
AcDbAlignedDimension
 13
-39.042059
 23
41.171322
 33
0.0
 14
24.957941
 24
-21.29116
 34
0.0
100
AcDbRotatedDimension
  0
LINE
  5
E5
100
AcDbEntity
  8
3
370
    50
100
AcDbLine
 10
75.481258
 20
-49.981413
 30
0.0
 11
189.739026
 21
-49.981413
 31
0.0
  0
LINE
  5
E6
100
AcDbEntity
  8
3
370
    50
100
AcDbLine
 10
75.481258
 20
-44.981413
 30
0.0
 11
189.739026
 21
-44.981413
 31
0.0
  0
LINE
  5
E7
100
AcDbEntity
  8
3
370
    50
100
AcDbLine
 10
75.481258
 20
-39.981413
 30
0.0
 11
189.739026
 21
-39.981413
 31
0.0
  0
TEXT
  5
E8
100
AcDbEntity
  8
3
370
    50
100
AcDbText
 10
128.382386
 20
-31.838116
 30
0.0
 40
3.5
  1
品      番
 72
     5
 11
145.182386
 21
-31.838116
 31
0.0
100
AcDbText
  0
LINE
  5
E9
100
AcDbEntity
  8
3
370
    50
100
AcDbLine
 10
115.481258
 20
-59.981413
 30
0.0
 11
115.481258
 21
-24.981413
 31
0.0
  0
LINE
  5
EA
100
AcDbEntity
  8
3
370
    50
100
AcDbLine
 10
157.739026
 20
-24.981413
 30
0.0
 11
157.739026
 21
-59.981413
 31
0.0
  0
LINE
  5
EB
100
AcDbEntity
  8
3
370
    50
100
AcDbLine
 10
75.481258
 20
-34.981413
 30
0.0
 11
189.739026
 21
-34.981413
 31
0.0
  0
TEXT
  5
EC
100
AcDbEntity
  8
3
370
    50
100
AcDbText
 10
166.898633
 20
-31.973365
 30
0.0
 40
3.5
  1
表面処理
 72
     5
 11
180.198633
 21
-31.973365
 31
0.0
100
AcDbText
  0
LINE
  5
ED
100
AcDbEntity
  8
3
370
    50
100
AcDbLine
 10
75.481258
 20
-24.981413
 30
0.0
 11
189.739026
 21
-24.981413
 31
0.0
  0
LINE
  5
EE
100
AcDbEntity
  8
3
370
    50
100
AcDbLine
 10
189.739026
 20
-24.981413
 30
0.0
 11
189.739026
 21
-59.981413
 31
0.0
  0
LINE
  5
EF
100
AcDbEntity
  8
3
370
    50
100
AcDbLine
 10
75.481258
 20
-59.981413
 30
0.0
 11
75.481258
 21
-24.981413
 31
0.0
  0
TEXT
  5
F0
100
AcDbEntity
  8
3
370
    50
100
AcDbText
 10
87.326749
 20
-31.941729
 30
0.0
 40
3.5
  1
コードＮｏ
 72
     5
 11
104.126749
 21
-31.941729
 31
0.0
100
AcDbText
  0
LINE
  5
F1
100
AcDbEntity
  8
3
370
    50
100
AcDbLine
 10
75.481258
 20
-59.981413
 30
0.0
 11
189.739026
 21
-59.981413
 31
0.0
  0
LINE
  5
F2
100
AcDbEntity
  8
3
370
    50
100
AcDbLine
 10
75.481258
 20
-54.981413
 30
0.0
 11
189.739026
 21
-54.981413
 31
0.0
  0
TEXT
  5
F3
100
AcDbEntity
  8
3
370
    50
100
AcDbText
 10
128.372807
 20
-38.911445
 30
0.0
 40
3.5
  1
ＭＣ－０１
 72
     5
 11
145.172807
 21
-38.911445
 31
0.0
100
AcDbText
  0
TEXT
  5
F4
100
AcDbEntity
  8
3
370
    50
100
AcDbText
 10
128.372807
 20
-44.200739
 30
0.0
 40
3.5
  1
ＭＣ－０２
 72
     5
 11
145.172807
 21
-44.200739
 31
0.0
100
AcDbText
  0
TEXT
  5
F5
100
AcDbEntity
  8
3
370
    50
100
AcDbText
 10
128.372807
 20
-49.307388
 30
0.0
 40
3.5
  1
ＭＣ－０３
 72
     5
 11
145.172807
 21
-49.307388
 31
0.0
100
AcDbText
  0
TEXT
  5
F6
100
AcDbEntity
  8
3
370
    50
100
AcDbText
 10
128.372807
 20
-54.200739
 30
0.0
 40
3.5
  1
ＭＣ－０４
 72
     5
 11
145.172807
 21
-54.200739
 31
0.0
100
AcDbText
  0
TEXT
  5
F7
100
AcDbEntity
  8
3
370
    50
100
AcDbText
 10
128.372807
 20
-59.307388
 30
0.0
 40
3.5
  1
ＭＣ－０５
 72
     5
 11
145.172807
 21
-59.307388
 31
0.0
100
AcDbText
  0
TEXT
  5
F8
100
AcDbEntity
  8
3
370
    50
100
AcDbText
 10
166.091095
 20
-39.044376
 30
0.0
 40
3.5
  1
白
 41
0.9
 72
     5
 11
168.611095
 21
-39.044376
 31
0.0
100
AcDbText
  0
TEXT
  5
F9
100
AcDbEntity
  8
3
370
    50
100
AcDbText
 10
166.013367
 20
-44.173848
 30
0.0
 40
3.5
  1
赤
 72
     5
 11
168.813367
 21
-44.173848
 31
0.0
100
AcDbText
  0
TEXT
  5
FA
100
AcDbEntity
  8
3
370
    50
100
AcDbText
 10
166.868423
 20
-49.070189
 30
0.0
 40
3.5
  1
オリーブ
 72
     5
 11
180.168423
 21
-49.070189
 31
0.0
100
AcDbText
  0
TEXT
  5
FB
100
AcDbEntity
  8
3
370
    50
100
AcDbText
 10
166.013367
 20
-54.173848
 30
0.0
 40
3.5
  1
黄
 72
     5
 11
168.813367
 21
-54.173848
 31
0.0
100
AcDbText
  0
TEXT
  5
FC
100
AcDbEntity
  8
3
370
    50
100
AcDbText
 10
166.201126
 20
-59.070189
 30
0.0
 40
3.5
  1
紺
 72
     5
 11
169.001126
 21
-59.070189
 31
0.0
100
AcDbText
  0
TEXT
  5
FD
100
AcDbEntity
  8
3
370
    50
100
AcDbText
 10
36.901493
 20
-115.925804
 30
0.0
 40
3.0
  1
横水栓
 72
     5
 11
45.301493
 21
-115.925804
 31
0.0
100
AcDbText
  0
TEXT
  5
FE
100
AcDbEntity
  8
3
370
    50
100
AcDbText
 10
85.219981
 20
-38.911445
 30
0.0
 40
3.5
  1
７３５０２２
 72
     5
 11
105.519981
 21
-38.911445
 31
0.0
100
AcDbText
  0
TEXT
  5
FF
100
AcDbEntity
  8
3
370
    50
100
AcDbText
 10
85.219981
 20
-44.200739
 30
0.0
 40
3.5
  1
７３５０２３
 72
     5
 11
105.519981
 21
-44.200739
 31
0.0
100
AcDbText
  0
TEXT
  5
100
100
AcDbEntity
  8
3
370
    50
100
AcDbText
 10
85.219981
 20
-49.307388
 30
0.0
 40
3.5
  1
７３５０２４
 72
     5
 11
105.519981
 21
-49.307388
 31
0.0
100
AcDbText
  0
TEXT
  5
101
100
AcDbEntity
  8
3
370
    50
100
AcDbText
 10
85.219981
 20
-54.200739
 30
0.0
 40
3.5
  1
７３５０２５
 72
     5
 11
105.519981
 21
-54.200739
 31
0.0
100
AcDbText
  0
TEXT
  5
102
100
AcDbEntity
  8
3
370
    50
100
AcDbText
 10
85.219981
 20
-59.307388
 30
0.0
 40
3.5
  1
７３５０２６
 72
     5
 11
105.519981
 21
-59.307388
 31
0.0
100
AcDbText
  0
ENDSEC
  0
SECTION
  2
OBJECTS
  0
DICTIONARY
  5
130
100
AcDbDictionary
280
     0
281
     1
  3
ACAD_GROUP
350
131
  3
ACAD_MLINESTYLE
350
132
  0
DICTIONARY
  5
131
102
{ACAD_REACTORS
330
130
102
}
100
AcDbDictionary
280
     0
281
     1
  0
DICTIONARY
  5
132
102
{ACAD_REACTORS
330
130
102
}
100
AcDbDictionary
280
     0
281
     1
  3
Standard
350
133
  0
MLINESTYLE
  5
133
102
{ACAD_REACTORS
330
132
102
}
100
AcDbMlineStyle
  2
Standard
 70
     0
  3

 62
     0
 51
90.0
 52
90.0
 71
     2
 49
0.5
 62
   256
  6
ByLayer
 49
-0.5
 62
   256
  6
ByLayer
  0
ENDSEC
  0
EOF
