  0
SECTION
  2
HEADER
  9
$ACADVER
  1
AC1015
  9
$ACADMAINTVER
 70
     6
  9
$DWGCODEPAGE
  3
ANSI_932
  9
$INSBASE
 10
0.0
 20
0.0
 30
0.0
  9
$EXTMIN
 10
-841.0
 20
-594.0
 30
1.000000E+20
  9
$EXTMAX
 10
841.0
 20
594.0
 30
-1.000000E+20
  9
$LIMMIN
 10
-841.0
 20
-594.0
  9
$LIMMAX
 10
841.0
 20
594.0
  9
$ORTHOMODE
 70
     0
  9
$REGENMODE
 70
     1
  9
$FILLMODE
 70
     1
  9
$QTEXTMODE
 70
     0
  9
$MIRRTEXT
 70
     1
  9
$LTSCALE
 40
1.0
  9
$ATTMODE
 70
     1
  9
$TEXTSIZE
 40
0.2
  9
$TRACEWID
 40
0.05
  9
$TEXTSTYLE
  7
STANDARD
  9
$CLAYER
  8
0
  9
$CELTYPE
  6
CONTINUOUS
  9
$CECOLOR
 62
   256
  9
$CELTSCALE
 40
1.0
  9
$DISPSILH
 70
     0
  9
$DIMSCALE
 40
2.0
  9
$DIMASZ
 40
2.0
  9
$DIMEXO
 40
1.0
  9
$DIMDLI
 40
0.38
  9
$DIMRND
 40
0.0
  9
$DIMDLE
 40
0.0
  9
$DIMEXE
 40
2.0
  9
$DIMTP
 40
0.0
  9
$DIMTM
 40
0.0
  9
$DIMTXT
 40
3.5
  9
$DIMCEN
 40
0.09
  9
$DIMTSZ
 40
0.0
  9
$DIMTOL
 70
     0
  9
$DIMLIM
 70
     0
  9
$DIMTIH
 70
     0
  9
$DIMTOH
 70
     0
  9
$DIMSE1
 70
     0
  9
$DIMSE2
 70
     0
  9
$DIMTAD
 70
     1
  9
$DIMZIN
 70
     0
  9
$DIMBLK
  1

  9
$DIMASO
 70
     1
  9
$DIMSHO
 70
     1
  9
$DIMPOST
  1

  9
$DIMAPOST
  1

  9
$DIMALT
 70
     0
  9
$DIMALTD
 70
     2
  9
$DIMALTF
 40
25.4
  9
$DIMLFAC
 40
1.0
  9
$DIMTOFL
 70
     0
  9
$DIMTVP
 40
0.0
  9
$DIMTIX
 70
     0
  9
$DIMSOXD
 70
     0
  9
$DIMSAH
 70
     0
  9
$DIMBLK1
  1

  9
$DIMBLK2
  1

  9
$DIMSTYLE
  2
Standard
  9
$DIMCLRD
 70
     0
  9
$DIMCLRE
 70
     0
  9
$DIMCLRT
 70
     0
  9
$DIMTFAC
 40
1.0
  9
$DIMGAP
 40
0.5
  9
$DIMJUST
 70
     0
  9
$DIMSD1
 70
     0
  9
$DIMSD2
 70
     0
  9
$DIMTOLJ
 70
     1
  9
$DIMTZIN
 70
     0
  9
$DIMALTZ
 70
     0
  9
$DIMALTTZ
 70
     0
  9
$DIMUPT
 70
     0
  9
$DIMDEC
 70
     3
  9
$DIMTDEC
 70
     4
  9
$DIMALTU
 70
     2
  9
$DIMALTTD
 70
     2
  9
$DIMTXSTY
  7
STANDARD
  9
$DIMAUNIT
 70
     0
  9
$DIMADEC
 70
     0
  9
$DIMALTRND
 40
0.0
  9
$DIMAZIN
 70
     0
  9
$DIMDSEP
 70
     0
  9
$DIMATFIT
 70
     3
  9
$DIMFRAC
 70
     0
  9
$DIMLDRBLK
  1

  9
$DIMLUNIT
 70
     2
  9
$DIMLWD
 70
     0
  9
$DIMLWE
 70
     0
  9
$DIMTMOVE
 70
     0
  9
$LUNITS
 70
     2
  9
$LUPREC
 70
     4
  9
$SKETCHINC
 40
0.1
  9
$FILLETRAD
 40
0.0
  9
$AUNITS
 70
     0
  9
$AUPREC
 70
     0
  9
$MENU
  1
acad
  9
$ELEVATION
 40
0.0
  9
$PELEVATION
 40
0.0
  9
$THICKNESS
 40
0.0
  9
$LIMCHECK
 70
     0
  9
$CHAMFERA
 40
0.0
  9
$CHAMFERB
 40
0.0
  9
$CHAMFERC
 40
0.0
  9
$CHAMFERD
 40
0.0
  9
$SKPOLY
 70
     0
  9
$TDCREATE
 40
2453383.000000000
  9
$TDUCREATE
 40
0.000000000
  9
$TDUPDATE
 40
0.000000000
  9
$TDUUPDATE
 40
2447892.625000000
  9
$TDINDWG
 40
0.0000000000
  9
$TDUSRTIMER
 40
0.0000000000
  9
$USRTIMER
 70
     1
  9
$ANGBASE
 50
0.0
  9
$ANGDIR
 70
     0
  9
$PDMODE
 70
     0
  9
$PDSIZE
 40
0.0
  9
$PLINEWID
 40
0.0
  9
$SPLFRAME
 70
     0
  9
$SPLINETYPE
 70
     6
  9
$SPLINESEGS
 70
     8
  9
$HANDSEED
  5
478
  9
$SURFTAB1
 70
     6
  9
$SURFTAB2
 70
     6
  9
$SURFTYPE
 70
     6
  9
$SURFU
 70
     6
  9
$SURFV
 70
     6
  9
$UCSBASE
  2

  9
$UCSNAME
  2

  9
$UCSORG
 10
0.0
 20
0.0
 30
0.0
  9
$UCSXDIR
 10
1.0
 20
0.0
 30
0.0
  9
$UCSYDIR
 10
0.0
 20
1.0
 30
0.0
  9
$UCSORTHOREF
  2

  9
$UCSORTHOVIEW
 70
     0
  9
$UCSORGTOP
 10
0.0
 20
0.0
 30
0.0
  9
$UCSORGBOTTOM
 10
0.0
 20
0.0
 30
0.0
  9
$UCSORGLEFT
 10
0.0
 20
0.0
 30
0.0
  9
$UCSORGRIGHT
 10
0.0
 20
0.0
 30
0.0
  9
$UCSORGFRONT
 10
0.0
 20
0.0
 30
0.0
  9
$UCSORGBACK
 10
0.0
 20
0.0
 30
0.0
  9
$PUCSBASE
  2

  9
$PUCSNAME
  2

  9
$PUCSORG
 10
0.0
 20
0.0
 30
0.0
  9
$PUCSXDIR
 10
1.0
 20
0.0
 30
0.0
  9
$PUCSYDIR
 10
0.0
 20
1.0
 30
0.0
  9
$PUCSORTHOREF
  2

  9
$PUCSORTHOVIEW
 70
     0
  9
$PUCSORGTOP
 10
0.0
 20
0.0
 30
0.0
  9
$PUCSORGBOTTOM
 10
0.0
 20
0.0
 30
0.0
  9
$PUCSORGLEFT
 10
0.0
 20
0.0
 30
0.0
  9
$PUCSORGRIGHT
 10
0.0
 20
0.0
 30
0.0
  9
$PUCSORGFRONT
 10
0.0
 20
0.0
 30
0.0
  9
$PUCSORGBACK
 10
0.0
 20
0.0
 30
0.0
  9
$USERI1
 70
     0
  9
$USERI2
 70
     0
  9
$USERI3
 70
     0
  9
$USERI4
 70
     0
  9
$USERI5
 70
     0
  9
$USERR1
 40
0.0
  9
$USERR2
 40
0.0
  9
$USERR3
 40
0.0
  9
$USERR4
 40
0.0
  9
$USERR5
 40
0.0
  9
$WORLDVIEW
 70
     1
  9
$SHADEDGE
 70
     3
  9
$SHADEDIF
 70
    70
  9
$TILEMODE
 70
     1
  9
$MAXACTVP
 70
    16
  9
$PINSBASE
 10
0.0
 20
0.0
 30
0.0
  9
$PLIMCHECK
 70
     0
  9
$PEXTMIN
 10
1.000000E+20
 20
1.000000E+20
 30
1.000000E+20
  9
$PEXTMAX
 10
-1.000000E+20
 20
-1.000000E+20
 30
-1.000000E+20
  9
$PLIMMIN
 10
0.0
 20
0.0
  9
$PLIMMAX
 10
12.0
 20
9.0
  9
$UNITMODE
 70
     0
  9
$VISRETAIN
 70
     0
  9
$PLINEGEN
 70
     1
  9
$PSLTSCALE
 70
     0
  9
$TREEDEPTH
 70
  3020
  9
$CMLSTYLE
  2
Standard
  9
$CMLJUST
 70
     0
  9
$CMLSCALE
 40
1.0
  9
$PROXYGRAPHICS
 70
     0
  9
$MEASUREMENT
 70
     0
  9
$CELWEIGHT
370
     0
  9
$ENDCAPS
280
     0
  9
$JOINSTYLE
280
     0
  9
$LWDISPLAY
290
     0
  9
$INSUNITS
 70
     0
  9
$HYPERLINKBASE
  1

  9
$STYLESHEET
  1

  9
$XEDIT
290
     1
  9
$CEPSNTYPE
380
     0
  9
$PSTYLEMODE
290
     1
  9
$FINGERPRINTGUID
  2

  9
$VERSIONGUID
  2

  9
$EXTNAMES
290
     1
  9
$PSVPSCALE
 40
0.0
  0
ENDSEC
  0
SECTION
  2
CLASSES
  0
CLASS
  1
LWPOLYLINE
  2
AcDbPolyline
  3
AutoCAD 2000
 90
        0
280
     0
281
     1
  0
CLASS
  1
IMAGE
  2
AcDbRasterImage
  3
ISM
 90
      127
280
     0
281
     1
  0
CLASS
  1
OLE2FRAME
  2
AcDbOle2Frame
  3
AutoCAD 2000
 90
        0
280
     0
281
     1
  0
CLASS
  1
HATCH
  2
AcDbHatch
  3
AutoCAD 2000
 90
        0
280
     0
281
     1
  0
CLASS
  1
DICTIONARYVAR
  2
AcDbDictionaryVar
  3
AutoCAD 2000
 90
        0
280
     0
281
     0
  0
CLASS
  1
RASTERVARIABLES
  2
AcDbRasterVariables
  3
ISM
 90
        0
280
     0
281
     0
  0
CLASS
  1
IMAGEDEF
  2
AcDbRasterImageDef
  3
ISM
 90
        0
280
     0
281
     0
  0
CLASS
  1
IMAGEDEF_REACTOR
  2
AcDbRasterImageDefReactor
  3
ISM
 90
        1
280
     0
281
     0
  0
CLASS
  1
IDBUFFER
  2
AcDbIdBuffer
  3
AutoCAD 2000
 90
        0
280
     0
281
     0
  0
CLASS
  1
SPATIAL_FILTER
  2
AcDbSpatialFilter
  3
AutoCAD 2000
 90
        0
280
     0
281
     0
  0
CLASS
  1
XRECORD
  2
AcDbXrecord
  3
AutoCAD 2000
 90
        0
280
     0
281
     0
  0
CLASS
  1
SORTENTSTABLE
  2
AcDbSortentsTable
  3
AutoCAD 2000
 90
        0
280
     0
281
     0
  0
CLASS
  1
LAYER_INDEX
  2
AcDbLayerIndex
  3
AutoCAD 2000
 90
        0
280
     0
281
     0
  0
CLASS
  1
SPATIAL_INDEX
  2
AcDbSpatialIndex
  3
AutoCAD 2000
 90
        0
280
     0
281
     0
  0
CLASS
  1
OBJECT_PTR
  2
CAseDLPNTableRecord
  3
"ASE-LPNTableRecord"
 90
        1
280
     0
281
     0
  0
CLASS
  1
LAYOUT
  2
AcDbLayout
  3
AutoCAD 2000
 90
        0
280
     0
281
     0
  0
CLASS
  1
PLOTSETTINGS
  2
AcDbPlotSettings
  3
AutoCAD 2000
 90
        0
280
     0
281
     0
  0
CLASS
  1
ACDBDICTIONARYWDFLT
  2
AcDbDictionaryWithDefault
  3
AutoCAD 2000
 90
        0
280
     0
281
     0
  0
CLASS
  1
ACDBPLACEHOLDER
  2
AcDbPlaceHolder
  3
AutoCAD 2000
 90
        0
280
     0
281
     0
  0
CLASS
  1
VBA_PROJECT
  2
AcDbVbaProject
  3
acadvba
 90
        0
280
     0
281
     0
  0
CLASS
  1
WIPEOUT
  2
AcDbWipeout
  3
WipeOut|AutoCAD Express Tool|expresstools@autodesk.com
 90
      127
280
     0
281
     1
  0
CLASS
  1
WIPEOUTVARIABLES
  2
AcDbWipeoutVariables
  3
WipeOut|AutoCAD Express Tool|expresstools@autodesk.com
 90
        0
280
     0
281
     0
  0
CLASS
  1
RTEXT
  2
RText
  3
RText|AutoCAD Express Tool|expresstools@autodesk.com
 90
        0
280
     0
281
     1
  0
CLASS
  1
ARCALIGNEDTEXT
  2
AcDbArcAlignedText
  3
ATEXT|AutoCAD Express Tool|expresstools@autodesk.com
 90
        0
280
     0
281
     1
  0
ENDSEC
  0
SECTION
  2
TABLES
  0
TABLE
  2
VPORT
  5
6
100
AcDbSymbolTable
 70
     1
  0
VPORT
  5
19
100
AcDbSymbolTableRecord
100
AcDbViewportTableRecord
  2
*ACTIVE
 70
     0
 10
0.0
 20
0.0
 11
1.0
 21
1.0
 12
0.0
 22
0.0
 13
0.0
 23
0.0
 14
1.0
 24
1.0
 15
0.0
 25
0.0
 16
0.0
 26
0.0
 36
1.0
 17
0.0
 27
0.0
 37
0.0
 40
1188.0
 41
1.415825
 42
50.0
 43
0.0
 44
0.0
 50
0.0
 51
0.0
 71
     0
 72
   500
 73
     1
 74
     1
 75
     0
 76
     0
 77
     0
 78
     0
281
     0
 65
     0
110
0.0
120
0.0
130
0.0
111
1.0
121
0.0
131
0.0
112
0.0
122
1.0
132
0.0
345
0
346
0
 79
     0
146
0.0
  0
ENDTAB
  0
TABLE
  2
LTYPE
  5
3
100
AcDbSymbolTable
 70
     9
  0
LTYPE
  5
C
100
AcDbSymbolTableRecord
100
AcDbLinetypeTableRecord
  2
ByBlock
 70
    64
  3

 72
    65
 73
     0
 40
0.0
  0
LTYPE
  5
D
100
AcDbSymbolTableRecord
100
AcDbLinetypeTableRecord
  2
ByLayer
 70
    64
  3

 72
    65
 73
     0
 40
0.0
  0
LTYPE
  5
E
100
AcDbSymbolTableRecord
100
AcDbLinetypeTableRecord
  2
CONTINUOUS
 70
     0
  3
Solid line
 72
    65
 73
     0
 40
0.0
  0
LTYPE
  5
F
100
AcDbSymbolTableRecord
100
AcDbLinetypeTableRecord
  2
DASHED
 70
     0
  3
__ __ __ __ __ __ __ __ __ __ __ __ __ __ __
 72
    65
 73
     2
 40
2.0
 49
1.2
 74
     0
 49
-0.8
 74
     0
  0
LTYPE
  5
10
100
AcDbSymbolTableRecord
100
AcDbLinetypeTableRecord
  2
CENTER
 70
     0
  3
____ _ ____ _ ____ _ ____ _ ____ _ ____ _ ____
 72
    65
 73
     4
 40
12.0
 49
9.0
 74
     0
 49
-1.0
 74
     0
 49
1.0
 74
     0
 49
-1.0
 74
     0
  0
LTYPE
  5
11
100
AcDbSymbolTableRecord
100
AcDbLinetypeTableRecord
  2
HIDDEN
 70
     0
  3
_ _ _ _ _ _ _ _ _ _ _ _ _ _ _ _ _ _ _ _ _ _ _
 72
    65
 73
     2
 40
3.2
 49
2.4
 74
     0
 49
-0.8
 74
     0
  0
LTYPE
  5
12
100
AcDbSymbolTableRecord
100
AcDbLinetypeTableRecord
  2
PHANTOM
 70
     0
  3
_____ _ _ _____ _ _ _____ _ _ _____ _ _ _____
 72
    65
 73
     6
 40
13.5
 49
9.0
 74
     0
 49
-1.0
 74
     0
 49
1.0
 74
     0
 49
-0.5
 74
     0
 49
1.0
 74
     0
 49
-1.0
 74
     0
  0
LTYPE
  5
13
100
AcDbSymbolTableRecord
100
AcDbLinetypeTableRecord
  2
DOT
 70
     0
  3
...............................................
 72
    65
 73
     2
 40
1.0
 49
0.5
 74
     0
 49
-0.5
 74
     0
  0
LTYPE
  5
14
100
AcDbSymbolTableRecord
100
AcDbLinetypeTableRecord
  2
DASHDOT
 70
     0
  3
__ . __ . __ . __ . __ . __ . __ . __ . __ . __
 72
    65
 73
     4
 40
8.0
 49
5.0
 74
     0
 49
-1.0
 74
     0
 49
1.0
 74
     0
 49
-1.0
 74
     0
  0
ENDTAB
  0
TABLE
  2
LAYER
  5
1
100
AcDbSymbolTable
 70
     4
  0
LAYER
  5
15
100
AcDbSymbolTableRecord
100
AcDbLayerTableRecord
  2
0
 70
     0
 62
     7
  6
CONTINUOUS
290
     1
370
    -3
390
0
  0
LAYER
  5
16
100
AcDbSymbolTableRecord
100
AcDbLayerTableRecord
  2
1
 70
     0
 62
     7
  6
CONTINUOUS
290
     1
370
    -3
390
0
  0
LAYER
  5
17
100
AcDbSymbolTableRecord
100
AcDbLayerTableRecord
  2
2
 70
     0
 62
     7
  6
CONTINUOUS
290
     1
370
    -3
390
0
  0
LAYER
  5
18
100
AcDbSymbolTableRecord
100
AcDbLayerTableRecord
  2
3
 70
     0
 62
     7
  6
CONTINUOUS
290
     1
370
    -3
390
0
  0
ENDTAB
  0
TABLE
  2
STYLE
  5
2
100
AcDbSymbolTable
 70
     1
  0
STYLE
  5
1B
100
AcDbSymbolTableRecord
100
AcDbTextStyleTableRecord
  2
STANDARD
 70
    64
 40
0.0
 41
1.0
 50
0.0
 71
     0
 42
1.0
  3
txt
  4
BIGFONT
  0
ENDTAB
  0
TABLE
  2
VIEW
  5
4
100
AcDbSymbolTable
 70
     0
  0
ENDTAB
  0
TABLE
  2
UCS
  5
5
100
AcDbSymbolTable
 70
     0
  0
ENDTAB
  0
TABLE
  2
APPID
  5
7
100
AcDbSymbolTable
 70
     1
  0
APPID
  5
1A
100
AcDbSymbolTableRecord
100
AcDbRegAppTableRecord
  2
ACAD
 70
     0
  0
ENDTAB
  0
TABLE
  2
DIMSTYLE
  5
8
100
AcDbSymbolTable
 70
     1
100
AcDbDimStyleTable
 71
     0
  0
DIMSTYLE
105
31
100
AcDbSymbolTableRecord
100
AcDbDimStyleTableRecord
  2
Standard
 70
     0
  3

  4

 40
2.0
 41
2.0
 42
1.0
 43
0.38
 44
2.0
 45
0.0
 46
0.0
 47
0.0
 48
0.0
 71
     0
 72
     0
 73
     0
 74
     0
 75
     0
 76
     0
 77
     1
 78
     0
 79
     0
140
3.5
141
0.09
142
0.0
143
25.4
144
1.0
145
0.0
146
1.0
147
0.5
148
0.0
170
     0
171
     2
172
     0
173
     0
174
     0
175
     0
176
     0
177
     0
178
     0
179
     0
271
     3
272
     4
273
     2
274
     2
275
     0
276
     0
277
     2
278
    46
279
     0
280
     0
281
     0
282
     0
283
     1
284
     0
285
     0
286
     0
288
     0
289
     3
340
1B
341
0
342
0
343
0
344
0
371
    -2
372
    -2
  0
ENDTAB
  0
TABLE
  2
BLOCK_RECORD
  5
2C
100
AcDbSymbolTable
 70
    14
  0
BLOCK_RECORD
  5
2A
100
AcDbSymbolTableRecord
100
AcDbBlockTableRecord
  2
*Model_Space
340
0
  0
BLOCK_RECORD
  5
2B
100
AcDbSymbolTableRecord
100
AcDbBlockTableRecord
  2
*Paper_Space
340
0
  0
BLOCK_RECORD
  5
1C
100
AcDbSymbolTableRecord
100
AcDbBlockTableRecord
  2
*D0
340
0
  0
BLOCK_RECORD
  5
1D
100
AcDbSymbolTableRecord
100
AcDbBlockTableRecord
  2
*D1
340
0
  0
BLOCK_RECORD
  5
1E
100
AcDbSymbolTableRecord
100
AcDbBlockTableRecord
  2
*D2
340
0
  0
BLOCK_RECORD
  5
1F
100
AcDbSymbolTableRecord
100
AcDbBlockTableRecord
  2
*D3
340
0
  0
BLOCK_RECORD
  5
20
100
AcDbSymbolTableRecord
100
AcDbBlockTableRecord
  2
*D4
340
0
  0
BLOCK_RECORD
  5
21
100
AcDbSymbolTableRecord
100
AcDbBlockTableRecord
  2
*D5
340
0
  0
BLOCK_RECORD
  5
22
100
AcDbSymbolTableRecord
100
AcDbBlockTableRecord
  2
*D6
340
0
  0
BLOCK_RECORD
  5
23
100
AcDbSymbolTableRecord
100
AcDbBlockTableRecord
  2
*D7
340
0
  0
BLOCK_RECORD
  5
24
100
AcDbSymbolTableRecord
100
AcDbBlockTableRecord
  2
*D8
340
0
  0
BLOCK_RECORD
  5
25
100
AcDbSymbolTableRecord
100
AcDbBlockTableRecord
  2
*D9
340
0
  0
BLOCK_RECORD
  5
26
100
AcDbSymbolTableRecord
100
AcDbBlockTableRecord
  2
*D10
340
0
  0
BLOCK_RECORD
  5
27
100
AcDbSymbolTableRecord
100
AcDbBlockTableRecord
  2
*D11
340
0
  0
BLOCK_RECORD
  5
28
100
AcDbSymbolTableRecord
100
AcDbBlockTableRecord
  2
*D12
340
0
  0
BLOCK_RECORD
  5
29
100
AcDbSymbolTableRecord
100
AcDbBlockTableRecord
  2
*D13
340
0
  0
ENDTAB
  0
ENDSEC
  0
SECTION
  2
BLOCKS
  0
BLOCK
  5
2D
100
AcDbEntity
  8
0
390
0
100
AcDbBlockBegin
  2
*Model_Space
 70
     0
 10
0.0
 20
0.0
 30
0.0
  3
*Model_Space
  1

  0
ENDBLK
  5
2E
100
AcDbEntity
  8
0
390
0
100
AcDbBlockEnd
  0
BLOCK
  5
2F
100
AcDbEntity
 67
     1
  8
0
390
0
100
AcDbBlockBegin
  2
*Paper_Space
 70
     0
 10
0.0
 20
0.0
 30
0.0
  3
*Paper_Space
  1

  0
ENDBLK
  5
30
100
AcDbEntity
 67
     1
  8
0
390
0
100
AcDbBlockEnd
  0
BLOCK
  5
3CF
100
AcDbEntity
  8
3
100
AcDbBlockBegin
  2
*D0
 70
     1
 10
0.0
 20
0.0
 30
0.0
  3
*D0
  1

  0
TEXT
  5
3D0
100
AcDbEntity
  8
3
370
    25
100
AcDbText
 10
-194.090566
 20
-155.205109
 30
0.0
 40
7.0
  1
１００
 72
     5
 11
-174.490566
 21
-155.205109
 31
0.0
100
AcDbText
  0
LINE
  5
3D1
100
AcDbEntity
  8
3
370
    25
100
AcDbLine
 10
-233.590566
 20
8.025916
 30
0.0
 11
-233.590566
 21
-158.205109
 31
0.0
  0
LINE
  5
3D2
100
AcDbEntity
  8
3
370
    25
100
AcDbLine
 10
-233.590566
 20
-156.205109
 30
0.0
 11
-229.726863
 21
-157.240385
 31
0.0
  0
LINE
  5
3D3
100
AcDbEntity
  8
3
370
    25
100
AcDbLine
 10
-233.590566
 20
-156.205109
 30
0.0
 11
-229.726863
 21
-155.169832
 31
0.0
  0
LINE
  5
3D4
100
AcDbEntity
  8
3
370
    25
100
AcDbLine
 10
-229.726863
 20
-157.240385
 30
0.0
 11
-229.726863
 21
-155.169832
 31
0.0
  0
LINE
  5
3D5
100
AcDbEntity
  8
3
370
    25
100
AcDbLine
 10
-233.590566
 20
-156.205109
 30
0.0
 11
-133.590566
 21
-156.205109
 31
0.0
  0
LINE
  5
3D6
100
AcDbEntity
  8
3
370
    25
100
AcDbLine
 10
-133.590566
 20
-156.205109
 30
0.0
 11
-137.45427
 21
-155.169832
 31
0.0
  0
LINE
  5
3D7
100
AcDbEntity
  8
3
370
    25
100
AcDbLine
 10
-133.590566
 20
-156.205109
 30
0.0
 11
-137.45427
 21
-157.240385
 31
0.0
  0
LINE
  5
3D8
100
AcDbEntity
  8
3
370
    25
100
AcDbLine
 10
-137.45427
 20
-155.169832
 30
0.0
 11
-137.45427
 21
-157.240385
 31
0.0
  0
LINE
  5
3D9
100
AcDbEntity
  8
3
370
    25
100
AcDbLine
 10
-133.590566
 20
8.025916
 30
0.0
 11
-133.590566
 21
-158.205109
 31
0.0
  0
ENDBLK
  5
3DA
100
AcDbEntity
  8
3
100
AcDbBlockEnd
  0
BLOCK
  5
3DB
100
AcDbEntity
  8
3
100
AcDbBlockBegin
  2
*D1
 70
     1
 10
0.0
 20
0.0
 30
0.0
  3
*D1
  1

  0
TEXT
  5
3DC
100
AcDbEntity
  8
3
370
    25
100
AcDbText
 10
91.13844
 20
145.871787
 30
0.0
 40
7.0
  1
３０゜
 50
64.197115
 72
     5
 11
99.669858
 21
163.517606
 31
0.0
100
AcDbText
  0
LINE
  5
3DD
100
AcDbEntity
  8
3
370
    25
100
AcDbLine
 10
151.936598
 20
161.788275
 30
0.0
 11
117.252521
 21
191.729815
 31
0.0
  0
LINE
  5
3DE
100
AcDbEntity
  8
3
370
    25
100
AcDbLine
 10
104.341239
 20
111.291515
 30
0.0
 11
80.556382
 21
115.829961
 31
0.0
  0
LINE
  5
3DF
100
AcDbEntity
  8
3
370
    25
100
AcDbLine
 10
118.766445
 20
190.422898
 30
0.0
 11
115.485247
 21
188.135162
 31
0.0
  0
LINE
  5
3E0
100
AcDbEntity
  8
3
370
    25
100
AcDbLine
 10
118.766445
 20
190.422898
 30
0.0
 11
117.068712
 21
186.801061
 31
0.0
  0
LINE
  5
3E1
100
AcDbEntity
  8
3
370
    25
100
AcDbLine
 10
115.485247
 20
188.135162
 30
0.0
 11
117.068712
 21
186.801061
 31
0.0
  0
LINE
  5
3E2
100
AcDbEntity
  8
3
370
    25
100
AcDbLine
 10
82.520938
 20
115.455099
 30
0.0
 11
84.305165
 21
119.035118
 31
0.0
  0
LINE
  5
3E3
100
AcDbEntity
  8
3
370
    25
100
AcDbLine
 10
82.520938
 20
115.455099
 30
0.0
 11
82.276114
 21
119.4476
 31
0.0
  0
LINE
  5
3E4
100
AcDbEntity
  8
3
370
    25
100
AcDbLine
 10
84.305165
 20
119.035118
 30
0.0
 11
82.276114
 21
119.4476
 31
0.0
  0
ARC
  5
3E5
100
AcDbEntity
  8
3
370
    25
100
AcDbCircle
 10
240.535508
 20
85.303961
 30
0.0
 40
160.865458
100
AcDbArc
 50
139.197115
 51
169.197115
  0
ENDBLK
  5
3E6
100
AcDbEntity
  8
3
100
AcDbBlockEnd
  0
BLOCK
  5
3E7
100
AcDbEntity
  8
3
100
AcDbBlockBegin
  2
*D2
 70
     1
 10
0.0
 20
0.0
 30
0.0
  3
*D2
  1

  0
TEXT
  5
3E8
100
AcDbEntity
  8
3
370
    25
100
AcDbText
 10
115.367988
 20
-165.835373
 30
0.0
 40
7.0
  1
１７０
 72
     5
 11
134.967988
 21
-165.835373
 31
0.0
100
AcDbText
  0
LINE
  5
3E9
100
AcDbEntity
  8
3
370
    25
100
AcDbLine
 10
40.867988
 20
-129.574933
 30
0.0
 11
40.867988
 21
-168.835373
 31
0.0
  0
LINE
  5
3EA
100
AcDbEntity
  8
3
370
    25
100
AcDbLine
 10
40.867988
 20
-166.835373
 30
0.0
 11
44.731692
 21
-167.870649
 31
0.0
  0
LINE
  5
3EB
100
AcDbEntity
  8
3
370
    25
100
AcDbLine
 10
40.867988
 20
-166.835373
 30
0.0
 11
44.731692
 21
-165.800097
 31
0.0
  0
LINE
  5
3EC
100
AcDbEntity
  8
3
370
    25
100
AcDbLine
 10
44.731692
 20
-167.870649
 30
0.0
 11
44.731692
 21
-165.800097
 31
0.0
  0
LINE
  5
3ED
100
AcDbEntity
  8
3
370
    25
100
AcDbLine
 10
40.867988
 20
-166.835373
 30
0.0
 11
210.867988
 21
-166.835373
 31
0.0
  0
LINE
  5
3EE
100
AcDbEntity
  8
3
370
    25
100
AcDbLine
 10
210.867988
 20
-166.835373
 30
0.0
 11
207.004285
 21
-165.800097
 31
0.0
  0
LINE
  5
3EF
100
AcDbEntity
  8
3
370
    25
100
AcDbLine
 10
210.867988
 20
-166.835373
 30
0.0
 11
207.004285
 21
-167.870649
 31
0.0
  0
LINE
  5
3F0
100
AcDbEntity
  8
3
370
    25
100
AcDbLine
 10
207.004285
 20
-165.800097
 30
0.0
 11
207.004285
 21
-167.870649
 31
0.0
  0
LINE
  5
3F1
100
AcDbEntity
  8
3
370
    25
100
AcDbLine
 10
210.867988
 20
-58.475517
 30
0.0
 11
210.867988
 21
-168.835373
 31
0.0
  0
ENDBLK
  5
3F2
100
AcDbEntity
  8
3
100
AcDbBlockEnd
  0
BLOCK
  5
3F3
100
AcDbEntity
  8
3
100
AcDbBlockBegin
  2
*D3
 70
     1
 10
0.0
 20
0.0
 30
0.0
  3
*D3
  1

  0
TEXT
  5
3F4
100
AcDbEntity
  8
3
370
    25
100
AcDbText
 10
5.629276
 20
-87.025406
 30
0.0
 40
7.0
  1
９５
 50
90.0
 72
     5
 11
5.629276
 21
-74.425406
 31
0.0
100
AcDbText
  0
LINE
  5
3F5
100
AcDbEntity
  8
3
370
    25
100
AcDbLine
 10
28.235284
 20
-127.575785
 30
0.0
 11
4.629276
 21
-127.575785
 31
0.0
  0
LINE
  5
3F6
100
AcDbEntity
  8
3
370
    25
100
AcDbLine
 10
6.629276
 20
-127.575785
 30
0.0
 11
7.664552
 21
-123.712082
 31
0.0
  0
LINE
  5
3F7
100
AcDbEntity
  8
3
370
    25
100
AcDbLine
 10
6.629276
 20
-127.575785
 30
0.0
 11
5.594
 21
-123.712082
 31
0.0
  0
LINE
  5
3F8
100
AcDbEntity
  8
3
370
    25
100
AcDbLine
 10
7.664552
 20
-123.712082
 30
0.0
 11
5.594
 21
-123.712082
 31
0.0
  0
LINE
  5
3F9
100
AcDbEntity
  8
3
370
    25
100
AcDbLine
 10
6.629276
 20
-127.575785
 30
0.0
 11
6.629276
 21
-32.475027
 31
0.0
  0
LINE
  5
3FA
100
AcDbEntity
  8
3
370
    25
100
AcDbLine
 10
6.629276
 20
-32.475027
 30
0.0
 11
5.594
 21
-36.338731
 31
0.0
  0
LINE
  5
3FB
100
AcDbEntity
  8
3
370
    25
100
AcDbLine
 10
6.629276
 20
-32.475027
 30
0.0
 11
7.664552
 21
-36.338731
 31
0.0
  0
LINE
  5
3FC
100
AcDbEntity
  8
3
370
    25
100
AcDbLine
 10
5.594
 20
-36.338731
 30
0.0
 11
7.664552
 21
-36.338731
 31
0.0
  0
LINE
  5
3FD
100
AcDbEntity
  8
3
370
    25
100
AcDbLine
 10
145.005743
 20
-32.475027
 30
0.0
 11
4.629276
 21
-32.475027
 31
0.0
  0
ENDBLK
  5
3FE
100
AcDbEntity
  8
3
100
AcDbBlockEnd
  0
BLOCK
  5
3FF
100
AcDbEntity
  8
3
100
AcDbBlockBegin
  2
*D4
 70
     1
 10
0.0
 20
0.0
 30
0.0
  3
*D4
  1

  0
TEXT
  5
400
100
AcDbEntity
  8
3
370
    25
100
AcDbText
 10
5.629276
 20
-25.224578
 30
0.0
 40
7.0
  1
４２．５
 50
90.0
 72
     5
 11
5.629276
 21
1.375422
 31
0.0
100
AcDbText
  0
LINE
  5
401
100
AcDbEntity
  8
3
370
    25
100
AcDbLine
 10
145.005743
 20
-32.475027
 30
0.0
 11
4.629276
 21
-32.475027
 31
0.0
  0
LINE
  5
402
100
AcDbEntity
  8
3
370
    25
100
AcDbLine
 10
6.629276
 20
-32.475027
 30
0.0
 11
7.664552
 21
-28.611324
 31
0.0
  0
LINE
  5
403
100
AcDbEntity
  8
3
370
    25
100
AcDbLine
 10
6.629276
 20
-32.475027
 30
0.0
 11
5.594
 21
-28.611324
 31
0.0
  0
LINE
  5
404
100
AcDbEntity
  8
3
370
    25
100
AcDbLine
 10
7.664552
 20
-28.611324
 30
0.0
 11
5.594
 21
-28.611324
 31
0.0
  0
LINE
  5
405
100
AcDbEntity
  8
3
370
    25
100
AcDbLine
 10
6.629276
 20
-32.475027
 30
0.0
 11
6.629276
 21
10.025872
 31
0.0
  0
LINE
  5
406
100
AcDbEntity
  8
3
370
    25
100
AcDbLine
 10
6.629276
 20
10.025872
 30
0.0
 11
5.594
 21
6.162169
 31
0.0
  0
LINE
  5
407
100
AcDbEntity
  8
3
370
    25
100
AcDbLine
 10
6.629276
 20
10.025872
 30
0.0
 11
7.664552
 21
6.162169
 31
0.0
  0
LINE
  5
408
100
AcDbEntity
  8
3
370
    25
100
AcDbLine
 10
5.594
 20
6.162169
 30
0.0
 11
7.664552
 21
6.162169
 31
0.0
  0
LINE
  5
409
100
AcDbEntity
  8
3
370
    25
100
AcDbLine
 10
167.940908
 20
10.025872
 30
0.0
 11
4.629276
 21
10.025872
 31
0.0
  0
ENDBLK
  5
40A
100
AcDbEntity
  8
3
100
AcDbBlockEnd
  0
BLOCK
  5
40B
100
AcDbEntity
  8
3
100
AcDbBlockBegin
  2
*D5
 70
     1
 10
0.0
 20
0.0
 30
0.0
  3
*D5
  1

  0
TEXT
  5
40C
100
AcDbEntity
  8
3
370
    25
100
AcDbText
 10
241.390071
 20
-165.835373
 30
0.0
 40
7.0
  1
（８９）
 72
     5
 11
267.990071
 21
-165.835373
 31
0.0
100
AcDbText
  0
LINE
  5
40D
100
AcDbEntity
  8
3
370
    25
100
AcDbLine
 10
210.867988
 20
-39.297517
 30
0.0
 11
210.867988
 21
-168.835373
 31
0.0
  0
LINE
  5
40E
100
AcDbEntity
  8
3
370
    25
100
AcDbLine
 10
210.867988
 20
-166.835373
 30
0.0
 11
214.731692
 21
-167.870649
 31
0.0
  0
LINE
  5
40F
100
AcDbEntity
  8
3
370
    25
100
AcDbLine
 10
210.867988
 20
-166.835373
 30
0.0
 11
214.731692
 21
-165.800097
 31
0.0
  0
LINE
  5
410
100
AcDbEntity
  8
3
370
    25
100
AcDbLine
 10
214.731692
 20
-167.870649
 30
0.0
 11
214.731692
 21
-165.800097
 31
0.0
  0
LINE
  5
411
100
AcDbEntity
  8
3
370
    25
100
AcDbLine
 10
210.867988
 20
-166.835373
 30
0.0
 11
299.912155
 21
-166.835373
 31
0.0
  0
LINE
  5
412
100
AcDbEntity
  8
3
370
    25
100
AcDbLine
 10
299.912155
 20
-166.835373
 30
0.0
 11
296.048451
 21
-165.800097
 31
0.0
  0
LINE
  5
413
100
AcDbEntity
  8
3
370
    25
100
AcDbLine
 10
299.912155
 20
-166.835373
 30
0.0
 11
296.048451
 21
-167.870649
 31
0.0
  0
LINE
  5
414
100
AcDbEntity
  8
3
370
    25
100
AcDbLine
 10
296.048451
 20
-165.800097
 30
0.0
 11
296.048451
 21
-167.870649
 31
0.0
  0
LINE
  5
415
100
AcDbEntity
  8
3
370
    25
100
AcDbLine
 10
299.912155
 20
-65.096015
 30
0.0
 11
299.912155
 21
-168.835373
 31
0.0
  0
ENDBLK
  5
416
100
AcDbEntity
  8
3
100
AcDbBlockEnd
  0
BLOCK
  5
417
100
AcDbEntity
  8
3
100
AcDbBlockBegin
  2
*D6
 70
     1
 10
0.0
 20
0.0
 30
0.0
  3
*D6
  1

  0
LINE
  5
418
100
AcDbEntity
  8
3
370
    25
100
AcDbLine
 10
299.912155
 20
-65.096015
 30
0.0
 11
299.912155
 21
-168.835373
 31
0.0
  0
LINE
  5
419
100
AcDbEntity
  8
3
370
    25
100
AcDbLine
 10
299.912155
 20
-166.835373
 30
0.0
 11
296.048451
 21
-165.800097
 31
0.0
  0
LINE
  5
41A
100
AcDbEntity
  8
3
370
    25
100
AcDbLine
 10
299.912155
 20
-166.835373
 30
0.0
 11
296.048451
 21
-167.870649
 31
0.0
  0
LINE
  5
41B
100
AcDbEntity
  8
3
370
    25
100
AcDbLine
 10
296.048451
 20
-165.800097
 30
0.0
 11
296.048451
 21
-167.870649
 31
0.0
  0
LINE
  5
41C
100
AcDbEntity
  8
3
370
    25
100
AcDbLine
 10
289.912155
 20
-166.835373
 30
0.0
 11
350.147155
 21
-166.835373
 31
0.0
  0
LINE
  5
41D
100
AcDbEntity
  8
3
370
    25
100
AcDbLine
 10
314.147155
 20
-166.835373
 30
0.0
 11
318.010858
 21
-167.870649
 31
0.0
  0
LINE
  5
41E
100
AcDbEntity
  8
3
370
    25
100
AcDbLine
 10
314.147155
 20
-166.835373
 30
0.0
 11
318.010858
 21
-165.800097
 31
0.0
  0
LINE
  5
41F
100
AcDbEntity
  8
3
370
    25
100
AcDbLine
 10
318.010858
 20
-167.870649
 30
0.0
 11
318.010858
 21
-165.800097
 31
0.0
  0
LINE
  5
420
100
AcDbEntity
  8
3
370
    25
100
AcDbLine
 10
314.147155
 20
-51.600015
 30
0.0
 11
314.147155
 21
-168.835373
 31
0.0
  0
ENDBLK
  5
421
100
AcDbEntity
  8
3
100
AcDbBlockEnd
  0
BLOCK
  5
422
100
AcDbEntity
  8
3
100
AcDbBlockBegin
  2
*D7
 70
     1
 10
0.0
 20
0.0
 30
0.0
  3
*D7
  1

  0
TEXT
  5
423
100
AcDbEntity
  8
3
370
    25
100
AcDbText
 10
-194.090566
 20
-177.345856
 30
0.0
 40
7.0
  1
１２７
 72
     5
 11
-174.490566
 21
-177.345856
 31
0.0
100
AcDbText
  0
LINE
  5
424
100
AcDbEntity
  8
3
370
    25
100
AcDbLine
 10
-247.090566
 20
25.025893
 30
0.0
 11
-247.090566
 21
-180.345856
 31
0.0
  0
LINE
  5
425
100
AcDbEntity
  8
3
370
    25
100
AcDbLine
 10
-247.090566
 20
-178.345856
 30
0.0
 11
-243.226863
 21
-179.381132
 31
0.0
  0
LINE
  5
426
100
AcDbEntity
  8
3
370
    25
100
AcDbLine
 10
-247.090566
 20
-178.345856
 30
0.0
 11
-243.226863
 21
-177.31058
 31
0.0
  0
LINE
  5
427
100
AcDbEntity
  8
3
370
    25
100
AcDbLine
 10
-243.226863
 20
-179.381132
 30
0.0
 11
-243.226863
 21
-177.31058
 31
0.0
  0
LINE
  5
428
100
AcDbEntity
  8
3
370
    25
100
AcDbLine
 10
-247.090566
 20
-178.345856
 30
0.0
 11
-120.090566
 21
-178.345856
 31
0.0
  0
LINE
  5
429
100
AcDbEntity
  8
3
370
    25
100
AcDbLine
 10
-120.090566
 20
-178.345856
 30
0.0
 11
-123.95427
 21
-177.31058
 31
0.0
  0
LINE
  5
42A
100
AcDbEntity
  8
3
370
    25
100
AcDbLine
 10
-120.090566
 20
-178.345856
 30
0.0
 11
-123.95427
 21
-179.381132
 31
0.0
  0
LINE
  5
42B
100
AcDbEntity
  8
3
370
    25
100
AcDbLine
 10
-123.95427
 20
-177.31058
 30
0.0
 11
-123.95427
 21
-179.381132
 31
0.0
  0
LINE
  5
42C
100
AcDbEntity
  8
3
370
    25
100
AcDbLine
 10
-120.090566
 20
25.025569
 30
0.0
 11
-120.090566
 21
-180.345856
 31
0.0
  0
ENDBLK
  5
42D
100
AcDbEntity
  8
3
100
AcDbBlockEnd
  0
BLOCK
  5
42E
100
AcDbEntity
  8
3
100
AcDbBlockBegin
  2
*D8
 70
     1
 10
0.0
 20
0.0
 30
0.0
  3
*D8
  1

  0
LINE
  5
42F
100
AcDbEntity
  8
3
370
    25
100
AcDbLine
 10
225.367155
 20
10.025872
 30
0.0
 11
4.629276
 21
10.025872
 31
0.0
  0
LINE
  5
430
100
AcDbEntity
  8
3
370
    25
100
AcDbLine
 10
6.629276
 20
10.025872
 30
0.0
 11
7.664552
 21
13.889575
 31
0.0
  0
LINE
  5
431
100
AcDbEntity
  8
3
370
    25
100
AcDbLine
 10
6.629276
 20
10.025872
 30
0.0
 11
5.594
 21
13.889575
 31
0.0
  0
LINE
  5
432
100
AcDbEntity
  8
3
370
    25
100
AcDbLine
 10
7.664552
 20
13.889575
 30
0.0
 11
5.594
 21
13.889575
 31
0.0
  0
LINE
  5
433
100
AcDbEntity
  8
3
370
    25
100
AcDbLine
 10
6.629276
 20
10.025872
 30
0.0
 11
6.629276
 21
118.906142
 31
0.0
  0
LINE
  5
434
100
AcDbEntity
  8
3
370
    25
100
AcDbLine
 10
6.629276
 20
118.906142
 30
0.0
 11
5.594
 21
115.042439
 31
0.0
  0
LINE
  5
435
100
AcDbEntity
  8
3
370
    25
100
AcDbLine
 10
6.629276
 20
118.906142
 30
0.0
 11
7.664552
 21
115.042439
 31
0.0
  0
LINE
  5
436
100
AcDbEntity
  8
3
370
    25
100
AcDbLine
 10
5.594
 20
115.042439
 30
0.0
 11
7.664552
 21
115.042439
 31
0.0
  0
LINE
  5
437
100
AcDbEntity
  8
3
370
    25
100
AcDbLine
 10
116.058636
 20
118.906142
 30
0.0
 11
4.629276
 21
118.906142
 31
0.0
  0
ENDBLK
  5
438
100
AcDbEntity
  8
3
100
AcDbBlockEnd
  0
BLOCK
  5
439
100
AcDbEntity
  8
3
100
AcDbBlockBegin
  2
*D9
 70
     1
 10
0.0
 20
0.0
 30
0.0
  3
*D9
  1

  0
LINE
  5
43A
100
AcDbEntity
  8
3
370
    25
100
AcDbLine
 10
225.367155
 20
10.025872
 30
0.0
 11
-25.197248
 21
10.025872
 31
0.0
  0
LINE
  5
43B
100
AcDbEntity
  8
3
370
    25
100
AcDbLine
 10
-23.197248
 20
10.025872
 30
0.0
 11
-22.161972
 21
13.889575
 31
0.0
  0
LINE
  5
43C
100
AcDbEntity
  8
3
370
    25
100
AcDbLine
 10
-23.197248
 20
10.025872
 30
0.0
 11
-24.232525
 21
13.889575
 31
0.0
  0
LINE
  5
43D
100
AcDbEntity
  8
3
370
    25
100
AcDbLine
 10
-22.161972
 20
13.889575
 30
0.0
 11
-24.232525
 21
13.889575
 31
0.0
  0
LINE
  5
43E
100
AcDbEntity
  8
3
370
    25
100
AcDbLine
 10
-23.197248
 20
10.025872
 30
0.0
 11
-23.197248
 21
165.924975
 31
0.0
  0
LINE
  5
43F
100
AcDbEntity
  8
3
370
    25
100
AcDbLine
 10
-23.197248
 20
165.924975
 30
0.0
 11
-24.232525
 21
162.061272
 31
0.0
  0
LINE
  5
440
100
AcDbEntity
  8
3
370
    25
100
AcDbLine
 10
-23.197248
 20
165.924975
 30
0.0
 11
-22.161972
 21
162.061272
 31
0.0
  0
LINE
  5
441
100
AcDbEntity
  8
3
370
    25
100
AcDbLine
 10
-24.232525
 20
162.061272
 30
0.0
 11
-22.161972
 21
162.061272
 31
0.0
  0
LINE
  5
442
100
AcDbEntity
  8
3
370
    25
100
AcDbLine
 10
154.089435
 20
165.924975
 30
0.0
 11
-25.197248
 21
165.924975
 31
0.0
  0
ENDBLK
  5
443
100
AcDbEntity
  8
3
100
AcDbBlockEnd
  0
BLOCK
  5
444
100
AcDbEntity
  8
3
100
AcDbBlockBegin
  2
*D10
 70
     1
 10
0.0
 20
0.0
 30
0.0
  3
*D10
  1

  0
TEXT
  5
445
100
AcDbEntity
  8
3
370
    25
100
AcDbText
 10
-302.336357
 20
16.171963
 30
0.0
 40
7.0
  1
７０
 50
47.408668
 72
     5
 11
-293.809123
 21
25.448077
 31
0.0
100
AcDbText
  0
LINE
  5
446
100
AcDbEntity
  8
3
370
    25
100
AcDbLine
 10
-235.062965
 20
11.379445
 30
0.0
 11
-274.648443
 21
47.769106
 31
0.0
  0
LINE
  5
447
100
AcDbEntity
  8
3
370
    25
100
AcDbLine
 10
-273.176044
 20
46.415577
 30
0.0
 11
-276.553032
 21
44.271759
 31
0.0
  0
LINE
  5
448
100
AcDbEntity
  8
3
370
    25
100
AcDbLine
 10
-273.176044
 20
46.415577
 30
0.0
 11
-275.028692
 21
42.870482
 31
0.0
  0
LINE
  5
449
100
AcDbEntity
  8
3
370
    25
100
AcDbLine
 10
-276.553032
 20
44.271759
 30
0.0
 11
-275.028692
 21
42.870482
 31
0.0
  0
LINE
  5
44A
100
AcDbEntity
  8
3
370
    25
100
AcDbLine
 10
-273.176044
 20
46.415577
 30
0.0
 11
-320.549566
 21
-5.118387
 31
0.0
  0
LINE
  5
44B
100
AcDbEntity
  8
3
370
    25
100
AcDbLine
 10
-320.549566
 20
-5.118387
 30
0.0
 11
-317.172579
 21
-2.974569
 31
0.0
  0
LINE
  5
44C
100
AcDbEntity
  8
3
370
    25
100
AcDbLine
 10
-320.549566
 20
-5.118387
 30
0.0
 11
-318.696918
 21
-1.573292
 31
0.0
  0
LINE
  5
44D
100
AcDbEntity
  8
3
370
    25
100
AcDbLine
 10
-317.172579
 20
-2.974569
 30
0.0
 11
-318.696918
 21
-1.573292
 31
0.0
  0
LINE
  5
44E
100
AcDbEntity
  8
3
370
    25
100
AcDbLine
 10
-282.436487
 20
-40.154519
 30
0.0
 11
-322.021965
 21
-3.764857
 31
0.0
  0
ENDBLK
  5
44F
100
AcDbEntity
  8
3
100
AcDbBlockEnd
  0
BLOCK
  5
450
100
AcDbEntity
  8
3
100
AcDbBlockBegin
  2
*D11
 70
     1
 10
0.0
 20
0.0
 30
0.0
  3
*D11
  1

  0
LINE
  5
451
100
AcDbEntity
  8
3
370
    25
100
AcDbLine
 10
-280.964088
 20
-43.508048
 30
0.0
 11
-280.964088
 21
-205.809967
 31
0.0
  0
LINE
  5
452
100
AcDbEntity
  8
3
370
    25
100
AcDbLine
 10
-280.964088
 20
-203.809967
 30
0.0
 11
-277.100385
 21
-204.845243
 31
0.0
  0
LINE
  5
453
100
AcDbEntity
  8
3
370
    25
100
AcDbLine
 10
-280.964088
 20
-203.809967
 30
0.0
 11
-277.100385
 21
-202.774691
 31
0.0
  0
LINE
  5
454
100
AcDbEntity
  8
3
370
    25
100
AcDbLine
 10
-277.100385
 20
-204.845243
 30
0.0
 11
-277.100385
 21
-202.774691
 31
0.0
  0
LINE
  5
455
100
AcDbEntity
  8
3
370
    25
100
AcDbLine
 10
-280.964088
 20
-203.809967
 30
0.0
 11
-86.217045
 21
-203.809967
 31
0.0
  0
LINE
  5
456
100
AcDbEntity
  8
3
370
    25
100
AcDbLine
 10
-86.217045
 20
-203.809967
 30
0.0
 11
-90.080748
 21
-202.774691
 31
0.0
  0
LINE
  5
457
100
AcDbEntity
  8
3
370
    25
100
AcDbLine
 10
-86.217045
 20
-203.809967
 30
0.0
 11
-90.080748
 21
-204.845243
 31
0.0
  0
LINE
  5
458
100
AcDbEntity
  8
3
370
    25
100
AcDbLine
 10
-90.080748
 20
-202.774691
 30
0.0
 11
-90.080748
 21
-204.845243
 31
0.0
  0
LINE
  5
459
100
AcDbEntity
  8
3
370
    25
100
AcDbLine
 10
-86.217045
 20
-43.508048
 30
0.0
 11
-86.217045
 21
-205.809967
 31
0.0
  0
ENDBLK
  5
45A
100
AcDbEntity
  8
3
100
AcDbBlockEnd
  0
BLOCK
  5
45B
100
AcDbEntity
  8
3
100
AcDbBlockBegin
  2
*D12
 70
     1
 10
0.0
 20
0.0
 30
0.0
  3
*D12
  1

  0
TEXT
  5
45C
100
AcDbEntity
  8
3
370
    25
100
AcDbText
 10
335.644897
 20
-47.096015
 30
0.0
 40
7.0
  1
４６
 50
90.0
 72
     5
 11
335.644897
 21
-34.496015
 31
0.0
100
AcDbText
  0
LINE
  5
45D
100
AcDbEntity
  8
3
370
    25
100
AcDbLine
 10
301.912155
 20
-63.096015
 30
0.0
 11
338.644897
 21
-63.096015
 31
0.0
  0
LINE
  5
45E
100
AcDbEntity
  8
3
370
    25
100
AcDbLine
 10
336.644897
 20
-63.096015
 30
0.0
 11
337.680174
 21
-59.232312
 31
0.0
  0
LINE
  5
45F
100
AcDbEntity
  8
3
370
    25
100
AcDbLine
 10
336.644897
 20
-63.096015
 30
0.0
 11
335.609621
 21
-59.232312
 31
0.0
  0
LINE
  5
460
100
AcDbEntity
  8
3
370
    25
100
AcDbLine
 10
337.680174
 20
-59.232312
 30
0.0
 11
335.609621
 21
-59.232312
 31
0.0
  0
LINE
  5
461
100
AcDbEntity
  8
3
370
    25
100
AcDbLine
 10
336.644897
 20
-63.096015
 30
0.0
 11
336.644897
 21
-17.096015
 31
0.0
  0
LINE
  5
462
100
AcDbEntity
  8
3
370
    25
100
AcDbLine
 10
336.644897
 20
-17.096015
 30
0.0
 11
335.609621
 21
-20.959718
 31
0.0
  0
LINE
  5
463
100
AcDbEntity
  8
3
370
    25
100
AcDbLine
 10
336.644897
 20
-17.096015
 30
0.0
 11
337.680174
 21
-20.959718
 31
0.0
  0
LINE
  5
464
100
AcDbEntity
  8
3
370
    25
100
AcDbLine
 10
335.609621
 20
-20.959718
 30
0.0
 11
337.680174
 21
-20.959718
 31
0.0
  0
LINE
  5
465
100
AcDbEntity
  8
3
370
    25
100
AcDbLine
 10
301.912155
 20
-17.096015
 30
0.0
 11
338.644897
 21
-17.096015
 31
0.0
  0
ENDBLK
  5
466
100
AcDbEntity
  8
3
100
AcDbBlockEnd
  0
BLOCK
  5
467
100
AcDbEntity
  8
3
100
AcDbBlockBegin
  2
*D13
 70
     1
 10
0.0
 20
0.0
 30
0.0
  3
*D13
  1

  0
TEXT
  5
468
100
AcDbEntity
  8
3
370
    25
100
AcDbText
 10
-197.702232
 20
5.746347
 30
0.0
 40
7.0
  1
１８０゜
 72
     5
 11
-171.102232
 21
5.746347
 31
0.0
100
AcDbText
  0
LINE
  5
469
100
AcDbEntity
  8
3
370
    25
100
AcDbLine
 10
-144.482438
 20
-32.473447
 30
0.0
 11
-144.482438
 21
-32.473447
 31
0.0
  0
LINE
  5
46A
100
AcDbEntity
  8
3
370
    25
100
AcDbLine
 10
-222.922026
 20
-32.473447
 30
0.0
 11
-222.922026
 21
-32.473447
 31
0.0
  0
LINE
  5
46B
100
AcDbEntity
  8
3
370
    25
100
AcDbLine
 10
-146.482438
 20
-32.473447
 30
0.0
 11
-145.649099
 21
-28.561217
 31
0.0
  0
LINE
  5
46C
100
AcDbEntity
  8
3
370
    25
100
AcDbLine
 10
-146.482438
 20
-32.473447
 30
0.0
 11
-147.71686
 21
-28.668687
 31
0.0
  0
LINE
  5
46D
100
AcDbEntity
  8
3
370
    25
100
AcDbLine
 10
-145.649099
 20
-28.561217
 30
0.0
 11
-147.71686
 21
-28.668687
 31
0.0
  0
LINE
  5
46E
100
AcDbEntity
  8
3
370
    25
100
AcDbLine
 10
-220.922026
 20
-32.473447
 30
0.0
 11
-219.687605
 21
-28.668687
 31
0.0
  0
LINE
  5
46F
100
AcDbEntity
  8
3
370
    25
100
AcDbLine
 10
-220.922026
 20
-32.473447
 30
0.0
 11
-221.755366
 21
-28.561217
 31
0.0
  0
LINE
  5
470
100
AcDbEntity
  8
3
370
    25
100
AcDbLine
 10
-219.687605
 20
-28.668687
 30
0.0
 11
-221.755366
 21
-28.561217
 31
0.0
  0
ARC
  5
471
100
AcDbEntity
  8
3
370
    25
100
AcDbCircle
 10
-183.702232
 20
-32.473447
 30
0.0
 40
37.219794
100
AcDbArc
 50
0.0
 51
180.0
  0
ENDBLK
  5
472
100
AcDbEntity
  8
3
100
AcDbBlockEnd
  0
ENDSEC
  0
SECTION
  2
ENTITIES
  0
LINE
  5
32
100
AcDbEntity
  8
1
370
   100
100
AcDbLine
 10
-373.02157
 20
275.028767
 30
0.0
 11
394.982385
 21
275.028767
 31
0.0
  0
LINE
  5
33
100
AcDbEntity
  8
1
370
   100
100
AcDbLine
 10
-373.02157
 20
275.028767
 30
0.0
 11
-373.02157
 21
-277.971881
 31
0.0
  0
LINE
  5
34
100
AcDbEntity
  8
1
370
   100
100
AcDbLine
 10
-373.02157
 20
-277.971881
 30
0.0
 11
394.982385
 21
-277.971881
 31
0.0
  0
LINE
  5
35
100
AcDbEntity
  8
1
370
   100
100
AcDbLine
 10
394.982385
 20
-277.971881
 30
0.0
 11
394.982385
 21
275.028767
 31
0.0
  0
TEXT
  5
36
100
AcDbEntity
  8
1
370
    50
100
AcDbText
 10
359.628442
 20
-226.252857
 30
0.0
 40
6.0
  1
設計
 72
     5
 11
370.428442
 21
-226.252857
 31
0.0
100
AcDbText
  0
TEXT
  5
37
100
AcDbEntity
  8
1
370
    50
100
AcDbText
 10
379.127478
 20
-226.099658
 30
0.0
 40
6.0
  1
製図
 72
     5
 11
389.927478
 21
-226.099658
 31
0.0
100
AcDbText
  0
TEXT
  5
38
100
AcDbEntity
  8
1
370
    50
100
AcDbText
 10
319.005745
 20
-226.252857
 30
0.0
 40
6.0
  1
承認
 72
     5
 11
329.805745
 21
-226.252857
 31
0.0
100
AcDbText
  0
TEXT
  5
39
100
AcDbEntity
  8
1
370
    50
100
AcDbText
 10
338.989679
 20
-226.19802
 30
0.0
 40
6.0
  1
検図
 72
     5
 11
349.789679
 21
-226.19802
 31
0.0
100
AcDbText
  0
LINE
  5
3A
100
AcDbEntity
  8
1
370
    25
100
AcDbLine
 10
284.982385
 20
-227.971881
 30
0.0
 11
394.982385
 21
-227.971881
 31
0.0
  0
LINE
  5
3B
100
AcDbEntity
  8
1
370
    25
100
AcDbLine
 10
342.482385
 20
-245.971881
 30
0.0
 11
342.482385
 21
-259.971881
 31
0.0
  0
TEXT
  5
3C
100
AcDbEntity
  8
1
370
    50
100
AcDbText
 10
319.55159
 20
-256.012528
 30
0.0
 40
6.0
  1
日　付
 72
     5
 11
336.35159
 21
-256.012528
 31
0.0
100
AcDbText
  0
LINE
  5
3D
100
AcDbEntity
  8
1
370
    50
100
AcDbLine
 10
40.982385
 20
-259.971881
 30
0.0
 11
394.982385
 21
-259.971881
 31
0.0
  0
TEXT
  5
3E
100
AcDbEntity
  8
1
370
    50
100
AcDbText
 10
287.775011
 20
-256.322406
 30
0.0
 40
6.0
  1
第三角法
 72
     5
 11
310.575011
 21
-256.322406
 31
0.0
100
AcDbText
  0
TEXT
  5
3F
100
AcDbEntity
  8
1
370
    50
100
AcDbText
 10
291.087419
 20
-225.99802
 30
0.0
 40
6.0
  1
尺　度
 72
     5
 11
307.887419
 21
-225.99802
 31
0.0
100
AcDbText
  0
LINE
  5
40
100
AcDbEntity
  8
1
370
   100
100
AcDbLine
 10
40.982385
 20
-217.971881
 30
0.0
 11
394.982385
 21
-217.971881
 31
0.0
  0
LINE
  5
41
100
AcDbEntity
  8
1
370
    50
100
AcDbLine
 10
211.982385
 20
-217.971881
 30
0.0
 11
211.982385
 21
-277.971881
 31
0.0
  0
LINE
  5
42
100
AcDbEntity
  8
1
370
    25
100
AcDbLine
 10
374.982385
 20
-245.971881
 30
0.0
 11
374.982385
 21
-217.971881
 31
0.0
  0
LINE
  5
43
100
AcDbEntity
  8
1
370
    25
100
AcDbLine
 10
354.982385
 20
-245.971881
 30
0.0
 11
354.982385
 21
-217.971881
 31
0.0
  0
LINE
  5
44
100
AcDbEntity
  8
1
370
    25
100
AcDbLine
 10
334.982385
 20
-245.971881
 30
0.0
 11
334.982385
 21
-217.971881
 31
0.0
  0
LINE
  5
45
100
AcDbEntity
  8
1
370
    50
100
AcDbLine
 10
284.982385
 20
-277.971881
 30
0.0
 11
284.982385
 21
-217.971881
 31
0.0
  0
LINE
  5
46
100
AcDbEntity
  8
1
370
    50
100
AcDbLine
 10
189.982385
 20
-217.971881
 30
0.0
 11
189.982385
 21
-277.971881
 31
0.0
  0
LINE
  5
47
100
AcDbEntity
  8
1
370
    50
100
AcDbLine
 10
62.982385
 20
-217.971881
 30
0.0
 11
62.982385
 21
-259.971881
 31
0.0
  0
LINE
  5
48
100
AcDbEntity
  8
1
370
    50
100
AcDbLine
 10
284.982385
 20
-245.971881
 30
0.0
 11
394.982385
 21
-245.971881
 31
0.0
  0
TEXT
  5
49
100
AcDbEntity
  8
1
370
    50
100
AcDbText
 10
287.101129
 20
-271.880939
 30
0.0
 40
6.0
  1
コードＮｏ
 41
0.9
 72
     5
 11
313.021129
 21
-271.880939
 31
0.0
100
AcDbText
  0
TEXT
  5
4A
100
AcDbEntity
  8
1
370
   100
100
AcDbText
 10
52.886774
 20
-272.875659
 30
0.0
 40
8.0
  1
ミズタニバルブ工業株式会社
 41
1.2
 72
     5
 11
175.766774
 21
-272.875659
 31
0.0
100
AcDbText
  0
LINE
  5
4B
100
AcDbEntity
  8
1
370
    50
100
AcDbLine
 10
40.982385
 20
-238.971881
 30
0.0
 11
284.982385
 21
-238.971881
 31
0.0
  0
LINE
  5
4C
100
AcDbEntity
  8
1
370
    50
100
AcDbLine
 10
115.482385
 20
-238.971881
 30
0.0
 11
115.482385
 21
-259.971881
 31
0.0
  0
LINE
  5
4D
100
AcDbEntity
  8
1
370
    50
100
AcDbLine
 10
137.482385
 20
-238.971881
 30
0.0
 11
137.482385
 21
-259.971881
 31
0.0
  0
LINE
  5
4E
100
AcDbEntity
  8
1
370
    50
100
AcDbLine
 10
314.982385
 20
-277.971881
 30
0.0
 11
314.982385
 21
-217.971881
 31
0.0
  0
TEXT
  5
4F
100
AcDbEntity
  8
1
370
    50
100
AcDbText
 10
345.098131
 20
-256.100293
 30
0.0
 40
6.0
  1
　　・　　・
 72
     5
 11
379.898131
 21
-256.100293
 31
0.0
100
AcDbText
  0
LINE
  5
50
100
AcDbEntity
  8
1
370
   100
100
AcDbLine
 10
40.982385
 20
-217.971881
 30
0.0
 11
40.982385
 21
-277.971881
 31
0.0
  0
TEXT
  5
51
100
AcDbEntity
  8
1
370
    50
100
AcDbText
 10
290.832582
 20
-240.013492
 30
0.0
 40
6.0
  1
　／ 
 72
     5
 11
301.632582
 21
-240.013492
 31
0.0
100
AcDbText
  0
TEXT
  5
52
100
AcDbEntity
  8
1
370
    50
100
AcDbText
 10
193.904123
 20
-272.024909
 30
0.0
 40
6.0
  1
備 考 
 72
     5
 11
207.704123
 21
-272.024909
 31
0.0
100
AcDbText
  0
TEXT
  5
53
100
AcDbEntity
  8
1
370
    50
100
AcDbText
 10
193.512534
 20
-230.89184
 30
0.0
 40
6.0
  1
仕 上
 72
     5
 11
207.312534
 21
-230.89184
 31
0.0
100
AcDbText
  0
TEXT
  5
54
100
AcDbEntity
  8
1
370
    50
100
AcDbText
 10
193.447176
 20
-248.891666
 30
0.0
 40
6.0
  1
表 面
 72
     5
 11
207.247176
 21
-248.891666
 31
0.0
100
AcDbText
  0
TEXT
  5
55
100
AcDbEntity
  8
1
370
    50
100
AcDbText
 10
193.447176
 20
-255.891666
 30
0.0
 40
6.0
  1
処 理
 72
     5
 11
207.247176
 21
-255.891666
 31
0.0
100
AcDbText
  0
TEXT
  5
56
100
AcDbEntity
  8
1
370
    50
100
AcDbText
 10
44.79335
 20
-231.693399
 30
0.0
 40
6.0
  1
品 名
 72
     5
 11
58.59335
 21
-231.693399
 31
0.0
100
AcDbText
  0
TEXT
  5
57
100
AcDbEntity
  8
1
370
    50
100
AcDbText
 10
44.397766
 20
-252.462534
 30
0.0
 40
6.0
  1
材 質
 72
     5
 11
58.197766
 21
-252.462534
 31
0.0
100
AcDbText
  0
TEXT
  5
58
100
AcDbEntity
  8
1
370
    50
100
AcDbText
 10
118.897766
 20
-252.462534
 30
0.0
 40
6.0
  1
規 格
 72
     5
 11
132.697766
 21
-252.462534
 31
0.0
100
AcDbText
  0
LINE
  5
59
100
AcDbEntity
  8
2
370
    50
100
AcDbLine
 10
247.867155
 20
28.025622
 30
0.0
 11
247.867155
 21
23.525872
 31
0.0
  0
LINE
  5
5A
100
AcDbEntity
  8
2
370
    50
100
AcDbLine
 10
193.867371
 20
-7.974814
 30
0.0
 11
227.51575
 21
-7.974814
 31
0.0
  0
ARC
  5
5B
100
AcDbEntity
  8
2
370
    50
100
AcDbCircle
 10
193.867371
 20
10.025403
 30
0.0
 40
18.000217
100
AcDbArc
 50
90.0
 51
270.0
  0
LINE
  5
5C
100
AcDbEntity
  8
2
370
    50
100
AcDbLine
 10
231.394584
 20
-5.138507
 30
0.0
 11
228.142468
 21
-7.75406
 31
0.0
  0
ARC
  5
5D
100
AcDbEntity
  8
2
370
    50
100
AcDbCircle
 10
227.51575
 20
-6.974814
 30
0.0
 40
1.0
100
AcDbArc
 50
270.0
 51
308.808394
  0
LINE
  5
5E
100
AcDbEntity
  8
2
370
    50
100
AcDbLine
 10
197.067155
 20
28.32573
 30
0.0
 11
247.667155
 21
28.32573
 31
0.0
  0
LINE
  5
5F
100
AcDbEntity
  8
2
370
    50
100
AcDbLine
 10
246.367155
 20
28.32573
 30
0.0
 11
246.367155
 21
28.025868
 31
0.0
  0
LINE
  5
60
100
AcDbEntity
  8
2
370
    50
100
AcDbLine
 10
198.367155
 20
28.32573
 30
0.0
 11
198.367155
 21
28.025623
 31
0.0
  0
LINE
  5
61
100
AcDbEntity
  8
2
370
    50
100
AcDbLine
 10
196.867155
 20
28.52573
 30
0.0
 11
196.867155
 21
42.184734
 31
0.0
  0
LINE
  5
62
100
AcDbEntity
  8
2
370
    50
100
AcDbLine
 10
247.867155
 20
28.52573
 30
0.0
 11
247.867155
 21
42.184734
 31
0.0
  0
LINE
  5
63
100
AcDbEntity
  8
2
370
    50
100
AcDbLine
 10
245.367155
 20
50.525325
 30
0.0
 11
245.367155
 21
42.825551
 31
0.0
  0
LINE
  5
64
100
AcDbEntity
  8
2
370
    50
100
AcDbLine
 10
199.367155
 20
45.171439
 30
0.0
 11
199.367155
 21
42.825551
 31
0.0
  0
LINE
  5
65
100
AcDbEntity
  8
2
370
    50
100
AcDbLine
 10
199.367155
 20
42.825551
 30
0.0
 11
197.064116
 21
42.419463
 31
0.0
  0
LINE
  5
66
100
AcDbEntity
  8
2
370
    50
100
AcDbLine
 10
245.367155
 20
42.825551
 30
0.0
 11
247.670193
 21
42.419463
 31
0.0
  0
LINE
  5
67
100
AcDbEntity
  8
2
370
    50
100
AcDbLine
 10
247.667155
 20
28.32573
 30
0.0
 11
247.867155
 21
28.52573
 31
0.0
  0
LINE
  5
68
100
AcDbEntity
  8
2
370
    50
100
AcDbLine
 10
197.067155
 20
28.32573
 30
0.0
 11
196.867155
 21
28.52573
 31
0.0
  0
ARC
  5
69
100
AcDbEntity
  8
2
370
    50
100
AcDbCircle
 10
222.367155
 20
50.525325
 30
0.0
 40
23.0
100
AcDbArc
 50
0.0
 51
9.953366
  0
LINE
  5
6A
100
AcDbEntity
  8
2
370
    50
100
AcDbLine
 10
247.867155
 20
42.184734
 30
0.0
 11
247.670193
 21
42.419463
 31
0.0
  0
LINE
  5
6B
100
AcDbEntity
  8
2
370
    50
100
AcDbLine
 10
196.867155
 20
42.184734
 30
0.0
 11
197.064116
 21
42.419463
 31
0.0
  0
LINE
  5
6C
100
AcDbEntity
  8
2
370
    50
100
AcDbLine
 10
193.867371
 20
28.0256
 30
0.0
 11
247.867155
 21
28.025876
 31
0.0
  0
LINE
  5
6D
100
AcDbEntity
  8
2
370
    50
100
AcDbLine
 10
227.367155
 20
20.525625
 30
0.0
 11
229.367155
 21
20.525625
 31
0.0
  0
LINE
  5
6E
100
AcDbEntity
  8
2
370
    50
100
AcDbLine
 10
227.367155
 20
-0.474375
 30
0.0
 11
229.367155
 21
-0.474375
 31
0.0
  0
LINE
  5
6F
100
AcDbEntity
  8
2
370
    50
100
AcDbLine
 10
229.367155
 20
-4.224375
 30
0.0
 11
229.367155
 21
24.275625
 31
0.0
  0
ARC
  5
70
100
AcDbEntity
  8
2
370
    50
100
AcDbCircle
 10
236.117155
 20
12.010328
 30
0.0
 40
14.0
100
AcDbArc
 50
61.174551
 51
118.825449
  0
LINE
  5
71
100
AcDbEntity
  8
2
370
    50
100
AcDbLine
 10
242.867155
 20
-4.224375
 30
0.0
 11
242.867155
 21
24.275625
 31
0.0
  0
ARC
  5
72
100
AcDbEntity
  8
2
370
    50
100
AcDbCircle
 10
236.117155
 20
8.040921
 30
0.0
 40
14.0
100
AcDbArc
 50
241.174551
 51
298.825449
  0
ELLIPSE
  5
73
100
AcDbEntity
  8
2
370
    50
100
AcDbEllipse
 10
236.117155
 20
-2.964509
 30
0.0
 11
4.25
 21
0.0
 31
0.0
210
0.0
220
0.0
230
1.0
 40
0.655059
 41
0.0
 42
6.2831849999999996
  0
ELLIPSE
  5
74
100
AcDbEntity
  8
2
370
    50
100
AcDbEllipse
 10
236.117155
 20
10.025872
 30
0.0
 11
0.0
 21
-5.5679999999999996
 31
0.0
210
0.0
220
0.0
230
1.0
 40
0.76329
 41
0.0
 42
6.2831849999999996
  0
ELLIPSE
  5
75
100
AcDbEntity
  8
2
370
    50
100
AcDbEllipse
 10
236.117155
 20
23.016253
 30
0.0
 11
-4.25
 21
0.0
 31
0.0
210
0.0
220
0.0
230
1.0
 40
0.655059
 41
0.0
 42
6.2831849999999996
  0
LINE
  5
76
100
AcDbEntity
  8
2
370
    25
100
AcDbLine
 10
245.116425
 20
42.825551
 30
0.0
 11
199.891373
 21
42.825551
 31
0.0
  0
LINE
  5
77
100
AcDbEntity
  8
2
370
    25
100
AcDbLine
 10
246.678406
 20
42.384734
 30
0.0
 11
198.045441
 21
42.384734
 31
0.0
  0
LINE
  5
78
100
AcDbEntity
  8
2
370
    50
100
AcDbLine
 10
247.867155
 20
28.52573
 30
0.0
 11
196.867155
 21
28.52573
 31
0.0
  0
LINE
  5
79
100
AcDbEntity
  8
2
370
    50
100
AcDbLine
 10
227.367155
 20
-7.974814
 30
0.0
 11
227.367155
 21
28.025771
 31
0.0
  0
POINT
  5
7A
100
AcDbEntity
  8
2
370
    50
100
AcDbPoint
 10
227.367155
 20
10.025872
 30
0.0
  0
POINT
  5
7B
100
AcDbEntity
  8
2
370
    50
100
AcDbPoint
 10
222.367155
 20
47.725746
 30
0.0
  0
ARC
  5
7C
100
AcDbEntity
  8
2
370
    50
100
AcDbCircle
 10
19.001229
 20
-381.40226
 30
0.0
 40
500.0
100
AcDbArc
 50
70.266103
 51
78.450142
  0
LINE
  5
7D
100
AcDbEntity
  8
2
370
    50
100
AcDbLine
 10
221.129769
 20
44.791571
 30
0.0
 11
194.928569
 21
45.248915
 31
0.0
  0
LINE
  5
7E
100
AcDbEntity
  8
2
370
    50
100
AcDbLine
 10
223.007413
 20
45.156548
 30
0.0
 11
247.130128
 21
55.396033
 31
0.0
  0
ARC
  5
7F
100
AcDbEntity
  8
2
370
    50
100
AcDbCircle
 10
247.012909
 20
55.672184
 30
0.0
 40
0.3
100
AcDbArc
 50
293.0
 51
1.579148
  0
ARC
  5
80
100
AcDbEntity
  8
2
370
    50
100
AcDbCircle
 10
244.318389
 20
73.579841
 30
0.0
 40
2.5
100
AcDbArc
 50
1.579148
 51
53.184173
  0
ARC
  5
81
100
AcDbEntity
  8
2
370
    50
100
AcDbCircle
 10
207.501651
 20
91.594344
 30
0.0
 40
3.0
100
AcDbArc
 50
69.470338
 51
97.744647
  0
ARC
  5
82
100
AcDbEntity
  8
2
370
    50
100
AcDbCircle
 10
221.21005
 20
49.39087
 30
0.0
 40
4.6
100
AcDbArc
 50
269.0
 51
293.0
  0
LINE
  5
83
100
AcDbEntity
  8
2
370
    50
100
AcDbLine
 10
247.312795
 20
55.680452
 30
0.0
 11
246.81744
 21
73.648735
 31
0.0
  0
ARC
  5
84
100
AcDbEntity
  8
2
370
    50
100
AcDbCircle
 10
128.219179
 20
9.376405
 30
0.0
 40
110.0
100
AcDbArc
 50
95.299884
 51
101.319359
  0
LINE
  5
85
100
AcDbEntity
  8
2
370
    50
100
AcDbLine
 10
104.327503
 20
114.025296
 30
0.0
 11
104.704536
 21
115.432405
 31
0.0
  0
ARC
  5
86
100
AcDbEntity
  8
2
370
    50
100
AcDbCircle
 10
19.001229
 20
-381.40226
 30
0.0
 40
500.0
100
AcDbArc
 50
78.450142
 51
79.944087
  0
ARC
  5
87
100
AcDbEntity
  8
2
370
    50
100
AcDbCircle
 10
179.899576
 20
-12.48099
 30
0.0
 40
110.0
100
AcDbArc
 50
53.184173
 51
67.905627
  0
ARC
  5
88
100
AcDbEntity
  8
2
370
    50
100
AcDbCircle
 10
128.18088
 20
131.304775
 30
0.0
 40
16.0
100
AcDbArc
 50
230.771799
 51
258.85705
  0
LINE
  5
89
100
AcDbEntity
  8
2
370
    50
100
AcDbLine
 10
202.150895
 20
93.894264
 30
0.0
 11
207.097376
 21
94.566979
 31
0.0
  0
ARC
  5
8A
100
AcDbEntity
  8
2
370
    50
100
AcDbCircle
 10
28.460004
 20
-374.967629
 30
0.0
 40
500.0
100
AcDbArc
 50
69.672743
 51
78.85705
  0
ARC
  5
8B
100
AcDbEntity
  8
2
370
    50
100
AcDbCircle
 10
33.207601
 20
-373.841564
 30
0.0
 40
500.0
100
AcDbArc
 50
67.905627
 51
69.470338
  0
ARC
  5
8C
100
AcDbEntity
  8
2
370
    50
100
AcDbCircle
 10
107.119351
 20
114.785358
 30
0.0
 40
2.5
100
AcDbArc
 50
101.319359
 51
165.0
  0
ARC
  5
8D
100
AcDbEntity
  8
2
370
    50
100
AcDbCircle
 10
106.742317
 20
113.378248
 30
0.0
 40
2.5
100
AcDbArc
 50
165.0
 51
259.944087
  0
LINE
  5
8E
100
AcDbEntity
  8
2
370
    50
100
AcDbLine
 10
221.130152
 20
44.791564
 30
0.0
 11
210.863055
 21
67.851842
 31
0.0
  0
ARC
  5
8F
100
AcDbEntity
  8
2
370
    50
100
AcDbCircle
 10
174.321236
 20
51.582376
 30
0.0
 40
40.0
100
AcDbArc
 50
24.0
 51
70.266103
  0
LINE
  5
90
100
AcDbEntity
  8
2
370
    50
100
AcDbLine
 10
194.633805
 20
45.548869
 30
0.0
 11
194.633805
 21
76.224417
 31
0.0
  0
ARC
  5
91
100
AcDbEntity
  8
2
370
    50
100
AcDbCircle
 10
179.633805
 20
76.224417
 30
0.0
 40
15.0
100
AcDbArc
 50
0.0
 51
70.658301
  0
ARC
  5
92
100
AcDbEntity
  8
2
370
    50
100
AcDbCircle
 10
194.933805
 20
45.548869
 30
0.0
 40
0.3
100
AcDbArc
 50
180.0
 51
269.0
  0
ARC
  5
93
100
AcDbEntity
  8
2
370
    25
100
AcDbCircle
 10
35.176319
 20
-378.165972
 30
0.0
 40
500.0
100
AcDbArc
 50
65.019107
 51
81.820694
  0
POINT
  5
94
100
AcDbEntity
  8
2
370
    50
100
AcDbPoint
 10
194.633805
 20
45.25406
 30
0.0
  0
ARC
  5
95
100
AcDbEntity
  8
2
370
    50
  6
DASHED
100
AcDbCircle
 10
-168.316906
 20
-222.227046
 30
0.0
 40
500.0
100
AcDbArc
 50
43.701039
 51
48.450142
  0
ARC
  5
96
100
AcDbEntity
  8
2
370
    50
  6
DASHED
100
AcDbCircle
 10
121.657946
 20
61.58823
 30
0.0
 40
110.0
100
AcDbArc
 50
65.299884
 51
71.319359
  0
LINE
  5
97
100
AcDbEntity
  8
2
370
    50
  6
DASHED
100
AcDbLine
 10
153.291592
 20
164.162666
 30
0.0
 11
154.321668
 21
165.192742
 31
0.0
  0
ARC
  5
98
100
AcDbEntity
  8
2
370
    50
  6
DASHED
100
AcDbCircle
 10
-168.316906
 20
-222.227046
 30
0.0
 40
500.0
100
AcDbArc
 50
48.450142
 51
49.944087
  0
ARC
  5
99
100
AcDbEntity
  8
2
370
    50
  6
DASHED
100
AcDbCircle
 10
182.588962
 20
167.200446
 30
0.0
 40
16.0
100
AcDbArc
 50
200.771799
 51
228.85705
  0
ARC
  5
9A
100
AcDbEntity
  8
2
370
    50
  6
DASHED
100
AcDbCircle
 10
-156.908051
 20
-221.38388
 30
0.0
 40
500.0
100
AcDbArc
 50
44.822136
 51
48.85705
  0
ARC
  5
9B
100
AcDbEntity
  8
2
370
    50
  6
DASHED
100
AcDbCircle
 10
156.089435
 20
163.424975
 30
0.0
 40
2.5
100
AcDbArc
 50
71.319359
 51
135.0
  0
ARC
  5
9C
100
AcDbEntity
  8
2
370
    50
  6
DASHED
100
AcDbCircle
 10
155.059359
 20
162.394899
 30
0.0
 40
2.5
100
AcDbArc
 50
135.0
 51
229.944087
  0
LINE
  5
9D
100
AcDbEntity
  8
2
370
    50
100
AcDbLine
 10
-157.090566
 20
44.125322
 30
0.0
 11
-210.090566
 21
44.125322
 31
0.0
  0
LINE
  5
9E
100
AcDbEntity
  8
2
370
    50
100
AcDbLine
 10
-208.558028
 20
73.367904
 30
0.0
 11
-210.090566
 21
44.125322
 31
0.0
  0
LINE
  5
9F
100
AcDbEntity
  8
2
370
    50
100
AcDbLine
 10
-158.623105
 20
73.367904
 30
0.0
 11
-157.090566
 21
44.125322
 31
0.0
  0
LINE
  5
A0
100
AcDbEntity
  8
2
370
    50
100
AcDbLine
 10
-212.590566
 20
113.6973
 30
0.0
 11
-212.590566
 21
109.931524
 31
0.0
  0
LINE
  5
A1
100
AcDbEntity
  8
2
370
    50
100
AcDbLine
 10
-154.590566
 20
113.6973
 30
0.0
 11
-154.590566
 21
109.931524
 31
0.0
  0
ARC
  5
A2
100
AcDbEntity
  8
2
370
    50
100
AcDbCircle
 10
-183.590566
 20
-406.237056
 30
0.0
 40
500.0
100
AcDbArc
 50
88.048466
 51
91.951403
  0
ARC
  5
A3
100
AcDbEntity
  8
2
370
    50
100
AcDbCircle
 10
-156.590566
 20
109.931524
 30
0.0
 40
2.0
100
AcDbArc
 50
266.916867
 51
360.0
  0
ARC
  5
A4
100
AcDbEntity
  8
2
370
    50
100
AcDbCircle
 10
-183.590566
 20
-391.341855
 30
0.0
 40
500.0
100
AcDbArc
 50
86.916867
 51
93.083133
  0
ARC
  5
A5
100
AcDbEntity
  8
2
370
    50
100
AcDbCircle
 10
-210.590566
 20
109.931524
 30
0.0
 40
2.0
100
AcDbArc
 50
180.0
 51
273.083133
  0
ARC
  5
A6
100
AcDbEntity
  8
2
370
    50
100
AcDbCircle
 10
-210.590566
 20
113.6973
 30
0.0
 40
2.0
100
AcDbArc
 50
93.107922
 51
180.0
  0
ARC
  5
A7
100
AcDbEntity
  8
2
370
    50
100
AcDbCircle
 10
-183.590566
 20
-383.570233
 30
0.0
 40
500.0
100
AcDbArc
 50
86.892078
 51
93.107922
  0
ARC
  5
A8
100
AcDbEntity
  8
2
370
    50
100
AcDbCircle
 10
-156.590566
 20
113.6973
 30
0.0
 40
2.0
100
AcDbArc
 50
0.0
 51
86.892078
  0
ARC
  5
A9
100
AcDbEntity
  8
2
370
    50
100
AcDbCircle
 10
-183.590566
 20
-385.78206
 30
0.0
 40
500.0
100
AcDbArc
 50
86.892078
 51
93.107922
  0
ARC
  5
AA
100
AcDbEntity
  8
2
370
    50
100
AcDbCircle
 10
-1700.231356
 20
-83.318499
 30
0.0
 40
1510.0
100
AcDbArc
 50
6.471945
 51
7.290578
  0
ARC
  5
AB
100
AcDbEntity
  8
2
370
    50
100
AcDbCircle
 10
1333.063139
 20
-83.218636
 30
0.0
 40
1510.0
100
AcDbArc
 50
172.713243
 51
173.531817
  0
ARC
  5
AC
100
AcDbEntity
  8
2
370
    50
100
AcDbCircle
 10
-156.590566
 20
111.485474
 30
0.0
 40
2.0
100
AcDbArc
 50
0.0
 51
86.892078
  0
ARC
  5
AD
100
AcDbEntity
  8
2
370
    50
100
AcDbCircle
 10
-210.590566
 20
111.485474
 30
0.0
 40
2.0
100
AcDbArc
 50
93.107922
 51
180.0
  0
LINE
  5
AE
100
AcDbEntity
  8
2
370
    50
100
AcDbLine
 10
-156.084736
 20
103.298711
 30
0.0
 11
-154.590566
 21
109.931524
 31
0.0
  0
LINE
  5
AF
100
AcDbEntity
  8
2
370
    50
100
AcDbLine
 10
-212.590566
 20
109.931524
 30
0.0
 11
-211.096397
 21
103.298711
 31
0.0
  0
LINE
  5
B0
100
AcDbEntity
  8
2
370
    25
100
AcDbLine
 10
-168.101898
 20
88.525322
 30
0.0
 11
-183.590566
 21
88.525322
 31
0.0
  0
LINE
  5
B1
100
AcDbEntity
  8
2
370
    25
100
AcDbLine
 10
-183.590566
 20
88.525322
 30
0.0
 11
-199.144348
 21
88.525322
 31
0.0
  0
LINE
  5
B2
100
AcDbEntity
  8
2
370
    50
100
AcDbLine
 10
-186.090566
 20
75.250518
 30
0.0
 11
-186.090566
 21
74.625204
 31
0.0
  0
LINE
  5
B3
100
AcDbEntity
  8
2
370
    50
100
AcDbLine
 10
-181.090566
 20
75.250518
 30
0.0
 11
-181.090566
 21
74.625204
 31
0.0
  0
LINE
  5
B4
100
AcDbEntity
  8
2
370
    50
100
AcDbLine
 10
-186.090566
 20
74.625204
 30
0.0
 11
-181.090566
 21
74.625204
 31
0.0
  0
LINE
  5
B5
100
AcDbEntity
  8
2
370
    50
100
AcDbLine
 10
-173.590566
 20
93.662934
 30
0.0
 11
-174.532174
 21
77.785987
 31
0.0
  0
LINE
  5
B6
100
AcDbEntity
  8
2
370
    50
100
AcDbLine
 10
-193.590566
 20
93.662934
 30
0.0
 11
-192.648959
 21
77.785987
 31
0.0
  0
ARC
  5
B7
100
AcDbEntity
  8
2
370
    50
100
AcDbCircle
 10
-183.590566
 20
100.125204
 30
0.0
 40
25.0
100
AcDbArc
 50
251.23147
 51
288.76853
  0
ARC
  5
B8
100
AcDbEntity
  8
2
370
    50
100
AcDbCircle
 10
-176.029543
 20
77.87479
 30
0.0
 40
1.5
100
AcDbArc
 50
288.76853
 51
356.605959
  0
ARC
  5
B9
100
AcDbEntity
  8
2
370
    50
100
AcDbCircle
 10
-191.15159
 20
77.87479
 30
0.0
 40
1.5
100
AcDbArc
 50
183.394041
 51
251.23147
  0
ARC
  5
BA
100
AcDbEntity
  8
2
370
    50
100
AcDbCircle
 10
-318.407277
 20
79.124859
 30
0.0
 40
110.0
100
AcDbArc
 50
357.0
 51
12.695072
  0
ARC
  5
BB
100
AcDbEntity
  8
2
370
    50
100
AcDbCircle
 10
-48.773856
 20
79.124859
 30
0.0
 40
110.0
100
AcDbArc
 50
167.304928
 51
183.0
  0
ARC
  5
BC
100
AcDbEntity
  8
2
370
    25
100
AcDbCircle
 10
-179.84485
 20
88.304477
 30
0.0
 40
12.6
100
AcDbArc
 50
325.265523
 51
336.866841
  0
ARC
  5
BD
100
AcDbEntity
  8
2
370
    50
100
AcDbCircle
 10
-179.84485
 20
88.304477
 30
0.0
 40
12.6
100
AcDbArc
 50
336.866841
 51
353.531817
  0
ARC
  5
BE
100
AcDbEntity
  8
2
370
    50
100
AcDbCircle
 10
-187.334634
 20
88.303954
 30
0.0
 40
12.6
100
AcDbArc
 50
186.471945
 51
203.130575
  0
ARC
  5
BF
100
AcDbEntity
  8
2
370
    25
100
AcDbCircle
 10
-187.334634
 20
88.303954
 30
0.0
 40
12.6
100
AcDbArc
 50
203.130575
 51
214.731586
  0
LINE
  5
C0
100
AcDbEntity
  8
2
370
    50
100
AcDbLine
 10
-183.590566
 20
93.762944
 30
0.0
 11
-183.590566
 21
75.125204
 31
0.0
  0
LINE
  5
C1
100
AcDbEntity
  8
2
370
    50
100
AcDbLine
 10
-183.590566
 20
28.025893
 30
0.0
 11
-246.090566
 21
28.025893
 31
0.0
  0
LINE
  5
C2
100
AcDbEntity
  8
2
370
    50
100
AcDbLine
 10
-247.090566
 20
27.025893
 30
0.0
 11
-247.090566
 21
-6.974147
 31
0.0
  0
LINE
  5
C3
100
AcDbEntity
  8
2
370
    50
100
AcDbLine
 10
-246.090566
 20
-7.974147
 30
0.0
 11
-121.090566
 21
-7.974147
 31
0.0
  0
LINE
  5
C4
100
AcDbEntity
  8
2
370
    50
100
AcDbLine
 10
-183.590566
 20
28.025569
 30
0.0
 11
-121.090566
 21
28.025569
 31
0.0
  0
LINE
  5
C5
100
AcDbEntity
  8
2
370
    50
100
AcDbLine
 10
-120.090566
 20
-6.974147
 30
0.0
 11
-120.090566
 21
27.025569
 31
0.0
  0
ARC
  5
C6
100
AcDbEntity
  8
2
370
    50
100
AcDbCircle
 10
-121.090566
 20
27.025569
 30
0.0
 40
1.0
100
AcDbArc
 50
0.0
 51
90.0
  0
ARC
  5
C7
100
AcDbEntity
  8
2
370
    50
100
AcDbCircle
 10
-121.090566
 20
-6.974147
 30
0.0
 40
1.0
100
AcDbArc
 50
270.0
 51
360.0
  0
ARC
  5
C8
100
AcDbEntity
  8
2
370
    50
100
AcDbCircle
 10
-246.090566
 20
27.025893
 30
0.0
 40
1.0
100
AcDbArc
 50
90.0
 51
180.0
  0
ARC
  5
C9
100
AcDbEntity
  8
2
370
    50
100
AcDbCircle
 10
-246.090566
 20
-6.974147
 30
0.0
 40
1.0
100
AcDbArc
 50
180.0
 51
270.0
  0
POINT
  5
CA
100
AcDbEntity
  8
2
370
    50
100
AcDbPoint
 10
-133.590566
 20
10.025916
 30
0.0
  0
POINT
  5
CB
100
AcDbEntity
  8
2
370
    50
100
AcDbPoint
 10
-233.590566
 20
10.025916
 30
0.0
  0
LINE
  5
CC
100
AcDbEntity
  8
2
370
    50
100
AcDbLine
 10
-208.890566
 20
28.325893
 30
0.0
 11
-158.290566
 21
28.325893
 31
0.0
  0
LINE
  5
CD
100
AcDbEntity
  8
2
370
    50
100
AcDbLine
 10
-159.590566
 20
28.325893
 30
0.0
 11
-159.590566
 21
28.025569
 31
0.0
  0
LINE
  5
CE
100
AcDbEntity
  8
2
370
    50
100
AcDbLine
 10
-207.590566
 20
28.325893
 30
0.0
 11
-207.590566
 21
28.025893
 31
0.0
  0
LINE
  5
CF
100
AcDbEntity
  8
2
370
    50
100
AcDbLine
 10
-209.090566
 20
28.525893
 30
0.0
 11
-209.090566
 21
42.184897
 31
0.0
  0
LINE
  5
D0
100
AcDbEntity
  8
2
370
    50
100
AcDbLine
 10
-158.090566
 20
28.525893
 30
0.0
 11
-158.090566
 21
42.184897
 31
0.0
  0
LINE
  5
D1
100
AcDbEntity
  8
2
370
    50
100
AcDbLine
 10
-160.590566
 20
44.125322
 30
0.0
 11
-160.590566
 21
42.825715
 31
0.0
  0
LINE
  5
D2
100
AcDbEntity
  8
2
370
    50
100
AcDbLine
 10
-206.590566
 20
44.125322
 30
0.0
 11
-206.590566
 21
42.825715
 31
0.0
  0
LINE
  5
D3
100
AcDbEntity
  8
2
370
    50
100
AcDbLine
 10
-206.590566
 20
42.825715
 30
0.0
 11
-208.893605
 21
42.419627
 31
0.0
  0
LINE
  5
D4
100
AcDbEntity
  8
2
370
    50
100
AcDbLine
 10
-160.590566
 20
42.825715
 30
0.0
 11
-158.287528
 21
42.419627
 31
0.0
  0
LINE
  5
D5
100
AcDbEntity
  8
2
370
    50
100
AcDbLine
 10
-158.290566
 20
28.325893
 30
0.0
 11
-158.090566
 21
28.525893
 31
0.0
  0
LINE
  5
D6
100
AcDbEntity
  8
2
370
    50
100
AcDbLine
 10
-208.890566
 20
28.325893
 30
0.0
 11
-209.090566
 21
28.525893
 31
0.0
  0
LINE
  5
D7
100
AcDbEntity
  8
2
370
    50
100
AcDbLine
 10
-158.090566
 20
42.184897
 30
0.0
 11
-158.287528
 21
42.419627
 31
0.0
  0
LINE
  5
D8
100
AcDbEntity
  8
2
370
    50
100
AcDbLine
 10
-209.090566
 20
42.184897
 30
0.0
 11
-208.893605
 21
42.419627
 31
0.0
  0
LINE
  5
D9
100
AcDbEntity
  8
2
370
    25
100
AcDbLine
 10
-160.590566
 20
42.825715
 30
0.0
 11
-206.590566
 21
42.825715
 31
0.0
  0
LINE
  5
DA
100
AcDbEntity
  8
2
370
    25
100
AcDbLine
 10
-158.090566
 20
42.184897
 30
0.0
 11
-209.090566
 21
42.184897
 31
0.0
  0
LINE
  5
DB
100
AcDbEntity
  8
2
370
    50
100
AcDbLine
 10
-158.090566
 20
28.525893
 30
0.0
 11
-209.090566
 21
28.525893
 31
0.0
  0
LINE
  5
DC
100
AcDbEntity
  8
2
370
    50
100
AcDbLine
 10
-249.36483
 20
12.70409
 30
0.0
 11
-247.090566
 21
16.64323
 31
0.0
  0
LINE
  5
DD
100
AcDbEntity
  8
2
370
    50
100
AcDbLine
 10
-247.090566
 20
3.408601
 30
0.0
 11
-249.36483
 21
7.347741
 31
0.0
  0
ARC
  5
DE
100
AcDbEntity
  8
2
370
    50
100
AcDbCircle
 10
-233.590566
 20
10.025916
 30
0.0
 40
16.0
100
AcDbArc
 50
170.364135
 51
189.635865
  0
ARC
  5
DF
100
AcDbEntity
  8
2
370
    50
100
AcDbCircle
 10
-233.590566
 20
10.025916
 30
0.0
 40
14.55
100
AcDbArc
 50
158.099815
 51
201.900185
  0
LINE
  5
E0
100
AcDbEntity
  8
2
370
    50
100
AcDbLine
 10
-117.816303
 20
12.70409
 30
0.0
 11
-120.090566
 21
16.64323
 31
0.0
  0
LINE
  5
E1
100
AcDbEntity
  8
2
370
    50
100
AcDbLine
 10
-120.090566
 20
3.408601
 30
0.0
 11
-117.816303
 21
7.347741
 31
0.0
  0
ARC
  5
E2
100
AcDbEntity
  8
2
370
    50
100
AcDbCircle
 10
-133.590566
 20
10.025916
 30
0.0
 40
16.0
100
AcDbArc
 50
350.364135
 51
9.635865
  0
ARC
  5
E3
100
AcDbEntity
  8
2
370
    50
100
AcDbCircle
 10
-133.590566
 20
10.025916
 30
0.0
 40
14.55
100
AcDbArc
 50
338.099815
 51
21.900185
  0
LINE
  5
E4
100
AcDbEntity
  8
2
370
    25
  6
CENTER
100
AcDbLine
 10
-183.590566
 20
-133.593701
 30
0.0
 11
-183.590566
 21
124.224457
 31
0.0
  0
LINE
  5
E5
100
AcDbEntity
  8
2
370
    25
  6
CENTER
100
AcDbLine
 10
-114.319748
 20
10.025916
 30
0.0
 11
-253.323181
 21
10.025916
 31
0.0
  0
LINE
  5
E6
100
AcDbEntity
  8
2
370
    50
100
AcDbLine
 10
-194.223271
 20
-128.013627
 30
0.0
 11
-172.957862
 21
-128.013627
 31
0.0
  0
LINE
  5
E7
100
AcDbEntity
  8
2
370
    50
100
AcDbLine
 10
-195.590566
 20
-116.713627
 30
0.0
 11
-195.590566
 21
-124.513627
 31
0.0
  0
LINE
  5
E8
100
AcDbEntity
  8
2
370
    50
100
AcDbLine
 10
-171.590566
 20
-116.713627
 30
0.0
 11
-171.590566
 21
-124.513627
 31
0.0
  0
LINE
  5
E9
100
AcDbEntity
  8
2
370
    50
100
AcDbLine
 10
-171.590566
 20
-124.513627
 30
0.0
 11
-171.967912
 21
-127.155049
 31
0.0
  0
LINE
  5
EA
100
AcDbEntity
  8
2
370
    50
100
AcDbLine
 10
-195.590566
 20
-124.513627
 30
0.0
 11
-195.213221
 21
-127.155049
 31
0.0
  0
ARC
  5
EB
100
AcDbEntity
  8
2
370
    50
100
AcDbCircle
 10
-172.957862
 20
-127.013627
 30
0.0
 40
1.0
100
AcDbArc
 50
270.0
 51
351.869898
  0
ARC
  5
EC
100
AcDbEntity
  8
2
370
    50
100
AcDbCircle
 10
-194.223271
 20
-127.013627
 30
0.0
 40
1.0
100
AcDbArc
 50
188.130102
 51
270.0
  0
LINE
  5
ED
100
AcDbEntity
  8
2
370
    25
100
AcDbLine
 10
-195.024282
 20
-124.513627
 30
0.0
 11
-172.422109
 21
-124.513627
 31
0.0
  0
LINE
  5
EE
100
AcDbEntity
  8
2
370
    50
100
AcDbLine
 10
-175.690566
 20
-66.474627
 30
0.0
 11
-175.690566
 21
-81.662549
 31
0.0
  0
LINE
  5
EF
100
AcDbEntity
  8
2
370
    50
100
AcDbLine
 10
-191.490566
 20
-66.474627
 30
0.0
 11
-191.490566
 21
-81.662549
 31
0.0
  0
LINE
  5
F0
100
AcDbEntity
  8
2
370
    50
100
AcDbLine
 10
-195.390566
 20
-116.513627
 30
0.0
 11
-171.790566
 21
-116.513627
 31
0.0
  0
LINE
  5
F1
100
AcDbEntity
  8
2
370
    50
100
AcDbLine
 10
-171.790566
 20
-116.513627
 30
0.0
 11
-171.590566
 21
-116.713627
 31
0.0
  0
LINE
  5
F2
100
AcDbEntity
  8
2
370
    50
100
AcDbLine
 10
-195.390566
 20
-116.513627
 30
0.0
 11
-195.590566
 21
-116.713627
 31
0.0
  0
ARC
  5
F3
100
AcDbEntity
  8
2
370
    50
100
AcDbCircle
 10
-171.340566
 20
-91.413627
 30
0.0
 40
25.0
100
AcDbArc
 50
166.204472
 51
180.0
  0
ARC
  5
F4
100
AcDbEntity
  8
2
370
    50
100
AcDbCircle
 10
-183.590566
 20
-94.413627
 30
0.0
 40
15.0
100
AcDbArc
 50
36.686015
 51
143.313985
  0
ARC
  5
F5
100
AcDbEntity
  8
2
370
    50
100
AcDbCircle
 10
-195.840566
 20
-91.413627
 30
0.0
 40
25.0
100
AcDbArc
 50
0.0
 51
13.795528
  0
LINE
  5
F6
100
AcDbEntity
  8
2
370
    50
100
AcDbLine
 10
-170.840566
 20
-91.413627
 30
0.0
 11
-170.840566
 21
-112.913627
 31
0.0
  0
LINE
  5
F7
100
AcDbEntity
  8
2
370
    50
100
AcDbLine
 10
-196.340566
 20
-91.413627
 30
0.0
 11
-196.340566
 21
-112.913627
 31
0.0
  0
LINE
  5
F8
100
AcDbEntity
  8
2
370
    25
100
AcDbLine
 10
-195.590566
 20
-112.913627
 30
0.0
 11
-195.590566
 21
-85.413627
 31
0.0
  0
LINE
  5
F9
100
AcDbEntity
  8
2
370
    50
100
AcDbLine
 10
-196.340566
 20
-112.913627
 30
0.0
 11
-195.68525
 21
-115.534895
 31
0.0
  0
LINE
  5
FA
100
AcDbEntity
  8
2
370
    50
100
AcDbLine
 10
-170.840566
 20
-112.913627
 30
0.0
 11
-171.495883
 21
-115.534895
 31
0.0
  0
LINE
  5
FB
100
AcDbEntity
  8
2
370
    25
100
AcDbLine
 10
-171.590566
 20
-112.913627
 30
0.0
 11
-171.590566
 21
-85.413627
 31
0.0
  0
LINE
  5
FC
100
AcDbEntity
  8
2
370
    50
100
AcDbLine
 10
-172.840566
 20
-116.513627
 30
0.0
 11
-172.840566
 21
-115.913627
 31
0.0
  0
LINE
  5
FD
100
AcDbEntity
  8
2
370
    50
100
AcDbLine
 10
-194.340566
 20
-116.513627
 30
0.0
 11
-194.340566
 21
-115.913627
 31
0.0
  0
LINE
  5
FE
100
AcDbEntity
  8
2
370
    50
100
AcDbLine
 10
-171.980955
 20
-115.913627
 30
0.0
 11
-195.200178
 21
-115.913627
 31
0.0
  0
LINE
  5
FF
100
AcDbEntity
  8
2
370
    25
  6
CENTER
100
AcDbLine
 10
-198.731851
 20
-91.413627
 30
0.0
 11
-168.94939
 21
-91.413627
 31
0.0
  0
ARC
  5
100
100
AcDbEntity
  8
2
370
    50
100
AcDbCircle
 10
-195.200178
 20
-115.413627
 30
0.0
 40
0.5
100
AcDbArc
 50
194.036243
 51
270.0
  0
ARC
  5
101
100
AcDbEntity
  8
2
370
    50
100
AcDbCircle
 10
-171.980955
 20
-115.413627
 30
0.0
 40
0.5
100
AcDbArc
 50
270.0
 51
345.963757
  0
LINE
  5
102
100
AcDbEntity
  8
2
370
    50
100
AcDbLine
 10
-170.590566
 20
-7.974147
 30
0.0
 11
-170.590566
 21
-8.274147
 31
0.0
  0
LINE
  5
103
100
AcDbEntity
  8
2
370
    50
100
AcDbLine
 10
-196.590566
 20
-7.974147
 30
0.0
 11
-196.590566
 21
-8.274147
 31
0.0
  0
LINE
  5
104
100
AcDbEntity
  8
2
370
    50
100
AcDbLine
 10
-173.315566
 20
-66.474627
 30
0.0
 11
-193.865566
 21
-66.474627
 31
0.0
  0
LINE
  5
105
100
AcDbEntity
  8
2
370
    50
100
AcDbLine
 10
-170.014954
 20
-56.474627
 30
0.0
 11
-197.166179
 21
-56.474627
 31
0.0
  0
ARC
  5
106
100
AcDbEntity
  8
2
370
    50
100
AcDbCircle
 10
-193.865566
 20
-61.474627
 30
0.0
 40
5.0
100
AcDbArc
 50
180.0
 51
270.0
  0
ARC
  5
107
100
AcDbEntity
  8
2
370
    50
100
AcDbCircle
 10
-190.66028
 20
-61.474627
 30
0.0
 40
8.205286
100
AcDbArc
 50
142.456522
 51
180.0
  0
ELLIPSE
  5
108
100
AcDbEntity
  8
2
370
    50
100
AcDbEllipse
 10
-183.590566
 20
-60.945822
 30
0.0
 11
-6.10947
 21
0.0
 31
0.0
210
0.0
220
0.0
230
1.0
 40
0.632482
 41
0.0
 42
6.2831849999999996
  0
ELLIPSE
  5
109
100
AcDbEntity
  8
2
370
    50
100
AcDbEllipse
 10
-195.714922
 20
-60.945822
 30
0.0
 11
0.0
 21
-3.8641269999999999
 31
0.0
210
0.0
220
0.0
230
1.0
 40
0.790537
 41
0.0
 42
6.2831849999999996
  0
ELLIPSE
  5
10A
100
AcDbEntity
  8
2
370
    50
100
AcDbEllipse
 10
-171.466211
 20
-60.945822
 30
0.0
 11
0.0
 21
3.8641269999999999
 31
0.0
210
0.0
220
0.0
230
1.0
 40
0.790537
 41
0.0
 42
6.2831849999999996
  0
ARC
  5
10B
100
AcDbEntity
  8
2
370
    50
100
AcDbCircle
 10
-173.315566
 20
-61.474627
 30
0.0
 40
5.0
100
AcDbArc
 50
270.0
 51
0.0
  0
ARC
  5
10C
100
AcDbEntity
  8
2
370
    50
100
AcDbCircle
 10
-176.520853
 20
-61.474627
 30
0.0
 40
8.205286
100
AcDbArc
 50
0.0
 51
37.543478
  0
POINT
  5
10D
100
AcDbEntity
  8
2
370
    50
100
AcDbPoint
 10
210.867988
 20
-98.975517
 30
0.0
  0
LINE
  5
10E
100
AcDbEntity
  8
2
370
    50
100
AcDbLine
 10
-170.590566
 20
-7.974147
 30
0.0
 11
-170.590566
 21
-8.274147
 31
0.0
  0
LINE
  5
10F
100
AcDbEntity
  8
2
370
    50
100
AcDbLine
 10
-196.590566
 20
-7.974147
 30
0.0
 11
-196.590566
 21
-8.274147
 31
0.0
  0
LINE
  5
110
100
AcDbEntity
  8
2
370
    50
100
AcDbLine
 10
153.867663
 20
-42.646321
 30
0.0
 11
153.867663
 21
-22.303734
 31
0.0
  0
LINE
  5
111
100
AcDbEntity
  8
2
370
    50
100
AcDbLine
 10
189.867663
 20
-43.475027
 30
0.0
 11
188.137812
 21
-43.475027
 31
0.0
  0
LINE
  5
112
100
AcDbEntity
  8
2
370
    50
100
AcDbLine
 10
189.867663
 20
-46.475027
 30
0.0
 11
189.867663
 21
-18.475027
 31
0.0
  0
LINE
  5
113
100
AcDbEntity
  8
2
370
    50
100
AcDbLine
 10
189.867663
 20
-18.475027
 30
0.0
 11
190.367663
 21
-17.975027
 31
0.0
  0
LINE
  5
114
100
AcDbEntity
  8
2
370
    50
100
AcDbLine
 10
189.867663
 20
-46.475027
 30
0.0
 11
190.367663
 21
-46.975027
 31
0.0
  0
LINE
  5
115
100
AcDbEntity
  8
2
370
    50
100
AcDbLine
 10
241.868387
 20
-21.675027
 30
0.0
 11
255.668387
 21
-21.675027
 31
0.0
  0
LINE
  5
116
100
AcDbEntity
  8
2
370
    50
100
AcDbLine
 10
241.868387
 20
-43.275027
 30
0.0
 11
245.342155
 21
-43.275027
 31
0.0
  0
LINE
  5
117
100
AcDbEntity
  8
2
370
    50
100
AcDbLine
 10
248.368387
 20
-48.175027
 30
0.0
 11
248.368387
 21
-54.571515
 31
0.0
  0
LINE
  5
118
100
AcDbEntity
  8
2
370
    50
100
AcDbLine
 10
249.068387
 20
-47.475027
 30
0.0
 11
248.368387
 21
-48.175027
 31
0.0
  0
ARC
  5
119
100
AcDbEntity
  8
2
370
    50
100
AcDbCircle
 10
255.668387
 20
-36.675027
 30
0.0
 40
15.0
100
AcDbArc
 50
55.557112
 51
90.0
  0
LINE
  5
11A
100
AcDbEntity
  8
2
370
    50
100
AcDbLine
 10
241.368387
 20
-19.475061
 30
0.0
 11
229.867988
 21
-19.475061
 31
0.0
  0
LINE
  5
11B
100
AcDbEntity
  8
2
370
    50
100
AcDbLine
 10
227.867988
 20
-45.475061
 30
0.0
 11
241.368387
 21
-45.475061
 31
0.0
  0
LINE
  5
11C
100
AcDbEntity
  8
2
370
    50
100
AcDbLine
 10
241.868387
 20
-19.975061
 30
0.0
 11
241.368387
 21
-19.475061
 31
0.0
  0
LINE
  5
11D
100
AcDbEntity
  8
2
370
    50
100
AcDbLine
 10
241.868387
 20
-44.975061
 30
0.0
 11
241.368387
 21
-45.475061
 31
0.0
  0
LINE
  5
11E
100
AcDbEntity
  8
2
370
    50
100
AcDbLine
 10
227.867988
 20
-8.575225
 30
0.0
 11
227.867988
 21
-17.475061
 31
0.0
  0
LINE
  5
11F
100
AcDbEntity
  8
2
370
    50
100
AcDbLine
 10
193.867988
 20
-8.575225
 30
0.0
 11
193.867988
 21
-13.475027
 31
0.0
  0
ARC
  5
120
100
AcDbEntity
  8
2
370
    50
100
AcDbCircle
 10
229.867988
 20
-17.475061
 30
0.0
 40
2.0
100
AcDbArc
 50
180.0
 51
270.0
  0
LINE
  5
121
100
AcDbEntity
  8
2
370
    50
100
AcDbLine
 10
191.867988
 20
-15.475027
 30
0.0
 11
190.867663
 21
-15.475027
 31
0.0
  0
LINE
  5
122
100
AcDbEntity
  8
2
370
    50
100
AcDbLine
 10
190.867663
 20
-49.475027
 30
0.0
 11
194.867988
 21
-49.475027
 31
0.0
  0
LINE
  5
123
100
AcDbEntity
  8
2
370
    50
100
AcDbLine
 10
190.367663
 20
-15.975027
 30
0.0
 11
190.867663
 21
-15.475027
 31
0.0
  0
LINE
  5
124
100
AcDbEntity
  8
2
370
    50
100
AcDbLine
 10
190.867663
 20
-49.475027
 30
0.0
 11
190.367663
 21
-48.975027
 31
0.0
  0
ARC
  5
125
100
AcDbEntity
  8
2
370
    50
100
AcDbCircle
 10
191.867988
 20
-13.475027
 30
0.0
 40
2.0
100
AcDbArc
 50
270.0
 51
360.0
  0
LINE
  5
126
100
AcDbEntity
  8
2
370
    50
100
AcDbLine
 10
223.867988
 20
-54.475517
 30
0.0
 11
223.867988
 21
-55.975704
 31
0.0
  0
LINE
  5
127
100
AcDbEntity
  8
2
370
    50
100
AcDbLine
 10
197.867988
 20
-54.475517
 30
0.0
 11
197.867988
 21
-55.975704
 31
0.0
  0
LINE
  5
128
100
AcDbEntity
  8
2
370
    50
100
AcDbLine
 10
227.867988
 20
-8.575225
 30
0.0
 11
227.567988
 21
-8.275225
 31
0.0
  0
LINE
  5
129
100
AcDbEntity
  8
2
370
    50
100
AcDbLine
 10
194.167988
 20
-8.275225
 30
0.0
 11
193.867988
 21
-8.575225
 31
0.0
  0
LINE
  5
12A
100
AcDbEntity
  8
2
370
    50
100
AcDbLine
 10
224.867988
 20
-48.475061
 30
0.0
 11
224.867988
 21
-54.475517
 31
0.0
  0
LINE
  5
12B
100
AcDbEntity
  8
2
370
    50
100
AcDbLine
 10
196.867988
 20
-51.475027
 30
0.0
 11
196.867988
 21
-54.475517
 31
0.0
  0
LINE
  5
12C
100
AcDbEntity
  8
2
370
    50
100
AcDbLine
 10
196.867988
 20
-54.475517
 30
0.0
 11
223.867988
 21
-54.475517
 31
0.0
  0
LINE
  5
12D
100
AcDbEntity
  8
2
370
    50
100
AcDbLine
 10
223.867988
 20
-54.475517
 30
0.0
 11
224.867988
 21
-54.475517
 31
0.0
  0
ARC
  5
12E
100
AcDbEntity
  8
2
370
    50
100
AcDbCircle
 10
227.867988
 20
-48.475061
 30
0.0
 40
3.0
100
AcDbArc
 50
90.0
 51
180.0
  0
ARC
  5
12F
100
AcDbEntity
  8
2
370
    50
100
AcDbCircle
 10
194.867988
 20
-51.475027
 30
0.0
 40
2.0
100
AcDbArc
 50
0.0
 51
90.0
  0
POINT
  5
130
100
AcDbEntity
  8
2
370
    50
100
AcDbPoint
 10
241.868387
 20
-32.475027
 30
0.0
  0
LINE
  5
131
100
AcDbEntity
  8
2
370
    50
100
AcDbLine
 10
241.868387
 20
-44.975061
 30
0.0
 11
241.868387
 21
-19.975061
 31
0.0
  0
POINT
  5
132
100
AcDbEntity
  8
2
370
    50
100
AcDbPoint
 10
191.867663
 20
-32.475027
 30
0.0
  0
LINE
  5
133
100
AcDbEntity
  8
2
370
    50
100
AcDbLine
 10
190.367663
 20
-48.975027
 30
0.0
 11
190.367663
 21
-46.975027
 31
0.0
  0
LINE
  5
134
100
AcDbEntity
  8
2
370
    50
100
AcDbLine
 10
190.367663
 20
-15.975027
 30
0.0
 11
190.367663
 21
-46.975027
 31
0.0
  0
LINE
  5
135
100
AcDbEntity
  8
2
370
    50
100
AcDbLine
 10
-166.890566
 20
-8.274147
 30
0.0
 11
-200.290566
 21
-8.274147
 31
0.0
  0
LINE
  5
136
100
AcDbEntity
  8
2
370
    50
100
AcDbLine
 10
-166.590566
 20
-8.574147
 30
0.0
 11
-166.590566
 21
-32.47395
 31
0.0
  0
LINE
  5
137
100
AcDbEntity
  8
2
370
    50
100
AcDbLine
 10
-200.590566
 20
-8.574147
 30
0.0
 11
-200.590566
 21
-27.403761
 31
0.0
  0
LINE
  5
138
100
AcDbEntity
  8
2
370
    50
100
AcDbLine
 10
-166.590566
 20
-8.574147
 30
0.0
 11
-166.890566
 21
-8.274147
 31
0.0
  0
LINE
  5
139
100
AcDbEntity
  8
2
370
    50
100
AcDbLine
 10
-200.290566
 20
-8.274147
 30
0.0
 11
-200.590566
 21
-8.574147
 31
0.0
  0
LINE
  5
13A
100
AcDbEntity
  8
2
370
    50
100
AcDbLine
 10
-196.590566
 20
-54.47444
 30
0.0
 11
-196.590566
 21
-56.474627
 31
0.0
  0
LINE
  5
13B
100
AcDbEntity
  8
2
370
    50
100
AcDbLine
 10
-170.590566
 20
-54.47444
 30
0.0
 11
-170.590566
 21
-56.474627
 31
0.0
  0
LINE
  5
13C
100
AcDbEntity
  8
2
370
    50
100
AcDbLine
 10
-171.190566
 20
-56.474875
 30
0.0
 11
-170.590566
 21
-55.874875
 31
0.0
  0
LINE
  5
13D
100
AcDbEntity
  8
2
370
    50
100
AcDbLine
 10
-195.990566
 20
-56.474875
 30
0.0
 11
-196.590566
 21
-55.874875
 31
0.0
  0
LINE
  5
13E
100
AcDbEntity
  8
2
370
    50
100
AcDbLine
 10
-166.590566
 20
-8.574147
 30
0.0
 11
-200.590566
 21
-8.574147
 31
0.0
  0
LINE
  5
13F
100
AcDbEntity
  8
2
370
    50
100
AcDbLine
 10
-169.590566
 20
-54.47444
 30
0.0
 11
-197.590566
 21
-54.47444
 31
0.0
  0
LINE
  5
140
100
AcDbEntity
  8
2
370
    50
100
AcDbLine
 10
-169.590566
 20
-54.47444
 30
0.0
 11
-169.590566
 21
-45.319183
 31
0.0
  0
LINE
  5
141
100
AcDbEntity
  8
2
370
    50
100
AcDbLine
 10
-197.590566
 20
-54.47444
 30
0.0
 11
-197.590566
 21
-45.319183
 31
0.0
  0
ARC
  5
142
100
AcDbEntity
  8
2
370
    50
100
AcDbCircle
 10
-157.590566
 20
-45.319183
 30
0.0
 40
12.0
100
AcDbArc
 50
153.708445
 51
180.0
  0
ARC
  5
143
100
AcDbEntity
  8
2
370
    50
100
AcDbCircle
 10
-209.590566
 20
-45.319183
 30
0.0
 40
12.0
100
AcDbArc
 50
0.0
 51
26.291555
  0
POINT
  5
144
100
AcDbEntity
  8
2
370
    50
100
AcDbPoint
 10
-183.590723
 20
-32.473447
 30
0.0
  0
ARC
  5
145
100
AcDbEntity
  8
2
370
    50
100
AcDbCircle
 10
-206.6826
 20
-45.473621
 30
0.0
 40
10.0
100
AcDbArc
 50
29.377792
 51
90.0
  0
ARC
  5
146
100
AcDbEntity
  8
2
370
    50
100
AcDbCircle
 10
-206.6826
 20
-19.473621
 30
0.0
 40
10.0
100
AcDbArc
 50
270.0
 51
330.622208
  0
ARC
  5
147
100
AcDbEntity
  8
2
370
    50
100
AcDbCircle
 10
-206.795008
 20
-75.473621
 30
0.0
 40
40.0
100
AcDbArc
 50
90.0
 51
102.603453
  0
ARC
  5
148
100
AcDbEntity
  8
2
370
    50
100
AcDbCircle
 10
-215.850393
 20
-34.973621
 30
0.0
 40
1.5
100
AcDbArc
 50
180.0
 51
282.603453
  0
ARC
  5
149
100
AcDbEntity
  8
2
370
    50
100
AcDbCircle
 10
-215.850393
 20
-29.973621
 30
0.0
 40
1.5
100
AcDbArc
 50
77.396547
 51
180.0
  0
LINE
  5
14A
100
AcDbEntity
  8
2
370
    50
100
AcDbLine
 10
-217.350393
 20
-29.973621
 30
0.0
 11
-217.350393
 21
-34.973621
 31
0.0
  0
ARC
  5
14B
100
AcDbEntity
  8
2
370
    50
100
AcDbCircle
 10
-206.795008
 20
10.526379
 30
0.0
 40
40.0
100
AcDbArc
 50
257.396547
 51
270.0
  0
ARC
  5
14C
100
AcDbEntity
  8
2
370
    50
100
AcDbCircle
 10
-183.590393
 20
-32.473621
 30
0.0
 40
16.5
100
AcDbArc
 50
209.377791
 51
150.622206
  0
CIRCLE
  5
14D
100
AcDbEntity
  8
2
370
    50
100
AcDbCircle
 10
-183.590393
 20
-32.473621
 30
0.0
 40
8.75
  0
POINT
  5
14E
100
AcDbEntity
  8
2
370
    50
100
AcDbPoint
 10
-183.590393
 20
-32.473621
 30
0.0
  0
ARC
  5
14F
100
AcDbEntity
  8
2
370
    50
100
AcDbCircle
 10
-183.590566
 20
-32.47395
 30
0.0
 40
17.0
100
AcDbArc
 50
200.938081
 51
159.057962
  0
POINT
  5
150
100
AcDbEntity
  8
2
370
    50
100
AcDbPoint
 10
-183.590566
 20
-56.97444
 30
0.0
  0
LINE
  5
151
100
AcDbEntity
  8
2
370
    50
100
AcDbLine
 10
189.867663
 20
-21.475027
 30
0.0
 11
188.137812
 21
-21.475027
 31
0.0
  0
LINE
  5
152
100
AcDbEntity
  8
2
370
    50
100
AcDbLine
 10
153.296493
 20
-23.659718
 30
0.0
 11
153.884081
 21
-23.659718
 31
0.0
  0
LINE
  5
153
100
AcDbEntity
  8
2
370
    50
100
AcDbLine
 10
153.884081
 20
-41.290315
 30
0.0
 11
153.296493
 21
-41.290315
 31
0.0
  0
ARC
  5
154
100
AcDbEntity
  8
2
370
    50
100
AcDbCircle
 10
153.296493
 20
-40.282853
 30
0.0
 40
1.007463
100
AcDbArc
 50
189.100302
 51
270.0
  0
ARC
  5
155
100
AcDbEntity
  8
2
370
    50
100
AcDbCircle
 10
153.296493
 20
-24.667181
 30
0.0
 40
1.007463
100
AcDbArc
 50
90.0
 51
170.899698
  0
LINE
  5
156
100
AcDbEntity
  8
2
370
    50
100
AcDbLine
 10
161.949055
 20
-16.429586
 30
0.0
 11
187.108132
 21
-15.874607
 31
0.0
  0
LINE
  5
157
100
AcDbEntity
  8
2
370
    50
100
AcDbLine
 10
161.949055
 20
-48.520469
 30
0.0
 11
187.108132
 21
-49.075448
 31
0.0
  0
ARC
  5
158
100
AcDbEntity
  8
2
370
    50
100
AcDbCircle
 10
162.149017
 20
-25.494545
 30
0.0
 40
9.067164
100
AcDbArc
 50
91.263673
 51
152.405115
  0
ARC
  5
159
100
AcDbEntity
  8
2
370
    50
100
AcDbCircle
 10
162.149017
 20
-39.45551
 30
0.0
 40
9.067164
100
AcDbArc
 50
207.594885
 51
268.736327
  0
ARC
  5
15A
100
AcDbEntity
  8
2
370
    50
100
AcDbCircle
 10
187.13035
 20
-16.881824
 30
0.0
 40
1.007463
100
AcDbArc
 50
0.0
 51
91.263673
  0
ARC
  5
15B
100
AcDbEntity
  8
2
370
    50
100
AcDbCircle
 10
187.13035
 20
-48.068231
 30
0.0
 40
1.007463
100
AcDbArc
 50
268.736327
 51
360.0
  0
ARC
  5
15C
100
AcDbEntity
  8
2
370
    50
100
AcDbCircle
 10
155.899006
 20
-22.227829
 30
0.0
 40
2.014925
100
AcDbArc
 50
152.405115
 51
180.0
  0
ARC
  5
15D
100
AcDbEntity
  8
2
370
    50
100
AcDbCircle
 10
155.899006
 20
-42.722226
 30
0.0
 40
2.014925
100
AcDbArc
 50
180.0
 51
207.594885
  0
LINE
  5
15E
100
AcDbEntity
  8
2
370
    50
100
AcDbLine
 10
153.884081
 20
-42.722226
 30
0.0
 11
153.884081
 21
-41.326196
 31
0.0
  0
LINE
  5
15F
100
AcDbEntity
  8
2
370
    50
100
AcDbLine
 10
153.884081
 20
-23.623859
 30
0.0
 11
153.884081
 21
-22.227829
 31
0.0
  0
ARC
  5
160
100
AcDbEntity
  8
2
370
    50
100
AcDbCircle
 10
202.040797
 20
-32.475017
 30
0.0
 40
50.373134
100
AcDbArc
 50
187.063702
 51
189.100302
  0
LINE
  5
161
100
AcDbEntity
  8
2
370
    50
100
AcDbLine
 10
188.137812
 20
-16.881824
 30
0.0
 11
188.137812
 21
-48.068231
 31
0.0
  0
LINE
  5
162
100
AcDbEntity
  8
2
370
    25
  6
CENTER
100
AcDbLine
 10
273.875149
 20
-32.475027
 30
0.0
 11
184.787047
 21
-32.475027
 31
0.0
  0
LINE
  5
163
100
AcDbEntity
  8
2
370
    50
100
AcDbLine
 10
188.137812
 20
-19.881744
 30
0.0
 11
188.137812
 21
-45.068311
 31
0.0
  0
POINT
  5
164
100
AcDbEntity
  8
2
370
    50
100
AcDbPoint
 10
151.667663
 20
-32.475027
 30
0.0
  0
ARC
  5
165
100
AcDbEntity
  8
2
370
    50
100
AcDbCircle
 10
202.040797
 20
-32.475017
 30
0.0
 40
50.373134
100
AcDbArc
 50
180.000012
 51
189.100302
  0
ARC
  5
166
100
AcDbEntity
  8
2
370
    50
100
AcDbCircle
 10
202.040797
 20
-32.475017
 30
0.0
 40
50.373134
100
AcDbArc
 50
170.899698
 51
180.000012
  0
LINE
  5
167
100
AcDbEntity
  8
2
370
    50
100
AcDbLine
 10
194.167988
 20
-8.275225
 30
0.0
 11
194.167988
 21
-7.974814
 31
0.0
  0
LINE
  5
168
100
AcDbEntity
  8
2
370
    50
100
AcDbLine
 10
227.535215
 20
-8.275225
 30
0.0
 11
227.535215
 21
-7.974814
 31
0.0
  0
LINE
  5
169
100
AcDbEntity
  8
2
370
    50
100
AcDbLine
 10
194.167988
 20
-8.275225
 30
0.0
 11
227.567988
 21
-8.275225
 31
0.0
  0
POINT
  5
16A
100
AcDbEntity
  8
2
370
    50
100
AcDbPoint
 10
210.867988
 20
-56.475517
 30
0.0
  0
ARC
  5
16B
100
AcDbEntity
  8
2
370
    25
100
AcDbCircle
 10
52.867988
 20
-107.89668
 30
0.0
 40
7.578254
100
AcDbArc
 50
219.737283
 51
252.332056
  0
ARC
  5
16C
100
AcDbEntity
  8
2
370
    25
100
AcDbCircle
 10
28.867988
 20
-107.89668
 30
0.0
 40
7.578254
100
AcDbArc
 50
281.13592
 51
320.262717
  0
LINE
  5
16D
100
AcDbEntity
  8
2
370
    25
100
AcDbLine
 10
34.906988
 20
-112.474933
 30
0.0
 11
46.828988
 21
-112.474933
 31
0.0
  0
ARC
  5
16E
100
AcDbEntity
  8
2
370
    25
100
AcDbCircle
 10
60.867988
 20
-110.974933
 30
0.0
 40
25.961
100
AcDbArc
 50
90.0
 51
180.0
  0
LINE
  5
16F
100
AcDbEntity
  8
2
370
    25
100
AcDbLine
 10
60.867988
 20
-85.013933
 30
0.0
 11
84.867988
 21
-85.013933
 31
0.0
  0
LINE
  5
170
100
AcDbEntity
  8
2
370
    25
100
AcDbLine
 10
84.867988
 20
-96.936375
 30
0.0
 11
60.756662
 21
-96.936375
 31
0.0
  0
ARC
  5
171
100
AcDbEntity
  8
2
370
    25
100
AcDbCircle
 10
60.867988
 20
-110.974933
 30
0.0
 40
14.039
100
AcDbArc
 50
90.0
 51
180.0
  0
LINE
  5
172
100
AcDbEntity
  8
2
370
    25
100
AcDbLine
 10
34.906988
 20
-110.974933
 30
0.0
 11
34.906988
 21
-112.474933
 31
0.0
  0
LINE
  5
173
100
AcDbEntity
  8
2
370
    50
100
AcDbLine
 10
88.867988
 20
-83.024933
 30
0.0
 11
190.867988
 21
-83.024933
 31
0.0
  0
LINE
  5
174
100
AcDbEntity
  8
2
370
    50
100
AcDbLine
 10
88.867988
 20
-98.924933
 30
0.0
 11
190.867988
 21
-98.924933
 31
0.0
  0
LINE
  5
175
100
AcDbEntity
  8
2
370
    50
100
AcDbLine
 10
52.867988
 20
-110.974933
 30
0.0
 11
52.867988
 21
-114.974933
 31
0.0
  0
ARC
  5
176
100
AcDbEntity
  8
2
370
    50
100
AcDbCircle
 10
52.117988
 20
-115.974933
 30
0.0
 40
0.5
100
AcDbArc
 50
90.0
 51
180.0
  0
LINE
  5
177
100
AcDbEntity
  8
2
370
    50
100
AcDbLine
 10
88.867988
 20
-79.974933
 30
0.0
 11
88.867988
 21
-101.974933
 31
0.0
  0
LINE
  5
178
100
AcDbEntity
  8
2
370
    50
100
AcDbLine
 10
60.867988
 20
-102.974933
 30
0.0
 11
84.867988
 21
-102.974933
 31
0.0
  0
ARC
  5
179
100
AcDbEntity
  8
2
370
    50
100
AcDbCircle
 10
60.867988
 20
-110.974933
 30
0.0
 40
8.0
100
AcDbArc
 50
90.0
 51
180.0
  0
ARC
  5
17A
100
AcDbEntity
  8
2
370
    50
100
AcDbCircle
 10
52.367988
 20
-114.974933
 30
0.0
 40
0.5
100
AcDbArc
 50
270.0
 51
360.0
  0
LINE
  5
17B
100
AcDbEntity
  8
2
370
    50
100
AcDbLine
 10
51.617988
 20
-115.974933
 30
0.0
 11
51.617988
 21
-116.074933
 31
0.0
  0
ARC
  5
17C
100
AcDbEntity
  8
2
370
    50
100
AcDbCircle
 10
84.867988
 20
-94.474933
 30
0.0
 40
8.5
100
AcDbArc
 50
270.0
 51
298.072487
  0
LINE
  5
17D
100
AcDbEntity
  8
2
370
    50
100
AcDbLine
 10
60.867988
 20
-78.974933
 30
0.0
 11
84.867988
 21
-78.974933
 31
0.0
  0
ARC
  5
17E
100
AcDbEntity
  8
2
370
    50
100
AcDbCircle
 10
60.867988
 20
-110.974933
 30
0.0
 40
32.0
100
AcDbArc
 50
90.0
 51
180.0
  0
LINE
  5
17F
100
AcDbEntity
  8
2
370
    50
100
AcDbLine
 10
28.867988
 20
-110.974933
 30
0.0
 11
28.867988
 21
-114.974933
 31
0.0
  0
ARC
  5
180
100
AcDbEntity
  8
2
370
    50
100
AcDbCircle
 10
29.367988
 20
-114.974933
 30
0.0
 40
0.5
100
AcDbArc
 50
180.0
 51
270.0
  0
LINE
  5
181
100
AcDbEntity
  8
2
370
    50
100
AcDbLine
 10
29.367988
 20
-115.474933
 30
0.0
 11
52.367988
 21
-115.474933
 31
0.0
  0
LINE
  5
182
100
AcDbEntity
  8
2
370
    50
100
AcDbLine
 10
30.117988
 20
-115.974933
 30
0.0
 11
30.117988
 21
-116.074933
 31
0.0
  0
ARC
  5
183
100
AcDbEntity
  8
2
370
    50
100
AcDbCircle
 10
29.617988
 20
-115.974933
 30
0.0
 40
0.5
100
AcDbArc
 50
0.0
 51
90.0
  0
ARC
  5
184
100
AcDbEntity
  8
2
370
    50
100
AcDbCircle
 10
84.867988
 20
-87.474933
 30
0.0
 40
8.5
100
AcDbArc
 50
61.927513
 51
90.0
  0
LINE
  5
185
100
AcDbEntity
  8
2
370
    50
100
AcDbLine
 10
30.545021
 20
-127.574933
 30
0.0
 11
51.190955
 21
-127.574933
 31
0.0
  0
LINE
  5
186
100
AcDbEntity
  8
2
370
    50
100
AcDbLine
 10
28.867988
 20
-116.274933
 30
0.0
 11
28.867988
 21
-125.074933
 31
0.0
  0
LINE
  5
187
100
AcDbEntity
  8
2
370
    50
100
AcDbLine
 10
52.867988
 20
-116.274933
 30
0.0
 11
52.867988
 21
-125.074933
 31
0.0
  0
LINE
  5
188
100
AcDbEntity
  8
2
370
    50
100
AcDbLine
 10
52.867988
 20
-116.274933
 30
0.0
 11
52.667988
 21
-116.074933
 31
0.0
  0
LINE
  5
189
100
AcDbEntity
  8
2
370
    50
100
AcDbLine
 10
28.867988
 20
-116.274933
 30
0.0
 11
29.067988
 21
-116.074933
 31
0.0
  0
LINE
  5
18A
100
AcDbEntity
  8
2
370
    50
100
AcDbLine
 10
29.067988
 20
-116.074933
 30
0.0
 11
52.667988
 21
-116.074933
 31
0.0
  0
LINE
  5
18B
100
AcDbEntity
  8
2
370
    50
100
AcDbLine
 10
52.867988
 20
-125.074933
 30
0.0
 11
52.119432
 21
-126.946324
 31
0.0
  0
LINE
  5
18C
100
AcDbEntity
  8
2
370
    50
100
AcDbLine
 10
28.867988
 20
-125.074933
 30
0.0
 11
29.616545
 21
-126.946324
 31
0.0
  0
ARC
  5
18D
100
AcDbEntity
  8
2
370
    50
100
AcDbCircle
 10
30.545021
 20
-126.574933
 30
0.0
 40
1.0
100
AcDbArc
 50
201.801409
 51
270.0
  0
ARC
  5
18E
100
AcDbEntity
  8
2
370
    50
100
AcDbCircle
 10
51.190955
 20
-126.574933
 30
0.0
 40
1.0
100
AcDbArc
 50
270.0
 51
338.198591
  0
POINT
  5
18F
100
AcDbEntity
  8
2
370
    50
100
AcDbPoint
 10
210.867988
 20
-56.475517
 30
0.0
  0
LINE
  5
190
100
AcDbEntity
  8
2
370
    25
100
AcDbLine
 10
51.746546
 20
-125.074933
 30
0.0
 11
29.859505
 21
-125.074933
 31
0.0
  0
POINT
  5
191
100
AcDbEntity
  8
2
370
    50
100
AcDbPoint
 10
40.867988
 20
-127.574933
 30
0.0
  0
LINE
  5
192
100
AcDbEntity
  8
2
370
    50
100
AcDbLine
 10
202.917988
 20
-70.974933
 30
0.0
 11
202.917988
 21
-65.975704
 31
0.0
  0
LINE
  5
193
100
AcDbEntity
  8
2
370
    50
100
AcDbLine
 10
218.817988
 20
-70.974933
 30
0.0
 11
218.817988
 21
-65.975704
 31
0.0
  0
ARC
  5
194
100
AcDbEntity
  8
2
370
    50
100
AcDbCircle
 10
190.867988
 20
-70.974933
 30
0.0
 40
12.05
100
AcDbArc
 50
270.0
 51
0.0
  0
ARC
  5
195
100
AcDbEntity
  8
2
370
    50
100
AcDbCircle
 10
190.867988
 20
-70.974933
 30
0.0
 40
27.95
100
AcDbArc
 50
270.0
 51
0.0
  0
LINE
  5
196
100
AcDbEntity
  8
2
370
    50
100
AcDbLine
 10
251.282155
 20
-2.844015
 30
0.0
 11
242.867155
 21
-2.844015
 31
0.0
  0
LINE
  5
197
100
AcDbEntity
  8
2
370
    50
100
AcDbLine
 10
314.147155
 20
-49.600015
 30
0.0
 11
314.147155
 21
-30.592015
 31
0.0
  0
LINE
  5
198
100
AcDbEntity
  8
2
370
    50
100
AcDbLine
 10
287.912155
 20
-52.471015
 30
0.0
 11
264.152155
 21
-52.471015
 31
0.0
  0
LINE
  5
199
100
AcDbEntity
  8
2
370
    50
100
AcDbLine
 10
264.152155
 20
-28.216015
 30
0.0
 11
260.357155
 21
-28.216015
 31
0.0
  0
LINE
  5
19A
100
AcDbEntity
  8
2
370
    50
100
AcDbLine
 10
264.152155
 20
-51.976015
 30
0.0
 11
260.357155
 21
-51.976015
 31
0.0
  0
LINE
  5
19B
100
AcDbEntity
  8
2
370
    50
100
AcDbLine
 10
287.912155
 20
-52.471015
 30
0.0
 11
287.912155
 21
22.895985
 31
0.0
  0
LINE
  5
19C
100
AcDbEntity
  8
2
370
    50
100
AcDbLine
 10
263.03758
 20
-51.332515
 30
0.0
 11
260.357155
 21
-51.332515
 31
0.0
  0
LINE
  5
19D
100
AcDbEntity
  8
2
370
    50
100
AcDbLine
 10
263.03758
 20
-28.859515
 30
0.0
 11
260.357155
 21
-28.859515
 31
0.0
  0
LINE
  5
19E
100
AcDbEntity
  8
2
370
    50
100
AcDbLine
 10
264.152155
 20
-52.471015
 30
0.0
 11
264.152155
 21
-1.86955
 31
0.0
  0
LINE
  5
19F
100
AcDbEntity
  8
2
370
    50
100
AcDbLine
 10
246.332155
 20
-35.393515
 30
0.0
 11
248.477155
 21
-35.393515
 31
0.0
  0
LINE
  5
1A0
100
AcDbEntity
  8
2
370
    50
100
AcDbLine
 10
246.332155
 20
-44.798515
 30
0.0
 11
248.477155
 21
-44.798515
 31
0.0
  0
LINE
  5
1A1
100
AcDbEntity
  8
2
370
    50
100
AcDbLine
 10
245.342155
 20
-43.808515
 30
0.0
 11
246.332155
 21
-44.798515
 31
0.0
  0
LINE
  5
1A2
100
AcDbEntity
  8
2
370
    50
100
AcDbLine
 10
246.332155
 20
-35.393515
 30
0.0
 11
245.342155
 21
-36.383515
 31
0.0
  0
LINE
  5
1A3
100
AcDbEntity
  8
2
370
    50
100
AcDbLine
 10
248.477155
 20
-46.036015
 30
0.0
 11
248.477155
 21
-34.156015
 31
0.0
  0
LINE
  5
1A4
100
AcDbEntity
  8
2
370
    50
100
AcDbLine
 10
260.357155
 20
-52.471015
 30
0.0
 11
260.357155
 21
-27.721015
 31
0.0
  0
LINE
  5
1A5
100
AcDbEntity
  8
2
370
    50
100
AcDbLine
 10
253.427155
 20
-27.721015
 30
0.0
 11
248.477155
 21
-34.156015
 31
0.0
  0
LINE
  5
1A6
100
AcDbEntity
  8
2
370
    50
100
AcDbLine
 10
248.477155
 20
-46.036015
 30
0.0
 11
253.427155
 21
-52.471015
 31
0.0
  0
ARC
  5
1A7
100
AcDbEntity
  8
2
370
    50
100
AcDbCircle
 10
256.892155
 20
-31.021015
 30
0.0
 40
4.785
100
AcDbArc
 50
43.602819
 51
136.397181
  0
ARC
  5
1A8
100
AcDbEntity
  8
2
370
    50
100
AcDbCircle
 10
256.892155
 20
-49.171015
 30
0.0
 40
4.785
100
AcDbArc
 50
223.602819
 51
316.397181
  0
LINE
  5
1A9
100
AcDbEntity
  8
2
370
    25
100
AcDbLine
 10
314.147155
 20
-30.592015
 30
0.0
 11
299.912155
 21
-30.592015
 31
0.0
  0
LINE
  5
1AA
100
AcDbEntity
  8
2
370
    25
100
AcDbLine
 10
314.147155
 20
-49.600015
 30
0.0
 11
299.912155
 21
-49.600015
 31
0.0
  0
LINE
  5
1AB
100
AcDbEntity
  8
2
370
    50
100
AcDbLine
 10
314.147155
 20
-30.592015
 30
0.0
 11
313.256155
 21
-29.701015
 31
0.0
  0
LINE
  5
1AC
100
AcDbEntity
  8
2
370
    50
100
AcDbLine
 10
242.867155
 20
21.719197
 30
0.0
 11
244.905412
 21
22.895985
 31
0.0
  0
LINE
  5
1AD
100
AcDbEntity
  8
2
370
    50
100
AcDbLine
 10
242.867155
 20
-1.667227
 30
0.0
 11
244.905412
 21
-2.844015
 31
0.0
  0
ARC
  5
1AE
100
AcDbEntity
  8
2
370
    50
100
AcDbCircle
 10
251.282155
 20
-15.714015
 30
0.0
 40
12.87
100
AcDbArc
 50
0.0
 51
90.0
  0
LINE
  5
1AF
100
AcDbEntity
  8
2
370
    50
100
AcDbLine
 10
242.867155
 20
22.895985
 30
0.0
 11
287.912155
 21
22.895985
 31
0.0
  0
ARC
  5
1B0
100
AcDbEntity
  8
2
370
    50
100
AcDbCircle
 10
276.032155
 20
2.050916
 30
0.0
 40
22.627069
100
AcDbArc
 50
67.108743
 51
112.891257
  0
LINE
  5
1B1
100
AcDbEntity
  8
2
370
    50
100
AcDbLine
 10
264.152155
 20
-28.216015
 30
0.0
 11
263.03758
 21
-28.859515
 31
0.0
  0
LINE
  5
1B2
100
AcDbEntity
  8
2
370
    50
100
AcDbLine
 10
264.152155
 20
-51.976015
 30
0.0
 11
263.03758
 21
-51.332515
 31
0.0
  0
LINE
  5
1B3
100
AcDbEntity
  8
2
370
    25
100
AcDbLine
 10
253.427155
 20
-27.721015
 30
0.0
 11
253.427155
 21
-52.471015
 31
0.0
  0
LINE
  5
1B4
100
AcDbEntity
  8
2
370
    50
100
AcDbLine
 10
263.03758
 20
-28.859515
 30
0.0
 11
263.03758
 21
-51.332515
 31
0.0
  0
LINE
  5
1B5
100
AcDbEntity
  8
2
370
    50
100
AcDbLine
 10
313.256155
 20
-29.701015
 30
0.0
 11
299.912155
 21
-29.701015
 31
0.0
  0
LINE
  5
1B6
100
AcDbEntity
  8
2
370
    50
100
AcDbLine
 10
313.256155
 20
-50.491015
 30
0.0
 11
299.912155
 21
-50.491015
 31
0.0
  0
LINE
  5
1B7
100
AcDbEntity
  8
2
370
    25
100
AcDbLine
 10
313.256155
 20
-29.701015
 30
0.0
 11
313.256155
 21
-50.491015
 31
0.0
  0
ELLIPSE
  5
1B8
100
AcDbEntity
  8
2
370
    50
100
AcDbEllipse
 10
256.892155
 20
-51.241787
 30
0.0
 11
2.9699960000000001
 21
0.0
 31
0.0
210
0.0
220
0.0
230
1.0
 40
0.866027
 41
0.0
 42
6.2831849999999996
  0
ELLIPSE
  5
1B9
100
AcDbEntity
  8
2
370
    50
100
AcDbEllipse
 10
256.892155
 20
-40.096015
 30
0.0
 11
0.0
 21
5.1440400000000004
 31
0.0
210
0.0
220
0.0
230
1.0
 40
0.577366
 41
0.0
 42
6.2831849999999996
  0
ELLIPSE
  5
1BA
100
AcDbEntity
  8
2
370
    50
100
AcDbEllipse
 10
256.892155
 20
-28.950243
 30
0.0
 11
-2.9699960000000001
 21
0.0
 31
0.0
210
0.0
220
0.0
230
1.0
 40
0.866027
 41
0.0
 42
6.2831849999999996
  0
LINE
  5
1BB
100
AcDbEntity
  8
2
370
    50
100
AcDbLine
 10
246.332155
 20
-35.393515
 30
0.0
 11
246.332155
 21
-44.798515
 31
0.0
  0
LINE
  5
1BC
100
AcDbEntity
  8
2
370
    50
100
AcDbLine
 10
245.342155
 20
-36.383515
 30
0.0
 11
245.342155
 21
-43.808515
 31
0.0
  0
LINE
  5
1BD
100
AcDbEntity
  8
2
370
    50
100
AcDbLine
 10
299.912155
 20
-17.096015
 30
0.0
 11
296.553275
 21
-17.096015
 31
0.0
  0
LINE
  5
1BE
100
AcDbEntity
  8
2
370
    50
100
AcDbLine
 10
299.912155
 20
-63.096015
 30
0.0
 11
299.912155
 21
-17.096015
 31
0.0
  0
ARC
  5
1BF
100
AcDbEntity
  8
2
370
    50
100
AcDbCircle
 10
291.912155
 20
-26.596015
 30
0.0
 40
2.0
100
AcDbArc
 50
155.329488
 51
180.0
  0
LINE
  5
1C0
100
AcDbEntity
  8
2
370
    50
100
AcDbLine
 10
295.644551
 20
-17.678616
 30
0.0
 11
290.094708
 21
-25.761216
 31
0.0
  0
LINE
  5
1C1
100
AcDbEntity
  8
2
370
    50
100
AcDbLine
 10
295.644551
 20
-62.513414
 30
0.0
 11
290.26341
 21
-54.676505
 31
0.0
  0
ARC
  5
1C2
100
AcDbEntity
  8
2
370
    50
100
AcDbCircle
 10
296.553275
 20
-18.096015
 30
0.0
 40
1.0
100
AcDbArc
 50
90.0
 51
155.329488
  0
LINE
  5
1C3
100
AcDbEntity
  8
2
370
    50
100
AcDbLine
 10
296.553275
 20
-63.096015
 30
0.0
 11
299.912155
 21
-63.096015
 31
0.0
  0
LINE
  5
1C4
100
AcDbEntity
  8
2
370
    50
100
AcDbLine
 10
295.644551
 20
-62.513414
 30
0.0
 11
290.094708
 21
-54.430814
 31
0.0
  0
ARC
  5
1C5
100
AcDbEntity
  8
2
370
    50
100
AcDbCircle
 10
296.553275
 20
-62.096015
 30
0.0
 40
1.0
100
AcDbArc
 50
204.670512
 51
270.0
  0
LINE
  5
1C6
100
AcDbEntity
  8
2
370
    50
100
AcDbLine
 10
289.912155
 20
-53.544409
 30
0.0
 11
289.912155
 21
-26.596015
 31
0.0
  0
LINE
  5
1C7
100
AcDbEntity
  8
2
370
    50
100
AcDbLine
 10
296.044589
 20
-62.356733
 30
0.0
 11
296.044589
 21
-17.936125
 31
0.0
  0
ARC
  5
1C8
100
AcDbEntity
  8
2
370
    50
100
AcDbCircle
 10
291.912155
 20
-53.544409
 30
0.0
 40
2.0
100
AcDbArc
 50
180.0
 51
214.47508
  0
LINE
  5
1C9
100
AcDbEntity
  8
2
370
    50
100
AcDbLine
 10
289.912155
 20
-29.701015
 30
0.0
 11
287.912155
 21
-29.701015
 31
0.0
  0
LINE
  5
1CA
100
AcDbEntity
  8
2
370
    50
100
AcDbLine
 10
289.912155
 20
-50.491015
 30
0.0
 11
287.912155
 21
-50.491015
 31
0.0
  0
LINE
  5
1CB
100
AcDbEntity
  8
2
370
    50
100
AcDbLine
 10
249.068387
 20
-47.475027
 30
0.0
 11
249.584087
 21
-47.475027
 31
0.0
  0
LINE
  5
1CC
100
AcDbEntity
  8
2
370
    50
100
AcDbLine
 10
248.368387
 20
-48.175027
 30
0.0
 11
250.122549
 21
-48.175027
 31
0.0
  0
LINE
  5
1CD
100
AcDbEntity
  8
2
370
    50
100
AcDbLine
 10
248.368387
 20
-48.175027
 30
0.0
 11
248.368387
 21
-55.675027
 31
0.0
  0
LINE
  5
1CE
100
AcDbEntity
  8
2
370
    50
100
AcDbLine
 10
271.368387
 20
-52.471015
 30
0.0
 11
271.368387
 21
-55.675027
 31
0.0
  0
LINE
  5
1CF
100
AcDbEntity
  8
2
370
    25
100
AcDbLine
 10
270.618387
 20
-52.471015
 30
0.0
 11
270.618387
 21
-56.425027
 31
0.0
  0
LINE
  5
1D0
100
AcDbEntity
  8
2
370
    25
100
AcDbLine
 10
249.068387
 20
-47.475027
 30
0.0
 11
249.068387
 21
-56.375027
 31
0.0
  0
LINE
  5
1D1
100
AcDbEntity
  8
2
370
    50
100
AcDbLine
 10
270.618387
 20
-56.425027
 30
0.0
 11
271.368387
 21
-55.675027
 31
0.0
  0
LINE
  5
1D2
100
AcDbEntity
  8
2
370
    50
100
AcDbLine
 10
249.118387
 20
-56.425027
 30
0.0
 11
248.368387
 21
-55.675027
 31
0.0
  0
LINE
  5
1D3
100
AcDbEntity
  8
2
370
    50
100
AcDbLine
 10
249.618387
 20
-57.425027
 30
0.0
 11
270.118387
 21
-57.425027
 31
0.0
  0
LINE
  5
1D4
100
AcDbEntity
  8
2
370
    50
100
AcDbLine
 10
270.118387
 20
-56.425027
 30
0.0
 11
270.118387
 21
-57.425027
 31
0.0
  0
LINE
  5
1D5
100
AcDbEntity
  8
2
370
    50
100
AcDbLine
 10
249.618387
 20
-56.425027
 30
0.0
 11
249.618387
 21
-57.425027
 31
0.0
  0
LINE
  5
1D6
100
AcDbEntity
  8
2
370
    50
100
AcDbLine
 10
249.118387
 20
-56.425027
 30
0.0
 11
249.618387
 21
-56.425027
 31
0.0
  0
LINE
  5
1D7
100
AcDbEntity
  8
2
370
    50
100
AcDbLine
 10
270.118387
 20
-56.425027
 30
0.0
 11
270.618387
 21
-56.425027
 31
0.0
  0
LINE
  5
1D8
100
AcDbEntity
  8
2
370
    50
100
AcDbLine
 10
249.618387
 20
-56.425027
 30
0.0
 11
270.118387
 21
-56.425027
 31
0.0
  0
LINE
  5
1D9
100
AcDbEntity
  8
2
370
    25
100
AcDbLine
 10
248.368387
 20
-55.675027
 30
0.0
 11
271.368387
 21
-55.675027
 31
0.0
  0
LINE
  5
1DA
100
AcDbEntity
  8
2
370
    50
100
AcDbLine
 10
313.256155
 20
-50.491015
 30
0.0
 11
314.147155
 21
-49.600015
 31
0.0
  0
LINE
  5
1DB
100
AcDbEntity
  8
2
370
    50
100
AcDbLine
 10
221.142988
 20
-65.975704
 30
0.0
 11
200.592988
 21
-65.975704
 31
0.0
  0
LINE
  5
1DC
100
AcDbEntity
  8
2
370
    50
100
AcDbLine
 10
224.443601
 20
-55.975704
 30
0.0
 11
197.292376
 21
-55.975704
 31
0.0
  0
ARC
  5
1DD
100
AcDbEntity
  8
2
370
    50
100
AcDbCircle
 10
200.592988
 20
-60.975704
 30
0.0
 40
5.0
100
AcDbArc
 50
180.0
 51
270.0
  0
ARC
  5
1DE
100
AcDbEntity
  8
2
370
    50
100
AcDbCircle
 10
203.798274
 20
-60.975704
 30
0.0
 40
8.205286
100
AcDbArc
 50
142.456522
 51
180.0
  0
ELLIPSE
  5
1DF
100
AcDbEntity
  8
2
370
    50
100
AcDbEllipse
 10
210.867988
 20
-60.446899
 30
0.0
 11
-6.10947
 21
0.0
 31
0.0
210
0.0
220
0.0
230
1.0
 40
0.632482
 41
0.0
 42
6.2831849999999996
  0
ELLIPSE
  5
1E0
100
AcDbEntity
  8
2
370
    50
100
AcDbEllipse
 10
198.743633
 20
-60.446899
 30
0.0
 11
0.0
 21
-3.8641269999999999
 31
0.0
210
0.0
220
0.0
230
1.0
 40
0.790537
 41
0.0
 42
6.2831849999999996
  0
ELLIPSE
  5
1E1
100
AcDbEntity
  8
2
370
    50
100
AcDbEllipse
 10
222.992344
 20
-60.446899
 30
0.0
 11
0.0
 21
3.8641269999999999
 31
0.0
210
0.0
220
0.0
230
1.0
 40
0.790537
 41
0.0
 42
6.2831849999999996
  0
ARC
  5
1E2
100
AcDbEntity
  8
2
370
    50
100
AcDbCircle
 10
221.142988
 20
-60.975704
 30
0.0
 40
5.0
100
AcDbArc
 50
270.0
 51
0.0
  0
ARC
  5
1E3
100
AcDbEntity
  8
2
370
    50
100
AcDbCircle
 10
217.937702
 20
-60.975704
 30
0.0
 40
8.205286
100
AcDbArc
 50
0.0
 51
37.543478
  0
ARC
  5
1E4
100
AcDbEntity
  8
2
370
    25
100
AcDbCircle
 10
210.366453
 20
-57.777062
 30
0.0
 40
14.269294
100
AcDbArc
 50
90.0
 51
150.365644
  0
ARC
  5
1E5
100
AcDbEntity
  8
2
370
    25
100
AcDbCircle
 10
210.366453
 20
-7.484215
 30
0.0
 40
19.932999
100
AcDbArc
 50
211.51515
 51
253.833313
  0
ARC
  5
1E6
100
AcDbEntity
  8
2
370
    25
100
AcDbCircle
 10
230.783188
 20
-35.892882
 30
0.0
 40
14.410185
100
AcDbArc
 50
110.979845
 51
176.021039
  0
ARC
  5
1E7
100
AcDbEntity
  8
2
370
    25
100
AcDbCircle
 10
233.882206
 20
-34.892957
 30
0.0
 40
17.509203
100
AcDbArc
 50
180.0
 51
212.619224
  0
ARC
  5
1E8
100
AcDbEntity
  8
2
370
    25
100
AcDbCircle
 10
210.366453
 20
-64.970676
 30
0.0
 40
21.462908
100
AcDbArc
 50
51.761573
 51
90.0
  0
POINT
  5
1E9
100
AcDbEntity
  8
2
370
    50
100
AcDbPoint
 10
-280.964088
 20
-41.508048
 30
0.0
  0
CIRCLE
  5
1EA
100
AcDbEntity
  8
2
370
    50
100
AcDbCircle
 10
-280.964088
 20
-41.508048
 30
0.0
 40
13.0
  0
ARC
  5
1EB
100
AcDbEntity
  8
2
370
    50
100
AcDbCircle
 10
-280.964088
 20
-41.508048
 30
0.0
 40
14.0
100
AcDbArc
 50
51.786789
 51
68.213211
  0
LINE
  5
1EC
100
AcDbEntity
  8
2
370
    50
100
AcDbLine
 10
-275.767936
 20
-28.508048
 30
0.0
 11
-286.160241
 21
-28.508048
 31
0.0
  0
ARC
  5
1ED
100
AcDbEntity
  8
2
370
    50
100
AcDbCircle
 10
-280.964088
 20
-41.508048
 30
0.0
 40
14.0
100
AcDbArc
 50
111.786789
 51
128.213211
  0
LINE
  5
1EE
100
AcDbEntity
  8
2
370
    50
100
AcDbLine
 10
-289.624342
 20
-30.508048
 30
0.0
 11
-294.820495
 21
-39.508048
 31
0.0
  0
ARC
  5
1EF
100
AcDbEntity
  8
2
370
    50
100
AcDbCircle
 10
-280.964088
 20
-41.508048
 30
0.0
 40
14.0
100
AcDbArc
 50
171.786789
 51
188.213211
  0
CIRCLE
  5
1F0
100
AcDbEntity
  8
2
370
    50
100
AcDbCircle
 10
-280.964088
 20
-41.508048
 30
0.0
 40
13.0
  0
LINE
  5
1F1
100
AcDbEntity
  8
2
370
    50
100
AcDbLine
 10
-294.820495
 20
-43.508048
 30
0.0
 11
-289.624342
 21
-52.508048
 31
0.0
  0
ARC
  5
1F2
100
AcDbEntity
  8
2
370
    50
100
AcDbCircle
 10
-280.964088
 20
-41.508048
 30
0.0
 40
14.0
100
AcDbArc
 50
231.786789
 51
248.213211
  0
LINE
  5
1F3
100
AcDbEntity
  8
2
370
    50
100
AcDbLine
 10
-286.160241
 20
-54.508048
 30
0.0
 11
-275.767936
 21
-54.508048
 31
0.0
  0
ARC
  5
1F4
100
AcDbEntity
  8
2
370
    50
100
AcDbCircle
 10
-280.964088
 20
-41.508048
 30
0.0
 40
14.0
100
AcDbArc
 50
291.786789
 51
308.213211
  0
CIRCLE
  5
1F5
100
AcDbEntity
  8
2
370
    50
100
AcDbCircle
 10
-280.964088
 20
-41.508048
 30
0.0
 40
13.0
  0
LINE
  5
1F6
100
AcDbEntity
  8
2
370
    50
100
AcDbLine
 10
-230.459625
 20
-7.974147
 30
0.0
 11
-268.629648
 21
-46.14417
 31
0.0
  0
LINE
  5
1F7
100
AcDbEntity
  8
2
370
    50
100
AcDbLine
 10
-272.303834
 20
-52.508048
 30
0.0
 11
-267.107682
 21
-43.508048
 31
0.0
  0
ARC
  5
1F8
100
AcDbEntity
  8
2
370
    50
100
AcDbCircle
 10
-280.964088
 20
-41.508048
 30
0.0
 40
14.0
100
AcDbArc
 50
351.786789
 51
8.213211
  0
LINE
  5
1F9
100
AcDbEntity
  8
2
370
    50
100
AcDbLine
 10
-267.107682
 20
-39.508048
 30
0.0
 11
-272.303834
 21
-30.508048
 31
0.0
  0
CIRCLE
  5
1FA
100
AcDbEntity
  8
2
370
    50
100
AcDbCircle
 10
-280.964088
 20
-41.508048
 30
0.0
 40
6.0
  0
CIRCLE
  5
1FB
100
AcDbEntity
  8
2
370
    50
100
AcDbCircle
 10
-280.964088
 20
-41.508048
 30
0.0
 40
4.75
  0
ARC
  5
1FC
100
AcDbEntity
  8
2
370
    50
100
AcDbCircle
 10
-280.964088
 20
-41.508048
 30
0.0
 40
3.75
100
AcDbArc
 50
15.46601
 51
164.53399
  0
LINE
  5
1FD
100
AcDbEntity
  8
2
370
    50
100
AcDbLine
 10
-276.320545
 20
-42.508048
 30
0.0
 11
-285.607632
 21
-42.508048
 31
0.0
  0
LINE
  5
1FE
100
AcDbEntity
  8
2
370
    50
100
AcDbLine
 10
-276.320545
 20
-40.508048
 30
0.0
 11
-285.607632
 21
-40.508048
 31
0.0
  0
LINE
  5
1FF
100
AcDbEntity
  8
2
370
    50
100
AcDbLine
 10
-249.260158
 20
7.166445
 30
0.0
 11
-284.934651
 21
-28.508048
 31
0.0
  0
ARC
  5
200
100
AcDbEntity
  8
2
370
    50
100
AcDbCircle
 10
-280.964088
 20
-41.508048
 30
0.0
 40
27.0
100
AcDbArc
 50
71.3878
 51
18.6122
  0
POINT
  5
201
100
AcDbEntity
  8
2
370
    50
100
AcDbPoint
 10
-86.217045
 20
-41.508048
 30
0.0
  0
CIRCLE
  5
202
100
AcDbEntity
  8
2
370
    50
100
AcDbCircle
 10
-86.217045
 20
-41.508048
 30
0.0
 40
13.0
  0
ARC
  5
203
100
AcDbEntity
  8
2
370
    50
100
AcDbCircle
 10
-86.217045
 20
-41.508048
 30
0.0
 40
14.0
100
AcDbArc
 50
111.786789
 51
128.213211
  0
LINE
  5
204
100
AcDbEntity
  8
2
370
    50
100
AcDbLine
 10
-91.413197
 20
-28.508048
 30
0.0
 11
-81.020892
 21
-28.508048
 31
0.0
  0
ARC
  5
205
100
AcDbEntity
  8
2
370
    50
100
AcDbCircle
 10
-86.217045
 20
-41.508048
 30
0.0
 40
14.0
100
AcDbArc
 50
51.786789
 51
68.213211
  0
LINE
  5
206
100
AcDbEntity
  8
2
370
    50
100
AcDbLine
 10
-77.55679
 20
-30.508048
 30
0.0
 11
-72.360638
 21
-39.508048
 31
0.0
  0
ARC
  5
207
100
AcDbEntity
  8
2
370
    50
100
AcDbCircle
 10
-86.217045
 20
-41.508048
 30
0.0
 40
14.0
100
AcDbArc
 50
351.786789
 51
8.213211
  0
CIRCLE
  5
208
100
AcDbEntity
  8
2
370
    50
100
AcDbCircle
 10
-86.217045
 20
-41.508048
 30
0.0
 40
13.0
  0
LINE
  5
209
100
AcDbEntity
  8
2
370
    50
100
AcDbLine
 10
-72.360638
 20
-43.508048
 30
0.0
 11
-77.55679
 21
-52.508048
 31
0.0
  0
ARC
  5
20A
100
AcDbEntity
  8
2
370
    50
100
AcDbCircle
 10
-86.217045
 20
-41.508048
 30
0.0
 40
14.0
100
AcDbArc
 50
291.786789
 51
308.213211
  0
LINE
  5
20B
100
AcDbEntity
  8
2
370
    50
100
AcDbLine
 10
-81.020892
 20
-54.508048
 30
0.0
 11
-91.413197
 21
-54.508048
 31
0.0
  0
ARC
  5
20C
100
AcDbEntity
  8
2
370
    50
100
AcDbCircle
 10
-86.217045
 20
-41.508048
 30
0.0
 40
14.0
100
AcDbArc
 50
231.786789
 51
248.213211
  0
CIRCLE
  5
20D
100
AcDbEntity
  8
2
370
    50
100
AcDbCircle
 10
-86.217045
 20
-41.508048
 30
0.0
 40
13.0
  0
LINE
  5
20E
100
AcDbEntity
  8
2
370
    50
100
AcDbLine
 10
-136.721508
 20
-7.974147
 30
0.0
 11
-98.551485
 21
-46.14417
 31
0.0
  0
LINE
  5
20F
100
AcDbEntity
  8
2
370
    50
100
AcDbLine
 10
-94.877299
 20
-52.508048
 30
0.0
 11
-100.073451
 21
-43.508048
 31
0.0
  0
ARC
  5
210
100
AcDbEntity
  8
2
370
    50
100
AcDbCircle
 10
-86.217045
 20
-41.508048
 30
0.0
 40
14.0
100
AcDbArc
 50
171.786789
 51
188.213211
  0
LINE
  5
211
100
AcDbEntity
  8
2
370
    50
100
AcDbLine
 10
-100.073451
 20
-39.508048
 30
0.0
 11
-94.877299
 21
-30.508048
 31
0.0
  0
CIRCLE
  5
212
100
AcDbEntity
  8
2
370
    50
100
AcDbCircle
 10
-86.217045
 20
-41.508048
 30
0.0
 40
6.0
  0
CIRCLE
  5
213
100
AcDbEntity
  8
2
370
    50
100
AcDbCircle
 10
-86.217045
 20
-41.508048
 30
0.0
 40
4.75
  0
ARC
  5
214
100
AcDbEntity
  8
2
370
    50
100
AcDbCircle
 10
-86.217045
 20
-41.508048
 30
0.0
 40
3.75
100
AcDbArc
 50
15.46601
 51
164.53399
  0
LINE
  5
215
100
AcDbEntity
  8
2
370
    50
100
AcDbLine
 10
-90.860588
 20
-42.508048
 30
0.0
 11
-81.573501
 21
-42.508048
 31
0.0
  0
LINE
  5
216
100
AcDbEntity
  8
2
370
    50
100
AcDbLine
 10
-90.860588
 20
-40.508048
 30
0.0
 11
-81.573501
 21
-40.508048
 31
0.0
  0
LINE
  5
217
100
AcDbEntity
  8
2
370
    50
100
AcDbLine
 10
-117.920975
 20
7.166445
 30
0.0
 11
-82.246482
 21
-28.508048
 31
0.0
  0
ARC
  5
218
100
AcDbEntity
  8
2
370
    50
100
AcDbCircle
 10
-86.217045
 20
-41.508048
 30
0.0
 40
27.0
100
AcDbArc
 50
161.3878
 51
108.6122
  0
ARC
  5
219
100
AcDbEntity
  8
2
370
    25
  6
DASHED
100
AcDbCircle
 10
-160.498187
 20
-19.473621
 30
0.0
 40
10.0
100
AcDbArc
 50
209.377792
 51
270.0
  0
ARC
  5
21A
100
AcDbEntity
  8
2
370
    25
  6
DASHED
100
AcDbCircle
 10
-160.498187
 20
-45.473621
 30
0.0
 40
10.0
100
AcDbArc
 50
90.0
 51
150.622208
  0
ARC
  5
21B
100
AcDbEntity
  8
2
370
    25
  6
DASHED
100
AcDbCircle
 10
-160.385778
 20
10.526379
 30
0.0
 40
40.0
100
AcDbArc
 50
270.0
 51
282.603453
  0
ARC
  5
21C
100
AcDbEntity
  8
2
370
    25
  6
DASHED
100
AcDbCircle
 10
-151.330393
 20
-29.973621
 30
0.0
 40
1.5
100
AcDbArc
 50
0.0
 51
102.603453
  0
ARC
  5
21D
100
AcDbEntity
  8
2
370
    25
  6
DASHED
100
AcDbCircle
 10
-151.330393
 20
-34.973621
 30
0.0
 40
1.5
100
AcDbArc
 50
257.396547
 51
360.0
  0
LINE
  5
21E
100
AcDbEntity
  8
2
370
    25
  6
DASHED
100
AcDbLine
 10
-149.830393
 20
-34.973621
 30
0.0
 11
-149.830393
 21
-29.973621
 31
0.0
  0
ARC
  5
21F
100
AcDbEntity
  8
2
370
    25
  6
DASHED
100
AcDbCircle
 10
-160.385778
 20
-75.473621
 30
0.0
 40
40.0
100
AcDbArc
 50
77.396547
 51
90.0
  0
TEXT
  5
220
100
AcDbEntity
  8
3
370
    50
100
AcDbText
 10
100.36998
 20
126.621948
 30
0.0
 40
7.0
  1
止水
 72
     5
 11
112.96998
 21
126.621948
 31
0.0
100
AcDbText
  0
DIMENSION
  5
221
100
AcDbEntity
  8
3
370
    25
100
AcDbDimension
  2
*D0
 10
-133.590566
 20
-156.205109
 30
0.0
 11
-183.590566
 21
-151.705109
 31
0.0
 71
     0
 72
     0
 41
0.0
 42
0.0
  3
Standard
100
AcDbAlignedDimension
 13
-233.590566
 23
10.025916
 33
0.0
 14
-133.590566
 24
10.025916
 34
0.0
100
AcDbRotatedDimension
  0
DIMENSION
  5
222
100
AcDbEntity
  8
3
370
    25
100
AcDbDimension
  2
*D1
 10
130.090651
 20
106.378208
 30
0.0
 11
100.279245
 21
164.778021
 31
0.0
 70
     2
 71
     0
 72
     0
 41
0.0
 42
0.0
  3
Standard
100
AcDb2LineAngularDimension
 13
188.134599
 23
130.539817
 33
0.0
 14
240.535508
 24
85.303961
 34
0.0
 15
240.535508
 25
85.303961
 35
0.0
 16
95.708842
 26
155.324904
 36
0.0
1001
ACAD
1000
DSTYLE
1002
{
1070
   275
1070
     0
1070
   179
1070
     0
1002
}
  0
TEXT
  5
223
100
AcDbEntity
  8
3
370
    50
100
AcDbText
 10
163.029663
 20
173.237595
 30
0.0
 40
7.0
  1
吐水
 72
     5
 11
175.629663
 21
173.237595
 31
0.0
100
AcDbText
  0
LINE
  5
224
100
AcDbEntity
  8
3
370
    50
100
AcDbLine
 10
-69.935298
 20
-79.986141
 30
0.0
 11
-69.935298
 21
-91.986141
 31
0.0
  0
LINE
  5
225
100
AcDbEntity
  8
3
370
    50
100
AcDbLine
 10
-43.935298
 20
-79.986141
 30
0.0
 11
-43.935298
 21
-91.986141
 31
0.0
  0
LINE
  5
226
100
AcDbEntity
  8
3
370
    50
100
AcDbLine
 10
-69.935298
 20
-79.986141
 30
0.0
 11
-43.935298
 21
-79.986141
 31
0.0
  0
LINE
  5
227
100
AcDbEntity
  8
3
370
    50
100
AcDbLine
 10
-69.935298
 20
-91.986141
 30
0.0
 11
-43.935298
 21
-91.986141
 31
0.0
  0
TEXT
  5
228
100
AcDbEntity
  8
3
370
    50
100
AcDbText
 10
-69.741531
 20
-91.114356
 30
0.0
 40
5.0
  1
４Ｆ０１５
 72
     5
 11
-45.741531
 21
-91.114356
 31
0.0
100
AcDbText
  0
TEXT
  5
229
100
AcDbEntity
  8
3
370
    50
100
AcDbText
 10
-80.314075
 20
-103.304774
 30
0.0
 40
7.0
  1
（製品コードＮＯ及び
 72
     5
 11
-11.714075
 21
-103.304774
 31
0.0
100
AcDbText
  0
TEXT
  5
22A
100
AcDbEntity
  8
3
370
    50
100
AcDbText
 10
-79.569351
 20
-111.861968
 30
0.0
 40
7.0
  1
　ロットＮＯの表示）
 72
     5
 11
-10.969351
 21
-111.861968
 31
0.0
100
AcDbText
  0
LINE
  5
22B
100
AcDbEntity
  8
3
370
    50
100
AcDbLine
 10
-274.538833
 20
87.561162
 30
0.0
 11
-274.538833
 21
74.561162
 31
0.0
  0
LINE
  5
22C
100
AcDbEntity
  8
3
370
    50
100
AcDbLine
 10
-294.538833
 20
87.561162
 30
0.0
 11
-294.538833
 21
74.561162
 31
0.0
  0
LINE
  5
22D
100
AcDbEntity
  8
3
370
    50
100
AcDbLine
 10
-273.538833
 20
87.561162
 30
0.0
 11
-273.538833
 21
74.561162
 31
0.0
  0
LINE
  5
22E
100
AcDbEntity
  8
3
370
    50
100
AcDbLine
 10
-295.538833
 20
87.561162
 30
0.0
 11
-295.538833
 21
74.561162
 31
0.0
  0
LINE
  5
22F
100
AcDbEntity
  8
3
370
    50
100
AcDbLine
 10
-276.538833
 20
90.561162
 30
0.0
 11
-292.538833
 21
90.561162
 31
0.0
  0
LINE
  5
230
100
AcDbEntity
  8
3
370
    50
100
AcDbLine
 10
-276.538833
 20
89.561162
 30
0.0
 11
-292.538833
 21
89.561162
 31
0.0
  0
LINE
  5
231
100
AcDbEntity
  8
3
370
    50
100
AcDbLine
 10
-276.538833
 20
72.561162
 30
0.0
 11
-292.538833
 21
72.561162
 31
0.0
  0
LINE
  5
232
100
AcDbEntity
  8
3
370
    50
100
AcDbLine
 10
-276.538833
 20
71.561162
 30
0.0
 11
-292.538833
 21
71.561162
 31
0.0
  0
LINE
  5
233
100
AcDbEntity
  8
3
370
    50
100
AcDbLine
 10
-274.538833
 20
83.561162
 30
0.0
 11
-294.538833
 21
83.561162
 31
0.0
  0
ARC
  5
234
100
AcDbEntity
  8
3
370
    50
100
AcDbCircle
 10
-292.538833
 20
87.561162
 30
0.0
 40
3.0
100
AcDbArc
 50
90.0
 51
180.0
  0
ARC
  5
235
100
AcDbEntity
  8
3
370
    50
100
AcDbCircle
 10
-276.538833
 20
87.561162
 30
0.0
 40
3.0
100
AcDbArc
 50
0.0
 51
90.0
  0
ARC
  5
236
100
AcDbEntity
  8
3
370
    50
100
AcDbCircle
 10
-276.538833
 20
74.561162
 30
0.0
 40
3.0
100
AcDbArc
 50
270.0
 51
0.0
  0
ARC
  5
237
100
AcDbEntity
  8
3
370
    50
100
AcDbCircle
 10
-292.538833
 20
74.561162
 30
0.0
 40
3.0
100
AcDbArc
 50
180.0
 51
270.0
  0
ARC
  5
238
100
AcDbEntity
  8
3
370
    50
100
AcDbCircle
 10
-292.538833
 20
87.561162
 30
0.0
 40
2.0
100
AcDbArc
 50
90.0
 51
180.0
  0
ARC
  5
239
100
AcDbEntity
  8
3
370
    50
100
AcDbCircle
 10
-276.538833
 20
87.561162
 30
0.0
 40
2.0
100
AcDbArc
 50
360.0
 51
90.0
  0
ARC
  5
23A
100
AcDbEntity
  8
3
370
    50
100
AcDbCircle
 10
-276.538833
 20
74.561162
 30
0.0
 40
2.0
100
AcDbArc
 50
270.0
 51
360.0
  0
ARC
  5
23B
100
AcDbEntity
  8
3
370
    50
100
AcDbCircle
 10
-292.538833
 20
74.561162
 30
0.0
 40
2.0
100
AcDbArc
 50
180.0
 51
270.0
  0
POINT
  5
23C
100
AcDbEntity
  8
3
370
    50
100
AcDbPoint
 10
-290.038833
 20
78.061162
 30
0.0
  0
CIRCLE
  5
23D
100
AcDbEntity
  8
3
370
    50
100
AcDbCircle
 10
-290.038833
 20
78.061162
 30
0.0
 40
4.0
  0
LINE
  5
23E
100
AcDbEntity
  8
3
370
    50
100
AcDbLine
 10
-292.330608
 20
80.706491
 30
0.0
 11
-287.393504
 21
75.769386
 31
0.0
  0
LINE
  5
23F
100
AcDbEntity
  8
3
370
    50
100
AcDbLine
 10
-292.684162
 20
80.352937
 30
0.0
 11
-287.747057
 21
75.415833
 31
0.0
  0
ARC
  5
240
100
AcDbEntity
  8
3
370
    50
100
AcDbCircle
 10
-290.038833
 20
78.061162
 30
0.0
 40
3.5
100
AcDbArc
 50
319.096044
 51
130.903956
  0
ARC
  5
241
100
AcDbEntity
  8
3
370
    50
100
AcDbCircle
 10
-290.038833
 20
78.061162
 30
0.0
 40
3.5
100
AcDbArc
 50
139.096044
 51
310.903956
  0
LINE
  5
242
100
AcDbEntity
  8
3
370
    50
100
AcDbLine
 10
-288.038833
 20
76.414715
 30
0.0
 11
-288.038833
 21
79.711162
 31
0.0
  0
LINE
  5
243
100
AcDbEntity
  8
3
370
    50
100
AcDbLine
 10
-288.738833
 20
77.561162
 30
0.0
 11
-288.738833
 21
80.211162
 31
0.0
  0
LINE
  5
244
100
AcDbEntity
  8
3
370
    50
100
AcDbLine
 10
-289.438833
 20
78.061162
 30
0.0
 11
-289.438833
 21
80.711162
 31
0.0
  0
LINE
  5
245
100
AcDbEntity
  8
3
370
    50
100
AcDbLine
 10
-290.138833
 20
78.061162
 30
0.0
 11
-290.138833
 21
80.711162
 31
0.0
  0
LINE
  5
246
100
AcDbEntity
  8
3
370
    50
100
AcDbLine
 10
-290.312421
 20
75.061162
 30
0.0
 11
-289.038833
 21
75.061162
 31
0.0
  0
ARC
  5
247
100
AcDbEntity
  8
3
370
    50
100
AcDbCircle
 10
-289.788833
 20
80.711162
 30
0.0
 40
0.35
100
AcDbArc
 50
0.0
 51
180.0
  0
ARC
  5
248
100
AcDbEntity
  8
3
370
    50
100
AcDbCircle
 10
-290.488833
 20
80.211162
 30
0.0
 40
0.35
100
AcDbArc
 50
0.0
 51
180.0
  0
ARC
  5
249
100
AcDbEntity
  8
3
370
    50
100
AcDbCircle
 10
-289.088833
 20
80.211162
 30
0.0
 40
0.35
100
AcDbArc
 50
0.0
 51
180.0
  0
ARC
  5
24A
100
AcDbEntity
  8
3
370
    50
100
AcDbCircle
 10
-288.388833
 20
79.711162
 30
0.0
 40
0.35
100
AcDbArc
 50
0.0
 51
180.0
  0
ARC
  5
24B
100
AcDbEntity
  8
3
370
    50
100
AcDbCircle
 10
-289.038833
 20
76.061162
 30
0.0
 40
1.0
100
AcDbArc
 50
270.0
 51
342.20057
  0
LINE
  5
24C
100
AcDbEntity
  8
3
370
    50
100
AcDbLine
 10
-290.838833
 20
77.061162
 30
0.0
 11
-290.838833
 21
78.507608
 31
0.0
  0
LINE
  5
24D
100
AcDbEntity
  8
3
370
    50
100
AcDbLine
 10
-290.838833
 20
79.214715
 30
0.0
 11
-290.838833
 21
80.211162
 31
0.0
  0
LINE
  5
24E
100
AcDbEntity
  8
3
370
    50
100
AcDbLine
 10
-291.87642
 20
77.963055
 30
0.0
 11
-290.838833
 21
77.061162
 31
0.0
  0
LINE
  5
24F
100
AcDbEntity
  8
3
370
    50
100
AcDbLine
 10
-292.468585
 20
77.434747
 30
0.0
 11
-291.136801
 21
75.495125
 31
0.0
  0
ARC
  5
250
100
AcDbEntity
  8
3
370
    50
100
AcDbCircle
 10
-292.138833
 20
77.661162
 30
0.0
 40
0.4
100
AcDbArc
 50
49.002125
 51
214.474285
  0
ARC
  5
251
100
AcDbEntity
  8
3
370
    50
100
AcDbCircle
 10
-290.312421
 20
76.061162
 30
0.0
 40
1.0
100
AcDbArc
 50
214.474285
 51
270.0
  0
TEXT
  5
252
100
AcDbEntity
  8
3
370
    50
100
AcDbText
 10
-283.904049
 20
80.415625
 30
0.0
 40
2.2
  1
やけどの
 72
     5
 11
-275.544049
 21
80.415625
 31
0.0
100
AcDbText
  0
TEXT
  5
253
100
AcDbEntity
  8
3
370
    50
100
AcDbText
 10
-283.904049
 20
77.215625
 30
0.0
 40
2.2
  1
恐れあり
 72
     5
 11
-275.544049
 21
77.215625
 31
0.0
100
AcDbText
  0
TEXT
  5
254
100
AcDbEntity
  8
3
370
    50
100
AcDbText
 10
-283.904049
 20
74.015625
 30
0.0
 40
2.2
  1
さわるな
 72
     5
 11
-275.544049
 21
74.015625
 31
0.0
100
AcDbText
  0
TEXT
  5
255
100
AcDbEntity
  8
3
370
    50
100
AcDbText
 10
-285.684938
 20
84.392369
 30
0.0
 40
4.0
  1
注 意
 72
     5
 11
-276.484938
 21
84.392369
 31
0.0
100
AcDbText
  0
LINE
  5
256
100
AcDbEntity
  8
3
370
    50
100
AcDbLine
 10
-286.76533
 20
84.061162
 30
0.0
 11
-292.538833
 21
84.061162
 31
0.0
  0
LINE
  5
257
100
AcDbEntity
  8
3
370
    50
100
AcDbLine
 10
-292.538833
 20
84.061162
 30
0.0
 11
-289.652081
 21
89.061162
 31
0.0
  0
LINE
  5
258
100
AcDbEntity
  8
3
370
    50
100
AcDbLine
 10
-289.652081
 20
89.061162
 30
0.0
 11
-286.76533
 21
84.061162
 31
0.0
  0
TEXT
  5
259
100
AcDbEntity
  8
3
370
    50
100
AcDbText
 10
-291.618206
 20
84.336638
 30
0.0
 40
4.0
  1
！
 72
     5
 11
-288.418206
 21
84.336638
 31
0.0
100
AcDbText
  0
LINE
  5
25A
100
AcDbEntity
  8
3
370
    25
100
AcDbLine
 10
-294.038833
 20
78.061162
 30
0.0
 11
-293.496571
 21
78.603424
 31
0.0
  0
LINE
  5
25B
100
AcDbEntity
  8
3
370
    25
100
AcDbLine
 10
-292.215609
 20
79.884385
 30
0.0
 11
-291.862056
 21
80.237938
 31
0.0
  0
LINE
  5
25C
100
AcDbEntity
  8
3
370
    25
100
AcDbLine
 10
-290.581095
 20
81.5189
 30
0.0
 11
-290.038833
 21
82.061162
 31
0.0
  0
LINE
  5
25D
100
AcDbEntity
  8
3
370
    25
100
AcDbLine
 10
-294.029473
 20
77.787679
 30
0.0
 11
-293.531635
 21
78.285517
 31
0.0
  0
LINE
  5
25E
100
AcDbEntity
  8
3
370
    25
100
AcDbLine
 10
-292.074188
 20
79.742964
 30
0.0
 11
-291.720635
 21
80.096517
 31
0.0
  0
LINE
  5
25F
100
AcDbEntity
  8
3
370
    25
100
AcDbLine
 10
-290.263188
 20
81.553964
 30
0.0
 11
-289.76535
 21
82.051802
 31
0.0
  0
LINE
  5
260
100
AcDbEntity
  8
3
370
    25
100
AcDbLine
 10
-294.003516
 20
77.530794
 30
0.0
 11
-293.538228
 21
77.996081
 31
0.0
  0
LINE
  5
261
100
AcDbEntity
  8
3
370
    25
100
AcDbLine
 10
-291.932767
 20
79.601542
 30
0.0
 11
-291.579213
 21
79.955096
 31
0.0
  0
LINE
  5
262
100
AcDbEntity
  8
3
370
    25
100
AcDbLine
 10
-289.973752
 20
81.560557
 30
0.0
 11
-289.508465
 21
82.025845
 31
0.0
  0
LINE
  5
263
100
AcDbEntity
  8
3
370
    25
100
AcDbLine
 10
-293.96341
 20
77.288056
 30
0.0
 11
-293.522986
 21
77.72848
 31
0.0
  0
LINE
  5
264
100
AcDbEntity
  8
3
370
    25
100
AcDbLine
 10
-291.791345
 20
79.460121
 30
0.0
 11
-291.437792
 21
79.813674
 31
0.0
  0
LINE
  5
265
100
AcDbEntity
  8
3
370
    25
100
AcDbLine
 10
-289.706151
 20
81.545315
 30
0.0
 11
-289.265727
 21
81.985739
 31
0.0
  0
LINE
  5
266
100
AcDbEntity
  8
3
370
    25
100
AcDbLine
 10
-293.910921
 20
77.057702
 30
0.0
 11
-293.490012
 21
77.478612
 31
0.0
  0
LINE
  5
267
100
AcDbEntity
  8
3
370
    25
100
AcDbLine
 10
-291.649924
 20
79.3187
 30
0.0
 11
-291.296371
 21
79.672253
 31
0.0
  0
LINE
  5
268
100
AcDbEntity
  8
3
370
    25
100
AcDbLine
 10
-289.456283
 20
81.512341
 30
0.0
 11
-289.035373
 21
81.93325
 31
0.0
  0
LINE
  5
269
100
AcDbEntity
  8
3
370
    25
100
AcDbLine
 10
-293.847362
 20
76.838418
 30
0.0
 11
-293.44204
 21
77.24374
 31
0.0
  0
LINE
  5
26A
100
AcDbEntity
  8
3
370
    25
100
AcDbLine
 10
-291.508503
 20
79.177278
 30
0.0
 11
-291.154949
 21
79.530832
 31
0.0
  0
LINE
  5
26B
100
AcDbEntity
  8
3
370
    25
100
AcDbLine
 10
-289.221411
 20
81.464369
 30
0.0
 11
-288.816089
 21
81.869691
 31
0.0
  0
LINE
  5
26C
100
AcDbEntity
  8
3
370
    25
100
AcDbLine
 10
-293.773735
 20
76.629203
 30
0.0
 11
-293.380992
 21
77.021946
 31
0.0
  0
LINE
  5
26D
100
AcDbEntity
  8
3
370
    25
100
AcDbLine
 10
-291.367081
 20
79.035857
 30
0.0
 11
-291.013528
 21
79.38941
 31
0.0
  0
LINE
  5
26E
100
AcDbEntity
  8
3
370
    25
100
AcDbLine
 10
-288.999617
 20
81.403321
 30
0.0
 11
-288.606874
 21
81.796064
 31
0.0
  0
LINE
  5
26F
100
AcDbEntity
  8
3
370
    25
100
AcDbLine
 10
-293.690814
 20
76.429281
 30
0.0
 11
-293.308263
 21
76.811832
 31
0.0
  0
LINE
  5
270
100
AcDbEntity
  8
3
370
    25
100
AcDbLine
 10
-291.22566
 20
78.894436
 30
0.0
 11
-290.872107
 21
79.247989
 31
0.0
  0
LINE
  5
271
100
AcDbEntity
  8
3
370
    25
100
AcDbLine
 10
-288.789503
 20
81.330592
 30
0.0
 11
-288.406953
 21
81.713143
 31
0.0
  0
LINE
  5
272
100
AcDbEntity
  8
3
370
    25
100
AcDbLine
 10
-293.599205
 20
76.238047
 30
0.0
 11
-293.224892
 21
76.612361
 31
0.0
  0
LINE
  5
273
100
AcDbEntity
  8
3
370
    25
100
AcDbLine
 10
-291.084239
 20
78.753014
 30
0.0
 11
-290.730685
 21
79.106568
 31
0.0
  0
LINE
  5
274
100
AcDbEntity
  8
3
370
    25
100
AcDbLine
 10
-288.590032
 20
81.247221
 30
0.0
 11
-288.215718
 21
81.621534
 31
0.0
  0
LINE
  5
275
100
AcDbEntity
  8
3
370
    25
100
AcDbLine
 10
-293.499384
 20
76.055026
 30
0.0
 11
-293.131663
 21
76.422747
 31
0.0
  0
LINE
  5
276
100
AcDbEntity
  8
3
370
    25
100
AcDbLine
 10
-290.942817
 20
78.611593
 30
0.0
 11
-290.589264
 21
78.965146
 31
0.0
  0
LINE
  5
277
100
AcDbEntity
  8
3
370
    25
100
AcDbLine
 10
-288.400418
 20
81.153992
 30
0.0
 11
-288.032697
 21
81.521713
 31
0.0
  0
LINE
  5
278
100
AcDbEntity
  8
3
370
    25
100
AcDbLine
 10
-293.391721
 20
75.879846
 30
0.0
 11
-293.029168
 21
76.2424
 31
0.0
  0
LINE
  5
279
100
AcDbEntity
  8
3
370
    25
100
AcDbLine
 10
-290.801396
 20
78.470171
 30
0.0
 11
-290.447842
 21
78.823725
 31
0.0
  0
LINE
  5
27A
100
AcDbEntity
  8
3
370
    25
100
AcDbLine
 10
-288.220071
 20
81.051497
 30
0.0
 11
-287.857517
 21
81.41405
 31
0.0
  0
LINE
  5
27B
100
AcDbEntity
  8
3
370
    25
100
AcDbLine
 10
-293.2765
 20
75.712224
 30
0.0
 11
-292.917852
 21
76.070873
 31
0.0
  0
LINE
  5
27C
100
AcDbEntity
  8
3
370
    25
100
AcDbLine
 10
-290.659974
 20
78.32875
 30
0.0
 11
-290.306421
 21
78.682303
 31
0.0
  0
LINE
  5
27D
100
AcDbEntity
  8
3
370
    25
100
AcDbLine
 10
-288.048544
 20
80.940181
 30
0.0
 11
-287.689895
 21
81.298829
 31
0.0
  0
LINE
  5
27E
100
AcDbEntity
  8
3
370
    25
100
AcDbLine
 10
-293.153933
 20
75.551949
 30
0.0
 11
-292.798039
 21
75.907843
 31
0.0
  0
LINE
  5
27F
100
AcDbEntity
  8
3
370
    25
100
AcDbLine
 10
-290.518553
 20
78.187329
 30
0.0
 11
-290.165
 21
78.540882
 31
0.0
  0
LINE
  5
280
100
AcDbEntity
  8
3
370
    25
100
AcDbLine
 10
-287.885514
 20
80.820368
 30
0.0
 11
-287.52962
 21
81.176262
 31
0.0
  0
LINE
  5
281
100
AcDbEntity
  8
3
370
    25
100
AcDbLine
 10
-293.024166
 20
75.398873
 30
0.0
 11
-292.669952
 21
75.753087
 31
0.0
  0
LINE
  5
282
100
AcDbEntity
  8
3
370
    25
100
AcDbLine
 10
-290.377132
 20
78.045907
 30
0.0
 11
-290.023578
 21
78.399461
 31
0.0
  0
LINE
  5
283
100
AcDbEntity
  8
3
370
    25
100
AcDbLine
 10
-287.730758
 20
80.692281
 30
0.0
 11
-287.376544
 21
81.046495
 31
0.0
  0
LINE
  5
284
100
AcDbEntity
  8
3
370
    25
100
AcDbLine
 10
-292.887289
 20
75.252907
 30
0.0
 11
-292.533726
 21
75.606471
 31
0.0
  0
LINE
  5
285
100
AcDbEntity
  8
3
370
    25
100
AcDbLine
 10
-290.23571
 20
77.904486
 30
0.0
 11
-289.882157
 21
78.258039
 31
0.0
  0
LINE
  5
286
100
AcDbEntity
  8
3
370
    25
100
AcDbLine
 10
-287.584142
 20
80.556055
 30
0.0
 11
-287.230578
 21
80.909618
 31
0.0
  0
LINE
  5
287
100
AcDbEntity
  8
3
370
    25
100
AcDbLine
 10
-292.743336
 20
75.114017
 30
0.0
 11
-292.389411
 21
75.467943
 31
0.0
  0
LINE
  5
288
100
AcDbEntity
  8
3
370
    25
100
AcDbLine
 10
-290.094289
 20
77.763065
 30
0.0
 11
-289.740736
 21
78.116618
 31
0.0
  0
LINE
  5
289
100
AcDbEntity
  8
3
370
    25
100
AcDbLine
 10
-287.445614
 20
80.41174
 30
0.0
 11
-287.091688
 21
80.765665
 31
0.0
  0
LINE
  5
28A
100
AcDbEntity
  8
3
370
    25
100
AcDbLine
 10
-292.592288
 20
74.982223
 30
0.0
 11
-292.236978
 21
75.337533
 31
0.0
  0
LINE
  5
28B
100
AcDbEntity
  8
3
370
    25
100
AcDbLine
 10
-289.952868
 20
77.621643
 30
0.0
 11
-289.599314
 21
77.975197
 31
0.0
  0
LINE
  5
28C
100
AcDbEntity
  8
3
370
    25
100
AcDbLine
 10
-287.315204
 20
80.259307
 30
0.0
 11
-286.959894
 21
80.614617
 31
0.0
  0
LINE
  5
28D
100
AcDbEntity
  8
3
370
    25
100
AcDbLine
 10
-292.434072
 20
74.857597
 30
0.0
 11
-292.076319
 21
75.215349
 31
0.0
  0
LINE
  5
28E
100
AcDbEntity
  8
3
370
    25
100
AcDbLine
 10
-289.811446
 20
77.480222
 30
0.0
 11
-289.457893
 21
77.833775
 31
0.0
  0
LINE
  5
28F
100
AcDbEntity
  8
3
370
    25
100
AcDbLine
 10
-287.19302
 20
80.098648
 30
0.0
 11
-286.835268
 21
80.456401
 31
0.0
  0
LINE
  5
290
100
AcDbEntity
  8
3
370
    25
100
AcDbLine
 10
-292.268557
 20
74.740269
 30
0.0
 11
-291.907236
 21
75.101589
 31
0.0
  0
LINE
  5
291
100
AcDbEntity
  8
3
370
    25
100
AcDbLine
 10
-289.670025
 20
77.338801
 30
0.0
 11
-289.316472
 21
77.692354
 31
0.0
  0
LINE
  5
292
100
AcDbEntity
  8
3
370
    25
100
AcDbLine
 10
-287.07926
 20
79.929565
 30
0.0
 11
-286.71794
 21
80.290886
 31
0.0
  0
LINE
  5
293
100
AcDbEntity
  8
3
370
    25
100
AcDbLine
 10
-292.095551
 20
74.630432
 30
0.0
 11
-291.729436
 21
74.996547
 31
0.0
  0
LINE
  5
294
100
AcDbEntity
  8
3
370
    25
100
AcDbLine
 10
-289.528604
 20
77.197379
 30
0.0
 11
-289.17505
 21
77.550933
 31
0.0
  0
LINE
  5
295
100
AcDbEntity
  8
3
370
    25
100
AcDbLine
 10
-286.974218
 20
79.751765
 30
0.0
 11
-286.608103
 21
80.11788
 31
0.0
  0
LINE
  5
296
100
AcDbEntity
  8
3
370
    25
100
AcDbLine
 10
-291.914792
 20
74.528348
 30
0.0
 11
-291.542509
 21
74.900631
 31
0.0
  0
LINE
  5
297
100
AcDbEntity
  8
3
370
    25
100
AcDbLine
 10
-289.387182
 20
77.055958
 30
0.0
 11
-289.033629
 21
77.409511
 31
0.0
  0
LINE
  5
298
100
AcDbEntity
  8
3
370
    25
100
AcDbLine
 10
-286.878302
 20
79.564838
 30
0.0
 11
-286.506019
 21
79.937121
 31
0.0
  0
LINE
  5
299
100
AcDbEntity
  8
3
370
    25
100
AcDbLine
 10
-291.725936
 20
74.434361
 30
0.0
 11
-291.345911
 21
74.814387
 31
0.0
  0
LINE
  5
29A
100
AcDbEntity
  8
3
370
    25
100
AcDbLine
 10
-289.245761
 20
76.914537
 30
0.0
 11
-288.892208
 21
77.26809
 31
0.0
  0
LINE
  5
29B
100
AcDbEntity
  8
3
370
    25
100
AcDbLine
 10
-286.792058
 20
79.36824
 30
0.0
 11
-286.412032
 21
79.748265
 31
0.0
  0
LINE
  5
29C
100
AcDbEntity
  8
3
370
    25
100
AcDbLine
 10
-291.528539
 20
74.348915
 30
0.0
 11
-291.138915
 21
74.73854
 31
0.0
  0
LINE
  5
29D
100
AcDbEntity
  8
3
370
    25
100
AcDbLine
 10
-289.10434
 20
76.773115
 30
0.0
 11
-288.750786
 21
77.126669
 31
0.0
  0
LINE
  5
29E
100
AcDbEntity
  8
3
370
    25
100
AcDbLine
 10
-286.716211
 20
79.161244
 30
0.0
 11
-286.326586
 21
79.550868
 31
0.0
  0
LINE
  5
29F
100
AcDbEntity
  8
3
370
    25
100
AcDbLine
 10
-291.322037
 20
74.272575
 30
0.0
 11
-290.920565
 21
74.674047
 31
0.0
  0
LINE
  5
2A0
100
AcDbEntity
  8
3
370
    25
100
AcDbLine
 10
-288.962918
 20
76.631694
 30
0.0
 11
-288.609365
 21
76.985247
 31
0.0
  0
LINE
  5
2A1
100
AcDbEntity
  8
3
370
    25
100
AcDbLine
 10
-286.651718
 20
78.942894
 30
0.0
 11
-286.250246
 21
79.344366
 31
0.0
  0
LINE
  5
2A2
100
AcDbEntity
  8
3
370
    25
100
AcDbLine
 10
-291.105706
 20
74.206064
 30
0.0
 11
-290.68958
 21
74.62219
 31
0.0
  0
LINE
  5
2A3
100
AcDbEntity
  8
3
370
    25
100
AcDbLine
 10
-288.821497
 20
76.490272
 30
0.0
 11
-288.467943
 21
76.843826
 31
0.0
  0
LINE
  5
2A4
100
AcDbEntity
  8
3
370
    25
100
AcDbLine
 10
-286.599861
 20
78.711909
 30
0.0
 11
-286.183735
 21
79.128035
 31
0.0
  0
LINE
  5
2A5
100
AcDbEntity
  8
3
370
    25
100
AcDbLine
 10
-290.878617
 20
74.15031
 30
0.0
 11
-290.44421
 21
74.584717
 31
0.0
  0
LINE
  5
2A6
100
AcDbEntity
  8
3
370
    25
100
AcDbLine
 10
-288.680076
 20
76.348851
 30
0.0
 11
-288.326522
 21
76.702405
 31
0.0
  0
LINE
  5
2A7
100
AcDbEntity
  8
3
370
    25
100
AcDbLine
 10
-286.562388
 20
78.466539
 30
0.0
 11
-286.127981
 21
78.900946
 31
0.0
  0
LINE
  5
2A8
100
AcDbEntity
  8
3
370
    25
100
AcDbLine
 10
-290.639556
 20
74.106528
 30
0.0
 11
-290.181993
 21
74.564091
 31
0.0
  0
LINE
  5
2A9
100
AcDbEntity
  8
3
370
    25
100
AcDbLine
 10
-288.538654
 20
76.20743
 30
0.0
 11
-288.185101
 21
76.560983
 31
0.0
  0
LINE
  5
2AA
100
AcDbEntity
  8
3
370
    25
100
AcDbLine
 10
-286.541762
 20
78.204322
 30
0.0
 11
-286.084199
 21
78.661885
 31
0.0
  0
LINE
  5
2AB
100
AcDbEntity
  8
3
370
    25
100
AcDbLine
 10
-290.386906
 20
74.076335
 30
0.0
 11
-289.899297
 21
74.563944
 31
0.0
  0
LINE
  5
2AC
100
AcDbEntity
  8
3
370
    25
100
AcDbLine
 10
-288.397233
 20
76.066008
 30
0.0
 11
-288.043679
 21
76.419562
 31
0.0
  0
LINE
  5
2AD
100
AcDbEntity
  8
3
370
    25
100
AcDbLine
 10
-286.541615
 20
77.921626
 30
0.0
 11
-286.054006
 21
78.409235
 31
0.0
  0
LINE
  5
2AE
100
AcDbEntity
  8
3
370
    25
100
AcDbLine
 10
-290.118444
 20
74.061954
 30
0.0
 11
-289.590389
 21
74.590009
 31
0.0
  0
LINE
  5
2AF
100
AcDbEntity
  8
3
370
    25
100
AcDbLine
 10
-288.255811
 20
75.924587
 30
0.0
 11
-287.902258
 21
76.27814
 31
0.0
  0
LINE
  5
2B0
100
AcDbEntity
  8
3
370
    25
100
AcDbLine
 10
-286.56768
 20
77.612718
 30
0.0
 11
-286.039625
 21
78.140773
 31
0.0
  0
LINE
  5
2B1
100
AcDbEntity
  8
3
370
    25
100
AcDbLine
 10
-289.830991
 20
74.066565
 30
0.0
 11
-289.245236
 21
74.65232
 31
0.0
  0
LINE
  5
2B2
100
AcDbEntity
  8
3
370
    25
100
AcDbLine
 10
-288.11439
 20
75.783166
 30
0.0
 11
-287.760837
 21
76.136719
 31
0.0
  0
LINE
  5
2B3
100
AcDbEntity
  8
3
370
    25
100
AcDbLine
 10
-286.629991
 20
77.267565
 30
0.0
 11
-286.044236
 21
77.85332
 31
0.0
  0
LINE
  5
2B4
100
AcDbEntity
  8
3
370
    25
100
AcDbLine
 10
-289.519724
 20
74.094989
 30
0.0
 11
-288.842883
 21
74.77183
 31
0.0
  0
LINE
  5
2B5
100
AcDbEntity
  8
3
370
    25
100
AcDbLine
 10
-287.972969
 20
75.641744
 30
0.0
 11
-287.619415
 21
75.995298
 31
0.0
  0
LINE
  5
2B6
100
AcDbEntity
  8
3
370
    25
100
AcDbLine
 10
-286.749501
 20
76.865212
 30
0.0
 11
-286.07266
 21
77.542053
 31
0.0
  0
LINE
  5
2B7
100
AcDbEntity
  8
3
370
    25
100
AcDbLine
 10
-289.176693
 20
74.155177
 30
0.0
 11
-288.319036
 21
75.012835
 31
0.0
  0
LINE
  5
2B8
100
AcDbEntity
  8
3
370
    25
100
AcDbLine
 10
-287.831547
 20
75.500323
 30
0.0
 11
-287.477994
 21
75.853876
 31
0.0
  0
LINE
  5
2B9
100
AcDbEntity
  8
3
370
    25
100
AcDbLine
 10
-286.990506
 20
76.341365
 30
0.0
 11
-286.132848
 21
77.199022
 31
0.0
  0
LINE
  5
2BA
100
AcDbEntity
  8
3
370
    25
100
AcDbLine
 10
-288.786901
 20
74.262127
 30
0.0
 11
-286.239798
 21
76.80923
 31
0.0
  0
LINE
  5
2BB
100
AcDbEntity
  8
3
370
    25
100
AcDbLine
 10
-288.314063
 20
74.452122
 30
0.0
 11
-286.429793
 21
76.336392
 31
0.0
  0
LINE
  5
2BC
100
AcDbEntity
  8
3
370
    25
100
AcDbLine
 10
-287.567114
 20
74.916228
 30
0.0
 11
-286.893899
 21
75.589443
 31
0.0
  0
LINE
  5
2BD
100
AcDbEntity
  8
3
370
    25
100
AcDbLine
 10
-294.02804
 20
78.354797
 30
0.0
 11
-293.420945
 21
78.961892
 31
0.0
  0
LINE
  5
2BE
100
AcDbEntity
  8
3
370
    25
100
AcDbLine
 10
-292.357031
 20
80.025806
 30
0.0
 11
-292.003477
 21
80.37936
 31
0.0
  0
LINE
  5
2BF
100
AcDbEntity
  8
3
370
    25
100
AcDbLine
 10
-290.939563
 20
81.443274
 30
0.0
 11
-290.332468
 21
82.050369
 31
0.0
  0
LINE
  5
2C0
100
AcDbEntity
  8
3
370
    25
100
AcDbLine
 10
-293.991594
 20
78.674086
 30
0.0
 11
-293.277515
 21
79.388165
 31
0.0
  0
LINE
  5
2C1
100
AcDbEntity
  8
3
370
    25
100
AcDbLine
 10
-292.498452
 20
80.167228
 30
0.0
 11
-292.144899
 21
80.520781
 31
0.0
  0
LINE
  5
2C2
100
AcDbEntity
  8
3
370
    25
100
AcDbLine
 10
-291.365836
 20
81.299844
 30
0.0
 11
-290.651757
 21
82.013923
 31
0.0
  0
LINE
  5
2C3
100
AcDbEntity
  8
3
370
    25
100
AcDbLine
 10
-293.920129
 20
79.028393
 30
0.0
 11
-292.961036
 21
79.987486
 31
0.0
  0
LINE
  5
2C4
100
AcDbEntity
  8
3
370
    25
100
AcDbLine
 10
-292.639873
 20
80.308649
 30
0.0
 11
-292.28632
 21
80.662202
 31
0.0
  0
LINE
  5
2C5
100
AcDbEntity
  8
3
370
    25
100
AcDbLine
 10
-291.965157
 20
80.983365
 30
0.0
 11
-291.006064
 21
81.942458
 31
0.0
  0
LINE
  5
2C6
100
AcDbEntity
  8
3
370
    25
100
AcDbLine
 10
-293.795005
 20
79.436361
 30
0.0
 11
-291.414032
 21
81.817334
 31
0.0
  0
LINE
  5
2C7
100
AcDbEntity
  8
3
370
    25
100
AcDbLine
 10
-293.565435
 20
79.948773
 30
0.0
 11
-291.926444
 21
81.587764
 31
0.0
  0
TEXT
  5
2C8
100
AcDbEntity
  8
3
370
    50
100
AcDbText
 10
-315.068512
 20
61.658634
 30
0.0
 40
7.0
  1
（やけど注意表示）
 72
     5
 11
-253.468512
 21
61.658634
 31
0.0
100
AcDbText
  0
LWPOLYLINE
  5
2C9
100
AcDbEntity
  8
3
370
    25
100
AcDbPolyline
 90
        3
 70
     0
 10
-273.538833
 20
82.002564
 10
-245.68483
 20
78.595208
 10
-228.340286
 20
28.414493
  0
LWPOLYLINE
  5
2CE
100
AcDbEntity
  8
3
370
    25
100
AcDbPolyline
 90
        3
 70
     0
 10
-129.504959
 20
-7.974147
 10
-121.180969
 20
-71.718696
 10
-76.494255
 20
-85.739593
  0
TEXT
  5
2D3
100
AcDbEntity
  8
3
370
    50
100
AcDbText
 10
-211.247086
 20
141.417374
 30
0.0
 40
7.0
  1
赤色
 72
     5
 11
-198.647086
 21
141.417374
 31
0.0
100
AcDbText
  0
TEXT
  5
2D4
100
AcDbEntity
  8
3
370
    50
100
AcDbText
 10
-222.312088
 20
133.257935
 30
0.0
 40
7.0
  1
（湯表示）
 72
     5
 11
-188.712088
 21
133.257935
 31
0.0
100
AcDbText
  0
TEXT
  5
2D5
100
AcDbEntity
  8
3
370
    50
100
AcDbText
 10
-166.814438
 20
142.00187
 30
0.0
 40
7.0
  1
青色
 72
     5
 11
-154.214438
 21
142.00187
 31
0.0
100
AcDbText
  0
TEXT
  5
2D6
100
AcDbEntity
  8
3
370
    50
100
AcDbText
 10
-176.238083
 20
133.801971
 30
0.0
 40
7.0
  1
（水表示）
 72
     5
 11
-142.638083
 21
133.801971
 31
0.0
100
AcDbText
  0
TEXT
  5
2D7
100
AcDbEntity
  8
3
370
    50
100
AcDbText
 10
290.832582
 20
-240.013492
 30
0.0
 40
6.0
  1
１　２
 72
     5
 11
307.632582
 21
-240.013492
 31
0.0
100
AcDbText
  0
TEXT
  5
2D8
100
AcDbEntity
  8
3
370
    50
100
AcDbText
 10
-114.683319
 20
45.493187
 30
0.0
 40
7.0
  1
（商標表示）
 72
     5
 11
-74.083319
 21
45.493187
 31
0.0
100
AcDbText
  0
LWPOLYLINE
  5
2D9
100
AcDbEntity
  8
3
370
    25
100
AcDbPolyline
 90
        3
 70
     0
 10
-130.775528
 20
28.025569
 10
-123.795906
 20
48.19228
 10
-107.298561
 20
56.28331
  0
POINT
  5
2DE
100
AcDbEntity
  8
3
370
    50
100
AcDbPoint
 10
242.867155
 20
10.025625
 30
0.0
  0
TEXT
  5
2DF
100
AcDbEntity
  8
3
370
    50
100
AcDbText
 10
336.070276
 20
-271.880939
 30
0.0
 40
6.4
  1
１０１６４８
 72
     5
 11
373.190276
 21
-271.880939
 31
0.0
100
AcDbText
  0
POINT
  5
2E0
100
AcDbEntity
  8
3
370
    50
100
AcDbPoint
 10
210.867988
 20
10.025872
 30
0.0
  0
DIMENSION
  5
2E1
100
AcDbEntity
  8
3
370
    25
100
AcDbDimension
  2
*D2
 10
210.867988
 20
-166.835373
 30
0.0
 11
125.867988
 21
-162.335373
 31
0.0
 71
     0
 72
     0
 41
0.0
 42
0.0
  3
Standard
100
AcDbAlignedDimension
 13
40.867988
 23
-127.574933
 33
0.0
 14
210.867988
 24
-56.475517
 34
0.0
100
AcDbRotatedDimension
  0
DIMENSION
  5
2E2
100
AcDbEntity
  8
3
370
    25
100
AcDbDimension
  2
*D3
 10
6.629276
 20
-32.475027
 30
0.0
 11
-1.370724
 21
-80.025406
 31
0.0
 71
     0
 72
     0
 41
0.0
 42
0.0
  3
Standard
100
AcDbAlignedDimension
 13
30.235284
 23
-127.575785
 33
0.0
 14
147.005743
 24
-32.475027
 34
0.0
 50
90.0
100
AcDbRotatedDimension
  0
DIMENSION
  5
2E3
100
AcDbEntity
  8
3
370
    25
100
AcDbDimension
  2
*D4
 10
6.629276
 20
10.025872
 30
0.0
 11
-8.370724
 21
-18.224578
 31
0.0
 71
     0
 72
     0
 41
0.0
 42
0.0
  3
Standard
100
AcDbAlignedDimension
 13
147.005743
 23
-32.475027
 33
0.0
 14
169.940908
 24
10.025872
 34
0.0
 50
90.0
100
AcDbRotatedDimension
  0
DIMENSION
  5
2E4
100
AcDbEntity
  8
3
370
    25
100
AcDbDimension
  2
*D5
 10
299.912155
 20
-166.835373
 30
0.0
 11
255.390071
 21
-162.335373
 31
0.0
 71
     0
 72
     0
 41
0.0
 42
0.0
  3
Standard
100
AcDbAlignedDimension
 13
210.867988
 23
-37.297517
 33
0.0
 14
299.912155
 24
-63.096015
 34
0.0
100
AcDbRotatedDimension
  0
TEXT
  5
2E5
100
AcDbEntity
  8
3
370
    50
100
AcDbText
 10
322.147155
 20
-165.835373
 30
0.0
 40
7.0
  1
（１４）
 72
     5
 11
348.747155
 21
-165.835373
 31
0.0
100
AcDbText
  0
DIMENSION
  5
2E6
100
AcDbEntity
  8
3
370
    25
100
AcDbDimension
  2
*D6
 10
314.147155
 20
-166.835373
 30
0.0
 11
307.029655
 21
-164.835373
 31
0.0
 71
     0
 72
     0
 41
0.0
 42
0.0
  3
Standard
100
AcDbAlignedDimension
 13
299.912155
 23
-63.096015
 33
0.0
 14
314.147155
 24
-49.600015
 34
0.0
100
AcDbRotatedDimension
  0
TEXT
  5
2E7
100
AcDbEntity
  8
3
370
    50
100
AcDbText
 10
-70.461562
 20
-85.241999
 30
0.0
 40
5.0
  1
１０１６４８
 41
0.9
 72
     5
 11
-44.361562
 21
-85.241999
 31
0.0
100
AcDbText
  0
TEXT
  5
2E8
100
AcDbEntity
  8
3
370
    50
100
AcDbText
 10
-194.539078
 20
-202.084427
 30
0.0
 40
7.0
  1
（ＭＡＸ２３５）
 72
     5
 11
-139.939078
 21
-202.084427
 31
0.0
100
AcDbText
  0
TEXT
  5
2E9
100
AcDbEntity
  8
3
370
    50
100
AcDbText
 10
-215.539078
 20
-202.084427
 30
0.0
 40
7.0
  1
２００
 72
     5
 11
-195.939078
 21
-202.084427
 31
0.0
100
AcDbText
  0
TEXT
  5
2EA
100
AcDbEntity
  8
3
370
    50
100
AcDbText
 10
68.853722
 20
-227.247314
 30
0.0
 40
6.0
  1
壁付シングル（シャワバス）
 41
0.9
 72
     5
 11
137.973722
 21
-227.247314
 31
0.0
100
AcDbText
  0
TEXT
  5
2EB
100
AcDbEntity
  8
3
370
    50
100
AcDbText
 10
68.561089
 20
-236.529404
 30
0.0
 40
6.0
  1
ＭＢ３００
 72
     5
 11
97.361089
 21
-236.529404
 31
0.0
100
AcDbText
  0
DIMENSION
  5
2EC
100
AcDbEntity
  8
3
370
    25
100
AcDbDimension
  2
*D7
 10
-120.090566
 20
-178.345856
 30
0.0
 11
-183.590566
 21
-173.845856
 31
0.0
 71
     0
 72
     0
 41
0.0
 42
0.0
  3
Standard
100
AcDbAlignedDimension
 13
-247.090566
 23
27.025893
 33
0.0
 14
-120.090566
 24
27.025569
 34
0.0
100
AcDbRotatedDimension
  0
LWPOLYLINE
  5
2ED
100
AcDbEntity
  8
3
370
    25
100
AcDbPolyline
 90
        2
 70
     0
 10
-187.985535
 20
91.445992
 10
-198.26976
 20
127.426315
  0
LWPOLYLINE
  5
2F1
100
AcDbEntity
  8
3
370
    25
100
AcDbPolyline
 90
        2
 70
     0
 10
-179.195598
 20
91.445992
 10
-168.911373
 20
127.426315
  0
TEXT
  5
2F5
100
AcDbEntity
  8
3
370
    50
100
AcDbText
 10
5.629276
 20
53.966007
 30
0.0
 40
7.0
  1
１０８
 50
90.0
 72
     5
 11
5.629276
 21
73.566007
 31
0.0
100
AcDbText
  0
DIMENSION
  5
2F6
100
AcDbEntity
  8
3
370
    25
100
AcDbDimension
  2
*D8
 10
6.629276
 20
118.906142
 30
0.0
 11
4.129276
 21
64.466007
 31
0.0
 71
     0
 72
     0
 41
0.0
 42
0.0
  3
Standard
100
AcDbAlignedDimension
 13
227.367155
 23
10.025872
 33
0.0
 14
118.058636
 24
118.906142
 34
0.0
 50
90.0
100
AcDbRotatedDimension
  0
POINT
  5
2F7
100
AcDbEntity
  8
3
370
    50
100
AcDbPoint
 10
156.089435
 20
165.924975
 30
0.0
  0
TEXT
  5
2F8
100
AcDbEntity
  8
3
370
    50
100
AcDbText
 10
-24.197248
 20
77.475423
 30
0.0
 40
7.0
  1
１５５
 50
90.0
 72
     5
 11
-24.197248
 21
97.075423
 31
0.0
100
AcDbText
  0
DIMENSION
  5
2F9
100
AcDbEntity
  8
3
370
    25
100
AcDbDimension
  2
*D9
 10
-23.197248
 20
165.924975
 30
0.0
 11
-25.697248
 21
87.975423
 31
0.0
 71
     0
 72
     0
 41
0.0
 42
0.0
  3
Standard
100
AcDbAlignedDimension
 13
227.367155
 23
10.025872
 33
0.0
 14
156.089435
 24
165.924975
 34
0.0
 50
90.0
100
AcDbRotatedDimension
  0
TEXT
  5
2FA
100
AcDbEntity
  8
3
370
    50
100
AcDbText
 10
319.312988
 20
-8.798134
 30
0.0
 40
7.0
  1
ＰＪ１／２
 72
     5
 11
352.912988
 21
-8.798134
 31
0.0
100
AcDbText
  0
LWPOLYLINE
  5
2FB
100
AcDbEntity
  8
3
370
    25
100
AcDbPolyline
 90
        3
 70
     0
 10
305.863434
 20
-29.701015
 10
315.950623
 20
-11.486971
 10
357.644012
 20
-11.486971
  0
LINE
  5
300
100
AcDbEntity
  8
3
370
    25
100
AcDbLine
 10
307.735314
 20
-26.321034
 30
0.0
 11
306.829651
 21
-25.819466
 31
0.0
  0
LINE
  5
301
100
AcDbEntity
  8
3
370
    25
100
AcDbLine
 10
306.829651
 20
-25.819466
 30
0.0
 11
305.863434
 21
-29.701015
 31
0.0
  0
LINE
  5
302
100
AcDbEntity
  8
3
370
    25
100
AcDbLine
 10
305.863434
 20
-29.701015
 30
0.0
 11
308.640977
 21
-26.822603
 31
0.0
  0
LINE
  5
303
100
AcDbEntity
  8
3
370
    25
100
AcDbLine
 10
308.640977
 20
-26.822603
 30
0.0
 11
307.735314
 21
-26.321034
 31
0.0
  0
DIMENSION
  5
304
100
AcDbEntity
  8
3
370
    25
100
AcDbDimension
  2
*D10
 10
-320.549566
 20
-5.118387
 30
0.0
 11
-297.599005
 21
18.748662
 31
0.0
 70
     1
 71
     0
 72
     0
 41
0.0
 42
0.0
  3
Standard
100
AcDbAlignedDimension
 13
-233.590566
 23
10.025916
 33
0.0
 14
-280.964088
 24
-41.508048
 34
0.0
 50
47.408668
  0
DIMENSION
  5
305
100
AcDbEntity
  8
3
370
    25
100
AcDbDimension
  2
*D11
 10
-86.217045
 20
-203.809967
 30
0.0
 11
-183.590566
 21
-201.809967
 31
0.0
 71
     0
 72
     0
 41
0.0
 42
0.0
  3
Standard
100
AcDbAlignedDimension
 13
-280.964088
 23
-41.508048
 33
0.0
 14
-86.217045
 24
-41.508048
 34
0.0
100
AcDbRotatedDimension
  0
TEXT
  5
306
100
AcDbEntity
  8
3
370
    50
100
AcDbText
 10
-106.527054
 20
10.35467
 30
0.0
 40
7.0
  1
逆止弁内蔵
 72
     5
 11
-72.927054
 21
10.35467
 31
0.0
100
AcDbText
  0
TEXT
  5
307
100
AcDbEntity
  8
3
370
    50
100
AcDbText
 10
-295.654079
 20
10.35467
 30
0.0
 40
7.0
  1
逆止弁内蔵
 72
     5
 11
-262.054079
 21
10.35467
 31
0.0
100
AcDbText
  0
LWPOLYLINE
  5
308
100
AcDbEntity
  8
3
370
    25
100
AcDbPolyline
 90
        2
 70
     0
 10
-118.760216
 20
2.368157
 10
-100.838608
 20
8.339613
  0
LINE
  5
30C
100
AcDbEntity
  8
3
370
    25
100
AcDbLine
 10
-115.094637
 20
3.589523
 30
0.0
 11
-115.421901
 21
4.571712
 31
0.0
  0
LINE
  5
30D
100
AcDbEntity
  8
3
370
    25
100
AcDbLine
 10
-115.421901
 20
4.571712
 30
0.0
 11
-118.760216
 21
2.368157
 31
0.0
  0
LINE
  5
30E
100
AcDbEntity
  8
3
370
    25
100
AcDbLine
 10
-118.760216
 20
2.368157
 30
0.0
 11
-114.767373
 21
2.607334
 31
0.0
  0
LINE
  5
30F
100
AcDbEntity
  8
3
370
    25
100
AcDbLine
 10
-114.767373
 20
2.607334
 30
0.0
 11
-115.094637
 21
3.589523
 31
0.0
  0
LWPOLYLINE
  5
310
100
AcDbEntity
  8
3
370
    25
100
AcDbPolyline
 90
        2
 70
     0
 10
-248.420917
 20
2.368157
 10
-266.342525
 20
8.339613
  0
LINE
  5
314
100
AcDbEntity
  8
3
370
    25
100
AcDbLine
 10
-252.086496
 20
3.589523
 30
0.0
 11
-252.41376
 21
2.607334
 31
0.0
  0
LINE
  5
315
100
AcDbEntity
  8
3
370
    25
100
AcDbLine
 10
-252.41376
 20
2.607334
 30
0.0
 11
-248.420917
 21
2.368157
 31
0.0
  0
LINE
  5
316
100
AcDbEntity
  8
3
370
    25
100
AcDbLine
 10
-248.420917
 20
2.368157
 30
0.0
 11
-251.759232
 21
4.571712
 31
0.0
  0
LINE
  5
317
100
AcDbEntity
  8
3
370
    25
100
AcDbLine
 10
-251.759232
 20
4.571712
 30
0.0
 11
-252.086496
 21
3.589523
 31
0.0
  0
DIMENSION
  5
318
100
AcDbEntity
  8
3
370
    25
100
AcDbDimension
  2
*D12
 10
336.644897
 20
-17.096015
 30
0.0
 11
328.644897
 21
-40.096015
 31
0.0
 71
     0
 72
     0
 41
0.0
 42
0.0
  3
Standard
100
AcDbAlignedDimension
 13
299.912155
 23
-63.096015
 33
0.0
 14
299.912155
 24
-17.096015
 34
0.0
 50
90.0
100
AcDbRotatedDimension
  0
TEXT
  5
319
100
AcDbEntity
  8
3
370
    50
100
AcDbText
 10
-243.734116
 20
-45.67664
 30
0.0
 40
7.0
  1
シャワー吐水
 72
     5
 11
-203.134116
 21
-45.67664
 31
0.0
100
AcDbText
  0
TEXT
  5
31A
100
AcDbEntity
  8
3
370
    50
100
AcDbText
 10
-165.734116
 20
-45.67664
 30
0.0
 40
7.0
  1
パイプ吐水
 72
     5
 11
-132.134116
 21
-45.67664
 31
0.0
100
AcDbText
  0
LINE
  5
31B
100
AcDbEntity
  8
3
370
    50
100
AcDbLine
 10
-183.590393
 20
-133.593701
 30
0.0
 11
-171.506378
 21
-133.593701
 31
0.0
  0
LINE
  5
31C
100
AcDbEntity
  8
3
370
    25
  6
CENTER
100
AcDbLine
 10
-146.396622
 20
-32.473447
 30
0.0
 11
-221.007843
 21
-32.473447
 31
0.0
  0
DIMENSION
  5
31D
100
AcDbEntity
  8
3
370
    25
100
AcDbDimension
  2
*D13
 10
-220.922026
 20
-32.473447
 30
0.0
 11
-169.702232
 21
5.746347
 31
0.0
 70
     2
 71
     0
 72
     0
 41
0.0
 42
0.0
  3
Standard
100
AcDb2LineAngularDimension
 13
-146.482438
 23
-32.473447
 33
0.0
 14
-183.702232
 24
-32.473447
 34
0.0
 15
-183.702232
 25
-32.473447
 35
0.0
 16
-183.702232
 26
4.746347
 36
0.0
1001
ACAD
1000
DSTYLE
1002
{
1070
   275
1070
     0
1070
   179
1070
     0
1002
}
  0
LINE
  5
31E
100
AcDbEntity
  8
3
370
    50
100
AcDbLine
 10
-96.355535
 20
55.727753
 30
0.0
 11
-93.992958
 21
55.727753
 31
0.0
  0
LINE
  5
31F
100
AcDbEntity
  8
3
370
    50
100
AcDbLine
 10
-96.355535
 20
56.357731
 30
0.0
 11
-93.555444
 21
55.964204
 31
0.0
  0
LINE
  5
320
100
AcDbEntity
  8
3
370
    50
100
AcDbLine
 10
-93.932068
 20
56.900763
 30
0.0
 11
-96.355535
 21
57.241359
 31
0.0
  0
LINE
  5
321
100
AcDbEntity
  8
3
370
    50
100
AcDbLine
 10
-96.355535
 20
57.477809
 30
0.0
 11
-93.555444
 21
57.477809
 31
0.0
  0
ARC
  5
322
100
AcDbEntity
  8
3
370
    50
100
AcDbCircle
 10
-93.992958
 20
57.915324
 30
0.0
 40
0.437514
100
AcDbArc
 50
0.0
 51
90.0
  0
ARC
  5
323
100
AcDbEntity
  8
3
370
    50
100
AcDbCircle
 10
-93.992958
 20
56.467506
 30
0.0
 40
0.437514
100
AcDbArc
 50
360.0
 51
82.0
  0
ARC
  5
324
100
AcDbEntity
  8
3
370
    50
100
AcDbCircle
 10
-93.992958
 20
55.290239
 30
0.0
 40
0.437514
100
AcDbArc
 50
0.0
 51
90.0
  0
LINE
  5
325
100
AcDbEntity
  8
3
370
    50
100
AcDbLine
 10
-92.680416
 20
58.352838
 30
0.0
 11
-92.680416
 21
57.477809
 31
0.0
  0
LINE
  5
326
100
AcDbEntity
  8
3
370
    50
100
AcDbLine
 10
-92.680416
 20
57.477809
 30
0.0
 11
-91.455377
 21
57.477809
 31
0.0
  0
LINE
  5
327
100
AcDbEntity
  8
3
370
    50
100
AcDbLine
 10
-90.580348
 20
57.915324
 30
0.0
 11
-90.580348
 21
56.777787
 31
0.0
  0
LINE
  5
328
100
AcDbEntity
  8
3
370
    50
100
AcDbLine
 10
-91.455377
 20
57.477809
 30
0.0
 11
-91.455377
 21
56.777787
 31
0.0
  0
LINE
  5
329
100
AcDbEntity
  8
3
370
    50
100
AcDbLine
 10
-93.11793
 20
55.727753
 30
0.0
 11
-92.50541
 21
55.727753
 31
0.0
  0
ARC
  5
32A
100
AcDbEntity
  8
3
370
    50
100
AcDbCircle
 10
-92.50541
 20
56.777787
 30
0.0
 40
1.050034
100
AcDbArc
 50
270.0
 51
360.0
  0
ARC
  5
32B
100
AcDbEntity
  8
3
370
    50
100
AcDbCircle
 10
-89.262441
 20
57.826214
 30
0.0
 40
2.100068
100
AcDbArc
 50
228.524141
 51
272.241513
  0
ARC
  5
32C
100
AcDbEntity
  8
3
370
    50
100
AcDbCircle
 10
-89.262441
 20
57.826214
 30
0.0
 40
2.975096
100
AcDbArc
 50
232.173442
 51
271.582042
  0
LINE
  5
32D
100
AcDbEntity
  8
3
370
    50
100
AcDbLine
 10
-89.551105
 20
56.952792
 30
0.0
 11
-88.54071
 21
56.952792
 31
0.0
  0
LINE
  5
32E
100
AcDbEntity
  8
3
370
    50
100
AcDbLine
 10
-88.742789
 20
58.352838
 30
0.0
 11
-89.551105
 21
56.952792
 31
0.0
  0
LINE
  5
32F
100
AcDbEntity
  8
3
370
    50
100
AcDbLine
 10
-88.237591
 20
57.477809
 30
0.0
 11
-88.54071
 21
56.952792
 31
0.0
  0
LINE
  5
330
100
AcDbEntity
  8
3
370
    50
100
AcDbLine
 10
-88.237591
 20
57.477809
 30
0.0
 11
-87.517749
 21
57.477809
 31
0.0
  0
ARC
  5
331
100
AcDbEntity
  8
3
370
    50
100
AcDbCircle
 10
-87.080235
 20
57.915324
 30
0.0
 40
0.437514
100
AcDbArc
 50
0.0
 51
90.0
  0
LINE
  5
332
100
AcDbEntity
  8
3
370
    50
100
AcDbLine
 10
-88.742789
 20
55.727753
 30
0.0
 11
-88.567783
 21
55.727753
 31
0.0
  0
ARC
  5
333
100
AcDbEntity
  8
3
370
    50
100
AcDbCircle
 10
-88.567783
 20
56.777787
 30
0.0
 40
1.925062
100
AcDbArc
 50
270.0
 51
360.0
  0
LINE
  5
334
100
AcDbEntity
  8
3
370
    50
100
AcDbLine
 10
-88.042766
 20
56.25277
 30
0.0
 11
-87.658427
 21
56.25277
 31
0.0
  0
LINE
  5
335
100
AcDbEntity
  8
3
370
    50
100
AcDbLine
 10
-88.042766
 20
57.127798
 30
0.0
 11
-87.517749
 21
57.127798
 31
0.0
  0
LINE
  5
336
100
AcDbEntity
  8
3
370
    50
100
AcDbLine
 10
-88.042766
 20
56.25277
 30
0.0
 11
-88.042766
 21
57.127798
 31
0.0
  0
LINE
  5
337
100
AcDbEntity
  8
3
370
    50
100
AcDbLine
 10
-87.517749
 20
57.477809
 30
0.0
 11
-87.517749
 21
57.127798
 31
0.0
  0
ARC
  5
338
100
AcDbEntity
  8
3
370
    50
100
AcDbCircle
 10
-88.567783
 20
56.777787
 30
0.0
 40
1.050034
100
AcDbArc
 50
270.0
 51
330.0
  0
LINE
  5
339
100
AcDbEntity
  8
3
370
    50
100
AcDbLine
 10
-86.205207
 20
57.477809
 30
0.0
 11
-84.105139
 21
57.477809
 31
0.0
  0
LINE
  5
33A
100
AcDbEntity
  8
3
370
    50
100
AcDbLine
 10
-86.205207
 20
55.727753
 30
0.0
 11
-84.542653
 21
55.727753
 31
0.0
  0
ARC
  5
33B
100
AcDbEntity
  8
3
370
    50
100
AcDbCircle
 10
-84.542653
 20
57.915324
 30
0.0
 40
0.437514
100
AcDbArc
 50
0.0
 51
90.0
  0
ARC
  5
33C
100
AcDbEntity
  8
3
370
    50
100
AcDbCircle
 10
-84.542653
 20
55.290239
 30
0.0
 40
0.437514
100
AcDbArc
 50
0.0
 51
90.0
  0
ARC
  5
33D
100
AcDbEntity
  8
3
370
    50
100
AcDbCircle
 10
-92.50541
 20
56.777787
 30
0.0
 40
1.925062
100
AcDbArc
 50
270.0
 51
317.461176
  0
ARC
  5
33E
100
AcDbEntity
  8
3
370
    50
100
AcDbCircle
 10
-92.50541
 20
56.777787
 30
0.0
 40
1.925062
100
AcDbArc
 50
344.17338
 51
360.0
  0
CIRCLE
  5
33F
100
AcDbEntity
  8
3
370
    50
100
AcDbCircle
 10
-89.792823
 20
58.090329
 30
0.0
 40
0.262508
  0
CIRCLE
  5
340
100
AcDbEntity
  8
3
370
    50
100
AcDbCircle
 10
-90.31784
 20
58.090329
 30
0.0
 40
0.262508
  0
LINE
  5
341
100
AcDbEntity
  8
3
370
    50
100
AcDbLine
 10
-93.11793
 20
55.727753
 30
0.0
 11
-93.11793
 21
54.852725
 31
0.0
  0
LINE
  5
342
100
AcDbEntity
  8
3
370
    50
100
AcDbLine
 10
-89.180303
 20
55.727753
 30
0.0
 11
-89.180303
 21
54.852725
 31
0.0
  0
LINE
  5
343
100
AcDbEntity
  8
3
370
    50
100
AcDbLine
 10
-88.742789
 20
55.727753
 30
0.0
 11
-88.742789
 21
54.852725
 31
0.0
  0
LINE
  5
344
100
AcDbEntity
  8
3
370
    50
100
AcDbLine
 10
-86.642721
 20
57.915324
 30
0.0
 11
-86.642721
 21
56.777787
 31
0.0
  0
LINE
  5
345
100
AcDbEntity
  8
3
370
    50
100
AcDbLine
 10
-96.355535
 20
58.352838
 30
0.0
 11
-93.992958
 21
58.352838
 31
0.0
  0
LINE
  5
346
100
AcDbEntity
  8
3
370
    50
100
AcDbLine
 10
-92.680416
 20
58.352838
 30
0.0
 11
-91.017862
 21
58.352838
 31
0.0
  0
LINE
  5
347
100
AcDbEntity
  8
3
370
    50
100
AcDbLine
 10
-88.742789
 20
58.352838
 30
0.0
 11
-87.080235
 21
58.352838
 31
0.0
  0
LINE
  5
348
100
AcDbEntity
  8
3
370
    50
100
AcDbLine
 10
-86.205207
 20
58.352838
 30
0.0
 11
-84.542653
 21
58.352838
 31
0.0
  0
LINE
  5
349
100
AcDbEntity
  8
3
370
    50
100
AcDbLine
 10
-86.205207
 20
54.852725
 30
0.0
 11
-84.105139
 21
54.852725
 31
0.0
  0
LINE
  5
34A
100
AcDbEntity
  8
3
370
    50
100
AcDbLine
 10
-88.742789
 20
54.852725
 30
0.0
 11
-88.567783
 21
54.852725
 31
0.0
  0
LINE
  5
34B
100
AcDbEntity
  8
3
370
    50
100
AcDbLine
 10
-96.355535
 20
54.852725
 30
0.0
 11
-93.555444
 21
54.852725
 31
0.0
  0
LINE
  5
34C
100
AcDbEntity
  8
3
370
    50
100
AcDbLine
 10
-93.555444
 20
57.477809
 30
0.0
 11
-93.555444
 21
57.915324
 31
0.0
  0
LINE
  5
34D
100
AcDbEntity
  8
3
370
    50
100
AcDbLine
 10
-93.555444
 20
54.852725
 30
0.0
 11
-93.555444
 21
55.290239
 31
0.0
  0
LINE
  5
34E
100
AcDbEntity
  8
3
370
    50
100
AcDbLine
 10
-93.555444
 20
55.964204
 30
0.0
 11
-93.555444
 21
56.467506
 31
0.0
  0
LINE
  5
34F
100
AcDbEntity
  8
3
370
    50
100
AcDbLine
 10
-96.355535
 20
54.852725
 30
0.0
 11
-96.355535
 21
55.727753
 31
0.0
  0
LINE
  5
350
100
AcDbEntity
  8
3
370
    50
100
AcDbLine
 10
-96.355535
 20
56.357731
 30
0.0
 11
-96.355535
 21
57.241359
 31
0.0
  0
LINE
  5
351
100
AcDbEntity
  8
3
370
    50
100
AcDbLine
 10
-96.355535
 20
57.477809
 30
0.0
 11
-96.355535
 21
58.352838
 31
0.0
  0
LINE
  5
352
100
AcDbEntity
  8
3
370
    50
100
AcDbLine
 10
-84.105139
 20
57.477809
 30
0.0
 11
-84.105139
 21
57.915324
 31
0.0
  0
LINE
  5
353
100
AcDbEntity
  8
3
370
    50
100
AcDbLine
 10
-86.205207
 20
54.852725
 30
0.0
 11
-86.205207
 21
55.727753
 31
0.0
  0
LINE
  5
354
100
AcDbEntity
  8
3
370
    50
100
AcDbLine
 10
-86.205207
 20
57.477809
 30
0.0
 11
-86.205207
 21
58.352838
 31
0.0
  0
LINE
  5
355
100
AcDbEntity
  8
3
370
    50
100
AcDbLine
 10
-93.11793
 20
54.852725
 30
0.0
 11
-92.50541
 21
54.852725
 31
0.0
  0
LINE
  5
356
100
AcDbEntity
  8
3
370
    50
100
AcDbLine
 10
-89.360209
 20
54.852725
 30
0.0
 11
-89.180303
 21
54.852725
 31
0.0
  0
ARC
  5
357
100
AcDbEntity
  8
3
370
    50
100
AcDbCircle
 10
-91.017862
 20
57.915324
 30
0.0
 40
0.437514
100
AcDbArc
 50
0.0
 51
90.0
  0
POINT
  5
358
100
AcDbEntity
  8
3
370
    50
100
AcDbPoint
 10
-104.055659
 20
56.602781
 30
0.0
  0
LINE
  5
359
100
AcDbEntity
  8
3
370
    50
100
AcDbLine
 10
-104.230665
 20
55.815256
 30
0.0
 11
-104.230665
 21
57.390307
 31
0.0
  0
LINE
  5
35A
100
AcDbEntity
  8
3
370
    50
100
AcDbLine
 10
-103.880653
 20
57.390307
 30
0.0
 11
-103.880653
 21
55.815256
 31
0.0
  0
LINE
  5
35B
100
AcDbEntity
  8
3
370
    50
100
AcDbLine
 10
-103.880653
 20
57.390307
 30
0.0
 11
-104.230665
 21
57.390307
 31
0.0
  0
LINE
  5
35C
100
AcDbEntity
  8
3
370
    50
100
AcDbLine
 10
-103.880653
 20
55.815256
 30
0.0
 11
-104.230665
 21
55.815256
 31
0.0
  0
LINE
  5
35D
100
AcDbEntity
  8
3
370
    50
100
AcDbLine
 10
-105.119889
 20
55.538551
 30
0.0
 11
-105.293136
 21
55.365304
 31
0.0
  0
LINE
  5
35E
100
AcDbEntity
  8
3
370
    50
100
AcDbLine
 10
-103.180631
 20
57.390307
 30
0.0
 11
-102.970624
 21
57.390307
 31
0.0
  0
LINE
  5
35F
100
AcDbEntity
  8
3
370
    50
100
AcDbLine
 10
-103.618145
 20
55.815256
 30
0.0
 11
-103.338136
 21
55.815256
 31
0.0
  0
LINE
  5
360
100
AcDbEntity
  8
3
370
    50
100
AcDbLine
 10
-103.618145
 20
55.815256
 30
0.0
 11
-103.618145
 21
56.095265
 31
0.0
  0
LINE
  5
361
100
AcDbEntity
  8
3
370
    50
100
AcDbLine
 10
-102.970624
 20
57.110298
 30
0.0
 11
-102.970624
 21
57.390307
 31
0.0
  0
LINE
  5
362
100
AcDbEntity
  8
3
370
    50
100
AcDbLine
 10
-103.128129
 20
57.110298
 30
0.0
 11
-102.970624
 21
57.110298
 31
0.0
  0
LINE
  5
363
100
AcDbEntity
  8
3
370
    50
100
AcDbLine
 10
-103.478555
 20
56.632387
 30
0.0
 11
-103.259551
 21
56.42875
 31
0.0
  0
ARC
  5
364
100
AcDbEntity
  8
3
370
    50
100
AcDbCircle
 10
-103.128129
 20
56.935292
 30
0.0
 40
0.175006
100
AcDbArc
 50
90.0
 51
227.082289
  0
LINE
  5
365
100
AcDbEntity
  8
3
370
    50
100
AcDbLine
 10
-103.247299
 20
56.80713
 30
0.0
 11
-103.028295
 21
56.603492
 31
0.0
  0
ARC
  5
366
100
AcDbEntity
  8
3
370
    50
100
AcDbCircle
 10
-103.338136
 20
56.27027
 30
0.0
 40
0.455015
100
AcDbArc
 50
270.0
 51
47.082289
  0
ARC
  5
367
100
AcDbEntity
  8
3
370
    50
100
AcDbCircle
 10
-103.390638
 20
56.287771
 30
0.0
 40
0.192506
100
AcDbArc
 50
270.0
 51
47.082289
  0
ARC
  5
368
100
AcDbEntity
  8
3
370
    50
100
AcDbCircle
 10
-103.180631
 20
56.952792
 30
0.0
 40
0.437514
100
AcDbArc
 50
90.0
 51
227.082289
  0
LINE
  5
369
100
AcDbEntity
  8
3
370
    50
100
AcDbLine
 10
-103.390638
 20
56.095265
 30
0.0
 11
-103.618145
 21
56.095265
 31
0.0
  0
LINE
  5
36A
100
AcDbEntity
  8
3
370
    50
100
AcDbLine
 10
-104.860685
 20
56.438276
 30
0.0
 11
-104.860685
 21
57.390307
 31
0.0
  0
LINE
  5
36B
100
AcDbEntity
  8
3
370
    50
100
AcDbLine
 10
-104.545675
 20
56.438276
 30
0.0
 11
-104.545675
 21
57.390307
 31
0.0
  0
LINE
  5
36C
100
AcDbEntity
  8
3
370
    50
100
AcDbLine
 10
-104.545675
 20
57.390307
 30
0.0
 11
-104.860685
 21
57.390307
 31
0.0
  0
ARC
  5
36D
100
AcDbEntity
  8
3
370
    50
100
AcDbCircle
 10
-105.168695
 20
56.438276
 30
0.0
 40
0.62302
100
AcDbArc
 50
190.22669
 51
360.0
  0
ARC
  5
36E
100
AcDbEntity
  8
3
370
    50
100
AcDbCircle
 10
-105.203696
 20
56.438276
 30
0.0
 40
0.343011
100
AcDbArc
 50
190.573586
 51
360.0
  0
ARC
  5
36F
100
AcDbEntity
  8
3
370
    50
100
AcDbCircle
 10
-104.055659
 20
56.602781
 30
0.0
 40
1.505049
100
AcDbArc
 50
225.0
 51
188.720397
  0
ARC
  5
370
100
AcDbEntity
  8
3
370
    50
100
AcDbCircle
 10
-104.055659
 20
56.602781
 30
0.0
 40
1.750056
100
AcDbArc
 50
225.0
 51
189.066832
  0
LINE
  5
371
100
AcDbEntity
  8
3
370
    50
100
AcDbLine
 10
-81.654998
 20
54.852725
 30
0.0
 11
-81.654998
 21
57.186133
 31
0.0
  0
LINE
  5
372
100
AcDbEntity
  8
3
370
    50
100
AcDbLine
 10
-83.055043
 20
54.852725
 30
0.0
 11
-83.055043
 21
57.186133
 31
0.0
  0
LINE
  5
373
100
AcDbEntity
  8
3
370
    50
100
AcDbLine
 10
-83.405054
 20
54.852725
 30
0.0
 11
-82.705032
 21
54.852725
 31
0.0
  0
LINE
  5
374
100
AcDbEntity
  8
3
370
    50
100
AcDbLine
 10
-82.005009
 20
54.852725
 30
0.0
 11
-81.304987
 21
54.852725
 31
0.0
  0
LINE
  5
375
100
AcDbEntity
  8
3
370
    50
100
AcDbLine
 10
-105.543309
 20
56.374597
 30
0.0
 11
-105.540883
 21
56.375334
 31
0.0
  0
HATCH
  5
376
100
AcDbEntity
  8
3
370
    25
100
AcDbHatch
 10
0.0
 20
0.0
 30
0.0
210
0.0
220
0.0
230
1.0
  2
_U
 70
     0
 71
     1
 91
        1
 92
        1
 93
        4
 72
     1
 10
-103.880653
 20
57.390307
 11
-103.880653
 21
55.815255999999998
 72
     1
 10
-103.880653
 20
55.815255999999998
 11
-104.230665
 21
55.815255999999998
 72
     1
 10
-104.230665
 20
55.815255999999998
 11
-104.230665
 21
57.390307
 72
     1
 10
-104.230665
 20
57.390307
 11
-103.880653
 21
57.390307
 97
        4
330
0
330
0
330
0
330
0
 75
     0
 76
     0
 52
45.0
 41
1.0
 77
     0
 78
     1
 53
45.0
 43
0.0
 44
0.0
 45
-0.282843
 46
0.282843
 79
     0
 98
        1
 10
0.0
 20
0.0
  0
LINE
  5
377
100
AcDbEntity
  8
3
370
    25
100
AcDbLine
 10
-103.171676
 20
55.846797
 30
0.0
 11
-102.914663
 21
56.103811
 31
0.0
  0
LINE
  5
378
100
AcDbEntity
  8
3
370
    25
100
AcDbLine
 10
-103.618145
 20
55.966014
 30
0.0
 11
-103.488894
 21
56.095265
 31
0.0
  0
LINE
  5
379
100
AcDbEntity
  8
3
370
    25
100
AcDbLine
 10
-103.215808
 20
56.368351
 30
0.0
 11
-103.004497
 21
56.579662
 31
0.0
  0
LINE
  5
37A
100
AcDbEntity
  8
3
370
    25
100
AcDbLine
 10
-102.970624
 20
57.17922
 30
0.0
 11
-103.039547
 21
57.110298
 31
0.0
  0
LINE
  5
37B
100
AcDbEntity
  8
3
370
    25
100
AcDbLine
 10
-103.287299
 20
56.862546
 30
0.0
 11
-103.498102
 21
56.651743
 31
0.0
  0
LINE
  5
37C
100
AcDbEntity
  8
3
370
    25
100
AcDbLine
 10
-103.576552
 20
57.138978
 30
0.0
 11
-103.366816
 21
57.348714
 31
0.0
  0
LINE
  5
37D
100
AcDbEntity
  8
3
370
    25
100
AcDbLine
 10
-104.851077
 20
55.043933
 30
0.0
 11
-104.668514
 21
55.226497
 31
0.0
  0
LINE
  5
37E
100
AcDbEntity
  8
3
370
    25
100
AcDbLine
 10
-102.679383
 20
57.215627
 30
0.0
 11
-102.496811
 21
57.398199
 31
0.0
  0
LINE
  5
37F
100
AcDbEntity
  8
3
370
    25
100
AcDbLine
 10
-104.434994
 20
54.894331
 30
0.0
 11
-104.224728
 21
55.104597
 31
0.0
  0
LINE
  5
380
100
AcDbEntity
  8
3
370
    25
100
AcDbLine
 10
-102.557483
 20
56.771842
 30
0.0
 11
-102.347209
 21
56.982116
 31
0.0
  0
LINE
  5
381
100
AcDbEntity
  8
3
370
    25
100
AcDbLine
 10
-103.904363
 20
54.859277
 30
0.0
 11
-103.598868
 21
55.164772
 31
0.0
  0
LINE
  5
382
100
AcDbEntity
  8
3
370
    25
100
AcDbLine
 10
-102.617658
 20
56.145981
 30
0.0
 11
-102.312155
 21
56.451485
 31
0.0
  0
LINE
  5
383
100
AcDbEntity
  8
3
370
    25
100
AcDbLine
 10
-102.959023
 20
55.238931
 30
0.0
 11
-102.691809
 21
55.506145
 31
0.0
  0
LINE
  5
384
100
AcDbEntity
  8
3
370
    25
100
AcDbLine
 10
-105.190307
 20
55.270388
 30
0.0
 11
-105.016694
 21
55.444002
 31
0.0
  0
LINE
  5
385
100
AcDbEntity
  8
3
370
    25
100
AcDbLine
 10
-102.896888
 20
57.563808
 30
0.0
 11
-102.723266
 21
57.73743
 31
0.0
  0
LINE
  5
386
100
AcDbEntity
  8
3
370
    25
100
AcDbLine
 10
-105.222309
 20
55.804072
 30
0.0
 11
-104.545675
 21
56.480706
 31
0.0
  0
LINE
  5
387
100
AcDbEntity
  8
3
370
    25
100
AcDbLine
 10
-103.191956
 20
57.834425
 30
0.0
 11
-103.015904
 21
58.010477
 31
0.0
  0
LINE
  5
388
100
AcDbEntity
  8
3
370
    25
100
AcDbLine
 10
-105.608465
 20
55.983602
 30
0.0
 11
-105.420002
 21
56.172065
 31
0.0
  0
LINE
  5
389
100
AcDbEntity
  8
3
370
    25
100
AcDbLine
 10
-104.860685
 20
56.731382
 30
0.0
 11
-104.545675
 21
57.046392
 31
0.0
  0
LINE
  5
38A
100
AcDbEntity
  8
3
370
    25
100
AcDbLine
 10
-103.567562
 20
58.024505
 30
0.0
 11
-103.376421
 21
58.215646
 31
0.0
  0
LINE
  5
38B
100
AcDbEntity
  8
3
370
    25
100
AcDbLine
 10
-105.789878
 20
56.367874
 30
0.0
 11
-105.557712
 21
56.60004
 31
0.0
  0
LINE
  5
38C
100
AcDbEntity
  8
3
370
    25
100
AcDbLine
 10
-104.860685
 20
57.297067
 30
0.0
 11
-104.767445
 21
57.390307
 31
0.0
  0
LINE
  5
38D
100
AcDbEntity
  8
3
370
    25
100
AcDbLine
 10
-104.052926
 20
58.104826
 30
0.0
 11
-103.820752
 21
58.337
 31
0.0
  0
LINE
  5
38E
100
AcDbEntity
  8
3
370
    25
100
AcDbLine
 10
-105.770283
 20
56.953154
 30
0.0
 11
-105.333781
 21
57.389656
 31
0.0
  0
LINE
  5
38F
100
AcDbEntity
  8
3
370
    25
100
AcDbLine
 10
-104.842542
 20
57.880895
 30
0.0
 11
-104.406032
 21
58.317405
 31
0.0
  0
LINE
  5
390
100
AcDbEntity
  8
3
370
    50
100
AcDbLine
 10
-84.105139
 20
55.290239
 30
0.0
 11
-84.105139
 21
54.852725
 31
0.0
  0
LINE
  5
391
100
AcDbEntity
  8
3
370
    50
100
AcDbLine
 10
-100.205535
 20
57.186133
 30
0.0
 11
-100.905557
 21
57.186133
 31
0.0
  0
LINE
  5
392
100
AcDbEntity
  8
3
370
    50
100
AcDbLine
 10
-81.654998
 20
57.186133
 30
0.0
 11
-82.355021
 21
55.973658
 31
0.0
  0
LINE
  5
393
100
AcDbEntity
  8
3
370
    50
100
AcDbLine
 10
-83.055043
 20
57.186133
 30
0.0
 11
-82.355021
 21
55.973658
 31
0.0
  0
LINE
  5
394
100
AcDbEntity
  8
3
370
    50
100
AcDbLine
 10
-100.555546
 20
57.186133
 30
0.0
 11
-100.555546
 21
55.552747
 31
0.0
  0
LINE
  5
395
100
AcDbEntity
  8
3
370
    50
100
AcDbLine
 10
-97.755456
 20
57.186133
 30
0.0
 11
-97.055433
 21
57.186133
 31
0.0
  0
LINE
  5
396
100
AcDbEntity
  8
3
370
    50
100
AcDbLine
 10
-99.155501
 20
57.186133
 30
0.0
 11
-99.855523
 21
57.186133
 31
0.0
  0
LINE
  5
397
100
AcDbEntity
  8
3
370
    50
100
AcDbLine
 10
-99.505512
 20
57.186133
 30
0.0
 11
-99.094069
 21
54.852725
 31
0.0
  0
LINE
  5
398
100
AcDbEntity
  8
3
370
    50
100
AcDbLine
 10
-99.094069
 20
54.852725
 30
0.0
 11
-98.455478
 21
56.607239
 31
0.0
  0
LINE
  5
399
100
AcDbEntity
  8
3
370
    50
100
AcDbLine
 10
-97.816887
 20
54.852725
 30
0.0
 11
-98.455478
 21
56.607239
 31
0.0
  0
LINE
  5
39A
100
AcDbEntity
  8
3
370
    50
100
AcDbLine
 10
-97.405444
 20
57.186133
 30
0.0
 11
-97.816887
 21
54.852725
 31
0.0
  0
ARC
  5
39B
100
AcDbEntity
  8
3
370
    50
100
AcDbCircle
 10
-101.255569
 20
55.552747
 30
0.0
 40
0.700023
100
AcDbArc
 50
180.0
 51
360.0
  0
LINE
  5
39C
100
AcDbEntity
  8
3
370
    50
100
AcDbLine
 10
-105.805716
 20
59.35287
 30
0.0
 11
-81.804941
 21
59.35287
 31
0.0
  0
LINE
  5
39D
100
AcDbEntity
  8
3
370
    50
100
AcDbLine
 10
-105.805716
 20
53.852692
 30
0.0
 11
-81.804941
 21
53.852692
 31
0.0
  0
POINT
  5
39E
100
AcDbEntity
  8
3
370
    50
100
AcDbPoint
 10
-104.055659
 20
56.602781
 30
0.0
  0
LINE
  5
39F
100
AcDbEntity
  8
3
370
    50
100
AcDbLine
 10
-106.805748
 20
54.852725
 30
0.0
 11
-106.805748
 21
58.352838
 31
0.0
  0
LINE
  5
3A0
100
AcDbEntity
  8
3
370
    50
100
AcDbLine
 10
-80.804908
 20
54.852725
 30
0.0
 11
-80.804908
 21
58.352838
 31
0.0
  0
HATCH
  5
3A1
100
AcDbEntity
  8
3
370
    25
100
AcDbHatch
 10
0.0
 20
0.0
 30
0.0
210
0.0
220
0.0
230
1.0
  2
_U
 70
     0
 71
     1
 91
        1
 92
        1
 93
        5
 72
     1
 10
-93.555443999999994
 20
57.477809000000001
 11
-93.555443999999994
 21
57.915323999999998
 72
     2
 10
-93.992958000000002
 20
57.915323999999998
 40
0.437514
 50
0.0
 51
90.0
 73
     1
 72
     1
 10
-93.992958000000002
 20
58.352837999999998
 11
-96.355535000000003
 21
58.352837999999998
 72
     1
 10
-96.355535000000003
 20
58.352837999999998
 11
-96.355535000000003
 21
57.477809000000001
 72
     1
 10
-96.355535000000003
 20
57.477809000000001
 11
-93.555443999999994
 21
57.477809000000001
 97
        5
330
0
330
0
330
0
330
0
330
0
 75
     0
 76
     0
 52
45.0
 41
1.0
 77
     0
 78
     1
 53
45.0
 43
0.0
 44
0.0
 45
-0.282843
 46
0.282843
 79
     0
 98
        1
 10
0.0
 20
0.0
  0
HATCH
  5
3A2
100
AcDbEntity
  8
3
370
    25
100
AcDbHatch
 10
0.0
 20
0.0
 30
0.0
210
0.0
220
0.0
230
1.0
  2
_U
 70
     0
 71
     1
 91
        1
 92
        1
 93
        5
 72
     2
 10
-93.992958000000002
 20
56.467506
 40
0.437514
 50
0.0
 51
82.0
 73
     1
 72
     1
 10
-93.932068000000001
 20
56.900762999999998
 11
-96.355535000000003
 21
57.241359000000003
 72
     1
 10
-96.355535000000003
 20
57.241359000000003
 11
-96.355535000000003
 21
56.357731000000001
 72
     1
 10
-96.355535000000003
 20
56.357731000000001
 11
-93.555443999999994
 21
55.964204000000002
 72
     1
 10
-93.555443999999994
 20
55.964204000000002
 11
-93.555443999999994
 21
56.467506
 97
        5
330
0
330
0
330
0
330
0
330
0
 75
     0
 76
     0
 52
45.0
 41
1.0
 77
     0
 78
     1
 53
45.0
 43
0.0
 44
0.0
 45
-0.282843
 46
0.282843
 79
     0
 98
        1
 10
0.0
 20
0.0
  0
HATCH
  5
3A3
100
AcDbEntity
  8
3
370
    25
100
AcDbHatch
 10
0.0
 20
0.0
 30
0.0
210
0.0
220
0.0
230
1.0
  2
_U
 70
     0
 71
     1
 91
        1
 92
        1
 93
        5
 72
     2
 10
-93.992958000000002
 20
55.290239
 40
0.437514
 50
0.0
 51
90.0
 73
     1
 72
     1
 10
-93.992958000000002
 20
55.727753
 11
-96.355535000000003
 21
55.727753
 72
     1
 10
-96.355535000000003
 20
55.727753
 11
-96.355535000000003
 21
54.852725
 72
     1
 10
-96.355535000000003
 20
54.852725
 11
-93.555443999999994
 21
54.852725
 72
     1
 10
-93.555443999999994
 20
54.852725
 11
-93.555443999999994
 21
55.290239
 97
        5
330
0
330
0
330
0
330
0
330
0
 75
     0
 76
     0
 52
45.0
 41
1.0
 77
     0
 78
     1
 53
45.0
 43
0.0
 44
0.0
 45
-0.282843
 46
0.282843
 79
     0
 98
        1
 10
0.0
 20
0.0
  0
LINE
  5
3A4
100
AcDbEntity
  8
3
370
    25
100
AcDbLine
 10
-91.455377
 20
57.477809
 30
0.0
 11
-90.708493
 21
58.224693
 31
0.0
  0
LINE
  5
3A5
100
AcDbEntity
  8
3
370
    25
100
AcDbLine
 10
-93.11793
 20
55.24957
 30
0.0
 11
-92.639748
 21
55.727753
 31
0.0
  0
LINE
  5
3A6
100
AcDbEntity
  8
3
370
    25
100
AcDbLine
 10
-91.455377
 20
56.912124
 30
0.0
 11
-90.580348
 21
57.787152
 31
0.0
  0
LINE
  5
3A7
100
AcDbEntity
  8
3
370
    25
100
AcDbLine
 10
-92.94909
 20
54.852725
 30
0.0
 11
-91.816317
 21
55.985498
 31
0.0
  0
LINE
  5
3A8
100
AcDbEntity
  8
3
370
    25
100
AcDbLine
 10
-91.713122
 20
56.088693
 30
0.0
 11
-90.580348
 21
57.221467
 31
0.0
  0
LINE
  5
3A9
100
AcDbEntity
  8
3
370
    25
100
AcDbLine
 10
-92.379268
 20
54.856862
 30
0.0
 11
-90.584486
 21
56.651644
 31
0.0
  0
LINE
  5
3AA
100
AcDbEntity
  8
3
370
    25
100
AcDbLine
 10
-91.581542
 20
55.088902
 30
0.0
 11
-90.523511
 21
56.146933
 31
0.0
  0
LINE
  5
3AB
100
AcDbEntity
  8
3
370
    25
100
AcDbLine
 10
-90.815814
 20
55.288944
 30
0.0
 11
-90.17161
 21
55.933149
 31
0.0
  0
LINE
  5
3AC
100
AcDbEntity
  8
3
370
    25
100
AcDbLine
 10
-90.443346
 20
55.095728
 30
0.0
 11
-89.754474
 21
55.7846
 31
0.0
  0
LINE
  5
3AD
100
AcDbEntity
  8
3
370
    25
100
AcDbLine
 10
-90.023088
 20
54.9503
 30
0.0
 11
-89.247187
 21
55.726201
 31
0.0
  0
LINE
  5
3AE
100
AcDbEntity
  8
3
370
    25
100
AcDbLine
 10
-89.542932
 20
54.864771
 30
0.0
 11
-89.180303
 21
55.227399
 31
0.0
  0
LINE
  5
3AF
100
AcDbEntity
  8
3
370
    25
100
AcDbLine
 10
-91.146034
 20
58.352838
 30
0.0
 11
-92.021062
 21
57.477809
 31
0.0
  0
LINE
  5
3B0
100
AcDbEntity
  8
3
370
    25
100
AcDbLine
 10
-91.711719
 20
58.352838
 30
0.0
 11
-92.586747
 21
57.477809
 31
0.0
  0
LINE
  5
3B1
100
AcDbEntity
  8
3
370
    25
100
AcDbLine
 10
-92.277405
 20
58.352838
 30
0.0
 11
-92.680416
 21
57.949826
 31
0.0
  0
HATCH
  5
3B2
100
AcDbEntity
  8
3
370
    25
100
AcDbHatch
 10
0.0
 20
0.0
 30
0.0
210
0.0
220
0.0
230
1.0
  2
_U
 70
     0
 71
     1
 91
        1
 92
        1
 93
        1
 72
     2
 10
-90.317840000000004
 20
58.090328999999997
 40
0.262508
 50
0.0
 51
360.0
 73
     1
 97
        1
330
0
 75
     0
 76
     0
 52
45.0
 41
1.0
 77
     0
 78
     1
 53
45.0
 43
0.0
 44
0.0
 45
-0.282843
 46
0.282843
 79
     0
 98
        1
 10
0.0
 20
0.0
  0
HATCH
  5
3B3
100
AcDbEntity
  8
3
370
    25
100
AcDbHatch
 10
0.0
 20
0.0
 30
0.0
210
0.0
220
0.0
230
1.0
  2
_U
 70
     0
 71
     1
 91
        1
 92
        1
 93
        1
 72
     2
 10
-89.792822999999999
 20
58.090328999999997
 40
0.262508
 50
0.0
 51
360.0
 73
     1
 97
        1
330
0
 75
     0
 76
     0
 52
45.0
 41
1.0
 77
     0
 78
     1
 53
45.0
 43
0.0
 44
0.0
 45
-0.282843
 46
0.282843
 79
     0
 98
        1
 10
0.0
 20
0.0
  0
LINE
  5
3B4
100
AcDbEntity
  8
3
370
    25
100
AcDbLine
 10
-84.980167
 20
57.477809
 30
0.0
 11
-84.233284
 21
58.224693
 31
0.0
  0
LINE
  5
3B5
100
AcDbEntity
  8
3
370
    25
100
AcDbLine
 10
-84.414482
 20
57.477809
 30
0.0
 11
-84.105139
 21
57.787152
 31
0.0
  0
LINE
  5
3B6
100
AcDbEntity
  8
3
370
    25
100
AcDbLine
 10
-84.670825
 20
58.352838
 30
0.0
 11
-85.545853
 21
57.477809
 31
0.0
  0
LINE
  5
3B7
100
AcDbEntity
  8
3
370
    25
100
AcDbLine
 10
-85.23651
 20
58.352838
 30
0.0
 11
-86.111538
 21
57.477809
 31
0.0
  0
LINE
  5
3B8
100
AcDbEntity
  8
3
370
    25
100
AcDbLine
 10
-85.802196
 20
58.352838
 30
0.0
 11
-86.205207
 21
57.949826
 31
0.0
  0
HATCH
  5
3B9
100
AcDbEntity
  8
3
370
    25
100
AcDbHatch
 10
0.0
 20
0.0
 30
0.0
210
0.0
220
0.0
230
1.0
  2
_U
 70
     0
 71
     1
 91
        1
 92
        1
 93
        5
 72
     2
 10
-84.542653000000001
 20
55.290239
 40
0.437514
 50
0.0
 51
90.0
 73
     1
 72
     1
 10
-84.542653000000001
 20
55.727753
 11
-86.205207000000001
 21
55.727753
 72
     1
 10
-86.205207000000001
 20
55.727753
 11
-86.205207000000001
 21
54.852725
 72
     1
 10
-86.205207000000001
 20
54.852725
 11
-84.105138999999994
 21
54.852725
 72
     1
 10
-84.105138999999994
 20
54.852725
 11
-84.105138999999994
 21
55.290239
 97
        5
330
0
330
0
330
0
330
0
330
0
 75
     0
 76
     0
 52
45.0
 41
1.0
 77
     0
 78
     1
 53
45.0
 43
0.0
 44
0.0
 45
-0.282843
 46
0.282843
 79
     0
 98
        1
 10
0.0
 20
0.0
  0
LINE
  5
3BA
100
AcDbEntity
  8
3
370
    25
100
AcDbLine
 10
-88.042766
 20
56.952792
 30
0.0
 11
-87.867761
 21
57.127798
 31
0.0
  0
LINE
  5
3BB
100
AcDbEntity
  8
3
370
    25
100
AcDbLine
 10
-87.517749
 20
57.477809
 30
0.0
 11
-86.770866
 21
58.224693
 31
0.0
  0
LINE
  5
3BC
100
AcDbEntity
  8
3
370
    25
100
AcDbLine
 10
-88.742789
 20
55.687084
 30
0.0
 11
-88.70212
 21
55.727753
 31
0.0
  0
LINE
  5
3BD
100
AcDbEntity
  8
3
370
    25
100
AcDbLine
 10
-88.042766
 20
56.387107
 30
0.0
 11
-86.642721
 21
57.787152
 31
0.0
  0
LINE
  5
3BE
100
AcDbEntity
  8
3
370
    25
100
AcDbLine
 10
-88.742789
 20
55.121399
 30
0.0
 11
-87.87869
 21
55.985498
 31
0.0
  0
LINE
  5
3BF
100
AcDbEntity
  8
3
370
    25
100
AcDbLine
 10
-87.775494
 20
56.088693
 30
0.0
 11
-86.642721
 21
57.221467
 31
0.0
  0
LINE
  5
3C0
100
AcDbEntity
  8
3
370
    25
100
AcDbLine
 10
-88.441641
 20
54.856862
 30
0.0
 11
-86.646858
 21
56.651644
 31
0.0
  0
LINE
  5
3C1
100
AcDbEntity
  8
3
370
    25
100
AcDbLine
 10
-87.643915
 20
55.088902
 30
0.0
 11
-86.878899
 21
55.853919
 31
0.0
  0
LINE
  5
3C2
100
AcDbEntity
  8
3
370
    25
100
AcDbLine
 10
-88.608452
 20
56.952792
 30
0.0
 11
-88.448173
 21
57.113072
 31
0.0
  0
LINE
  5
3C3
100
AcDbEntity
  8
3
370
    25
100
AcDbLine
 10
-88.083435
 20
57.477809
 30
0.0
 11
-87.208407
 21
58.352838
 31
0.0
  0
LINE
  5
3C4
100
AcDbEntity
  8
3
370
    25
100
AcDbLine
 10
-89.174137
 20
56.952792
 30
0.0
 11
-87.774092
 21
58.352838
 31
0.0
  0
LINE
  5
3C5
100
AcDbEntity
  8
3
370
    25
100
AcDbLine
 10
-89.293313
 20
57.399302
 30
0.0
 11
-88.339777
 21
58.352838
 31
0.0
  0
ARC
  5
3C6
100
AcDbEntity
  8
3
370
    50
100
AcDbCircle
 10
-105.805716
 20
58.352838
 30
0.0
 40
1.000032
100
AcDbArc
 50
90.0
 51
180.0
  0
ARC
  5
3C7
100
AcDbEntity
  8
3
370
    50
100
AcDbCircle
 10
-105.805716
 20
54.852725
 30
0.0
 40
1.000032
100
AcDbArc
 50
180.0
 51
270.0
  0
ARC
  5
3C8
100
AcDbEntity
  8
3
370
    50
100
AcDbCircle
 10
-81.804941
 20
58.352838
 30
0.0
 40
1.000032
100
AcDbArc
 50
0.0
 51
90.0
  0
ARC
  5
3C9
100
AcDbEntity
  8
3
370
    50
100
AcDbCircle
 10
-81.804941
 20
54.852725
 30
0.0
 40
1.000032
100
AcDbArc
 50
270.0
 51
360.0
  0
TEXT
  5
3CA
100
AcDbEntity
  8
3
370
    50
100
AcDbText
 10
-105.616341
 20
59.568667
 30
0.0
 40
12.0
  1
△
 72
     5
 11
-96.016341
 21
59.568667
 31
0.0
100
AcDbText
  0
TEXT
  5
3CB
100
AcDbEntity
  8
3
370
    50
100
AcDbText
 10
-101.622108
 20
62.052607
 30
0.0
 40
4.0
  1
１
 72
     5
 11
-98.422108
 21
62.052607
 31
0.0
100
AcDbText
  0
TEXT
  5
3CC
100
AcDbEntity
  8
3
370
    50
100
AcDbText
 10
-93.857849
 20
59.362467
 30
0.0
 40
12.0
  1
△
 72
     5
 11
-84.257849
 21
59.362467
 31
0.0
100
AcDbText
  0
TEXT
  5
3CD
100
AcDbEntity
  8
3
370
    50
100
AcDbText
 10
-89.863617
 20
61.846407
 30
0.0
 40
4.0
  1
２
 72
     5
 11
-86.663617
 21
61.846407
 31
0.0
100
AcDbText
  0
TEXT
  5
3CE
100
AcDbEntity
  8
3
370
    50
100
AcDbText
 10
345.098131
 20
-256.100293
 30
0.0
 40
6.0
  1
０１　　１　１９
 72
     5
 11
391.898131
 21
-256.100293
 31
0.0
100
AcDbText
  0
ENDSEC
  0
SECTION
  2
OBJECTS
  0
DICTIONARY
  5
473
100
AcDbDictionary
280
     0
281
     1
  3
ACAD_GROUP
350
474
  3
ACAD_MLINESTYLE
350
475
  0
DICTIONARY
  5
474
102
{ACAD_REACTORS
330
473
102
}
100
AcDbDictionary
280
     0
281
     1
  0
DICTIONARY
  5
475
102
{ACAD_REACTORS
330
473
102
}
100
AcDbDictionary
280
     0
281
     1
  3
Standard
350
476
  0
MLINESTYLE
  5
476
102
{ACAD_REACTORS
330
475
102
}
100
AcDbMlineStyle
  2
Standard
 70
     0
  3

 62
     0
 51
90.0
 52
90.0
 71
     2
 49
0.5
 62
   256
  6
ByLayer
 49
-0.5
 62
   256
  6
ByLayer
  0
ENDSEC
  0
EOF
