  0
SECTION
  2
HEADER
  9
$ACADVER
  1
AC1015
  9
$ACADMAINTVER
 70
     6
  9
$DWGCODEPAGE
  3
ANSI_932
  9
$INSBASE
 10
0.0
 20
0.0
 30
0.0
  9
$EXTMIN
 10
-420.5
 20
-297.0
 30
1.000000E+20
  9
$EXTMAX
 10
420.5
 20
297.0
 30
-1.000000E+20
  9
$LIMMIN
 10
-420.5
 20
-297.0
  9
$LIMMAX
 10
420.5
 20
297.0
  9
$ORTHOMODE
 70
     0
  9
$REGENMODE
 70
     1
  9
$FILLMODE
 70
     1
  9
$QTEXTMODE
 70
     0
  9
$MIRRTEXT
 70
     1
  9
$LTSCALE
 40
1.0
  9
$ATTMODE
 70
     1
  9
$TEXTSIZE
 40
0.2
  9
$TRACEWID
 40
0.05
  9
$TEXTSTYLE
  7
STANDARD
  9
$CLAYER
  8
0
  9
$CELTYPE
  6
CONTINUOUS
  9
$CECOLOR
 62
   256
  9
$CELTSCALE
 40
1.0
  9
$DISPSILH
 70
     0
  9
$DIMSCALE
 40
1.0
  9
$DIMASZ
 40
2.0
  9
$DIMEXO
 40
1.0
  9
$DIMDLI
 40
0.38
  9
$DIMRND
 40
0.0
  9
$DIMDLE
 40
0.0
  9
$DIMEXE
 40
2.0
  9
$DIMTP
 40
0.0
  9
$DIMTM
 40
0.0
  9
$DIMTXT
 40
3.5
  9
$DIMCEN
 40
0.09
  9
$DIMTSZ
 40
0.0
  9
$DIMTOL
 70
     0
  9
$DIMLIM
 70
     0
  9
$DIMTIH
 70
     0
  9
$DIMTOH
 70
     0
  9
$DIMSE1
 70
     0
  9
$DIMSE2
 70
     0
  9
$DIMTAD
 70
     1
  9
$DIMZIN
 70
     0
  9
$DIMBLK
  1

  9
$DIMASO
 70
     1
  9
$DIMSHO
 70
     1
  9
$DIMPOST
  1

  9
$DIMAPOST
  1

  9
$DIMALT
 70
     0
  9
$DIMALTD
 70
     2
  9
$DIMALTF
 40
25.4
  9
$DIMLFAC
 40
1.0
  9
$DIMTOFL
 70
     0
  9
$DIMTVP
 40
0.0
  9
$DIMTIX
 70
     0
  9
$DIMSOXD
 70
     0
  9
$DIMSAH
 70
     0
  9
$DIMBLK1
  1

  9
$DIMBLK2
  1

  9
$DIMSTYLE
  2
Standard
  9
$DIMCLRD
 70
     0
  9
$DIMCLRE
 70
     0
  9
$DIMCLRT
 70
     0
  9
$DIMTFAC
 40
1.0
  9
$DIMGAP
 40
0.5
  9
$DIMJUST
 70
     0
  9
$DIMSD1
 70
     0
  9
$DIMSD2
 70
     0
  9
$DIMTOLJ
 70
     1
  9
$DIMTZIN
 70
     0
  9
$DIMALTZ
 70
     0
  9
$DIMALTTZ
 70
     0
  9
$DIMUPT
 70
     0
  9
$DIMDEC
 70
     3
  9
$DIMTDEC
 70
     4
  9
$DIMALTU
 70
     2
  9
$DIMALTTD
 70
     2
  9
$DIMTXSTY
  7
STANDARD
  9
$DIMAUNIT
 70
     0
  9
$DIMADEC
 70
     0
  9
$DIMALTRND
 40
0.0
  9
$DIMAZIN
 70
     0
  9
$DIMDSEP
 70
     0
  9
$DIMATFIT
 70
     3
  9
$DIMFRAC
 70
     0
  9
$DIMLDRBLK
  1

  9
$DIMLUNIT
 70
     2
  9
$DIMLWD
 70
     0
  9
$DIMLWE
 70
     0
  9
$DIMTMOVE
 70
     0
  9
$LUNITS
 70
     2
  9
$LUPREC
 70
     4
  9
$SKETCHINC
 40
0.1
  9
$FILLETRAD
 40
0.0
  9
$AUNITS
 70
     0
  9
$AUPREC
 70
     0
  9
$MENU
  1
acad
  9
$ELEVATION
 40
0.0
  9
$PELEVATION
 40
0.0
  9
$THICKNESS
 40
0.0
  9
$LIMCHECK
 70
     0
  9
$CHAMFERA
 40
0.0
  9
$CHAMFERB
 40
0.0
  9
$CHAMFERC
 40
0.0
  9
$CHAMFERD
 40
0.0
  9
$SKPOLY
 70
     0
  9
$TDCREATE
 40
2453383.000000000
  9
$TDUCREATE
 40
0.000000000
  9
$TDUPDATE
 40
0.000000000
  9
$TDUUPDATE
 40
2447892.625000000
  9
$TDINDWG
 40
0.0000000000
  9
$TDUSRTIMER
 40
0.0000000000
  9
$USRTIMER
 70
     1
  9
$ANGBASE
 50
0.0
  9
$ANGDIR
 70
     0
  9
$PDMODE
 70
     0
  9
$PDSIZE
 40
0.0
  9
$PLINEWID
 40
0.0
  9
$SPLFRAME
 70
     0
  9
$SPLINETYPE
 70
     6
  9
$SPLINESEGS
 70
     8
  9
$HANDSEED
  5
215
  9
$SURFTAB1
 70
     6
  9
$SURFTAB2
 70
     6
  9
$SURFTYPE
 70
     6
  9
$SURFU
 70
     6
  9
$SURFV
 70
     6
  9
$UCSBASE
  2

  9
$UCSNAME
  2

  9
$UCSORG
 10
0.0
 20
0.0
 30
0.0
  9
$UCSXDIR
 10
1.0
 20
0.0
 30
0.0
  9
$UCSYDIR
 10
0.0
 20
1.0
 30
0.0
  9
$UCSORTHOREF
  2

  9
$UCSORTHOVIEW
 70
     0
  9
$UCSORGTOP
 10
0.0
 20
0.0
 30
0.0
  9
$UCSORGBOTTOM
 10
0.0
 20
0.0
 30
0.0
  9
$UCSORGLEFT
 10
0.0
 20
0.0
 30
0.0
  9
$UCSORGRIGHT
 10
0.0
 20
0.0
 30
0.0
  9
$UCSORGFRONT
 10
0.0
 20
0.0
 30
0.0
  9
$UCSORGBACK
 10
0.0
 20
0.0
 30
0.0
  9
$PUCSBASE
  2

  9
$PUCSNAME
  2

  9
$PUCSORG
 10
0.0
 20
0.0
 30
0.0
  9
$PUCSXDIR
 10
1.0
 20
0.0
 30
0.0
  9
$PUCSYDIR
 10
0.0
 20
1.0
 30
0.0
  9
$PUCSORTHOREF
  2

  9
$PUCSORTHOVIEW
 70
     0
  9
$PUCSORGTOP
 10
0.0
 20
0.0
 30
0.0
  9
$PUCSORGBOTTOM
 10
0.0
 20
0.0
 30
0.0
  9
$PUCSORGLEFT
 10
0.0
 20
0.0
 30
0.0
  9
$PUCSORGRIGHT
 10
0.0
 20
0.0
 30
0.0
  9
$PUCSORGFRONT
 10
0.0
 20
0.0
 30
0.0
  9
$PUCSORGBACK
 10
0.0
 20
0.0
 30
0.0
  9
$USERI1
 70
     0
  9
$USERI2
 70
     0
  9
$USERI3
 70
     0
  9
$USERI4
 70
     0
  9
$USERI5
 70
     0
  9
$USERR1
 40
0.0
  9
$USERR2
 40
0.0
  9
$USERR3
 40
0.0
  9
$USERR4
 40
0.0
  9
$USERR5
 40
0.0
  9
$WORLDVIEW
 70
     1
  9
$SHADEDGE
 70
     3
  9
$SHADEDIF
 70
    70
  9
$TILEMODE
 70
     1
  9
$MAXACTVP
 70
    16
  9
$PINSBASE
 10
0.0
 20
0.0
 30
0.0
  9
$PLIMCHECK
 70
     0
  9
$PEXTMIN
 10
1.000000E+20
 20
1.000000E+20
 30
1.000000E+20
  9
$PEXTMAX
 10
-1.000000E+20
 20
-1.000000E+20
 30
-1.000000E+20
  9
$PLIMMIN
 10
0.0
 20
0.0
  9
$PLIMMAX
 10
12.0
 20
9.0
  9
$UNITMODE
 70
     0
  9
$VISRETAIN
 70
     0
  9
$PLINEGEN
 70
     1
  9
$PSLTSCALE
 70
     0
  9
$TREEDEPTH
 70
  3020
  9
$CMLSTYLE
  2
Standard
  9
$CMLJUST
 70
     0
  9
$CMLSCALE
 40
1.0
  9
$PROXYGRAPHICS
 70
     0
  9
$MEASUREMENT
 70
     0
  9
$CELWEIGHT
370
     0
  9
$ENDCAPS
280
     0
  9
$JOINSTYLE
280
     0
  9
$LWDISPLAY
290
     0
  9
$INSUNITS
 70
     0
  9
$HYPERLINKBASE
  1

  9
$STYLESHEET
  1

  9
$XEDIT
290
     1
  9
$CEPSNTYPE
380
     0
  9
$PSTYLEMODE
290
     1
  9
$FINGERPRINTGUID
  2

  9
$VERSIONGUID
  2

  9
$EXTNAMES
290
     1
  9
$PSVPSCALE
 40
0.0
  0
ENDSEC
  0
SECTION
  2
CLASSES
  0
CLASS
  1
LWPOLYLINE
  2
AcDbPolyline
  3
AutoCAD 2000
 90
        0
280
     0
281
     1
  0
CLASS
  1
IMAGE
  2
AcDbRasterImage
  3
ISM
 90
      127
280
     0
281
     1
  0
CLASS
  1
OLE2FRAME
  2
AcDbOle2Frame
  3
AutoCAD 2000
 90
        0
280
     0
281
     1
  0
CLASS
  1
HATCH
  2
AcDbHatch
  3
AutoCAD 2000
 90
        0
280
     0
281
     1
  0
CLASS
  1
DICTIONARYVAR
  2
AcDbDictionaryVar
  3
AutoCAD 2000
 90
        0
280
     0
281
     0
  0
CLASS
  1
RASTERVARIABLES
  2
AcDbRasterVariables
  3
ISM
 90
        0
280
     0
281
     0
  0
CLASS
  1
IMAGEDEF
  2
AcDbRasterImageDef
  3
ISM
 90
        0
280
     0
281
     0
  0
CLASS
  1
IMAGEDEF_REACTOR
  2
AcDbRasterImageDefReactor
  3
ISM
 90
        1
280
     0
281
     0
  0
CLASS
  1
IDBUFFER
  2
AcDbIdBuffer
  3
AutoCAD 2000
 90
        0
280
     0
281
     0
  0
CLASS
  1
SPATIAL_FILTER
  2
AcDbSpatialFilter
  3
AutoCAD 2000
 90
        0
280
     0
281
     0
  0
CLASS
  1
XRECORD
  2
AcDbXrecord
  3
AutoCAD 2000
 90
        0
280
     0
281
     0
  0
CLASS
  1
SORTENTSTABLE
  2
AcDbSortentsTable
  3
AutoCAD 2000
 90
        0
280
     0
281
     0
  0
CLASS
  1
LAYER_INDEX
  2
AcDbLayerIndex
  3
AutoCAD 2000
 90
        0
280
     0
281
     0
  0
CLASS
  1
SPATIAL_INDEX
  2
AcDbSpatialIndex
  3
AutoCAD 2000
 90
        0
280
     0
281
     0
  0
CLASS
  1
OBJECT_PTR
  2
CAseDLPNTableRecord
  3
"ASE-LPNTableRecord"
 90
        1
280
     0
281
     0
  0
CLASS
  1
LAYOUT
  2
AcDbLayout
  3
AutoCAD 2000
 90
        0
280
     0
281
     0
  0
CLASS
  1
PLOTSETTINGS
  2
AcDbPlotSettings
  3
AutoCAD 2000
 90
        0
280
     0
281
     0
  0
CLASS
  1
ACDBDICTIONARYWDFLT
  2
AcDbDictionaryWithDefault
  3
AutoCAD 2000
 90
        0
280
     0
281
     0
  0
CLASS
  1
ACDBPLACEHOLDER
  2
AcDbPlaceHolder
  3
AutoCAD 2000
 90
        0
280
     0
281
     0
  0
CLASS
  1
VBA_PROJECT
  2
AcDbVbaProject
  3
acadvba
 90
        0
280
     0
281
     0
  0
CLASS
  1
WIPEOUT
  2
AcDbWipeout
  3
WipeOut|AutoCAD Express Tool|expresstools@autodesk.com
 90
      127
280
     0
281
     1
  0
CLASS
  1
WIPEOUTVARIABLES
  2
AcDbWipeoutVariables
  3
WipeOut|AutoCAD Express Tool|expresstools@autodesk.com
 90
        0
280
     0
281
     0
  0
CLASS
  1
RTEXT
  2
RText
  3
RText|AutoCAD Express Tool|expresstools@autodesk.com
 90
        0
280
     0
281
     1
  0
CLASS
  1
ARCALIGNEDTEXT
  2
AcDbArcAlignedText
  3
ATEXT|AutoCAD Express Tool|expresstools@autodesk.com
 90
        0
280
     0
281
     1
  0
ENDSEC
  0
SECTION
  2
TABLES
  0
TABLE
  2
VPORT
  5
6
100
AcDbSymbolTable
 70
     1
  0
VPORT
  5
19
100
AcDbSymbolTableRecord
100
AcDbViewportTableRecord
  2
*ACTIVE
 70
     0
 10
0.0
 20
0.0
 11
1.0
 21
1.0
 12
0.0
 22
0.0
 13
0.0
 23
0.0
 14
1.0
 24
1.0
 15
0.0
 25
0.0
 16
0.0
 26
0.0
 36
1.0
 17
0.0
 27
0.0
 37
0.0
 40
594.0
 41
1.415825
 42
50.0
 43
0.0
 44
0.0
 50
0.0
 51
0.0
 71
     0
 72
   500
 73
     1
 74
     1
 75
     0
 76
     0
 77
     0
 78
     0
281
     0
 65
     0
110
0.0
120
0.0
130
0.0
111
1.0
121
0.0
131
0.0
112
0.0
122
1.0
132
0.0
345
0
346
0
 79
     0
146
0.0
  0
ENDTAB
  0
TABLE
  2
LTYPE
  5
3
100
AcDbSymbolTable
 70
     9
  0
LTYPE
  5
C
100
AcDbSymbolTableRecord
100
AcDbLinetypeTableRecord
  2
ByBlock
 70
    64
  3

 72
    65
 73
     0
 40
0.0
  0
LTYPE
  5
D
100
AcDbSymbolTableRecord
100
AcDbLinetypeTableRecord
  2
ByLayer
 70
    64
  3

 72
    65
 73
     0
 40
0.0
  0
LTYPE
  5
E
100
AcDbSymbolTableRecord
100
AcDbLinetypeTableRecord
  2
CONTINUOUS
 70
     0
  3
Solid line
 72
    65
 73
     0
 40
0.0
  0
LTYPE
  5
F
100
AcDbSymbolTableRecord
100
AcDbLinetypeTableRecord
  2
DASHED
 70
     0
  3
__ __ __ __ __ __ __ __ __ __ __ __ __ __ __
 72
    65
 73
     2
 40
2.0
 49
1.2
 74
     0
 49
-0.8
 74
     0
  0
LTYPE
  5
10
100
AcDbSymbolTableRecord
100
AcDbLinetypeTableRecord
  2
CENTER
 70
     0
  3
____ _ ____ _ ____ _ ____ _ ____ _ ____ _ ____
 72
    65
 73
     4
 40
12.0
 49
9.0
 74
     0
 49
-1.0
 74
     0
 49
1.0
 74
     0
 49
-1.0
 74
     0
  0
LTYPE
  5
11
100
AcDbSymbolTableRecord
100
AcDbLinetypeTableRecord
  2
HIDDEN
 70
     0
  3
_ _ _ _ _ _ _ _ _ _ _ _ _ _ _ _ _ _ _ _ _ _ _
 72
    65
 73
     2
 40
3.2
 49
2.4
 74
     0
 49
-0.8
 74
     0
  0
LTYPE
  5
12
100
AcDbSymbolTableRecord
100
AcDbLinetypeTableRecord
  2
PHANTOM
 70
     0
  3
_____ _ _ _____ _ _ _____ _ _ _____ _ _ _____
 72
    65
 73
     6
 40
13.5
 49
9.0
 74
     0
 49
-1.0
 74
     0
 49
1.0
 74
     0
 49
-0.5
 74
     0
 49
1.0
 74
     0
 49
-1.0
 74
     0
  0
LTYPE
  5
13
100
AcDbSymbolTableRecord
100
AcDbLinetypeTableRecord
  2
DOT
 70
     0
  3
...............................................
 72
    65
 73
     2
 40
1.0
 49
0.5
 74
     0
 49
-0.5
 74
     0
  0
LTYPE
  5
14
100
AcDbSymbolTableRecord
100
AcDbLinetypeTableRecord
  2
DASHDOT
 70
     0
  3
__ . __ . __ . __ . __ . __ . __ . __ . __ . __
 72
    65
 73
     4
 40
8.0
 49
5.0
 74
     0
 49
-1.0
 74
     0
 49
1.0
 74
     0
 49
-1.0
 74
     0
  0
ENDTAB
  0
TABLE
  2
LAYER
  5
1
100
AcDbSymbolTable
 70
     4
  0
LAYER
  5
15
100
AcDbSymbolTableRecord
100
AcDbLayerTableRecord
  2
0
 70
     0
 62
     7
  6
CONTINUOUS
290
     1
370
    -3
390
0
  0
LAYER
  5
16
100
AcDbSymbolTableRecord
100
AcDbLayerTableRecord
  2
1
 70
     0
 62
     7
  6
CONTINUOUS
290
     1
370
    -3
390
0
  0
LAYER
  5
17
100
AcDbSymbolTableRecord
100
AcDbLayerTableRecord
  2
2
 70
     0
 62
     7
  6
CONTINUOUS
290
     1
370
    -3
390
0
  0
LAYER
  5
18
100
AcDbSymbolTableRecord
100
AcDbLayerTableRecord
  2
3
 70
     0
 62
     7
  6
CONTINUOUS
290
     1
370
    -3
390
0
  0
ENDTAB
  0
TABLE
  2
STYLE
  5
2
100
AcDbSymbolTable
 70
     1
  0
STYLE
  5
1B
100
AcDbSymbolTableRecord
100
AcDbTextStyleTableRecord
  2
STANDARD
 70
    64
 40
0.0
 41
1.0
 50
0.0
 71
     0
 42
1.0
  3
txt
  4
BIGFONT
  0
ENDTAB
  0
TABLE
  2
VIEW
  5
4
100
AcDbSymbolTable
 70
     0
  0
ENDTAB
  0
TABLE
  2
UCS
  5
5
100
AcDbSymbolTable
 70
     0
  0
ENDTAB
  0
TABLE
  2
APPID
  5
7
100
AcDbSymbolTable
 70
     1
  0
APPID
  5
1A
100
AcDbSymbolTableRecord
100
AcDbRegAppTableRecord
  2
ACAD
 70
     0
  0
ENDTAB
  0
TABLE
  2
DIMSTYLE
  5
8
100
AcDbSymbolTable
 70
     1
100
AcDbDimStyleTable
 71
     0
  0
DIMSTYLE
105
2B
100
AcDbSymbolTableRecord
100
AcDbDimStyleTableRecord
  2
Standard
 70
     0
  3

  4

 40
1.0
 41
2.0
 42
1.0
 43
0.38
 44
2.0
 45
0.0
 46
0.0
 47
0.0
 48
0.0
 71
     0
 72
     0
 73
     0
 74
     0
 75
     0
 76
     0
 77
     1
 78
     0
 79
     0
140
3.5
141
0.09
142
0.0
143
25.4
144
1.0
145
0.0
146
1.0
147
0.5
148
0.0
170
     0
171
     2
172
     0
173
     0
174
     0
175
     0
176
     0
177
     0
178
     0
179
     0
271
     3
272
     4
273
     2
274
     2
275
     0
276
     0
277
     2
278
    46
279
     0
280
     0
281
     0
282
     0
283
     1
284
     0
285
     0
286
     0
288
     0
289
     3
340
1B
341
0
342
0
343
0
344
0
371
    -2
372
    -2
  0
ENDTAB
  0
TABLE
  2
BLOCK_RECORD
  5
26
100
AcDbSymbolTable
 70
     8
  0
BLOCK_RECORD
  5
24
100
AcDbSymbolTableRecord
100
AcDbBlockTableRecord
  2
*Model_Space
340
0
  0
BLOCK_RECORD
  5
25
100
AcDbSymbolTableRecord
100
AcDbBlockTableRecord
  2
*Paper_Space
340
0
  0
BLOCK_RECORD
  5
1C
100
AcDbSymbolTableRecord
100
AcDbBlockTableRecord
  2
*D0
340
0
  0
BLOCK_RECORD
  5
1D
100
AcDbSymbolTableRecord
100
AcDbBlockTableRecord
  2
*D1
340
0
  0
BLOCK_RECORD
  5
1E
100
AcDbSymbolTableRecord
100
AcDbBlockTableRecord
  2
*D2
340
0
  0
BLOCK_RECORD
  5
1F
100
AcDbSymbolTableRecord
100
AcDbBlockTableRecord
  2
*D3
340
0
  0
BLOCK_RECORD
  5
20
100
AcDbSymbolTableRecord
100
AcDbBlockTableRecord
  2
*D4
340
0
  0
BLOCK_RECORD
  5
21
100
AcDbSymbolTableRecord
100
AcDbBlockTableRecord
  2
*D5
340
0
  0
BLOCK_RECORD
  5
22
100
AcDbSymbolTableRecord
100
AcDbBlockTableRecord
  2
*D6
340
0
  0
BLOCK_RECORD
  5
23
100
AcDbSymbolTableRecord
100
AcDbBlockTableRecord
  2
*D7
340
0
  0
ENDTAB
  0
ENDSEC
  0
SECTION
  2
BLOCKS
  0
BLOCK
  5
27
100
AcDbEntity
  8
0
390
0
100
AcDbBlockBegin
  2
*Model_Space
 70
     0
 10
0.0
 20
0.0
 30
0.0
  3
*Model_Space
  1

  0
ENDBLK
  5
28
100
AcDbEntity
  8
0
390
0
100
AcDbBlockEnd
  0
BLOCK
  5
29
100
AcDbEntity
 67
     1
  8
0
390
0
100
AcDbBlockBegin
  2
*Paper_Space
 70
     0
 10
0.0
 20
0.0
 30
0.0
  3
*Paper_Space
  1

  0
ENDBLK
  5
2A
100
AcDbEntity
 67
     1
  8
0
390
0
100
AcDbBlockEnd
  0
BLOCK
  5
1B0
100
AcDbEntity
  8
3
100
AcDbBlockBegin
  2
*D0
 70
     1
 10
0.0
 20
0.0
 30
0.0
  3
*D0
  1

  0
TEXT
  5
1B1
100
AcDbEntity
  8
3
370
    25
100
AcDbText
 10
-64.316589
 20
50.764324
 30
0.0
 40
3.5
  1
１４
 50
90.0
 72
     5
 11
-64.316589
 21
57.064324
 31
0.0
100
AcDbText
  0
LINE
  5
1B2
100
AcDbEntity
  8
3
370
    25
100
AcDbLine
 10
-45.0376
 20
47.264324
 30
0.0
 11
-64.816589
 21
47.264324
 31
0.0
  0
LINE
  5
1B3
100
AcDbEntity
  8
3
370
    25
100
AcDbLine
 10
-63.816589
 20
47.264324
 30
0.0
 11
-63.298951
 21
49.196176
 31
0.0
  0
LINE
  5
1B4
100
AcDbEntity
  8
3
370
    25
100
AcDbLine
 10
-63.816589
 20
47.264324
 30
0.0
 11
-64.334227
 21
49.196176
 31
0.0
  0
LINE
  5
1B5
100
AcDbEntity
  8
3
370
    25
100
AcDbLine
 10
-63.298951
 20
49.196176
 30
0.0
 11
-64.334227
 21
49.196176
 31
0.0
  0
LINE
  5
1B6
100
AcDbEntity
  8
3
370
    25
100
AcDbLine
 10
-63.816589
 20
47.264324
 30
0.0
 11
-63.816589
 21
61.264324
 31
0.0
  0
LINE
  5
1B7
100
AcDbEntity
  8
3
370
    25
100
AcDbLine
 10
-63.816589
 20
61.264324
 30
0.0
 11
-64.334227
 21
59.332473
 31
0.0
  0
LINE
  5
1B8
100
AcDbEntity
  8
3
370
    25
100
AcDbLine
 10
-63.816589
 20
61.264324
 30
0.0
 11
-63.298951
 21
59.332473
 31
0.0
  0
LINE
  5
1B9
100
AcDbEntity
  8
3
370
    25
100
AcDbLine
 10
-64.334227
 20
59.332473
 30
0.0
 11
-63.298951
 21
59.332473
 31
0.0
  0
LINE
  5
1BA
100
AcDbEntity
  8
3
370
    25
100
AcDbLine
 10
-43.389913
 20
61.264324
 30
0.0
 11
-64.816589
 21
61.264324
 31
0.0
  0
ENDBLK
  5
1BB
100
AcDbEntity
  8
3
100
AcDbBlockEnd
  0
BLOCK
  5
1BC
100
AcDbEntity
  8
3
100
AcDbBlockBegin
  2
*D1
 70
     1
 10
0.0
 20
0.0
 30
0.0
  3
*D1
  1

  0
TEXT
  5
1BD
100
AcDbEntity
  8
3
370
    25
100
AcDbText
 10
-75.246727
 20
68.764324
 30
0.0
 40
3.5
  1
５０
 50
90.0
 72
     5
 11
-75.246727
 21
75.064324
 31
0.0
100
AcDbText
  0
LINE
  5
1BE
100
AcDbEntity
  8
3
370
    25
100
AcDbLine
 10
-45.0376
 20
47.264324
 30
0.0
 11
-75.746727
 21
47.264324
 31
0.0
  0
LINE
  5
1BF
100
AcDbEntity
  8
3
370
    25
100
AcDbLine
 10
-74.746727
 20
47.264324
 30
0.0
 11
-74.229089
 21
49.196176
 31
0.0
  0
LINE
  5
1C0
100
AcDbEntity
  8
3
370
    25
100
AcDbLine
 10
-74.746727
 20
47.264324
 30
0.0
 11
-75.264365
 21
49.196176
 31
0.0
  0
LINE
  5
1C1
100
AcDbEntity
  8
3
370
    25
100
AcDbLine
 10
-74.229089
 20
49.196176
 30
0.0
 11
-75.264365
 21
49.196176
 31
0.0
  0
LINE
  5
1C2
100
AcDbEntity
  8
3
370
    25
100
AcDbLine
 10
-74.746727
 20
47.264324
 30
0.0
 11
-74.746727
 21
97.264324
 31
0.0
  0
LINE
  5
1C3
100
AcDbEntity
  8
3
370
    25
100
AcDbLine
 10
-74.746727
 20
97.264324
 30
0.0
 11
-75.264365
 21
95.332473
 31
0.0
  0
LINE
  5
1C4
100
AcDbEntity
  8
3
370
    25
100
AcDbLine
 10
-74.746727
 20
97.264324
 30
0.0
 11
-74.229089
 21
95.332473
 31
0.0
  0
LINE
  5
1C5
100
AcDbEntity
  8
3
370
    25
100
AcDbLine
 10
-75.264365
 20
95.332473
 30
0.0
 11
-74.229089
 21
95.332473
 31
0.0
  0
LINE
  5
1C6
100
AcDbEntity
  8
3
370
    25
100
AcDbLine
 10
-39.3531
 20
97.264324
 30
0.0
 11
-75.746727
 21
97.264324
 31
0.0
  0
ENDBLK
  5
1C7
100
AcDbEntity
  8
3
100
AcDbBlockEnd
  0
BLOCK
  5
1C8
100
AcDbEntity
  8
3
100
AcDbBlockBegin
  2
*D2
 70
     1
 10
0.0
 20
0.0
 30
0.0
  3
*D2
  1

  0
TEXT
  5
1C9
100
AcDbEntity
  8
3
370
    25
100
AcDbText
 10
-34.2876
 20
117.213272
 30
0.0
 40
3.5
  1
φ４６
 72
     5
 11
-24.4876
 21
117.213272
 31
0.0
100
AcDbText
  0
LINE
  5
1CA
100
AcDbEntity
  8
3
370
    25
100
AcDbLine
 10
-6.0376
 20
84.764324
 30
0.0
 11
-6.0376
 21
117.713272
 31
0.0
  0
LINE
  5
1CB
100
AcDbEntity
  8
3
370
    25
100
AcDbLine
 10
-6.0376
 20
116.713272
 30
0.0
 11
-7.969451
 21
117.23091
 31
0.0
  0
LINE
  5
1CC
100
AcDbEntity
  8
3
370
    25
100
AcDbLine
 10
-6.0376
 20
116.713272
 30
0.0
 11
-7.969451
 21
116.195634
 31
0.0
  0
LINE
  5
1CD
100
AcDbEntity
  8
3
370
    25
100
AcDbLine
 10
-7.969451
 20
117.23091
 30
0.0
 11
-7.969451
 21
116.195634
 31
0.0
  0
LINE
  5
1CE
100
AcDbEntity
  8
3
370
    25
100
AcDbLine
 10
-6.0376
 20
116.713272
 30
0.0
 11
-52.0376
 21
116.713272
 31
0.0
  0
LINE
  5
1CF
100
AcDbEntity
  8
3
370
    25
100
AcDbLine
 10
-52.0376
 20
116.713272
 30
0.0
 11
-50.105748
 21
116.195634
 31
0.0
  0
LINE
  5
1D0
100
AcDbEntity
  8
3
370
    25
100
AcDbLine
 10
-52.0376
 20
116.713272
 30
0.0
 11
-50.105748
 21
117.23091
 31
0.0
  0
LINE
  5
1D1
100
AcDbEntity
  8
3
370
    25
100
AcDbLine
 10
-50.105748
 20
116.195634
 30
0.0
 11
-50.105748
 21
117.23091
 31
0.0
  0
LINE
  5
1D2
100
AcDbEntity
  8
3
370
    25
100
AcDbLine
 10
-52.0376
 20
84.764324
 30
0.0
 11
-52.0376
 21
117.713272
 31
0.0
  0
ENDBLK
  5
1D3
100
AcDbEntity
  8
3
100
AcDbBlockEnd
  0
BLOCK
  5
1D4
100
AcDbEntity
  8
3
100
AcDbBlockBegin
  2
*D3
 70
     1
 10
0.0
 20
0.0
 30
0.0
  3
*D3
  1

  0
TEXT
  5
1D5
100
AcDbEntity
  8
3
370
    25
100
AcDbText
 10
-3.0376
 20
-24.357658
 30
0.0
 40
3.5
  1
５９
 72
     5
 11
3.2624
 21
-24.357658
 31
0.0
100
AcDbText
  0
LINE
  5
1D6
100
AcDbEntity
  8
3
370
    25
100
AcDbLine
 10
-29.0376
 20
-42.133789
 30
0.0
 11
-29.0376
 21
-23.857658
 31
0.0
  0
LINE
  5
1D7
100
AcDbEntity
  8
3
370
    25
100
AcDbLine
 10
-29.0376
 20
-24.857658
 30
0.0
 11
-27.105748
 21
-25.375296
 31
0.0
  0
LINE
  5
1D8
100
AcDbEntity
  8
3
370
    25
100
AcDbLine
 10
-29.0376
 20
-24.857658
 30
0.0
 11
-27.105748
 21
-24.34002
 31
0.0
  0
LINE
  5
1D9
100
AcDbEntity
  8
3
370
    25
100
AcDbLine
 10
-27.105748
 20
-25.375296
 30
0.0
 11
-27.105748
 21
-24.34002
 31
0.0
  0
LINE
  5
1DA
100
AcDbEntity
  8
3
370
    25
100
AcDbLine
 10
-29.0376
 20
-24.857658
 30
0.0
 11
29.9624
 21
-24.857658
 31
0.0
  0
LINE
  5
1DB
100
AcDbEntity
  8
3
370
    25
100
AcDbLine
 10
29.9624
 20
-24.857658
 30
0.0
 11
28.030549
 21
-24.34002
 31
0.0
  0
LINE
  5
1DC
100
AcDbEntity
  8
3
370
    25
100
AcDbLine
 10
29.9624
 20
-24.857658
 30
0.0
 11
28.030549
 21
-25.375296
 31
0.0
  0
LINE
  5
1DD
100
AcDbEntity
  8
3
370
    25
100
AcDbLine
 10
28.030549
 20
-24.34002
 30
0.0
 11
28.030549
 21
-25.375296
 31
0.0
  0
LINE
  5
1DE
100
AcDbEntity
  8
3
370
    25
100
AcDbLine
 10
29.9624
 20
-42.655983
 30
0.0
 11
29.9624
 21
-23.857658
 31
0.0
  0
ENDBLK
  5
1DF
100
AcDbEntity
  8
3
100
AcDbBlockEnd
  0
BLOCK
  5
1E0
100
AcDbEntity
  8
3
100
AcDbBlockBegin
  2
*D4
 70
     1
 10
0.0
 20
0.0
 30
0.0
  3
*D4
  1

  0
TEXT
  5
1E1
100
AcDbEntity
  8
3
370
    25
100
AcDbText
 10
42.2124
 20
108.590065
 30
0.0
 40
3.5
  1
１６．５
 72
     5
 11
55.5124
 21
108.590065
 31
0.0
100
AcDbText
  0
LINE
  5
1E2
100
AcDbEntity
  8
3
370
    25
100
AcDbLine
 10
40.9624
 20
98.043245
 30
0.0
 11
40.9624
 21
109.090065
 31
0.0
  0
LINE
  5
1E3
100
AcDbEntity
  8
3
370
    25
100
AcDbLine
 10
40.9624
 20
108.090065
 30
0.0
 11
42.894252
 21
107.572427
 31
0.0
  0
LINE
  5
1E4
100
AcDbEntity
  8
3
370
    25
100
AcDbLine
 10
40.9624
 20
108.090065
 30
0.0
 11
42.894252
 21
108.607703
 31
0.0
  0
LINE
  5
1E5
100
AcDbEntity
  8
3
370
    25
100
AcDbLine
 10
42.894252
 20
107.572427
 30
0.0
 11
42.894252
 21
108.607703
 31
0.0
  0
LINE
  5
1E6
100
AcDbEntity
  8
3
370
    25
100
AcDbLine
 10
40.9624
 20
108.090065
 30
0.0
 11
57.4624
 21
108.090065
 31
0.0
  0
LINE
  5
1E7
100
AcDbEntity
  8
3
370
    25
100
AcDbLine
 10
57.4624
 20
108.090065
 30
0.0
 11
55.530549
 21
108.607703
 31
0.0
  0
LINE
  5
1E8
100
AcDbEntity
  8
3
370
    25
100
AcDbLine
 10
57.4624
 20
108.090065
 30
0.0
 11
55.530549
 21
107.572427
 31
0.0
  0
LINE
  5
1E9
100
AcDbEntity
  8
3
370
    25
100
AcDbLine
 10
55.530549
 20
108.607703
 30
0.0
 11
55.530549
 21
107.572427
 31
0.0
  0
LINE
  5
1EA
100
AcDbEntity
  8
3
370
    25
100
AcDbLine
 10
57.4624
 20
71.579824
 30
0.0
 11
57.4624
 21
109.090065
 31
0.0
  0
ENDBLK
  5
1EB
100
AcDbEntity
  8
3
100
AcDbBlockEnd
  0
BLOCK
  5
1EC
100
AcDbEntity
  8
3
100
AcDbBlockBegin
  2
*D5
 70
     1
 10
0.0
 20
0.0
 30
0.0
  3
*D5
  1

  0
TEXT
  5
1ED
100
AcDbEntity
  8
3
370
    25
100
AcDbText
 10
91.258385
 20
25.460477
 30
0.0
 40
3.5
  1
６５
 50
90.0
 72
     5
 11
91.258385
 21
31.760477
 31
0.0
100
AcDbText
  0
LINE
  5
1EE
100
AcDbEntity
  8
3
370
    25
100
AcDbLine
 10
30.9624
 20
-3.343371
 30
0.0
 11
92.758385
 21
-3.343371
 31
0.0
  0
LINE
  5
1EF
100
AcDbEntity
  8
3
370
    25
100
AcDbLine
 10
91.758385
 20
-3.343371
 30
0.0
 11
92.276023
 21
-1.411519
 31
0.0
  0
LINE
  5
1F0
100
AcDbEntity
  8
3
370
    25
100
AcDbLine
 10
91.758385
 20
-3.343371
 30
0.0
 11
91.240747
 21
-1.411519
 31
0.0
  0
LINE
  5
1F1
100
AcDbEntity
  8
3
370
    25
100
AcDbLine
 10
92.276023
 20
-1.411519
 30
0.0
 11
91.240747
 21
-1.411519
 31
0.0
  0
LINE
  5
1F2
100
AcDbEntity
  8
3
370
    25
100
AcDbLine
 10
91.758385
 20
-3.343371
 30
0.0
 11
91.758385
 21
61.264324
 31
0.0
  0
LINE
  5
1F3
100
AcDbEntity
  8
3
370
    25
100
AcDbLine
 10
91.758385
 20
61.264324
 30
0.0
 11
91.240747
 21
59.332473
 31
0.0
  0
LINE
  5
1F4
100
AcDbEntity
  8
3
370
    25
100
AcDbLine
 10
91.758385
 20
61.264324
 30
0.0
 11
92.276023
 21
59.332473
 31
0.0
  0
LINE
  5
1F5
100
AcDbEntity
  8
3
370
    25
100
AcDbLine
 10
91.240747
 20
59.332473
 30
0.0
 11
92.276023
 21
59.332473
 31
0.0
  0
LINE
  5
1F6
100
AcDbEntity
  8
3
370
    25
100
AcDbLine
 10
62.219883
 20
61.264324
 30
0.0
 11
92.758385
 21
61.264324
 31
0.0
  0
ENDBLK
  5
1F7
100
AcDbEntity
  8
3
100
AcDbBlockEnd
  0
BLOCK
  5
1F8
100
AcDbEntity
  8
3
100
AcDbBlockBegin
  2
*D6
 70
     1
 10
0.0
 20
0.0
 30
0.0
  3
*D6
  1

  0
TEXT
  5
1F9
100
AcDbEntity
  8
3
370
    25
100
AcDbText
 10
91.258385
 20
75.264324
 30
0.0
 40
3.5
  1
３５
 50
90.0
 72
     5
 11
91.258385
 21
81.564324
 31
0.0
100
AcDbText
  0
LINE
  5
1FA
100
AcDbEntity
  8
3
370
    25
100
AcDbLine
 10
62.219883
 20
61.264324
 30
0.0
 11
92.758385
 21
61.264324
 31
0.0
  0
LINE
  5
1FB
100
AcDbEntity
  8
3
370
    25
100
AcDbLine
 10
91.758385
 20
61.264324
 30
0.0
 11
92.276023
 21
63.196176
 31
0.0
  0
LINE
  5
1FC
100
AcDbEntity
  8
3
370
    25
100
AcDbLine
 10
91.758385
 20
61.264324
 30
0.0
 11
91.240747
 21
63.196176
 31
0.0
  0
LINE
  5
1FD
100
AcDbEntity
  8
3
370
    25
100
AcDbLine
 10
92.276023
 20
63.196176
 30
0.0
 11
91.240747
 21
63.196176
 31
0.0
  0
LINE
  5
1FE
100
AcDbEntity
  8
3
370
    25
100
AcDbLine
 10
91.758385
 20
61.264324
 30
0.0
 11
91.758385
 21
96.264324
 31
0.0
  0
LINE
  5
1FF
100
AcDbEntity
  8
3
370
    25
100
AcDbLine
 10
91.758385
 20
96.264324
 30
0.0
 11
91.240747
 21
94.332473
 31
0.0
  0
LINE
  5
200
100
AcDbEntity
  8
3
370
    25
100
AcDbLine
 10
91.758385
 20
96.264324
 30
0.0
 11
92.276023
 21
94.332473
 31
0.0
  0
LINE
  5
201
100
AcDbEntity
  8
3
370
    25
100
AcDbLine
 10
91.240747
 20
94.332473
 30
0.0
 11
92.276023
 21
94.332473
 31
0.0
  0
LINE
  5
202
100
AcDbEntity
  8
3
370
    25
100
AcDbLine
 10
45.9624
 20
96.264324
 30
0.0
 11
92.758385
 21
96.264324
 31
0.0
  0
ENDBLK
  5
203
100
AcDbEntity
  8
3
100
AcDbBlockEnd
  0
BLOCK
  5
204
100
AcDbEntity
  8
3
100
AcDbBlockBegin
  2
*D7
 70
     1
 10
0.0
 20
0.0
 30
0.0
  3
*D7
  1

  0
TEXT
  5
205
100
AcDbEntity
  8
3
370
    25
100
AcDbText
 10
36.7124
 20
-24.357658
 30
0.0
 40
3.5
  1
２７．５
 72
     5
 11
50.0124
 21
-24.357658
 31
0.0
100
AcDbText
  0
LINE
  5
206
100
AcDbEntity
  8
3
370
    25
100
AcDbLine
 10
29.9624
 20
-42.655983
 30
0.0
 11
29.9624
 21
-23.857658
 31
0.0
  0
LINE
  5
207
100
AcDbEntity
  8
3
370
    25
100
AcDbLine
 10
29.9624
 20
-24.857658
 30
0.0
 11
31.894252
 21
-25.375296
 31
0.0
  0
LINE
  5
208
100
AcDbEntity
  8
3
370
    25
100
AcDbLine
 10
29.9624
 20
-24.857658
 30
0.0
 11
31.894252
 21
-24.34002
 31
0.0
  0
LINE
  5
209
100
AcDbEntity
  8
3
370
    25
100
AcDbLine
 10
31.894252
 20
-25.375296
 30
0.0
 11
31.894252
 21
-24.34002
 31
0.0
  0
LINE
  5
20A
100
AcDbEntity
  8
3
370
    25
100
AcDbLine
 10
29.9624
 20
-24.857658
 30
0.0
 11
57.4624
 21
-24.857658
 31
0.0
  0
LINE
  5
20B
100
AcDbEntity
  8
3
370
    25
100
AcDbLine
 10
57.4624
 20
-24.857658
 30
0.0
 11
55.530549
 21
-24.34002
 31
0.0
  0
LINE
  5
20C
100
AcDbEntity
  8
3
370
    25
100
AcDbLine
 10
57.4624
 20
-24.857658
 30
0.0
 11
55.530549
 21
-25.375296
 31
0.0
  0
LINE
  5
20D
100
AcDbEntity
  8
3
370
    25
100
AcDbLine
 10
55.530549
 20
-24.34002
 30
0.0
 11
55.530549
 21
-25.375296
 31
0.0
  0
LINE
  5
20E
100
AcDbEntity
  8
3
370
    25
100
AcDbLine
 10
57.4624
 20
-58.420176
 30
0.0
 11
57.4624
 21
-23.857658
 31
0.0
  0
ENDBLK
  5
20F
100
AcDbEntity
  8
3
100
AcDbBlockEnd
  0
ENDSEC
  0
SECTION
  2
ENTITIES
  0
LINE
  5
2C
100
AcDbEntity
  8
1
370
   100
100
AcDbLine
 10
-186.510785
 20
137.514384
 30
0.0
 11
197.491193
 21
137.514384
 31
0.0
  0
LINE
  5
2D
100
AcDbEntity
  8
1
370
   100
100
AcDbLine
 10
-186.510785
 20
137.514384
 30
0.0
 11
-186.510785
 21
-138.985941
 31
0.0
  0
LINE
  5
2E
100
AcDbEntity
  8
1
370
   100
100
AcDbLine
 10
-186.510785
 20
-138.985941
 30
0.0
 11
197.491193
 21
-138.985941
 31
0.0
  0
LINE
  5
2F
100
AcDbEntity
  8
1
370
   100
100
AcDbLine
 10
197.491193
 20
-138.985941
 30
0.0
 11
197.491193
 21
137.514384
 31
0.0
  0
TEXT
  5
30
100
AcDbEntity
  8
1
370
    50
100
AcDbText
 10
179.814221
 20
-113.126428
 30
0.0
 40
3.0
  1
設計
 72
     5
 11
185.214221
 21
-113.126428
 31
0.0
100
AcDbText
  0
TEXT
  5
31
100
AcDbEntity
  8
1
370
    50
100
AcDbText
 10
189.563739
 20
-113.049829
 30
0.0
 40
3.0
  1
製図
 72
     5
 11
194.963739
 21
-113.049829
 31
0.0
100
AcDbText
  0
TEXT
  5
32
100
AcDbEntity
  8
1
370
    50
100
AcDbText
 10
159.502872
 20
-113.126428
 30
0.0
 40
3.0
  1
承認
 72
     5
 11
164.902872
 21
-113.126428
 31
0.0
100
AcDbText
  0
TEXT
  5
33
100
AcDbEntity
  8
1
370
    50
100
AcDbText
 10
169.494839
 20
-113.09901
 30
0.0
 40
3.0
  1
検図
 72
     5
 11
174.894839
 21
-113.09901
 31
0.0
100
AcDbText
  0
LINE
  5
34
100
AcDbEntity
  8
1
370
    25
100
AcDbLine
 10
142.491193
 20
-113.985941
 30
0.0
 11
197.491193
 21
-113.985941
 31
0.0
  0
LINE
  5
35
100
AcDbEntity
  8
1
370
    25
100
AcDbLine
 10
171.241193
 20
-122.985941
 30
0.0
 11
171.241193
 21
-129.985941
 31
0.0
  0
TEXT
  5
36
100
AcDbEntity
  8
1
370
    50
100
AcDbText
 10
159.775795
 20
-128.006264
 30
0.0
 40
3.0
  1
日　付
 72
     5
 11
168.175795
 21
-128.006264
 31
0.0
100
AcDbText
  0
LINE
  5
37
100
AcDbEntity
  8
1
370
    50
100
AcDbLine
 10
20.491193
 20
-129.985941
 30
0.0
 11
197.491193
 21
-129.985941
 31
0.0
  0
TEXT
  5
38
100
AcDbEntity
  8
1
370
    50
100
AcDbText
 10
143.887505
 20
-128.161203
 30
0.0
 40
3.0
  1
第三角法
 72
     5
 11
155.287505
 21
-128.161203
 31
0.0
100
AcDbText
  0
TEXT
  5
39
100
AcDbEntity
  8
1
370
    50
100
AcDbText
 10
145.54371
 20
-112.99901
 30
0.0
 40
3.0
  1
尺　度
 72
     5
 11
153.94371
 21
-112.99901
 31
0.0
100
AcDbText
  0
LINE
  5
3A
100
AcDbEntity
  8
1
370
   100
100
AcDbLine
 10
20.491193
 20
-108.985941
 30
0.0
 11
197.491193
 21
-108.985941
 31
0.0
  0
LINE
  5
3B
100
AcDbEntity
  8
1
370
    50
100
AcDbLine
 10
105.991193
 20
-108.985941
 30
0.0
 11
105.991193
 21
-138.985941
 31
0.0
  0
LINE
  5
3C
100
AcDbEntity
  8
1
370
    25
100
AcDbLine
 10
187.491193
 20
-122.985941
 30
0.0
 11
187.491193
 21
-108.985941
 31
0.0
  0
LINE
  5
3D
100
AcDbEntity
  8
1
370
    25
100
AcDbLine
 10
177.491193
 20
-122.985941
 30
0.0
 11
177.491193
 21
-108.985941
 31
0.0
  0
LINE
  5
3E
100
AcDbEntity
  8
1
370
    25
100
AcDbLine
 10
167.491193
 20
-122.985941
 30
0.0
 11
167.491193
 21
-108.985941
 31
0.0
  0
LINE
  5
3F
100
AcDbEntity
  8
1
370
    50
100
AcDbLine
 10
142.491193
 20
-138.985941
 30
0.0
 11
142.491193
 21
-108.985941
 31
0.0
  0
LINE
  5
40
100
AcDbEntity
  8
1
370
    50
100
AcDbLine
 10
94.991193
 20
-108.985941
 30
0.0
 11
94.991193
 21
-138.985941
 31
0.0
  0
LINE
  5
41
100
AcDbEntity
  8
1
370
    50
100
AcDbLine
 10
31.491193
 20
-108.985941
 30
0.0
 11
31.491193
 21
-129.985941
 31
0.0
  0
LINE
  5
42
100
AcDbEntity
  8
1
370
    50
100
AcDbLine
 10
142.491193
 20
-122.985941
 30
0.0
 11
197.491193
 21
-122.985941
 31
0.0
  0
TEXT
  5
43
100
AcDbEntity
  8
1
370
    50
100
AcDbText
 10
143.550565
 20
-135.940469
 30
0.0
 40
3.0
  1
コードＮｏ
 41
0.9
 72
     5
 11
156.510565
 21
-135.940469
 31
0.0
100
AcDbText
  0
TEXT
  5
44
100
AcDbEntity
  8
1
370
   100
100
AcDbText
 10
26.443387
 20
-136.43783
 30
0.0
 40
4.0
  1
ミズタニバルブ工業株式会社
 41
1.2
 72
     5
 11
87.883387
 21
-136.43783
 31
0.0
100
AcDbText
  0
LINE
  5
45
100
AcDbEntity
  8
1
370
    50
100
AcDbLine
 10
20.491193
 20
-119.485941
 30
0.0
 11
142.491193
 21
-119.485941
 31
0.0
  0
LINE
  5
46
100
AcDbEntity
  8
1
370
    50
100
AcDbLine
 10
57.741193
 20
-119.485941
 30
0.0
 11
57.741193
 21
-129.985941
 31
0.0
  0
LINE
  5
47
100
AcDbEntity
  8
1
370
    50
100
AcDbLine
 10
68.741193
 20
-119.485941
 30
0.0
 11
68.741193
 21
-129.985941
 31
0.0
  0
LINE
  5
48
100
AcDbEntity
  8
1
370
    50
100
AcDbLine
 10
157.491193
 20
-138.985941
 30
0.0
 11
157.491193
 21
-108.985941
 31
0.0
  0
TEXT
  5
49
100
AcDbEntity
  8
1
370
    50
100
AcDbText
 10
172.549065
 20
-128.050147
 30
0.0
 40
3.0
  1
　　・　　・
 72
     5
 11
189.949065
 21
-128.050147
 31
0.0
100
AcDbText
  0
LINE
  5
4A
100
AcDbEntity
  8
1
370
   100
100
AcDbLine
 10
20.491193
 20
-108.985941
 30
0.0
 11
20.491193
 21
-138.985941
 31
0.0
  0
TEXT
  5
4B
100
AcDbEntity
  8
1
370
    50
100
AcDbText
 10
145.416291
 20
-120.006746
 30
0.0
 40
3.0
  1
　／ 
 72
     5
 11
150.816291
 21
-120.006746
 31
0.0
100
AcDbText
  0
TEXT
  5
4C
100
AcDbEntity
  8
1
370
    50
100
AcDbText
 10
96.952061
 20
-136.012454
 30
0.0
 40
3.0
  1
備 考 
 72
     5
 11
103.852061
 21
-136.012454
 31
0.0
100
AcDbText
  0
TEXT
  5
4D
100
AcDbEntity
  8
1
370
    50
100
AcDbText
 10
96.756267
 20
-115.44592
 30
0.0
 40
3.0
  1
仕 上
 72
     5
 11
103.656267
 21
-115.44592
 31
0.0
100
AcDbText
  0
TEXT
  5
4E
100
AcDbEntity
  8
1
370
    50
100
AcDbText
 10
96.723588
 20
-124.445833
 30
0.0
 40
3.0
  1
表 面
 72
     5
 11
103.623588
 21
-124.445833
 31
0.0
100
AcDbText
  0
TEXT
  5
4F
100
AcDbEntity
  8
1
370
    50
100
AcDbText
 10
96.723588
 20
-127.945833
 30
0.0
 40
3.0
  1
処 理
 72
     5
 11
103.623588
 21
-127.945833
 31
0.0
100
AcDbText
  0
TEXT
  5
50
100
AcDbEntity
  8
1
370
    50
100
AcDbText
 10
22.396675
 20
-115.8467
 30
0.0
 40
3.0
  1
品 名
 72
     5
 11
29.296675
 21
-115.8467
 31
0.0
100
AcDbText
  0
TEXT
  5
51
100
AcDbEntity
  8
1
370
    50
100
AcDbText
 10
22.198883
 20
-126.231267
 30
0.0
 40
3.0
  1
材 質
 72
     5
 11
29.098883
 21
-126.231267
 31
0.0
100
AcDbText
  0
TEXT
  5
52
100
AcDbEntity
  8
1
370
    50
100
AcDbText
 10
59.448883
 20
-126.231267
 30
0.0
 40
3.0
  1
規 格
 72
     5
 11
66.348883
 21
-126.231267
 31
0.0
100
AcDbText
  0
LINE
  5
53
100
AcDbEntity
  8
2
370
    50
100
AcDbLine
 10
4.9624
 20
53.014324
 30
0.0
 11
3.6624
 21
53.014324
 31
0.0
  0
LINE
  5
54
100
AcDbEntity
  8
2
370
    50
100
AcDbLine
 10
3.6624
 20
69.514324
 30
0.0
 11
4.9624
 21
69.514324
 31
0.0
  0
LINE
  5
55
100
AcDbEntity
  8
2
370
    50
100
AcDbLine
 10
18.4624
 20
39.133781
 30
0.0
 11
18.4624
 21
40.764324
 31
0.0
  0
LINE
  5
56
100
AcDbEntity
  8
2
370
    50
100
AcDbLine
 10
41.4624
 20
39.133781
 30
0.0
 11
41.4624
 21
40.764324
 31
0.0
  0
ARC
  5
57
100
AcDbEntity
  8
2
370
    50
100
AcDbCircle
 10
11.934644
 20
79.264324
 30
0.0
 40
10.0
100
AcDbArc
 50
270.0
 51
301.002719
  0
LINE
  5
58
100
AcDbEntity
  8
2
370
    50
100
AcDbLine
 10
4.9624
 20
69.264324
 30
0.0
 11
11.934644
 21
69.264324
 31
0.0
  0
ARC
  5
59
100
AcDbEntity
  8
2
370
    50
100
AcDbCircle
 10
29.9624
 20
49.264324
 30
0.0
 40
25.0
100
AcDbArc
 50
80.033234
 51
121.002719
  0
LINE
  5
5A
100
AcDbEntity
  8
2
370
    50
100
AcDbLine
 10
41.4624
 20
40.764324
 30
0.0
 11
40.9624
 21
41.264324
 31
0.0
  0
LINE
  5
5B
100
AcDbEntity
  8
2
370
    50
100
AcDbLine
 10
40.9624
 20
41.264324
 30
0.0
 11
40.9624
 21
48.014324
 31
0.0
  0
ARC
  5
5C
100
AcDbEntity
  8
2
370
    50
100
AcDbCircle
 10
13.9624
 20
47.834686
 30
0.0
 40
5.0
100
AcDbArc
 50
0.0
 51
66.074322
  0
LINE
  5
5D
100
AcDbEntity
  8
2
370
    50
100
AcDbLine
 10
18.4624
 20
40.764324
 30
0.0
 11
18.9624
 21
41.264324
 31
0.0
  0
LINE
  5
5E
100
AcDbEntity
  8
2
370
    50
100
AcDbLine
 10
18.9624
 20
41.264324
 30
0.0
 11
18.9624
 21
47.834686
 31
0.0
  0
ARC
  5
5F
100
AcDbEntity
  8
2
370
    50
100
AcDbCircle
 10
11.934644
 20
43.264324
 30
0.0
 40
10.0
100
AcDbArc
 50
66.074322
 51
90.0
  0
LINE
  5
60
100
AcDbEntity
  8
2
370
    50
100
AcDbLine
 10
4.9624
 20
53.014324
 30
0.0
 11
4.9624
 21
69.514324
 31
0.0
  0
LINE
  5
61
100
AcDbEntity
  8
2
370
    50
100
AcDbLine
 10
4.9624
 20
53.264324
 30
0.0
 11
11.934644
 21
53.264324
 31
0.0
  0
LINE
  5
62
100
AcDbEntity
  8
2
370
    50
100
AcDbLine
 10
-44.0376
 20
47.264324
 30
0.0
 11
-14.0376
 21
47.264324
 31
0.0
  0
LINE
  5
63
100
AcDbEntity
  8
2
370
    50
100
AcDbLine
 10
-39.5151
 20
96.102324
 30
0.0
 11
-39.5151
 21
83.764324
 31
0.0
  0
LINE
  5
64
100
AcDbEntity
  8
2
370
    50
100
AcDbLine
 10
-39.5151
 20
96.102324
 30
0.0
 11
-38.3531
 21
97.264324
 31
0.0
  0
LINE
  5
65
100
AcDbEntity
  8
2
370
    50
100
AcDbLine
 10
-18.5601
 20
96.102324
 30
0.0
 11
-18.5601
 21
83.764324
 31
0.0
  0
LINE
  5
66
100
AcDbEntity
  8
2
370
    50
100
AcDbLine
 10
-19.7221
 20
97.264324
 30
0.0
 11
-38.3531
 21
97.264324
 31
0.0
  0
LINE
  5
67
100
AcDbEntity
  8
2
370
    50
100
AcDbLine
 10
-19.7221
 20
97.264324
 30
0.0
 11
-18.5601
 21
96.102324
 31
0.0
  0
LINE
  5
68
100
AcDbEntity
  8
2
370
    50
100
AcDbLine
 10
-14.0376
 20
47.264324
 30
0.0
 11
-14.0376
 21
50.786824
 31
0.0
  0
LINE
  5
69
100
AcDbEntity
  8
2
370
    50
100
AcDbLine
 10
-44.0376
 20
47.264324
 30
0.0
 11
-44.0376
 21
49.764324
 31
0.0
  0
ARC
  5
6A
100
AcDbEntity
  8
2
370
    50
100
AcDbCircle
 10
-42.864111
 20
74.940089
 30
0.0
 40
4.076511
100
AcDbArc
 50
341.17529
 51
26.583338
  0
ARC
  5
6B
100
AcDbEntity
  8
2
370
    50
100
AcDbCircle
 10
-12.5376
 20
58.29121
 30
0.0
 40
30.0
100
AcDbArc
 50
161.17529
 51
180.0
  0
LINE
  5
6C
100
AcDbEntity
  8
2
370
    50
100
AcDbLine
 10
-40.932905
 20
67.971428
 30
0.0
 11
-39.005651
 21
73.624706
 31
0.0
  0
ARC
  5
6D
100
AcDbEntity
  8
2
370
    50
100
AcDbCircle
 10
-15.325684
 20
74.97624
 30
0.0
 40
3.961915
100
AcDbArc
 50
153.171711
 51
270.0
  0
ARC
  5
6E
100
AcDbEntity
  8
2
370
    50
100
AcDbCircle
 10
-14.337761
 20
75.014324
 30
0.0
 40
4.0
100
AcDbArc
 50
270.0
 51
305.102463
  0
LINE
  5
6F
100
AcDbEntity
  8
2
370
    50
100
AcDbLine
 10
-15.325684
 20
71.014324
 30
0.0
 11
-14.337761
 21
71.014324
 31
0.0
  0
ARC
  5
70
100
AcDbEntity
  8
2
370
    50
100
AcDbCircle
 10
-44.5376
 20
51.700816
 30
0.0
 40
2.0
100
AcDbArc
 50
284.477512
 51
360.0
  0
LINE
  5
71
100
AcDbEntity
  8
2
370
    50
100
AcDbLine
 10
-42.5376
 20
51.700816
 30
0.0
 11
-42.5376
 21
58.29121
 31
0.0
  0
LINE
  5
72
100
AcDbEntity
  8
2
370
    50
100
AcDbLine
 10
-16.0376
 20
76.764324
 30
0.0
 11
-13.449142
 21
78.264324
 31
0.0
  0
LINE
  5
73
100
AcDbEntity
  8
2
370
    50
100
AcDbLine
 10
-13.449142
 20
78.264324
 30
0.0
 11
-13.449142
 21
80.764324
 31
0.0
  0
LINE
  5
74
100
AcDbEntity
  8
2
370
    50
100
AcDbLine
 10
-6.0376
 20
82.264324
 30
0.0
 11
-6.0376
 21
83.764324
 31
0.0
  0
ARC
  5
75
100
AcDbEntity
  8
2
370
    50
100
AcDbCircle
 10
-7.5376
 20
82.264324
 30
0.0
 40
1.5
100
AcDbArc
 50
270.0
 51
360.0
  0
LINE
  5
76
100
AcDbEntity
  8
2
370
    50
100
AcDbLine
 10
-42.0376
 20
76.764324
 30
0.0
 11
-44.626057
 21
78.264324
 31
0.0
  0
LINE
  5
77
100
AcDbEntity
  8
2
370
    50
100
AcDbLine
 10
-44.626057
 20
78.264324
 30
0.0
 11
-44.626057
 21
80.764324
 31
0.0
  0
LINE
  5
78
100
AcDbEntity
  8
2
370
    50
100
AcDbLine
 10
-50.5376
 20
80.764324
 30
0.0
 11
-7.5376
 21
80.764324
 31
0.0
  0
LINE
  5
79
100
AcDbEntity
  8
2
370
    50
100
AcDbLine
 10
-52.0376
 20
82.264324
 30
0.0
 11
-52.0376
 21
83.764324
 31
0.0
  0
ARC
  5
7A
100
AcDbEntity
  8
2
370
    50
100
AcDbCircle
 10
-50.5376
 20
82.264324
 30
0.0
 40
1.5
100
AcDbArc
 50
180.0
 51
270.0
  0
LINE
  5
7B
100
AcDbEntity
  8
2
370
    50
100
AcDbLine
 10
-52.0376
 20
83.764324
 30
0.0
 11
-6.0376
 21
83.764324
 31
0.0
  0
LINE
  5
7C
100
AcDbEntity
  8
2
370
    50
100
AcDbLine
 10
-16.0376
 20
76.764324
 30
0.0
 11
-42.0376
 21
76.764324
 31
0.0
  0
ARC
  5
7D
100
AcDbEntity
  8
2
370
    50
100
AcDbCircle
 10
-3.059298
 20
64.574735
 30
0.0
 40
15.810411
100
AcDbArc
 50
246.60304
 51
295.159768
  0
ARC
  5
7E
100
AcDbEntity
  8
2
370
    50
100
AcDbCircle
 10
-3.059298
 20
57.953913
 30
0.0
 40
15.810411
100
AcDbArc
 50
64.840232
 51
113.39696
  0
LINE
  5
7F
100
AcDbEntity
  8
2
370
    50
100
AcDbLine
 10
-9.3376
 20
72.464324
 30
0.0
 11
-9.3376
 21
50.064324
 31
0.0
  0
LINE
  5
80
100
AcDbEntity
  8
2
370
    50
100
AcDbLine
 10
3.6624
 20
72.264324
 30
0.0
 11
3.6624
 21
50.264324
 31
0.0
  0
ARC
  5
81
100
AcDbEntity
  8
2
370
    50
100
AcDbCircle
 10
37.4624
 20
35.133781
 30
0.0
 40
6.0
100
AcDbArc
 50
10.860814
 51
41.810315
  0
ARC
  5
82
100
AcDbEntity
  8
2
370
    50
100
AcDbCircle
 10
22.4624
 20
35.133781
 30
0.0
 40
6.0
100
AcDbArc
 50
138.189685
 51
169.139186
  0
LINE
  5
83
100
AcDbEntity
  8
2
370
    50
100
AcDbLine
 10
41.934536
 20
39.133781
 30
0.0
 11
17.990264
 21
39.133781
 31
0.0
  0
CIRCLE
  5
84
100
AcDbEntity
  8
2
370
    50
100
AcDbCircle
 10
-29.0376
 20
-68.735676
 30
0.0
 40
10.5
  0
CIRCLE
  5
85
100
AcDbEntity
  8
2
370
    50
100
AcDbCircle
 10
-29.0376
 20
-68.735676
 30
0.0
 40
15.0
  0
CIRCLE
  5
86
100
AcDbEntity
  8
2
370
    50
100
AcDbCircle
 10
-29.0376
 20
-68.735676
 30
0.0
 40
12.5
  0
CIRCLE
  5
87
100
AcDbEntity
  8
2
370
    50
100
AcDbCircle
 10
-29.0376
 20
-68.735676
 30
0.0
 40
9.3155
  0
CIRCLE
  5
88
100
AcDbEntity
  8
2
370
    50
100
AcDbCircle
 10
-29.0376
 20
-68.735676
 30
0.0
 40
6.5
  0
LINE
  5
89
100
AcDbEntity
  8
2
370
    50
100
AcDbLine
 10
-9.3376
 20
-57.535676
 30
0.0
 11
-9.3376
 21
-79.935676
 31
0.0
  0
LINE
  5
8A
100
AcDbEntity
  8
2
370
    50
100
AcDbLine
 10
3.6624
 20
-79.735676
 30
0.0
 11
3.6624
 21
-57.735676
 31
0.0
  0
LINE
  5
8B
100
AcDbEntity
  8
2
370
    50
100
AcDbLine
 10
2.47431
 20
-57.235676
 30
0.0
 11
-8.592907
 21
-57.235676
 31
0.0
  0
LINE
  5
8C
100
AcDbEntity
  8
2
370
    50
100
AcDbLine
 10
-8.592907
 20
-80.235676
 30
0.0
 11
2.47431
 21
-80.235676
 31
0.0
  0
ARC
  5
8D
100
AcDbEntity
  8
2
370
    50
100
AcDbCircle
 10
-3.059298
 20
-72.046087
 30
0.0
 40
15.810411
100
AcDbArc
 50
64.840232
 51
69.512822
  0
ARC
  5
8E
100
AcDbEntity
  8
2
370
    50
100
AcDbCircle
 10
-3.059298
 20
-72.046087
 30
0.0
 40
15.810411
100
AcDbArc
 50
110.487178
 51
113.39696
  0
ARC
  5
8F
100
AcDbEntity
  8
2
370
    50
100
AcDbCircle
 10
-3.059298
 20
-65.425265
 30
0.0
 40
15.810411
100
AcDbArc
 50
246.60304
 51
249.512822
  0
ARC
  5
90
100
AcDbEntity
  8
2
370
    50
100
AcDbCircle
 10
-3.059298
 20
-65.425265
 30
0.0
 40
15.810411
100
AcDbArc
 50
290.487178
 51
295.159768
  0
ARC
  5
91
100
AcDbEntity
  8
2
370
    50
100
AcDbCircle
 10
-13.580565
 20
-56.985676
 30
0.0
 40
2.0
100
AcDbArc
 50
270.0
 51
320.487244
  0
ARC
  5
92
100
AcDbEntity
  8
2
370
    50
100
AcDbCircle
 10
-13.580565
 20
-80.485676
 30
0.0
 40
2.0
100
AcDbArc
 50
39.512756
 51
90.0
  0
LINE
  5
93
100
AcDbEntity
  8
2
370
    50
100
AcDbLine
 10
-12.0376
 20
-79.213176
 30
0.0
 11
-9.3376
 21
-79.213176
 31
0.0
  0
LINE
  5
94
100
AcDbEntity
  8
2
370
    50
100
AcDbLine
 10
-12.0376
 20
-58.258176
 30
0.0
 11
-9.3376
 21
-58.258176
 31
0.0
  0
LINE
  5
95
100
AcDbEntity
  8
2
370
    50
100
AcDbLine
 10
-17.638586
 20
-78.485676
 30
0.0
 11
-13.580565
 21
-78.485676
 31
0.0
  0
LINE
  5
96
100
AcDbEntity
  8
2
370
    50
100
AcDbLine
 10
-17.638586
 20
-58.985676
 30
0.0
 11
-13.580565
 21
-58.985676
 31
0.0
  0
LINE
  5
97
100
AcDbEntity
  8
2
370
    50
100
AcDbLine
 10
-12.0376
 20
-58.258176
 30
0.0
 11
-12.0376
 21
-79.213176
 31
0.0
  0
LINE
  5
98
100
AcDbEntity
  8
2
370
    50
100
AcDbLine
 10
4.9624
 20
-76.985676
 30
0.0
 11
4.9624
 21
-60.485676
 31
0.0
  0
LINE
  5
99
100
AcDbEntity
  8
2
370
    50
100
AcDbLine
 10
57.4624
 20
-59.420176
 30
0.0
 11
56.3004
 21
-58.258176
 31
0.0
  0
LINE
  5
9A
100
AcDbEntity
  8
2
370
    50
100
AcDbLine
 10
56.3004
 20
-79.213176
 30
0.0
 11
57.4624
 21
-78.051176
 31
0.0
  0
LINE
  5
9B
100
AcDbEntity
  8
2
370
    50
100
AcDbLine
 10
4.9624
 20
-76.735676
 30
0.0
 11
11.934644
 21
-76.735676
 31
0.0
  0
LINE
  5
9C
100
AcDbEntity
  8
2
370
    50
100
AcDbLine
 10
4.9624
 20
-60.735676
 30
0.0
 11
9.468499
 21
-60.735676
 31
0.0
  0
LINE
  5
9D
100
AcDbEntity
  8
2
370
    50
100
AcDbLine
 10
4.9624
 20
-60.485676
 30
0.0
 11
3.6624
 21
-60.485676
 31
0.0
  0
LINE
  5
9E
100
AcDbEntity
  8
2
370
    50
100
AcDbLine
 10
3.6624
 20
-76.985676
 30
0.0
 11
4.9624
 21
-76.985676
 31
0.0
  0
LINE
  5
9F
100
AcDbEntity
  8
2
370
    25
  6
CENTER
100
AcDbLine
 10
-29.0376
 20
99.572876
 30
0.0
 11
-29.0376
 21
44.018101
 31
0.0
  0
ARC
  5
A0
100
AcDbEntity
  8
2
370
    50
100
AcDbCircle
 10
-3.079656
 20
-65.69102
 30
0.0
 40
6.947874
100
AcDbArc
 50
89.832123
 51
110.685898
  0
ARC
  5
A1
100
AcDbEntity
  8
2
370
    50
100
AcDbCircle
 10
-3.504773
 20
-64.5617
 30
0.0
 40
5.74119
100
AcDbArc
 50
110.698036
 51
127.152187
  0
ARC
  5
A2
100
AcDbEntity
  8
2
370
    50
100
AcDbCircle
 10
-4.262008
 20
-63.57199
 30
0.0
 40
4.495041
100
AcDbArc
 50
127.077965
 51
146.459656
  0
ARC
  5
A3
100
AcDbEntity
  8
2
370
    50
100
AcDbCircle
 10
-5.130206
 20
-63.013233
 30
0.0
 40
3.462702
100
AcDbArc
 50
146.228378
 51
179.544021
  0
ARC
  5
A4
100
AcDbEntity
  8
2
370
    50
100
AcDbCircle
 10
-5.130206
 20
-62.958119
 30
0.0
 40
3.462702
100
AcDbArc
 50
180.455979
 51
213.771622
  0
ARC
  5
A5
100
AcDbEntity
  8
2
370
    50
100
AcDbCircle
 10
-4.262008
 20
-62.399361
 30
0.0
 40
4.495041
100
AcDbArc
 50
213.540344
 51
232.922035
  0
ARC
  5
A6
100
AcDbEntity
  8
2
370
    50
100
AcDbCircle
 10
-3.504773
 20
-61.409652
 30
0.0
 40
5.74119
100
AcDbArc
 50
232.847813
 51
249.301964
  0
ARC
  5
A7
100
AcDbEntity
  8
2
370
    50
100
AcDbCircle
 10
-3.079656
 20
-60.280332
 30
0.0
 40
6.947874
100
AcDbArc
 50
249.314102
 51
270.167877
  0
ARC
  5
A8
100
AcDbEntity
  8
2
370
    50
100
AcDbCircle
 10
-3.038941
 20
-60.280332
 30
0.0
 40
6.947874
100
AcDbArc
 50
269.832123
 51
290.685898
  0
ARC
  5
A9
100
AcDbEntity
  8
2
370
    50
100
AcDbCircle
 10
-2.613824
 20
-61.409652
 30
0.0
 40
5.74119
100
AcDbArc
 50
290.698036
 51
307.152187
  0
ARC
  5
AA
100
AcDbEntity
  8
2
370
    50
100
AcDbCircle
 10
-1.856588
 20
-62.399361
 30
0.0
 40
4.495041
100
AcDbArc
 50
307.077965
 51
326.459656
  0
ARC
  5
AB
100
AcDbEntity
  8
2
370
    50
100
AcDbCircle
 10
-0.988391
 20
-62.958119
 30
0.0
 40
3.462702
100
AcDbArc
 50
326.228378
 51
359.544021
  0
ARC
  5
AC
100
AcDbEntity
  8
2
370
    50
100
AcDbCircle
 10
-0.988391
 20
-63.013233
 30
0.0
 40
3.462702
100
AcDbArc
 50
0.455979
 51
33.771622
  0
ARC
  5
AD
100
AcDbEntity
  8
2
370
    50
100
AcDbCircle
 10
-1.856588
 20
-63.57199
 30
0.0
 40
4.495041
100
AcDbArc
 50
33.540344
 51
52.922035
  0
ARC
  5
AE
100
AcDbEntity
  8
2
370
    50
100
AcDbCircle
 10
-2.613824
 20
-64.5617
 30
0.0
 40
5.74119
100
AcDbArc
 50
52.847813
 51
69.301964
  0
ARC
  5
AF
100
AcDbEntity
  8
2
370
    50
100
AcDbCircle
 10
-3.038941
 20
-65.69102
 30
0.0
 40
6.947874
100
AcDbArc
 50
69.314102
 51
90.167877
  0
ARC
  5
B0
100
AcDbEntity
  8
2
370
    50
100
AcDbCircle
 10
-3.079656
 20
-77.19102
 30
0.0
 40
6.947874
100
AcDbArc
 50
89.832123
 51
110.685898
  0
ARC
  5
B1
100
AcDbEntity
  8
2
370
    50
100
AcDbCircle
 10
-3.504773
 20
-76.0617
 30
0.0
 40
5.74119
100
AcDbArc
 50
110.698036
 51
127.152187
  0
ARC
  5
B2
100
AcDbEntity
  8
2
370
    50
100
AcDbCircle
 10
-4.262008
 20
-75.07199
 30
0.0
 40
4.495041
100
AcDbArc
 50
127.077965
 51
146.459656
  0
ARC
  5
B3
100
AcDbEntity
  8
2
370
    50
100
AcDbCircle
 10
-5.130206
 20
-74.513233
 30
0.0
 40
3.462702
100
AcDbArc
 50
146.228378
 51
179.544021
  0
ARC
  5
B4
100
AcDbEntity
  8
2
370
    50
100
AcDbCircle
 10
-5.130206
 20
-74.458119
 30
0.0
 40
3.462702
100
AcDbArc
 50
180.455979
 51
213.771622
  0
ARC
  5
B5
100
AcDbEntity
  8
2
370
    50
100
AcDbCircle
 10
-4.262008
 20
-73.899361
 30
0.0
 40
4.495041
100
AcDbArc
 50
213.540344
 51
232.922035
  0
ARC
  5
B6
100
AcDbEntity
  8
2
370
    50
100
AcDbCircle
 10
-3.504773
 20
-72.909652
 30
0.0
 40
5.74119
100
AcDbArc
 50
232.847813
 51
249.301964
  0
ARC
  5
B7
100
AcDbEntity
  8
2
370
    50
100
AcDbCircle
 10
-3.079656
 20
-71.780332
 30
0.0
 40
6.947874
100
AcDbArc
 50
249.314102
 51
270.167877
  0
ARC
  5
B8
100
AcDbEntity
  8
2
370
    50
100
AcDbCircle
 10
-3.038941
 20
-71.780332
 30
0.0
 40
6.947874
100
AcDbArc
 50
269.832123
 51
290.685898
  0
ARC
  5
B9
100
AcDbEntity
  8
2
370
    50
100
AcDbCircle
 10
-2.613824
 20
-72.909652
 30
0.0
 40
5.74119
100
AcDbArc
 50
290.698036
 51
307.152187
  0
ARC
  5
BA
100
AcDbEntity
  8
2
370
    50
100
AcDbCircle
 10
-1.856588
 20
-73.899361
 30
0.0
 40
4.495041
100
AcDbArc
 50
307.077965
 51
326.459656
  0
ARC
  5
BB
100
AcDbEntity
  8
2
370
    50
100
AcDbCircle
 10
-0.988391
 20
-74.458119
 30
0.0
 40
3.462702
100
AcDbArc
 50
326.228378
 51
359.544021
  0
ARC
  5
BC
100
AcDbEntity
  8
2
370
    50
100
AcDbCircle
 10
-0.988391
 20
-74.513233
 30
0.0
 40
3.462702
100
AcDbArc
 50
0.455979
 51
33.771622
  0
ARC
  5
BD
100
AcDbEntity
  8
2
370
    50
100
AcDbCircle
 10
-1.856588
 20
-75.07199
 30
0.0
 40
4.495041
100
AcDbArc
 50
33.540344
 51
52.922035
  0
ARC
  5
BE
100
AcDbEntity
  8
2
370
    50
100
AcDbCircle
 10
-2.613824
 20
-76.0617
 30
0.0
 40
5.74119
100
AcDbArc
 50
52.847813
 51
69.301964
  0
ARC
  5
BF
100
AcDbEntity
  8
2
370
    50
100
AcDbCircle
 10
-3.038941
 20
-77.19102
 30
0.0
 40
6.947874
100
AcDbArc
 50
69.314102
 51
90.167877
  0
ARC
  5
C0
100
AcDbEntity
  8
2
370
    50
100
AcDbCircle
 10
-29.0376
 20
-68.735676
 30
0.0
 40
23.0
100
AcDbArc
 50
29.518202
 51
330.642544
  0
LINE
  5
C1
100
AcDbEntity
  8
2
370
    25
100
AcDbLine
 10
19.2754
 20
39.133781
 30
0.0
 11
19.2754
 21
40.764324
 31
0.0
  0
LINE
  5
C2
100
AcDbEntity
  8
2
370
    25
100
AcDbLine
 10
40.6494
 20
40.764324
 30
0.0
 11
40.6494
 21
39.133781
 31
0.0
  0
LINE
  5
C3
100
AcDbEntity
  8
2
370
    50
100
AcDbLine
 10
40.6494
 20
40.764324
 30
0.0
 11
40.9624
 21
41.306456
 31
0.0
  0
LINE
  5
C4
100
AcDbEntity
  8
2
370
    50
100
AcDbLine
 10
19.2754
 20
40.764324
 30
0.0
 11
18.9624
 21
41.306456
 31
0.0
  0
LINE
  5
C5
100
AcDbEntity
  8
2
370
    50
100
AcDbLine
 10
-14.0376
 20
50.794124
 30
0.0
 11
-12.0376
 21
51.948824
 31
0.0
  0
LINE
  5
C6
100
AcDbEntity
  8
2
370
    25
100
AcDbLine
 10
-12.0376
 20
51.948824
 30
0.0
 11
-9.3376
 21
51.948824
 31
0.0
  0
LINE
  5
C7
100
AcDbEntity
  8
2
370
    25
100
AcDbLine
 10
-12.0376
 20
70.579824
 30
0.0
 11
-9.3376
 21
70.579824
 31
0.0
  0
LINE
  5
C8
100
AcDbEntity
  8
2
370
    25
100
AcDbLine
 10
-38.3531
 20
83.764324
 30
0.0
 11
-38.3531
 21
97.264324
 31
0.0
  0
LINE
  5
C9
100
AcDbEntity
  8
2
370
    25
100
AcDbLine
 10
-19.7221
 20
97.264324
 30
0.0
 11
-19.7221
 21
83.764324
 31
0.0
  0
LINE
  5
CA
100
AcDbEntity
  8
2
370
    50
100
AcDbLine
 10
-12.0376
 20
70.579824
 30
0.0
 11
-13.119387
 21
71.204394
 31
0.0
  0
LINE
  5
CB
100
AcDbEntity
  8
2
370
    50
100
AcDbLine
 10
-12.960734
 20
-78.584148
 30
0.0
 11
-12.0376
 21
-78.051176
 31
0.0
  0
LINE
  5
CC
100
AcDbEntity
  8
2
370
    25
100
AcDbLine
 10
-12.0376
 20
-78.051176
 30
0.0
 11
-9.3376
 21
-78.051176
 31
0.0
  0
LINE
  5
CD
100
AcDbEntity
  8
2
370
    50
100
AcDbLine
 10
-12.960734
 20
-58.887204
 30
0.0
 11
-12.0376
 21
-59.420176
 31
0.0
  0
LINE
  5
CE
100
AcDbEntity
  8
2
370
    25
100
AcDbLine
 10
-12.0376
 20
-59.420176
 30
0.0
 11
-9.3376
 21
-59.420176
 31
0.0
  0
ARC
  5
CF
100
AcDbEntity
  8
2
370
    50
100
AcDbCircle
 10
32.9624
 20
10.078689
 30
0.0
 40
25.0
100
AcDbArc
 50
155.230413
 51
180.0
  0
ARC
  5
D0
100
AcDbEntity
  8
2
370
    50
100
AcDbCircle
 10
13.9624
 20
6.196559
 30
0.0
 40
6.0
100
AcDbArc
 50
180.0
 51
260.715638
  0
LINE
  5
D1
100
AcDbEntity
  8
2
370
    50
100
AcDbLine
 10
7.9624
 20
6.196559
 30
0.0
 11
7.9624
 21
10.078689
 31
0.0
  0
ARC
  5
D2
100
AcDbEntity
  8
2
370
    50
100
AcDbCircle
 10
34.02365
 20
79.227144
 30
0.0
 40
80.0
100
AcDbArc
 50
271.746897
 51
279.307581
  0
ARC
  5
D3
100
AcDbEntity
  8
2
370
    50
100
AcDbCircle
 10
47.013554
 20
0.516377
 30
0.0
 40
0.241461
100
AcDbArc
 50
257.769206
 51
329.463789
  0
ARC
  5
D4
100
AcDbEntity
  8
2
370
    50
100
AcDbCircle
 10
14.209111
 20
35.764324
 30
0.0
 40
0.5
100
AcDbArc
 50
90.0
 51
179.246086
  0
ARC
  5
D5
100
AcDbEntity
  8
2
370
    50
100
AcDbCircle
 10
-23.7876
 20
36.264324
 30
0.0
 40
37.5
100
AcDbArc
 50
335.230413
 51
359.246086
  0
ARC
  5
D6
100
AcDbEntity
  8
2
370
    50
100
AcDbCircle
 10
25.901151
 20
79.227144
 30
0.0
 40
80.0
100
AcDbArc
 50
260.715638
 51
268.253103
  0
LINE
  5
D7
100
AcDbEntity
  8
2
370
    50
100
AcDbLine
 10
45.71569
 20
36.264324
 30
0.0
 11
14.209111
 21
36.264324
 31
0.0
  0
LINE
  5
D8
100
AcDbEntity
  8
2
370
    50
100
AcDbLine
 10
23.4624
 20
-0.735676
 30
0.0
 11
36.4624
 21
-0.735676
 31
0.0
  0
ARC
  5
D9
100
AcDbEntity
  8
2
370
    50
100
AcDbCircle
 10
29.9624
 20
8.656629
 30
0.0
 40
12.0
100
AcDbArc
 50
240.0
 51
300.0
  0
LINE
  5
DA
100
AcDbEntity
  8
2
370
    50
100
AcDbLine
 10
23.9624
 20
-1.735676
 30
0.0
 11
23.9624
 21
-0.735676
 31
0.0
  0
LINE
  5
DB
100
AcDbEntity
  8
2
370
    50
100
AcDbLine
 10
35.9624
 20
-0.735676
 30
0.0
 11
35.9624
 21
-1.735676
 31
0.0
  0
ARC
  5
DC
100
AcDbEntity
  8
2
370
    50
100
AcDbCircle
 10
9.389917
 20
-40.420081
 30
0.0
 40
18.0
100
AcDbArc
 50
273.697455
 51
338.302545
  0
ARC
  5
DD
100
AcDbEntity
  8
2
370
    50
100
AcDbCircle
 10
-3.324578
 20
-79.551271
 30
0.0
 40
18.0
100
AcDbArc
 50
345.697455
 51
50.302545
  0
ARC
  5
DE
100
AcDbEntity
  8
2
370
    50
100
AcDbCircle
 10
29.9624
 20
-103.735676
 30
0.0
 40
18.0
100
AcDbArc
 50
57.697455
 51
122.302545
  0
ARC
  5
DF
100
AcDbEntity
  8
2
370
    50
100
AcDbCircle
 10
63.249379
 20
-79.551271
 30
0.0
 40
18.0
100
AcDbArc
 50
129.697455
 51
194.302545
  0
ARC
  5
E0
100
AcDbEntity
  8
2
370
    50
100
AcDbCircle
 10
50.534884
 20
-40.420081
 30
0.0
 40
18.0
100
AcDbArc
 50
201.697455
 51
266.302545
  0
ARC
  5
E1
100
AcDbEntity
  8
2
370
    50
100
AcDbCircle
 10
29.9624
 20
-68.735676
 30
0.0
 40
22.0
100
AcDbArc
 50
223.927156
 51
244.072844
  0
ARC
  5
E2
100
AcDbEntity
  8
2
370
    50
100
AcDbCircle
 10
29.9624
 20
-68.735676
 30
0.0
 40
22.0
100
AcDbArc
 50
151.927156
 51
172.072844
  0
ARC
  5
E3
100
AcDbEntity
  8
2
370
    50
100
AcDbCircle
 10
29.9624
 20
-68.735676
 30
0.0
 40
22.0
100
AcDbArc
 50
79.927156
 51
100.072844
  0
ARC
  5
E4
100
AcDbEntity
  8
2
370
    50
100
AcDbCircle
 10
29.9624
 20
-68.735676
 30
0.0
 40
22.0
100
AcDbArc
 50
295.927156
 51
316.072844
  0
ARC
  5
E5
100
AcDbEntity
  8
2
370
    50
100
AcDbCircle
 10
29.9624
 20
-68.735676
 30
0.0
 40
22.0
100
AcDbArc
 50
7.927156
 51
28.072844
  0
ARC
  5
E6
100
AcDbEntity
  8
2
370
    50
100
AcDbCircle
 10
11.934644
 20
-86.735676
 30
0.0
 40
10.0
100
AcDbArc
 50
75.11307
 51
90.0
  0
LINE
  5
E7
100
AcDbEntity
  8
2
370
    50
100
AcDbLine
 10
56.3004
 20
-58.258176
 30
0.0
 11
49.40415
 21
-58.258176
 31
0.0
  0
LINE
  5
E8
100
AcDbEntity
  8
2
370
    25
100
AcDbLine
 10
49.892816
 20
-59.420176
 30
0.0
 11
57.4624
 21
-59.420176
 31
0.0
  0
LINE
  5
E9
100
AcDbEntity
  8
2
370
    50
100
AcDbLine
 10
56.3004
 20
-79.213176
 30
0.0
 11
49.40415
 21
-79.213176
 31
0.0
  0
LINE
  5
EA
100
AcDbEntity
  8
2
370
    50
100
AcDbLine
 10
56.3004
 20
-79.213176
 30
0.0
 11
56.3004
 21
-58.258176
 31
0.0
  0
LINE
  5
EB
100
AcDbEntity
  8
2
370
    50
100
AcDbLine
 10
57.4624
 20
-78.051176
 30
0.0
 11
57.4624
 21
-59.420176
 31
0.0
  0
LINE
  5
EC
100
AcDbEntity
  8
2
370
    50
100
AcDbLine
 10
-12.0376
 20
71.741824
 30
0.0
 11
-9.3376
 21
71.741824
 31
0.0
  0
LINE
  5
ED
100
AcDbEntity
  8
2
370
    50
100
AcDbLine
 10
-14.0376
 20
50.786824
 30
0.0
 11
-9.3376
 21
50.786824
 31
0.0
  0
CIRCLE
  5
EE
100
AcDbEntity
  8
2
370
    50
100
AcDbCircle
 10
29.9624
 20
-68.735676
 30
0.0
 40
6.0
  0
LINE
  5
EF
100
AcDbEntity
  8
2
370
    25
  6
CENTER
100
AcDbLine
 10
-29.0376
 20
-43.133789
 30
0.0
 11
-29.0376
 21
-94.735676
 31
0.0
  0
LINE
  5
F0
100
AcDbEntity
  8
2
370
    25
  6
CENTER
100
AcDbLine
 10
29.9624
 20
-43.655983
 30
0.0
 11
29.9624
 21
-90.634363
 31
0.0
  0
LINE
  5
F1
100
AcDbEntity
  8
2
370
    25
  6
CENTER
100
AcDbLine
 10
-55.0376
 20
-68.735676
 30
0.0
 11
60.530701
 21
-68.735676
 31
0.0
  0
LINE
  5
F2
100
AcDbEntity
  8
2
370
    25
  6
CENTER
100
AcDbLine
 10
-43.389913
 20
61.264324
 30
0.0
 11
61.219883
 21
61.264324
 31
0.0
  0
LINE
  5
F3
100
AcDbEntity
  8
2
370
    50
100
AcDbLine
 10
-44.0376
 20
49.764324
 30
0.0
 11
-14.0376
 21
49.764324
 31
0.0
  0
LINE
  5
F4
100
AcDbEntity
  8
2
370
    50
100
AcDbLine
 10
-12.0376
 20
70.579824
 30
0.0
 11
-12.0376
 21
51.948824
 31
0.0
  0
LINE
  5
F5
100
AcDbEntity
  8
2
370
    50
100
AcDbLine
 10
40.6494
 20
40.764324
 30
0.0
 11
19.2754
 21
40.764324
 31
0.0
  0
LINE
  5
F6
100
AcDbEntity
  8
2
370
    50
100
AcDbLine
 10
23.9624
 20
-1.735676
 30
0.0
 11
35.9624
 21
-1.735676
 31
0.0
  0
ELLIPSE
  5
F7
100
AcDbEntity
  8
2
370
    50
100
AcDbEllipse
 10
-2.8376
 20
61.264324
 30
0.0
 11
5.311801
 21
0.0
 31
0.0
210
0.0
220
0.0
230
1.0
 40
0.922282
 41
0.0
 42
6.2831849999999996
  0
ELLIPSE
  5
F8
100
AcDbEntity
  8
2
370
    50
100
AcDbEllipse
 10
-2.8376
 20
71.223616
 30
0.0
 11
5.311801
 21
0.0
 31
0.0
210
0.0
220
0.0
230
1.0
 40
0.461141
 41
0.0
 42
6.2831849999999996
  0
ELLIPSE
  5
F9
100
AcDbEntity
  8
2
370
    50
100
AcDbEllipse
 10
-2.8376
 20
51.305032
 30
0.0
 11
5.311801
 21
0.0
 31
0.0
210
0.0
220
0.0
230
1.0
 40
0.461141
 41
0.0
 42
6.2831849999999996
  0
LINE
  5
FA
100
AcDbEntity
  8
2
370
    25
  6
CENTER
100
AcDbLine
 10
29.9624
 20
76.736931
 30
0.0
 11
29.9624
 21
-7.353847
 31
0.0
  0
LINE
  5
FB
100
AcDbEntity
  8
2
370
    50
100
AcDbLine
 10
-39.5151
 20
96.102324
 30
0.0
 11
-18.5601
 21
96.102324
 31
0.0
  0
LINE
  5
FC
100
AcDbEntity
  8
2
370
    50
100
AcDbLine
 10
-20.615431
 20
-81.148052
 30
0.0
 11
-21.243371
 21
-82.235676
 31
0.0
  0
LINE
  5
FD
100
AcDbEntity
  8
2
370
    50
100
AcDbLine
 10
-21.243371
 20
-55.235676
 30
0.0
 11
-20.615431
 21
-56.3233
 31
0.0
  0
ARC
  5
FE
100
AcDbEntity
  8
2
370
    50
100
AcDbCircle
 10
-29.0376
 20
86.358074
 30
0.0
 40
9.59375
100
AcDbArc
 50
215.666189
 51
324.333811
  0
ARC
  5
FF
100
AcDbEntity
  8
2
370
    50
100
AcDbCircle
 10
-17.346257
 20
80.662762
 30
0.0
 40
3.898438
100
AcDbArc
 50
181.492845
 51
358.507155
  0
ARC
  5
100
100
AcDbEntity
  8
2
370
    50
100
AcDbCircle
 10
-40.728943
 20
80.662762
 30
0.0
 40
3.898438
100
AcDbArc
 50
181.492845
 51
358.507155
  0
LINE
  5
101
100
AcDbEntity
  8
2
370
    50
100
AcDbLine
 10
-36.831828
 20
-55.235676
 30
0.0
 11
-35.575948
 21
-55.235676
 31
0.0
  0
LINE
  5
102
100
AcDbEntity
  8
2
370
    50
100
AcDbLine
 10
-22.499251
 20
-55.235676
 30
0.0
 11
-21.243371
 21
-55.235676
 31
0.0
  0
LINE
  5
103
100
AcDbEntity
  8
2
370
    50
100
AcDbLine
 10
-44.626057
 20
-68.735676
 30
0.0
 11
-43.998117
 21
-67.648052
 31
0.0
  0
LINE
  5
104
100
AcDbEntity
  8
2
370
    50
100
AcDbLine
 10
-37.459768
 20
-56.3233
 30
0.0
 11
-36.831828
 21
-55.235676
 31
0.0
  0
LINE
  5
105
100
AcDbEntity
  8
2
370
    50
100
AcDbLine
 10
-44.626057
 20
-68.735676
 30
0.0
 11
-43.998117
 21
-69.8233
 31
0.0
  0
LINE
  5
106
100
AcDbEntity
  8
2
370
    50
100
AcDbLine
 10
-37.459768
 20
-81.148052
 30
0.0
 11
-36.831828
 21
-82.235676
 31
0.0
  0
LINE
  5
107
100
AcDbEntity
  8
2
370
    50
100
AcDbLine
 10
-36.831828
 20
-82.235676
 30
0.0
 11
-35.575948
 21
-82.235676
 31
0.0
  0
LINE
  5
108
100
AcDbEntity
  8
2
370
    50
100
AcDbLine
 10
-22.499251
 20
-82.235676
 30
0.0
 11
-21.243371
 21
-82.235676
 31
0.0
  0
LINE
  5
109
100
AcDbEntity
  8
2
370
    50
100
AcDbLine
 10
10.5507
 20
5.944789
 30
0.0
 11
10.5507
 21
10.078689
 31
0.0
  0
LINE
  5
10A
100
AcDbEntity
  8
2
370
    50
100
AcDbLine
 10
26.114599
 20
5.38004
 30
0.0
 11
26.114599
 21
10.078689
 31
0.0
  0
ARC
  5
10B
100
AcDbEntity
  8
2
370
    50
100
AcDbCircle
 10
83.7124
 20
36.264324
 30
0.0
 40
37.5
100
AcDbArc
 50
180.753914
 51
204.769587
  0
ARC
  5
10C
100
AcDbEntity
  8
2
370
    50
100
AcDbCircle
 10
26.9624
 20
10.078689
 30
0.0
 40
25.0
100
AcDbArc
 50
0.0
 51
24.769587
  0
LINE
  5
10D
100
AcDbEntity
  8
2
370
    50
100
AcDbLine
 10
51.9624
 20
6.196559
 30
0.0
 11
51.9624
 21
10.078689
 31
0.0
  0
ARC
  5
10E
100
AcDbEntity
  8
2
370
    50
100
AcDbCircle
 10
45.9624
 20
6.196559
 30
0.0
 40
6.0
100
AcDbArc
 50
279.284362
 51
360.0
  0
ARC
  5
10F
100
AcDbEntity
  8
2
370
    50
100
AcDbCircle
 10
45.71569
 20
35.764324
 30
0.0
 40
0.5
100
AcDbArc
 50
0.753914
 51
90.0
  0
ARC
  5
110
100
AcDbEntity
  8
2
370
    50
100
AcDbCircle
 10
41.997421
 20
10.078689
 30
0.0
 40
31.446721
100
AcDbArc
 50
135.658216
 51
180.0
  0
ARC
  5
111
100
AcDbEntity
  8
2
370
    50
100
AcDbCircle
 10
-17.944521
 20
10.078689
 30
0.0
 40
44.059119
100
AcDbArc
 50
0.0
 51
29.772812
  0
ARC
  5
112
100
AcDbEntity
  8
2
370
    50
100
AcDbCircle
 10
19.864846
 20
31.708498
 30
0.0
 40
0.5
100
AcDbArc
 50
29.772812
 51
135.658216
  0
ARC
  5
113
100
AcDbEntity
  8
2
370
    50
100
AcDbCircle
 10
25.901151
 20
80.227144
 30
0.0
 40
80.0
100
AcDbArc
 50
262.067521
 51
266.340856
  0
ARC
  5
114
100
AcDbEntity
  8
2
370
    50
100
AcDbCircle
 10
21.114599
 20
5.38004
 30
0.0
 40
5.0
100
AcDbArc
 50
266.340856
 51
360.0
  0
ARC
  5
115
100
AcDbEntity
  8
2
370
    50
100
AcDbCircle
 10
15.5507
 20
5.944789
 30
0.0
 40
5.0
100
AcDbArc
 50
180.0
 51
262.067521
  0
LINE
  5
116
100
AcDbEntity
  8
2
370
    50
100
AcDbLine
 10
49.374101
 20
5.944789
 30
0.0
 11
49.374101
 21
10.078689
 31
0.0
  0
LINE
  5
117
100
AcDbEntity
  8
2
370
    50
100
AcDbLine
 10
33.810202
 20
5.38004
 30
0.0
 11
33.810202
 21
10.078689
 31
0.0
  0
ARC
  5
118
100
AcDbEntity
  8
2
370
    50
100
AcDbCircle
 10
17.92738
 20
10.078689
 30
0.0
 40
31.446721
100
AcDbArc
 50
0.0
 51
44.341784
  0
ARC
  5
119
100
AcDbEntity
  8
2
370
    50
100
AcDbCircle
 10
77.869322
 20
10.078689
 30
0.0
 40
44.059119
100
AcDbArc
 50
150.227188
 51
180.0
  0
ARC
  5
11A
100
AcDbEntity
  8
2
370
    50
100
AcDbCircle
 10
40.059955
 20
31.708498
 30
0.0
 40
0.5
100
AcDbArc
 50
44.341784
 51
150.227188
  0
ARC
  5
11B
100
AcDbEntity
  8
2
370
    50
100
AcDbCircle
 10
34.02365
 20
80.227144
 30
0.0
 40
80.0
100
AcDbArc
 50
273.659144
 51
277.932479
  0
ARC
  5
11C
100
AcDbEntity
  8
2
370
    50
100
AcDbCircle
 10
38.810202
 20
5.38004
 30
0.0
 40
5.0
100
AcDbArc
 50
180.0
 51
273.659144
  0
ARC
  5
11D
100
AcDbEntity
  8
2
370
    50
100
AcDbCircle
 10
44.374101
 20
5.944789
 30
0.0
 40
5.0
100
AcDbArc
 50
277.932479
 51
360.0
  0
ELLIPSE
  5
11E
100
AcDbEntity
  8
2
370
    50
100
AcDbEllipse
 10
29.9624
 20
35.133781
 30
0.0
 11
5.0990200000000003
 21
0.0
 31
0.0
210
0.0
220
0.0
230
1.0
 40
0.588348
 41
0.386391
 42
2.7552020000000002
  0
ELLIPSE
  5
11F
100
AcDbEntity
  8
2
370
    50
100
AcDbEllipse
 10
40.850304
 20
35.133781
 30
0.0
 11
0.0
 21
3.0
 31
0.0
210
0.0
220
0.0
230
1.0
 40
0.870699
 41
5.0987799999999996
 42
1.1844060000000001
  0
ELLIPSE
  5
120
100
AcDbEntity
  8
2
370
    50
100
AcDbEllipse
 10
19.074497
 20
35.133781
 30
0.0
 11
0.0
 21
-3.0
 31
0.0
210
0.0
220
0.0
230
1.0
 40
0.870699
 41
1.957187
 42
4.3259980000000002
  0
LINE
  5
121
100
AcDbEntity
  8
2
370
    50
100
AcDbLine
 10
57.4624
 20
51.948824
 30
0.0
 11
56.3004
 21
50.786824
 31
0.0
  0
LINE
  5
122
100
AcDbEntity
  8
2
370
    50
100
AcDbLine
 10
57.4624
 20
70.579824
 30
0.0
 11
57.4624
 21
51.948824
 31
0.0
  0
LINE
  5
123
100
AcDbEntity
  8
2
370
    50
100
AcDbLine
 10
56.3004
 20
71.741824
 30
0.0
 11
57.4624
 21
70.579824
 31
0.0
  0
ARC
  5
124
100
AcDbEntity
  8
2
370
    50
100
AcDbCircle
 10
34.4624
 20
74.87194
 30
0.0
 40
1.0
100
AcDbArc
 50
260.033234
 51
360.0
  0
LINE
  5
125
100
AcDbEntity
  8
2
370
    50
100
AcDbLine
 10
44.4214
 20
82.327285
 30
0.0
 11
37.5034
 21
82.327285
 31
0.0
  0
LINE
  5
126
100
AcDbEntity
  8
2
370
    50
100
AcDbLine
 10
36.9624
 20
83.264324
 30
0.0
 11
37.5034
 21
82.327285
 31
0.0
  0
LINE
  5
127
100
AcDbEntity
  8
2
370
    50
100
AcDbLine
 10
44.9624
 20
83.264324
 30
0.0
 11
44.4214
 21
82.327285
 31
0.0
  0
LINE
  5
128
100
AcDbEntity
  8
2
370
    50
100
AcDbLine
 10
36.4624
 20
95.764324
 30
0.0
 11
36.9624
 21
96.264324
 31
0.0
  0
LINE
  5
129
100
AcDbEntity
  8
2
370
    50
100
AcDbLine
 10
45.1624
 20
83.264324
 30
0.0
 11
36.7624
 21
83.264324
 31
0.0
  0
LINE
  5
12A
100
AcDbEntity
  8
2
370
    50
100
AcDbLine
 10
45.4624
 20
83.564324
 30
0.0
 11
45.1624
 21
83.264324
 31
0.0
  0
LINE
  5
12B
100
AcDbEntity
  8
2
370
    50
100
AcDbLine
 10
44.9624
 20
80.764324
 30
0.0
 11
44.9624
 21
83.264324
 31
0.0
  0
LINE
  5
12C
100
AcDbEntity
  8
2
370
    25
100
AcDbLine
 10
44.4214
 20
82.327285
 30
0.0
 11
44.4214
 21
80.764324
 31
0.0
  0
LINE
  5
12D
100
AcDbEntity
  8
2
370
    25
100
AcDbLine
 10
37.5034
 20
82.327285
 30
0.0
 11
37.5034
 21
80.764324
 31
0.0
  0
LINE
  5
12E
100
AcDbEntity
  8
2
370
    50
100
AcDbLine
 10
36.9624
 20
80.764324
 30
0.0
 11
36.9624
 21
83.264324
 31
0.0
  0
LINE
  5
12F
100
AcDbEntity
  8
2
370
    50
100
AcDbLine
 10
35.9624
 20
80.764324
 30
0.0
 11
45.9624
 21
80.764324
 31
0.0
  0
LINE
  5
130
100
AcDbEntity
  8
2
370
    50
100
AcDbLine
 10
35.4624
 20
80.264324
 30
0.0
 11
35.4624
 21
74.87194
 31
0.0
  0
LINE
  5
131
100
AcDbEntity
  8
2
370
    50
100
AcDbLine
 10
35.4624
 20
80.264324
 30
0.0
 11
35.9624
 21
80.764324
 31
0.0
  0
LINE
  5
132
100
AcDbEntity
  8
2
370
    50
100
AcDbLine
 10
45.9624
 20
80.764324
 30
0.0
 11
46.4624
 21
80.264324
 31
0.0
  0
LINE
  5
133
100
AcDbEntity
  8
2
370
    50
100
AcDbLine
 10
36.4624
 20
83.564324
 30
0.0
 11
36.7624
 21
83.264324
 31
0.0
  0
LINE
  5
134
100
AcDbEntity
  8
2
370
    50
100
AcDbLine
 10
36.4624
 20
95.764324
 30
0.0
 11
36.4624
 21
83.564324
 31
0.0
  0
LINE
  5
135
100
AcDbEntity
  8
2
370
    50
100
AcDbLine
 10
45.4624
 20
95.764324
 30
0.0
 11
44.9624
 21
96.264324
 31
0.0
  0
LINE
  5
136
100
AcDbEntity
  8
2
370
    50
100
AcDbLine
 10
36.9624
 20
96.264324
 30
0.0
 11
44.9624
 21
96.264324
 31
0.0
  0
LINE
  5
137
100
AcDbEntity
  8
2
370
    50
100
AcDbLine
 10
45.4624
 20
83.564324
 30
0.0
 11
45.4624
 21
95.764324
 31
0.0
  0
LINE
  5
138
100
AcDbEntity
  8
2
370
    50
100
AcDbLine
 10
36.4624
 20
95.764324
 30
0.0
 11
45.4624
 21
95.764324
 31
0.0
  0
LINE
  5
139
100
AcDbEntity
  8
2
370
    50
100
AcDbLine
 10
36.4624
 20
83.564324
 30
0.0
 11
45.4624
 21
83.564324
 31
0.0
  0
LINE
  5
13A
100
AcDbEntity
  8
2
370
    25
100
AcDbLine
 10
41.890218
 20
95.728085
 30
0.0
 11
41.659278
 21
95.328085
 31
0.0
  0
LINE
  5
13B
100
AcDbEntity
  8
2
370
    25
100
AcDbLine
 10
42.373021
 20
95.764324
 30
0.0
 11
41.890218
 21
94.928085
 31
0.0
  0
LINE
  5
13C
100
AcDbEntity
  8
2
370
    25
100
AcDbLine
 10
42.834902
 20
95.764324
 30
0.0
 11
42.121159
 21
94.528085
 31
0.0
  0
LINE
  5
13D
100
AcDbEntity
  8
2
370
    25
100
AcDbLine
 10
43.296782
 20
95.764324
 30
0.0
 11
42.352099
 21
94.128085
 31
0.0
  0
LINE
  5
13E
100
AcDbEntity
  8
2
370
    25
100
AcDbLine
 10
43.758662
 20
95.764324
 30
0.0
 11
42.583039
 21
93.728085
 31
0.0
  0
LINE
  5
13F
100
AcDbEntity
  8
2
370
    25
100
AcDbLine
 10
44.220542
 20
95.764324
 30
0.0
 11
42.813979
 21
93.328085
 31
0.0
  0
LINE
  5
140
100
AcDbEntity
  8
2
370
    25
100
AcDbLine
 10
44.682422
 20
95.764324
 30
0.0
 11
43.044919
 21
92.928085
 31
0.0
  0
LINE
  5
141
100
AcDbEntity
  8
2
370
    25
100
AcDbLine
 10
45.144303
 20
95.764324
 30
0.0
 11
43.275859
 21
92.528085
 31
0.0
  0
LINE
  5
142
100
AcDbEntity
  8
2
370
    25
100
AcDbLine
 10
45.4624
 20
95.515286
 30
0.0
 11
43.506799
 21
92.128085
 31
0.0
  0
LINE
  5
143
100
AcDbEntity
  8
2
370
    25
100
AcDbLine
 10
45.4624
 20
94.715286
 30
0.0
 11
43.737739
 21
91.728085
 31
0.0
  0
LINE
  5
144
100
AcDbEntity
  8
2
370
    25
100
AcDbLine
 10
45.4624
 20
93.915286
 30
0.0
 11
43.968679
 21
91.328085
 31
0.0
  0
LINE
  5
145
100
AcDbEntity
  8
2
370
    25
100
AcDbLine
 10
45.4624
 20
93.115286
 30
0.0
 11
44.199619
 21
90.928085
 31
0.0
  0
LINE
  5
146
100
AcDbEntity
  8
2
370
    25
100
AcDbLine
 10
45.4624
 20
92.315286
 30
0.0
 11
44.43056
 21
90.528085
 31
0.0
  0
LINE
  5
147
100
AcDbEntity
  8
2
370
    25
100
AcDbLine
 10
45.4624
 20
91.515286
 30
0.0
 11
44.6615
 21
90.128085
 31
0.0
  0
LINE
  5
148
100
AcDbEntity
  8
2
370
    25
100
AcDbLine
 10
45.4624
 20
90.715286
 30
0.0
 11
44.89244
 21
89.728085
 31
0.0
  0
LINE
  5
149
100
AcDbEntity
  8
2
370
    25
100
AcDbLine
 10
45.4624
 20
89.915286
 30
0.0
 11
45.12338
 21
89.328085
 31
0.0
  0
LINE
  5
14A
100
AcDbEntity
  8
2
370
    25
100
AcDbLine
 10
45.4624
 20
89.115286
 30
0.0
 11
45.35432
 21
88.928085
 31
0.0
  0
LINE
  5
14B
100
AcDbEntity
  8
2
370
    25
100
AcDbLine
 10
41.869296
 20
95.764324
 30
0.0
 11
45.4624
 21
89.540884
 31
0.0
  0
LINE
  5
14C
100
AcDbEntity
  8
2
370
    25
100
AcDbLine
 10
45.4624
 20
90.340884
 30
0.0
 11
42.331176
 21
95.764324
 31
0.0
  0
LINE
  5
14D
100
AcDbEntity
  8
2
370
    25
100
AcDbLine
 10
42.793056
 20
95.764324
 30
0.0
 11
45.4624
 21
91.140884
 31
0.0
  0
LINE
  5
14E
100
AcDbEntity
  8
2
370
    25
100
AcDbLine
 10
43.254936
 20
95.764324
 30
0.0
 11
45.4624
 21
91.940884
 31
0.0
  0
LINE
  5
14F
100
AcDbEntity
  8
2
370
    25
100
AcDbLine
 10
43.716816
 20
95.764324
 30
0.0
 11
45.4624
 21
92.740884
 31
0.0
  0
LINE
  5
150
100
AcDbEntity
  8
2
370
    25
100
AcDbLine
 10
44.178697
 20
95.764324
 30
0.0
 11
45.4624
 21
93.540884
 31
0.0
  0
LINE
  5
151
100
AcDbEntity
  8
2
370
    25
100
AcDbLine
 10
44.640577
 20
95.764324
 30
0.0
 11
45.4624
 21
94.340884
 31
0.0
  0
LINE
  5
152
100
AcDbEntity
  8
2
370
    25
100
AcDbLine
 10
45.102457
 20
95.764324
 30
0.0
 11
45.4624
 21
95.140884
 31
0.0
  0
LINE
  5
153
100
AcDbEntity
  8
2
370
    50
100
AcDbLine
 10
50.6899
 20
71.741824
 30
0.0
 11
56.3004
 21
71.741824
 31
0.0
  0
LINE
  5
154
100
AcDbEntity
  8
2
370
    50
100
AcDbLine
 10
46.4624
 20
71.514324
 30
0.0
 11
46.4624
 21
80.264324
 31
0.0
  0
ARC
  5
155
100
AcDbEntity
  8
2
370
    50
100
AcDbCircle
 10
47.4624
 20
71.514324
 30
0.0
 40
1.0
100
AcDbArc
 50
180.0
 51
270.0
  0
LINE
  5
156
100
AcDbEntity
  8
2
370
    50
100
AcDbLine
 10
49.755294
 20
70.807217
 30
0.0
 11
50.6899
 21
71.741824
 31
0.0
  0
LINE
  5
157
100
AcDbEntity
  8
2
370
    50
100
AcDbLine
 10
49.048187
 20
70.514324
 30
0.0
 11
47.4624
 21
70.514324
 31
0.0
  0
ARC
  5
158
100
AcDbEntity
  8
2
370
    50
100
AcDbCircle
 10
49.048187
 20
71.514324
 30
0.0
 40
1.0
100
AcDbArc
 50
270.0
 51
315.0
  0
LINE
  5
159
100
AcDbEntity
  8
2
370
    25
100
AcDbLine
 10
57.4624
 20
70.579824
 30
0.0
 11
49.40415
 21
70.579824
 31
0.0
  0
LINE
  5
15A
100
AcDbEntity
  8
2
370
    50
100
AcDbLine
 10
56.3004
 20
50.786824
 30
0.0
 11
50.6899
 21
50.786824
 31
0.0
  0
ARC
  5
15B
100
AcDbEntity
  8
2
370
    50
100
AcDbCircle
 10
49.048187
 20
51.014324
 30
0.0
 40
1.0
100
AcDbArc
 50
45.0
 51
90.0
  0
LINE
  5
15C
100
AcDbEntity
  8
2
370
    25
100
AcDbLine
 10
49.40415
 20
51.948824
 30
0.0
 11
57.4624
 21
51.948824
 31
0.0
  0
LINE
  5
15D
100
AcDbEntity
  8
2
370
    50
100
AcDbLine
 10
49.755294
 20
51.721431
 30
0.0
 11
50.6899
 21
50.786824
 31
0.0
  0
LINE
  5
15E
100
AcDbEntity
  8
2
370
    50
100
AcDbLine
 10
49.048187
 20
52.014324
 30
0.0
 11
44.9624
 21
52.014324
 31
0.0
  0
ARC
  5
15F
100
AcDbEntity
  8
2
370
    50
100
AcDbCircle
 10
44.9624
 20
48.014324
 30
0.0
 40
4.0
100
AcDbArc
 50
90.0
 51
180.0
  0
LINE
  5
160
100
AcDbEntity
  8
2
370
    50
100
AcDbLine
 10
56.3004
 20
71.741824
 30
0.0
 11
56.3004
 21
50.786824
 31
0.0
  0
LINE
  5
161
100
AcDbEntity
  8
2
370
    50
100
AcDbLine
 10
49.40415
 20
70.579824
 30
0.0
 11
49.40415
 21
51.948824
 31
0.0
  0
LINE
  5
162
100
AcDbEntity
  8
2
370
    50
100
AcDbLine
 10
50.6899
 20
71.741824
 30
0.0
 11
50.6899
 21
50.786824
 31
0.0
  0
LINE
  5
163
100
AcDbEntity
  8
2
370
    25
  6
CENTER
100
AcDbLine
 10
40.9624
 20
97.043245
 30
0.0
 11
40.9624
 21
69.253868
 31
0.0
  0
LINE
  5
164
100
AcDbEntity
  8
2
370
    50
100
AcDbLine
 10
46.4624
 20
80.264324
 30
0.0
 11
35.4624
 21
80.264324
 31
0.0
  0
ARC
  5
165
100
AcDbEntity
  8
2
370
    25
100
AcDbCircle
 10
40.9624
 20
83.590171
 30
0.0
 40
14.185478
100
AcDbArc
 50
270.0
 51
291.066246
  0
ARC
  5
166
100
AcDbEntity
  8
2
370
    25
100
AcDbCircle
 10
40.9624
 20
75.089488
 30
0.0
 40
5.684794
100
AcDbArc
 50
200.99797
 51
270.0
  0
LINE
  5
167
100
AcDbEntity
  8
2
370
    50
100
AcDbLine
 10
49.40415
 20
-79.213176
 30
0.0
 11
48.469543
 21
-78.278569
 31
0.0
  0
LINE
  5
168
100
AcDbEntity
  8
2
370
    25
100
AcDbLine
 10
57.4624
 20
-78.051176
 30
0.0
 11
48.1184
 21
-78.051176
 31
0.0
  0
LINE
  5
169
100
AcDbEntity
  8
2
370
    50
100
AcDbLine
 10
45.317594
 20
-77.985676
 30
0.0
 11
47.762436
 21
-77.985676
 31
0.0
  0
ARC
  5
16A
100
AcDbEntity
  8
2
370
    50
100
AcDbCircle
 10
47.762436
 20
-78.985676
 30
0.0
 40
1.0
100
AcDbArc
 50
45.0
 51
90.0
  0
LINE
  5
16B
100
AcDbEntity
  8
2
370
    50
100
AcDbLine
 10
49.40415
 20
-79.213176
 30
0.0
 11
49.40415
 21
-68.048678
 31
0.0
  0
LINE
  5
16C
100
AcDbEntity
  8
2
370
    50
100
AcDbLine
 10
48.17665
 20
-77.985676
 30
0.0
 11
48.17665
 21
-69.711918
 31
0.0
  0
TEXT
  5
16D
100
AcDbEntity
  8
3
370
    50
100
AcDbText
 10
145.416291
 20
-120.006746
 30
0.0
 40
3.0
  1
１　１
 72
     5
 11
153.816291
 21
-120.006746
 31
0.0
100
AcDbText
  0
TEXT
  5
16E
100
AcDbEntity
  8
3
370
    50
100
AcDbText
 10
145.416291
 20
-120.006746
 30
0.0
 40
3.0
  1
１　１
 72
     5
 11
153.816291
 21
-120.006746
 31
0.0
100
AcDbText
  0
POINT
  5
16F
100
AcDbEntity
  8
3
370
    50
100
AcDbPoint
 10
197.491193
 20
-108.985941
 30
0.0
  0
TEXT
  5
170
100
AcDbEntity
  8
3
370
    50
100
AcDbText
 10
-61.015076
 20
33.951736
 30
0.0
 40
3.5
  1
Ｇ１／２
 72
     5
 11
-47.715076
 21
33.951736
 31
0.0
100
AcDbText
  0
DIMENSION
  5
171
100
AcDbEntity
  8
3
370
    25
100
AcDbDimension
  2
*D0
 10
-63.816589
 20
61.264324
 30
0.0
 11
-67.816589
 21
54.264324
 31
0.0
 71
     0
 72
     0
 41
0.0
 42
0.0
  3
Standard
100
AcDbAlignedDimension
 13
-44.0376
 23
47.264324
 33
0.0
 14
-42.389913
 24
61.264324
 34
0.0
 50
90.0
100
AcDbRotatedDimension
  0
DIMENSION
  5
172
100
AcDbEntity
  8
3
370
    25
100
AcDbDimension
  2
*D1
 10
-74.746727
 20
97.264324
 30
0.0
 11
-78.746727
 21
72.264324
 31
0.0
 71
     0
 72
     0
 41
0.0
 42
0.0
  3
Standard
100
AcDbAlignedDimension
 13
-44.0376
 23
47.264324
 33
0.0
 14
-38.3531
 24
97.264324
 34
0.0
 50
90.0
100
AcDbRotatedDimension
  0
LWPOLYLINE
  5
173
100
AcDbEntity
  8
3
370
    25
100
AcDbPolyline
 90
        3
 70
     0
 10
53.944977
 20
71.741824
 10
62.56575
 20
84.809578
 10
85.876839
 20
84.809578
  0
LINE
  5
178
100
AcDbEntity
  8
3
370
    25
100
AcDbLine
 10
55.008783
 20
73.354389
 30
0.0
 11
54.576698
 21
73.639436
 31
0.0
  0
LINE
  5
179
100
AcDbEntity
  8
3
370
    25
100
AcDbLine
 10
54.576698
 20
73.639436
 30
0.0
 11
53.944977
 21
71.741824
 31
0.0
  0
LINE
  5
17A
100
AcDbEntity
  8
3
370
    25
100
AcDbLine
 10
53.944977
 20
71.741824
 30
0.0
 11
55.440869
 21
73.069343
 31
0.0
  0
LINE
  5
17B
100
AcDbEntity
  8
3
370
    25
100
AcDbLine
 10
55.440869
 20
73.069343
 30
0.0
 11
55.008783
 21
73.354389
 31
0.0
  0
TEXT
  5
17C
100
AcDbEntity
  8
3
370
    50
100
AcDbText
 10
62.577
 20
80.51226
 30
0.0
 40
3.5
  1
（給水栓ネジ）
 72
     5
 11
86.377
 21
80.51226
 31
0.0
100
AcDbText
  0
TEXT
  5
17D
100
AcDbEntity
  8
3
370
    50
100
AcDbText
 10
63.264507
 20
85.860344
 30
0.0
 40
3.5
  1
ＰＪ１／２
 72
     5
 11
80.064507
 21
85.860344
 31
0.0
100
AcDbText
  0
LWPOLYLINE
  5
17E
100
AcDbEntity
  8
3
370
    25
100
AcDbPolyline
 90
        3
 70
     0
 10
-18.5601
 20
92.954819
 10
-1.103339
 20
104.997589
 10
20.133519
 20
104.997589
  0
LINE
  5
183
100
AcDbEntity
  8
3
370
    25
100
AcDbLine
 10
-16.969929
 20
94.051818
 30
0.0
 11
-17.263869
 21
94.477903
 31
0.0
  0
LINE
  5
184
100
AcDbEntity
  8
3
370
    25
100
AcDbLine
 10
-17.263869
 20
94.477903
 30
0.0
 11
-18.5601
 21
92.954819
 31
0.0
  0
LINE
  5
185
100
AcDbEntity
  8
3
370
    25
100
AcDbLine
 10
-18.5601
 20
92.954819
 30
0.0
 11
-16.675989
 21
93.625733
 31
0.0
  0
LINE
  5
186
100
AcDbEntity
  8
3
370
    25
100
AcDbLine
 10
-16.675989
 20
93.625733
 30
0.0
 11
-16.969929
 21
94.051818
 31
0.0
  0
TEXT
  5
187
100
AcDbEntity
  8
3
370
    50
100
AcDbText
 10
-1.213454
 20
100.766029
 30
0.0
 40
3.5
  1
（給水栓ネジ）
 72
     5
 11
22.586546
 21
100.766029
 31
0.0
100
AcDbText
  0
TEXT
  5
188
100
AcDbEntity
  8
3
370
    50
100
AcDbText
 10
-0.525947
 20
106.114113
 30
0.0
 40
3.5
  1
ＰＪ１／２
 72
     5
 11
16.274053
 21
106.114113
 31
0.0
100
AcDbText
  0
LWPOLYLINE
  5
189
100
AcDbEntity
  8
3
370
    25
100
AcDbPolyline
 90
        3
 70
     0
 10
-37.420975
 20
47.264324
 10
-45.702099
 20
33.320717
 10
-60.948452
 20
33.320717
  0
LINE
  5
18E
100
AcDbEntity
  8
3
370
    25
100
AcDbLine
 10
-38.407445
 20
45.603323
 30
0.0
 11
-37.962381
 21
45.338999
 31
0.0
  0
LINE
  5
18F
100
AcDbEntity
  8
3
370
    25
100
AcDbLine
 10
-37.962381
 20
45.338999
 30
0.0
 11
-37.420975
 21
47.264324
 31
0.0
  0
LINE
  5
190
100
AcDbEntity
  8
3
370
    25
100
AcDbLine
 10
-37.420975
 20
47.264324
 30
0.0
 11
-38.852509
 21
45.867647
 31
0.0
  0
LINE
  5
191
100
AcDbEntity
  8
3
370
    25
100
AcDbLine
 10
-38.852509
 20
45.867647
 30
0.0
 11
-38.407445
 21
45.603323
 31
0.0
  0
DIMENSION
  5
192
100
AcDbEntity
  8
3
370
    25
100
AcDbDimension
  2
*D2
 10
-52.0376
 20
116.713272
 30
0.0
 11
-29.0376
 21
118.963272
 31
0.0
 70
     1
 71
     0
 72
     0
 41
0.0
 42
0.0
  3
Standard
100
AcDbAlignedDimension
 13
-6.0376
 23
83.764324
 33
0.0
 14
-52.0376
 24
83.764324
 34
0.0
  0
TEXT
  5
193
100
AcDbEntity
  8
3
370
    50
100
AcDbText
 10
-66.322479
 20
73.554733
 30
0.0
 40
3.5
  1
２７六角
 72
     5
 11
-53.022479
 21
73.554733
 31
0.0
100
AcDbText
  0
LWPOLYLINE
  5
194
100
AcDbEntity
  8
3
370
    25
100
AcDbPolyline
 90
        3
 70
     0
 10
-44.626057
 20
78.980431
 10
-50.786884
 20
73.184784
 10
-65.952583
 20
73.184784
  0
LINE
  5
199
100
AcDbEntity
  8
3
370
    25
100
AcDbLine
 10
-46.033148
 20
77.656744
 30
0.0
 11
-45.678467
 21
77.279715
 31
0.0
  0
LINE
  5
19A
100
AcDbEntity
  8
3
370
    25
100
AcDbLine
 10
-45.678467
 20
77.279715
 30
0.0
 11
-44.626057
 21
78.980431
 31
0.0
  0
LINE
  5
19B
100
AcDbEntity
  8
3
370
    25
100
AcDbLine
 10
-44.626057
 20
78.980431
 30
0.0
 11
-46.387829
 21
78.033773
 31
0.0
  0
LINE
  5
19C
100
AcDbEntity
  8
3
370
    25
100
AcDbLine
 10
-46.387829
 20
78.033773
 30
0.0
 11
-46.033148
 21
77.656744
 31
0.0
  0
TEXT
  5
19D
100
AcDbEntity
  8
3
370
    50
100
AcDbText
 10
-24.505594
 20
35.344894
 30
0.0
 40
3.5
  1
２３六角
 72
     5
 11
-11.205594
 21
35.344894
 31
0.0
100
AcDbText
  0
LWPOLYLINE
  5
19E
100
AcDbEntity
  8
3
370
    25
100
AcDbPolyline
 90
        3
 70
     0
 10
-2.384528
 20
48.77873
 10
-9.384661
 20
34.886639
 10
-24.658321
 20
34.886639
  0
LINE
  5
1A3
100
AcDbEntity
  8
3
370
    25
100
AcDbLine
 10
-3.253847
 20
47.053524
 30
0.0
 11
-2.79158
 21
46.820591
 31
0.0
  0
LINE
  5
1A4
100
AcDbEntity
  8
3
370
    25
100
AcDbLine
 10
-2.79158
 20
46.820591
 30
0.0
 11
-2.384528
 21
48.77873
 31
0.0
  0
LINE
  5
1A5
100
AcDbEntity
  8
3
370
    25
100
AcDbLine
 10
-2.384528
 20
48.77873
 30
0.0
 11
-3.716115
 21
47.286458
 31
0.0
  0
LINE
  5
1A6
100
AcDbEntity
  8
3
370
    25
100
AcDbLine
 10
-3.716115
 20
47.286458
 30
0.0
 11
-3.253847
 21
47.053524
 31
0.0
  0
DIMENSION
  5
1A7
100
AcDbEntity
  8
3
370
    25
100
AcDbDimension
  2
*D3
 10
29.9624
 20
-24.857658
 30
0.0
 11
0.4624
 21
-22.607658
 31
0.0
 71
     0
 72
     0
 41
0.0
 42
0.0
  3
Standard
100
AcDbAlignedDimension
 13
-29.0376
 23
-43.133789
 33
0.0
 14
29.9624
 24
-43.655983
 34
0.0
100
AcDbRotatedDimension
  0
TEXT
  5
1A8
100
AcDbEntity
  8
3
370
    50
100
AcDbText
 10
114.87706
 20
-136.430038
 30
0.0
 40
3.5
  1
外観寸法図
 72
     5
 11
131.67706
 21
-136.430038
 31
0.0
100
AcDbText
  0
DIMENSION
  5
1A9
100
AcDbEntity
  8
3
370
    25
100
AcDbDimension
  2
*D4
 10
57.4624
 20
108.090065
 30
0.0
 11
49.2124
 21
110.340065
 31
0.0
 71
     0
 72
     0
 41
0.0
 42
0.0
  3
Standard
100
AcDbAlignedDimension
 13
40.9624
 23
97.043245
 33
0.0
 14
57.4624
 24
70.579824
 34
0.0
100
AcDbRotatedDimension
  0
DIMENSION
  5
1AA
100
AcDbEntity
  8
3
370
    25
100
AcDbDimension
  2
*D5
 10
91.758385
 20
61.264324
 30
0.0
 11
87.758385
 21
28.960477
 31
0.0
 71
     0
 72
     0
 41
0.0
 42
0.0
  3
Standard
100
AcDbAlignedDimension
 13
29.9624
 23
-3.343371
 33
0.0
 14
61.219883
 24
61.264324
 34
0.0
 50
90.0
100
AcDbRotatedDimension
  0
DIMENSION
  5
1AB
100
AcDbEntity
  8
3
370
    25
100
AcDbDimension
  2
*D6
 10
91.758385
 20
96.264324
 30
0.0
 11
87.758385
 21
78.764324
 31
0.0
 71
     0
 72
     0
 41
0.0
 42
0.0
  3
Standard
100
AcDbAlignedDimension
 13
61.219883
 23
61.264324
 33
0.0
 14
44.9624
 24
96.264324
 34
0.0
 50
90.0
100
AcDbRotatedDimension
  0
TEXT
  5
1AC
100
AcDbEntity
  8
3
370
    50
100
AcDbText
 10
33.619583
 20
-118.095055
 30
0.0
 40
3.2
  1
Ｎ１３－３２ＤＣＲ
 72
     5
 11
61.779584
 21
-118.095055
 31
0.0
100
AcDbText
  0
TEXT
  5
1AD
100
AcDbEntity
  8
3
370
    50
100
AcDbText
 10
168.035138
 20
-135.940469
 30
0.0
 40
3.2
  1
６０３２０６
 72
     5
 11
186.595138
 21
-135.940469
 31
0.0
100
AcDbText
  0
TEXT
  5
1AE
100
AcDbEntity
  8
3
370
    50
100
AcDbText
 10
33.71463
 20
-113.341866
 30
0.0
 40
3.2
  1
回転分岐水栓　水抜付
 72
     5
 11
65.074631
 21
-113.341866
 31
0.0
100
AcDbText
  0
DIMENSION
  5
1AF
100
AcDbEntity
  8
3
370
    25
100
AcDbDimension
  2
*D7
 10
57.4624
 20
-24.857658
 30
0.0
 11
43.7124
 21
-22.607658
 31
0.0
 71
     0
 72
     0
 41
0.0
 42
0.0
  3
Standard
100
AcDbAlignedDimension
 13
29.9624
 23
-43.655983
 33
0.0
 14
57.4624
 24
-59.420176
 34
0.0
100
AcDbRotatedDimension
  0
ENDSEC
  0
SECTION
  2
OBJECTS
  0
DICTIONARY
  5
210
100
AcDbDictionary
280
     0
281
     1
  3
ACAD_GROUP
350
211
  3
ACAD_MLINESTYLE
350
212
  0
DICTIONARY
  5
211
102
{ACAD_REACTORS
330
210
102
}
100
AcDbDictionary
280
     0
281
     1
  0
DICTIONARY
  5
212
102
{ACAD_REACTORS
330
210
102
}
100
AcDbDictionary
280
     0
281
     1
  3
Standard
350
213
  0
MLINESTYLE
  5
213
102
{ACAD_REACTORS
330
212
102
}
100
AcDbMlineStyle
  2
Standard
 70
     0
  3

 62
     0
 51
90.0
 52
90.0
 71
     2
 49
0.5
 62
   256
  6
ByLayer
 49
-0.5
 62
   256
  6
ByLayer
  0
ENDSEC
  0
EOF
