  0
SECTION
  2
HEADER
  9
$ACADVER
  1
AC1015
  9
$ACADMAINTVER
 70
     6
  9
$DWGCODEPAGE
  3
ANSI_932
  9
$INSBASE
 10
0.0
 20
0.0
 30
0.0
  9
$EXTMIN
 10
-420.5
 20
-297.0
 30
1.000000E+20
  9
$EXTMAX
 10
420.5
 20
297.0
 30
-1.000000E+20
  9
$LIMMIN
 10
-420.5
 20
-297.0
  9
$LIMMAX
 10
420.5
 20
297.0
  9
$ORTHOMODE
 70
     0
  9
$REGENMODE
 70
     1
  9
$FILLMODE
 70
     1
  9
$QTEXTMODE
 70
     0
  9
$MIRRTEXT
 70
     1
  9
$LTSCALE
 40
1.0
  9
$ATTMODE
 70
     1
  9
$TEXTSIZE
 40
0.2
  9
$TRACEWID
 40
0.05
  9
$TEXTSTYLE
  7
STANDARD
  9
$CLAYER
  8
0
  9
$CELTYPE
  6
CONTINUOUS
  9
$CECOLOR
 62
   256
  9
$CELTSCALE
 40
1.0
  9
$DISPSILH
 70
     0
  9
$DIMSCALE
 40
1.0
  9
$DIMASZ
 40
2.0
  9
$DIMEXO
 40
1.0
  9
$DIMDLI
 40
0.38
  9
$DIMRND
 40
0.0
  9
$DIMDLE
 40
0.0
  9
$DIMEXE
 40
2.0
  9
$DIMTP
 40
0.0
  9
$DIMTM
 40
0.0
  9
$DIMTXT
 40
3.5
  9
$DIMCEN
 40
0.09
  9
$DIMTSZ
 40
0.0
  9
$DIMTOL
 70
     0
  9
$DIMLIM
 70
     0
  9
$DIMTIH
 70
     0
  9
$DIMTOH
 70
     0
  9
$DIMSE1
 70
     0
  9
$DIMSE2
 70
     0
  9
$DIMTAD
 70
     1
  9
$DIMZIN
 70
     0
  9
$DIMBLK
  1

  9
$DIMASO
 70
     1
  9
$DIMSHO
 70
     1
  9
$DIMPOST
  1

  9
$DIMAPOST
  1

  9
$DIMALT
 70
     0
  9
$DIMALTD
 70
     2
  9
$DIMALTF
 40
25.4
  9
$DIMLFAC
 40
1.0
  9
$DIMTOFL
 70
     0
  9
$DIMTVP
 40
0.0
  9
$DIMTIX
 70
     0
  9
$DIMSOXD
 70
     0
  9
$DIMSAH
 70
     0
  9
$DIMBLK1
  1

  9
$DIMBLK2
  1

  9
$DIMSTYLE
  2
Standard
  9
$DIMCLRD
 70
     0
  9
$DIMCLRE
 70
     0
  9
$DIMCLRT
 70
     0
  9
$DIMTFAC
 40
1.0
  9
$DIMGAP
 40
0.5
  9
$DIMJUST
 70
     0
  9
$DIMSD1
 70
     0
  9
$DIMSD2
 70
     0
  9
$DIMTOLJ
 70
     1
  9
$DIMTZIN
 70
     0
  9
$DIMALTZ
 70
     0
  9
$DIMALTTZ
 70
     0
  9
$DIMUPT
 70
     0
  9
$DIMDEC
 70
     3
  9
$DIMTDEC
 70
     4
  9
$DIMALTU
 70
     2
  9
$DIMALTTD
 70
     2
  9
$DIMTXSTY
  7
STANDARD
  9
$DIMAUNIT
 70
     0
  9
$DIMADEC
 70
     0
  9
$DIMALTRND
 40
0.0
  9
$DIMAZIN
 70
     0
  9
$DIMDSEP
 70
     0
  9
$DIMATFIT
 70
     3
  9
$DIMFRAC
 70
     0
  9
$DIMLDRBLK
  1

  9
$DIMLUNIT
 70
     2
  9
$DIMLWD
 70
     0
  9
$DIMLWE
 70
     0
  9
$DIMTMOVE
 70
     0
  9
$LUNITS
 70
     2
  9
$LUPREC
 70
     4
  9
$SKETCHINC
 40
0.1
  9
$FILLETRAD
 40
0.0
  9
$AUNITS
 70
     0
  9
$AUPREC
 70
     0
  9
$MENU
  1
acad
  9
$ELEVATION
 40
0.0
  9
$PELEVATION
 40
0.0
  9
$THICKNESS
 40
0.0
  9
$LIMCHECK
 70
     0
  9
$CHAMFERA
 40
0.0
  9
$CHAMFERB
 40
0.0
  9
$CHAMFERC
 40
0.0
  9
$CHAMFERD
 40
0.0
  9
$SKPOLY
 70
     0
  9
$TDCREATE
 40
2453383.000000000
  9
$TDUCREATE
 40
0.000000000
  9
$TDUPDATE
 40
0.000000000
  9
$TDUUPDATE
 40
2447892.625000000
  9
$TDINDWG
 40
0.0000000000
  9
$TDUSRTIMER
 40
0.0000000000
  9
$USRTIMER
 70
     1
  9
$ANGBASE
 50
0.0
  9
$ANGDIR
 70
     0
  9
$PDMODE
 70
     0
  9
$PDSIZE
 40
0.0
  9
$PLINEWID
 40
0.0
  9
$SPLFRAME
 70
     0
  9
$SPLINETYPE
 70
     6
  9
$SPLINESEGS
 70
     8
  9
$HANDSEED
  5
2A2
  9
$SURFTAB1
 70
     6
  9
$SURFTAB2
 70
     6
  9
$SURFTYPE
 70
     6
  9
$SURFU
 70
     6
  9
$SURFV
 70
     6
  9
$UCSBASE
  2

  9
$UCSNAME
  2

  9
$UCSORG
 10
0.0
 20
0.0
 30
0.0
  9
$UCSXDIR
 10
1.0
 20
0.0
 30
0.0
  9
$UCSYDIR
 10
0.0
 20
1.0
 30
0.0
  9
$UCSORTHOREF
  2

  9
$UCSORTHOVIEW
 70
     0
  9
$UCSORGTOP
 10
0.0
 20
0.0
 30
0.0
  9
$UCSORGBOTTOM
 10
0.0
 20
0.0
 30
0.0
  9
$UCSORGLEFT
 10
0.0
 20
0.0
 30
0.0
  9
$UCSORGRIGHT
 10
0.0
 20
0.0
 30
0.0
  9
$UCSORGFRONT
 10
0.0
 20
0.0
 30
0.0
  9
$UCSORGBACK
 10
0.0
 20
0.0
 30
0.0
  9
$PUCSBASE
  2

  9
$PUCSNAME
  2

  9
$PUCSORG
 10
0.0
 20
0.0
 30
0.0
  9
$PUCSXDIR
 10
1.0
 20
0.0
 30
0.0
  9
$PUCSYDIR
 10
0.0
 20
1.0
 30
0.0
  9
$PUCSORTHOREF
  2

  9
$PUCSORTHOVIEW
 70
     0
  9
$PUCSORGTOP
 10
0.0
 20
0.0
 30
0.0
  9
$PUCSORGBOTTOM
 10
0.0
 20
0.0
 30
0.0
  9
$PUCSORGLEFT
 10
0.0
 20
0.0
 30
0.0
  9
$PUCSORGRIGHT
 10
0.0
 20
0.0
 30
0.0
  9
$PUCSORGFRONT
 10
0.0
 20
0.0
 30
0.0
  9
$PUCSORGBACK
 10
0.0
 20
0.0
 30
0.0
  9
$USERI1
 70
     0
  9
$USERI2
 70
     0
  9
$USERI3
 70
     0
  9
$USERI4
 70
     0
  9
$USERI5
 70
     0
  9
$USERR1
 40
0.0
  9
$USERR2
 40
0.0
  9
$USERR3
 40
0.0
  9
$USERR4
 40
0.0
  9
$USERR5
 40
0.0
  9
$WORLDVIEW
 70
     1
  9
$SHADEDGE
 70
     3
  9
$SHADEDIF
 70
    70
  9
$TILEMODE
 70
     1
  9
$MAXACTVP
 70
    16
  9
$PINSBASE
 10
0.0
 20
0.0
 30
0.0
  9
$PLIMCHECK
 70
     0
  9
$PEXTMIN
 10
1.000000E+20
 20
1.000000E+20
 30
1.000000E+20
  9
$PEXTMAX
 10
-1.000000E+20
 20
-1.000000E+20
 30
-1.000000E+20
  9
$PLIMMIN
 10
0.0
 20
0.0
  9
$PLIMMAX
 10
12.0
 20
9.0
  9
$UNITMODE
 70
     0
  9
$VISRETAIN
 70
     0
  9
$PLINEGEN
 70
     1
  9
$PSLTSCALE
 70
     0
  9
$TREEDEPTH
 70
  3020
  9
$CMLSTYLE
  2
Standard
  9
$CMLJUST
 70
     0
  9
$CMLSCALE
 40
1.0
  9
$PROXYGRAPHICS
 70
     0
  9
$MEASUREMENT
 70
     0
  9
$CELWEIGHT
370
     0
  9
$ENDCAPS
280
     0
  9
$JOINSTYLE
280
     0
  9
$LWDISPLAY
290
     0
  9
$INSUNITS
 70
     0
  9
$HYPERLINKBASE
  1

  9
$STYLESHEET
  1

  9
$XEDIT
290
     1
  9
$CEPSNTYPE
380
     0
  9
$PSTYLEMODE
290
     1
  9
$FINGERPRINTGUID
  2

  9
$VERSIONGUID
  2

  9
$EXTNAMES
290
     1
  9
$PSVPSCALE
 40
0.0
  0
ENDSEC
  0
SECTION
  2
CLASSES
  0
CLASS
  1
LWPOLYLINE
  2
AcDbPolyline
  3
AutoCAD 2000
 90
        0
280
     0
281
     1
  0
CLASS
  1
IMAGE
  2
AcDbRasterImage
  3
ISM
 90
      127
280
     0
281
     1
  0
CLASS
  1
OLE2FRAME
  2
AcDbOle2Frame
  3
AutoCAD 2000
 90
        0
280
     0
281
     1
  0
CLASS
  1
HATCH
  2
AcDbHatch
  3
AutoCAD 2000
 90
        0
280
     0
281
     1
  0
CLASS
  1
DICTIONARYVAR
  2
AcDbDictionaryVar
  3
AutoCAD 2000
 90
        0
280
     0
281
     0
  0
CLASS
  1
RASTERVARIABLES
  2
AcDbRasterVariables
  3
ISM
 90
        0
280
     0
281
     0
  0
CLASS
  1
IMAGEDEF
  2
AcDbRasterImageDef
  3
ISM
 90
        0
280
     0
281
     0
  0
CLASS
  1
IMAGEDEF_REACTOR
  2
AcDbRasterImageDefReactor
  3
ISM
 90
        1
280
     0
281
     0
  0
CLASS
  1
IDBUFFER
  2
AcDbIdBuffer
  3
AutoCAD 2000
 90
        0
280
     0
281
     0
  0
CLASS
  1
SPATIAL_FILTER
  2
AcDbSpatialFilter
  3
AutoCAD 2000
 90
        0
280
     0
281
     0
  0
CLASS
  1
XRECORD
  2
AcDbXrecord
  3
AutoCAD 2000
 90
        0
280
     0
281
     0
  0
CLASS
  1
SORTENTSTABLE
  2
AcDbSortentsTable
  3
AutoCAD 2000
 90
        0
280
     0
281
     0
  0
CLASS
  1
LAYER_INDEX
  2
AcDbLayerIndex
  3
AutoCAD 2000
 90
        0
280
     0
281
     0
  0
CLASS
  1
SPATIAL_INDEX
  2
AcDbSpatialIndex
  3
AutoCAD 2000
 90
        0
280
     0
281
     0
  0
CLASS
  1
OBJECT_PTR
  2
CAseDLPNTableRecord
  3
"ASE-LPNTableRecord"
 90
        1
280
     0
281
     0
  0
CLASS
  1
LAYOUT
  2
AcDbLayout
  3
AutoCAD 2000
 90
        0
280
     0
281
     0
  0
CLASS
  1
PLOTSETTINGS
  2
AcDbPlotSettings
  3
AutoCAD 2000
 90
        0
280
     0
281
     0
  0
CLASS
  1
ACDBDICTIONARYWDFLT
  2
AcDbDictionaryWithDefault
  3
AutoCAD 2000
 90
        0
280
     0
281
     0
  0
CLASS
  1
ACDBPLACEHOLDER
  2
AcDbPlaceHolder
  3
AutoCAD 2000
 90
        0
280
     0
281
     0
  0
CLASS
  1
VBA_PROJECT
  2
AcDbVbaProject
  3
acadvba
 90
        0
280
     0
281
     0
  0
CLASS
  1
WIPEOUT
  2
AcDbWipeout
  3
WipeOut|AutoCAD Express Tool|expresstools@autodesk.com
 90
      127
280
     0
281
     1
  0
CLASS
  1
WIPEOUTVARIABLES
  2
AcDbWipeoutVariables
  3
WipeOut|AutoCAD Express Tool|expresstools@autodesk.com
 90
        0
280
     0
281
     0
  0
CLASS
  1
RTEXT
  2
RText
  3
RText|AutoCAD Express Tool|expresstools@autodesk.com
 90
        0
280
     0
281
     1
  0
CLASS
  1
ARCALIGNEDTEXT
  2
AcDbArcAlignedText
  3
ATEXT|AutoCAD Express Tool|expresstools@autodesk.com
 90
        0
280
     0
281
     1
  0
ENDSEC
  0
SECTION
  2
TABLES
  0
TABLE
  2
VPORT
  5
6
100
AcDbSymbolTable
 70
     1
  0
VPORT
  5
19
100
AcDbSymbolTableRecord
100
AcDbViewportTableRecord
  2
*ACTIVE
 70
     0
 10
0.0
 20
0.0
 11
1.0
 21
1.0
 12
0.0
 22
0.0
 13
0.0
 23
0.0
 14
1.0
 24
1.0
 15
0.0
 25
0.0
 16
0.0
 26
0.0
 36
1.0
 17
0.0
 27
0.0
 37
0.0
 40
594.0
 41
1.415825
 42
50.0
 43
0.0
 44
0.0
 50
0.0
 51
0.0
 71
     0
 72
   500
 73
     1
 74
     1
 75
     0
 76
     0
 77
     0
 78
     0
281
     0
 65
     0
110
0.0
120
0.0
130
0.0
111
1.0
121
0.0
131
0.0
112
0.0
122
1.0
132
0.0
345
0
346
0
 79
     0
146
0.0
  0
ENDTAB
  0
TABLE
  2
LTYPE
  5
3
100
AcDbSymbolTable
 70
     9
  0
LTYPE
  5
C
100
AcDbSymbolTableRecord
100
AcDbLinetypeTableRecord
  2
ByBlock
 70
    64
  3

 72
    65
 73
     0
 40
0.0
  0
LTYPE
  5
D
100
AcDbSymbolTableRecord
100
AcDbLinetypeTableRecord
  2
ByLayer
 70
    64
  3

 72
    65
 73
     0
 40
0.0
  0
LTYPE
  5
E
100
AcDbSymbolTableRecord
100
AcDbLinetypeTableRecord
  2
CONTINUOUS
 70
     0
  3
Solid line
 72
    65
 73
     0
 40
0.0
  0
LTYPE
  5
F
100
AcDbSymbolTableRecord
100
AcDbLinetypeTableRecord
  2
DASHED
 70
     0
  3
__ __ __ __ __ __ __ __ __ __ __ __ __ __ __
 72
    65
 73
     2
 40
2.0
 49
1.2
 74
     0
 49
-0.8
 74
     0
  0
LTYPE
  5
10
100
AcDbSymbolTableRecord
100
AcDbLinetypeTableRecord
  2
CENTER
 70
     0
  3
____ _ ____ _ ____ _ ____ _ ____ _ ____ _ ____
 72
    65
 73
     4
 40
12.0
 49
9.0
 74
     0
 49
-1.0
 74
     0
 49
1.0
 74
     0
 49
-1.0
 74
     0
  0
LTYPE
  5
11
100
AcDbSymbolTableRecord
100
AcDbLinetypeTableRecord
  2
HIDDEN
 70
     0
  3
_ _ _ _ _ _ _ _ _ _ _ _ _ _ _ _ _ _ _ _ _ _ _
 72
    65
 73
     2
 40
3.2
 49
2.4
 74
     0
 49
-0.8
 74
     0
  0
LTYPE
  5
12
100
AcDbSymbolTableRecord
100
AcDbLinetypeTableRecord
  2
PHANTOM
 70
     0
  3
_____ _ _ _____ _ _ _____ _ _ _____ _ _ _____
 72
    65
 73
     6
 40
13.5
 49
9.0
 74
     0
 49
-1.0
 74
     0
 49
1.0
 74
     0
 49
-0.5
 74
     0
 49
1.0
 74
     0
 49
-1.0
 74
     0
  0
LTYPE
  5
13
100
AcDbSymbolTableRecord
100
AcDbLinetypeTableRecord
  2
DOT
 70
     0
  3
...............................................
 72
    65
 73
     2
 40
1.0
 49
0.5
 74
     0
 49
-0.5
 74
     0
  0
LTYPE
  5
14
100
AcDbSymbolTableRecord
100
AcDbLinetypeTableRecord
  2
DASHDOT
 70
     0
  3
__ . __ . __ . __ . __ . __ . __ . __ . __ . __
 72
    65
 73
     4
 40
8.0
 49
5.0
 74
     0
 49
-1.0
 74
     0
 49
1.0
 74
     0
 49
-1.0
 74
     0
  0
ENDTAB
  0
TABLE
  2
LAYER
  5
1
100
AcDbSymbolTable
 70
     4
  0
LAYER
  5
15
100
AcDbSymbolTableRecord
100
AcDbLayerTableRecord
  2
0
 70
     0
 62
     7
  6
CONTINUOUS
290
     1
370
    -3
390
0
  0
LAYER
  5
16
100
AcDbSymbolTableRecord
100
AcDbLayerTableRecord
  2
1
 70
     0
 62
     7
  6
CONTINUOUS
290
     1
370
    -3
390
0
  0
LAYER
  5
17
100
AcDbSymbolTableRecord
100
AcDbLayerTableRecord
  2
2
 70
     0
 62
     7
  6
CONTINUOUS
290
     1
370
    -3
390
0
  0
LAYER
  5
18
100
AcDbSymbolTableRecord
100
AcDbLayerTableRecord
  2
3
 70
     0
 62
     7
  6
CONTINUOUS
290
     1
370
    -3
390
0
  0
ENDTAB
  0
TABLE
  2
STYLE
  5
2
100
AcDbSymbolTable
 70
     1
  0
STYLE
  5
1B
100
AcDbSymbolTableRecord
100
AcDbTextStyleTableRecord
  2
STANDARD
 70
    64
 40
0.0
 41
1.0
 50
0.0
 71
     0
 42
1.0
  3
txt
  4
BIGFONT
  0
ENDTAB
  0
TABLE
  2
VIEW
  5
4
100
AcDbSymbolTable
 70
     0
  0
ENDTAB
  0
TABLE
  2
UCS
  5
5
100
AcDbSymbolTable
 70
     0
  0
ENDTAB
  0
TABLE
  2
APPID
  5
7
100
AcDbSymbolTable
 70
     1
  0
APPID
  5
1A
100
AcDbSymbolTableRecord
100
AcDbRegAppTableRecord
  2
ACAD
 70
     0
  0
ENDTAB
  0
TABLE
  2
DIMSTYLE
  5
8
100
AcDbSymbolTable
 70
     1
100
AcDbDimStyleTable
 71
     0
  0
DIMSTYLE
105
28
100
AcDbSymbolTableRecord
100
AcDbDimStyleTableRecord
  2
Standard
 70
     0
  3

  4

 40
1.0
 41
2.0
 42
1.0
 43
0.38
 44
2.0
 45
0.0
 46
0.0
 47
0.0
 48
0.0
 71
     0
 72
     0
 73
     0
 74
     0
 75
     0
 76
     0
 77
     1
 78
     0
 79
     0
140
3.5
141
0.09
142
0.0
143
25.4
144
1.0
145
0.0
146
1.0
147
0.5
148
0.0
170
     0
171
     2
172
     0
173
     0
174
     0
175
     0
176
     0
177
     0
178
     0
179
     0
271
     3
272
     4
273
     2
274
     2
275
     0
276
     0
277
     2
278
    46
279
     0
280
     0
281
     0
282
     0
283
     1
284
     0
285
     0
286
     0
288
     0
289
     3
340
1B
341
0
342
0
343
0
344
0
371
    -2
372
    -2
  0
ENDTAB
  0
TABLE
  2
BLOCK_RECORD
  5
23
100
AcDbSymbolTable
 70
     5
  0
BLOCK_RECORD
  5
21
100
AcDbSymbolTableRecord
100
AcDbBlockTableRecord
  2
*Model_Space
340
0
  0
BLOCK_RECORD
  5
22
100
AcDbSymbolTableRecord
100
AcDbBlockTableRecord
  2
*Paper_Space
340
0
  0
BLOCK_RECORD
  5
1C
100
AcDbSymbolTableRecord
100
AcDbBlockTableRecord
  2
*D0
340
0
  0
BLOCK_RECORD
  5
1D
100
AcDbSymbolTableRecord
100
AcDbBlockTableRecord
  2
*D1
340
0
  0
BLOCK_RECORD
  5
1E
100
AcDbSymbolTableRecord
100
AcDbBlockTableRecord
  2
*D2
340
0
  0
BLOCK_RECORD
  5
1F
100
AcDbSymbolTableRecord
100
AcDbBlockTableRecord
  2
*D3
340
0
  0
BLOCK_RECORD
  5
20
100
AcDbSymbolTableRecord
100
AcDbBlockTableRecord
  2
*D4
340
0
  0
ENDTAB
  0
ENDSEC
  0
SECTION
  2
BLOCKS
  0
BLOCK
  5
24
100
AcDbEntity
  8
0
390
0
100
AcDbBlockBegin
  2
*Model_Space
 70
     0
 10
0.0
 20
0.0
 30
0.0
  3
*Model_Space
  1

  0
ENDBLK
  5
25
100
AcDbEntity
  8
0
390
0
100
AcDbBlockEnd
  0
BLOCK
  5
26
100
AcDbEntity
 67
     1
  8
0
390
0
100
AcDbBlockBegin
  2
*Paper_Space
 70
     0
 10
0.0
 20
0.0
 30
0.0
  3
*Paper_Space
  1

  0
ENDBLK
  5
27
100
AcDbEntity
 67
     1
  8
0
390
0
100
AcDbBlockEnd
  0
BLOCK
  5
262
100
AcDbEntity
  8
3
100
AcDbBlockBegin
  2
*D0
 70
     1
 10
0.0
 20
0.0
 30
0.0
  3
*D0
  1

  0
LINE
  5
263
100
AcDbEntity
  8
3
370
    25
100
AcDbLine
 10
7.823924
 20
-63.531507
 30
0.0
 11
7.823924
 21
-89.980545
 31
0.0
  0
LINE
  5
264
100
AcDbEntity
  8
3
370
    25
100
AcDbLine
 10
7.823924
 20
-88.980545
 30
0.0
 11
9.755775
 21
-89.498183
 31
0.0
  0
LINE
  5
265
100
AcDbEntity
  8
3
370
    25
100
AcDbLine
 10
7.823924
 20
-88.980545
 30
0.0
 11
9.755775
 21
-88.462907
 31
0.0
  0
LINE
  5
266
100
AcDbEntity
  8
3
370
    25
100
AcDbLine
 10
9.755775
 20
-89.498183
 30
0.0
 11
9.755775
 21
-88.462907
 31
0.0
  0
LINE
  5
267
100
AcDbEntity
  8
3
370
    25
100
AcDbLine
 10
7.823924
 20
-88.980545
 30
0.0
 11
127.822924
 21
-88.980545
 31
0.0
  0
LINE
  5
268
100
AcDbEntity
  8
3
370
    25
100
AcDbLine
 10
127.822924
 20
-88.980545
 30
0.0
 11
125.891072
 21
-88.462907
 31
0.0
  0
LINE
  5
269
100
AcDbEntity
  8
3
370
    25
100
AcDbLine
 10
127.822924
 20
-88.980545
 30
0.0
 11
125.891072
 21
-89.498183
 31
0.0
  0
LINE
  5
26A
100
AcDbEntity
  8
3
370
    25
100
AcDbLine
 10
125.891072
 20
-88.462907
 30
0.0
 11
125.891072
 21
-89.498183
 31
0.0
  0
LINE
  5
26B
100
AcDbEntity
  8
3
370
    25
100
AcDbLine
 10
127.822924
 20
-55.670507
 30
0.0
 11
127.822924
 21
-89.980545
 31
0.0
  0
ENDBLK
  5
26C
100
AcDbEntity
  8
3
100
AcDbBlockEnd
  0
BLOCK
  5
26D
100
AcDbEntity
  8
3
100
AcDbBlockBegin
  2
*D1
 70
     1
 10
0.0
 20
0.0
 30
0.0
  3
*D1
  1

  0
TEXT
  5
26E
100
AcDbEntity
  8
3
370
    25
100
AcDbText
 10
-10.676076
 20
-75.936302
 30
0.0
 40
3.5
  1
３０
 72
     5
 11
-4.376076
 21
-75.936302
 31
0.0
100
AcDbText
  0
LINE
  5
26F
100
AcDbEntity
  8
3
370
    25
100
AcDbLine
 10
-22.176076
 20
-55.925507
 30
0.0
 11
-22.176076
 21
-77.436302
 31
0.0
  0
LINE
  5
270
100
AcDbEntity
  8
3
370
    25
100
AcDbLine
 10
-22.176076
 20
-76.436302
 30
0.0
 11
-20.244225
 21
-76.95394
 31
0.0
  0
LINE
  5
271
100
AcDbEntity
  8
3
370
    25
100
AcDbLine
 10
-22.176076
 20
-76.436302
 30
0.0
 11
-20.244225
 21
-75.918664
 31
0.0
  0
LINE
  5
272
100
AcDbEntity
  8
3
370
    25
100
AcDbLine
 10
-20.244225
 20
-76.95394
 30
0.0
 11
-20.244225
 21
-75.918664
 31
0.0
  0
LINE
  5
273
100
AcDbEntity
  8
3
370
    25
100
AcDbLine
 10
-22.176076
 20
-76.436302
 30
0.0
 11
7.823924
 21
-76.436302
 31
0.0
  0
LINE
  5
274
100
AcDbEntity
  8
3
370
    25
100
AcDbLine
 10
7.823924
 20
-76.436302
 30
0.0
 11
5.892072
 21
-75.918664
 31
0.0
  0
LINE
  5
275
100
AcDbEntity
  8
3
370
    25
100
AcDbLine
 10
7.823924
 20
-76.436302
 30
0.0
 11
5.892072
 21
-76.95394
 31
0.0
  0
LINE
  5
276
100
AcDbEntity
  8
3
370
    25
100
AcDbLine
 10
5.892072
 20
-75.918664
 30
0.0
 11
5.892072
 21
-76.95394
 31
0.0
  0
LINE
  5
277
100
AcDbEntity
  8
3
370
    25
100
AcDbLine
 10
7.823924
 20
-63.531507
 30
0.0
 11
7.823924
 21
-77.436302
 31
0.0
  0
ENDBLK
  5
278
100
AcDbEntity
  8
3
100
AcDbBlockEnd
  0
BLOCK
  5
279
100
AcDbEntity
  8
3
100
AcDbBlockBegin
  2
*D2
 70
     1
 10
0.0
 20
0.0
 30
0.0
  3
*D2
  1

  0
TEXT
  5
27A
100
AcDbEntity
  8
3
370
    25
100
AcDbText
 10
21.823924
 20
-75.936302
 30
0.0
 40
3.5
  1
３５
 72
     5
 11
28.123924
 21
-75.936302
 31
0.0
100
AcDbText
  0
LINE
  5
27B
100
AcDbEntity
  8
3
370
    25
100
AcDbLine
 10
7.823924
 20
-63.531507
 30
0.0
 11
7.823924
 21
-77.436302
 31
0.0
  0
LINE
  5
27C
100
AcDbEntity
  8
3
370
    25
100
AcDbLine
 10
7.823924
 20
-76.436302
 30
0.0
 11
9.755775
 21
-76.95394
 31
0.0
  0
LINE
  5
27D
100
AcDbEntity
  8
3
370
    25
100
AcDbLine
 10
7.823924
 20
-76.436302
 30
0.0
 11
9.755775
 21
-75.918664
 31
0.0
  0
LINE
  5
27E
100
AcDbEntity
  8
3
370
    25
100
AcDbLine
 10
9.755775
 20
-76.95394
 30
0.0
 11
9.755775
 21
-75.918664
 31
0.0
  0
LINE
  5
27F
100
AcDbEntity
  8
3
370
    25
100
AcDbLine
 10
7.823924
 20
-76.436302
 30
0.0
 11
42.823924
 21
-76.436302
 31
0.0
  0
LINE
  5
280
100
AcDbEntity
  8
3
370
    25
100
AcDbLine
 10
42.823924
 20
-76.436302
 30
0.0
 11
40.892072
 21
-75.918664
 31
0.0
  0
LINE
  5
281
100
AcDbEntity
  8
3
370
    25
100
AcDbLine
 10
42.823924
 20
-76.436302
 30
0.0
 11
40.892072
 21
-76.95394
 31
0.0
  0
LINE
  5
282
100
AcDbEntity
  8
3
370
    25
100
AcDbLine
 10
40.892072
 20
-75.918664
 30
0.0
 11
40.892072
 21
-76.95394
 31
0.0
  0
LINE
  5
283
100
AcDbEntity
  8
3
370
    25
100
AcDbLine
 10
42.823924
 20
-59.360507
 30
0.0
 11
42.823924
 21
-77.436302
 31
0.0
  0
ENDBLK
  5
284
100
AcDbEntity
  8
3
100
AcDbBlockEnd
  0
BLOCK
  5
285
100
AcDbEntity
  8
3
100
AcDbBlockBegin
  2
*D3
 70
     1
 10
0.0
 20
0.0
 30
0.0
  3
*D3
  1

  0
TEXT
  5
286
100
AcDbEntity
  8
3
370
    18
100
AcDbText
 10
163.004822
 20
-50.860507
 30
0.0
 40
3.5
  1
φ６０
 50
90.0
 72
     5
 11
163.004822
 21
-41.060507
 31
0.0
100
AcDbText
  0
LINE
  5
287
100
AcDbEntity
  8
3
370
    25
100
AcDbLine
 10
110.617924
 20
-75.610507
 30
0.0
 11
164.504822
 21
-75.610507
 31
0.0
  0
LINE
  5
288
100
AcDbEntity
  8
3
370
    25
100
AcDbLine
 10
163.504822
 20
-75.610507
 30
0.0
 11
164.02246
 21
-73.678656
 31
0.0
  0
LINE
  5
289
100
AcDbEntity
  8
3
370
    25
100
AcDbLine
 10
163.504822
 20
-75.610507
 30
0.0
 11
162.987184
 21
-73.678656
 31
0.0
  0
LINE
  5
28A
100
AcDbEntity
  8
3
370
    25
100
AcDbLine
 10
164.02246
 20
-73.678656
 30
0.0
 11
162.987184
 21
-73.678656
 31
0.0
  0
LINE
  5
28B
100
AcDbEntity
  8
3
370
    25
100
AcDbLine
 10
163.504822
 20
-75.610507
 30
0.0
 11
163.504822
 21
-15.610507
 31
0.0
  0
LINE
  5
28C
100
AcDbEntity
  8
3
370
    25
100
AcDbLine
 10
163.504822
 20
-15.610507
 30
0.0
 11
162.987184
 21
-17.542359
 31
0.0
  0
LINE
  5
28D
100
AcDbEntity
  8
3
370
    25
100
AcDbLine
 10
163.504822
 20
-15.610507
 30
0.0
 11
164.02246
 21
-17.542359
 31
0.0
  0
LINE
  5
28E
100
AcDbEntity
  8
3
370
    25
100
AcDbLine
 10
162.987184
 20
-17.542359
 30
0.0
 11
164.02246
 21
-17.542359
 31
0.0
  0
LINE
  5
28F
100
AcDbEntity
  8
3
370
    25
100
AcDbLine
 10
110.617924
 20
-15.610507
 30
0.0
 11
164.504822
 21
-15.610507
 31
0.0
  0
ENDBLK
  5
290
100
AcDbEntity
  8
3
100
AcDbBlockEnd
  0
BLOCK
  5
291
100
AcDbEntity
  8
3
100
AcDbBlockBegin
  2
*D4
 70
     1
 10
0.0
 20
0.0
 30
0.0
  3
*D4
  1

  0
TEXT
  5
292
100
AcDbEntity
  8
3
370
    18
100
AcDbText
 10
-52.56691
 20
-36.360507
 30
0.0
 40
3.5
  1
５７（リフト３ｍｉｎ）
 50
90.0
 72
     5
 11
-52.56691
 21
1.439493
 31
0.0
100
AcDbText
  0
LINE
  5
293
100
AcDbEntity
  8
3
370
    25
100
AcDbLine
 10
-28.365255
 20
-45.610507
 30
0.0
 11
-53.06691
 21
-45.610507
 31
0.0
  0
LINE
  5
294
100
AcDbEntity
  8
3
370
    25
100
AcDbLine
 10
-52.06691
 20
-45.610507
 30
0.0
 11
-51.549272
 21
-43.678656
 31
0.0
  0
LINE
  5
295
100
AcDbEntity
  8
3
370
    25
100
AcDbLine
 10
-52.06691
 20
-45.610507
 30
0.0
 11
-52.584548
 21
-43.678656
 31
0.0
  0
LINE
  5
296
100
AcDbEntity
  8
3
370
    25
100
AcDbLine
 10
-51.549272
 20
-43.678656
 30
0.0
 11
-52.584548
 21
-43.678656
 31
0.0
  0
LINE
  5
297
100
AcDbEntity
  8
3
370
    25
100
AcDbLine
 10
-52.06691
 20
-45.610507
 30
0.0
 11
-52.06691
 21
11.389493
 31
0.0
  0
LINE
  5
298
100
AcDbEntity
  8
3
370
    25
100
AcDbLine
 10
-52.06691
 20
11.389493
 30
0.0
 11
-52.584548
 21
9.457641
 31
0.0
  0
LINE
  5
299
100
AcDbEntity
  8
3
370
    25
100
AcDbLine
 10
-52.06691
 20
11.389493
 30
0.0
 11
-51.549272
 21
9.457641
 31
0.0
  0
LINE
  5
29A
100
AcDbEntity
  8
3
370
    25
100
AcDbLine
 10
-52.584548
 20
9.457641
 30
0.0
 11
-51.549272
 21
9.457641
 31
0.0
  0
LINE
  5
29B
100
AcDbEntity
  8
3
370
    25
100
AcDbLine
 10
6.824246
 20
11.389493
 30
0.0
 11
-53.06691
 21
11.389493
 31
0.0
  0
ENDBLK
  5
29C
100
AcDbEntity
  8
3
100
AcDbBlockEnd
  0
ENDSEC
  0
SECTION
  2
ENTITIES
  0
LINE
  5
29
100
AcDbEntity
  8
1
370
   100
100
AcDbLine
 10
-186.510785
 20
137.514384
 30
0.0
 11
197.491193
 21
137.514384
 31
0.0
  0
LINE
  5
2A
100
AcDbEntity
  8
1
370
   100
100
AcDbLine
 10
-186.510785
 20
137.514384
 30
0.0
 11
-186.510785
 21
-138.985941
 31
0.0
  0
LINE
  5
2B
100
AcDbEntity
  8
1
370
   100
100
AcDbLine
 10
-186.510785
 20
-138.985941
 30
0.0
 11
197.491193
 21
-138.985941
 31
0.0
  0
LINE
  5
2C
100
AcDbEntity
  8
1
370
   100
100
AcDbLine
 10
197.491193
 20
-138.985941
 30
0.0
 11
197.491193
 21
137.514384
 31
0.0
  0
TEXT
  5
2D
100
AcDbEntity
  8
1
370
    50
100
AcDbText
 10
179.814221
 20
-113.126428
 30
0.0
 40
3.0
  1
設計
 72
     5
 11
185.214221
 21
-113.126428
 31
0.0
100
AcDbText
  0
TEXT
  5
2E
100
AcDbEntity
  8
1
370
    50
100
AcDbText
 10
189.563739
 20
-113.049829
 30
0.0
 40
3.0
  1
製図
 72
     5
 11
194.963739
 21
-113.049829
 31
0.0
100
AcDbText
  0
TEXT
  5
2F
100
AcDbEntity
  8
1
370
    50
100
AcDbText
 10
159.502872
 20
-113.126428
 30
0.0
 40
3.0
  1
承認
 72
     5
 11
164.902872
 21
-113.126428
 31
0.0
100
AcDbText
  0
TEXT
  5
30
100
AcDbEntity
  8
1
370
    50
100
AcDbText
 10
169.494839
 20
-113.09901
 30
0.0
 40
3.0
  1
検図
 72
     5
 11
174.894839
 21
-113.09901
 31
0.0
100
AcDbText
  0
LINE
  5
31
100
AcDbEntity
  8
1
370
    25
100
AcDbLine
 10
142.491193
 20
-113.985941
 30
0.0
 11
197.491193
 21
-113.985941
 31
0.0
  0
LINE
  5
32
100
AcDbEntity
  8
1
370
    25
100
AcDbLine
 10
171.241193
 20
-122.985941
 30
0.0
 11
171.241193
 21
-129.985941
 31
0.0
  0
TEXT
  5
33
100
AcDbEntity
  8
1
370
    50
100
AcDbText
 10
159.775795
 20
-128.006264
 30
0.0
 40
3.0
  1
日　付
 72
     5
 11
168.175795
 21
-128.006264
 31
0.0
100
AcDbText
  0
LINE
  5
34
100
AcDbEntity
  8
1
370
    50
100
AcDbLine
 10
20.491193
 20
-129.985941
 30
0.0
 11
197.491193
 21
-129.985941
 31
0.0
  0
TEXT
  5
35
100
AcDbEntity
  8
1
370
    50
100
AcDbText
 10
143.887505
 20
-128.161203
 30
0.0
 40
3.0
  1
第三角法
 72
     5
 11
155.287505
 21
-128.161203
 31
0.0
100
AcDbText
  0
TEXT
  5
36
100
AcDbEntity
  8
1
370
    50
100
AcDbText
 10
145.54371
 20
-112.99901
 30
0.0
 40
3.0
  1
尺　度
 72
     5
 11
153.94371
 21
-112.99901
 31
0.0
100
AcDbText
  0
LINE
  5
37
100
AcDbEntity
  8
1
370
   100
100
AcDbLine
 10
20.491193
 20
-108.985941
 30
0.0
 11
197.491193
 21
-108.985941
 31
0.0
  0
LINE
  5
38
100
AcDbEntity
  8
1
370
    50
100
AcDbLine
 10
105.991193
 20
-108.985941
 30
0.0
 11
105.991193
 21
-138.985941
 31
0.0
  0
LINE
  5
39
100
AcDbEntity
  8
1
370
    25
100
AcDbLine
 10
187.491193
 20
-122.985941
 30
0.0
 11
187.491193
 21
-108.985941
 31
0.0
  0
LINE
  5
3A
100
AcDbEntity
  8
1
370
    25
100
AcDbLine
 10
177.491193
 20
-122.985941
 30
0.0
 11
177.491193
 21
-108.985941
 31
0.0
  0
LINE
  5
3B
100
AcDbEntity
  8
1
370
    25
100
AcDbLine
 10
167.491193
 20
-122.985941
 30
0.0
 11
167.491193
 21
-108.985941
 31
0.0
  0
LINE
  5
3C
100
AcDbEntity
  8
1
370
    50
100
AcDbLine
 10
142.491193
 20
-138.985941
 30
0.0
 11
142.491193
 21
-108.985941
 31
0.0
  0
LINE
  5
3D
100
AcDbEntity
  8
1
370
    50
100
AcDbLine
 10
94.991193
 20
-108.985941
 30
0.0
 11
94.991193
 21
-138.985941
 31
0.0
  0
LINE
  5
3E
100
AcDbEntity
  8
1
370
    50
100
AcDbLine
 10
31.491193
 20
-108.985941
 30
0.0
 11
31.491193
 21
-129.985941
 31
0.0
  0
LINE
  5
3F
100
AcDbEntity
  8
1
370
    50
100
AcDbLine
 10
142.491193
 20
-122.985941
 30
0.0
 11
197.491193
 21
-122.985941
 31
0.0
  0
TEXT
  5
40
100
AcDbEntity
  8
1
370
    50
100
AcDbText
 10
143.550565
 20
-135.940469
 30
0.0
 40
3.0
  1
コードＮｏ
 41
0.9
 72
     5
 11
156.510565
 21
-135.940469
 31
0.0
100
AcDbText
  0
TEXT
  5
41
100
AcDbEntity
  8
1
370
   100
100
AcDbText
 10
26.443387
 20
-136.43783
 30
0.0
 40
4.0
  1
ミズタニバルブ工業株式会社
 41
1.2
 72
     5
 11
87.883387
 21
-136.43783
 31
0.0
100
AcDbText
  0
LINE
  5
42
100
AcDbEntity
  8
1
370
    50
100
AcDbLine
 10
20.491193
 20
-119.485941
 30
0.0
 11
142.491193
 21
-119.485941
 31
0.0
  0
LINE
  5
43
100
AcDbEntity
  8
1
370
    50
100
AcDbLine
 10
57.741193
 20
-119.485941
 30
0.0
 11
57.741193
 21
-129.985941
 31
0.0
  0
LINE
  5
44
100
AcDbEntity
  8
1
370
    50
100
AcDbLine
 10
68.741193
 20
-119.485941
 30
0.0
 11
68.741193
 21
-129.985941
 31
0.0
  0
LINE
  5
45
100
AcDbEntity
  8
1
370
    50
100
AcDbLine
 10
157.491193
 20
-138.985941
 30
0.0
 11
157.491193
 21
-108.985941
 31
0.0
  0
TEXT
  5
46
100
AcDbEntity
  8
1
370
    50
100
AcDbText
 10
172.549065
 20
-128.050147
 30
0.0
 40
3.0
  1
　　・　　・
 72
     5
 11
189.949065
 21
-128.050147
 31
0.0
100
AcDbText
  0
LINE
  5
47
100
AcDbEntity
  8
1
370
   100
100
AcDbLine
 10
20.491193
 20
-108.985941
 30
0.0
 11
20.491193
 21
-138.985941
 31
0.0
  0
TEXT
  5
48
100
AcDbEntity
  8
1
370
    50
100
AcDbText
 10
145.416291
 20
-120.006746
 30
0.0
 40
3.0
  1
　／ 
 72
     5
 11
150.816291
 21
-120.006746
 31
0.0
100
AcDbText
  0
TEXT
  5
49
100
AcDbEntity
  8
1
370
    50
100
AcDbText
 10
96.952061
 20
-136.012454
 30
0.0
 40
3.0
  1
備 考 
 72
     5
 11
103.852061
 21
-136.012454
 31
0.0
100
AcDbText
  0
TEXT
  5
4A
100
AcDbEntity
  8
1
370
    50
100
AcDbText
 10
96.756267
 20
-115.44592
 30
0.0
 40
3.0
  1
仕 上
 72
     5
 11
103.656267
 21
-115.44592
 31
0.0
100
AcDbText
  0
TEXT
  5
4B
100
AcDbEntity
  8
1
370
    50
100
AcDbText
 10
96.723588
 20
-124.445833
 30
0.0
 40
3.0
  1
表 面
 72
     5
 11
103.623588
 21
-124.445833
 31
0.0
100
AcDbText
  0
TEXT
  5
4C
100
AcDbEntity
  8
1
370
    50
100
AcDbText
 10
96.723588
 20
-127.945833
 30
0.0
 40
3.0
  1
処 理
 72
     5
 11
103.623588
 21
-127.945833
 31
0.0
100
AcDbText
  0
TEXT
  5
4D
100
AcDbEntity
  8
1
370
    50
100
AcDbText
 10
22.396675
 20
-115.8467
 30
0.0
 40
3.0
  1
品 名
 72
     5
 11
29.296675
 21
-115.8467
 31
0.0
100
AcDbText
  0
TEXT
  5
4E
100
AcDbEntity
  8
1
370
    50
100
AcDbText
 10
22.198883
 20
-126.231267
 30
0.0
 40
3.0
  1
材 質
 72
     5
 11
29.098883
 21
-126.231267
 31
0.0
100
AcDbText
  0
TEXT
  5
4F
100
AcDbEntity
  8
1
370
    50
100
AcDbText
 10
59.448883
 20
-126.231267
 30
0.0
 40
3.0
  1
規 格
 72
     5
 11
66.348883
 21
-126.231267
 31
0.0
100
AcDbText
  0
TEXT
  5
50
100
AcDbEntity
  8
2
370
    50
100
AcDbText
 10
102.358599
 20
-43.675385
 30
0.0
 40
1.0
  1
　
 50
90.0
 72
     5
 11
102.358599
 21
-43.875385
 31
0.0
100
AcDbText
  0
TEXT
  5
51
100
AcDbEntity
  8
2
370
    50
100
AcDbText
 10
88.938599
 20
-55.675385
 30
0.0
 40
1.0
  1
　
 50
90.0
 72
     5
 11
88.938599
 21
-55.875385
 31
0.0
100
AcDbText
  0
LINE
  5
52
100
AcDbEntity
  8
2
370
    50
100
AcDbLine
 10
126.660924
 20
54.268272
 30
0.0
 11
126.660924
 21
74.786272
 31
0.0
  0
LINE
  5
53
100
AcDbEntity
  8
2
370
    50
100
AcDbLine
 10
126.660924
 20
-55.869507
 30
0.0
 11
126.660924
 21
-35.351507
 31
0.0
  0
LINE
  5
54
100
AcDbEntity
  8
2
370
    50
100
AcDbLine
 10
42.823924
 20
-45.610507
 30
0.0
 11
42.823924
 21
-32.860507
 31
0.0
  0
LINE
  5
55
100
AcDbEntity
  8
2
370
    50
100
AcDbLine
 10
42.823924
 20
-58.360507
 30
0.0
 11
42.823924
 21
-45.610507
 31
0.0
  0
ARC
  5
56
100
AcDbEntity
  8
2
370
    50
100
AcDbCircle
 10
7.823924
 20
-25.110507
 30
0.0
 40
33.5
100
AcDbArc
 50
247.624
 51
284.593
  0
LINE
  5
57
100
AcDbEntity
  8
2
370
    50
100
AcDbLine
 10
23.534924
 20
-57.110507
 30
0.0
 11
19.538924
 21
-57.110507
 31
0.0
  0
ARC
  5
58
100
AcDbEntity
  8
2
370
    50
100
AcDbCircle
 10
23.534924
 20
-72.110507
 30
0.0
 40
15.0
100
AcDbArc
 50
51.737
 51
90.0
  0
ARC
  5
59
100
AcDbEntity
  8
2
370
    50
100
AcDbCircle
 10
19.538924
 20
-70.110507
 30
0.0
 40
13.0
100
AcDbArc
 50
90.0
 51
104.593
  0
LINE
  5
5A
100
AcDbEntity
  8
2
370
    50
100
AcDbLine
 10
32.823924
 20
-60.332507
 30
0.0
 11
41.684924
 21
-60.332507
 31
0.0
  0
LINE
  5
5B
100
AcDbEntity
  8
2
370
    50
100
AcDbLine
 10
-4.929076
 20
-56.087507
 30
0.0
 11
-21.014076
 21
-56.087507
 31
0.0
  0
LINE
  5
5C
100
AcDbEntity
  8
2
370
    50
100
AcDbLine
 10
32.823924
 20
-30.888507
 30
0.0
 11
41.684924
 21
-30.888507
 31
0.0
  0
ARC
  5
5D
100
AcDbEntity
  8
2
370
    50
100
AcDbCircle
 10
24.639924
 20
-22.111507
 30
0.0
 40
12.0
100
AcDbArc
 50
271.508
 51
313.002
  0
LINE
  5
5E
100
AcDbEntity
  8
2
370
    50
100
AcDbLine
 10
19.823924
 20
-29.110507
 30
0.0
 11
19.823924
 21
-19.638507
 31
0.0
  0
ARC
  5
5F
100
AcDbEntity
  8
2
370
    50
100
AcDbCircle
 10
24.823924
 20
-29.110507
 30
0.0
 40
5.0
100
AcDbArc
 50
180.001
 51
270.001
  0
LINE
  5
60
100
AcDbEntity
  8
2
370
    50
100
AcDbLine
 10
41.684924
 20
-30.888507
 30
0.0
 11
42.823924
 21
-32.860507
 31
0.0
  0
LINE
  5
61
100
AcDbEntity
  8
2
370
    50
100
AcDbLine
 10
41.684924
 20
-60.332507
 30
0.0
 11
42.823924
 21
-58.360507
 31
0.0
  0
LINE
  5
62
100
AcDbEntity
  8
2
370
    50
100
AcDbLine
 10
-4.176076
 20
-32.133507
 30
0.0
 11
-4.176076
 21
-19.638507
 31
0.0
  0
LINE
  5
63
100
AcDbEntity
  8
2
370
    50
100
AcDbLine
 10
-7.176076
 20
-35.133507
 30
0.0
 11
-21.014076
 21
-35.133507
 31
0.0
  0
ARC
  5
64
100
AcDbEntity
  8
2
370
    50
100
AcDbCircle
 10
-7.176076
 20
-32.133507
 30
0.0
 40
3.0
100
AcDbArc
 50
270.001
 51
360.0
  0
LINE
  5
65
100
AcDbEntity
  8
2
370
    50
100
AcDbLine
 10
-12.176076
 20
-45.610507
 30
0.0
 11
-12.176076
 21
-35.133507
 31
0.0
  0
LINE
  5
66
100
AcDbEntity
  8
2
370
    50
100
AcDbLine
 10
-12.176076
 20
-36.295507
 30
0.0
 11
-10.163076
 21
-35.133507
 31
0.0
  0
LINE
  5
67
100
AcDbEntity
  8
2
370
    25
100
AcDbLine
 10
-22.176076
 20
-36.295507
 30
0.0
 11
-12.176076
 21
-36.295507
 31
0.0
  0
LINE
  5
68
100
AcDbEntity
  8
2
370
    50
100
AcDbLine
 10
-12.176076
 20
-54.925507
 30
0.0
 11
-10.163076
 21
-56.087507
 31
0.0
  0
LINE
  5
69
100
AcDbEntity
  8
2
370
    25
100
AcDbLine
 10
-22.176076
 20
-54.925507
 30
0.0
 11
-12.176076
 21
-54.925507
 31
0.0
  0
LINE
  5
6A
100
AcDbEntity
  8
2
370
    50
100
AcDbLine
 10
-12.176076
 20
-56.087507
 30
0.0
 11
-12.176076
 21
-45.610507
 31
0.0
  0
LINE
  5
6B
100
AcDbEntity
  8
2
370
    50
100
AcDbLine
 10
7.823924
 20
-20.202507
 30
0.0
 11
19.823924
 21
-20.202507
 31
0.0
  0
LINE
  5
6C
100
AcDbEntity
  8
2
370
    50
100
AcDbLine
 10
19.010924
 20
-20.202507
 30
0.0
 11
19.823924
 21
-21.610507
 31
0.0
  0
LINE
  5
6D
100
AcDbEntity
  8
2
370
    50
100
AcDbLine
 10
-4.176076
 20
-20.202507
 30
0.0
 11
7.823924
 21
-20.202507
 31
0.0
  0
LINE
  5
6E
100
AcDbEntity
  8
2
370
    50
100
AcDbLine
 10
-3.363076
 20
-20.202507
 30
0.0
 11
-4.176076
 21
-21.610507
 31
0.0
  0
LINE
  5
6F
100
AcDbEntity
  8
2
370
    50
100
AcDbLine
 10
-114.026103
 20
-19.638507
 30
0.0
 11
-114.026103
 21
-40.225343
 31
0.0
  0
LINE
  5
70
100
AcDbEntity
  8
2
370
    50
100
AcDbLine
 10
-90.026103
 20
-19.638507
 30
0.0
 11
-90.026103
 21
-40.225343
 31
0.0
  0
LINE
  5
71
100
AcDbEntity
  8
2
370
    50
100
AcDbLine
 10
32.823924
 20
51.777272
 30
0.0
 11
42.823924
 21
51.777272
 31
0.0
  0
ARC
  5
72
100
AcDbEntity
  8
2
370
    50
100
AcDbCircle
 10
24.410924
 20
58.152272
 30
0.0
 40
18.413
100
AcDbArc
 50
339.744
 51
20.256
  0
ARC
  5
73
100
AcDbEntity
  8
2
370
    50
100
AcDbCircle
 10
50.097924
 20
58.152272
 30
0.0
 40
18.413
100
AcDbArc
 50
159.744
 51
200.257
  0
LINE
  5
74
100
AcDbEntity
  8
2
370
    50
100
AcDbLine
 10
32.823924
 20
77.277272
 30
0.0
 11
42.823924
 21
77.277272
 31
0.0
  0
LINE
  5
75
100
AcDbEntity
  8
2
370
    50
100
AcDbLine
 10
42.823924
 20
51.777272
 30
0.0
 11
42.823924
 21
77.277272
 31
0.0
  0
ARC
  5
76
100
AcDbEntity
  8
2
370
    50
100
AcDbCircle
 10
50.097924
 20
70.902272
 30
0.0
 40
18.413
100
AcDbArc
 50
159.744
 51
200.257
  0
ARC
  5
77
100
AcDbEntity
  8
2
370
    50
100
AcDbCircle
 10
24.410924
 20
70.902272
 30
0.0
 40
18.413
100
AcDbArc
 50
339.744
 51
20.256
  0
LINE
  5
78
100
AcDbEntity
  8
2
370
    50
100
AcDbLine
 10
27.490924
 20
76.027272
 30
0.0
 11
24.034413
 21
76.027272
 31
0.0
  0
ARC
  5
79
100
AcDbEntity
  8
2
370
    50
100
AcDbCircle
 10
27.490924
 20
88.027272
 30
0.0
 40
12.0
100
AcDbArc
 50
270.0
 51
296.384
  0
LINE
  5
7A
100
AcDbEntity
  8
2
370
    50
100
AcDbLine
 10
27.490924
 20
53.027272
 30
0.0
 11
24.030005
 21
53.027272
 31
0.0
  0
ARC
  5
7B
100
AcDbEntity
  8
2
370
    50
100
AcDbCircle
 10
27.490924
 20
41.027272
 30
0.0
 40
12.0
100
AcDbArc
 50
63.616
 51
90.0
  0
LINE
  5
7C
100
AcDbEntity
  8
2
370
    50
100
AcDbLine
 10
-12.483076
 20
54.049272
 30
0.0
 11
-21.014076
 21
54.050272
 31
0.0
  0
ARC
  5
7D
100
AcDbEntity
  8
2
370
    50
100
AcDbCircle
 10
-12.483076
 20
-15.949728
 30
0.0
 40
70.0
100
AcDbArc
 50
79.917407
 51
90.0
  0
LINE
  5
7E
100
AcDbEntity
  8
2
370
    50
100
AcDbLine
 10
-12.483076
 20
75.004272
 30
0.0
 11
-21.014076
 21
75.004272
 31
0.0
  0
ARC
  5
7F
100
AcDbEntity
  8
2
370
    50
100
AcDbCircle
 10
-12.483076
 20
145.004272
 30
0.0
 40
70.0
100
AcDbArc
 50
270.0
 51
280.082593
  0
LINE
  5
80
100
AcDbEntity
  8
2
370
    50
100
AcDbLine
 10
-12.176076
 20
55.211272
 30
0.0
 11
-10.163076
 21
54.049272
 31
0.0
  0
LINE
  5
81
100
AcDbEntity
  8
2
370
    50
100
AcDbLine
 10
-12.176076
 20
56.812419
 30
0.0
 11
-12.176076
 21
54.049272
 31
0.0
  0
LINE
  5
82
100
AcDbEntity
  8
2
370
    25
100
AcDbLine
 10
-22.176076
 20
55.212272
 30
0.0
 11
-12.176076
 21
55.211272
 31
0.0
  0
LINE
  5
83
100
AcDbEntity
  8
2
370
    50
100
AcDbLine
 10
-12.176076
 20
73.842272
 30
0.0
 11
-10.163076
 21
75.004272
 31
0.0
  0
LINE
  5
84
100
AcDbEntity
  8
2
370
    25
100
AcDbLine
 10
-22.176076
 20
73.842272
 30
0.0
 11
-12.176076
 21
73.842272
 31
0.0
  0
LINE
  5
85
100
AcDbEntity
  8
2
370
    50
100
AcDbLine
 10
-12.176076
 20
72.247882
 30
0.0
 11
-12.176076
 21
75.004272
 31
0.0
  0
LINE
  5
86
100
AcDbEntity
  8
2
370
    50
100
AcDbLine
 10
32.824025
 20
-38.249507
 30
0.0
 11
40.851924
 21
-38.249507
 31
0.0
  0
LINE
  5
87
100
AcDbEntity
  8
2
370
    50
100
AcDbLine
 10
32.824025
 20
-52.971507
 30
0.0
 11
40.851924
 21
-52.971507
 31
0.0
  0
ARC
  5
88
100
AcDbEntity
  8
2
370
    50
100
AcDbCircle
 10
45.576293
 20
-45.610507
 30
0.0
 40
14.724288
100
AcDbArc
 50
150.00514
 51
209.99486
  0
ARC
  5
89
100
AcDbEntity
  8
2
370
    50
100
AcDbCircle
 10
28.099505
 20
-45.610507
 30
0.0
 40
14.724418
100
AcDbArc
 50
330.005432
 51
29.994568
  0
ARC
  5
8A
100
AcDbEntity
  8
2
370
    50
100
AcDbCircle
 10
38.403319
 20
-34.569007
 30
0.0
 40
4.420605
100
AcDbArc
 50
303.635476
 51
360.0
  0
ARC
  5
8B
100
AcDbEntity
  8
2
370
    50
100
AcDbCircle
 10
35.272456
 20
-34.569077
 30
0.0
 40
4.42045
100
AcDbArc
 50
147.813463
 51
236.365908
  0
ARC
  5
8C
100
AcDbEntity
  8
2
370
    50
100
AcDbCircle
 10
38.403319
 20
-56.652007
 30
0.0
 40
4.420605
100
AcDbArc
 50
0.0
 51
56.364524
  0
ARC
  5
8D
100
AcDbEntity
  8
2
370
    50
100
AcDbCircle
 10
35.272456
 20
-56.651938
 30
0.0
 40
4.42045
100
AcDbArc
 50
123.634092
 51
229.280657
  0
LINE
  5
8E
100
AcDbEntity
  8
2
370
    50
100
AcDbLine
 10
-102.026103
 20
-20.202507
 30
0.0
 11
-90.026103
 21
-20.202507
 31
0.0
  0
LINE
  5
8F
100
AcDbEntity
  8
2
370
    50
100
AcDbLine
 10
-90.839103
 20
-20.202507
 30
0.0
 11
-90.026103
 21
-21.610507
 31
0.0
  0
LINE
  5
90
100
AcDbEntity
  8
2
370
    50
100
AcDbLine
 10
-114.026103
 20
-20.202507
 30
0.0
 11
-102.026103
 21
-20.202507
 31
0.0
  0
LINE
  5
91
100
AcDbEntity
  8
2
370
    50
100
AcDbLine
 10
-113.213103
 20
-20.202507
 30
0.0
 11
-114.026103
 21
-21.610507
 31
0.0
  0
LINE
  5
92
100
AcDbEntity
  8
2
370
    50
100
AcDbLine
 10
-113.213103
 20
-20.202507
 30
0.0
 11
-113.213103
 21
-19.638507
 31
0.0
  0
LINE
  5
93
100
AcDbEntity
  8
2
370
    50
100
AcDbLine
 10
-90.839103
 20
-20.202507
 30
0.0
 11
-90.839103
 21
-19.638507
 31
0.0
  0
LINE
  5
94
100
AcDbEntity
  8
2
370
    50
100
AcDbLine
 10
-3.363076
 20
-20.202507
 30
0.0
 11
-3.363076
 21
-19.638507
 31
0.0
  0
LINE
  5
95
100
AcDbEntity
  8
2
370
    50
100
AcDbLine
 10
19.010924
 20
-20.202507
 30
0.0
 11
19.010924
 21
-19.638507
 31
0.0
  0
LINE
  5
96
100
AcDbEntity
  8
2
370
    50
100
AcDbLine
 10
-22.176076
 20
-36.295507
 30
0.0
 11
-21.014076
 21
-35.133507
 31
0.0
  0
LINE
  5
97
100
AcDbEntity
  8
2
370
    50
100
AcDbLine
 10
-21.014076
 20
-56.087507
 30
0.0
 11
-22.176076
 21
-54.925507
 31
0.0
  0
LINE
  5
98
100
AcDbEntity
  8
2
370
    50
100
AcDbLine
 10
-22.176076
 20
-45.610507
 30
0.0
 11
-22.176076
 21
-54.925507
 31
0.0
  0
LINE
  5
99
100
AcDbEntity
  8
2
370
    50
100
AcDbLine
 10
-22.176076
 20
-45.610507
 30
0.0
 11
-22.176076
 21
-36.295507
 31
0.0
  0
CIRCLE
  5
9A
100
AcDbEntity
  8
2
370
    50
100
AcDbCircle
 10
-102.026103
 20
-45.610507
 30
0.0
 40
10.4775
  0
CIRCLE
  5
9B
100
AcDbEntity
  8
2
370
    50
100
AcDbCircle
 10
-102.026103
 20
-45.610507
 30
0.0
 40
9.315
  0
ARC
  5
9C
100
AcDbEntity
  8
2
370
    50
100
AcDbCircle
 10
-102.026103
 20
-45.610507
 30
0.0
 40
13.0
100
AcDbArc
 50
158.96053
 51
21.03947
  0
ARC
  5
9D
100
AcDbEntity
  8
2
370
    50
100
AcDbCircle
 10
-116.026103
 20
-40.225343
 30
0.0
 40
2.0
100
AcDbArc
 50
338.96053
 51
360.0
  0
ARC
  5
9E
100
AcDbEntity
  8
2
370
    50
100
AcDbCircle
 10
-88.026103
 20
-40.225343
 30
0.0
 40
2.0
100
AcDbArc
 50
180.0
 51
201.03947
  0
CIRCLE
  5
9F
100
AcDbEntity
  8
2
370
    50
100
AcDbCircle
 10
-102.026103
 20
-45.610507
 30
0.0
 40
6.5
  0
LINE
  5
A0
100
AcDbEntity
  8
2
370
    50
100
AcDbLine
 10
-21.014076
 20
-56.087507
 30
0.0
 11
-21.014076
 21
-35.133507
 31
0.0
  0
LINE
  5
A1
100
AcDbEntity
  8
2
370
    50
100
AcDbLine
 10
-22.176076
 20
73.842272
 30
0.0
 11
-21.014076
 21
75.004272
 31
0.0
  0
LINE
  5
A2
100
AcDbEntity
  8
2
370
    50
100
AcDbLine
 10
-21.014076
 20
54.050272
 30
0.0
 11
-22.176076
 21
55.212272
 31
0.0
  0
LINE
  5
A3
100
AcDbEntity
  8
2
370
    50
100
AcDbLine
 10
-22.176076
 20
61.210687
 30
0.0
 11
-22.176076
 21
55.212272
 31
0.0
  0
LINE
  5
A4
100
AcDbEntity
  8
2
370
    50
100
AcDbLine
 10
-22.176076
 20
67.843937
 30
0.0
 11
-22.176076
 21
73.842272
 31
0.0
  0
LINE
  5
A5
100
AcDbEntity
  8
2
370
    50
100
AcDbLine
 10
-21.014076
 20
54.050272
 30
0.0
 11
-21.014076
 21
59.915397
 31
0.0
  0
LINE
  5
A6
100
AcDbEntity
  8
2
370
    50
100
AcDbLine
 10
-21.014076
 20
69.139226
 30
0.0
 11
-21.014076
 21
75.004272
 31
0.0
  0
LINE
  5
A7
100
AcDbEntity
  8
2
370
    50
100
AcDbLine
 10
32.823725
 20
64.527108
 30
0.0
 11
41.685173
 21
64.527108
 31
0.0
  0
ARC
  5
A8
100
AcDbEntity
  8
2
370
    50
100
AcDbCircle
 10
7.823924
 20
-7.110507
 30
0.0
 40
18.5
100
AcDbArc
 50
71.074
 51
89.999
  0
ARC
  5
A9
100
AcDbEntity
  8
2
370
    50
100
AcDbCircle
 10
7.823924
 20
-7.110507
 30
0.0
 40
18.5
100
AcDbArc
 50
89.999
 51
108.924
  0
LINE
  5
AA
100
AcDbEntity
  8
2
370
    50
100
AcDbLine
 10
13.823924
 20
10.389493
 30
0.0
 11
7.823924
 21
10.389493
 31
0.0
  0
LINE
  5
AB
100
AcDbEntity
  8
2
370
    50
100
AcDbLine
 10
1.823924
 20
10.389493
 30
0.0
 11
7.823924
 21
10.389493
 31
0.0
  0
LINE
  5
AC
100
AcDbEntity
  8
2
370
    50
100
AcDbLine
 10
7.823924
 20
10.389493
 30
0.0
 11
7.823924
 21
8.389493
 31
0.0
  0
LINE
  5
AD
100
AcDbEntity
  8
2
370
    50
100
AcDbLine
 10
1.823924
 20
10.389493
 30
0.0
 11
1.823924
 21
8.389493
 31
0.0
  0
LINE
  5
AE
100
AcDbEntity
  8
2
370
    50
100
AcDbLine
 10
7.023924
 20
10.389493
 30
0.0
 11
7.023924
 21
8.389493
 31
0.0
  0
LINE
  5
AF
100
AcDbEntity
  8
2
370
    50
100
AcDbLine
 10
6.238924
 20
10.389493
 30
0.0
 11
6.238924
 21
8.389493
 31
0.0
  0
LINE
  5
B0
100
AcDbEntity
  8
2
370
    50
100
AcDbLine
 10
5.480924
 20
10.389493
 30
0.0
 11
5.480924
 21
8.389493
 31
0.0
  0
LINE
  5
B1
100
AcDbEntity
  8
2
370
    50
100
AcDbLine
 10
4.765924
 20
10.389493
 30
0.0
 11
4.765924
 21
8.389493
 31
0.0
  0
LINE
  5
B2
100
AcDbEntity
  8
2
370
    50
100
AcDbLine
 10
4.104924
 20
10.389493
 30
0.0
 11
4.104924
 21
8.389493
 31
0.0
  0
LINE
  5
B3
100
AcDbEntity
  8
2
370
    50
100
AcDbLine
 10
3.510924
 20
10.389493
 30
0.0
 11
3.510924
 21
8.389493
 31
0.0
  0
LINE
  5
B4
100
AcDbEntity
  8
2
370
    50
100
AcDbLine
 10
2.992924
 20
10.389493
 30
0.0
 11
2.992924
 21
8.389493
 31
0.0
  0
LINE
  5
B5
100
AcDbEntity
  8
2
370
    50
100
AcDbLine
 10
2.561924
 20
10.389493
 30
0.0
 11
2.561924
 21
8.389493
 31
0.0
  0
LINE
  5
B6
100
AcDbEntity
  8
2
370
    50
100
AcDbLine
 10
2.224924
 20
10.389493
 30
0.0
 11
2.224924
 21
8.389493
 31
0.0
  0
LINE
  5
B7
100
AcDbEntity
  8
2
370
    50
100
AcDbLine
 10
1.986924
 20
10.389493
 30
0.0
 11
1.986924
 21
8.389493
 31
0.0
  0
LINE
  5
B8
100
AcDbEntity
  8
2
370
    50
100
AcDbLine
 10
1.853924
 20
10.389493
 30
0.0
 11
1.853924
 21
8.389493
 31
0.0
  0
LINE
  5
B9
100
AcDbEntity
  8
2
370
    50
100
AcDbLine
 10
13.793924
 20
10.389493
 30
0.0
 11
13.793924
 21
8.389493
 31
0.0
  0
LINE
  5
BA
100
AcDbEntity
  8
2
370
    50
100
AcDbLine
 10
13.660924
 20
10.389493
 30
0.0
 11
13.660924
 21
8.389493
 31
0.0
  0
LINE
  5
BB
100
AcDbEntity
  8
2
370
    50
100
AcDbLine
 10
13.422924
 20
10.389493
 30
0.0
 11
13.422924
 21
8.389493
 31
0.0
  0
LINE
  5
BC
100
AcDbEntity
  8
2
370
    50
100
AcDbLine
 10
13.085924
 20
10.389493
 30
0.0
 11
13.085924
 21
8.389493
 31
0.0
  0
LINE
  5
BD
100
AcDbEntity
  8
2
370
    50
100
AcDbLine
 10
12.654924
 20
10.389493
 30
0.0
 11
12.654924
 21
8.389493
 31
0.0
  0
LINE
  5
BE
100
AcDbEntity
  8
2
370
    50
100
AcDbLine
 10
12.136924
 20
10.389493
 30
0.0
 11
12.136924
 21
8.389493
 31
0.0
  0
LINE
  5
BF
100
AcDbEntity
  8
2
370
    50
100
AcDbLine
 10
11.542924
 20
10.389493
 30
0.0
 11
11.542924
 21
8.389493
 31
0.0
  0
LINE
  5
C0
100
AcDbEntity
  8
2
370
    50
100
AcDbLine
 10
10.881924
 20
10.389493
 30
0.0
 11
10.881924
 21
8.389493
 31
0.0
  0
LINE
  5
C1
100
AcDbEntity
  8
2
370
    50
100
AcDbLine
 10
10.165924
 20
10.389493
 30
0.0
 11
10.165924
 21
8.389493
 31
0.0
  0
LINE
  5
C2
100
AcDbEntity
  8
2
370
    50
100
AcDbLine
 10
9.408924
 20
10.389493
 30
0.0
 11
9.408924
 21
8.389493
 31
0.0
  0
LINE
  5
C3
100
AcDbEntity
  8
2
370
    50
100
AcDbLine
 10
8.623924
 20
10.389493
 30
0.0
 11
8.623924
 21
8.389493
 31
0.0
  0
LINE
  5
C4
100
AcDbEntity
  8
2
370
    50
100
AcDbLine
 10
13.823924
 20
10.389493
 30
0.0
 11
13.823924
 21
8.389493
 31
0.0
  0
LINE
  5
C5
100
AcDbEntity
  8
2
370
    50
100
AcDbLine
 10
13.823924
 20
8.389493
 30
0.0
 11
7.823924
 21
8.389493
 31
0.0
  0
LINE
  5
C6
100
AcDbEntity
  8
2
370
    50
100
AcDbLine
 10
1.823924
 20
8.389493
 30
0.0
 11
7.823924
 21
8.389493
 31
0.0
  0
CIRCLE
  5
C7
100
AcDbEntity
  8
2
370
    50
100
AcDbCircle
 10
7.823924
 20
64.527272
 30
0.0
 40
6.0
  0
ARC
  5
C8
100
AcDbEntity
  8
2
370
    50
100
AcDbCircle
 10
-102.026103
 20
-7.11051
 30
0.0
 40
18.5
100
AcDbArc
 50
90.002
 51
108.927
  0
ARC
  5
C9
100
AcDbEntity
  8
2
370
    50
100
AcDbCircle
 10
-102.026103
 20
-7.11051
 30
0.0
 40
18.5
100
AcDbArc
 50
71.076
 51
90.002
  0
LINE
  5
CA
100
AcDbEntity
  8
2
370
    50
100
AcDbLine
 10
-108.026103
 20
10.38949
 30
0.0
 11
-102.026103
 21
10.38949
 31
0.0
  0
LINE
  5
CB
100
AcDbEntity
  8
2
370
    50
100
AcDbLine
 10
-96.026103
 20
10.38949
 30
0.0
 11
-102.026103
 21
10.38949
 31
0.0
  0
LINE
  5
CC
100
AcDbEntity
  8
2
370
    50
100
AcDbLine
 10
-102.026103
 20
10.38949
 30
0.0
 11
-102.026103
 21
8.38949
 31
0.0
  0
LINE
  5
CD
100
AcDbEntity
  8
2
370
    50
100
AcDbLine
 10
-96.026103
 20
10.38949
 30
0.0
 11
-96.026103
 21
8.38949
 31
0.0
  0
LINE
  5
CE
100
AcDbEntity
  8
2
370
    50
100
AcDbLine
 10
-101.226103
 20
10.38949
 30
0.0
 11
-101.226103
 21
8.38949
 31
0.0
  0
LINE
  5
CF
100
AcDbEntity
  8
2
370
    50
100
AcDbLine
 10
-100.441103
 20
10.38949
 30
0.0
 11
-100.441103
 21
8.38949
 31
0.0
  0
LINE
  5
D0
100
AcDbEntity
  8
2
370
    50
100
AcDbLine
 10
-99.684103
 20
10.38949
 30
0.0
 11
-99.684103
 21
8.38949
 31
0.0
  0
LINE
  5
D1
100
AcDbEntity
  8
2
370
    50
100
AcDbLine
 10
-98.968103
 20
10.38949
 30
0.0
 11
-98.968103
 21
8.38949
 31
0.0
  0
LINE
  5
D2
100
AcDbEntity
  8
2
370
    50
100
AcDbLine
 10
-98.307103
 20
10.38949
 30
0.0
 11
-98.307103
 21
8.38949
 31
0.0
  0
LINE
  5
D3
100
AcDbEntity
  8
2
370
    50
100
AcDbLine
 10
-97.713103
 20
10.38949
 30
0.0
 11
-97.713103
 21
8.38949
 31
0.0
  0
LINE
  5
D4
100
AcDbEntity
  8
2
370
    50
100
AcDbLine
 10
-97.195103
 20
10.38949
 30
0.0
 11
-97.195103
 21
8.38949
 31
0.0
  0
LINE
  5
D5
100
AcDbEntity
  8
2
370
    50
100
AcDbLine
 10
-96.764103
 20
10.38949
 30
0.0
 11
-96.764103
 21
8.38949
 31
0.0
  0
LINE
  5
D6
100
AcDbEntity
  8
2
370
    50
100
AcDbLine
 10
-96.427103
 20
10.38949
 30
0.0
 11
-96.427103
 21
8.38949
 31
0.0
  0
LINE
  5
D7
100
AcDbEntity
  8
2
370
    50
100
AcDbLine
 10
-96.189103
 20
10.38949
 30
0.0
 11
-96.189103
 21
8.38949
 31
0.0
  0
LINE
  5
D8
100
AcDbEntity
  8
2
370
    50
100
AcDbLine
 10
-96.056103
 20
10.38949
 30
0.0
 11
-96.056103
 21
8.38949
 31
0.0
  0
LINE
  5
D9
100
AcDbEntity
  8
2
370
    50
100
AcDbLine
 10
-107.996103
 20
10.38949
 30
0.0
 11
-107.996103
 21
8.38949
 31
0.0
  0
LINE
  5
DA
100
AcDbEntity
  8
2
370
    50
100
AcDbLine
 10
-107.863103
 20
10.38949
 30
0.0
 11
-107.863103
 21
8.38949
 31
0.0
  0
LINE
  5
DB
100
AcDbEntity
  8
2
370
    50
100
AcDbLine
 10
-107.625103
 20
10.38949
 30
0.0
 11
-107.625103
 21
8.38949
 31
0.0
  0
LINE
  5
DC
100
AcDbEntity
  8
2
370
    50
100
AcDbLine
 10
-107.288103
 20
10.38949
 30
0.0
 11
-107.288103
 21
8.38949
 31
0.0
  0
LINE
  5
DD
100
AcDbEntity
  8
2
370
    50
100
AcDbLine
 10
-106.857103
 20
10.38949
 30
0.0
 11
-106.857103
 21
8.38949
 31
0.0
  0
LINE
  5
DE
100
AcDbEntity
  8
2
370
    50
100
AcDbLine
 10
-106.339103
 20
10.38949
 30
0.0
 11
-106.339103
 21
8.38949
 31
0.0
  0
LINE
  5
DF
100
AcDbEntity
  8
2
370
    50
100
AcDbLine
 10
-105.745103
 20
10.38949
 30
0.0
 11
-105.745103
 21
8.38949
 31
0.0
  0
LINE
  5
E0
100
AcDbEntity
  8
2
370
    50
100
AcDbLine
 10
-105.084103
 20
10.38949
 30
0.0
 11
-105.084103
 21
8.38949
 31
0.0
  0
LINE
  5
E1
100
AcDbEntity
  8
2
370
    50
100
AcDbLine
 10
-104.368103
 20
10.38949
 30
0.0
 11
-104.368103
 21
8.38949
 31
0.0
  0
LINE
  5
E2
100
AcDbEntity
  8
2
370
    50
100
AcDbLine
 10
-103.611103
 20
10.38949
 30
0.0
 11
-103.611103
 21
8.38949
 31
0.0
  0
LINE
  5
E3
100
AcDbEntity
  8
2
370
    50
100
AcDbLine
 10
-102.826103
 20
10.38949
 30
0.0
 11
-102.826103
 21
8.38949
 31
0.0
  0
LINE
  5
E4
100
AcDbEntity
  8
2
370
    50
100
AcDbLine
 10
-108.026103
 20
10.38949
 30
0.0
 11
-108.026103
 21
8.38949
 31
0.0
  0
LINE
  5
E5
100
AcDbEntity
  8
2
370
    50
100
AcDbLine
 10
-108.026103
 20
8.38949
 30
0.0
 11
-102.026103
 21
8.38949
 31
0.0
  0
LINE
  5
E6
100
AcDbEntity
  8
2
370
    50
100
AcDbLine
 10
-96.026103
 20
8.38949
 30
0.0
 11
-102.026103
 21
8.38949
 31
0.0
  0
ARC
  5
E7
100
AcDbEntity
  8
2
370
    50
100
AcDbCircle
 10
-9.791076
 20
6.674493
 30
0.0
 40
18.0
100
AcDbArc
 50
288.49
 51
312.304
  0
ARC
  5
E8
100
AcDbEntity
  8
2
370
    50
100
AcDbCircle
 10
-2.497076
 20
-15.138507
 30
0.0
 40
5.0
100
AcDbArc
 50
108.49
 51
133.305
  0
ARC
  5
E9
100
AcDbEntity
  8
2
370
    50
100
AcDbCircle
 10
-2.497076
 20
-15.138507
 30
0.0
 40
5.0
100
AcDbArc
 50
226.694
 51
244.158
  0
LINE
  5
EA
100
AcDbEntity
  8
2
370
    50
100
AcDbLine
 10
-5.926076
 20
-18.777507
 30
0.0
 11
-5.926076
 21
-11.500507
 31
0.0
  0
LINE
  5
EB
100
AcDbEntity
  8
2
370
    50
100
AcDbLine
 10
21.573924
 20
-18.777507
 30
0.0
 11
21.573924
 21
-11.500507
 31
0.0
  0
ARC
  5
EC
100
AcDbEntity
  8
2
370
    50
100
AcDbCircle
 10
18.143924
 20
-15.138507
 30
0.0
 40
5.0
100
AcDbArc
 50
295.841
 51
313.306
  0
ARC
  5
ED
100
AcDbEntity
  8
2
370
    50
100
AcDbCircle
 10
18.143924
 20
-15.138507
 30
0.0
 40
5.0
100
AcDbArc
 50
46.693
 51
71.508
  0
ARC
  5
EE
100
AcDbEntity
  8
2
370
    50
100
AcDbCircle
 10
25.438924
 20
6.674493
 30
0.0
 40
18.0
100
AcDbArc
 50
227.697
 51
251.509
  0
LINE
  5
EF
100
AcDbEntity
  8
2
370
    50
100
AcDbLine
 10
7.823924
 20
-6.638507
 30
0.0
 11
2.323924
 21
-6.638507
 31
0.0
  0
LINE
  5
F0
100
AcDbEntity
  8
2
370
    50
100
AcDbLine
 10
7.823924
 20
-6.638507
 30
0.0
 11
13.323924
 21
-6.638507
 31
0.0
  0
LINE
  5
F1
100
AcDbEntity
  8
2
370
    50
100
AcDbLine
 10
7.823924
 20
-19.638507
 30
0.0
 11
-4.676076
 21
-19.638507
 31
0.0
  0
LINE
  5
F2
100
AcDbEntity
  8
2
370
    50
100
AcDbLine
 10
7.823924
 20
-19.638507
 30
0.0
 11
20.323924
 21
-19.638507
 31
0.0
  0
LINE
  5
F3
100
AcDbEntity
  8
2
370
    50
100
AcDbLine
 10
21.573924
 20
-18.777507
 30
0.0
 11
21.573924
 21
-11.499507
 31
0.0
  0
ARC
  5
F4
100
AcDbEntity
  8
2
370
    50
100
AcDbCircle
 10
18.144924
 20
-15.138507
 30
0.0
 40
5.0
100
AcDbArc
 50
295.842
 51
313.306
  0
ARC
  5
F5
100
AcDbEntity
  8
2
370
    50
100
AcDbCircle
 10
18.144924
 20
-15.138507
 30
0.0
 40
5.0
100
AcDbArc
 50
46.695
 51
71.509
  0
LINE
  5
F6
100
AcDbEntity
  8
2
370
    50
100
AcDbLine
 10
20.323924
 20
-19.638507
 30
0.0
 11
7.823924
 21
-19.638507
 31
0.0
  0
LINE
  5
F7
100
AcDbEntity
  8
2
370
    50
100
AcDbLine
 10
16.842924
 20
-11.499507
 30
0.0
 11
12.302924
 21
-11.499507
 31
0.0
  0
LINE
  5
F8
100
AcDbEntity
  8
2
370
    50
100
AcDbLine
 10
12.302924
 20
-18.777507
 30
0.0
 11
16.842924
 21
-18.777507
 31
0.0
  0
LINE
  5
F9
100
AcDbEntity
  8
2
370
    50
100
AcDbLine
 10
16.842924
 20
-11.499507
 30
0.0
 11
16.842924
 21
-18.777507
 31
0.0
  0
LINE
  5
FA
100
AcDbEntity
  8
2
370
    50
100
AcDbLine
 10
12.302924
 20
-11.499507
 30
0.0
 11
12.302924
 21
-18.777507
 31
0.0
  0
LINE
  5
FB
100
AcDbEntity
  8
2
370
    50
100
AcDbLine
 10
12.302924
 20
-11.499507
 30
0.0
 11
11.247924
 21
-11.156507
 31
0.0
  0
LINE
  5
FC
100
AcDbEntity
  8
2
370
    50
100
AcDbLine
 10
11.247924
 20
-11.156507
 30
0.0
 11
10.091924
 21
-11.040507
 31
0.0
  0
LINE
  5
FD
100
AcDbEntity
  8
2
370
    50
100
AcDbLine
 10
10.091924
 20
-11.040507
 30
0.0
 11
9.431924
 21
-11.002507
 31
0.0
  0
LINE
  5
FE
100
AcDbEntity
  8
2
370
    50
100
AcDbLine
 10
9.431924
 20
-11.002507
 30
0.0
 11
9.037924
 21
-10.986507
 31
0.0
  0
LINE
  5
FF
100
AcDbEntity
  8
2
370
    50
100
AcDbLine
 10
9.037924
 20
-10.986507
 30
0.0
 11
8.776924
 21
-10.979507
 31
0.0
  0
LINE
  5
100
100
AcDbEntity
  8
2
370
    50
100
AcDbLine
 10
8.776924
 20
-10.979507
 30
0.0
 11
8.591924
 21
-10.974507
 31
0.0
  0
LINE
  5
101
100
AcDbEntity
  8
2
370
    50
100
AcDbLine
 10
8.591924
 20
-10.974507
 30
0.0
 11
8.450924
 21
-10.972507
 31
0.0
  0
LINE
  5
102
100
AcDbEntity
  8
2
370
    50
100
AcDbLine
 10
8.450924
 20
-10.972507
 30
0.0
 11
8.337924
 21
-10.970507
 31
0.0
  0
LINE
  5
103
100
AcDbEntity
  8
2
370
    50
100
AcDbLine
 10
8.337924
 20
-10.970507
 30
0.0
 11
8.244924
 21
-10.969507
 31
0.0
  0
LINE
  5
104
100
AcDbEntity
  8
2
370
    50
100
AcDbLine
 10
8.244924
 20
-10.969507
 30
0.0
 11
8.164924
 21
-10.968507
 31
0.0
  0
LINE
  5
105
100
AcDbEntity
  8
2
370
    50
100
AcDbLine
 10
8.164924
 20
-10.968507
 30
0.0
 11
8.094924
 21
-10.967507
 31
0.0
  0
LINE
  5
106
100
AcDbEntity
  8
2
370
    50
100
AcDbLine
 10
8.094924
 20
-10.967507
 30
0.0
 11
8.030924
 21
-10.967507
 31
0.0
  0
LINE
  5
107
100
AcDbEntity
  8
2
370
    50
100
AcDbLine
 10
8.030924
 20
-10.967507
 30
0.0
 11
7.971924
 21
-10.967507
 31
0.0
  0
LINE
  5
108
100
AcDbEntity
  8
2
370
    50
100
AcDbLine
 10
7.971924
 20
-10.967507
 30
0.0
 11
7.915924
 21
-10.967507
 31
0.0
  0
LINE
  5
109
100
AcDbEntity
  8
2
370
    50
100
AcDbLine
 10
7.915924
 20
-10.967507
 30
0.0
 11
7.861924
 21
-10.966507
 31
0.0
  0
LINE
  5
10A
100
AcDbEntity
  8
2
370
    50
100
AcDbLine
 10
7.861924
 20
-10.966507
 30
0.0
 11
7.823924
 21
-10.966507
 31
0.0
  0
LINE
  5
10B
100
AcDbEntity
  8
2
370
    50
100
AcDbLine
 10
7.823924
 20
-19.638507
 30
0.0
 11
7.909924
 21
-19.637507
 31
0.0
  0
LINE
  5
10C
100
AcDbEntity
  8
2
370
    50
100
AcDbLine
 10
7.909924
 20
-19.637507
 30
0.0
 11
7.997924
 21
-19.637507
 31
0.0
  0
LINE
  5
10D
100
AcDbEntity
  8
2
370
    50
100
AcDbLine
 10
7.997924
 20
-19.637507
 30
0.0
 11
8.089924
 21
-19.636507
 31
0.0
  0
LINE
  5
10E
100
AcDbEntity
  8
2
370
    50
100
AcDbLine
 10
8.089924
 20
-19.636507
 30
0.0
 11
8.186924
 21
-19.635507
 31
0.0
  0
LINE
  5
10F
100
AcDbEntity
  8
2
370
    50
100
AcDbLine
 10
8.186924
 20
-19.635507
 30
0.0
 11
8.291924
 21
-19.633507
 31
0.0
  0
LINE
  5
110
100
AcDbEntity
  8
2
370
    50
100
AcDbLine
 10
8.291924
 20
-19.633507
 30
0.0
 11
8.407924
 21
-19.630507
 31
0.0
  0
LINE
  5
111
100
AcDbEntity
  8
2
370
    50
100
AcDbLine
 10
8.407924
 20
-19.630507
 30
0.0
 11
8.539924
 21
-19.626507
 31
0.0
  0
LINE
  5
112
100
AcDbEntity
  8
2
370
    50
100
AcDbLine
 10
8.539924
 20
-19.626507
 30
0.0
 11
8.693924
 21
-19.621507
 31
0.0
  0
LINE
  5
113
100
AcDbEntity
  8
2
370
    50
100
AcDbLine
 10
8.693924
 20
-19.621507
 30
0.0
 11
8.877924
 21
-19.613507
 31
0.0
  0
LINE
  5
114
100
AcDbEntity
  8
2
370
    50
100
AcDbLine
 10
8.877924
 20
-19.613507
 30
0.0
 11
9.108924
 21
-19.601507
 31
0.0
  0
LINE
  5
115
100
AcDbEntity
  8
2
370
    50
100
AcDbLine
 10
9.108924
 20
-19.601507
 30
0.0
 11
9.406924
 21
-19.582507
 31
0.0
  0
LINE
  5
116
100
AcDbEntity
  8
2
370
    50
100
AcDbLine
 10
9.406924
 20
-19.582507
 30
0.0
 11
9.808924
 21
-19.548507
 31
0.0
  0
LINE
  5
117
100
AcDbEntity
  8
2
370
    50
100
AcDbLine
 10
9.808924
 20
-19.548507
 30
0.0
 11
10.373924
 21
-19.484507
 31
0.0
  0
LINE
  5
118
100
AcDbEntity
  8
2
370
    50
100
AcDbLine
 10
10.373924
 20
-19.484507
 30
0.0
 11
11.157924
 21
-19.352507
 31
0.0
  0
LINE
  5
119
100
AcDbEntity
  8
2
370
    50
100
AcDbLine
 10
11.157924
 20
-19.352507
 30
0.0
 11
12.025924
 21
-19.075507
 31
0.0
  0
LINE
  5
11A
100
AcDbEntity
  8
2
370
    50
100
AcDbLine
 10
12.025924
 20
-19.075507
 30
0.0
 11
12.302924
 21
-18.777507
 31
0.0
  0
LINE
  5
11B
100
AcDbEntity
  8
2
370
    50
100
AcDbLine
 10
16.842924
 20
-18.777507
 30
0.0
 11
16.927924
 21
-19.005507
 31
0.0
  0
LINE
  5
11C
100
AcDbEntity
  8
2
370
    50
100
AcDbLine
 10
16.927924
 20
-19.005507
 30
0.0
 11
17.141924
 21
-19.195507
 31
0.0
  0
LINE
  5
11D
100
AcDbEntity
  8
2
370
    50
100
AcDbLine
 10
17.141924
 20
-19.195507
 30
0.0
 11
17.405924
 21
-19.334507
 31
0.0
  0
LINE
  5
11E
100
AcDbEntity
  8
2
370
    50
100
AcDbLine
 10
17.405924
 20
-19.334507
 30
0.0
 11
17.664924
 21
-19.429507
 31
0.0
  0
LINE
  5
11F
100
AcDbEntity
  8
2
370
    50
100
AcDbLine
 10
17.664924
 20
-19.429507
 30
0.0
 11
17.896924
 21
-19.493507
 31
0.0
  0
LINE
  5
120
100
AcDbEntity
  8
2
370
    50
100
AcDbLine
 10
17.896924
 20
-19.493507
 30
0.0
 11
18.096924
 21
-19.537507
 31
0.0
  0
LINE
  5
121
100
AcDbEntity
  8
2
370
    50
100
AcDbLine
 10
18.096924
 20
-19.537507
 30
0.0
 11
18.269924
 21
-19.567507
 31
0.0
  0
LINE
  5
122
100
AcDbEntity
  8
2
370
    50
100
AcDbLine
 10
18.269924
 20
-19.567507
 30
0.0
 11
18.419924
 21
-19.588507
 31
0.0
  0
LINE
  5
123
100
AcDbEntity
  8
2
370
    50
100
AcDbLine
 10
18.419924
 20
-19.588507
 30
0.0
 11
18.551924
 21
-19.604507
 31
0.0
  0
LINE
  5
124
100
AcDbEntity
  8
2
370
    50
100
AcDbLine
 10
18.551924
 20
-19.604507
 30
0.0
 11
18.669924
 21
-19.615507
 31
0.0
  0
LINE
  5
125
100
AcDbEntity
  8
2
370
    50
100
AcDbLine
 10
18.669924
 20
-19.615507
 30
0.0
 11
18.776924
 21
-19.623507
 31
0.0
  0
LINE
  5
126
100
AcDbEntity
  8
2
370
    50
100
AcDbLine
 10
18.776924
 20
-19.623507
 30
0.0
 11
18.876924
 21
-19.629507
 31
0.0
  0
LINE
  5
127
100
AcDbEntity
  8
2
370
    50
100
AcDbLine
 10
18.876924
 20
-19.629507
 30
0.0
 11
18.970924
 21
-19.633507
 31
0.0
  0
LINE
  5
128
100
AcDbEntity
  8
2
370
    50
100
AcDbLine
 10
18.970924
 20
-19.633507
 30
0.0
 11
19.059924
 21
-19.636507
 31
0.0
  0
LINE
  5
129
100
AcDbEntity
  8
2
370
    50
100
AcDbLine
 10
19.059924
 20
-19.636507
 30
0.0
 11
19.146924
 21
-19.637507
 31
0.0
  0
LINE
  5
12A
100
AcDbEntity
  8
2
370
    50
100
AcDbLine
 10
19.146924
 20
-19.637507
 30
0.0
 11
19.207924
 21
-19.638507
 31
0.0
  0
LINE
  5
12B
100
AcDbEntity
  8
2
370
    50
100
AcDbLine
 10
21.279924
 20
-11.242507
 30
0.0
 11
20.872924
 21
-11.121507
 31
0.0
  0
LINE
  5
12C
100
AcDbEntity
  8
2
370
    50
100
AcDbLine
 10
20.872924
 20
-11.121507
 30
0.0
 11
20.527924
 21
-11.057507
 31
0.0
  0
LINE
  5
12D
100
AcDbEntity
  8
2
370
    50
100
AcDbLine
 10
20.527924
 20
-11.057507
 30
0.0
 11
20.265924
 21
-11.023507
 31
0.0
  0
LINE
  5
12E
100
AcDbEntity
  8
2
370
    50
100
AcDbLine
 10
20.265924
 20
-11.023507
 30
0.0
 11
20.067924
 21
-11.003507
 31
0.0
  0
LINE
  5
12F
100
AcDbEntity
  8
2
370
    50
100
AcDbLine
 10
20.067924
 20
-11.003507
 30
0.0
 11
19.914924
 21
-10.991507
 31
0.0
  0
LINE
  5
130
100
AcDbEntity
  8
2
370
    50
100
AcDbLine
 10
19.914924
 20
-10.991507
 30
0.0
 11
19.792924
 21
-10.983507
 31
0.0
  0
LINE
  5
131
100
AcDbEntity
  8
2
370
    50
100
AcDbLine
 10
19.792924
 20
-10.983507
 30
0.0
 11
19.691924
 21
-10.978507
 31
0.0
  0
LINE
  5
132
100
AcDbEntity
  8
2
370
    50
100
AcDbLine
 10
19.691924
 20
-10.978507
 30
0.0
 11
19.604924
 21
-10.974507
 31
0.0
  0
LINE
  5
133
100
AcDbEntity
  8
2
370
    50
100
AcDbLine
 10
19.604924
 20
-10.974507
 30
0.0
 11
19.529924
 21
-10.971507
 31
0.0
  0
LINE
  5
134
100
AcDbEntity
  8
2
370
    50
100
AcDbLine
 10
19.529924
 20
-10.971507
 30
0.0
 11
19.462924
 21
-10.970507
 31
0.0
  0
LINE
  5
135
100
AcDbEntity
  8
2
370
    50
100
AcDbLine
 10
19.462924
 20
-10.970507
 30
0.0
 11
19.400924
 21
-10.968507
 31
0.0
  0
LINE
  5
136
100
AcDbEntity
  8
2
370
    50
100
AcDbLine
 10
19.400924
 20
-10.968507
 30
0.0
 11
19.342924
 21
-10.967507
 31
0.0
  0
LINE
  5
137
100
AcDbEntity
  8
2
370
    50
100
AcDbLine
 10
19.342924
 20
-10.967507
 30
0.0
 11
19.286924
 21
-10.967507
 31
0.0
  0
LINE
  5
138
100
AcDbEntity
  8
2
370
    50
100
AcDbLine
 10
19.286924
 20
-10.967507
 30
0.0
 11
19.233924
 21
-10.966507
 31
0.0
  0
LINE
  5
139
100
AcDbEntity
  8
2
370
    50
100
AcDbLine
 10
19.233924
 20
-10.966507
 30
0.0
 11
19.179924
 21
-10.967507
 31
0.0
  0
LINE
  5
13A
100
AcDbEntity
  8
2
370
    50
100
AcDbLine
 10
19.179924
 20
-10.967507
 30
0.0
 11
19.125924
 21
-10.967507
 31
0.0
  0
LINE
  5
13B
100
AcDbEntity
  8
2
370
    50
100
AcDbLine
 10
19.125924
 20
-10.967507
 30
0.0
 11
19.070924
 21
-10.967507
 31
0.0
  0
LINE
  5
13C
100
AcDbEntity
  8
2
370
    50
100
AcDbLine
 10
19.070924
 20
-10.967507
 30
0.0
 11
19.012924
 21
-10.968507
 31
0.0
  0
LINE
  5
13D
100
AcDbEntity
  8
2
370
    50
100
AcDbLine
 10
19.012924
 20
-10.968507
 30
0.0
 11
18.950924
 21
-10.970507
 31
0.0
  0
LINE
  5
13E
100
AcDbEntity
  8
2
370
    50
100
AcDbLine
 10
18.950924
 20
-10.970507
 30
0.0
 11
18.882924
 21
-10.972507
 31
0.0
  0
LINE
  5
13F
100
AcDbEntity
  8
2
370
    50
100
AcDbLine
 10
18.882924
 20
-10.972507
 30
0.0
 11
18.806924
 21
-10.974507
 31
0.0
  0
LINE
  5
140
100
AcDbEntity
  8
2
370
    50
100
AcDbLine
 10
18.806924
 20
-10.974507
 30
0.0
 11
18.719924
 21
-10.978507
 31
0.0
  0
LINE
  5
141
100
AcDbEntity
  8
2
370
    50
100
AcDbLine
 10
18.719924
 20
-10.978507
 30
0.0
 11
18.617924
 21
-10.983507
 31
0.0
  0
LINE
  5
142
100
AcDbEntity
  8
2
370
    50
100
AcDbLine
 10
18.617924
 20
-10.983507
 30
0.0
 11
18.493924
 21
-10.991507
 31
0.0
  0
LINE
  5
143
100
AcDbEntity
  8
2
370
    50
100
AcDbLine
 10
18.493924
 20
-10.991507
 30
0.0
 11
18.338924
 21
-11.004507
 31
0.0
  0
LINE
  5
144
100
AcDbEntity
  8
2
370
    50
100
AcDbLine
 10
18.338924
 20
-11.004507
 30
0.0
 11
18.137924
 21
-11.024507
 31
0.0
  0
LINE
  5
145
100
AcDbEntity
  8
2
370
    50
100
AcDbLine
 10
18.137924
 20
-11.024507
 30
0.0
 11
17.871924
 21
-11.060507
 31
0.0
  0
LINE
  5
146
100
AcDbEntity
  8
2
370
    50
100
AcDbLine
 10
17.871924
 20
-11.060507
 30
0.0
 11
17.521924
 21
-11.126507
 31
0.0
  0
LINE
  5
147
100
AcDbEntity
  8
2
370
    50
100
AcDbLine
 10
17.521924
 20
-11.126507
 30
0.0
 11
17.114924
 21
-11.251507
 31
0.0
  0
LINE
  5
148
100
AcDbEntity
  8
2
370
    50
100
AcDbLine
 10
17.114924
 20
-11.251507
 30
0.0
 11
16.849924
 21
-11.457507
 31
0.0
  0
LINE
  5
149
100
AcDbEntity
  8
2
370
    50
100
AcDbLine
 10
16.849924
 20
-11.457507
 30
0.0
 11
16.842924
 21
-11.499507
 31
0.0
  0
LINE
  5
14A
100
AcDbEntity
  8
2
370
    50
100
AcDbLine
 10
-5.926076
 20
-18.777507
 30
0.0
 11
-5.926076
 21
-11.499507
 31
0.0
  0
ARC
  5
14B
100
AcDbEntity
  8
2
370
    50
100
AcDbCircle
 10
-2.497076
 20
-15.138507
 30
0.0
 40
5.0
100
AcDbArc
 50
226.694
 51
244.158
  0
ARC
  5
14C
100
AcDbEntity
  8
2
370
    50
100
AcDbCircle
 10
-2.497076
 20
-15.138507
 30
0.0
 40
5.0
100
AcDbArc
 50
108.491
 51
133.305
  0
LINE
  5
14D
100
AcDbEntity
  8
2
370
    50
100
AcDbLine
 10
-4.676076
 20
-19.638507
 30
0.0
 11
7.823924
 21
-19.638507
 31
0.0
  0
LINE
  5
14E
100
AcDbEntity
  8
2
370
    50
100
AcDbLine
 10
-1.195076
 20
-11.499507
 30
0.0
 11
3.344924
 21
-11.499507
 31
0.0
  0
LINE
  5
14F
100
AcDbEntity
  8
2
370
    50
100
AcDbLine
 10
3.344924
 20
-18.777507
 30
0.0
 11
-1.195076
 21
-18.777507
 31
0.0
  0
LINE
  5
150
100
AcDbEntity
  8
2
370
    50
100
AcDbLine
 10
-1.195076
 20
-11.499507
 30
0.0
 11
-1.195076
 21
-18.777507
 31
0.0
  0
LINE
  5
151
100
AcDbEntity
  8
2
370
    50
100
AcDbLine
 10
3.344924
 20
-11.499507
 30
0.0
 11
3.344924
 21
-18.777507
 31
0.0
  0
LINE
  5
152
100
AcDbEntity
  8
2
370
    50
100
AcDbLine
 10
3.344924
 20
-11.499507
 30
0.0
 11
4.399924
 21
-11.156507
 31
0.0
  0
LINE
  5
153
100
AcDbEntity
  8
2
370
    50
100
AcDbLine
 10
4.399924
 20
-11.156507
 30
0.0
 11
5.555924
 21
-11.040507
 31
0.0
  0
LINE
  5
154
100
AcDbEntity
  8
2
370
    50
100
AcDbLine
 10
5.555924
 20
-11.040507
 30
0.0
 11
6.215924
 21
-11.002507
 31
0.0
  0
LINE
  5
155
100
AcDbEntity
  8
2
370
    50
100
AcDbLine
 10
6.215924
 20
-11.002507
 30
0.0
 11
6.609924
 21
-10.986507
 31
0.0
  0
LINE
  5
156
100
AcDbEntity
  8
2
370
    50
100
AcDbLine
 10
6.609924
 20
-10.986507
 30
0.0
 11
6.870924
 21
-10.979507
 31
0.0
  0
LINE
  5
157
100
AcDbEntity
  8
2
370
    50
100
AcDbLine
 10
6.870924
 20
-10.979507
 30
0.0
 11
7.055924
 21
-10.974507
 31
0.0
  0
LINE
  5
158
100
AcDbEntity
  8
2
370
    50
100
AcDbLine
 10
7.055924
 20
-10.974507
 30
0.0
 11
7.196924
 21
-10.972507
 31
0.0
  0
LINE
  5
159
100
AcDbEntity
  8
2
370
    50
100
AcDbLine
 10
7.196924
 20
-10.972507
 30
0.0
 11
7.309924
 21
-10.970507
 31
0.0
  0
LINE
  5
15A
100
AcDbEntity
  8
2
370
    50
100
AcDbLine
 10
7.309924
 20
-10.970507
 30
0.0
 11
7.402924
 21
-10.969507
 31
0.0
  0
LINE
  5
15B
100
AcDbEntity
  8
2
370
    50
100
AcDbLine
 10
7.402924
 20
-10.969507
 30
0.0
 11
7.482924
 21
-10.968507
 31
0.0
  0
LINE
  5
15C
100
AcDbEntity
  8
2
370
    50
100
AcDbLine
 10
7.482924
 20
-10.968507
 30
0.0
 11
7.552924
 21
-10.967507
 31
0.0
  0
LINE
  5
15D
100
AcDbEntity
  8
2
370
    50
100
AcDbLine
 10
7.552924
 20
-10.967507
 30
0.0
 11
7.616924
 21
-10.967507
 31
0.0
  0
LINE
  5
15E
100
AcDbEntity
  8
2
370
    50
100
AcDbLine
 10
7.616924
 20
-10.967507
 30
0.0
 11
7.675924
 21
-10.967507
 31
0.0
  0
LINE
  5
15F
100
AcDbEntity
  8
2
370
    50
100
AcDbLine
 10
7.675924
 20
-10.967507
 30
0.0
 11
7.731924
 21
-10.967507
 31
0.0
  0
LINE
  5
160
100
AcDbEntity
  8
2
370
    50
100
AcDbLine
 10
7.731924
 20
-10.967507
 30
0.0
 11
7.785924
 21
-10.966507
 31
0.0
  0
LINE
  5
161
100
AcDbEntity
  8
2
370
    50
100
AcDbLine
 10
7.785924
 20
-10.966507
 30
0.0
 11
7.823924
 21
-10.966507
 31
0.0
  0
LINE
  5
162
100
AcDbEntity
  8
2
370
    50
100
AcDbLine
 10
7.823924
 20
-19.638507
 30
0.0
 11
7.737924
 21
-19.637507
 31
0.0
  0
LINE
  5
163
100
AcDbEntity
  8
2
370
    50
100
AcDbLine
 10
7.737924
 20
-19.637507
 30
0.0
 11
7.649924
 21
-19.637507
 31
0.0
  0
LINE
  5
164
100
AcDbEntity
  8
2
370
    50
100
AcDbLine
 10
7.649924
 20
-19.637507
 30
0.0
 11
7.557924
 21
-19.636507
 31
0.0
  0
LINE
  5
165
100
AcDbEntity
  8
2
370
    50
100
AcDbLine
 10
7.557924
 20
-19.636507
 30
0.0
 11
7.460924
 21
-19.635507
 31
0.0
  0
LINE
  5
166
100
AcDbEntity
  8
2
370
    50
100
AcDbLine
 10
7.460924
 20
-19.635507
 30
0.0
 11
7.355924
 21
-19.633507
 31
0.0
  0
LINE
  5
167
100
AcDbEntity
  8
2
370
    50
100
AcDbLine
 10
7.355924
 20
-19.633507
 30
0.0
 11
7.239924
 21
-19.630507
 31
0.0
  0
LINE
  5
168
100
AcDbEntity
  8
2
370
    50
100
AcDbLine
 10
7.239924
 20
-19.630507
 30
0.0
 11
7.107924
 21
-19.626507
 31
0.0
  0
LINE
  5
169
100
AcDbEntity
  8
2
370
    50
100
AcDbLine
 10
7.107924
 20
-19.626507
 30
0.0
 11
6.953924
 21
-19.621507
 31
0.0
  0
LINE
  5
16A
100
AcDbEntity
  8
2
370
    50
100
AcDbLine
 10
6.953924
 20
-19.621507
 30
0.0
 11
6.769924
 21
-19.613507
 31
0.0
  0
LINE
  5
16B
100
AcDbEntity
  8
2
370
    50
100
AcDbLine
 10
6.769924
 20
-19.613507
 30
0.0
 11
6.538924
 21
-19.601507
 31
0.0
  0
LINE
  5
16C
100
AcDbEntity
  8
2
370
    50
100
AcDbLine
 10
6.538924
 20
-19.601507
 30
0.0
 11
6.240924
 21
-19.582507
 31
0.0
  0
LINE
  5
16D
100
AcDbEntity
  8
2
370
    50
100
AcDbLine
 10
6.240924
 20
-19.582507
 30
0.0
 11
5.838924
 21
-19.548507
 31
0.0
  0
LINE
  5
16E
100
AcDbEntity
  8
2
370
    50
100
AcDbLine
 10
5.838924
 20
-19.548507
 30
0.0
 11
5.273924
 21
-19.484507
 31
0.0
  0
LINE
  5
16F
100
AcDbEntity
  8
2
370
    50
100
AcDbLine
 10
5.273924
 20
-19.484507
 30
0.0
 11
4.489924
 21
-19.352507
 31
0.0
  0
LINE
  5
170
100
AcDbEntity
  8
2
370
    50
100
AcDbLine
 10
4.489924
 20
-19.352507
 30
0.0
 11
3.621924
 21
-19.075507
 31
0.0
  0
LINE
  5
171
100
AcDbEntity
  8
2
370
    50
100
AcDbLine
 10
3.621924
 20
-19.075507
 30
0.0
 11
3.344924
 21
-18.777507
 31
0.0
  0
LINE
  5
172
100
AcDbEntity
  8
2
370
    50
100
AcDbLine
 10
-1.195076
 20
-18.777507
 30
0.0
 11
-1.280076
 21
-19.005507
 31
0.0
  0
LINE
  5
173
100
AcDbEntity
  8
2
370
    50
100
AcDbLine
 10
-1.280076
 20
-19.005507
 30
0.0
 11
-1.494076
 21
-19.195507
 31
0.0
  0
LINE
  5
174
100
AcDbEntity
  8
2
370
    50
100
AcDbLine
 10
-1.494076
 20
-19.195507
 30
0.0
 11
-1.758076
 21
-19.334507
 31
0.0
  0
LINE
  5
175
100
AcDbEntity
  8
2
370
    50
100
AcDbLine
 10
-1.758076
 20
-19.334507
 30
0.0
 11
-2.017076
 21
-19.429507
 31
0.0
  0
LINE
  5
176
100
AcDbEntity
  8
2
370
    50
100
AcDbLine
 10
-2.017076
 20
-19.429507
 30
0.0
 11
-2.249076
 21
-19.493507
 31
0.0
  0
LINE
  5
177
100
AcDbEntity
  8
2
370
    50
100
AcDbLine
 10
-2.249076
 20
-19.493507
 30
0.0
 11
-2.449076
 21
-19.537507
 31
0.0
  0
LINE
  5
178
100
AcDbEntity
  8
2
370
    50
100
AcDbLine
 10
-2.449076
 20
-19.537507
 30
0.0
 11
-2.622076
 21
-19.567507
 31
0.0
  0
LINE
  5
179
100
AcDbEntity
  8
2
370
    50
100
AcDbLine
 10
-2.622076
 20
-19.567507
 30
0.0
 11
-2.772076
 21
-19.588507
 31
0.0
  0
LINE
  5
17A
100
AcDbEntity
  8
2
370
    50
100
AcDbLine
 10
-2.772076
 20
-19.588507
 30
0.0
 11
-2.904076
 21
-19.604507
 31
0.0
  0
LINE
  5
17B
100
AcDbEntity
  8
2
370
    50
100
AcDbLine
 10
-2.904076
 20
-19.604507
 30
0.0
 11
-3.022076
 21
-19.615507
 31
0.0
  0
LINE
  5
17C
100
AcDbEntity
  8
2
370
    50
100
AcDbLine
 10
-3.022076
 20
-19.615507
 30
0.0
 11
-3.129076
 21
-19.623507
 31
0.0
  0
LINE
  5
17D
100
AcDbEntity
  8
2
370
    50
100
AcDbLine
 10
-3.129076
 20
-19.623507
 30
0.0
 11
-3.229076
 21
-19.629507
 31
0.0
  0
LINE
  5
17E
100
AcDbEntity
  8
2
370
    50
100
AcDbLine
 10
-3.229076
 20
-19.629507
 30
0.0
 11
-3.323076
 21
-19.633507
 31
0.0
  0
LINE
  5
17F
100
AcDbEntity
  8
2
370
    50
100
AcDbLine
 10
-3.323076
 20
-19.633507
 30
0.0
 11
-3.412076
 21
-19.636507
 31
0.0
  0
LINE
  5
180
100
AcDbEntity
  8
2
370
    50
100
AcDbLine
 10
-3.412076
 20
-19.636507
 30
0.0
 11
-3.499076
 21
-19.637507
 31
0.0
  0
LINE
  5
181
100
AcDbEntity
  8
2
370
    50
100
AcDbLine
 10
-3.499076
 20
-19.637507
 30
0.0
 11
-3.560076
 21
-19.638507
 31
0.0
  0
LINE
  5
182
100
AcDbEntity
  8
2
370
    50
100
AcDbLine
 10
-5.632076
 20
-11.242507
 30
0.0
 11
-5.225076
 21
-11.121507
 31
0.0
  0
LINE
  5
183
100
AcDbEntity
  8
2
370
    50
100
AcDbLine
 10
-5.225076
 20
-11.121507
 30
0.0
 11
-4.880076
 21
-11.057507
 31
0.0
  0
LINE
  5
184
100
AcDbEntity
  8
2
370
    50
100
AcDbLine
 10
-4.880076
 20
-11.057507
 30
0.0
 11
-4.618076
 21
-11.023507
 31
0.0
  0
LINE
  5
185
100
AcDbEntity
  8
2
370
    50
100
AcDbLine
 10
-4.618076
 20
-11.023507
 30
0.0
 11
-4.420076
 21
-11.003507
 31
0.0
  0
LINE
  5
186
100
AcDbEntity
  8
2
370
    50
100
AcDbLine
 10
-4.420076
 20
-11.003507
 30
0.0
 11
-4.267076
 21
-10.991507
 31
0.0
  0
LINE
  5
187
100
AcDbEntity
  8
2
370
    50
100
AcDbLine
 10
-4.267076
 20
-10.991507
 30
0.0
 11
-4.145076
 21
-10.983507
 31
0.0
  0
LINE
  5
188
100
AcDbEntity
  8
2
370
    50
100
AcDbLine
 10
-4.145076
 20
-10.983507
 30
0.0
 11
-4.044076
 21
-10.978507
 31
0.0
  0
LINE
  5
189
100
AcDbEntity
  8
2
370
    50
100
AcDbLine
 10
-4.044076
 20
-10.978507
 30
0.0
 11
-3.957076
 21
-10.974507
 31
0.0
  0
LINE
  5
18A
100
AcDbEntity
  8
2
370
    50
100
AcDbLine
 10
-3.957076
 20
-10.974507
 30
0.0
 11
-3.882076
 21
-10.971507
 31
0.0
  0
LINE
  5
18B
100
AcDbEntity
  8
2
370
    50
100
AcDbLine
 10
-3.882076
 20
-10.971507
 30
0.0
 11
-3.815076
 21
-10.970507
 31
0.0
  0
LINE
  5
18C
100
AcDbEntity
  8
2
370
    50
100
AcDbLine
 10
-3.815076
 20
-10.970507
 30
0.0
 11
-3.753076
 21
-10.968507
 31
0.0
  0
LINE
  5
18D
100
AcDbEntity
  8
2
370
    50
100
AcDbLine
 10
-3.753076
 20
-10.968507
 30
0.0
 11
-3.695076
 21
-10.967507
 31
0.0
  0
LINE
  5
18E
100
AcDbEntity
  8
2
370
    50
100
AcDbLine
 10
-3.695076
 20
-10.967507
 30
0.0
 11
-3.639076
 21
-10.967507
 31
0.0
  0
LINE
  5
18F
100
AcDbEntity
  8
2
370
    50
100
AcDbLine
 10
-3.639076
 20
-10.967507
 30
0.0
 11
-3.586076
 21
-10.966507
 31
0.0
  0
LINE
  5
190
100
AcDbEntity
  8
2
370
    50
100
AcDbLine
 10
-3.586076
 20
-10.966507
 30
0.0
 11
-3.532076
 21
-10.967507
 31
0.0
  0
LINE
  5
191
100
AcDbEntity
  8
2
370
    50
100
AcDbLine
 10
-3.532076
 20
-10.967507
 30
0.0
 11
-3.478076
 21
-10.967507
 31
0.0
  0
LINE
  5
192
100
AcDbEntity
  8
2
370
    50
100
AcDbLine
 10
-3.478076
 20
-10.967507
 30
0.0
 11
-3.423076
 21
-10.967507
 31
0.0
  0
LINE
  5
193
100
AcDbEntity
  8
2
370
    50
100
AcDbLine
 10
-3.423076
 20
-10.967507
 30
0.0
 11
-3.365076
 21
-10.968507
 31
0.0
  0
LINE
  5
194
100
AcDbEntity
  8
2
370
    50
100
AcDbLine
 10
-3.365076
 20
-10.968507
 30
0.0
 11
-3.303076
 21
-10.970507
 31
0.0
  0
LINE
  5
195
100
AcDbEntity
  8
2
370
    50
100
AcDbLine
 10
-3.303076
 20
-10.970507
 30
0.0
 11
-3.235076
 21
-10.972507
 31
0.0
  0
LINE
  5
196
100
AcDbEntity
  8
2
370
    50
100
AcDbLine
 10
-3.235076
 20
-10.972507
 30
0.0
 11
-3.159076
 21
-10.974507
 31
0.0
  0
LINE
  5
197
100
AcDbEntity
  8
2
370
    50
100
AcDbLine
 10
-3.159076
 20
-10.974507
 30
0.0
 11
-3.072076
 21
-10.978507
 31
0.0
  0
LINE
  5
198
100
AcDbEntity
  8
2
370
    50
100
AcDbLine
 10
-3.072076
 20
-10.978507
 30
0.0
 11
-2.970076
 21
-10.983507
 31
0.0
  0
LINE
  5
199
100
AcDbEntity
  8
2
370
    50
100
AcDbLine
 10
-2.970076
 20
-10.983507
 30
0.0
 11
-2.846076
 21
-10.991507
 31
0.0
  0
LINE
  5
19A
100
AcDbEntity
  8
2
370
    50
100
AcDbLine
 10
-2.846076
 20
-10.991507
 30
0.0
 11
-2.691076
 21
-11.004507
 31
0.0
  0
LINE
  5
19B
100
AcDbEntity
  8
2
370
    50
100
AcDbLine
 10
-2.691076
 20
-11.004507
 30
0.0
 11
-2.490076
 21
-11.024507
 31
0.0
  0
LINE
  5
19C
100
AcDbEntity
  8
2
370
    50
100
AcDbLine
 10
-2.490076
 20
-11.024507
 30
0.0
 11
-2.224076
 21
-11.060507
 31
0.0
  0
LINE
  5
19D
100
AcDbEntity
  8
2
370
    50
100
AcDbLine
 10
-2.224076
 20
-11.060507
 30
0.0
 11
-1.874076
 21
-11.126507
 31
0.0
  0
LINE
  5
19E
100
AcDbEntity
  8
2
370
    50
100
AcDbLine
 10
-1.874076
 20
-11.126507
 30
0.0
 11
-1.467076
 21
-11.251507
 31
0.0
  0
LINE
  5
19F
100
AcDbEntity
  8
2
370
    50
100
AcDbLine
 10
-1.467076
 20
-11.251507
 30
0.0
 11
-1.202076
 21
-11.457507
 31
0.0
  0
LINE
  5
1A0
100
AcDbEntity
  8
2
370
    50
100
AcDbLine
 10
-1.202076
 20
-11.457507
 30
0.0
 11
-1.195076
 21
-11.499507
 31
0.0
  0
LINE
  5
1A1
100
AcDbEntity
  8
2
370
    50
100
AcDbLine
 10
-102.026103
 20
-19.638507
 30
0.0
 11
-114.526103
 21
-19.638507
 31
0.0
  0
LINE
  5
1A2
100
AcDbEntity
  8
2
370
    50
100
AcDbLine
 10
-102.026103
 20
-19.638507
 30
0.0
 11
-89.526103
 21
-19.638507
 31
0.0
  0
LINE
  5
1A3
100
AcDbEntity
  8
2
370
    50
100
AcDbLine
 10
-89.526103
 20
-19.638507
 30
0.0
 11
-102.026103
 21
-19.638507
 31
0.0
  0
LINE
  5
1A4
100
AcDbEntity
  8
2
370
    50
100
AcDbLine
 10
-114.526103
 20
-19.638507
 30
0.0
 11
-102.026103
 21
-19.638507
 31
0.0
  0
LINE
  5
1A5
100
AcDbEntity
  8
2
370
    50
100
AcDbLine
 10
-113.262103
 20
-19.636507
 30
0.0
 11
-113.349103
 21
-19.637507
 31
0.0
  0
LINE
  5
1A6
100
AcDbEntity
  8
2
370
    50
100
AcDbLine
 10
-113.349103
 20
-19.637507
 30
0.0
 11
-113.410103
 21
-19.638507
 31
0.0
  0
ARC
  5
1A7
100
AcDbEntity
  8
2
370
    50
100
AcDbCircle
 10
-112.347103
 20
-15.138507
 30
0.0
 40
5.0
100
AcDbArc
 50
237.601537
 51
244.158
  0
ARC
  5
1A8
100
AcDbEntity
  8
2
370
    50
100
AcDbCircle
 10
-112.347103
 20
-15.138507
 30
0.0
 40
5.0
100
AcDbArc
 50
108.491
 51
122.398463
  0
LINE
  5
1A9
100
AcDbEntity
  8
2
370
    50
100
AcDbLine
 10
-114.526103
 20
-19.638507
 30
0.0
 11
-102.026103
 21
-19.638507
 31
0.0
  0
LINE
  5
1AA
100
AcDbEntity
  8
2
370
    50
100
AcDbLine
 10
-112.405103
 20
-11.499507
 30
0.0
 11
-112.405103
 21
-18.777507
 31
0.0
  0
LINE
  5
1AB
100
AcDbEntity
  8
2
370
    50
100
AcDbLine
 10
-104.647103
 20
-11.499507
 30
0.0
 11
-104.647103
 21
-18.777507
 31
0.0
  0
ARC
  5
1AC
100
AcDbEntity
  8
2
370
    50
100
AcDbCircle
 10
-117.712103
 20
7.202493
 30
0.0
 40
18.0
100
AcDbArc
 50
282.122
 51
304.465
  0
LINE
  5
1AD
100
AcDbEntity
  8
2
370
    50
100
AcDbLine
 10
-115.026123
 20
-10.916796
 30
0.0
 11
-115.026123
 21
-19.360219
 31
0.0
  0
ELLIPSE
  5
1AE
100
AcDbEntity
  8
2
370
    50
100
AcDbEllipse
 10
-108.526103
 20
-11.499507
 30
0.0
 11
-3.879
 21
0.0
 31
0.0
210
0.0
220
0.0
230
1.0
 40
0.137407
 41
3.1415929999999999
 42
0.0
  0
LINE
  5
1AF
100
AcDbEntity
  8
2
370
    50
100
AcDbLine
 10
-115.026123
 20
-11.499507
 30
0.0
 11
-112.405103
 21
-11.499507
 31
0.0
  0
LINE
  5
1B0
100
AcDbEntity
  8
2
370
    50
100
AcDbLine
 10
-115.026123
 20
-18.777507
 30
0.0
 11
-112.405103
 21
-18.777507
 31
0.0
  0
ELLIPSE
  5
1B1
100
AcDbEntity
  8
2
370
    50
100
AcDbEllipse
 10
-108.526103
 20
-18.777507
 30
0.0
 11
-3.879
 21
0.0
 31
0.0
210
0.0
220
0.0
230
1.0
 40
0.221964
 41
0.0
 42
3.1415929999999999
  0
LINE
  5
1B2
100
AcDbEntity
  8
2
370
    50
100
AcDbLine
 10
-104.647103
 20
-18.777507
 30
0.0
 11
-102.026082
 21
-18.777507
 31
0.0
  0
LINE
  5
1B3
100
AcDbEntity
  8
2
370
    50
100
AcDbLine
 10
-104.647103
 20
-11.499507
 30
0.0
 11
-102.026082
 21
-11.499507
 31
0.0
  0
LINE
  5
1B4
100
AcDbEntity
  8
2
370
    50
100
AcDbLine
 10
-99.405103
 20
-11.499507
 30
0.0
 11
-102.026123
 21
-11.499507
 31
0.0
  0
LINE
  5
1B5
100
AcDbEntity
  8
2
370
    50
100
AcDbLine
 10
-99.405103
 20
-18.777507
 30
0.0
 11
-102.026123
 21
-18.777507
 31
0.0
  0
ELLIPSE
  5
1B6
100
AcDbEntity
  8
2
370
    50
100
AcDbEllipse
 10
-95.526103
 20
-18.777507
 30
0.0
 11
3.879
 21
0.0
 31
0.0
210
0.0
220
0.0
230
1.0
 40
0.221964
 41
3.1415929999999999
 42
0.0
  0
LINE
  5
1B7
100
AcDbEntity
  8
2
370
    50
100
AcDbLine
 10
-89.026082
 20
-18.777507
 30
0.0
 11
-91.647103
 21
-18.777507
 31
0.0
  0
LINE
  5
1B8
100
AcDbEntity
  8
2
370
    50
100
AcDbLine
 10
-89.026082
 20
-11.499507
 30
0.0
 11
-91.647103
 21
-11.499507
 31
0.0
  0
ELLIPSE
  5
1B9
100
AcDbEntity
  8
2
370
    50
100
AcDbEllipse
 10
-95.526103
 20
-11.499507
 30
0.0
 11
3.879
 21
0.0
 31
0.0
210
0.0
220
0.0
230
1.0
 40
0.137407
 41
0.0
 42
3.1415929999999999
  0
LINE
  5
1BA
100
AcDbEntity
  8
2
370
    50
100
AcDbLine
 10
-89.026082
 20
-10.916796
 30
0.0
 11
-89.026082
 21
-19.360219
 31
0.0
  0
LINE
  5
1BB
100
AcDbEntity
  8
2
370
    50
100
AcDbLine
 10
-107.526103
 20
-7.638507
 30
0.0
 11
-96.526103
 21
-7.638507
 31
0.0
  0
ARC
  5
1BC
100
AcDbEntity
  8
2
370
    50
100
AcDbCircle
 10
-86.340103
 20
7.202493
 30
0.0
 40
18.0
100
AcDbArc
 50
235.535
 51
257.878
  0
LINE
  5
1BD
100
AcDbEntity
  8
2
370
    50
100
AcDbLine
 10
-99.405103
 20
-11.499507
 30
0.0
 11
-99.405103
 21
-18.777507
 31
0.0
  0
LINE
  5
1BE
100
AcDbEntity
  8
2
370
    50
100
AcDbLine
 10
-91.647103
 20
-11.499507
 30
0.0
 11
-91.647103
 21
-18.777507
 31
0.0
  0
LINE
  5
1BF
100
AcDbEntity
  8
2
370
    50
100
AcDbLine
 10
-89.526103
 20
-19.638507
 30
0.0
 11
-102.026103
 21
-19.638507
 31
0.0
  0
ARC
  5
1C0
100
AcDbEntity
  8
2
370
    50
100
AcDbCircle
 10
-91.705103
 20
-15.138507
 30
0.0
 40
5.0
100
AcDbArc
 50
57.601537
 51
71.509
  0
ARC
  5
1C1
100
AcDbEntity
  8
2
370
    50
100
AcDbCircle
 10
-91.705103
 20
-15.138507
 30
0.0
 40
5.0
100
AcDbArc
 50
295.842
 51
302.398463
  0
LINE
  5
1C2
100
AcDbEntity
  8
2
370
    50
100
AcDbLine
 10
3.073924
 20
-6.638507
 30
0.0
 11
3.073924
 21
-1.610507
 31
0.0
  0
LINE
  5
1C3
100
AcDbEntity
  8
2
370
    50
100
AcDbLine
 10
7.823924
 20
-1.610507
 30
0.0
 11
3.073924
 21
-1.610507
 31
0.0
  0
LINE
  5
1C4
100
AcDbEntity
  8
2
370
    50
100
AcDbLine
 10
12.573924
 20
-6.638507
 30
0.0
 11
12.573924
 21
-1.610507
 31
0.0
  0
LINE
  5
1C5
100
AcDbEntity
  8
2
370
    50
100
AcDbLine
 10
-97.276103
 20
-7.638507
 30
0.0
 11
-97.276103
 21
-1.61051
 31
0.0
  0
LINE
  5
1C6
100
AcDbEntity
  8
2
370
    50
100
AcDbLine
 10
-106.776103
 20
-7.638507
 30
0.0
 11
-106.776103
 21
-1.61051
 31
0.0
  0
LINE
  5
1C7
100
AcDbEntity
  8
2
370
    50
100
AcDbLine
 10
-23.032587
 20
1.54938
 30
0.0
 11
-23.176076
 21
-1.610507
 31
0.0
  0
LINE
  5
1C8
100
AcDbEntity
  8
2
370
    50
100
AcDbLine
 10
-17.42917
 20
7.264487
 30
0.0
 11
-0.176076
 21
8.389493
 31
0.0
  0
LINE
  5
1C9
100
AcDbEntity
  8
2
370
    50
100
AcDbLine
 10
-23.176076
 20
-1.610507
 30
0.0
 11
3.573924
 21
-1.610507
 31
0.0
  0
LINE
  5
1CA
100
AcDbEntity
  8
2
370
    50
100
AcDbLine
 10
7.823924
 20
8.389493
 30
0.0
 11
-0.176076
 21
8.389493
 31
0.0
  0
LINE
  5
1CB
100
AcDbEntity
  8
2
370
    50
100
AcDbLine
 10
15.823924
 20
8.389493
 30
0.0
 11
7.823924
 21
8.389493
 31
0.0
  0
LINE
  5
1CC
100
AcDbEntity
  8
2
370
    50
100
AcDbLine
 10
26.1321
 20
2.0497
 30
0.0
 11
26.323924
 21
-1.610507
 31
0.0
  0
LINE
  5
1CD
100
AcDbEntity
  8
2
370
    50
100
AcDbLine
 10
20.962006
 20
7.679154
 30
0.0
 11
15.823924
 21
8.389493
 31
0.0
  0
LINE
  5
1CE
100
AcDbEntity
  8
2
370
    50
100
AcDbLine
 10
26.323924
 20
-1.610507
 30
0.0
 11
7.823924
 21
-1.610507
 31
0.0
  0
ARC
  5
1CF
100
AcDbEntity
  8
2
370
    50
100
AcDbCircle
 10
-17.038763
 20
1.277202
 30
0.0
 40
6.0
100
AcDbArc
 50
93.730748
 51
177.4
  0
ARC
  5
1D0
100
AcDbEntity
  8
2
370
    50
100
AcDbCircle
 10
20.140323
 20
1.735684
 30
0.0
 40
6.0
100
AcDbArc
 50
3.0
 51
82.128767
  0
ARC
  5
1D1
100
AcDbEntity
  8
2
370
    50
100
AcDbCircle
 10
-9.176076
 20
35.082409
 30
0.0
 40
20.0
100
AcDbArc
 50
46.357726
 51
73.607133
  0
ARC
  5
1D2
100
AcDbEntity
  8
2
370
    50
100
AcDbCircle
 10
-17.176076
 20
64.527312
 30
0.0
 40
6.0
100
AcDbArc
 50
103.086916
 51
256.88801
  0
LINE
  5
1D3
100
AcDbEntity
  8
2
370
    50
100
AcDbLine
 10
-18.537207
 20
58.683741
 30
0.0
 11
-3.531636
 21
54.269391
 31
0.0
  0
ARC
  5
1D4
100
AcDbEntity
  8
2
370
    50
100
AcDbCircle
 10
20.323958
 20
86.177888
 30
0.0
 40
6.0
100
AcDbArc
 50
346.00902
 51
136.88801
  0
LINE
  5
1D5
100
AcDbEntity
  8
2
370
    50
100
AcDbLine
 10
16.209469
 20
38.509519
 30
0.0
 11
4.626997
 21
49.555665
 31
0.0
  0
LINE
  5
1D6
100
AcDbEntity
  8
2
370
    50
100
AcDbLine
 10
26.065136
 20
44.619629
 30
0.0
 11
22.385289
 21
59.82201
 31
0.0
  0
LINE
  5
1D7
100
AcDbEntity
  8
2
370
    50
100
AcDbLine
 10
26.163186
 20
84.798245
 30
0.0
 11
22.388179
 21
69.244456
 31
0.0
  0
ARC
  5
1D8
100
AcDbEntity
  8
2
370
    50
100
AcDbCircle
 10
41.823924
 20
64.527272
 30
0.0
 40
20.0
100
AcDbArc
 50
166.357726
 51
193.607133
  0
LINE
  5
1D9
100
AcDbEntity
  8
2
370
    50
100
AcDbLine
 10
15.943842
 20
90.278447
 30
0.0
 11
4.618117
 21
79.490416
 31
0.0
  0
LINE
  5
1DA
100
AcDbEntity
  8
2
370
    50
100
AcDbLine
 10
-18.900885
 20
70.274053
 30
0.0
 11
-3.543405
 21
74.781695
 31
0.0
  0
ARC
  5
1DB
100
AcDbEntity
  8
2
370
    50
100
AcDbCircle
 10
-9.176076
 20
93.972136
 30
0.0
 40
20.0
100
AcDbArc
 50
286.357726
 51
313.607133
  0
ARC
  5
1DC
100
AcDbEntity
  8
2
370
    50
100
AcDbCircle
 10
20.323889
 20
42.876617
 30
0.0
 40
6.0
100
AcDbArc
 50
226.00902
 51
16.88801
  0
LINE
  5
1DD
100
AcDbEntity
  8
2
370
    50
100
AcDbLine
 10
-102.026103
 20
8.38949
 30
0.0
 11
-94.026103
 21
8.38949
 31
0.0
  0
LINE
  5
1DE
100
AcDbEntity
  8
2
370
    50
100
AcDbLine
 10
-74.375487
 20
-1.61051
 30
0.0
 11
-102.026103
 21
-1.61051
 31
0.0
  0
LINE
  5
1DF
100
AcDbEntity
  8
2
370
    50
100
AcDbLine
 10
-80.108854
 20
7.432426
 30
0.0
 11
-94.026103
 21
8.38949
 31
0.0
  0
LINE
  5
1E0
100
AcDbEntity
  8
2
370
    50
100
AcDbLine
 10
-74.526668
 20
1.718741
 30
0.0
 11
-74.375487
 21
-1.61051
 31
0.0
  0
ARC
  5
1E1
100
AcDbEntity
  8
2
370
    50
100
AcDbCircle
 10
-98.761641
 20
2.38949
 30
0.0
 40
6.0
100
AcDbArc
 50
2.599999
 51
90.0
  0
LINE
  5
1E2
100
AcDbEntity
  8
2
370
    50
100
AcDbLine
 10
-92.573819
 20
-1.61051
 30
0.0
 11
-92.767818
 21
2.661668
 31
0.0
  0
LINE
  5
1E3
100
AcDbEntity
  8
2
370
    50
100
AcDbLine
 10
-98.761641
 20
8.38949
 30
0.0
 11
-102.026103
 21
8.38949
 31
0.0
  0
ARC
  5
1E4
100
AcDbEntity
  8
2
370
    50
100
AcDbCircle
 10
-80.520491
 20
1.446563
 30
0.0
 40
6.0
100
AcDbArc
 50
2.6
 51
86.066065
  0
ARC
  5
1E5
100
AcDbEntity
  8
2
370
    50
100
AcDbCircle
 10
-123.531714
 20
1.446563
 30
0.0
 40
6.0
100
AcDbArc
 50
93.933935
 51
177.4
  0
LINE
  5
1E6
100
AcDbEntity
  8
2
370
    50
100
AcDbLine
 10
-105.290564
 20
8.38949
 30
0.0
 11
-102.026103
 21
8.38949
 31
0.0
  0
LINE
  5
1E7
100
AcDbEntity
  8
2
370
    50
100
AcDbLine
 10
-111.478386
 20
-1.61051
 30
0.0
 11
-111.284388
 21
2.661668
 31
0.0
  0
ARC
  5
1E8
100
AcDbEntity
  8
2
370
    50
100
AcDbCircle
 10
-105.290564
 20
2.38949
 30
0.0
 40
6.0
100
AcDbArc
 50
90.0
 51
177.400001
  0
LINE
  5
1E9
100
AcDbEntity
  8
2
370
    50
100
AcDbLine
 10
-129.525537
 20
1.718741
 30
0.0
 11
-129.676718
 21
-1.61051
 31
0.0
  0
LINE
  5
1EA
100
AcDbEntity
  8
2
370
    50
100
AcDbLine
 10
-123.943351
 20
7.432426
 30
0.0
 11
-110.026103
 21
8.38949
 31
0.0
  0
LINE
  5
1EB
100
AcDbEntity
  8
2
370
    50
100
AcDbLine
 10
-129.676718
 20
-1.61051
 30
0.0
 11
-102.026103
 21
-1.61051
 31
0.0
  0
LINE
  5
1EC
100
AcDbEntity
  8
2
370
    50
100
AcDbLine
 10
-102.026103
 20
8.38949
 30
0.0
 11
-110.026103
 21
8.38949
 31
0.0
  0
LINE
  5
1ED
100
AcDbEntity
  8
2
370
    50
100
AcDbLine
 10
48.247924
 20
-35.210507
 30
0.0
 11
46.663924
 21
-36.175507
 31
0.0
  0
LINE
  5
1EE
100
AcDbEntity
  8
2
370
    50
100
AcDbLine
 10
48.247924
 20
-56.010507
 30
0.0
 11
46.663924
 21
-55.045507
 31
0.0
  0
LINE
  5
1EF
100
AcDbEntity
  8
2
370
    50
100
AcDbLine
 10
46.663924
 20
-45.610507
 30
0.0
 11
46.663924
 21
-56.010507
 31
0.0
  0
LINE
  5
1F0
100
AcDbEntity
  8
2
370
    50
100
AcDbLine
 10
42.823924
 20
-36.295507
 30
0.0
 11
46.663924
 21
-36.175507
 31
0.0
  0
LINE
  5
1F1
100
AcDbEntity
  8
2
370
    50
100
AcDbLine
 10
42.823924
 20
-54.925507
 30
0.0
 11
46.663924
 21
-55.045507
 31
0.0
  0
LINE
  5
1F2
100
AcDbEntity
  8
2
370
    50
100
AcDbLine
 10
46.663924
 20
-45.610507
 30
0.0
 11
46.663924
 21
-35.210507
 31
0.0
  0
LINE
  5
1F3
100
AcDbEntity
  8
2
370
    50
100
AcDbLine
 10
126.660924
 20
-35.351507
 30
0.0
 11
127.822924
 21
-36.550507
 31
0.0
  0
LINE
  5
1F4
100
AcDbEntity
  8
2
370
    50
100
AcDbLine
 10
127.822924
 20
-36.550507
 30
0.0
 11
127.822924
 21
-54.670507
 31
0.0
  0
LINE
  5
1F5
100
AcDbEntity
  8
2
370
    50
100
AcDbLine
 10
127.822924
 20
-54.670507
 30
0.0
 11
126.660924
 21
-55.869507
 31
0.0
  0
LINE
  5
1F6
100
AcDbEntity
  8
2
370
    25
100
AcDbLine
 10
127.822924
 20
-54.670507
 30
0.0
 11
115.823924
 21
-55.045507
 31
0.0
  0
LINE
  5
1F7
100
AcDbEntity
  8
2
370
    25
100
AcDbLine
 10
127.822924
 20
-36.550507
 30
0.0
 11
115.823924
 21
-36.175507
 31
0.0
  0
LINE
  5
1F8
100
AcDbEntity
  8
2
370
    50
100
AcDbLine
 10
122.140163
 20
-35.210507
 30
0.0
 11
126.660924
 21
-35.351507
 31
0.0
  0
LINE
  5
1F9
100
AcDbEntity
  8
2
370
    50
100
AcDbLine
 10
122.140163
 20
-56.010507
 30
0.0
 11
126.660924
 21
-55.869507
 31
0.0
  0
LINE
  5
1FA
100
AcDbEntity
  8
2
370
    25
100
AcDbLine
 10
115.823924
 20
-45.610507
 30
0.0
 11
115.823924
 21
-56.010507
 31
0.0
  0
LINE
  5
1FB
100
AcDbEntity
  8
2
370
    50
100
AcDbLine
 10
114.238924
 20
-56.010507
 30
0.0
 11
115.823924
 21
-55.045507
 31
0.0
  0
LINE
  5
1FC
100
AcDbEntity
  8
2
370
    50
100
AcDbLine
 10
114.238924
 20
-35.210507
 30
0.0
 11
115.823924
 21
-36.175507
 31
0.0
  0
LINE
  5
1FD
100
AcDbEntity
  8
2
370
    25
100
AcDbLine
 10
115.823924
 20
-45.610507
 30
0.0
 11
115.823924
 21
-35.210507
 31
0.0
  0
LINE
  5
1FE
100
AcDbEntity
  8
2
370
    50
100
AcDbLine
 10
109.617924
 20
-35.210507
 30
0.0
 11
122.140163
 21
-35.210507
 31
0.0
  0
LINE
  5
1FF
100
AcDbEntity
  8
2
370
    50
100
AcDbLine
 10
109.617924
 20
-56.010507
 30
0.0
 11
122.140163
 21
-56.010507
 31
0.0
  0
ARC
  5
200
100
AcDbEntity
  8
2
370
    50
100
AcDbCircle
 10
55.222924
 20
-40.410507
 30
0.0
 40
15.6
100
AcDbArc
 50
340.529
 51
19.471
  0
ARC
  5
201
100
AcDbEntity
  8
2
370
    50
100
AcDbCircle
 10
84.638924
 20
-50.810507
 30
0.0
 40
15.6
100
AcDbArc
 50
160.529
 51
199.472
  0
ARC
  5
202
100
AcDbEntity
  8
2
370
    50
100
AcDbCircle
 10
55.222924
 20
-50.810507
 30
0.0
 40
15.6
100
AcDbArc
 50
340.529
 51
19.471
  0
ARC
  5
203
100
AcDbEntity
  8
2
370
    50
100
AcDbCircle
 10
87.634924
 20
-50.810507
 30
0.0
 40
15.6
100
AcDbArc
 50
160.529
 51
199.472
  0
ARC
  5
204
100
AcDbEntity
  8
2
370
    50
100
AcDbCircle
 10
58.219924
 20
-40.410507
 30
0.0
 40
15.6
100
AcDbArc
 50
340.529
 51
19.471
  0
ARC
  5
205
100
AcDbEntity
  8
2
370
    50
100
AcDbCircle
 10
87.634924
 20
-40.410507
 30
0.0
 40
15.6
100
AcDbArc
 50
160.529
 51
199.472
  0
LINE
  5
206
100
AcDbEntity
  8
2
370
    50
100
AcDbLine
 10
69.930924
 20
-56.010507
 30
0.0
 11
42.823924
 21
-56.010507
 31
0.0
  0
LINE
  5
207
100
AcDbEntity
  8
2
370
    50
100
AcDbLine
 10
69.930924
 20
-35.210507
 30
0.0
 11
42.823924
 21
-35.210507
 31
0.0
  0
LINE
  5
208
100
AcDbEntity
  8
2
370
    50
100
AcDbLine
 10
93.617924
 20
-56.010507
 30
0.0
 11
72.926924
 21
-56.010507
 31
0.0
  0
LINE
  5
209
100
AcDbEntity
  8
2
370
    50
100
AcDbLine
 10
93.617924
 20
-35.210507
 30
0.0
 11
72.926924
 21
-35.210507
 31
0.0
  0
LINE
  5
20A
100
AcDbEntity
  8
2
370
    50
100
AcDbLine
 10
48.247924
 20
74.927272
 30
0.0
 11
46.663924
 21
73.962272
 31
0.0
  0
LINE
  5
20B
100
AcDbEntity
  8
2
370
    50
100
AcDbLine
 10
48.247924
 20
54.127272
 30
0.0
 11
46.663924
 21
55.092272
 31
0.0
  0
LINE
  5
20C
100
AcDbEntity
  8
2
370
    50
100
AcDbLine
 10
46.663924
 20
64.527272
 30
0.0
 11
46.663924
 21
54.127272
 31
0.0
  0
LINE
  5
20D
100
AcDbEntity
  8
2
370
    50
100
AcDbLine
 10
42.823924
 20
73.842272
 30
0.0
 11
46.663924
 21
73.962272
 31
0.0
  0
LINE
  5
20E
100
AcDbEntity
  8
2
370
    50
100
AcDbLine
 10
42.823924
 20
55.212272
 30
0.0
 11
46.663924
 21
55.092272
 31
0.0
  0
LINE
  5
20F
100
AcDbEntity
  8
2
370
    50
100
AcDbLine
 10
46.663924
 20
64.527272
 30
0.0
 11
46.663924
 21
74.927272
 31
0.0
  0
LINE
  5
210
100
AcDbEntity
  8
2
370
    50
100
AcDbLine
 10
126.660924
 20
74.786272
 30
0.0
 11
127.822924
 21
73.587272
 31
0.0
  0
LINE
  5
211
100
AcDbEntity
  8
2
370
    50
100
AcDbLine
 10
127.822924
 20
73.587272
 30
0.0
 11
127.822924
 21
55.467272
 31
0.0
  0
LINE
  5
212
100
AcDbEntity
  8
2
370
    50
100
AcDbLine
 10
127.822924
 20
55.467272
 30
0.0
 11
126.660924
 21
54.268272
 31
0.0
  0
LINE
  5
213
100
AcDbEntity
  8
2
370
    25
100
AcDbLine
 10
127.822924
 20
55.467272
 30
0.0
 11
115.823924
 21
55.092272
 31
0.0
  0
LINE
  5
214
100
AcDbEntity
  8
2
370
    25
100
AcDbLine
 10
127.822924
 20
73.587272
 30
0.0
 11
115.823924
 21
73.962272
 31
0.0
  0
LINE
  5
215
100
AcDbEntity
  8
2
370
    50
100
AcDbLine
 10
122.140163
 20
74.927272
 30
0.0
 11
126.660924
 21
74.786272
 31
0.0
  0
LINE
  5
216
100
AcDbEntity
  8
2
370
    50
100
AcDbLine
 10
122.140163
 20
54.127272
 30
0.0
 11
126.660924
 21
54.268272
 31
0.0
  0
LINE
  5
217
100
AcDbEntity
  8
2
370
    25
100
AcDbLine
 10
115.823924
 20
64.527272
 30
0.0
 11
115.823924
 21
54.127272
 31
0.0
  0
LINE
  5
218
100
AcDbEntity
  8
2
370
    50
100
AcDbLine
 10
114.238924
 20
54.127272
 30
0.0
 11
115.823924
 21
55.092272
 31
0.0
  0
LINE
  5
219
100
AcDbEntity
  8
2
370
    50
100
AcDbLine
 10
114.238924
 20
74.927272
 30
0.0
 11
115.823924
 21
73.962272
 31
0.0
  0
LINE
  5
21A
100
AcDbEntity
  8
2
370
    25
100
AcDbLine
 10
115.823924
 20
64.527272
 30
0.0
 11
115.823924
 21
74.927272
 31
0.0
  0
LINE
  5
21B
100
AcDbEntity
  8
2
370
    50
100
AcDbLine
 10
109.617924
 20
74.927272
 30
0.0
 11
122.140163
 21
74.927272
 31
0.0
  0
LINE
  5
21C
100
AcDbEntity
  8
2
370
    50
100
AcDbLine
 10
109.617924
 20
54.127272
 30
0.0
 11
122.140163
 21
54.127272
 31
0.0
  0
ARC
  5
21D
100
AcDbEntity
  8
2
370
    50
100
AcDbCircle
 10
55.222924
 20
69.727272
 30
0.0
 40
15.6
100
AcDbArc
 50
340.529
 51
19.471
  0
ARC
  5
21E
100
AcDbEntity
  8
2
370
    50
100
AcDbCircle
 10
84.638924
 20
59.327272
 30
0.0
 40
15.6
100
AcDbArc
 50
160.529
 51
199.472
  0
ARC
  5
21F
100
AcDbEntity
  8
2
370
    50
100
AcDbCircle
 10
55.222924
 20
59.327272
 30
0.0
 40
15.6
100
AcDbArc
 50
340.529
 51
19.471
  0
ARC
  5
220
100
AcDbEntity
  8
2
370
    50
100
AcDbCircle
 10
87.634924
 20
59.327272
 30
0.0
 40
15.6
100
AcDbArc
 50
160.529
 51
199.472
  0
ARC
  5
221
100
AcDbEntity
  8
2
370
    50
100
AcDbCircle
 10
58.219924
 20
69.727272
 30
0.0
 40
15.6
100
AcDbArc
 50
340.529
 51
19.471
  0
ARC
  5
222
100
AcDbEntity
  8
2
370
    50
100
AcDbCircle
 10
87.634924
 20
69.727272
 30
0.0
 40
15.6
100
AcDbArc
 50
160.529
 51
199.472
  0
LINE
  5
223
100
AcDbEntity
  8
2
370
    50
100
AcDbLine
 10
69.930924
 20
54.127272
 30
0.0
 11
42.823924
 21
54.127272
 31
0.0
  0
LINE
  5
224
100
AcDbEntity
  8
2
370
    50
100
AcDbLine
 10
69.930924
 20
74.927272
 30
0.0
 11
42.823924
 21
74.927272
 31
0.0
  0
LINE
  5
225
100
AcDbEntity
  8
2
370
    50
100
AcDbLine
 10
93.617924
 20
54.127272
 30
0.0
 11
72.926924
 21
54.127272
 31
0.0
  0
LINE
  5
226
100
AcDbEntity
  8
2
370
    50
100
AcDbLine
 10
93.617924
 20
74.927272
 30
0.0
 11
72.926924
 21
74.927272
 31
0.0
  0
ARC
  5
227
100
AcDbEntity
  8
2
370
    50
100
AcDbCircle
 10
118.617924
 20
-33.406507
 30
0.0
 40
25.0
100
AcDbArc
 50
156.444
 51
180.001
  0
ARC
  5
228
100
AcDbEntity
  8
2
370
    50
100
AcDbCircle
 10
107.617924
 20
-28.610507
 30
0.0
 40
13.0
100
AcDbArc
 50
90.0
 51
156.444
  0
LINE
  5
229
100
AcDbEntity
  8
2
370
    50
100
AcDbLine
 10
107.617924
 20
-15.610507
 30
0.0
 11
109.617924
 21
-15.610507
 31
0.0
  0
LINE
  5
22A
100
AcDbEntity
  8
2
370
    50
100
AcDbLine
 10
109.617924
 20
-45.610507
 30
0.0
 11
109.617924
 21
-15.610507
 31
0.0
  0
LINE
  5
22B
100
AcDbEntity
  8
2
370
    50
100
AcDbLine
 10
93.617924
 20
-45.610507
 30
0.0
 11
93.617924
 21
-33.406507
 31
0.0
  0
LINE
  5
22C
100
AcDbEntity
  8
2
370
    50
100
AcDbLine
 10
93.617924
 20
-45.610507
 30
0.0
 11
93.617924
 21
-57.814507
 31
0.0
  0
LINE
  5
22D
100
AcDbEntity
  8
2
370
    50
100
AcDbLine
 10
109.617924
 20
-45.610507
 30
0.0
 11
109.617924
 21
-75.610507
 31
0.0
  0
LINE
  5
22E
100
AcDbEntity
  8
2
370
    50
100
AcDbLine
 10
107.617924
 20
-75.610507
 30
0.0
 11
109.617924
 21
-75.610507
 31
0.0
  0
ARC
  5
22F
100
AcDbEntity
  8
2
370
    50
100
AcDbCircle
 10
107.617924
 20
-62.610507
 30
0.0
 40
13.0
100
AcDbArc
 50
203.558
 51
270.001
  0
ARC
  5
230
100
AcDbEntity
  8
2
370
    50
100
AcDbCircle
 10
118.617924
 20
-57.814507
 30
0.0
 40
25.0
100
AcDbArc
 50
180.001
 51
203.558
  0
ARC
  5
231
100
AcDbEntity
  8
2
370
    50
100
AcDbCircle
 10
118.617924
 20
76.731272
 30
0.0
 40
25.0
100
AcDbArc
 50
156.444
 51
180.001
  0
ARC
  5
232
100
AcDbEntity
  8
2
370
    50
100
AcDbCircle
 10
107.617924
 20
81.527272
 30
0.0
 40
13.0
100
AcDbArc
 50
90.0
 51
156.444
  0
LINE
  5
233
100
AcDbEntity
  8
2
370
    25
100
AcDbLine
 10
107.617924
 20
94.527272
 30
0.0
 11
109.617924
 21
94.527272
 31
0.0
  0
LINE
  5
234
100
AcDbEntity
  8
2
370
    50
100
AcDbLine
 10
109.617924
 20
64.527272
 30
0.0
 11
109.617924
 21
94.527272
 31
0.0
  0
LINE
  5
235
100
AcDbEntity
  8
2
370
    50
100
AcDbLine
 10
93.617924
 20
64.527272
 30
0.0
 11
93.617924
 21
76.731272
 31
0.0
  0
LINE
  5
236
100
AcDbEntity
  8
2
370
    50
100
AcDbLine
 10
93.617924
 20
64.527272
 30
0.0
 11
93.617924
 21
52.323272
 31
0.0
  0
LINE
  5
237
100
AcDbEntity
  8
2
370
    50
100
AcDbLine
 10
109.617924
 20
64.527272
 30
0.0
 11
109.617924
 21
34.527272
 31
0.0
  0
LINE
  5
238
100
AcDbEntity
  8
2
370
    50
100
AcDbLine
 10
107.617924
 20
34.527272
 30
0.0
 11
109.617924
 21
34.527272
 31
0.0
  0
ARC
  5
239
100
AcDbEntity
  8
2
370
    50
100
AcDbCircle
 10
107.617924
 20
47.527272
 30
0.0
 40
13.0
100
AcDbArc
 50
203.558
 51
270.001
  0
ARC
  5
23A
100
AcDbEntity
  8
2
370
    50
100
AcDbCircle
 10
118.617924
 20
52.323272
 30
0.0
 40
25.0
100
AcDbArc
 50
180.001
 51
203.558
  0
ARC
  5
23B
100
AcDbEntity
  8
2
370
    50
100
AcDbCircle
 10
-102.026103
 20
-45.610507
 30
0.0
 40
30.0
100
AcDbArc
 50
115.679333
 51
64.320667
  0
TEXT
  5
23C
100
AcDbEntity
  8
3
370
    50
100
AcDbText
 10
62.573424
 20
-88.480545
 30
0.0
 40
3.5
  1
４４７
 72
     5
 11
72.373424
 21
-88.480545
 31
0.0
100
AcDbText
  0
DIMENSION
  5
23D
100
AcDbEntity
  8
3
370
    25
100
AcDbDimension
  2
*D0
 10
127.822924
 20
-88.980545
 30
0.0
 11
67.823424
 21
-86.980545
 31
0.0
 71
     0
 72
     0
 41
0.0
 42
0.0
  3
Standard
100
AcDbAlignedDimension
 13
7.823924
 23
-62.531507
 33
0.0
 14
127.822924
 24
-54.670507
 34
0.0
100
AcDbRotatedDimension
  0
DIMENSION
  5
23E
100
AcDbEntity
  8
3
370
    25
100
AcDbDimension
  2
*D1
 10
7.823924
 20
-76.436302
 30
0.0
 11
-7.176076
 21
-74.186302
 31
0.0
 71
     0
 72
     0
 41
0.0
 42
0.0
  3
Standard
100
AcDbAlignedDimension
 13
-22.176076
 23
-54.925507
 33
0.0
 14
7.823924
 24
-62.531507
 34
0.0
100
AcDbRotatedDimension
  0
DIMENSION
  5
23F
100
AcDbEntity
  8
3
370
    25
100
AcDbDimension
  2
*D2
 10
42.823924
 20
-76.436302
 30
0.0
 11
25.323924
 21
-74.186302
 31
0.0
 71
     0
 72
     0
 41
0.0
 42
0.0
  3
Standard
100
AcDbAlignedDimension
 13
7.823924
 23
-62.531507
 33
0.0
 14
42.823924
 24
-58.360507
 34
0.0
100
AcDbRotatedDimension
  0
LWPOLYLINE
  5
240
100
AcDbEntity
  8
3
370
    25
100
AcDbPolyline
 90
        3
 70
     0
 10
122.410583
 20
-35.050419
 10
131.0112
 20
-26.35091
 10
146.275131
 20
-26.35091
  0
LINE
  5
245
100
AcDbEntity
  8
3
370
    25
100
AcDbLine
 10
123.768778
 20
-33.676607
 30
0.0
 11
123.400666
 21
-33.31268
 31
0.0
  0
LINE
  5
246
100
AcDbEntity
  8
3
370
    25
100
AcDbLine
 10
123.400666
 20
-33.31268
 30
0.0
 11
122.410583
 21
-35.050419
 31
0.0
  0
LINE
  5
247
100
AcDbEntity
  8
3
370
    25
100
AcDbLine
 10
122.410583
 20
-35.050419
 30
0.0
 11
124.13689
 21
-34.040534
 31
0.0
  0
LINE
  5
248
100
AcDbEntity
  8
3
370
    25
100
AcDbLine
 10
124.13689
 20
-34.040534
 30
0.0
 11
123.768778
 21
-33.676607
 31
0.0
  0
TEXT
  5
249
100
AcDbEntity
  8
3
370
    50
100
AcDbText
 10
131.251495
 20
-26.08799
 30
0.0
 40
3.5
  1
Ｒ１／２
 72
     5
 11
144.551495
 21
-26.08799
 31
0.0
100
AcDbText
  0
DIMENSION
  5
24A
100
AcDbEntity
  8
3
370
    25
100
AcDbDimension
  2
*D3
 10
163.504822
 20
-15.610507
 30
0.0
 11
157.754822
 21
-47.360507
 31
0.0
 70
     1
 71
     0
 72
     0
 41
0.0
 42
0.0
  3
Standard
100
AcDbAlignedDimension
 13
109.617924
 23
-75.610507
 33
0.0
 14
109.617924
 24
-15.610507
 34
0.0
 50
270.0
  0
DIMENSION
  5
24B
100
AcDbEntity
  8
3
370
    25
100
AcDbDimension
  2
*D4
 10
-52.06691
 20
11.389493
 30
0.0
 11
-71.81691
 21
-32.860507
 31
0.0
 70
     1
 71
     0
 72
     0
 41
0.0
 42
0.0
  3
Standard
100
AcDbAlignedDimension
 13
-27.365255
 23
-45.610507
 33
0.0
 14
7.824246
 24
11.389493
 34
0.0
 50
90.0
  0
LWPOLYLINE
  5
24C
100
AcDbEntity
  8
3
370
    25
100
AcDbPolyline
 90
        3
 70
     0
 10
-16.303253
 20
-35.031624
 10
-23.227621
 20
-29.896248
 10
-40.866249
 20
-29.896248
  0
LINE
  5
251
100
AcDbEntity
  8
3
370
    25
100
AcDbLine
 10
-17.85494
 20
-33.880833
 30
0.0
 11
-18.163293
 21
-34.296607
 31
0.0
  0
LINE
  5
252
100
AcDbEntity
  8
3
370
    25
100
AcDbLine
 10
-18.163293
 20
-34.296607
 30
0.0
 11
-16.303253
 21
-35.031624
 31
0.0
  0
LINE
  5
253
100
AcDbEntity
  8
3
370
    25
100
AcDbLine
 10
-16.303253
 20
-35.031624
 30
0.0
 11
-17.546587
 21
-33.46506
 31
0.0
  0
LINE
  5
254
100
AcDbEntity
  8
3
370
    25
100
AcDbLine
 10
-17.546587
 20
-33.46506
 30
0.0
 11
-17.85494
 21
-33.880833
 31
0.0
  0
TEXT
  5
255
100
AcDbEntity
  8
3
370
    50
100
AcDbText
 10
-40.213596
 20
-29.389534
 30
0.0
 40
3.5
  1
ＰＪ１／２
 72
     5
 11
-23.413596
 21
-29.389534
 31
0.0
100
AcDbText
  0
TEXT
  5
256
100
AcDbEntity
  8
3
370
    50
100
AcDbText
 10
33.745079
 20
-114.016075
 30
0.0
 40
3.0
  1
ストレート止水栓（０－０－４２０－１５）
 72
     5
 11
93.145079
 21
-114.016075
 31
0.0
100
AcDbText
  0
TEXT
  5
257
100
AcDbEntity
  8
3
370
    50
100
AcDbText
 10
33.359627
 20
-117.580185
 30
0.0
 40
3.0
  1
ＣＫ１３－２１ＮＡ
 72
     5
 11
59.759627
 21
-117.580185
 31
0.0
100
AcDbText
  0
TEXT
  5
258
100
AcDbEntity
  8
3
370
    50
100
AcDbText
 10
145.274002
 20
-119.863632
 30
0.0
 40
3.0
  1
１　１
 72
     5
 11
153.674002
 21
-119.863632
 31
0.0
100
AcDbText
  0
TEXT
  5
259
100
AcDbEntity
  8
3
370
    50
100
AcDbText
 10
116.649734
 20
-136.119537
 30
0.0
 40
3.0
  1
外観寸法図
 72
     5
 11
131.049734
 21
-136.119537
 31
0.0
100
AcDbText
  0
TEXT
  5
25A
100
AcDbEntity
  8
3
370
    50
100
AcDbText
 10
169.719162
 20
-135.972153
 30
0.0
 40
3.0
  1
５０３６０６
 72
     5
 11
187.119162
 21
-135.972153
 31
0.0
100
AcDbText
  0
TEXT
  5
25B
100
AcDbEntity
  8
3
370
    50
100
AcDbText
 10
172.396957
 20
-127.898148
 30
0.0
 40
3.0
  1
１０　　５　１０
 72
     5
 11
195.796957
 21
-127.898148
 31
0.0
100
AcDbText
  0
LINE
  5
25C
100
AcDbEntity
  8
3
370
    25
  6
CENTER
100
AcDbLine
 10
-133.759498
 20
-45.610507
 30
0.0
 11
-69.876323
 21
-45.610507
 31
0.0
  0
LINE
  5
25D
100
AcDbEntity
  8
3
370
    25
  6
CENTER
100
AcDbLine
 10
7.823924
 20
16.264493
 30
0.0
 11
7.823924
 21
-62.531507
 31
0.0
  0
LINE
  5
25E
100
AcDbEntity
  8
3
370
    25
  6
CENTER
100
AcDbLine
 10
7.823924
 20
37.617281
 30
0.0
 11
7.823924
 21
88.823274
 31
0.0
  0
LINE
  5
25F
100
AcDbEntity
  8
3
370
    25
  6
CENTER
100
AcDbLine
 10
131.544179
 20
64.527272
 30
0.0
 11
-26.244076
 21
64.527272
 31
0.0
  0
LINE
  5
260
100
AcDbEntity
  8
3
370
    25
  6
CENTER
100
AcDbLine
 10
-102.026103
 20
-79.239345
 30
0.0
 11
-102.026103
 21
21.070266
 31
0.0
  0
LINE
  5
261
100
AcDbEntity
  8
3
370
    25
  6
CENTER
100
AcDbLine
 10
-27.365255
 20
-45.610507
 30
0.0
 11
131.544179
 21
-45.610507
 31
0.0
  0
ENDSEC
  0
SECTION
  2
OBJECTS
  0
DICTIONARY
  5
29D
100
AcDbDictionary
280
     0
281
     1
  3
ACAD_GROUP
350
29E
  3
ACAD_MLINESTYLE
350
29F
  0
DICTIONARY
  5
29E
102
{ACAD_REACTORS
330
29D
102
}
100
AcDbDictionary
280
     0
281
     1
  0
DICTIONARY
  5
29F
102
{ACAD_REACTORS
330
29D
102
}
100
AcDbDictionary
280
     0
281
     1
  3
Standard
350
2A0
  0
MLINESTYLE
  5
2A0
102
{ACAD_REACTORS
330
29F
102
}
100
AcDbMlineStyle
  2
Standard
 70
     0
  3

 62
     0
 51
90.0
 52
90.0
 71
     2
 49
0.5
 62
   256
  6
ByLayer
 49
-0.5
 62
   256
  6
ByLayer
  0
ENDSEC
  0
EOF
