  0
SECTION
  2
HEADER
  9
$ACADVER
  1
AC1015
  9
$ACADMAINTVER
 70
     6
  9
$DWGCODEPAGE
  3
ANSI_932
  9
$INSBASE
 10
0.0
 20
0.0
 30
0.0
  9
$EXTMIN
 10
-420.5
 20
-297.0
 30
1.000000E+20
  9
$EXTMAX
 10
420.5
 20
297.0
 30
-1.000000E+20
  9
$LIMMIN
 10
-420.5
 20
-297.0
  9
$LIMMAX
 10
420.5
 20
297.0
  9
$ORTHOMODE
 70
     0
  9
$REGENMODE
 70
     1
  9
$FILLMODE
 70
     1
  9
$QTEXTMODE
 70
     0
  9
$MIRRTEXT
 70
     1
  9
$LTSCALE
 40
1.0
  9
$ATTMODE
 70
     1
  9
$TEXTSIZE
 40
0.2
  9
$TRACEWID
 40
0.05
  9
$TEXTSTYLE
  7
STANDARD
  9
$CLAYER
  8
0
  9
$CELTYPE
  6
CONTINUOUS
  9
$CECOLOR
 62
   256
  9
$CELTSCALE
 40
1.0
  9
$DISPSILH
 70
     0
  9
$DIMSCALE
 40
1.0
  9
$DIMASZ
 40
2.0
  9
$DIMEXO
 40
1.0
  9
$DIMDLI
 40
0.38
  9
$DIMRND
 40
0.0
  9
$DIMDLE
 40
0.0
  9
$DIMEXE
 40
2.0
  9
$DIMTP
 40
0.0
  9
$DIMTM
 40
0.0
  9
$DIMTXT
 40
3.5
  9
$DIMCEN
 40
0.09
  9
$DIMTSZ
 40
0.0
  9
$DIMTOL
 70
     0
  9
$DIMLIM
 70
     0
  9
$DIMTIH
 70
     0
  9
$DIMTOH
 70
     0
  9
$DIMSE1
 70
     0
  9
$DIMSE2
 70
     0
  9
$DIMTAD
 70
     1
  9
$DIMZIN
 70
     0
  9
$DIMBLK
  1

  9
$DIMASO
 70
     1
  9
$DIMSHO
 70
     1
  9
$DIMPOST
  1

  9
$DIMAPOST
  1

  9
$DIMALT
 70
     0
  9
$DIMALTD
 70
     2
  9
$DIMALTF
 40
25.4
  9
$DIMLFAC
 40
1.0
  9
$DIMTOFL
 70
     0
  9
$DIMTVP
 40
0.0
  9
$DIMTIX
 70
     0
  9
$DIMSOXD
 70
     0
  9
$DIMSAH
 70
     0
  9
$DIMBLK1
  1

  9
$DIMBLK2
  1

  9
$DIMSTYLE
  2
Standard
  9
$DIMCLRD
 70
     0
  9
$DIMCLRE
 70
     0
  9
$DIMCLRT
 70
     0
  9
$DIMTFAC
 40
1.0
  9
$DIMGAP
 40
0.5
  9
$DIMJUST
 70
     0
  9
$DIMSD1
 70
     0
  9
$DIMSD2
 70
     0
  9
$DIMTOLJ
 70
     1
  9
$DIMTZIN
 70
     0
  9
$DIMALTZ
 70
     0
  9
$DIMALTTZ
 70
     0
  9
$DIMUPT
 70
     0
  9
$DIMDEC
 70
     3
  9
$DIMTDEC
 70
     4
  9
$DIMALTU
 70
     2
  9
$DIMALTTD
 70
     2
  9
$DIMTXSTY
  7
STANDARD
  9
$DIMAUNIT
 70
     0
  9
$DIMADEC
 70
     0
  9
$DIMALTRND
 40
0.0
  9
$DIMAZIN
 70
     0
  9
$DIMDSEP
 70
     0
  9
$DIMATFIT
 70
     3
  9
$DIMFRAC
 70
     0
  9
$DIMLDRBLK
  1

  9
$DIMLUNIT
 70
     2
  9
$DIMLWD
 70
     0
  9
$DIMLWE
 70
     0
  9
$DIMTMOVE
 70
     0
  9
$LUNITS
 70
     2
  9
$LUPREC
 70
     4
  9
$SKETCHINC
 40
0.1
  9
$FILLETRAD
 40
0.0
  9
$AUNITS
 70
     0
  9
$AUPREC
 70
     0
  9
$MENU
  1
acad
  9
$ELEVATION
 40
0.0
  9
$PELEVATION
 40
0.0
  9
$THICKNESS
 40
0.0
  9
$LIMCHECK
 70
     0
  9
$CHAMFERA
 40
0.0
  9
$CHAMFERB
 40
0.0
  9
$CHAMFERC
 40
0.0
  9
$CHAMFERD
 40
0.0
  9
$SKPOLY
 70
     0
  9
$TDCREATE
 40
2453383.000000000
  9
$TDUCREATE
 40
0.000000000
  9
$TDUPDATE
 40
0.000000000
  9
$TDUUPDATE
 40
2447892.625000000
  9
$TDINDWG
 40
0.0000000000
  9
$TDUSRTIMER
 40
0.0000000000
  9
$USRTIMER
 70
     1
  9
$ANGBASE
 50
0.0
  9
$ANGDIR
 70
     0
  9
$PDMODE
 70
     0
  9
$PDSIZE
 40
0.0
  9
$PLINEWID
 40
0.0
  9
$SPLFRAME
 70
     0
  9
$SPLINETYPE
 70
     6
  9
$SPLINESEGS
 70
     8
  9
$HANDSEED
  5
3A9
  9
$SURFTAB1
 70
     6
  9
$SURFTAB2
 70
     6
  9
$SURFTYPE
 70
     6
  9
$SURFU
 70
     6
  9
$SURFV
 70
     6
  9
$UCSBASE
  2

  9
$UCSNAME
  2

  9
$UCSORG
 10
0.0
 20
0.0
 30
0.0
  9
$UCSXDIR
 10
1.0
 20
0.0
 30
0.0
  9
$UCSYDIR
 10
0.0
 20
1.0
 30
0.0
  9
$UCSORTHOREF
  2

  9
$UCSORTHOVIEW
 70
     0
  9
$UCSORGTOP
 10
0.0
 20
0.0
 30
0.0
  9
$UCSORGBOTTOM
 10
0.0
 20
0.0
 30
0.0
  9
$UCSORGLEFT
 10
0.0
 20
0.0
 30
0.0
  9
$UCSORGRIGHT
 10
0.0
 20
0.0
 30
0.0
  9
$UCSORGFRONT
 10
0.0
 20
0.0
 30
0.0
  9
$UCSORGBACK
 10
0.0
 20
0.0
 30
0.0
  9
$PUCSBASE
  2

  9
$PUCSNAME
  2

  9
$PUCSORG
 10
0.0
 20
0.0
 30
0.0
  9
$PUCSXDIR
 10
1.0
 20
0.0
 30
0.0
  9
$PUCSYDIR
 10
0.0
 20
1.0
 30
0.0
  9
$PUCSORTHOREF
  2

  9
$PUCSORTHOVIEW
 70
     0
  9
$PUCSORGTOP
 10
0.0
 20
0.0
 30
0.0
  9
$PUCSORGBOTTOM
 10
0.0
 20
0.0
 30
0.0
  9
$PUCSORGLEFT
 10
0.0
 20
0.0
 30
0.0
  9
$PUCSORGRIGHT
 10
0.0
 20
0.0
 30
0.0
  9
$PUCSORGFRONT
 10
0.0
 20
0.0
 30
0.0
  9
$PUCSORGBACK
 10
0.0
 20
0.0
 30
0.0
  9
$USERI1
 70
     0
  9
$USERI2
 70
     0
  9
$USERI3
 70
     0
  9
$USERI4
 70
     0
  9
$USERI5
 70
     0
  9
$USERR1
 40
0.0
  9
$USERR2
 40
0.0
  9
$USERR3
 40
0.0
  9
$USERR4
 40
0.0
  9
$USERR5
 40
0.0
  9
$WORLDVIEW
 70
     1
  9
$SHADEDGE
 70
     3
  9
$SHADEDIF
 70
    70
  9
$TILEMODE
 70
     1
  9
$MAXACTVP
 70
    16
  9
$PINSBASE
 10
0.0
 20
0.0
 30
0.0
  9
$PLIMCHECK
 70
     0
  9
$PEXTMIN
 10
1.000000E+20
 20
1.000000E+20
 30
1.000000E+20
  9
$PEXTMAX
 10
-1.000000E+20
 20
-1.000000E+20
 30
-1.000000E+20
  9
$PLIMMIN
 10
0.0
 20
0.0
  9
$PLIMMAX
 10
12.0
 20
9.0
  9
$UNITMODE
 70
     0
  9
$VISRETAIN
 70
     0
  9
$PLINEGEN
 70
     1
  9
$PSLTSCALE
 70
     0
  9
$TREEDEPTH
 70
  3020
  9
$CMLSTYLE
  2
Standard
  9
$CMLJUST
 70
     0
  9
$CMLSCALE
 40
1.0
  9
$PROXYGRAPHICS
 70
     0
  9
$MEASUREMENT
 70
     0
  9
$CELWEIGHT
370
     0
  9
$ENDCAPS
280
     0
  9
$JOINSTYLE
280
     0
  9
$LWDISPLAY
290
     0
  9
$INSUNITS
 70
     0
  9
$HYPERLINKBASE
  1

  9
$STYLESHEET
  1

  9
$XEDIT
290
     1
  9
$CEPSNTYPE
380
     0
  9
$PSTYLEMODE
290
     1
  9
$FINGERPRINTGUID
  2

  9
$VERSIONGUID
  2

  9
$EXTNAMES
290
     1
  9
$PSVPSCALE
 40
0.0
  0
ENDSEC
  0
SECTION
  2
CLASSES
  0
CLASS
  1
LWPOLYLINE
  2
AcDbPolyline
  3
AutoCAD 2000
 90
        0
280
     0
281
     1
  0
CLASS
  1
IMAGE
  2
AcDbRasterImage
  3
ISM
 90
      127
280
     0
281
     1
  0
CLASS
  1
OLE2FRAME
  2
AcDbOle2Frame
  3
AutoCAD 2000
 90
        0
280
     0
281
     1
  0
CLASS
  1
HATCH
  2
AcDbHatch
  3
AutoCAD 2000
 90
        0
280
     0
281
     1
  0
CLASS
  1
DICTIONARYVAR
  2
AcDbDictionaryVar
  3
AutoCAD 2000
 90
        0
280
     0
281
     0
  0
CLASS
  1
RASTERVARIABLES
  2
AcDbRasterVariables
  3
ISM
 90
        0
280
     0
281
     0
  0
CLASS
  1
IMAGEDEF
  2
AcDbRasterImageDef
  3
ISM
 90
        0
280
     0
281
     0
  0
CLASS
  1
IMAGEDEF_REACTOR
  2
AcDbRasterImageDefReactor
  3
ISM
 90
        1
280
     0
281
     0
  0
CLASS
  1
IDBUFFER
  2
AcDbIdBuffer
  3
AutoCAD 2000
 90
        0
280
     0
281
     0
  0
CLASS
  1
SPATIAL_FILTER
  2
AcDbSpatialFilter
  3
AutoCAD 2000
 90
        0
280
     0
281
     0
  0
CLASS
  1
XRECORD
  2
AcDbXrecord
  3
AutoCAD 2000
 90
        0
280
     0
281
     0
  0
CLASS
  1
SORTENTSTABLE
  2
AcDbSortentsTable
  3
AutoCAD 2000
 90
        0
280
     0
281
     0
  0
CLASS
  1
LAYER_INDEX
  2
AcDbLayerIndex
  3
AutoCAD 2000
 90
        0
280
     0
281
     0
  0
CLASS
  1
SPATIAL_INDEX
  2
AcDbSpatialIndex
  3
AutoCAD 2000
 90
        0
280
     0
281
     0
  0
CLASS
  1
OBJECT_PTR
  2
CAseDLPNTableRecord
  3
"ASE-LPNTableRecord"
 90
        1
280
     0
281
     0
  0
CLASS
  1
LAYOUT
  2
AcDbLayout
  3
AutoCAD 2000
 90
        0
280
     0
281
     0
  0
CLASS
  1
PLOTSETTINGS
  2
AcDbPlotSettings
  3
AutoCAD 2000
 90
        0
280
     0
281
     0
  0
CLASS
  1
ACDBDICTIONARYWDFLT
  2
AcDbDictionaryWithDefault
  3
AutoCAD 2000
 90
        0
280
     0
281
     0
  0
CLASS
  1
ACDBPLACEHOLDER
  2
AcDbPlaceHolder
  3
AutoCAD 2000
 90
        0
280
     0
281
     0
  0
CLASS
  1
VBA_PROJECT
  2
AcDbVbaProject
  3
acadvba
 90
        0
280
     0
281
     0
  0
CLASS
  1
WIPEOUT
  2
AcDbWipeout
  3
WipeOut|AutoCAD Express Tool|expresstools@autodesk.com
 90
      127
280
     0
281
     1
  0
CLASS
  1
WIPEOUTVARIABLES
  2
AcDbWipeoutVariables
  3
WipeOut|AutoCAD Express Tool|expresstools@autodesk.com
 90
        0
280
     0
281
     0
  0
CLASS
  1
RTEXT
  2
RText
  3
RText|AutoCAD Express Tool|expresstools@autodesk.com
 90
        0
280
     0
281
     1
  0
CLASS
  1
ARCALIGNEDTEXT
  2
AcDbArcAlignedText
  3
ATEXT|AutoCAD Express Tool|expresstools@autodesk.com
 90
        0
280
     0
281
     1
  0
ENDSEC
  0
SECTION
  2
TABLES
  0
TABLE
  2
VPORT
  5
6
100
AcDbSymbolTable
 70
     1
  0
VPORT
  5
19
100
AcDbSymbolTableRecord
100
AcDbViewportTableRecord
  2
*ACTIVE
 70
     0
 10
0.0
 20
0.0
 11
1.0
 21
1.0
 12
0.0
 22
0.0
 13
0.0
 23
0.0
 14
1.0
 24
1.0
 15
0.0
 25
0.0
 16
0.0
 26
0.0
 36
1.0
 17
0.0
 27
0.0
 37
0.0
 40
594.0
 41
1.415825
 42
50.0
 43
0.0
 44
0.0
 50
0.0
 51
0.0
 71
     0
 72
   500
 73
     1
 74
     1
 75
     0
 76
     0
 77
     0
 78
     0
281
     0
 65
     0
110
0.0
120
0.0
130
0.0
111
1.0
121
0.0
131
0.0
112
0.0
122
1.0
132
0.0
345
0
346
0
 79
     0
146
0.0
  0
ENDTAB
  0
TABLE
  2
LTYPE
  5
3
100
AcDbSymbolTable
 70
     9
  0
LTYPE
  5
C
100
AcDbSymbolTableRecord
100
AcDbLinetypeTableRecord
  2
ByBlock
 70
    64
  3

 72
    65
 73
     0
 40
0.0
  0
LTYPE
  5
D
100
AcDbSymbolTableRecord
100
AcDbLinetypeTableRecord
  2
ByLayer
 70
    64
  3

 72
    65
 73
     0
 40
0.0
  0
LTYPE
  5
E
100
AcDbSymbolTableRecord
100
AcDbLinetypeTableRecord
  2
CONTINUOUS
 70
     0
  3
Solid line
 72
    65
 73
     0
 40
0.0
  0
LTYPE
  5
F
100
AcDbSymbolTableRecord
100
AcDbLinetypeTableRecord
  2
DASHED
 70
     0
  3
__ __ __ __ __ __ __ __ __ __ __ __ __ __ __
 72
    65
 73
     2
 40
2.0
 49
1.2
 74
     0
 49
-0.8
 74
     0
  0
LTYPE
  5
10
100
AcDbSymbolTableRecord
100
AcDbLinetypeTableRecord
  2
CENTER
 70
     0
  3
____ _ ____ _ ____ _ ____ _ ____ _ ____ _ ____
 72
    65
 73
     4
 40
12.0
 49
9.0
 74
     0
 49
-1.0
 74
     0
 49
1.0
 74
     0
 49
-1.0
 74
     0
  0
LTYPE
  5
11
100
AcDbSymbolTableRecord
100
AcDbLinetypeTableRecord
  2
HIDDEN
 70
     0
  3
_ _ _ _ _ _ _ _ _ _ _ _ _ _ _ _ _ _ _ _ _ _ _
 72
    65
 73
     2
 40
3.2
 49
2.4
 74
     0
 49
-0.8
 74
     0
  0
LTYPE
  5
12
100
AcDbSymbolTableRecord
100
AcDbLinetypeTableRecord
  2
PHANTOM
 70
     0
  3
_____ _ _ _____ _ _ _____ _ _ _____ _ _ _____
 72
    65
 73
     6
 40
13.5
 49
9.0
 74
     0
 49
-1.0
 74
     0
 49
1.0
 74
     0
 49
-0.5
 74
     0
 49
1.0
 74
     0
 49
-1.0
 74
     0
  0
LTYPE
  5
13
100
AcDbSymbolTableRecord
100
AcDbLinetypeTableRecord
  2
DOT
 70
     0
  3
...............................................
 72
    65
 73
     2
 40
1.0
 49
0.5
 74
     0
 49
-0.5
 74
     0
  0
LTYPE
  5
14
100
AcDbSymbolTableRecord
100
AcDbLinetypeTableRecord
  2
DASHDOT
 70
     0
  3
__ . __ . __ . __ . __ . __ . __ . __ . __ . __
 72
    65
 73
     4
 40
8.0
 49
5.0
 74
     0
 49
-1.0
 74
     0
 49
1.0
 74
     0
 49
-1.0
 74
     0
  0
ENDTAB
  0
TABLE
  2
LAYER
  5
1
100
AcDbSymbolTable
 70
     4
  0
LAYER
  5
15
100
AcDbSymbolTableRecord
100
AcDbLayerTableRecord
  2
0
 70
     0
 62
     7
  6
CONTINUOUS
290
     1
370
    -3
390
0
  0
LAYER
  5
16
100
AcDbSymbolTableRecord
100
AcDbLayerTableRecord
  2
1
 70
     0
 62
     7
  6
CONTINUOUS
290
     1
370
    -3
390
0
  0
LAYER
  5
17
100
AcDbSymbolTableRecord
100
AcDbLayerTableRecord
  2
2
 70
     0
 62
     7
  6
CONTINUOUS
290
     1
370
    -3
390
0
  0
LAYER
  5
18
100
AcDbSymbolTableRecord
100
AcDbLayerTableRecord
  2
3
 70
     0
 62
     7
  6
CONTINUOUS
290
     1
370
    -3
390
0
  0
ENDTAB
  0
TABLE
  2
STYLE
  5
2
100
AcDbSymbolTable
 70
     1
  0
STYLE
  5
1B
100
AcDbSymbolTableRecord
100
AcDbTextStyleTableRecord
  2
STANDARD
 70
    64
 40
0.0
 41
1.0
 50
0.0
 71
     0
 42
1.0
  3
txt
  4
BIGFONT
  0
ENDTAB
  0
TABLE
  2
VIEW
  5
4
100
AcDbSymbolTable
 70
     0
  0
ENDTAB
  0
TABLE
  2
UCS
  5
5
100
AcDbSymbolTable
 70
     0
  0
ENDTAB
  0
TABLE
  2
APPID
  5
7
100
AcDbSymbolTable
 70
     1
  0
APPID
  5
1A
100
AcDbSymbolTableRecord
100
AcDbRegAppTableRecord
  2
ACAD
 70
     0
  0
ENDTAB
  0
TABLE
  2
DIMSTYLE
  5
8
100
AcDbSymbolTable
 70
     1
100
AcDbDimStyleTable
 71
     0
  0
DIMSTYLE
105
2A
100
AcDbSymbolTableRecord
100
AcDbDimStyleTableRecord
  2
Standard
 70
     0
  3

  4

 40
1.0
 41
2.0
 42
1.0
 43
0.38
 44
2.0
 45
0.0
 46
0.0
 47
0.0
 48
0.0
 71
     0
 72
     0
 73
     0
 74
     0
 75
     0
 76
     0
 77
     1
 78
     0
 79
     0
140
3.5
141
0.09
142
0.0
143
25.4
144
1.0
145
0.0
146
1.0
147
0.5
148
0.0
170
     0
171
     2
172
     0
173
     0
174
     0
175
     0
176
     0
177
     0
178
     0
179
     0
271
     3
272
     4
273
     2
274
     2
275
     0
276
     0
277
     2
278
    46
279
     0
280
     0
281
     0
282
     0
283
     1
284
     0
285
     0
286
     0
288
     0
289
     3
340
1B
341
0
342
0
343
0
344
0
371
    -2
372
    -2
  0
ENDTAB
  0
TABLE
  2
BLOCK_RECORD
  5
25
100
AcDbSymbolTable
 70
     7
  0
BLOCK_RECORD
  5
23
100
AcDbSymbolTableRecord
100
AcDbBlockTableRecord
  2
*Model_Space
340
0
  0
BLOCK_RECORD
  5
24
100
AcDbSymbolTableRecord
100
AcDbBlockTableRecord
  2
*Paper_Space
340
0
  0
BLOCK_RECORD
  5
1C
100
AcDbSymbolTableRecord
100
AcDbBlockTableRecord
  2
*D0
340
0
  0
BLOCK_RECORD
  5
1D
100
AcDbSymbolTableRecord
100
AcDbBlockTableRecord
  2
*D1
340
0
  0
BLOCK_RECORD
  5
1E
100
AcDbSymbolTableRecord
100
AcDbBlockTableRecord
  2
*D2
340
0
  0
BLOCK_RECORD
  5
1F
100
AcDbSymbolTableRecord
100
AcDbBlockTableRecord
  2
*D3
340
0
  0
BLOCK_RECORD
  5
20
100
AcDbSymbolTableRecord
100
AcDbBlockTableRecord
  2
*D4
340
0
  0
BLOCK_RECORD
  5
21
100
AcDbSymbolTableRecord
100
AcDbBlockTableRecord
  2
*D5
340
0
  0
BLOCK_RECORD
  5
22
100
AcDbSymbolTableRecord
100
AcDbBlockTableRecord
  2
*D6
340
0
  0
ENDTAB
  0
ENDSEC
  0
SECTION
  2
BLOCKS
  0
BLOCK
  5
26
100
AcDbEntity
  8
0
390
0
100
AcDbBlockBegin
  2
*Model_Space
 70
     0
 10
0.0
 20
0.0
 30
0.0
  3
*Model_Space
  1

  0
ENDBLK
  5
27
100
AcDbEntity
  8
0
390
0
100
AcDbBlockEnd
  0
BLOCK
  5
28
100
AcDbEntity
 67
     1
  8
0
390
0
100
AcDbBlockBegin
  2
*Paper_Space
 70
     0
 10
0.0
 20
0.0
 30
0.0
  3
*Paper_Space
  1

  0
ENDBLK
  5
29
100
AcDbEntity
 67
     1
  8
0
390
0
100
AcDbBlockEnd
  0
BLOCK
  5
352
100
AcDbEntity
  8
3
100
AcDbBlockBegin
  2
*D0
 70
     1
 10
0.0
 20
0.0
 30
0.0
  3
*D0
  1

  0
TEXT
  5
353
100
AcDbEntity
  8
3
370
    25
100
AcDbText
 10
-105.591599
 20
-26.731085
 30
0.0
 40
3.5
  1
５７（リフト３ｍｉｎ）
 50
90.0
 72
     5
 11
-105.591599
 21
11.068915
 31
0.0
100
AcDbText
  0
LINE
  5
354
100
AcDbEntity
  8
3
370
    25
100
AcDbLine
 10
-54.042396
 20
16.497329
 30
0.0
 11
-105.394836
 21
16.497329
 31
0.0
  0
LINE
  5
355
100
AcDbEntity
  8
3
370
    25
100
AcDbLine
 10
-104.394836
 20
16.497329
 30
0.0
 11
-104.912475
 21
14.565478
 31
0.0
  0
LINE
  5
356
100
AcDbEntity
  8
3
370
    25
100
AcDbLine
 10
-104.394836
 20
16.497329
 30
0.0
 11
-103.877198
 21
14.565478
 31
0.0
  0
LINE
  5
357
100
AcDbEntity
  8
3
370
    25
100
AcDbLine
 10
-104.912475
 20
14.565478
 30
0.0
 11
-103.877198
 21
14.565478
 31
0.0
  0
LINE
  5
358
100
AcDbEntity
  8
3
370
    25
100
AcDbLine
 10
-104.394836
 20
16.497329
 30
0.0
 11
-104.394836
 21
-40.502671
 31
0.0
  0
LINE
  5
359
100
AcDbEntity
  8
3
370
    25
100
AcDbLine
 10
-104.394836
 20
-40.502671
 30
0.0
 11
-103.877198
 21
-38.570819
 31
0.0
  0
LINE
  5
35A
100
AcDbEntity
  8
3
370
    25
100
AcDbLine
 10
-104.394836
 20
-40.502671
 30
0.0
 11
-104.912475
 21
-38.570819
 31
0.0
  0
LINE
  5
35B
100
AcDbEntity
  8
3
370
    25
100
AcDbLine
 10
-103.877198
 20
-38.570819
 30
0.0
 11
-104.912475
 21
-38.570819
 31
0.0
  0
LINE
  5
35C
100
AcDbEntity
  8
3
370
    25
100
AcDbLine
 10
-100.619901
 20
-40.502671
 30
0.0
 11
-105.394836
 21
-40.502671
 31
0.0
  0
ENDBLK
  5
35D
100
AcDbEntity
  8
3
100
AcDbBlockEnd
  0
BLOCK
  5
35E
100
AcDbEntity
  8
3
100
AcDbBlockBegin
  2
*D1
 70
     1
 10
0.0
 20
0.0
 30
0.0
  3
*D1
  1

  0
TEXT
  5
35F
100
AcDbEntity
  8
3
370
    25
100
AcDbText
 10
89.480843
 20
-45.002671
 30
0.0
 40
3.5
  1
φ６０
 50
90.0
 72
     5
 11
89.480843
 21
-35.202671
 31
0.0
100
AcDbText
  0
LINE
  5
360
100
AcDbEntity
  8
3
370
    25
100
AcDbLine
 10
49.731357
 20
-70.502671
 30
0.0
 11
90.980843
 21
-70.502671
 31
0.0
  0
LINE
  5
361
100
AcDbEntity
  8
3
370
    25
100
AcDbLine
 10
89.980843
 20
-70.502671
 30
0.0
 11
90.498481
 21
-68.570819
 31
0.0
  0
LINE
  5
362
100
AcDbEntity
  8
3
370
    25
100
AcDbLine
 10
89.980843
 20
-70.502671
 30
0.0
 11
89.463205
 21
-68.570819
 31
0.0
  0
LINE
  5
363
100
AcDbEntity
  8
3
370
    25
100
AcDbLine
 10
90.498481
 20
-68.570819
 30
0.0
 11
89.463205
 21
-68.570819
 31
0.0
  0
LINE
  5
364
100
AcDbEntity
  8
3
370
    25
100
AcDbLine
 10
89.980843
 20
-70.502671
 30
0.0
 11
89.980843
 21
-10.502671
 31
0.0
  0
LINE
  5
365
100
AcDbEntity
  8
3
370
    25
100
AcDbLine
 10
89.980843
 20
-10.502671
 30
0.0
 11
89.463205
 21
-12.434522
 31
0.0
  0
LINE
  5
366
100
AcDbEntity
  8
3
370
    25
100
AcDbLine
 10
89.980843
 20
-10.502671
 30
0.0
 11
90.498481
 21
-12.434522
 31
0.0
  0
LINE
  5
367
100
AcDbEntity
  8
3
370
    25
100
AcDbLine
 10
89.463205
 20
-12.434522
 30
0.0
 11
90.498481
 21
-12.434522
 31
0.0
  0
LINE
  5
368
100
AcDbEntity
  8
3
370
    25
100
AcDbLine
 10
49.731357
 20
-10.502671
 30
0.0
 11
90.980843
 21
-10.502671
 31
0.0
  0
ENDBLK
  5
369
100
AcDbEntity
  8
3
100
AcDbBlockEnd
  0
BLOCK
  5
36A
100
AcDbEntity
  8
3
100
AcDbBlockBegin
  2
*D2
 70
     1
 10
0.0
 20
0.0
 30
0.0
  3
*D2
  1

  0
LINE
  5
36B
100
AcDbEntity
  8
3
370
    25
100
AcDbLine
 10
-53.042396
 20
-58.423671
 30
0.0
 11
-53.042396
 21
-88.962318
 31
0.0
  0
LINE
  5
36C
100
AcDbEntity
  8
3
370
    25
100
AcDbLine
 10
-53.042396
 20
-87.962318
 30
0.0
 11
-51.110545
 21
-88.479957
 31
0.0
  0
LINE
  5
36D
100
AcDbEntity
  8
3
370
    25
100
AcDbLine
 10
-53.042396
 20
-87.962318
 30
0.0
 11
-51.110545
 21
-87.44468
 31
0.0
  0
LINE
  5
36E
100
AcDbEntity
  8
3
370
    25
100
AcDbLine
 10
-51.110545
 20
-88.479957
 30
0.0
 11
-51.110545
 21
-87.44468
 31
0.0
  0
LINE
  5
36F
100
AcDbEntity
  8
3
370
    25
100
AcDbLine
 10
-53.042396
 20
-87.962318
 30
0.0
 11
66.956604
 21
-87.962318
 31
0.0
  0
LINE
  5
370
100
AcDbEntity
  8
3
370
    25
100
AcDbLine
 10
66.956604
 20
-87.962318
 30
0.0
 11
65.024752
 21
-87.44468
 31
0.0
  0
LINE
  5
371
100
AcDbEntity
  8
3
370
    25
100
AcDbLine
 10
66.956604
 20
-87.962318
 30
0.0
 11
65.024752
 21
-88.479957
 31
0.0
  0
LINE
  5
372
100
AcDbEntity
  8
3
370
    25
100
AcDbLine
 10
65.024752
 20
-87.44468
 30
0.0
 11
65.024752
 21
-88.479957
 31
0.0
  0
LINE
  5
373
100
AcDbEntity
  8
3
370
    25
100
AcDbLine
 10
66.956604
 20
-50.562671
 30
0.0
 11
66.956604
 21
-88.962318
 31
0.0
  0
ENDBLK
  5
374
100
AcDbEntity
  8
3
100
AcDbBlockEnd
  0
BLOCK
  5
375
100
AcDbEntity
  8
3
100
AcDbBlockBegin
  2
*D3
 70
     1
 10
0.0
 20
0.0
 30
0.0
  3
*D3
  1

  0
LINE
  5
376
100
AcDbEntity
  8
3
370
    25
100
AcDbLine
 10
-157.427396
 20
-47.852671
 30
0.0
 11
-157.427396
 21
-88.962318
 31
0.0
  0
LINE
  5
377
100
AcDbEntity
  8
3
370
    25
100
AcDbLine
 10
-157.427396
 20
-87.962318
 30
0.0
 11
-155.495545
 21
-88.479957
 31
0.0
  0
LINE
  5
378
100
AcDbEntity
  8
3
370
    25
100
AcDbLine
 10
-157.427396
 20
-87.962318
 30
0.0
 11
-155.495545
 21
-87.44468
 31
0.0
  0
LINE
  5
379
100
AcDbEntity
  8
3
370
    25
100
AcDbLine
 10
-155.495545
 20
-88.479957
 30
0.0
 11
-155.495545
 21
-87.44468
 31
0.0
  0
LINE
  5
37A
100
AcDbEntity
  8
3
370
    25
100
AcDbLine
 10
-157.427396
 20
-87.962318
 30
0.0
 11
-85.042396
 21
-87.962318
 31
0.0
  0
LINE
  5
37B
100
AcDbEntity
  8
3
370
    25
100
AcDbLine
 10
-85.042396
 20
-87.962318
 30
0.0
 11
-86.974248
 21
-87.44468
 31
0.0
  0
LINE
  5
37C
100
AcDbEntity
  8
3
370
    25
100
AcDbLine
 10
-85.042396
 20
-87.962318
 30
0.0
 11
-86.974248
 21
-88.479957
 31
0.0
  0
LINE
  5
37D
100
AcDbEntity
  8
3
370
    25
100
AcDbLine
 10
-86.974248
 20
-87.44468
 30
0.0
 11
-86.974248
 21
-88.479957
 31
0.0
  0
LINE
  5
37E
100
AcDbEntity
  8
3
370
    25
100
AcDbLine
 10
-85.042396
 20
-50.702671
 30
0.0
 11
-85.042396
 21
-88.962318
 31
0.0
  0
ENDBLK
  5
37F
100
AcDbEntity
  8
3
100
AcDbBlockEnd
  0
BLOCK
  5
380
100
AcDbEntity
  8
3
100
AcDbBlockBegin
  2
*D4
 70
     1
 10
0.0
 20
0.0
 30
0.0
  3
*D4
  1

  0
TEXT
  5
381
100
AcDbEntity
  8
3
370
    25
100
AcDbText
 10
-92.542396
 20
-57.77256
 30
0.0
 40
3.5
  1
２
 72
     5
 11
-89.742396
 21
-57.77256
 31
0.0
100
AcDbText
  0
LINE
  5
382
100
AcDbEntity
  8
3
370
    25
100
AcDbLine
 10
-85.042396
 20
-50.702671
 30
0.0
 11
-85.042396
 21
-59.27256
 31
0.0
  0
LINE
  5
383
100
AcDbEntity
  8
3
370
    25
100
AcDbLine
 10
-85.042396
 20
-58.27256
 30
0.0
 11
-86.974248
 21
-57.754922
 31
0.0
  0
LINE
  5
384
100
AcDbEntity
  8
3
370
    25
100
AcDbLine
 10
-85.042396
 20
-58.27256
 30
0.0
 11
-86.974248
 21
-58.790198
 31
0.0
  0
LINE
  5
385
100
AcDbEntity
  8
3
370
    25
100
AcDbLine
 10
-86.974248
 20
-57.754922
 30
0.0
 11
-86.974248
 21
-58.790198
 31
0.0
  0
LINE
  5
386
100
AcDbEntity
  8
3
370
    25
100
AcDbLine
 10
-92.542396
 20
-58.27256
 30
0.0
 11
-78.042396
 21
-58.27256
 31
0.0
  0
LINE
  5
387
100
AcDbEntity
  8
3
370
    25
100
AcDbLine
 10
-83.042396
 20
-58.27256
 30
0.0
 11
-81.110545
 21
-58.790198
 31
0.0
  0
LINE
  5
388
100
AcDbEntity
  8
3
370
    25
100
AcDbLine
 10
-83.042396
 20
-58.27256
 30
0.0
 11
-81.110545
 21
-57.754922
 31
0.0
  0
LINE
  5
389
100
AcDbEntity
  8
3
370
    25
100
AcDbLine
 10
-81.110545
 20
-58.790198
 30
0.0
 11
-81.110545
 21
-57.754922
 31
0.0
  0
LINE
  5
38A
100
AcDbEntity
  8
3
370
    25
100
AcDbLine
 10
-83.042396
 20
-50.817671
 30
0.0
 11
-83.042396
 21
-59.27256
 31
0.0
  0
ENDBLK
  5
38B
100
AcDbEntity
  8
3
100
AcDbBlockEnd
  0
BLOCK
  5
38C
100
AcDbEntity
  8
3
100
AcDbBlockBegin
  2
*D5
 70
     1
 10
0.0
 20
0.0
 30
0.0
  3
*D5
  1

  0
TEXT
  5
38D
100
AcDbEntity
  8
3
370
    25
100
AcDbText
 10
-71.542396
 20
-87.462318
 30
0.0
 40
3.5
  1
３０
 72
     5
 11
-65.242396
 21
-87.462318
 31
0.0
100
AcDbText
  0
LINE
  5
38E
100
AcDbEntity
  8
3
370
    25
100
AcDbLine
 10
-83.042396
 20
-50.817671
 30
0.0
 11
-83.042396
 21
-88.962318
 31
0.0
  0
LINE
  5
38F
100
AcDbEntity
  8
3
370
    25
100
AcDbLine
 10
-83.042396
 20
-87.962318
 30
0.0
 11
-81.110545
 21
-88.479957
 31
0.0
  0
LINE
  5
390
100
AcDbEntity
  8
3
370
    25
100
AcDbLine
 10
-83.042396
 20
-87.962318
 30
0.0
 11
-81.110545
 21
-87.44468
 31
0.0
  0
LINE
  5
391
100
AcDbEntity
  8
3
370
    25
100
AcDbLine
 10
-81.110545
 20
-88.479957
 30
0.0
 11
-81.110545
 21
-87.44468
 31
0.0
  0
LINE
  5
392
100
AcDbEntity
  8
3
370
    25
100
AcDbLine
 10
-83.042396
 20
-87.962318
 30
0.0
 11
-53.042396
 21
-87.962318
 31
0.0
  0
LINE
  5
393
100
AcDbEntity
  8
3
370
    25
100
AcDbLine
 10
-53.042396
 20
-87.962318
 30
0.0
 11
-54.974248
 21
-87.44468
 31
0.0
  0
LINE
  5
394
100
AcDbEntity
  8
3
370
    25
100
AcDbLine
 10
-53.042396
 20
-87.962318
 30
0.0
 11
-54.974248
 21
-88.479957
 31
0.0
  0
LINE
  5
395
100
AcDbEntity
  8
3
370
    25
100
AcDbLine
 10
-54.974248
 20
-87.44468
 30
0.0
 11
-54.974248
 21
-88.479957
 31
0.0
  0
LINE
  5
396
100
AcDbEntity
  8
3
370
    25
100
AcDbLine
 10
-53.042396
 20
-58.423671
 30
0.0
 11
-53.042396
 21
-88.962318
 31
0.0
  0
ENDBLK
  5
397
100
AcDbEntity
  8
3
100
AcDbBlockEnd
  0
BLOCK
  5
398
100
AcDbEntity
  8
3
100
AcDbBlockBegin
  2
*D6
 70
     1
 10
0.0
 20
0.0
 30
0.0
  3
*D6
  1

  0
TEXT
  5
399
100
AcDbEntity
  8
3
370
    25
100
AcDbText
 10
-169.333328
 20
-49.252671
 30
0.0
 40
3.5
  1
φ１２．７
 50
90.0
 72
     5
 11
-169.333328
 21
-32.452671
 31
0.0
100
AcDbText
  0
LINE
  5
39A
100
AcDbEntity
  8
3
370
    25
100
AcDbLine
 10
-158.427396
 20
-34.152671
 30
0.0
 11
-169.833328
 21
-34.152671
 31
0.0
  0
LINE
  5
39B
100
AcDbEntity
  8
3
370
    25
100
AcDbLine
 10
-168.833328
 20
-34.152671
 30
0.0
 11
-169.350966
 21
-36.084522
 31
0.0
  0
LINE
  5
39C
100
AcDbEntity
  8
3
370
    25
100
AcDbLine
 10
-168.833328
 20
-34.152671
 30
0.0
 11
-168.31569
 21
-36.084522
 31
0.0
  0
LINE
  5
39D
100
AcDbEntity
  8
3
370
    25
100
AcDbLine
 10
-169.350966
 20
-36.084522
 30
0.0
 11
-168.31569
 21
-36.084522
 31
0.0
  0
LINE
  5
39E
100
AcDbEntity
  8
3
370
    25
100
AcDbLine
 10
-168.833328
 20
-34.152671
 30
0.0
 11
-168.833328
 21
-46.852671
 31
0.0
  0
LINE
  5
39F
100
AcDbEntity
  8
3
370
    25
100
AcDbLine
 10
-168.833328
 20
-46.852671
 30
0.0
 11
-168.31569
 21
-44.920819
 31
0.0
  0
LINE
  5
3A0
100
AcDbEntity
  8
3
370
    25
100
AcDbLine
 10
-168.833328
 20
-46.852671
 30
0.0
 11
-169.350966
 21
-44.920819
 31
0.0
  0
LINE
  5
3A1
100
AcDbEntity
  8
3
370
    25
100
AcDbLine
 10
-168.31569
 20
-44.920819
 30
0.0
 11
-169.350966
 21
-44.920819
 31
0.0
  0
LINE
  5
3A2
100
AcDbEntity
  8
3
370
    25
100
AcDbLine
 10
-158.427396
 20
-46.852671
 30
0.0
 11
-169.833328
 21
-46.852671
 31
0.0
  0
ENDBLK
  5
3A3
100
AcDbEntity
  8
3
100
AcDbBlockEnd
  0
ENDSEC
  0
SECTION
  2
ENTITIES
  0
LINE
  5
2B
100
AcDbEntity
  8
1
370
   100
100
AcDbLine
 10
-186.510785
 20
137.514384
 30
0.0
 11
197.491193
 21
137.514384
 31
0.0
  0
LINE
  5
2C
100
AcDbEntity
  8
1
370
   100
100
AcDbLine
 10
-186.510785
 20
137.514384
 30
0.0
 11
-186.510785
 21
-138.985941
 31
0.0
  0
LINE
  5
2D
100
AcDbEntity
  8
1
370
   100
100
AcDbLine
 10
-186.510785
 20
-138.985941
 30
0.0
 11
197.491193
 21
-138.985941
 31
0.0
  0
LINE
  5
2E
100
AcDbEntity
  8
1
370
   100
100
AcDbLine
 10
197.491193
 20
-138.985941
 30
0.0
 11
197.491193
 21
137.514384
 31
0.0
  0
TEXT
  5
2F
100
AcDbEntity
  8
1
370
    50
100
AcDbText
 10
179.814221
 20
-113.126428
 30
0.0
 40
3.0
  1
設計
 72
     5
 11
185.214221
 21
-113.126428
 31
0.0
100
AcDbText
  0
TEXT
  5
30
100
AcDbEntity
  8
1
370
    50
100
AcDbText
 10
189.563739
 20
-113.049829
 30
0.0
 40
3.0
  1
製図
 72
     5
 11
194.963739
 21
-113.049829
 31
0.0
100
AcDbText
  0
TEXT
  5
31
100
AcDbEntity
  8
1
370
    50
100
AcDbText
 10
159.502872
 20
-113.126428
 30
0.0
 40
3.0
  1
承認
 72
     5
 11
164.902872
 21
-113.126428
 31
0.0
100
AcDbText
  0
TEXT
  5
32
100
AcDbEntity
  8
1
370
    50
100
AcDbText
 10
169.494839
 20
-113.09901
 30
0.0
 40
3.0
  1
検図
 72
     5
 11
174.894839
 21
-113.09901
 31
0.0
100
AcDbText
  0
LINE
  5
33
100
AcDbEntity
  8
1
370
    25
100
AcDbLine
 10
142.491193
 20
-113.985941
 30
0.0
 11
197.491193
 21
-113.985941
 31
0.0
  0
LINE
  5
34
100
AcDbEntity
  8
1
370
    25
100
AcDbLine
 10
171.241193
 20
-122.985941
 30
0.0
 11
171.241193
 21
-129.985941
 31
0.0
  0
TEXT
  5
35
100
AcDbEntity
  8
1
370
    50
100
AcDbText
 10
159.775795
 20
-128.006264
 30
0.0
 40
3.0
  1
日　付
 72
     5
 11
168.175795
 21
-128.006264
 31
0.0
100
AcDbText
  0
LINE
  5
36
100
AcDbEntity
  8
1
370
    50
100
AcDbLine
 10
20.491193
 20
-129.985941
 30
0.0
 11
197.491193
 21
-129.985941
 31
0.0
  0
TEXT
  5
37
100
AcDbEntity
  8
1
370
    50
100
AcDbText
 10
143.887505
 20
-128.161203
 30
0.0
 40
3.0
  1
第三角法
 72
     5
 11
155.287505
 21
-128.161203
 31
0.0
100
AcDbText
  0
TEXT
  5
38
100
AcDbEntity
  8
1
370
    50
100
AcDbText
 10
145.54371
 20
-112.99901
 30
0.0
 40
3.0
  1
尺　度
 72
     5
 11
153.94371
 21
-112.99901
 31
0.0
100
AcDbText
  0
LINE
  5
39
100
AcDbEntity
  8
1
370
   100
100
AcDbLine
 10
20.491193
 20
-108.985941
 30
0.0
 11
197.491193
 21
-108.985941
 31
0.0
  0
LINE
  5
3A
100
AcDbEntity
  8
1
370
    50
100
AcDbLine
 10
105.991193
 20
-108.985941
 30
0.0
 11
105.991193
 21
-138.985941
 31
0.0
  0
LINE
  5
3B
100
AcDbEntity
  8
1
370
    25
100
AcDbLine
 10
187.491193
 20
-122.985941
 30
0.0
 11
187.491193
 21
-108.985941
 31
0.0
  0
LINE
  5
3C
100
AcDbEntity
  8
1
370
    25
100
AcDbLine
 10
177.491193
 20
-122.985941
 30
0.0
 11
177.491193
 21
-108.985941
 31
0.0
  0
LINE
  5
3D
100
AcDbEntity
  8
1
370
    25
100
AcDbLine
 10
167.491193
 20
-122.985941
 30
0.0
 11
167.491193
 21
-108.985941
 31
0.0
  0
LINE
  5
3E
100
AcDbEntity
  8
1
370
    50
100
AcDbLine
 10
142.491193
 20
-138.985941
 30
0.0
 11
142.491193
 21
-108.985941
 31
0.0
  0
LINE
  5
3F
100
AcDbEntity
  8
1
370
    50
100
AcDbLine
 10
94.991193
 20
-108.985941
 30
0.0
 11
94.991193
 21
-138.985941
 31
0.0
  0
LINE
  5
40
100
AcDbEntity
  8
1
370
    50
100
AcDbLine
 10
31.491193
 20
-108.985941
 30
0.0
 11
31.491193
 21
-129.985941
 31
0.0
  0
LINE
  5
41
100
AcDbEntity
  8
1
370
    50
100
AcDbLine
 10
142.491193
 20
-122.985941
 30
0.0
 11
197.491193
 21
-122.985941
 31
0.0
  0
TEXT
  5
42
100
AcDbEntity
  8
1
370
    50
100
AcDbText
 10
143.550565
 20
-135.940469
 30
0.0
 40
3.0
  1
コードＮｏ
 41
0.9
 72
     5
 11
156.510565
 21
-135.940469
 31
0.0
100
AcDbText
  0
TEXT
  5
43
100
AcDbEntity
  8
1
370
   100
100
AcDbText
 10
26.443387
 20
-136.43783
 30
0.0
 40
4.0
  1
ミズタニバルブ工業株式会社
 41
1.2
 72
     5
 11
87.883387
 21
-136.43783
 31
0.0
100
AcDbText
  0
LINE
  5
44
100
AcDbEntity
  8
1
370
    50
100
AcDbLine
 10
20.491193
 20
-119.485941
 30
0.0
 11
142.491193
 21
-119.485941
 31
0.0
  0
LINE
  5
45
100
AcDbEntity
  8
1
370
    50
100
AcDbLine
 10
57.741193
 20
-119.485941
 30
0.0
 11
57.741193
 21
-129.985941
 31
0.0
  0
LINE
  5
46
100
AcDbEntity
  8
1
370
    50
100
AcDbLine
 10
68.741193
 20
-119.485941
 30
0.0
 11
68.741193
 21
-129.985941
 31
0.0
  0
LINE
  5
47
100
AcDbEntity
  8
1
370
    50
100
AcDbLine
 10
157.491193
 20
-138.985941
 30
0.0
 11
157.491193
 21
-108.985941
 31
0.0
  0
TEXT
  5
48
100
AcDbEntity
  8
1
370
    50
100
AcDbText
 10
172.549065
 20
-128.050147
 30
0.0
 40
3.0
  1
　　・　　・
 72
     5
 11
189.949065
 21
-128.050147
 31
0.0
100
AcDbText
  0
LINE
  5
49
100
AcDbEntity
  8
1
370
   100
100
AcDbLine
 10
20.491193
 20
-108.985941
 30
0.0
 11
20.491193
 21
-138.985941
 31
0.0
  0
TEXT
  5
4A
100
AcDbEntity
  8
1
370
    50
100
AcDbText
 10
145.416291
 20
-120.006746
 30
0.0
 40
3.0
  1
　／ 
 72
     5
 11
150.816291
 21
-120.006746
 31
0.0
100
AcDbText
  0
TEXT
  5
4B
100
AcDbEntity
  8
1
370
    50
100
AcDbText
 10
96.952061
 20
-136.012454
 30
0.0
 40
3.0
  1
備 考 
 72
     5
 11
103.852061
 21
-136.012454
 31
0.0
100
AcDbText
  0
TEXT
  5
4C
100
AcDbEntity
  8
1
370
    50
100
AcDbText
 10
96.756267
 20
-115.44592
 30
0.0
 40
3.0
  1
仕 上
 72
     5
 11
103.656267
 21
-115.44592
 31
0.0
100
AcDbText
  0
TEXT
  5
4D
100
AcDbEntity
  8
1
370
    50
100
AcDbText
 10
96.723588
 20
-124.445833
 30
0.0
 40
3.0
  1
表 面
 72
     5
 11
103.623588
 21
-124.445833
 31
0.0
100
AcDbText
  0
TEXT
  5
4E
100
AcDbEntity
  8
1
370
    50
100
AcDbText
 10
96.723588
 20
-127.945833
 30
0.0
 40
3.0
  1
処 理
 72
     5
 11
103.623588
 21
-127.945833
 31
0.0
100
AcDbText
  0
TEXT
  5
4F
100
AcDbEntity
  8
1
370
    50
100
AcDbText
 10
22.396675
 20
-115.8467
 30
0.0
 40
3.0
  1
品 名
 72
     5
 11
29.296675
 21
-115.8467
 31
0.0
100
AcDbText
  0
TEXT
  5
50
100
AcDbEntity
  8
1
370
    50
100
AcDbText
 10
22.198883
 20
-126.231267
 30
0.0
 40
3.0
  1
材 質
 72
     5
 11
29.098883
 21
-126.231267
 31
0.0
100
AcDbText
  0
TEXT
  5
51
100
AcDbEntity
  8
1
370
    50
100
AcDbText
 10
59.448883
 20
-126.231267
 30
0.0
 40
3.0
  1
規 格
 72
     5
 11
66.348883
 21
-126.231267
 31
0.0
100
AcDbText
  0
LINE
  5
52
100
AcDbEntity
  8
2
370
    50
100
AcDbLine
 10
163.72765
 20
49.647574
 30
0.0
 11
155.58968
 21
49.647574
 31
0.0
  0
LINE
  5
53
100
AcDbEntity
  8
2
370
    50
100
AcDbLine
 10
154.72868
 20
50.508574
 30
0.0
 11
154.72868
 21
62.647574
 31
0.0
  0
LINE
  5
54
100
AcDbEntity
  8
2
370
    50
100
AcDbLine
 10
154.72868
 20
62.647574
 30
0.0
 11
154.72868
 21
74.786595
 31
0.0
  0
LINE
  5
55
100
AcDbEntity
  8
2
370
    50
100
AcDbLine
 10
155.58968
 20
75.647595
 30
0.0
 11
154.72868
 21
74.786595
 31
0.0
  0
LINE
  5
56
100
AcDbEntity
  8
2
370
    50
100
AcDbLine
 10
155.58968
 20
49.647574
 30
0.0
 11
154.72868
 21
50.508574
 31
0.0
  0
LINE
  5
57
100
AcDbEntity
  8
2
370
    50
100
AcDbLine
 10
155.58968
 20
75.647595
 30
0.0
 11
163.72765
 21
75.647595
 31
0.0
  0
LINE
  5
58
100
AcDbEntity
  8
2
370
    50
100
AcDbLine
 10
162.86768
 20
49.647574
 30
0.0
 11
162.86768
 21
52.268574
 31
0.0
  0
LINE
  5
59
100
AcDbEntity
  8
2
370
    50
100
AcDbLine
 10
162.86768
 20
52.268574
 30
0.0
 11
155.58968
 21
52.268574
 31
0.0
  0
LINE
  5
5A
100
AcDbEntity
  8
2
370
    50
100
AcDbLine
 10
155.58968
 20
52.268574
 30
0.0
 11
155.58968
 21
49.647574
 31
0.0
  0
LINE
  5
5B
100
AcDbEntity
  8
2
370
    50
100
AcDbLine
 10
162.86768
 20
75.647595
 30
0.0
 11
162.86768
 21
73.02672
 31
0.0
  0
LINE
  5
5C
100
AcDbEntity
  8
2
370
    50
100
AcDbLine
 10
162.86768
 20
73.02672
 30
0.0
 11
155.58968
 21
73.02672
 31
0.0
  0
LINE
  5
5D
100
AcDbEntity
  8
2
370
    50
100
AcDbLine
 10
155.58968
 20
73.02672
 30
0.0
 11
155.58968
 21
75.647595
 31
0.0
  0
ELLIPSE
  5
5E
100
AcDbEntity
  8
2
370
    50
100
AcDbEllipse
 10
155.58968
 20
69.147663
 30
0.0
 11
0.0
 21
3.879057
 31
0.0
210
0.0
220
0.0
230
1.0
 40
0.221961
 41
0.0
 42
3.1415929999999999
  0
ELLIPSE
  5
5F
100
AcDbEntity
  8
2
370
    50
100
AcDbEllipse
 10
155.58968
 20
56.147631
 30
0.0
 11
0.0
 21
3.879057
 31
0.0
210
0.0
220
0.0
230
1.0
 40
0.221961
 41
0.0
 42
3.1415929999999999
  0
ELLIPSE
  5
60
100
AcDbEntity
  8
2
370
    50
100
AcDbEllipse
 10
162.86768
 20
56.147631
 30
0.0
 11
0.0
 21
3.879057
 31
0.0
210
0.0
220
0.0
230
1.0
 40
0.221961
 41
3.1415929999999999
 42
0.0
  0
ELLIPSE
  5
61
100
AcDbEntity
  8
2
370
    50
100
AcDbEllipse
 10
162.86768
 20
69.147663
 30
0.0
 11
0.0
 21
3.879057
 31
0.0
210
0.0
220
0.0
230
1.0
 40
0.221961
 41
3.1415929999999999
 42
0.0
  0
LINE
  5
62
100
AcDbEntity
  8
2
370
    50
100
AcDbLine
 10
155.58968
 20
65.268606
 30
0.0
 11
162.86768
 21
65.268606
 31
0.0
  0
LINE
  5
63
100
AcDbEntity
  8
2
370
    50
100
AcDbLine
 10
162.86768
 20
65.268606
 30
0.0
 11
162.86768
 21
60.026688
 31
0.0
  0
LINE
  5
64
100
AcDbEntity
  8
2
370
    50
100
AcDbLine
 10
162.86768
 20
60.026688
 30
0.0
 11
155.58968
 21
60.026688
 31
0.0
  0
ARC
  5
65
100
AcDbEntity
  8
2
370
    50
100
AcDbCircle
 10
128.75668
 20
62.647574
 30
0.0
 40
27.5
100
AcDbArc
 50
25.872096
 51
334.127904
  0
LINE
  5
66
100
AcDbEntity
  8
2
370
    50
100
AcDbLine
 10
155.58968
 20
65.268606
 30
0.0
 11
155.58968
 21
60.026688
 31
0.0
  0
LINE
  5
67
100
AcDbEntity
  8
2
370
    50
100
AcDbLine
 10
167.72868
 20
70.022097
 30
0.0
 11
163.72765
 21
75.647595
 31
0.0
  0
LINE
  5
68
100
AcDbEntity
  8
2
370
    50
100
AcDbLine
 10
167.72868
 20
55.273056
 30
0.0
 11
163.72765
 21
49.647574
 31
0.0
  0
CIRCLE
  5
69
100
AcDbEntity
  8
2
370
    50
100
AcDbCircle
 10
128.75668
 20
62.647574
 30
0.0
 40
5.65
  0
CIRCLE
  5
6A
100
AcDbEntity
  8
2
370
    50
100
AcDbCircle
 10
128.75668
 20
62.647574
 30
0.0
 40
6.35
  0
CIRCLE
  5
6B
100
AcDbEntity
  8
2
370
    50
100
AcDbCircle
 10
128.75668
 20
62.647574
 30
0.0
 40
10.911
  0
ARC
  5
6C
100
AcDbEntity
  8
2
370
    50
100
AcDbCircle
 10
128.75668
 20
62.647574
 30
0.0
 40
13.0
100
AcDbArc
 50
67.380135
 51
292.619865
  0
LINE
  5
6D
100
AcDbEntity
  8
2
370
    50
100
AcDbLine
 10
182.756484
 20
68.647574
 30
0.0
 11
182.756484
 21
62.647574
 31
0.0
  0
LINE
  5
6E
100
AcDbEntity
  8
2
370
    50
100
AcDbLine
 10
182.756484
 20
56.647574
 30
0.0
 11
182.756484
 21
62.647574
 31
0.0
  0
LINE
  5
6F
100
AcDbEntity
  8
2
370
    50
100
AcDbLine
 10
184.756484
 20
56.647574
 30
0.0
 11
182.756484
 21
56.647574
 31
0.0
  0
LINE
  5
70
100
AcDbEntity
  8
2
370
    50
100
AcDbLine
 10
184.756484
 20
61.847574
 30
0.0
 11
182.756484
 21
61.847574
 31
0.0
  0
LINE
  5
71
100
AcDbEntity
  8
2
370
    50
100
AcDbLine
 10
184.756484
 20
61.062574
 30
0.0
 11
182.756484
 21
61.062574
 31
0.0
  0
LINE
  5
72
100
AcDbEntity
  8
2
370
    50
100
AcDbLine
 10
184.756484
 20
60.305574
 30
0.0
 11
182.756484
 21
60.305574
 31
0.0
  0
LINE
  5
73
100
AcDbEntity
  8
2
370
    50
100
AcDbLine
 10
184.756484
 20
59.589574
 30
0.0
 11
182.756484
 21
59.589574
 31
0.0
  0
LINE
  5
74
100
AcDbEntity
  8
2
370
    50
100
AcDbLine
 10
184.756484
 20
58.928574
 30
0.0
 11
182.756484
 21
58.928574
 31
0.0
  0
LINE
  5
75
100
AcDbEntity
  8
2
370
    50
100
AcDbLine
 10
184.756484
 20
58.334574
 30
0.0
 11
182.756484
 21
58.334574
 31
0.0
  0
LINE
  5
76
100
AcDbEntity
  8
2
370
    50
100
AcDbLine
 10
184.756484
 20
57.816574
 30
0.0
 11
182.756484
 21
57.816574
 31
0.0
  0
LINE
  5
77
100
AcDbEntity
  8
2
370
    50
100
AcDbLine
 10
184.756484
 20
57.385574
 30
0.0
 11
182.756484
 21
57.385574
 31
0.0
  0
LINE
  5
78
100
AcDbEntity
  8
2
370
    50
100
AcDbLine
 10
184.756484
 20
57.048574
 30
0.0
 11
182.756484
 21
57.048574
 31
0.0
  0
LINE
  5
79
100
AcDbEntity
  8
2
370
    50
100
AcDbLine
 10
184.756484
 20
56.810574
 30
0.0
 11
182.756484
 21
56.810574
 31
0.0
  0
LINE
  5
7A
100
AcDbEntity
  8
2
370
    50
100
AcDbLine
 10
184.756484
 20
56.677574
 30
0.0
 11
182.756484
 21
56.677574
 31
0.0
  0
LINE
  5
7B
100
AcDbEntity
  8
2
370
    50
100
AcDbLine
 10
184.756484
 20
68.617574
 30
0.0
 11
182.756484
 21
68.617574
 31
0.0
  0
LINE
  5
7C
100
AcDbEntity
  8
2
370
    50
100
AcDbLine
 10
184.756484
 20
68.484574
 30
0.0
 11
182.756484
 21
68.484574
 31
0.0
  0
LINE
  5
7D
100
AcDbEntity
  8
2
370
    50
100
AcDbLine
 10
184.756484
 20
68.246574
 30
0.0
 11
182.756484
 21
68.246574
 31
0.0
  0
LINE
  5
7E
100
AcDbEntity
  8
2
370
    50
100
AcDbLine
 10
184.756484
 20
67.909574
 30
0.0
 11
182.756484
 21
67.909574
 31
0.0
  0
LINE
  5
7F
100
AcDbEntity
  8
2
370
    50
100
AcDbLine
 10
184.756484
 20
67.478574
 30
0.0
 11
182.756484
 21
67.478574
 31
0.0
  0
LINE
  5
80
100
AcDbEntity
  8
2
370
    50
100
AcDbLine
 10
184.756484
 20
66.960574
 30
0.0
 11
182.756484
 21
66.960574
 31
0.0
  0
LINE
  5
81
100
AcDbEntity
  8
2
370
    50
100
AcDbLine
 10
184.756484
 20
66.366574
 30
0.0
 11
182.756484
 21
66.366574
 31
0.0
  0
LINE
  5
82
100
AcDbEntity
  8
2
370
    50
100
AcDbLine
 10
184.756484
 20
65.705574
 30
0.0
 11
182.756484
 21
65.705574
 31
0.0
  0
LINE
  5
83
100
AcDbEntity
  8
2
370
    50
100
AcDbLine
 10
184.756484
 20
64.989574
 30
0.0
 11
182.756484
 21
64.989574
 31
0.0
  0
LINE
  5
84
100
AcDbEntity
  8
2
370
    50
100
AcDbLine
 10
184.756484
 20
64.232574
 30
0.0
 11
182.756484
 21
64.232574
 31
0.0
  0
LINE
  5
85
100
AcDbEntity
  8
2
370
    50
100
AcDbLine
 10
184.756484
 20
63.447574
 30
0.0
 11
182.756484
 21
63.447574
 31
0.0
  0
LINE
  5
86
100
AcDbEntity
  8
2
370
    50
100
AcDbLine
 10
184.756484
 20
68.647574
 30
0.0
 11
182.756484
 21
68.647574
 31
0.0
  0
LINE
  5
87
100
AcDbEntity
  8
2
370
    50
100
AcDbLine
 10
184.756484
 20
62.647574
 30
0.0
 11
182.756484
 21
62.647574
 31
0.0
  0
LINE
  5
88
100
AcDbEntity
  8
2
370
    50
100
AcDbLine
 10
184.756484
 20
68.647574
 30
0.0
 11
184.756484
 21
62.647574
 31
0.0
  0
LINE
  5
89
100
AcDbEntity
  8
2
370
    50
100
AcDbLine
 10
184.756484
 20
56.647574
 30
0.0
 11
184.756484
 21
62.647574
 31
0.0
  0
ARC
  5
8A
100
AcDbEntity
  8
2
370
    50
100
AcDbCircle
 10
167.256484
 20
62.647574
 30
0.0
 40
18.5
100
AcDbArc
 50
0.0
 51
18.924
  0
ARC
  5
8B
100
AcDbEntity
  8
2
370
    50
100
AcDbCircle
 10
167.256484
 20
62.647574
 30
0.0
 40
18.5
100
AcDbArc
 50
341.075
 51
360.0
  0
LINE
  5
8C
100
AcDbEntity
  8
2
370
    50
100
AcDbLine
 10
167.72868
 20
62.647574
 30
0.0
 11
167.72868
 21
55.273056
 31
0.0
  0
LINE
  5
8D
100
AcDbEntity
  8
2
370
    50
100
AcDbLine
 10
167.72868
 20
62.647574
 30
0.0
 11
167.72868
 21
70.022097
 31
0.0
  0
LINE
  5
8E
100
AcDbEntity
  8
2
370
    50
100
AcDbLine
 10
167.72868
 20
67.397574
 30
0.0
 11
172.45668
 21
67.397574
 31
0.0
  0
LINE
  5
8F
100
AcDbEntity
  8
2
370
    50
100
AcDbLine
 10
167.72868
 20
57.897574
 30
0.0
 11
172.45668
 21
57.897574
 31
0.0
  0
LINE
  5
90
100
AcDbEntity
  8
2
370
    50
100
AcDbLine
 10
182.756481
 20
54.74744
 30
0.0
 11
182.756481
 21
54.647574
 31
0.0
  0
LINE
  5
91
100
AcDbEntity
  8
2
370
    50
100
AcDbLine
 10
172.45668
 20
34.996959
 30
0.0
 11
172.45668
 21
62.647574
 31
0.0
  0
LINE
  5
92
100
AcDbEntity
  8
2
370
    50
100
AcDbLine
 10
181.799417
 20
40.730326
 30
0.0
 11
182.756481
 21
54.647574
 31
0.0
  0
LINE
  5
93
100
AcDbEntity
  8
2
370
    50
100
AcDbLine
 10
176.085732
 20
35.148139
 30
0.0
 11
172.45668
 21
34.983345
 31
0.0
  0
ARC
  5
94
100
AcDbEntity
  8
2
370
    50
100
AcDbCircle
 10
175.813554
 20
41.141963
 30
0.0
 40
6.0
100
AcDbArc
 50
272.6
 51
356.066065
  0
ARC
  5
95
100
AcDbEntity
  8
2
370
    50
100
AcDbCircle
 10
175.813554
 20
84.153186
 30
0.0
 40
6.0
100
AcDbArc
 50
3.933935
 51
87.4
  0
LINE
  5
96
100
AcDbEntity
  8
2
370
    50
100
AcDbLine
 10
176.085732
 20
90.147009
 30
0.0
 11
172.45668
 21
90.311803
 31
0.0
  0
LINE
  5
97
100
AcDbEntity
  8
2
370
    50
100
AcDbLine
 10
181.799417
 20
84.564823
 30
0.0
 11
182.756481
 21
70.647574
 31
0.0
  0
LINE
  5
98
100
AcDbEntity
  8
2
370
    50
100
AcDbLine
 10
172.45668
 20
90.298189
 30
0.0
 11
172.45668
 21
62.647574
 31
0.0
  0
LINE
  5
99
100
AcDbEntity
  8
2
370
    50
100
AcDbLine
 10
182.756481
 20
70.547708
 30
0.0
 11
182.756481
 21
70.647574
 31
0.0
  0
LINE
  5
9A
100
AcDbEntity
  8
2
370
    50
100
AcDbLine
 10
182.756484
 20
70.647574
 30
0.0
 11
182.756484
 21
54.647574
 31
0.0
  0
LINE
  5
9B
100
AcDbEntity
  8
2
370
    50
100
AcDbLine
 10
182.756484
 20
69.347574
 30
0.0
 11
182.756484
 21
62.647574
 31
0.0
  0
LINE
  5
9C
100
AcDbEntity
  8
2
370
    50
100
AcDbLine
 10
182.756484
 20
55.947574
 30
0.0
 11
182.756484
 21
62.647574
 31
0.0
  0
LINE
  5
9D
100
AcDbEntity
  8
2
370
    50
100
AcDbLine
 10
154.72868
 20
74.647574
 30
0.0
 11
133.75668
 21
74.647574
 31
0.0
  0
LINE
  5
9E
100
AcDbEntity
  8
2
370
    50
100
AcDbLine
 10
154.72868
 20
50.647574
 30
0.0
 11
133.75668
 21
50.647574
 31
0.0
  0
LINE
  5
9F
100
AcDbEntity
  8
2
370
    50
100
AcDbLine
 10
154.72868
 20
51.460574
 30
0.0
 11
154.16468
 21
51.460574
 31
0.0
  0
LINE
  5
A0
100
AcDbEntity
  8
2
370
    50
100
AcDbLine
 10
154.16468
 20
51.460574
 30
0.0
 11
152.75668
 21
50.647574
 31
0.0
  0
LINE
  5
A1
100
AcDbEntity
  8
2
370
    50
100
AcDbLine
 10
154.16468
 20
62.647574
 30
0.0
 11
154.16468
 21
50.647574
 31
0.0
  0
LINE
  5
A2
100
AcDbEntity
  8
2
370
    50
100
AcDbLine
 10
154.72868
 20
73.834574
 30
0.0
 11
154.16468
 21
73.834574
 31
0.0
  0
LINE
  5
A3
100
AcDbEntity
  8
2
370
    50
100
AcDbLine
 10
154.16468
 20
62.647574
 30
0.0
 11
154.16468
 21
74.647574
 31
0.0
  0
LINE
  5
A4
100
AcDbEntity
  8
2
370
    50
100
AcDbLine
 10
154.16468
 20
73.834574
 30
0.0
 11
152.75668
 21
74.647574
 31
0.0
  0
LINE
  5
A5
100
AcDbEntity
  8
2
370
    50
100
AcDbLine
 10
121.39568
 20
49.897574
 30
0.0
 11
118.984306
 21
54.074319
 31
0.0
  0
LINE
  5
A6
100
AcDbEntity
  8
2
370
    50
100
AcDbLine
 10
116.44573
 20
58.471391
 30
0.0
 11
114.03468
 21
62.647574
 31
0.0
  0
LINE
  5
A7
100
AcDbEntity
  8
2
370
    50
100
AcDbLine
 10
121.39568
 20
75.397574
 30
0.0
 11
118.984306
 21
71.22083
 31
0.0
  0
LINE
  5
A8
100
AcDbEntity
  8
2
370
    50
100
AcDbLine
 10
116.44573
 20
66.823758
 30
0.0
 11
114.03468
 21
62.647574
 31
0.0
  0
LINE
  5
A9
100
AcDbEntity
  8
2
370
    50
100
AcDbLine
 10
136.11768
 20
75.397574
 30
0.0
 11
136.55068
 21
74.647574
 31
0.0
  0
LINE
  5
AA
100
AcDbEntity
  8
2
370
    50
100
AcDbLine
 10
136.11768
 20
49.897574
 30
0.0
 11
136.55068
 21
50.647574
 31
0.0
  0
LINE
  5
AB
100
AcDbEntity
  8
2
370
    50
100
AcDbLine
 10
136.11768
 20
75.397574
 30
0.0
 11
131.293903
 21
75.397574
 31
0.0
  0
LINE
  5
AC
100
AcDbEntity
  8
2
370
    50
100
AcDbLine
 10
126.219457
 20
75.397574
 30
0.0
 11
121.39568
 21
75.397574
 31
0.0
  0
LINE
  5
AD
100
AcDbEntity
  8
2
370
    50
100
AcDbLine
 10
136.11768
 20
49.897574
 30
0.0
 11
131.293903
 21
49.897574
 31
0.0
  0
LINE
  5
AE
100
AcDbEntity
  8
2
370
    50
100
AcDbLine
 10
126.219457
 20
49.897574
 30
0.0
 11
121.39568
 21
49.897574
 31
0.0
  0
ARC
  5
AF
100
AcDbEntity
  8
2
370
    50
100
AcDbCircle
 10
128.75668
 20
62.647574
 30
0.0
 40
12.6
100
AcDbArc
 50
114.119
 51
125.881
  0
ARC
  5
B0
100
AcDbEntity
  8
2
370
    50
100
AcDbCircle
 10
128.75668
 20
62.647574
 30
0.0
 40
12.6
100
AcDbArc
 50
174.119
 51
185.881
  0
ARC
  5
B1
100
AcDbEntity
  8
2
370
    50
100
AcDbCircle
 10
128.75668
 20
62.647574
 30
0.0
 40
12.6
100
AcDbArc
 50
234.119
 51
245.881
  0
LINE
  5
B2
100
AcDbEntity
  8
2
370
    50
100
AcDbLine
 10
116.22268
 20
63.938574
 30
0.0
 11
121.37168
 21
72.856574
 31
0.0
  0
LINE
  5
B3
100
AcDbEntity
  8
2
370
    50
100
AcDbLine
 10
121.37168
 20
52.438574
 30
0.0
 11
116.22268
 21
61.356574
 31
0.0
  0
LINE
  5
B4
100
AcDbEntity
  8
2
370
    50
100
AcDbLine
 10
128.75668
 20
51.147574
 30
0.0
 11
123.60768
 21
51.147574
 31
0.0
  0
LINE
  5
B5
100
AcDbEntity
  8
2
370
    50
100
AcDbLine
 10
128.75668
 20
74.147574
 30
0.0
 11
123.60768
 21
74.147574
 31
0.0
  0
LINE
  5
B6
100
AcDbEntity
  8
2
370
    50
100
AcDbLine
 10
128.75668
 20
74.147574
 30
0.0
 11
133.90568
 21
74.147574
 31
0.0
  0
LINE
  5
B7
100
AcDbEntity
  8
2
370
    50
100
AcDbLine
 10
128.75668
 20
51.147574
 30
0.0
 11
133.90568
 21
51.147574
 31
0.0
  0
LINE
  5
B8
100
AcDbEntity
  8
2
370
    50
100
AcDbLine
 10
136.14168
 20
52.438574
 30
0.0
 11
141.290588
 21
61.356415
 31
0.0
  0
LINE
  5
B9
100
AcDbEntity
  8
2
370
    50
100
AcDbLine
 10
141.290588
 20
63.938733
 30
0.0
 11
136.14168
 21
72.856574
 31
0.0
  0
ARC
  5
BA
100
AcDbEntity
  8
2
370
    50
100
AcDbCircle
 10
128.75668
 20
62.647574
 30
0.0
 40
12.6
100
AcDbArc
 50
294.119
 51
305.881
  0
ARC
  5
BB
100
AcDbEntity
  8
2
370
    50
100
AcDbCircle
 10
128.75668
 20
62.647574
 30
0.0
 40
12.6
100
AcDbArc
 50
54.119
 51
65.881
  0
ARC
  5
BC
100
AcDbEntity
  8
2
370
    50
100
AcDbCircle
 10
128.75668
 20
62.647574
 30
0.0
 40
12.6
100
AcDbArc
 50
354.119
 51
5.881
  0
POINT
  5
BD
100
AcDbEntity
  8
2
370
    50
100
AcDbPoint
 10
-58.747711
 20
84.467987
 30
0.0
  0
TEXT
  5
BE
100
AcDbEntity
  8
2
370
    50
100
AcDbText
 10
20.672289
 20
-52.032013
 30
0.0
 40
1.0
  1
　
 50
90.0
 72
     5
 11
20.672289
 21
-52.232013
 31
0.0
100
AcDbText
  0
TEXT
  5
BF
100
AcDbEntity
  8
2
370
    50
100
AcDbText
 10
7.252289
 20
-64.032013
 30
0.0
 40
1.0
  1
　
 50
90.0
 72
     5
 11
7.252289
 21
-64.232013
 31
0.0
100
AcDbText
  0
ARC
  5
C0
100
AcDbEntity
  8
2
370
    50
100
AcDbCircle
 10
-82.725528
 20
-41.849905
 30
0.0
 40
1.823447
100
AcDbArc
 50
320.426968
 51
47.632607
  0
ARC
  5
C1
100
AcDbEntity
  8
2
370
    50
100
AcDbCircle
 10
-79.914454
 20
-44.1732
 30
0.0
 40
1.823447
100
AcDbArc
 50
140.426968
 51
184.029785
  0
ARC
  5
C2
100
AcDbEntity
  8
2
370
    50
100
AcDbCircle
 10
-79.914454
 20
-44.1732
 30
0.0
 40
1.823447
100
AcDbArc
 50
184.029785
 51
227.632607
  0
ARC
  5
C3
100
AcDbEntity
  8
2
370
    50
100
AcDbCircle
 10
-82.37203
 20
-46.867668
 30
0.0
 40
1.823447
100
AcDbArc
 50
4.029785
 51
47.632607
  0
ARC
  5
C4
100
AcDbEntity
  8
2
370
    50
100
AcDbCircle
 10
-82.37203
 20
-46.867668
 30
0.0
 40
1.823447
100
AcDbArc
 50
320.426968
 51
4.029785
  0
ARC
  5
C5
100
AcDbEntity
  8
2
370
    50
100
AcDbCircle
 10
-79.560956
 20
-49.190963
 30
0.0
 40
1.823447
100
AcDbArc
 50
140.426968
 51
184.029785
  0
ARC
  5
C6
100
AcDbEntity
  8
2
370
    50
100
AcDbCircle
 10
-79.560956
 20
-49.190963
 30
0.0
 40
1.823447
100
AcDbArc
 50
184.029785
 51
227.632607
  0
ARC
  5
C7
100
AcDbEntity
  8
2
370
    50
100
AcDbCircle
 10
-82.018533
 20
-51.88543
 30
0.0
 40
1.823447
100
AcDbArc
 50
4.029785
 51
47.632607
  0
ARC
  5
C8
100
AcDbEntity
  8
2
370
    50
100
AcDbCircle
 10
-82.018533
 20
-51.88543
 30
0.0
 40
1.823447
100
AcDbArc
 50
320.426968
 51
4.029785
  0
ARC
  5
C9
100
AcDbEntity
  8
2
370
    50
100
AcDbCircle
 10
-93.111834
 20
-46.322673
 30
0.0
 40
0.932098
100
AcDbArc
 50
127.447544
 51
214.653183
  0
ARC
  5
CA
100
AcDbEntity
  8
2
370
    50
100
AcDbCircle
 10
-94.24533
 20
-44.842669
 30
0.0
 40
0.932098
100
AcDbArc
 50
307.447544
 51
351.050362
  0
ARC
  5
CB
100
AcDbEntity
  8
2
370
    50
100
AcDbCircle
 10
-94.24533
 20
-44.842669
 30
0.0
 40
0.932098
100
AcDbArc
 50
351.050362
 51
34.653183
  0
ARC
  5
CC
100
AcDbEntity
  8
2
370
    50
100
AcDbCircle
 10
-92.711826
 20
-43.782673
 30
0.0
 40
0.932098
100
AcDbArc
 50
171.050362
 51
214.653183
  0
ARC
  5
CD
100
AcDbEntity
  8
2
370
    50
100
AcDbCircle
 10
-92.711826
 20
-43.782673
 30
0.0
 40
0.932098
100
AcDbArc
 50
127.447544
 51
171.050362
  0
ARC
  5
CE
100
AcDbEntity
  8
2
370
    50
100
AcDbCircle
 10
-93.845322
 20
-42.302669
 30
0.0
 40
0.932098
100
AcDbArc
 50
307.447544
 51
351.050362
  0
ARC
  5
CF
100
AcDbEntity
  8
2
370
    50
100
AcDbCircle
 10
-93.845322
 20
-42.302669
 30
0.0
 40
0.932098
100
AcDbArc
 50
351.050362
 51
34.653183
  0
ARC
  5
D0
100
AcDbEntity
  8
2
370
    50
100
AcDbCircle
 10
-92.311818
 20
-41.242673
 30
0.0
 40
0.932098
100
AcDbArc
 50
171.050362
 51
214.653183
  0
ARC
  5
D1
100
AcDbEntity
  8
2
370
    50
100
AcDbCircle
 10
-92.311818
 20
-41.242673
 30
0.0
 40
0.932098
100
AcDbArc
 50
127.447544
 51
171.050362
  0
ARC
  5
D2
100
AcDbEntity
  8
2
370
    50
100
AcDbCircle
 10
46.731357
 20
-57.502671
 30
0.0
 40
13.0
100
AcDbArc
 50
203.556464
 51
270.0
  0
ARC
  5
D3
100
AcDbEntity
  8
2
370
    50
100
AcDbCircle
 10
57.731357
 20
-52.706839
 30
0.0
 40
25.0
100
AcDbArc
 50
180.0
 51
203.556464
  0
ARC
  5
D4
100
AcDbEntity
  8
2
370
    50
100
AcDbCircle
 10
46.731357
 20
-23.502671
 30
0.0
 40
13.0
100
AcDbArc
 50
90.0
 51
156.443536
  0
ARC
  5
D5
100
AcDbEntity
  8
2
370
    50
100
AcDbCircle
 10
57.731357
 20
-28.298502
 30
0.0
 40
25.0
100
AcDbArc
 50
156.443536
 51
180.0
  0
ELLIPSE
  5
D6
100
AcDbEntity
  8
2
370
    50
100
AcDbEllipse
 10
-28.042903
 20
-40.502671
 30
0.0
 11
0.0
 21
7.3609999999999998
 31
0.0
210
0.0
220
0.0
230
1.0
 40
0.154258
 41
0.0
 42
1.5707960000000001
  0
ELLIPSE
  5
D7
100
AcDbEntity
  8
2
370
    50
100
AcDbEllipse
 10
-19.17789
 20
-40.502671
 30
0.0
 11
0.0
 21
7.3609999999999998
 31
0.0
210
0.0
220
0.0
230
1.0
 40
0.154258
 41
4.7123889999999999
 42
0.0
  0
LINE
  5
D8
100
AcDbEntity
  8
2
370
    50
100
AcDbLine
 10
-28.042903
 20
-33.141671
 30
0.0
 11
-19.181454
 21
-33.141671
 31
0.0
  0
ELLIPSE
  5
D9
100
AcDbEntity
  8
2
370
    50
100
AcDbEllipse
 10
-28.042803
 20
-29.461171
 30
0.0
 11
-0.0001
 21
-3.6804999999999999
 31
0.0
210
0.0
220
0.0
230
1.0
 40
0.308543
 41
3.6682709999999998
 42
0.000017
  0
ELLIPSE
  5
DA
100
AcDbEntity
  8
2
370
    50
100
AcDbEllipse
 10
-19.177989
 20
-29.461171
 30
0.0
 11
0.0001
 21
-3.6804999999999999
 31
0.0
210
0.0
220
0.0
230
1.0
 40
0.308543
 41
6.283169
 42
2.1571120000000001
  0
LINE
  5
DB
100
AcDbEntity
  8
2
370
    50
100
AcDbLine
 10
65.794604
 20
-50.761671
 30
0.0
 11
65.794604
 21
-30.243671
 31
0.0
  0
CIRCLE
  5
DC
100
AcDbEntity
  8
2
370
    50
100
AcDbCircle
 10
-53.042396
 20
62.647943
 30
0.0
 40
5.999803
  0
LINE
  5
DD
100
AcDbEntity
  8
2
370
    50
100
AcDbLine
 10
-87.742396
 20
52.147939
 30
0.0
 11
-87.742396
 21
73.147943
 31
0.0
  0
LINE
  5
DE
100
AcDbEntity
  8
2
370
    50
100
AcDbLine
 10
-86.742396
 20
74.147943
 30
0.0
 11
-76.742396
 21
74.147943
 31
0.0
  0
LINE
  5
DF
100
AcDbEntity
  8
2
370
    50
100
AcDbLine
 10
-87.742396
 20
73.147943
 30
0.0
 11
-86.742396
 21
74.147943
 31
0.0
  0
LINE
  5
E0
100
AcDbEntity
  8
2
370
    50
100
AcDbLine
 10
-75.742396
 20
73.147943
 30
0.0
 11
-75.742396
 21
69.568509
 31
0.0
  0
LINE
  5
E1
100
AcDbEntity
  8
2
370
    50
100
AcDbLine
 10
-75.742396
 20
55.719823
 30
0.0
 11
-75.742396
 21
52.147939
 31
0.0
  0
LINE
  5
E2
100
AcDbEntity
  8
2
370
    50
100
AcDbLine
 10
-76.742396
 20
51.147939
 30
0.0
 11
-75.742396
 21
52.147939
 31
0.0
  0
LINE
  5
E3
100
AcDbEntity
  8
2
370
    50
100
AcDbLine
 10
-76.742396
 20
74.147943
 30
0.0
 11
-75.742396
 21
73.147943
 31
0.0
  0
LINE
  5
E4
100
AcDbEntity
  8
2
370
    50
100
AcDbLine
 10
-76.742396
 20
51.147939
 30
0.0
 11
-86.742396
 21
51.147939
 31
0.0
  0
LINE
  5
E5
100
AcDbEntity
  8
2
370
    50
100
AcDbLine
 10
-87.742396
 20
52.147939
 30
0.0
 11
-86.742396
 21
51.147939
 31
0.0
  0
ELLIPSE
  5
E6
100
AcDbEntity
  8
2
370
    50
100
AcDbEllipse
 10
-81.742396
 20
56.897943
 30
0.0
 11
4.9080000000000004
 21
0.0
 31
0.0
210
0.0
220
0.0
230
1.0
 40
0.908517
 41
2.002602
 42
6.0954309999999996
  0
ELLIPSE
  5
E7
100
AcDbEntity
  8
2
370
    50
100
AcDbEllipse
 10
-81.742396
 20
68.397783
 30
0.0
 11
4.9080000000000004
 21
0.0
 31
0.0
210
0.0
220
0.0
230
1.0
 40
0.908517
 41
0.185995
 42
4.2805780000000002
  0
ARC
  5
E8
100
AcDbEntity
  8
2
370
    50
100
AcDbCircle
 10
46.731357
 20
45.647943
 30
0.0
 40
13.0
100
AcDbArc
 50
203.556464
 51
270.0
  0
ARC
  5
E9
100
AcDbEntity
  8
2
370
    50
100
AcDbCircle
 10
57.731357
 20
50.443775
 30
0.0
 40
25.0
100
AcDbArc
 50
180.0
 51
203.556464
  0
ARC
  5
EA
100
AcDbEntity
  8
2
370
    50
100
AcDbCircle
 10
46.731357
 20
79.647943
 30
0.0
 40
13.0
100
AcDbArc
 50
90.0
 51
156.443536
  0
ARC
  5
EB
100
AcDbEntity
  8
2
370
    50
100
AcDbCircle
 10
57.731357
 20
74.852112
 30
0.0
 40
25.0
100
AcDbArc
 50
156.443536
 51
180.0
  0
LINE
  5
EC
100
AcDbEntity
  8
2
370
    50
100
AcDbLine
 10
65.794604
 20
52.388943
 30
0.0
 11
65.794604
 21
72.906943
 31
0.0
  0
LINE
  5
ED
100
AcDbEntity
  8
2
370
    50
100
AcDbLine
 10
-28.042535
 20
62.647779
 30
0.0
 11
-19.181147
 21
62.648081
 31
0.0
  0
ELLIPSE
  5
EE
100
AcDbEntity
  8
2
370
    50
100
AcDbEllipse
 10
-28.042903
 20
-40.502671
 30
0.0
 11
0.000001
 21
-7.3609999999999998
 31
0.0
210
0.0
220
0.0
230
1.0
 40
0.154258
 41
4.7123889999999999
 42
0.0
  0
ELLIPSE
  5
EF
100
AcDbEntity
  8
2
370
    50
100
AcDbEllipse
 10
-19.17789
 20
-40.502671
 30
0.0
 11
0.000001
 21
-7.3609999999999998
 31
0.0
210
0.0
220
0.0
230
1.0
 40
0.154258
 41
0.0
 42
1.5707960000000001
  0
LINE
  5
F0
100
AcDbEntity
  8
2
370
    50
100
AcDbLine
 10
-28.042903
 20
-47.863671
 30
0.0
 11
-19.181454
 21
-47.863671
 31
0.0
  0
ELLIPSE
  5
F1
100
AcDbEntity
  8
2
370
    50
100
AcDbEllipse
 10
-28.042803
 20
-51.544171
 30
0.0
 11
-0.000099
 21
3.6804999999999999
 31
0.0
210
0.0
220
0.0
230
1.0
 40
0.308543
 41
6.283169
 42
2.6149140000000002
  0
ELLIPSE
  5
F2
100
AcDbEntity
  8
2
370
    50
100
AcDbEllipse
 10
-19.177989
 20
-51.544171
 30
0.0
 11
0.000099
 21
3.6804999999999999
 31
0.0
210
0.0
220
0.0
230
1.0
 40
0.308543
 41
4.1260729999999999
 42
0.000017
  0
LINE
  5
F3
100
AcDbEntity
  8
2
370
    50
100
AcDbLine
 10
-18.042396
 20
-40.502671
 30
0.0
 11
-18.042396
 21
-27.752671
 31
0.0
  0
LINE
  5
F4
100
AcDbEntity
  8
2
370
    50
100
AcDbLine
 10
-18.042396
 20
-53.252671
 30
0.0
 11
-18.042396
 21
-40.502671
 31
0.0
  0
LINE
  5
F5
100
AcDbEntity
  8
2
370
    50
100
AcDbLine
 10
-80.553588
 20
-47.002671
 30
0.0
 11
-83.042396
 21
-47.002671
 31
0.0
  0
ARC
  5
F6
100
AcDbEntity
  8
2
370
    50
100
AcDbCircle
 10
-53.042396
 20
-20.002671
 30
0.0
 40
33.5
100
AcDbArc
 50
247.624
 51
284.593
  0
LINE
  5
F7
100
AcDbEntity
  8
2
370
    50
100
AcDbLine
 10
-37.331396
 20
-52.002671
 30
0.0
 11
-41.327396
 21
-52.002671
 31
0.0
  0
ARC
  5
F8
100
AcDbEntity
  8
2
370
    50
100
AcDbCircle
 10
-37.331396
 20
-67.002671
 30
0.0
 40
15.0
100
AcDbArc
 50
51.737
 51
90.0
  0
ARC
  5
F9
100
AcDbEntity
  8
2
370
    50
100
AcDbCircle
 10
-41.327396
 20
-65.002671
 30
0.0
 40
13.0
100
AcDbArc
 50
90.0
 51
104.593
  0
LINE
  5
FA
100
AcDbEntity
  8
2
370
    50
100
AcDbLine
 10
-28.042396
 20
-55.224671
 30
0.0
 11
-19.181396
 21
-55.224671
 31
0.0
  0
LINE
  5
FB
100
AcDbEntity
  8
2
370
    50
100
AcDbLine
 10
-65.795396
 20
-50.979671
 30
0.0
 11
-75.742396
 21
-50.979671
 31
0.0
  0
LINE
  5
FC
100
AcDbEntity
  8
2
370
    50
100
AcDbLine
 10
-28.042396
 20
-25.780671
 30
0.0
 11
-19.181396
 21
-25.780671
 31
0.0
  0
ARC
  5
FD
100
AcDbEntity
  8
2
370
    50
100
AcDbCircle
 10
-36.226396
 20
-17.003671
 30
0.0
 40
12.0
100
AcDbArc
 50
271.508
 51
313.002
  0
LINE
  5
FE
100
AcDbEntity
  8
2
370
    50
100
AcDbLine
 10
-41.042396
 20
-24.002671
 30
0.0
 11
-41.042396
 21
-14.530671
 31
0.0
  0
ARC
  5
FF
100
AcDbEntity
  8
2
370
    50
100
AcDbCircle
 10
-36.042396
 20
-24.002671
 30
0.0
 40
5.0
100
AcDbArc
 50
180.001
 51
270.001
  0
LINE
  5
100
100
AcDbEntity
  8
2
370
    50
100
AcDbLine
 10
-19.181396
 20
-25.780671
 30
0.0
 11
-18.042396
 21
-27.752671
 31
0.0
  0
LINE
  5
101
100
AcDbEntity
  8
2
370
    50
100
AcDbLine
 10
-19.181396
 20
-55.224671
 30
0.0
 11
-18.042396
 21
-53.252671
 31
0.0
  0
LINE
  5
102
100
AcDbEntity
  8
2
370
    50
100
AcDbLine
 10
-65.042396
 20
-27.025671
 30
0.0
 11
-65.042396
 21
-14.530671
 31
0.0
  0
LINE
  5
103
100
AcDbEntity
  8
2
370
    50
100
AcDbLine
 10
-68.042396
 20
-30.025671
 30
0.0
 11
-75.742396
 21
-30.025671
 31
0.0
  0
ARC
  5
104
100
AcDbEntity
  8
2
370
    50
100
AcDbCircle
 10
-68.042396
 20
-27.025671
 30
0.0
 40
3.0
100
AcDbArc
 50
270.001
 51
360.0
  0
LINE
  5
105
100
AcDbEntity
  8
2
370
    50
100
AcDbLine
 10
-73.042396
 20
-40.502671
 30
0.0
 11
-73.042396
 21
-30.025671
 31
0.0
  0
LINE
  5
106
100
AcDbEntity
  8
2
370
    50
100
AcDbLine
 10
-73.042396
 20
-31.187671
 30
0.0
 11
-71.029396
 21
-30.025671
 31
0.0
  0
LINE
  5
107
100
AcDbEntity
  8
2
370
    50
100
AcDbLine
 10
-75.742396
 20
-31.187671
 30
0.0
 11
-73.042396
 21
-31.187671
 31
0.0
  0
LINE
  5
108
100
AcDbEntity
  8
2
370
    50
100
AcDbLine
 10
-73.042396
 20
-49.817671
 30
0.0
 11
-71.029396
 21
-50.979671
 31
0.0
  0
LINE
  5
109
100
AcDbEntity
  8
2
370
    50
100
AcDbLine
 10
-83.042396
 20
-49.817671
 30
0.0
 11
-81.273322
 21
-49.817671
 31
0.0
  0
LINE
  5
10A
100
AcDbEntity
  8
2
370
    50
100
AcDbLine
 10
-73.042396
 20
-50.979671
 30
0.0
 11
-73.042396
 21
-40.502671
 31
0.0
  0
LINE
  5
10B
100
AcDbEntity
  8
2
370
    50
100
AcDbLine
 10
-81.880396
 20
-50.979671
 30
0.0
 11
-83.042396
 21
-49.817671
 31
0.0
  0
LINE
  5
10C
100
AcDbEntity
  8
2
370
    50
100
AcDbLine
 10
-53.042396
 20
-15.094671
 30
0.0
 11
-41.042396
 21
-15.094671
 31
0.0
  0
LINE
  5
10D
100
AcDbEntity
  8
2
370
    50
100
AcDbLine
 10
-41.855396
 20
-15.094671
 30
0.0
 11
-41.042396
 21
-16.502671
 31
0.0
  0
LINE
  5
10E
100
AcDbEntity
  8
2
370
    50
100
AcDbLine
 10
-41.855396
 20
-14.530671
 30
0.0
 11
-41.855396
 21
-15.094671
 31
0.0
  0
LINE
  5
10F
100
AcDbEntity
  8
2
370
    50
100
AcDbLine
 10
-65.042396
 20
-15.094671
 30
0.0
 11
-53.042396
 21
-15.094671
 31
0.0
  0
LINE
  5
110
100
AcDbEntity
  8
2
370
    50
100
AcDbLine
 10
-64.229396
 20
-15.094671
 30
0.0
 11
-65.042396
 21
-16.502671
 31
0.0
  0
LINE
  5
111
100
AcDbEntity
  8
2
370
    50
100
AcDbLine
 10
-64.229396
 20
-14.530671
 30
0.0
 11
-64.229396
 21
-15.094671
 31
0.0
  0
LINE
  5
112
100
AcDbEntity
  8
2
370
    50
100
AcDbLine
 10
-83.042396
 20
-40.502671
 30
0.0
 11
-83.042396
 21
-49.817671
 31
0.0
  0
LINE
  5
113
100
AcDbEntity
  8
2
370
    50
100
AcDbLine
 10
-75.742396
 20
-49.817671
 30
0.0
 11
-73.042396
 21
-49.817671
 31
0.0
  0
LINE
  5
114
100
AcDbEntity
  8
2
370
    50
100
AcDbLine
 10
-80.435953
 20
-50.979671
 30
0.0
 11
-81.880396
 21
-50.979671
 31
0.0
  0
LINE
  5
115
100
AcDbEntity
  8
2
370
    50
100
AcDbLine
 10
-94.028298
 20
-46.152671
 30
0.0
 11
-85.042396
 21
-46.152671
 31
0.0
  0
LINE
  5
116
100
AcDbEntity
  8
2
370
    50
100
AcDbLine
 10
-85.742396
 20
-49.252671
 30
0.0
 11
-85.742396
 21
-46.852671
 31
0.0
  0
LINE
  5
117
100
AcDbEntity
  8
2
370
    50
100
AcDbLine
 10
-85.742396
 20
-49.252671
 30
0.0
 11
-85.042396
 21
-49.252671
 31
0.0
  0
LINE
  5
118
100
AcDbEntity
  8
2
370
    50
100
AcDbLine
 10
-157.427396
 20
-34.152671
 30
0.0
 11
-157.427396
 21
-46.852671
 31
0.0
  0
LINE
  5
119
100
AcDbEntity
  8
2
370
    50
100
AcDbLine
 10
-85.742396
 20
-46.852671
 30
0.0
 11
-120.093396
 21
-46.852671
 31
0.0
  0
LINE
  5
11A
100
AcDbEntity
  8
2
370
    50
100
AcDbLine
 10
-122.965396
 20
-46.852671
 30
0.0
 11
-157.427396
 21
-46.852671
 31
0.0
  0
LINE
  5
11B
100
AcDbEntity
  8
2
370
    50
100
AcDbLine
 10
-87.742396
 20
-34.152671
 30
0.0
 11
-120.093396
 21
-34.152671
 31
0.0
  0
LINE
  5
11C
100
AcDbEntity
  8
2
370
    50
100
AcDbLine
 10
-122.965396
 20
-34.152671
 30
0.0
 11
-157.427396
 21
-34.152671
 31
0.0
  0
ARC
  5
11D
100
AcDbEntity
  8
2
370
    50
100
AcDbCircle
 10
-131.945396
 20
-37.327671
 30
0.0
 40
9.525
100
AcDbArc
 50
340.529
 51
19.471
  0
ARC
  5
11E
100
AcDbEntity
  8
2
370
    50
100
AcDbCircle
 10
-113.985396
 20
-43.677671
 30
0.0
 40
9.525
100
AcDbArc
 50
160.529
 51
199.471
  0
ARC
  5
11F
100
AcDbEntity
  8
2
370
    50
100
AcDbCircle
 10
-131.945396
 20
-43.677671
 30
0.0
 40
9.525
100
AcDbArc
 50
340.529
 51
19.471
  0
ARC
  5
120
100
AcDbEntity
  8
2
370
    50
100
AcDbCircle
 10
-111.113396
 20
-43.677671
 30
0.0
 40
9.525
100
AcDbArc
 50
160.529
 51
199.471
  0
ARC
  5
121
100
AcDbEntity
  8
2
370
    50
100
AcDbCircle
 10
-129.073396
 20
-37.327671
 30
0.0
 40
9.525
100
AcDbArc
 50
340.529
 51
19.471
  0
ARC
  5
122
100
AcDbEntity
  8
2
370
    50
100
AcDbCircle
 10
-111.113396
 20
-37.327671
 30
0.0
 40
9.525
100
AcDbArc
 50
160.529
 51
199.471
  0
LINE
  5
123
100
AcDbEntity
  8
2
370
    50
100
AcDbLine
 10
-157.427396
 20
68.997943
 30
0.0
 11
-157.427396
 21
56.297943
 31
0.0
  0
ARC
  5
124
100
AcDbEntity
  8
2
370
    50
100
AcDbCircle
 10
-131.945396
 20
65.822943
 30
0.0
 40
9.525
100
AcDbArc
 50
340.529
 51
19.471
  0
ARC
  5
125
100
AcDbEntity
  8
2
370
    50
100
AcDbCircle
 10
-113.985396
 20
59.472943
 30
0.0
 40
9.525
100
AcDbArc
 50
160.529
 51
199.471
  0
ARC
  5
126
100
AcDbEntity
  8
2
370
    50
100
AcDbCircle
 10
-131.945396
 20
59.472943
 30
0.0
 40
9.525
100
AcDbArc
 50
340.529
 51
19.471
  0
ARC
  5
127
100
AcDbEntity
  8
2
370
    50
100
AcDbCircle
 10
-111.113396
 20
59.472943
 30
0.0
 40
9.525
100
AcDbArc
 50
160.529
 51
199.471
  0
ARC
  5
128
100
AcDbEntity
  8
2
370
    50
100
AcDbCircle
 10
-129.073396
 20
65.822943
 30
0.0
 40
9.525
100
AcDbArc
 50
340.529
 51
19.471
  0
ARC
  5
129
100
AcDbEntity
  8
2
370
    50
100
AcDbCircle
 10
-111.113396
 20
65.822943
 30
0.0
 40
9.525
100
AcDbArc
 50
160.529
 51
199.471
  0
LINE
  5
12A
100
AcDbEntity
  8
2
370
    50
100
AcDbLine
 10
-87.742396
 20
56.297943
 30
0.0
 11
-120.093396
 21
56.297943
 31
0.0
  0
LINE
  5
12B
100
AcDbEntity
  8
2
370
    50
100
AcDbLine
 10
-122.965396
 20
56.297943
 30
0.0
 11
-157.427396
 21
56.297943
 31
0.0
  0
LINE
  5
12C
100
AcDbEntity
  8
2
370
    50
100
AcDbLine
 10
-87.742396
 20
68.997943
 30
0.0
 11
-120.093396
 21
68.997943
 31
0.0
  0
LINE
  5
12D
100
AcDbEntity
  8
2
370
    50
100
AcDbLine
 10
-122.965396
 20
68.997943
 30
0.0
 11
-157.427396
 21
68.997943
 31
0.0
  0
LINE
  5
12E
100
AcDbEntity
  8
2
370
    50
100
AcDbLine
 10
-12.618396
 20
-30.102671
 30
0.0
 11
-14.202396
 21
-31.067671
 31
0.0
  0
LINE
  5
12F
100
AcDbEntity
  8
2
370
    50
100
AcDbLine
 10
-12.618396
 20
-50.902671
 30
0.0
 11
-14.202396
 21
-49.937671
 31
0.0
  0
LINE
  5
130
100
AcDbEntity
  8
2
370
    50
100
AcDbLine
 10
-14.202396
 20
-40.502671
 30
0.0
 11
-14.202396
 21
-51.099671
 31
0.0
  0
LINE
  5
131
100
AcDbEntity
  8
2
370
    50
100
AcDbLine
 10
-14.202396
 20
-51.099671
 30
0.0
 11
-18.042396
 21
-50.979914
 31
0.0
  0
LINE
  5
132
100
AcDbEntity
  8
2
370
    50
100
AcDbLine
 10
-14.202396
 20
-29.905671
 30
0.0
 11
-18.042396
 21
-30.025427
 31
0.0
  0
LINE
  5
133
100
AcDbEntity
  8
2
370
    50
100
AcDbLine
 10
-18.042396
 20
-31.187671
 30
0.0
 11
-14.202396
 21
-31.067671
 31
0.0
  0
LINE
  5
134
100
AcDbEntity
  8
2
370
    50
100
AcDbLine
 10
-18.042396
 20
-49.817671
 30
0.0
 11
-14.202396
 21
-49.937671
 31
0.0
  0
LINE
  5
135
100
AcDbEntity
  8
2
370
    50
100
AcDbLine
 10
-14.202396
 20
-40.502671
 30
0.0
 11
-14.202396
 21
-29.905671
 31
0.0
  0
LINE
  5
136
100
AcDbEntity
  8
2
370
    50
100
AcDbLine
 10
65.794604
 20
-30.243671
 30
0.0
 11
66.956604
 21
-31.442671
 31
0.0
  0
LINE
  5
137
100
AcDbEntity
  8
2
370
    50
100
AcDbLine
 10
66.956604
 20
-31.442671
 30
0.0
 11
66.956604
 21
-49.562671
 31
0.0
  0
LINE
  5
138
100
AcDbEntity
  8
2
370
    50
100
AcDbLine
 10
66.956604
 20
-49.562671
 30
0.0
 11
65.794604
 21
-50.761671
 31
0.0
  0
LINE
  5
139
100
AcDbEntity
  8
2
370
    25
100
AcDbLine
 10
66.956604
 20
-49.562671
 30
0.0
 11
54.957604
 21
-49.937671
 31
0.0
  0
LINE
  5
13A
100
AcDbEntity
  8
2
370
    25
100
AcDbLine
 10
66.956604
 20
-31.442671
 30
0.0
 11
54.957604
 21
-31.067671
 31
0.0
  0
LINE
  5
13B
100
AcDbEntity
  8
2
370
    50
100
AcDbLine
 10
54.957604
 20
-29.905671
 30
0.0
 11
65.794604
 21
-30.243671
 31
0.0
  0
LINE
  5
13C
100
AcDbEntity
  8
2
370
    50
100
AcDbLine
 10
54.957604
 20
-51.099671
 30
0.0
 11
65.794604
 21
-50.761671
 31
0.0
  0
LINE
  5
13D
100
AcDbEntity
  8
2
370
    50
100
AcDbLine
 10
54.957604
 20
-40.502671
 30
0.0
 11
54.957604
 21
-51.099671
 31
0.0
  0
LINE
  5
13E
100
AcDbEntity
  8
2
370
    50
100
AcDbLine
 10
53.372604
 20
-50.902671
 30
0.0
 11
54.957604
 21
-49.937671
 31
0.0
  0
LINE
  5
13F
100
AcDbEntity
  8
2
370
    50
100
AcDbLine
 10
53.372604
 20
-30.102671
 30
0.0
 11
54.957604
 21
-31.067671
 31
0.0
  0
LINE
  5
140
100
AcDbEntity
  8
2
370
    50
100
AcDbLine
 10
54.957604
 20
-40.502671
 30
0.0
 11
54.957604
 21
-29.905671
 31
0.0
  0
LINE
  5
141
100
AcDbEntity
  8
2
370
    50
100
AcDbLine
 10
48.731357
 20
-30.102671
 30
0.0
 11
54.957604
 21
-30.102671
 31
0.0
  0
LINE
  5
142
100
AcDbEntity
  8
2
370
    50
100
AcDbLine
 10
48.731357
 20
-50.902671
 30
0.0
 11
54.957604
 21
-50.902671
 31
0.0
  0
ARC
  5
143
100
AcDbEntity
  8
2
370
    50
100
AcDbCircle
 10
-5.643396
 20
-35.302671
 30
0.0
 40
15.6
100
AcDbArc
 50
340.529
 51
19.471
  0
ARC
  5
144
100
AcDbEntity
  8
2
370
    50
100
AcDbCircle
 10
23.772604
 20
-45.702671
 30
0.0
 40
15.6
100
AcDbArc
 50
160.529
 51
199.472
  0
ARC
  5
145
100
AcDbEntity
  8
2
370
    50
100
AcDbCircle
 10
-5.643396
 20
-45.702671
 30
0.0
 40
15.6
100
AcDbArc
 50
340.529
 51
19.471
  0
ARC
  5
146
100
AcDbEntity
  8
2
370
    50
100
AcDbCircle
 10
26.768604
 20
-45.702671
 30
0.0
 40
15.6
100
AcDbArc
 50
160.529
 51
199.472
  0
ARC
  5
147
100
AcDbEntity
  8
2
370
    50
100
AcDbCircle
 10
-2.646396
 20
-35.302671
 30
0.0
 40
15.6
100
AcDbArc
 50
340.529
 51
19.471
  0
ARC
  5
148
100
AcDbEntity
  8
2
370
    50
100
AcDbCircle
 10
26.768604
 20
-35.302671
 30
0.0
 40
15.6
100
AcDbArc
 50
160.529
 51
199.472
  0
LINE
  5
149
100
AcDbEntity
  8
2
370
    50
100
AcDbLine
 10
9.064604
 20
-50.902671
 30
0.0
 11
-14.202396
 21
-50.902671
 31
0.0
  0
LINE
  5
14A
100
AcDbEntity
  8
2
370
    50
100
AcDbLine
 10
9.064604
 20
-30.102671
 30
0.0
 11
-14.202396
 21
-30.102671
 31
0.0
  0
LINE
  5
14B
100
AcDbEntity
  8
2
370
    50
100
AcDbLine
 10
32.731357
 20
-50.902671
 30
0.0
 11
12.060604
 21
-50.902671
 31
0.0
  0
LINE
  5
14C
100
AcDbEntity
  8
2
370
    50
100
AcDbLine
 10
32.731357
 20
-30.102671
 30
0.0
 11
12.060604
 21
-30.102671
 31
0.0
  0
ARC
  5
14D
100
AcDbEntity
  8
2
370
    50
100
AcDbCircle
 10
-7.211938
 20
67.847887
 30
0.0
 40
15.6
100
AcDbArc
 50
340.529
 51
19.471
  0
ARC
  5
14E
100
AcDbEntity
  8
2
370
    50
100
AcDbCircle
 10
22.204062
 20
57.447887
 30
0.0
 40
15.6
100
AcDbArc
 50
160.529
 51
199.472
  0
ARC
  5
14F
100
AcDbEntity
  8
2
370
    50
100
AcDbCircle
 10
-7.211938
 20
57.447887
 30
0.0
 40
15.6
100
AcDbArc
 50
340.529
 51
19.471
  0
LINE
  5
150
100
AcDbEntity
  8
2
370
    50
100
AcDbLine
 10
65.794604
 20
72.906943
 30
0.0
 11
66.956604
 21
71.707943
 31
0.0
  0
LINE
  5
151
100
AcDbEntity
  8
2
370
    50
100
AcDbLine
 10
66.956604
 20
71.707943
 30
0.0
 11
66.956604
 21
53.587943
 31
0.0
  0
LINE
  5
152
100
AcDbEntity
  8
2
370
    50
100
AcDbLine
 10
66.956604
 20
53.587943
 30
0.0
 11
65.794604
 21
52.388943
 31
0.0
  0
LINE
  5
153
100
AcDbEntity
  8
2
370
    25
100
AcDbLine
 10
66.956604
 20
53.587943
 30
0.0
 11
54.957604
 21
53.212943
 31
0.0
  0
LINE
  5
154
100
AcDbEntity
  8
2
370
    25
100
AcDbLine
 10
66.956604
 20
71.707943
 30
0.0
 11
54.957604
 21
72.082943
 31
0.0
  0
LINE
  5
155
100
AcDbEntity
  8
2
370
    50
100
AcDbLine
 10
54.957604
 20
73.244943
 30
0.0
 11
65.794604
 21
72.906943
 31
0.0
  0
LINE
  5
156
100
AcDbEntity
  8
2
370
    50
100
AcDbLine
 10
54.957604
 20
52.050943
 30
0.0
 11
65.794604
 21
52.388943
 31
0.0
  0
LINE
  5
157
100
AcDbEntity
  8
2
370
    50
100
AcDbLine
 10
54.957604
 20
62.647943
 30
0.0
 11
54.957604
 21
52.050943
 31
0.0
  0
LINE
  5
158
100
AcDbEntity
  8
2
370
    50
100
AcDbLine
 10
53.372604
 20
52.247943
 30
0.0
 11
54.957604
 21
53.212943
 31
0.0
  0
LINE
  5
159
100
AcDbEntity
  8
2
370
    50
100
AcDbLine
 10
53.372604
 20
73.047943
 30
0.0
 11
54.957604
 21
72.082943
 31
0.0
  0
LINE
  5
15A
100
AcDbEntity
  8
2
370
    50
100
AcDbLine
 10
54.957604
 20
62.647943
 30
0.0
 11
54.957604
 21
73.244943
 31
0.0
  0
LINE
  5
15B
100
AcDbEntity
  8
2
370
    50
100
AcDbLine
 10
48.731357
 20
73.047943
 30
0.0
 11
54.957604
 21
73.047943
 31
0.0
  0
LINE
  5
15C
100
AcDbEntity
  8
2
370
    50
100
AcDbLine
 10
48.731357
 20
52.247943
 30
0.0
 11
54.957604
 21
52.247943
 31
0.0
  0
ARC
  5
15D
100
AcDbEntity
  8
2
370
    50
100
AcDbCircle
 10
26.768604
 20
57.447943
 30
0.0
 40
15.6
100
AcDbArc
 50
160.529
 51
199.472
  0
ARC
  5
15E
100
AcDbEntity
  8
2
370
    50
100
AcDbCircle
 10
-2.646396
 20
67.847943
 30
0.0
 40
15.6
100
AcDbArc
 50
340.529
 51
19.471
  0
ARC
  5
15F
100
AcDbEntity
  8
2
370
    50
100
AcDbCircle
 10
26.768604
 20
67.847943
 30
0.0
 40
15.6
100
AcDbArc
 50
160.529
 51
199.472
  0
LINE
  5
160
100
AcDbEntity
  8
2
370
    50
100
AcDbLine
 10
32.731357
 20
52.247943
 30
0.0
 11
12.060604
 21
52.247943
 31
0.0
  0
LINE
  5
161
100
AcDbEntity
  8
2
370
    50
100
AcDbLine
 10
32.731357
 20
73.047943
 30
0.0
 11
12.060604
 21
73.047943
 31
0.0
  0
ARC
  5
162
100
AcDbEntity
  8
2
370
    50
100
AcDbCircle
 10
-53.042396
 20
-2.002671
 30
0.0
 40
18.5
100
AcDbArc
 50
71.074
 51
89.999
  0
ARC
  5
163
100
AcDbEntity
  8
2
370
    50
100
AcDbCircle
 10
-53.042396
 20
-2.002671
 30
0.0
 40
18.5
100
AcDbArc
 50
89.999
 51
108.924
  0
LINE
  5
164
100
AcDbEntity
  8
2
370
    50
100
AcDbLine
 10
-47.042396
 20
15.497329
 30
0.0
 11
-53.042396
 21
15.497329
 31
0.0
  0
LINE
  5
165
100
AcDbEntity
  8
2
370
    50
100
AcDbLine
 10
-59.042396
 20
15.497329
 30
0.0
 11
-53.042396
 21
15.497329
 31
0.0
  0
LINE
  5
166
100
AcDbEntity
  8
2
370
    50
100
AcDbLine
 10
-53.042396
 20
15.497329
 30
0.0
 11
-53.042396
 21
13.497329
 31
0.0
  0
LINE
  5
167
100
AcDbEntity
  8
2
370
    50
100
AcDbLine
 10
-59.042396
 20
15.497329
 30
0.0
 11
-59.042396
 21
13.497329
 31
0.0
  0
LINE
  5
168
100
AcDbEntity
  8
2
370
    50
100
AcDbLine
 10
-53.842396
 20
15.497329
 30
0.0
 11
-53.842396
 21
13.497329
 31
0.0
  0
LINE
  5
169
100
AcDbEntity
  8
2
370
    50
100
AcDbLine
 10
-54.627396
 20
15.497329
 30
0.0
 11
-54.627396
 21
13.497329
 31
0.0
  0
LINE
  5
16A
100
AcDbEntity
  8
2
370
    50
100
AcDbLine
 10
-55.385396
 20
15.497329
 30
0.0
 11
-55.385396
 21
13.497329
 31
0.0
  0
LINE
  5
16B
100
AcDbEntity
  8
2
370
    50
100
AcDbLine
 10
-56.100396
 20
15.497329
 30
0.0
 11
-56.100396
 21
13.497329
 31
0.0
  0
LINE
  5
16C
100
AcDbEntity
  8
2
370
    50
100
AcDbLine
 10
-56.761396
 20
15.497329
 30
0.0
 11
-56.761396
 21
13.497329
 31
0.0
  0
LINE
  5
16D
100
AcDbEntity
  8
2
370
    50
100
AcDbLine
 10
-57.355396
 20
15.497329
 30
0.0
 11
-57.355396
 21
13.497329
 31
0.0
  0
LINE
  5
16E
100
AcDbEntity
  8
2
370
    50
100
AcDbLine
 10
-57.873396
 20
15.497329
 30
0.0
 11
-57.873396
 21
13.497329
 31
0.0
  0
LINE
  5
16F
100
AcDbEntity
  8
2
370
    50
100
AcDbLine
 10
-58.304396
 20
15.497329
 30
0.0
 11
-58.304396
 21
13.497329
 31
0.0
  0
LINE
  5
170
100
AcDbEntity
  8
2
370
    50
100
AcDbLine
 10
-58.641396
 20
15.497329
 30
0.0
 11
-58.641396
 21
13.497329
 31
0.0
  0
LINE
  5
171
100
AcDbEntity
  8
2
370
    50
100
AcDbLine
 10
-58.879396
 20
15.497329
 30
0.0
 11
-58.879396
 21
13.497329
 31
0.0
  0
LINE
  5
172
100
AcDbEntity
  8
2
370
    50
100
AcDbLine
 10
-59.012396
 20
15.497329
 30
0.0
 11
-59.012396
 21
13.497329
 31
0.0
  0
LINE
  5
173
100
AcDbEntity
  8
2
370
    50
100
AcDbLine
 10
-47.072396
 20
15.497329
 30
0.0
 11
-47.072396
 21
13.497329
 31
0.0
  0
LINE
  5
174
100
AcDbEntity
  8
2
370
    50
100
AcDbLine
 10
-47.205396
 20
15.497329
 30
0.0
 11
-47.205396
 21
13.497329
 31
0.0
  0
LINE
  5
175
100
AcDbEntity
  8
2
370
    50
100
AcDbLine
 10
-47.443396
 20
15.497329
 30
0.0
 11
-47.443396
 21
13.497329
 31
0.0
  0
LINE
  5
176
100
AcDbEntity
  8
2
370
    50
100
AcDbLine
 10
-47.780396
 20
15.497329
 30
0.0
 11
-47.780396
 21
13.497329
 31
0.0
  0
LINE
  5
177
100
AcDbEntity
  8
2
370
    50
100
AcDbLine
 10
-48.211396
 20
15.497329
 30
0.0
 11
-48.211396
 21
13.497329
 31
0.0
  0
LINE
  5
178
100
AcDbEntity
  8
2
370
    50
100
AcDbLine
 10
-48.729396
 20
15.497329
 30
0.0
 11
-48.729396
 21
13.497329
 31
0.0
  0
LINE
  5
179
100
AcDbEntity
  8
2
370
    50
100
AcDbLine
 10
-49.323396
 20
15.497329
 30
0.0
 11
-49.323396
 21
13.497329
 31
0.0
  0
LINE
  5
17A
100
AcDbEntity
  8
2
370
    50
100
AcDbLine
 10
-49.984396
 20
15.497329
 30
0.0
 11
-49.984396
 21
13.497329
 31
0.0
  0
LINE
  5
17B
100
AcDbEntity
  8
2
370
    50
100
AcDbLine
 10
-50.700396
 20
15.497329
 30
0.0
 11
-50.700396
 21
13.497329
 31
0.0
  0
LINE
  5
17C
100
AcDbEntity
  8
2
370
    50
100
AcDbLine
 10
-51.457396
 20
15.497329
 30
0.0
 11
-51.457396
 21
13.497329
 31
0.0
  0
LINE
  5
17D
100
AcDbEntity
  8
2
370
    50
100
AcDbLine
 10
-52.242396
 20
15.497329
 30
0.0
 11
-52.242396
 21
13.497329
 31
0.0
  0
LINE
  5
17E
100
AcDbEntity
  8
2
370
    50
100
AcDbLine
 10
-47.042396
 20
15.497329
 30
0.0
 11
-47.042396
 21
13.497329
 31
0.0
  0
LINE
  5
17F
100
AcDbEntity
  8
2
370
    50
100
AcDbLine
 10
-47.042396
 20
13.497329
 30
0.0
 11
-53.042396
 21
13.497329
 31
0.0
  0
LINE
  5
180
100
AcDbEntity
  8
2
370
    50
100
AcDbLine
 10
-59.042396
 20
13.497329
 30
0.0
 11
-53.042396
 21
13.497329
 31
0.0
  0
ARC
  5
181
100
AcDbEntity
  8
2
370
    50
100
AcDbCircle
 10
-70.657396
 20
11.782329
 30
0.0
 40
18.0
100
AcDbArc
 50
288.49
 51
312.304
  0
ARC
  5
182
100
AcDbEntity
  8
2
370
    50
100
AcDbCircle
 10
-63.363396
 20
-10.030671
 30
0.0
 40
5.0
100
AcDbArc
 50
108.49
 51
133.305
  0
ARC
  5
183
100
AcDbEntity
  8
2
370
    50
100
AcDbCircle
 10
-63.363396
 20
-10.030671
 30
0.0
 40
5.0
100
AcDbArc
 50
226.694
 51
244.158
  0
LINE
  5
184
100
AcDbEntity
  8
2
370
    50
100
AcDbLine
 10
-66.792396
 20
-13.669671
 30
0.0
 11
-66.792396
 21
-6.392671
 31
0.0
  0
LINE
  5
185
100
AcDbEntity
  8
2
370
    50
100
AcDbLine
 10
-39.292396
 20
-13.669671
 30
0.0
 11
-39.292396
 21
-6.392671
 31
0.0
  0
ARC
  5
186
100
AcDbEntity
  8
2
370
    50
100
AcDbCircle
 10
-42.722396
 20
-10.030671
 30
0.0
 40
5.0
100
AcDbArc
 50
295.841
 51
313.306
  0
ARC
  5
187
100
AcDbEntity
  8
2
370
    50
100
AcDbCircle
 10
-42.722396
 20
-10.030671
 30
0.0
 40
5.0
100
AcDbArc
 50
46.693
 51
71.508
  0
ARC
  5
188
100
AcDbEntity
  8
2
370
    50
100
AcDbCircle
 10
-35.427396
 20
11.782329
 30
0.0
 40
18.0
100
AcDbArc
 50
227.697
 51
251.509
  0
LINE
  5
189
100
AcDbEntity
  8
2
370
    50
100
AcDbLine
 10
-53.042396
 20
-1.530671
 30
0.0
 11
-58.542396
 21
-1.530671
 31
0.0
  0
LINE
  5
18A
100
AcDbEntity
  8
2
370
    50
100
AcDbLine
 10
-53.042396
 20
-1.530671
 30
0.0
 11
-47.542396
 21
-1.530671
 31
0.0
  0
LINE
  5
18B
100
AcDbEntity
  8
2
370
    50
100
AcDbLine
 10
-53.042396
 20
-14.530671
 30
0.0
 11
-65.542396
 21
-14.530671
 31
0.0
  0
LINE
  5
18C
100
AcDbEntity
  8
2
370
    50
100
AcDbLine
 10
-53.042396
 20
-14.530671
 30
0.0
 11
-40.542396
 21
-14.530671
 31
0.0
  0
LINE
  5
18D
100
AcDbEntity
  8
2
370
    50
100
AcDbLine
 10
-44.023396
 20
-6.391671
 30
0.0
 11
-48.563396
 21
-6.391671
 31
0.0
  0
LINE
  5
18E
100
AcDbEntity
  8
2
370
    50
100
AcDbLine
 10
-48.563396
 20
-13.669671
 30
0.0
 11
-44.023396
 21
-13.669671
 31
0.0
  0
LINE
  5
18F
100
AcDbEntity
  8
2
370
    50
100
AcDbLine
 10
-44.023396
 20
-6.391671
 30
0.0
 11
-44.023396
 21
-13.669671
 31
0.0
  0
LINE
  5
190
100
AcDbEntity
  8
2
370
    50
100
AcDbLine
 10
-48.563396
 20
-6.391671
 30
0.0
 11
-48.563396
 21
-13.669671
 31
0.0
  0
LINE
  5
191
100
AcDbEntity
  8
2
370
    50
100
AcDbLine
 10
-48.563396
 20
-6.391671
 30
0.0
 11
-49.618396
 21
-6.048671
 31
0.0
  0
LINE
  5
192
100
AcDbEntity
  8
2
370
    50
100
AcDbLine
 10
-49.618396
 20
-6.048671
 30
0.0
 11
-50.774396
 21
-5.932671
 31
0.0
  0
LINE
  5
193
100
AcDbEntity
  8
2
370
    50
100
AcDbLine
 10
-50.774396
 20
-5.932671
 30
0.0
 11
-51.434396
 21
-5.894671
 31
0.0
  0
LINE
  5
194
100
AcDbEntity
  8
2
370
    50
100
AcDbLine
 10
-51.434396
 20
-5.894671
 30
0.0
 11
-51.828396
 21
-5.878671
 31
0.0
  0
LINE
  5
195
100
AcDbEntity
  8
2
370
    50
100
AcDbLine
 10
-51.828396
 20
-5.878671
 30
0.0
 11
-52.089396
 21
-5.871671
 31
0.0
  0
LINE
  5
196
100
AcDbEntity
  8
2
370
    50
100
AcDbLine
 10
-52.089396
 20
-5.871671
 30
0.0
 11
-52.274396
 21
-5.866671
 31
0.0
  0
LINE
  5
197
100
AcDbEntity
  8
2
370
    50
100
AcDbLine
 10
-52.274396
 20
-5.866671
 30
0.0
 11
-52.415396
 21
-5.864671
 31
0.0
  0
LINE
  5
198
100
AcDbEntity
  8
2
370
    50
100
AcDbLine
 10
-52.415396
 20
-5.864671
 30
0.0
 11
-52.528396
 21
-5.862671
 31
0.0
  0
LINE
  5
199
100
AcDbEntity
  8
2
370
    50
100
AcDbLine
 10
-52.528396
 20
-5.862671
 30
0.0
 11
-52.621396
 21
-5.861671
 31
0.0
  0
LINE
  5
19A
100
AcDbEntity
  8
2
370
    50
100
AcDbLine
 10
-52.621396
 20
-5.861671
 30
0.0
 11
-52.701396
 21
-5.860671
 31
0.0
  0
LINE
  5
19B
100
AcDbEntity
  8
2
370
    50
100
AcDbLine
 10
-52.701396
 20
-5.860671
 30
0.0
 11
-52.771396
 21
-5.859671
 31
0.0
  0
LINE
  5
19C
100
AcDbEntity
  8
2
370
    50
100
AcDbLine
 10
-52.771396
 20
-5.859671
 30
0.0
 11
-52.835396
 21
-5.859671
 31
0.0
  0
LINE
  5
19D
100
AcDbEntity
  8
2
370
    50
100
AcDbLine
 10
-52.835396
 20
-5.859671
 30
0.0
 11
-52.894396
 21
-5.859671
 31
0.0
  0
LINE
  5
19E
100
AcDbEntity
  8
2
370
    50
100
AcDbLine
 10
-52.894396
 20
-5.859671
 30
0.0
 11
-52.950396
 21
-5.859671
 31
0.0
  0
LINE
  5
19F
100
AcDbEntity
  8
2
370
    50
100
AcDbLine
 10
-52.950396
 20
-5.859671
 30
0.0
 11
-53.004396
 21
-5.858671
 31
0.0
  0
LINE
  5
1A0
100
AcDbEntity
  8
2
370
    50
100
AcDbLine
 10
-53.004396
 20
-5.858671
 30
0.0
 11
-53.042396
 21
-5.858671
 31
0.0
  0
LINE
  5
1A1
100
AcDbEntity
  8
2
370
    50
100
AcDbLine
 10
-53.042396
 20
-14.530671
 30
0.0
 11
-52.956396
 21
-14.529671
 31
0.0
  0
LINE
  5
1A2
100
AcDbEntity
  8
2
370
    50
100
AcDbLine
 10
-52.956396
 20
-14.529671
 30
0.0
 11
-52.868396
 21
-14.529671
 31
0.0
  0
LINE
  5
1A3
100
AcDbEntity
  8
2
370
    50
100
AcDbLine
 10
-52.868396
 20
-14.529671
 30
0.0
 11
-52.776396
 21
-14.528671
 31
0.0
  0
LINE
  5
1A4
100
AcDbEntity
  8
2
370
    50
100
AcDbLine
 10
-52.776396
 20
-14.528671
 30
0.0
 11
-52.679396
 21
-14.527671
 31
0.0
  0
LINE
  5
1A5
100
AcDbEntity
  8
2
370
    50
100
AcDbLine
 10
-52.679396
 20
-14.527671
 30
0.0
 11
-52.574396
 21
-14.525671
 31
0.0
  0
LINE
  5
1A6
100
AcDbEntity
  8
2
370
    50
100
AcDbLine
 10
-52.574396
 20
-14.525671
 30
0.0
 11
-52.458396
 21
-14.522671
 31
0.0
  0
LINE
  5
1A7
100
AcDbEntity
  8
2
370
    50
100
AcDbLine
 10
-52.458396
 20
-14.522671
 30
0.0
 11
-52.326396
 21
-14.518671
 31
0.0
  0
LINE
  5
1A8
100
AcDbEntity
  8
2
370
    50
100
AcDbLine
 10
-52.326396
 20
-14.518671
 30
0.0
 11
-52.172396
 21
-14.513671
 31
0.0
  0
LINE
  5
1A9
100
AcDbEntity
  8
2
370
    50
100
AcDbLine
 10
-52.172396
 20
-14.513671
 30
0.0
 11
-51.988396
 21
-14.505671
 31
0.0
  0
LINE
  5
1AA
100
AcDbEntity
  8
2
370
    50
100
AcDbLine
 10
-51.988396
 20
-14.505671
 30
0.0
 11
-51.757396
 21
-14.493671
 31
0.0
  0
LINE
  5
1AB
100
AcDbEntity
  8
2
370
    50
100
AcDbLine
 10
-51.757396
 20
-14.493671
 30
0.0
 11
-51.459396
 21
-14.474671
 31
0.0
  0
LINE
  5
1AC
100
AcDbEntity
  8
2
370
    50
100
AcDbLine
 10
-51.459396
 20
-14.474671
 30
0.0
 11
-51.057396
 21
-14.440671
 31
0.0
  0
LINE
  5
1AD
100
AcDbEntity
  8
2
370
    50
100
AcDbLine
 10
-51.057396
 20
-14.440671
 30
0.0
 11
-50.492396
 21
-14.376671
 31
0.0
  0
LINE
  5
1AE
100
AcDbEntity
  8
2
370
    50
100
AcDbLine
 10
-50.492396
 20
-14.376671
 30
0.0
 11
-49.708396
 21
-14.244671
 31
0.0
  0
LINE
  5
1AF
100
AcDbEntity
  8
2
370
    50
100
AcDbLine
 10
-49.708396
 20
-14.244671
 30
0.0
 11
-48.840396
 21
-13.967671
 31
0.0
  0
LINE
  5
1B0
100
AcDbEntity
  8
2
370
    50
100
AcDbLine
 10
-48.840396
 20
-13.967671
 30
0.0
 11
-48.563396
 21
-13.669671
 31
0.0
  0
LINE
  5
1B1
100
AcDbEntity
  8
2
370
    50
100
AcDbLine
 10
-44.023396
 20
-13.669671
 30
0.0
 11
-43.938396
 21
-13.897671
 31
0.0
  0
LINE
  5
1B2
100
AcDbEntity
  8
2
370
    50
100
AcDbLine
 10
-43.938396
 20
-13.897671
 30
0.0
 11
-43.724396
 21
-14.087671
 31
0.0
  0
LINE
  5
1B3
100
AcDbEntity
  8
2
370
    50
100
AcDbLine
 10
-43.724396
 20
-14.087671
 30
0.0
 11
-43.460396
 21
-14.226671
 31
0.0
  0
LINE
  5
1B4
100
AcDbEntity
  8
2
370
    50
100
AcDbLine
 10
-43.460396
 20
-14.226671
 30
0.0
 11
-43.201396
 21
-14.321671
 31
0.0
  0
LINE
  5
1B5
100
AcDbEntity
  8
2
370
    50
100
AcDbLine
 10
-43.201396
 20
-14.321671
 30
0.0
 11
-42.969396
 21
-14.385671
 31
0.0
  0
LINE
  5
1B6
100
AcDbEntity
  8
2
370
    50
100
AcDbLine
 10
-42.969396
 20
-14.385671
 30
0.0
 11
-42.769396
 21
-14.429671
 31
0.0
  0
LINE
  5
1B7
100
AcDbEntity
  8
2
370
    50
100
AcDbLine
 10
-42.769396
 20
-14.429671
 30
0.0
 11
-42.596396
 21
-14.459671
 31
0.0
  0
LINE
  5
1B8
100
AcDbEntity
  8
2
370
    50
100
AcDbLine
 10
-42.596396
 20
-14.459671
 30
0.0
 11
-42.446396
 21
-14.480671
 31
0.0
  0
LINE
  5
1B9
100
AcDbEntity
  8
2
370
    50
100
AcDbLine
 10
-42.446396
 20
-14.480671
 30
0.0
 11
-42.314396
 21
-14.496671
 31
0.0
  0
LINE
  5
1BA
100
AcDbEntity
  8
2
370
    50
100
AcDbLine
 10
-42.314396
 20
-14.496671
 30
0.0
 11
-42.196396
 21
-14.507671
 31
0.0
  0
LINE
  5
1BB
100
AcDbEntity
  8
2
370
    50
100
AcDbLine
 10
-42.196396
 20
-14.507671
 30
0.0
 11
-42.089396
 21
-14.515671
 31
0.0
  0
LINE
  5
1BC
100
AcDbEntity
  8
2
370
    50
100
AcDbLine
 10
-42.089396
 20
-14.515671
 30
0.0
 11
-41.989396
 21
-14.521671
 31
0.0
  0
LINE
  5
1BD
100
AcDbEntity
  8
2
370
    50
100
AcDbLine
 10
-41.989396
 20
-14.521671
 30
0.0
 11
-41.895396
 21
-14.525671
 31
0.0
  0
LINE
  5
1BE
100
AcDbEntity
  8
2
370
    50
100
AcDbLine
 10
-41.895396
 20
-14.525671
 30
0.0
 11
-41.806396
 21
-14.528671
 31
0.0
  0
LINE
  5
1BF
100
AcDbEntity
  8
2
370
    50
100
AcDbLine
 10
-41.806396
 20
-14.528671
 30
0.0
 11
-41.719396
 21
-14.529671
 31
0.0
  0
LINE
  5
1C0
100
AcDbEntity
  8
2
370
    50
100
AcDbLine
 10
-41.719396
 20
-14.529671
 30
0.0
 11
-41.658396
 21
-14.530671
 31
0.0
  0
LINE
  5
1C1
100
AcDbEntity
  8
2
370
    50
100
AcDbLine
 10
-39.586396
 20
-6.134671
 30
0.0
 11
-39.993396
 21
-6.013671
 31
0.0
  0
LINE
  5
1C2
100
AcDbEntity
  8
2
370
    50
100
AcDbLine
 10
-39.993396
 20
-6.013671
 30
0.0
 11
-40.338396
 21
-5.949671
 31
0.0
  0
LINE
  5
1C3
100
AcDbEntity
  8
2
370
    50
100
AcDbLine
 10
-40.338396
 20
-5.949671
 30
0.0
 11
-40.600396
 21
-5.915671
 31
0.0
  0
LINE
  5
1C4
100
AcDbEntity
  8
2
370
    50
100
AcDbLine
 10
-40.600396
 20
-5.915671
 30
0.0
 11
-40.798396
 21
-5.895671
 31
0.0
  0
LINE
  5
1C5
100
AcDbEntity
  8
2
370
    50
100
AcDbLine
 10
-40.798396
 20
-5.895671
 30
0.0
 11
-40.951396
 21
-5.883671
 31
0.0
  0
LINE
  5
1C6
100
AcDbEntity
  8
2
370
    50
100
AcDbLine
 10
-40.951396
 20
-5.883671
 30
0.0
 11
-41.073396
 21
-5.875671
 31
0.0
  0
LINE
  5
1C7
100
AcDbEntity
  8
2
370
    50
100
AcDbLine
 10
-41.073396
 20
-5.875671
 30
0.0
 11
-41.174396
 21
-5.870671
 31
0.0
  0
LINE
  5
1C8
100
AcDbEntity
  8
2
370
    50
100
AcDbLine
 10
-41.174396
 20
-5.870671
 30
0.0
 11
-41.261396
 21
-5.866671
 31
0.0
  0
LINE
  5
1C9
100
AcDbEntity
  8
2
370
    50
100
AcDbLine
 10
-41.261396
 20
-5.866671
 30
0.0
 11
-41.336396
 21
-5.863671
 31
0.0
  0
LINE
  5
1CA
100
AcDbEntity
  8
2
370
    50
100
AcDbLine
 10
-41.336396
 20
-5.863671
 30
0.0
 11
-41.403396
 21
-5.862671
 31
0.0
  0
LINE
  5
1CB
100
AcDbEntity
  8
2
370
    50
100
AcDbLine
 10
-41.403396
 20
-5.862671
 30
0.0
 11
-41.465396
 21
-5.860671
 31
0.0
  0
LINE
  5
1CC
100
AcDbEntity
  8
2
370
    50
100
AcDbLine
 10
-41.465396
 20
-5.860671
 30
0.0
 11
-41.523396
 21
-5.859671
 31
0.0
  0
LINE
  5
1CD
100
AcDbEntity
  8
2
370
    50
100
AcDbLine
 10
-41.523396
 20
-5.859671
 30
0.0
 11
-41.579396
 21
-5.859671
 31
0.0
  0
LINE
  5
1CE
100
AcDbEntity
  8
2
370
    50
100
AcDbLine
 10
-41.579396
 20
-5.859671
 30
0.0
 11
-41.632396
 21
-5.858671
 31
0.0
  0
LINE
  5
1CF
100
AcDbEntity
  8
2
370
    50
100
AcDbLine
 10
-41.632396
 20
-5.858671
 30
0.0
 11
-41.686396
 21
-5.859671
 31
0.0
  0
LINE
  5
1D0
100
AcDbEntity
  8
2
370
    50
100
AcDbLine
 10
-41.686396
 20
-5.859671
 30
0.0
 11
-41.740396
 21
-5.859671
 31
0.0
  0
LINE
  5
1D1
100
AcDbEntity
  8
2
370
    50
100
AcDbLine
 10
-41.740396
 20
-5.859671
 30
0.0
 11
-41.795396
 21
-5.859671
 31
0.0
  0
LINE
  5
1D2
100
AcDbEntity
  8
2
370
    50
100
AcDbLine
 10
-41.795396
 20
-5.859671
 30
0.0
 11
-41.853396
 21
-5.860671
 31
0.0
  0
LINE
  5
1D3
100
AcDbEntity
  8
2
370
    50
100
AcDbLine
 10
-41.853396
 20
-5.860671
 30
0.0
 11
-41.915396
 21
-5.862671
 31
0.0
  0
LINE
  5
1D4
100
AcDbEntity
  8
2
370
    50
100
AcDbLine
 10
-41.915396
 20
-5.862671
 30
0.0
 11
-41.983396
 21
-5.864671
 31
0.0
  0
LINE
  5
1D5
100
AcDbEntity
  8
2
370
    50
100
AcDbLine
 10
-41.983396
 20
-5.864671
 30
0.0
 11
-42.059396
 21
-5.866671
 31
0.0
  0
LINE
  5
1D6
100
AcDbEntity
  8
2
370
    50
100
AcDbLine
 10
-42.059396
 20
-5.866671
 30
0.0
 11
-42.146396
 21
-5.870671
 31
0.0
  0
LINE
  5
1D7
100
AcDbEntity
  8
2
370
    50
100
AcDbLine
 10
-42.146396
 20
-5.870671
 30
0.0
 11
-42.248396
 21
-5.875671
 31
0.0
  0
LINE
  5
1D8
100
AcDbEntity
  8
2
370
    50
100
AcDbLine
 10
-42.248396
 20
-5.875671
 30
0.0
 11
-42.372396
 21
-5.883671
 31
0.0
  0
LINE
  5
1D9
100
AcDbEntity
  8
2
370
    50
100
AcDbLine
 10
-42.372396
 20
-5.883671
 30
0.0
 11
-42.527396
 21
-5.896671
 31
0.0
  0
LINE
  5
1DA
100
AcDbEntity
  8
2
370
    50
100
AcDbLine
 10
-42.527396
 20
-5.896671
 30
0.0
 11
-42.728396
 21
-5.916671
 31
0.0
  0
LINE
  5
1DB
100
AcDbEntity
  8
2
370
    50
100
AcDbLine
 10
-42.728396
 20
-5.916671
 30
0.0
 11
-42.994396
 21
-5.952671
 31
0.0
  0
LINE
  5
1DC
100
AcDbEntity
  8
2
370
    50
100
AcDbLine
 10
-42.994396
 20
-5.952671
 30
0.0
 11
-43.344396
 21
-6.018671
 31
0.0
  0
LINE
  5
1DD
100
AcDbEntity
  8
2
370
    50
100
AcDbLine
 10
-43.344396
 20
-6.018671
 30
0.0
 11
-43.751396
 21
-6.143671
 31
0.0
  0
LINE
  5
1DE
100
AcDbEntity
  8
2
370
    50
100
AcDbLine
 10
-43.751396
 20
-6.143671
 30
0.0
 11
-44.016396
 21
-6.349671
 31
0.0
  0
LINE
  5
1DF
100
AcDbEntity
  8
2
370
    50
100
AcDbLine
 10
-44.016396
 20
-6.349671
 30
0.0
 11
-44.023396
 21
-6.391671
 31
0.0
  0
LINE
  5
1E0
100
AcDbEntity
  8
2
370
    50
100
AcDbLine
 10
-62.061396
 20
-6.391671
 30
0.0
 11
-57.521396
 21
-6.391671
 31
0.0
  0
LINE
  5
1E1
100
AcDbEntity
  8
2
370
    50
100
AcDbLine
 10
-57.521396
 20
-13.669671
 30
0.0
 11
-62.061396
 21
-13.669671
 31
0.0
  0
LINE
  5
1E2
100
AcDbEntity
  8
2
370
    50
100
AcDbLine
 10
-62.061396
 20
-6.391671
 30
0.0
 11
-62.061396
 21
-13.669671
 31
0.0
  0
LINE
  5
1E3
100
AcDbEntity
  8
2
370
    50
100
AcDbLine
 10
-57.521396
 20
-6.391671
 30
0.0
 11
-57.521396
 21
-13.669671
 31
0.0
  0
LINE
  5
1E4
100
AcDbEntity
  8
2
370
    50
100
AcDbLine
 10
-57.521396
 20
-6.391671
 30
0.0
 11
-56.466396
 21
-6.048671
 31
0.0
  0
LINE
  5
1E5
100
AcDbEntity
  8
2
370
    50
100
AcDbLine
 10
-56.466396
 20
-6.048671
 30
0.0
 11
-55.310396
 21
-5.932671
 31
0.0
  0
LINE
  5
1E6
100
AcDbEntity
  8
2
370
    50
100
AcDbLine
 10
-55.310396
 20
-5.932671
 30
0.0
 11
-54.650396
 21
-5.894671
 31
0.0
  0
LINE
  5
1E7
100
AcDbEntity
  8
2
370
    50
100
AcDbLine
 10
-54.650396
 20
-5.894671
 30
0.0
 11
-54.256396
 21
-5.878671
 31
0.0
  0
LINE
  5
1E8
100
AcDbEntity
  8
2
370
    50
100
AcDbLine
 10
-54.327396
 20
-14.493671
 30
0.0
 11
-54.625396
 21
-14.474671
 31
0.0
  0
LINE
  5
1E9
100
AcDbEntity
  8
2
370
    50
100
AcDbLine
 10
-54.625396
 20
-14.474671
 30
0.0
 11
-55.027396
 21
-14.440671
 31
0.0
  0
LINE
  5
1EA
100
AcDbEntity
  8
2
370
    50
100
AcDbLine
 10
-55.027396
 20
-14.440671
 30
0.0
 11
-55.592396
 21
-14.376671
 31
0.0
  0
LINE
  5
1EB
100
AcDbEntity
  8
2
370
    50
100
AcDbLine
 10
-55.592396
 20
-14.376671
 30
0.0
 11
-56.376396
 21
-14.244671
 31
0.0
  0
LINE
  5
1EC
100
AcDbEntity
  8
2
370
    50
100
AcDbLine
 10
-56.376396
 20
-14.244671
 30
0.0
 11
-57.244396
 21
-13.967671
 31
0.0
  0
LINE
  5
1ED
100
AcDbEntity
  8
2
370
    50
100
AcDbLine
 10
-57.244396
 20
-13.967671
 30
0.0
 11
-57.521396
 21
-13.669671
 31
0.0
  0
LINE
  5
1EE
100
AcDbEntity
  8
2
370
    50
100
AcDbLine
 10
-62.061396
 20
-13.669671
 30
0.0
 11
-62.146396
 21
-13.897671
 31
0.0
  0
LINE
  5
1EF
100
AcDbEntity
  8
2
370
    50
100
AcDbLine
 10
-62.146396
 20
-13.897671
 30
0.0
 11
-62.360396
 21
-14.087671
 31
0.0
  0
LINE
  5
1F0
100
AcDbEntity
  8
2
370
    50
100
AcDbLine
 10
-62.360396
 20
-14.087671
 30
0.0
 11
-62.624396
 21
-14.226671
 31
0.0
  0
LINE
  5
1F1
100
AcDbEntity
  8
2
370
    50
100
AcDbLine
 10
-62.624396
 20
-14.226671
 30
0.0
 11
-62.883396
 21
-14.321671
 31
0.0
  0
LINE
  5
1F2
100
AcDbEntity
  8
2
370
    50
100
AcDbLine
 10
-62.883396
 20
-14.321671
 30
0.0
 11
-63.115396
 21
-14.385671
 31
0.0
  0
LINE
  5
1F3
100
AcDbEntity
  8
2
370
    50
100
AcDbLine
 10
-63.115396
 20
-14.385671
 30
0.0
 11
-63.315396
 21
-14.429671
 31
0.0
  0
LINE
  5
1F4
100
AcDbEntity
  8
2
370
    50
100
AcDbLine
 10
-63.315396
 20
-14.429671
 30
0.0
 11
-63.488396
 21
-14.459671
 31
0.0
  0
LINE
  5
1F5
100
AcDbEntity
  8
2
370
    50
100
AcDbLine
 10
-63.488396
 20
-14.459671
 30
0.0
 11
-63.638396
 21
-14.480671
 31
0.0
  0
LINE
  5
1F6
100
AcDbEntity
  8
2
370
    50
100
AcDbLine
 10
-63.638396
 20
-14.480671
 30
0.0
 11
-63.770396
 21
-14.496671
 31
0.0
  0
LINE
  5
1F7
100
AcDbEntity
  8
2
370
    50
100
AcDbLine
 10
-63.770396
 20
-14.496671
 30
0.0
 11
-63.888396
 21
-14.507671
 31
0.0
  0
LINE
  5
1F8
100
AcDbEntity
  8
2
370
    50
100
AcDbLine
 10
-63.888396
 20
-14.507671
 30
0.0
 11
-63.995396
 21
-14.515671
 31
0.0
  0
LINE
  5
1F9
100
AcDbEntity
  8
2
370
    50
100
AcDbLine
 10
-63.995396
 20
-14.515671
 30
0.0
 11
-64.095396
 21
-14.521671
 31
0.0
  0
LINE
  5
1FA
100
AcDbEntity
  8
2
370
    50
100
AcDbLine
 10
-64.095396
 20
-14.521671
 30
0.0
 11
-64.189396
 21
-14.525671
 31
0.0
  0
LINE
  5
1FB
100
AcDbEntity
  8
2
370
    50
100
AcDbLine
 10
-64.189396
 20
-14.525671
 30
0.0
 11
-64.278396
 21
-14.528671
 31
0.0
  0
LINE
  5
1FC
100
AcDbEntity
  8
2
370
    50
100
AcDbLine
 10
-64.278396
 20
-14.528671
 30
0.0
 11
-64.365396
 21
-14.529671
 31
0.0
  0
LINE
  5
1FD
100
AcDbEntity
  8
2
370
    50
100
AcDbLine
 10
-64.365396
 20
-14.529671
 30
0.0
 11
-64.426396
 21
-14.530671
 31
0.0
  0
LINE
  5
1FE
100
AcDbEntity
  8
2
370
    50
100
AcDbLine
 10
-66.498396
 20
-6.134671
 30
0.0
 11
-66.091396
 21
-6.013671
 31
0.0
  0
LINE
  5
1FF
100
AcDbEntity
  8
2
370
    50
100
AcDbLine
 10
-66.091396
 20
-6.013671
 30
0.0
 11
-65.746396
 21
-5.949671
 31
0.0
  0
LINE
  5
200
100
AcDbEntity
  8
2
370
    50
100
AcDbLine
 10
-65.746396
 20
-5.949671
 30
0.0
 11
-65.484396
 21
-5.915671
 31
0.0
  0
LINE
  5
201
100
AcDbEntity
  8
2
370
    50
100
AcDbLine
 10
-65.484396
 20
-5.915671
 30
0.0
 11
-65.286396
 21
-5.895671
 31
0.0
  0
LINE
  5
202
100
AcDbEntity
  8
2
370
    50
100
AcDbLine
 10
-65.286396
 20
-5.895671
 30
0.0
 11
-65.133396
 21
-5.883671
 31
0.0
  0
LINE
  5
203
100
AcDbEntity
  8
2
370
    50
100
AcDbLine
 10
-65.133396
 20
-5.883671
 30
0.0
 11
-65.011396
 21
-5.875671
 31
0.0
  0
LINE
  5
204
100
AcDbEntity
  8
2
370
    50
100
AcDbLine
 10
-65.011396
 20
-5.875671
 30
0.0
 11
-64.910396
 21
-5.870671
 31
0.0
  0
LINE
  5
205
100
AcDbEntity
  8
2
370
    50
100
AcDbLine
 10
-64.910396
 20
-5.870671
 30
0.0
 11
-64.823396
 21
-5.866671
 31
0.0
  0
LINE
  5
206
100
AcDbEntity
  8
2
370
    50
100
AcDbLine
 10
-64.823396
 20
-5.866671
 30
0.0
 11
-64.748396
 21
-5.863671
 31
0.0
  0
LINE
  5
207
100
AcDbEntity
  8
2
370
    50
100
AcDbLine
 10
-64.748396
 20
-5.863671
 30
0.0
 11
-64.681396
 21
-5.862671
 31
0.0
  0
LINE
  5
208
100
AcDbEntity
  8
2
370
    50
100
AcDbLine
 10
-64.681396
 20
-5.862671
 30
0.0
 11
-64.619396
 21
-5.860671
 31
0.0
  0
LINE
  5
209
100
AcDbEntity
  8
2
370
    50
100
AcDbLine
 10
-64.619396
 20
-5.860671
 30
0.0
 11
-64.561396
 21
-5.859671
 31
0.0
  0
LINE
  5
20A
100
AcDbEntity
  8
2
370
    50
100
AcDbLine
 10
-64.561396
 20
-5.859671
 30
0.0
 11
-64.505396
 21
-5.859671
 31
0.0
  0
LINE
  5
20B
100
AcDbEntity
  8
2
370
    50
100
AcDbLine
 10
-64.505396
 20
-5.859671
 30
0.0
 11
-64.452396
 21
-5.858671
 31
0.0
  0
LINE
  5
20C
100
AcDbEntity
  8
2
370
    50
100
AcDbLine
 10
-64.452396
 20
-5.858671
 30
0.0
 11
-64.398396
 21
-5.859671
 31
0.0
  0
LINE
  5
20D
100
AcDbEntity
  8
2
370
    50
100
AcDbLine
 10
-64.398396
 20
-5.859671
 30
0.0
 11
-64.344396
 21
-5.859671
 31
0.0
  0
LINE
  5
20E
100
AcDbEntity
  8
2
370
    50
100
AcDbLine
 10
-64.344396
 20
-5.859671
 30
0.0
 11
-64.289396
 21
-5.859671
 31
0.0
  0
LINE
  5
20F
100
AcDbEntity
  8
2
370
    50
100
AcDbLine
 10
-64.289396
 20
-5.859671
 30
0.0
 11
-64.231396
 21
-5.860671
 31
0.0
  0
LINE
  5
210
100
AcDbEntity
  8
2
370
    50
100
AcDbLine
 10
-64.231396
 20
-5.860671
 30
0.0
 11
-64.169396
 21
-5.862671
 31
0.0
  0
LINE
  5
211
100
AcDbEntity
  8
2
370
    50
100
AcDbLine
 10
-64.169396
 20
-5.862671
 30
0.0
 11
-64.101396
 21
-5.864671
 31
0.0
  0
LINE
  5
212
100
AcDbEntity
  8
2
370
    50
100
AcDbLine
 10
-64.101396
 20
-5.864671
 30
0.0
 11
-64.025396
 21
-5.866671
 31
0.0
  0
LINE
  5
213
100
AcDbEntity
  8
2
370
    50
100
AcDbLine
 10
-64.025396
 20
-5.866671
 30
0.0
 11
-63.938396
 21
-5.870671
 31
0.0
  0
LINE
  5
214
100
AcDbEntity
  8
2
370
    50
100
AcDbLine
 10
-63.938396
 20
-5.870671
 30
0.0
 11
-63.836396
 21
-5.875671
 31
0.0
  0
LINE
  5
215
100
AcDbEntity
  8
2
370
    50
100
AcDbLine
 10
-63.836396
 20
-5.875671
 30
0.0
 11
-63.712396
 21
-5.883671
 31
0.0
  0
LINE
  5
216
100
AcDbEntity
  8
2
370
    50
100
AcDbLine
 10
-63.712396
 20
-5.883671
 30
0.0
 11
-63.557396
 21
-5.896671
 31
0.0
  0
LINE
  5
217
100
AcDbEntity
  8
2
370
    50
100
AcDbLine
 10
-63.557396
 20
-5.896671
 30
0.0
 11
-63.356396
 21
-5.916671
 31
0.0
  0
LINE
  5
218
100
AcDbEntity
  8
2
370
    50
100
AcDbLine
 10
-63.356396
 20
-5.916671
 30
0.0
 11
-63.090396
 21
-5.952671
 31
0.0
  0
LINE
  5
219
100
AcDbEntity
  8
2
370
    50
100
AcDbLine
 10
-63.090396
 20
-5.952671
 30
0.0
 11
-62.740396
 21
-6.018671
 31
0.0
  0
LINE
  5
21A
100
AcDbEntity
  8
2
370
    50
100
AcDbLine
 10
-62.740396
 20
-6.018671
 30
0.0
 11
-62.333396
 21
-6.143671
 31
0.0
  0
LINE
  5
21B
100
AcDbEntity
  8
2
370
    50
100
AcDbLine
 10
-62.333396
 20
-6.143671
 30
0.0
 11
-62.068396
 21
-6.349671
 31
0.0
  0
LINE
  5
21C
100
AcDbEntity
  8
2
370
    50
100
AcDbLine
 10
-62.068396
 20
-6.349671
 30
0.0
 11
-62.061396
 21
-6.391671
 31
0.0
  0
LINE
  5
21D
100
AcDbEntity
  8
2
370
    50
100
AcDbLine
 10
-53.669396
 20
-5.864671
 30
0.0
 11
-53.556396
 21
-5.862671
 31
0.0
  0
LINE
  5
21E
100
AcDbEntity
  8
2
370
    50
100
AcDbLine
 10
-53.556396
 20
-5.862671
 30
0.0
 11
-53.463396
 21
-5.861671
 31
0.0
  0
LINE
  5
21F
100
AcDbEntity
  8
2
370
    50
100
AcDbLine
 10
-53.463396
 20
-5.861671
 30
0.0
 11
-53.383396
 21
-5.860671
 31
0.0
  0
LINE
  5
220
100
AcDbEntity
  8
2
370
    50
100
AcDbLine
 10
-53.383396
 20
-5.860671
 30
0.0
 11
-53.313396
 21
-5.859671
 31
0.0
  0
LINE
  5
221
100
AcDbEntity
  8
2
370
    50
100
AcDbLine
 10
-53.313396
 20
-5.859671
 30
0.0
 11
-53.249396
 21
-5.859671
 31
0.0
  0
LINE
  5
222
100
AcDbEntity
  8
2
370
    50
100
AcDbLine
 10
-53.249396
 20
-5.859671
 30
0.0
 11
-53.190396
 21
-5.859671
 31
0.0
  0
LINE
  5
223
100
AcDbEntity
  8
2
370
    50
100
AcDbLine
 10
-53.190396
 20
-5.859671
 30
0.0
 11
-53.134396
 21
-5.859671
 31
0.0
  0
LINE
  5
224
100
AcDbEntity
  8
2
370
    50
100
AcDbLine
 10
-53.134396
 20
-5.859671
 30
0.0
 11
-53.080396
 21
-5.858671
 31
0.0
  0
LINE
  5
225
100
AcDbEntity
  8
2
370
    50
100
AcDbLine
 10
-53.080396
 20
-5.858671
 30
0.0
 11
-53.042396
 21
-5.858671
 31
0.0
  0
LINE
  5
226
100
AcDbEntity
  8
2
370
    50
100
AcDbLine
 10
-54.650396
 20
-5.894671
 30
0.0
 11
-54.256396
 21
-5.878671
 31
0.0
  0
LINE
  5
227
100
AcDbEntity
  8
2
370
    50
100
AcDbLine
 10
-54.256396
 20
-5.878671
 30
0.0
 11
-53.995396
 21
-5.871671
 31
0.0
  0
LINE
  5
228
100
AcDbEntity
  8
2
370
    50
100
AcDbLine
 10
-53.995396
 20
-5.871671
 30
0.0
 11
-53.810396
 21
-5.866671
 31
0.0
  0
LINE
  5
229
100
AcDbEntity
  8
2
370
    50
100
AcDbLine
 10
-53.810396
 20
-5.866671
 30
0.0
 11
-53.669396
 21
-5.864671
 31
0.0
  0
LINE
  5
22A
100
AcDbEntity
  8
2
370
    50
100
AcDbLine
 10
-53.669396
 20
-5.864671
 30
0.0
 11
-53.556396
 21
-5.862671
 31
0.0
  0
LINE
  5
22B
100
AcDbEntity
  8
2
370
    50
100
AcDbLine
 10
-53.556396
 20
-5.862671
 30
0.0
 11
-53.463396
 21
-5.861671
 31
0.0
  0
LINE
  5
22C
100
AcDbEntity
  8
2
370
    50
100
AcDbLine
 10
-57.792396
 20
-1.530671
 30
0.0
 11
-57.792396
 21
3.497329
 31
0.0
  0
LINE
  5
22D
100
AcDbEntity
  8
2
370
    50
100
AcDbLine
 10
-57.292396
 20
3.497329
 30
0.0
 11
-57.792396
 21
3.497329
 31
0.0
  0
LINE
  5
22E
100
AcDbEntity
  8
2
370
    50
100
AcDbLine
 10
-48.792396
 20
3.497329
 30
0.0
 11
-48.292396
 21
3.497329
 31
0.0
  0
LINE
  5
22F
100
AcDbEntity
  8
2
370
    50
100
AcDbLine
 10
-48.292396
 20
-1.530671
 30
0.0
 11
-48.292396
 21
3.497329
 31
0.0
  0
LINE
  5
230
100
AcDbEntity
  8
2
370
    50
100
AcDbLine
 10
-83.042396
 20
-49.702671
 30
0.0
 11
-85.042396
 21
-49.702671
 31
0.0
  0
LINE
  5
231
100
AcDbEntity
  8
2
370
    50
100
AcDbLine
 10
-83.042396
 20
-46.752671
 30
0.0
 11
-85.042396
 21
-46.752671
 31
0.0
  0
LINE
  5
232
100
AcDbEntity
  8
2
370
    50
100
AcDbLine
 10
-85.042396
 20
-49.702671
 30
0.0
 11
-85.042396
 21
-40.502671
 31
0.0
  0
LINE
  5
233
100
AcDbEntity
  8
2
370
    50
100
AcDbLine
 10
-83.423396
 20
-49.702671
 30
0.0
 11
-85.042396
 21
-48.083671
 31
0.0
  0
LINE
  5
234
100
AcDbEntity
  8
2
370
    50
100
AcDbLine
 10
-84.373396
 20
-46.752671
 30
0.0
 11
-83.042396
 21
-48.083671
 31
0.0
  0
ARC
  5
235
100
AcDbEntity
  8
2
370
    50
100
AcDbCircle
 10
-81.742396
 20
-39.402671
 30
0.0
 40
11.5
100
AcDbArc
 50
58.551
 51
121.449
  0
LINE
  5
236
100
AcDbEntity
  8
2
370
    50
100
AcDbLine
 10
-83.042396
 20
-49.817671
 30
0.0
 11
-85.442396
 21
-49.817671
 31
0.0
  0
ARC
  5
237
100
AcDbEntity
  8
2
370
    50
100
AcDbCircle
 10
-85.442396
 20
-49.517671
 30
0.0
 40
0.3
100
AcDbArc
 50
180.001
 51
270.001
  0
LINE
  5
238
100
AcDbEntity
  8
2
370
    50
100
AcDbLine
 10
-83.729396
 20
-50.979671
 30
0.0
 11
-85.742396
 21
-49.817671
 31
0.0
  0
LINE
  5
239
100
AcDbEntity
  8
2
370
    50
100
AcDbLine
 10
-81.880396
 20
-50.979671
 30
0.0
 11
-83.729396
 21
-50.979671
 31
0.0
  0
ARC
  5
23A
100
AcDbEntity
  8
2
370
    50
100
AcDbCircle
 10
-81.742396
 20
-41.602671
 30
0.0
 40
11.5
100
AcDbArc
 50
238.552
 51
301.45
  0
LINE
  5
23B
100
AcDbEntity
  8
2
370
    50
100
AcDbLine
 10
-85.742396
 20
-47.152671
 30
0.0
 11
-87.742396
 21
-47.152671
 31
0.0
  0
LINE
  5
23C
100
AcDbEntity
  8
2
370
    50
100
AcDbLine
 10
-87.742396
 20
-46.852671
 30
0.0
 11
-87.742396
 21
-51.412671
 31
0.0
  0
LINE
  5
23D
100
AcDbEntity
  8
2
370
    50
100
AcDbLine
 10
-87.742396
 20
-40.502671
 30
0.0
 11
-87.742396
 21
-29.591671
 31
0.0
  0
LINE
  5
23E
100
AcDbEntity
  8
2
370
    50
100
AcDbLine
 10
-85.742396
 20
-49.252671
 30
0.0
 11
-85.742396
 21
-49.517671
 31
0.0
  0
LINE
  5
23F
100
AcDbEntity
  8
2
370
    50
100
AcDbLine
 10
-83.729396
 20
-49.702671
 30
0.0
 11
-83.729396
 21
-50.979671
 31
0.0
  0
LINE
  5
240
100
AcDbEntity
  8
2
370
    50
100
AcDbLine
 10
-75.742396
 20
-40.502671
 30
0.0
 11
-75.742396
 21
-51.412671
 31
0.0
  0
LINE
  5
241
100
AcDbEntity
  8
2
370
    50
100
AcDbLine
 10
-75.742396
 20
-40.502671
 30
0.0
 11
-75.742396
 21
-29.591671
 31
0.0
  0
LINE
  5
242
100
AcDbEntity
  8
2
370
    50
100
AcDbLine
 10
-76.834396
 20
-40.502671
 30
0.0
 11
-76.856396
 21
-40.012671
 31
0.0
  0
LINE
  5
243
100
AcDbEntity
  8
2
370
    50
100
AcDbLine
 10
-76.856396
 20
-40.012671
 30
0.0
 11
-76.923396
 21
-39.525671
 31
0.0
  0
LINE
  5
244
100
AcDbEntity
  8
2
370
    50
100
AcDbLine
 10
-76.923396
 20
-39.525671
 30
0.0
 11
-77.035396
 21
-39.046671
 31
0.0
  0
LINE
  5
245
100
AcDbEntity
  8
2
370
    50
100
AcDbLine
 10
-77.035396
 20
-39.046671
 30
0.0
 11
-77.190396
 21
-38.577671
 31
0.0
  0
LINE
  5
246
100
AcDbEntity
  8
2
370
    50
100
AcDbLine
 10
-77.190396
 20
-38.577671
 30
0.0
 11
-77.389396
 21
-38.124671
 31
0.0
  0
LINE
  5
247
100
AcDbEntity
  8
2
370
    50
100
AcDbLine
 10
-77.389396
 20
-38.124671
 30
0.0
 11
-77.631396
 21
-37.689671
 31
0.0
  0
LINE
  5
248
100
AcDbEntity
  8
2
370
    50
100
AcDbLine
 10
-77.631396
 20
-37.689671
 30
0.0
 11
-77.915396
 21
-37.278671
 31
0.0
  0
LINE
  5
249
100
AcDbEntity
  8
2
370
    50
100
AcDbLine
 10
-77.915396
 20
-37.278671
 30
0.0
 11
-78.239396
 21
-36.895671
 31
0.0
  0
LINE
  5
24A
100
AcDbEntity
  8
2
370
    50
100
AcDbLine
 10
-78.239396
 20
-36.895671
 30
0.0
 11
-78.602396
 21
-36.545671
 31
0.0
  0
LINE
  5
24B
100
AcDbEntity
  8
2
370
    50
100
AcDbLine
 10
-78.602396
 20
-36.545671
 30
0.0
 11
-79.000396
 21
-36.232671
 31
0.0
  0
LINE
  5
24C
100
AcDbEntity
  8
2
370
    50
100
AcDbLine
 10
-79.000396
 20
-36.232671
 30
0.0
 11
-79.430396
 21
-35.960671
 31
0.0
  0
LINE
  5
24D
100
AcDbEntity
  8
2
370
    50
100
AcDbLine
 10
-79.430396
 20
-35.960671
 30
0.0
 11
-79.889396
 21
-35.734671
 31
0.0
  0
LINE
  5
24E
100
AcDbEntity
  8
2
370
    50
100
AcDbLine
 10
-79.889396
 20
-35.734671
 30
0.0
 11
-80.370396
 21
-35.558671
 31
0.0
  0
LINE
  5
24F
100
AcDbEntity
  8
2
370
    50
100
AcDbLine
 10
-80.370396
 20
-35.558671
 30
0.0
 11
-80.868396
 21
-35.435671
 31
0.0
  0
LINE
  5
250
100
AcDbEntity
  8
2
370
    50
100
AcDbLine
 10
-80.868396
 20
-35.435671
 30
0.0
 11
-81.378396
 21
-35.367671
 31
0.0
  0
LINE
  5
251
100
AcDbEntity
  8
2
370
    50
100
AcDbLine
 10
-81.378396
 20
-35.367671
 30
0.0
 11
-81.742396
 21
-35.353671
 31
0.0
  0
LINE
  5
252
100
AcDbEntity
  8
2
370
    50
100
AcDbLine
 10
-81.742396
 20
-35.353671
 30
0.0
 11
-81.892396
 21
-35.355671
 31
0.0
  0
LINE
  5
253
100
AcDbEntity
  8
2
370
    50
100
AcDbLine
 10
-81.892396
 20
-35.355671
 30
0.0
 11
-82.405396
 21
-35.400671
 31
0.0
  0
LINE
  5
254
100
AcDbEntity
  8
2
370
    50
100
AcDbLine
 10
-82.405396
 20
-35.400671
 30
0.0
 11
-82.909396
 21
-35.501671
 31
0.0
  0
LINE
  5
255
100
AcDbEntity
  8
2
370
    50
100
AcDbLine
 10
-82.909396
 20
-35.501671
 30
0.0
 11
-83.398396
 21
-35.655671
 31
0.0
  0
LINE
  5
256
100
AcDbEntity
  8
2
370
    50
100
AcDbLine
 10
-83.398396
 20
-35.655671
 30
0.0
 11
-83.866396
 21
-35.860671
 31
0.0
  0
LINE
  5
257
100
AcDbEntity
  8
2
370
    50
100
AcDbLine
 10
-83.866396
 20
-35.860671
 30
0.0
 11
-84.309396
 21
-36.113671
 31
0.0
  0
LINE
  5
258
100
AcDbEntity
  8
2
370
    50
100
AcDbLine
 10
-84.309396
 20
-36.113671
 30
0.0
 11
-84.721396
 21
-36.410671
 31
0.0
  0
LINE
  5
259
100
AcDbEntity
  8
2
370
    50
100
AcDbLine
 10
-84.721396
 20
-36.410671
 30
0.0
 11
-85.099396
 21
-36.745671
 31
0.0
  0
LINE
  5
25A
100
AcDbEntity
  8
2
370
    50
100
AcDbLine
 10
-85.099396
 20
-36.745671
 30
0.0
 11
-85.439396
 21
-37.115671
 31
0.0
  0
LINE
  5
25B
100
AcDbEntity
  8
2
370
    50
100
AcDbLine
 10
-85.439396
 20
-37.115671
 30
0.0
 11
-85.740396
 21
-37.515671
 31
0.0
  0
LINE
  5
25C
100
AcDbEntity
  8
2
370
    50
100
AcDbLine
 10
-85.740396
 20
-37.515671
 30
0.0
 11
-86.000396
 21
-37.941671
 31
0.0
  0
LINE
  5
25D
100
AcDbEntity
  8
2
370
    50
100
AcDbLine
 10
-86.000396
 20
-37.941671
 30
0.0
 11
-86.217396
 21
-38.387671
 31
0.0
  0
LINE
  5
25E
100
AcDbEntity
  8
2
370
    50
100
AcDbLine
 10
-86.217396
 20
-38.387671
 30
0.0
 11
-86.390396
 21
-38.849671
 31
0.0
  0
LINE
  5
25F
100
AcDbEntity
  8
2
370
    50
100
AcDbLine
 10
-86.390396
 20
-38.849671
 30
0.0
 11
-86.520396
 21
-39.325671
 31
0.0
  0
LINE
  5
260
100
AcDbEntity
  8
2
370
    50
100
AcDbLine
 10
-86.520396
 20
-39.325671
 30
0.0
 11
-86.605396
 21
-39.809671
 31
0.0
  0
LINE
  5
261
100
AcDbEntity
  8
2
370
    50
100
AcDbLine
 10
-86.605396
 20
-39.809671
 30
0.0
 11
-86.646396
 21
-40.298671
 31
0.0
  0
LINE
  5
262
100
AcDbEntity
  8
2
370
    50
100
AcDbLine
 10
-86.646396
 20
-40.298671
 30
0.0
 11
-86.650396
 21
-40.502671
 31
0.0
  0
LINE
  5
263
100
AcDbEntity
  8
2
370
    50
100
AcDbLine
 10
-76.834396
 20
-30.543671
 30
0.0
 11
-76.922396
 21
-30.059671
 31
0.0
  0
LINE
  5
264
100
AcDbEntity
  8
2
370
    50
100
AcDbLine
 10
-76.922396
 20
-30.059671
 30
0.0
 11
-77.164396
 21
-29.615671
 31
0.0
  0
LINE
  5
265
100
AcDbEntity
  8
2
370
    50
100
AcDbLine
 10
-77.164396
 20
-29.615671
 30
0.0
 11
-77.515396
 21
-29.235671
 31
0.0
  0
LINE
  5
266
100
AcDbEntity
  8
2
370
    50
100
AcDbLine
 10
-77.515396
 20
-29.235671
 30
0.0
 11
-77.921396
 21
-28.927671
 31
0.0
  0
LINE
  5
267
100
AcDbEntity
  8
2
370
    50
100
AcDbLine
 10
-77.921396
 20
-28.927671
 30
0.0
 11
-78.343396
 21
-28.686671
 31
0.0
  0
LINE
  5
268
100
AcDbEntity
  8
2
370
    50
100
AcDbLine
 10
-78.343396
 20
-28.686671
 30
0.0
 11
-78.756396
 21
-28.500671
 31
0.0
  0
LINE
  5
269
100
AcDbEntity
  8
2
370
    50
100
AcDbLine
 10
-78.756396
 20
-28.500671
 30
0.0
 11
-79.148396
 21
-28.358671
 31
0.0
  0
LINE
  5
26A
100
AcDbEntity
  8
2
370
    50
100
AcDbLine
 10
-79.148396
 20
-28.358671
 30
0.0
 11
-79.515396
 21
-28.249671
 31
0.0
  0
LINE
  5
26B
100
AcDbEntity
  8
2
370
    50
100
AcDbLine
 10
-79.515396
 20
-28.249671
 30
0.0
 11
-79.856396
 21
-28.166671
 31
0.0
  0
LINE
  5
26C
100
AcDbEntity
  8
2
370
    50
100
AcDbLine
 10
-79.856396
 20
-28.166671
 30
0.0
 11
-80.176396
 21
-28.103671
 31
0.0
  0
LINE
  5
26D
100
AcDbEntity
  8
2
370
    50
100
AcDbLine
 10
-80.176396
 20
-28.103671
 30
0.0
 11
-80.476396
 21
-28.056671
 31
0.0
  0
LINE
  5
26E
100
AcDbEntity
  8
2
370
    50
100
AcDbLine
 10
-80.476396
 20
-28.056671
 30
0.0
 11
-80.762396
 21
-28.020671
 31
0.0
  0
LINE
  5
26F
100
AcDbEntity
  8
2
370
    50
100
AcDbLine
 10
-80.762396
 20
-28.020671
 30
0.0
 11
-81.035396
 21
-27.995671
 31
0.0
  0
LINE
  5
270
100
AcDbEntity
  8
2
370
    50
100
AcDbLine
 10
-81.035396
 20
-27.995671
 30
0.0
 11
-81.300396
 21
-27.979671
 31
0.0
  0
LINE
  5
271
100
AcDbEntity
  8
2
370
    50
100
AcDbLine
 10
-81.300396
 20
-27.979671
 30
0.0
 11
-81.560396
 21
-27.970671
 31
0.0
  0
LINE
  5
272
100
AcDbEntity
  8
2
370
    50
100
AcDbLine
 10
-81.560396
 20
-27.970671
 30
0.0
 11
-81.817396
 21
-27.969671
 31
0.0
  0
LINE
  5
273
100
AcDbEntity
  8
2
370
    50
100
AcDbLine
 10
-81.817396
 20
-27.969671
 30
0.0
 11
-82.076396
 21
-27.975671
 31
0.0
  0
LINE
  5
274
100
AcDbEntity
  8
2
370
    50
100
AcDbLine
 10
-82.076396
 20
-27.975671
 30
0.0
 11
-82.338396
 21
-27.988671
 31
0.0
  0
LINE
  5
275
100
AcDbEntity
  8
2
370
    50
100
AcDbLine
 10
-82.338396
 20
-27.988671
 30
0.0
 11
-82.608396
 21
-28.009671
 31
0.0
  0
LINE
  5
276
100
AcDbEntity
  8
2
370
    50
100
AcDbLine
 10
-82.608396
 20
-28.009671
 30
0.0
 11
-82.888396
 21
-28.040671
 31
0.0
  0
LINE
  5
277
100
AcDbEntity
  8
2
370
    50
100
AcDbLine
 10
-82.888396
 20
-28.040671
 30
0.0
 11
-83.181396
 21
-28.082671
 31
0.0
  0
LINE
  5
278
100
AcDbEntity
  8
2
370
    50
100
AcDbLine
 10
-83.181396
 20
-28.082671
 30
0.0
 11
-83.493396
 21
-28.138671
 31
0.0
  0
LINE
  5
279
100
AcDbEntity
  8
2
370
    50
100
AcDbLine
 10
-83.493396
 20
-28.138671
 30
0.0
 11
-83.825396
 21
-28.212671
 31
0.0
  0
LINE
  5
27A
100
AcDbEntity
  8
2
370
    50
100
AcDbLine
 10
-83.825396
 20
-28.212671
 30
0.0
 11
-84.181396
 21
-28.309671
 31
0.0
  0
LINE
  5
27B
100
AcDbEntity
  8
2
370
    50
100
AcDbLine
 10
-84.181396
 20
-28.309671
 30
0.0
 11
-84.562396
 21
-28.436671
 31
0.0
  0
LINE
  5
27C
100
AcDbEntity
  8
2
370
    50
100
AcDbLine
 10
-84.562396
 20
-28.436671
 30
0.0
 11
-84.967396
 21
-28.602671
 31
0.0
  0
LINE
  5
27D
100
AcDbEntity
  8
2
370
    50
100
AcDbLine
 10
-84.967396
 20
-28.602671
 30
0.0
 11
-85.388396
 21
-28.819671
 31
0.0
  0
LINE
  5
27E
100
AcDbEntity
  8
2
370
    50
100
AcDbLine
 10
-85.388396
 20
-28.819671
 30
0.0
 11
-85.805396
 21
-29.098671
 31
0.0
  0
LINE
  5
27F
100
AcDbEntity
  8
2
370
    50
100
AcDbLine
 10
-85.805396
 20
-29.098671
 30
0.0
 11
-86.184396
 21
-29.448671
 31
0.0
  0
LINE
  5
280
100
AcDbEntity
  8
2
370
    50
100
AcDbLine
 10
-86.184396
 20
-29.448671
 30
0.0
 11
-86.478396
 21
-29.867671
 31
0.0
  0
LINE
  5
281
100
AcDbEntity
  8
2
370
    50
100
AcDbLine
 10
-86.478396
 20
-29.867671
 30
0.0
 11
-86.635396
 21
-30.339671
 31
0.0
  0
LINE
  5
282
100
AcDbEntity
  8
2
370
    50
100
AcDbLine
 10
-86.635396
 20
-30.339671
 30
0.0
 11
-86.650396
 21
-30.543671
 31
0.0
  0
LINE
  5
283
100
AcDbEntity
  8
2
370
    50
100
AcDbLine
 10
-86.650396
 20
-30.543671
 30
0.0
 11
-86.620396
 21
-30.828671
 31
0.0
  0
LINE
  5
284
100
AcDbEntity
  8
2
370
    50
100
AcDbLine
 10
-86.620396
 20
-30.828671
 30
0.0
 11
-86.437396
 21
-31.293671
 31
0.0
  0
LINE
  5
285
100
AcDbEntity
  8
2
370
    50
100
AcDbLine
 10
-86.437396
 20
-31.293671
 30
0.0
 11
-86.125396
 21
-31.701671
 31
0.0
  0
LINE
  5
286
100
AcDbEntity
  8
2
370
    50
100
AcDbLine
 10
-86.125396
 20
-31.701671
 30
0.0
 11
-85.736396
 21
-32.039671
 31
0.0
  0
LINE
  5
287
100
AcDbEntity
  8
2
370
    50
100
AcDbLine
 10
-85.736396
 20
-32.039671
 30
0.0
 11
-85.317396
 21
-32.306671
 31
0.0
  0
LINE
  5
288
100
AcDbEntity
  8
2
370
    50
100
AcDbLine
 10
-85.317396
 20
-32.306671
 30
0.0
 11
-84.898396
 21
-32.514671
 31
0.0
  0
LINE
  5
289
100
AcDbEntity
  8
2
370
    50
100
AcDbLine
 10
-84.898396
 20
-32.514671
 30
0.0
 11
-84.496396
 21
-32.673671
 31
0.0
  0
LINE
  5
28A
100
AcDbEntity
  8
2
370
    50
100
AcDbLine
 10
-84.496396
 20
-32.673671
 30
0.0
 11
-84.119396
 21
-32.795671
 31
0.0
  0
LINE
  5
28B
100
AcDbEntity
  8
2
370
    50
100
AcDbLine
 10
-84.119396
 20
-32.795671
 30
0.0
 11
-83.767396
 21
-32.887671
 31
0.0
  0
LINE
  5
28C
100
AcDbEntity
  8
2
370
    50
100
AcDbLine
 10
-83.767396
 20
-32.887671
 30
0.0
 11
-83.439396
 21
-32.958671
 31
0.0
  0
LINE
  5
28D
100
AcDbEntity
  8
2
370
    50
100
AcDbLine
 10
-83.439396
 20
-32.958671
 30
0.0
 11
-83.131396
 21
-33.011671
 31
0.0
  0
LINE
  5
28E
100
AcDbEntity
  8
2
370
    50
100
AcDbLine
 10
-83.131396
 20
-33.011671
 30
0.0
 11
-82.840396
 21
-33.051671
 31
0.0
  0
LINE
  5
28F
100
AcDbEntity
  8
2
370
    50
100
AcDbLine
 10
-82.840396
 20
-33.051671
 30
0.0
 11
-82.562396
 21
-33.080671
 31
0.0
  0
LINE
  5
290
100
AcDbEntity
  8
2
370
    50
100
AcDbLine
 10
-82.562396
 20
-33.080671
 30
0.0
 11
-82.294396
 21
-33.100671
 31
0.0
  0
LINE
  5
291
100
AcDbEntity
  8
2
370
    50
100
AcDbLine
 10
-82.294396
 20
-33.100671
 30
0.0
 11
-82.032396
 21
-33.112671
 31
0.0
  0
LINE
  5
292
100
AcDbEntity
  8
2
370
    50
100
AcDbLine
 10
-82.032396
 20
-33.112671
 30
0.0
 11
-81.774396
 21
-33.117671
 31
0.0
  0
LINE
  5
293
100
AcDbEntity
  8
2
370
    50
100
AcDbLine
 10
-81.774396
 20
-33.117671
 30
0.0
 11
-81.516396
 21
-33.114671
 31
0.0
  0
LINE
  5
294
100
AcDbEntity
  8
2
370
    50
100
AcDbLine
 10
-81.516396
 20
-33.114671
 30
0.0
 11
-81.256396
 21
-33.104671
 31
0.0
  0
LINE
  5
295
100
AcDbEntity
  8
2
370
    50
100
AcDbLine
 10
-81.256396
 20
-33.104671
 30
0.0
 11
-80.990396
 21
-33.086671
 31
0.0
  0
LINE
  5
296
100
AcDbEntity
  8
2
370
    50
100
AcDbLine
 10
-80.990396
 20
-33.086671
 30
0.0
 11
-80.715396
 21
-33.060671
 31
0.0
  0
LINE
  5
297
100
AcDbEntity
  8
2
370
    50
100
AcDbLine
 10
-80.715396
 20
-33.060671
 30
0.0
 11
-80.427396
 21
-33.022671
 31
0.0
  0
LINE
  5
298
100
AcDbEntity
  8
2
370
    50
100
AcDbLine
 10
-80.427396
 20
-33.022671
 30
0.0
 11
-80.124396
 21
-32.973671
 31
0.0
  0
LINE
  5
299
100
AcDbEntity
  8
2
370
    50
100
AcDbLine
 10
-80.124396
 20
-32.973671
 30
0.0
 11
-79.801396
 21
-32.907671
 31
0.0
  0
LINE
  5
29A
100
AcDbEntity
  8
2
370
    50
100
AcDbLine
 10
-79.801396
 20
-32.907671
 30
0.0
 11
-79.455396
 21
-32.820671
 31
0.0
  0
LINE
  5
29B
100
AcDbEntity
  8
2
370
    50
100
AcDbLine
 10
-79.455396
 20
-32.820671
 30
0.0
 11
-79.084396
 21
-32.706671
 31
0.0
  0
LINE
  5
29C
100
AcDbEntity
  8
2
370
    50
100
AcDbLine
 10
-79.084396
 20
-32.706671
 30
0.0
 11
-78.688396
 21
-32.558671
 31
0.0
  0
LINE
  5
29D
100
AcDbEntity
  8
2
370
    50
100
AcDbLine
 10
-78.688396
 20
-32.558671
 30
0.0
 11
-78.272396
 21
-32.363671
 31
0.0
  0
LINE
  5
29E
100
AcDbEntity
  8
2
370
    50
100
AcDbLine
 10
-78.272396
 20
-32.363671
 30
0.0
 11
-77.851396
 21
-32.111671
 31
0.0
  0
LINE
  5
29F
100
AcDbEntity
  8
2
370
    50
100
AcDbLine
 10
-77.851396
 20
-32.111671
 30
0.0
 11
-77.451396
 21
-31.791671
 31
0.0
  0
LINE
  5
2A0
100
AcDbEntity
  8
2
370
    50
100
AcDbLine
 10
-77.451396
 20
-31.791671
 30
0.0
 11
-77.114396
 21
-31.400671
 31
0.0
  0
LINE
  5
2A1
100
AcDbEntity
  8
2
370
    50
100
AcDbLine
 10
-77.114396
 20
-31.400671
 30
0.0
 11
-76.895396
 21
-30.947671
 31
0.0
  0
LINE
  5
2A2
100
AcDbEntity
  8
2
370
    50
100
AcDbLine
 10
-76.895396
 20
-30.947671
 30
0.0
 11
-76.834396
 21
-30.543671
 31
0.0
  0
LINE
  5
2A3
100
AcDbEntity
  8
2
370
    50
100
AcDbLine
 10
-76.834396
 20
-40.502671
 30
0.0
 11
-76.856396
 21
-40.992671
 31
0.0
  0
LINE
  5
2A4
100
AcDbEntity
  8
2
370
    50
100
AcDbLine
 10
-76.856396
 20
-40.992671
 30
0.0
 11
-76.923396
 21
-41.479671
 31
0.0
  0
LINE
  5
2A5
100
AcDbEntity
  8
2
370
    50
100
AcDbLine
 10
-76.923396
 20
-41.479671
 30
0.0
 11
-77.035396
 21
-41.958671
 31
0.0
  0
LINE
  5
2A6
100
AcDbEntity
  8
2
370
    50
100
AcDbLine
 10
-77.035396
 20
-41.958671
 30
0.0
 11
-77.190396
 21
-42.427671
 31
0.0
  0
LINE
  5
2A7
100
AcDbEntity
  8
2
370
    50
100
AcDbLine
 10
-77.190396
 20
-42.427671
 30
0.0
 11
-77.389396
 21
-42.880671
 31
0.0
  0
LINE
  5
2A8
100
AcDbEntity
  8
2
370
    50
100
AcDbLine
 10
-77.389396
 20
-42.880671
 30
0.0
 11
-77.631396
 21
-43.315671
 31
0.0
  0
LINE
  5
2A9
100
AcDbEntity
  8
2
370
    50
100
AcDbLine
 10
-77.631396
 20
-43.315671
 30
0.0
 11
-77.915396
 21
-43.726671
 31
0.0
  0
LINE
  5
2AA
100
AcDbEntity
  8
2
370
    50
100
AcDbLine
 10
-77.915396
 20
-43.726671
 30
0.0
 11
-78.239396
 21
-44.109671
 31
0.0
  0
LINE
  5
2AB
100
AcDbEntity
  8
2
370
    50
100
AcDbLine
 10
-78.239396
 20
-44.109671
 30
0.0
 11
-78.602396
 21
-44.459671
 31
0.0
  0
LINE
  5
2AC
100
AcDbEntity
  8
2
370
    50
100
AcDbLine
 10
-78.602396
 20
-44.459671
 30
0.0
 11
-79.000396
 21
-44.772671
 31
0.0
  0
LINE
  5
2AD
100
AcDbEntity
  8
2
370
    50
100
AcDbLine
 10
-79.000396
 20
-44.772671
 30
0.0
 11
-79.430396
 21
-45.044671
 31
0.0
  0
LINE
  5
2AE
100
AcDbEntity
  8
2
370
    50
100
AcDbLine
 10
-79.430396
 20
-45.044671
 30
0.0
 11
-79.889396
 21
-45.270671
 31
0.0
  0
LINE
  5
2AF
100
AcDbEntity
  8
2
370
    50
100
AcDbLine
 10
-79.889396
 20
-45.270671
 30
0.0
 11
-80.370396
 21
-45.446671
 31
0.0
  0
LINE
  5
2B0
100
AcDbEntity
  8
2
370
    50
100
AcDbLine
 10
-80.370396
 20
-45.446671
 30
0.0
 11
-80.868396
 21
-45.569671
 31
0.0
  0
LINE
  5
2B1
100
AcDbEntity
  8
2
370
    50
100
AcDbLine
 10
-80.868396
 20
-45.569671
 30
0.0
 11
-81.065271
 21
-45.595921
 31
0.0
  0
LINE
  5
2B2
100
AcDbEntity
  8
2
370
    50
100
AcDbLine
 10
-76.834396
 20
-50.461671
 30
0.0
 11
-76.922396
 21
-50.945671
 31
0.0
  0
LINE
  5
2B3
100
AcDbEntity
  8
2
370
    50
100
AcDbLine
 10
-76.922396
 20
-50.945671
 30
0.0
 11
-77.164396
 21
-51.389671
 31
0.0
  0
LINE
  5
2B4
100
AcDbEntity
  8
2
370
    50
100
AcDbLine
 10
-77.164396
 20
-51.389671
 30
0.0
 11
-77.515396
 21
-51.769671
 31
0.0
  0
LINE
  5
2B5
100
AcDbEntity
  8
2
370
    50
100
AcDbLine
 10
-77.515396
 20
-51.769671
 30
0.0
 11
-77.921396
 21
-52.077671
 31
0.0
  0
LINE
  5
2B6
100
AcDbEntity
  8
2
370
    50
100
AcDbLine
 10
-77.921396
 20
-52.077671
 30
0.0
 11
-78.343396
 21
-52.318671
 31
0.0
  0
LINE
  5
2B7
100
AcDbEntity
  8
2
370
    50
100
AcDbLine
 10
-78.343396
 20
-52.318671
 30
0.0
 11
-78.756396
 21
-52.504671
 31
0.0
  0
LINE
  5
2B8
100
AcDbEntity
  8
2
370
    50
100
AcDbLine
 10
-78.756396
 20
-52.504671
 30
0.0
 11
-79.148396
 21
-52.646671
 31
0.0
  0
LINE
  5
2B9
100
AcDbEntity
  8
2
370
    50
100
AcDbLine
 10
-79.148396
 20
-52.646671
 30
0.0
 11
-79.515396
 21
-52.755671
 31
0.0
  0
LINE
  5
2BA
100
AcDbEntity
  8
2
370
    50
100
AcDbLine
 10
-79.515396
 20
-52.755671
 30
0.0
 11
-79.856396
 21
-52.838671
 31
0.0
  0
LINE
  5
2BB
100
AcDbEntity
  8
2
370
    50
100
AcDbLine
 10
-79.856396
 20
-52.838671
 30
0.0
 11
-80.176396
 21
-52.901671
 31
0.0
  0
LINE
  5
2BC
100
AcDbEntity
  8
2
370
    50
100
AcDbLine
 10
-80.176396
 20
-52.901671
 30
0.0
 11
-80.476396
 21
-52.948671
 31
0.0
  0
LINE
  5
2BD
100
AcDbEntity
  8
2
370
    50
100
AcDbLine
 10
-80.476396
 20
-52.948671
 30
0.0
 11
-80.543229
 21
-52.957083
 31
0.0
  0
LINE
  5
2BE
100
AcDbEntity
  8
2
370
    50
100
AcDbLine
 10
-80.88877
 20
-47.928279
 30
0.0
 11
-80.715396
 21
-47.944671
 31
0.0
  0
LINE
  5
2BF
100
AcDbEntity
  8
2
370
    50
100
AcDbLine
 10
-80.715396
 20
-47.944671
 30
0.0
 11
-80.427396
 21
-47.982671
 31
0.0
  0
LINE
  5
2C0
100
AcDbEntity
  8
2
370
    50
100
AcDbLine
 10
-80.427396
 20
-47.982671
 30
0.0
 11
-80.124396
 21
-48.031671
 31
0.0
  0
LINE
  5
2C1
100
AcDbEntity
  8
2
370
    50
100
AcDbLine
 10
-80.124396
 20
-48.031671
 30
0.0
 11
-79.801396
 21
-48.097671
 31
0.0
  0
LINE
  5
2C2
100
AcDbEntity
  8
2
370
    50
100
AcDbLine
 10
-79.801396
 20
-48.097671
 30
0.0
 11
-79.455396
 21
-48.184671
 31
0.0
  0
LINE
  5
2C3
100
AcDbEntity
  8
2
370
    50
100
AcDbLine
 10
-79.455396
 20
-48.184671
 30
0.0
 11
-79.084396
 21
-48.298671
 31
0.0
  0
LINE
  5
2C4
100
AcDbEntity
  8
2
370
    50
100
AcDbLine
 10
-79.084396
 20
-48.298671
 30
0.0
 11
-78.688396
 21
-48.446671
 31
0.0
  0
LINE
  5
2C5
100
AcDbEntity
  8
2
370
    50
100
AcDbLine
 10
-78.688396
 20
-48.446671
 30
0.0
 11
-78.272396
 21
-48.641671
 31
0.0
  0
LINE
  5
2C6
100
AcDbEntity
  8
2
370
    50
100
AcDbLine
 10
-78.272396
 20
-48.641671
 30
0.0
 11
-77.851396
 21
-48.893671
 31
0.0
  0
LINE
  5
2C7
100
AcDbEntity
  8
2
370
    50
100
AcDbLine
 10
-77.851396
 20
-48.893671
 30
0.0
 11
-77.451396
 21
-49.213671
 31
0.0
  0
LINE
  5
2C8
100
AcDbEntity
  8
2
370
    50
100
AcDbLine
 10
-77.451396
 20
-49.213671
 30
0.0
 11
-77.114396
 21
-49.604671
 31
0.0
  0
LINE
  5
2C9
100
AcDbEntity
  8
2
370
    50
100
AcDbLine
 10
-77.114396
 20
-49.604671
 30
0.0
 11
-76.895396
 21
-50.057671
 31
0.0
  0
LINE
  5
2CA
100
AcDbEntity
  8
2
370
    50
100
AcDbLine
 10
-76.895396
 20
-50.057671
 30
0.0
 11
-76.834396
 21
-50.461671
 31
0.0
  0
LINE
  5
2CB
100
AcDbEntity
  8
2
370
    50
100
AcDbLine
 10
48.731357
 20
-70.502671
 30
0.0
 11
48.731357
 21
-40.502671
 31
0.0
  0
LINE
  5
2CC
100
AcDbEntity
  8
2
370
    50
100
AcDbLine
 10
32.731357
 20
-52.706839
 30
0.0
 11
32.731357
 21
-40.502671
 31
0.0
  0
LINE
  5
2CD
100
AcDbEntity
  8
2
370
    50
100
AcDbLine
 10
48.731357
 20
-70.502671
 30
0.0
 11
46.731357
 21
-70.502671
 31
0.0
  0
LINE
  5
2CE
100
AcDbEntity
  8
2
370
    50
100
AcDbLine
 10
48.731357
 20
-10.502671
 30
0.0
 11
48.731357
 21
-40.502671
 31
0.0
  0
LINE
  5
2CF
100
AcDbEntity
  8
2
370
    50
100
AcDbLine
 10
32.731357
 20
-28.298502
 30
0.0
 11
32.731357
 21
-40.502671
 31
0.0
  0
LINE
  5
2D0
100
AcDbEntity
  8
2
370
    50
100
AcDbLine
 10
48.731357
 20
-10.502671
 30
0.0
 11
46.731357
 21
-10.502671
 31
0.0
  0
LINE
  5
2D1
100
AcDbEntity
  8
2
370
    50
100
AcDbLine
 10
48.731357
 20
32.647943
 30
0.0
 11
48.731357
 21
62.647943
 31
0.0
  0
LINE
  5
2D2
100
AcDbEntity
  8
2
370
    50
100
AcDbLine
 10
32.731357
 20
50.443775
 30
0.0
 11
32.731357
 21
62.647943
 31
0.0
  0
LINE
  5
2D3
100
AcDbEntity
  8
2
370
    50
100
AcDbLine
 10
48.731357
 20
32.647943
 30
0.0
 11
46.731357
 21
32.647943
 31
0.0
  0
LINE
  5
2D4
100
AcDbEntity
  8
2
370
    50
100
AcDbLine
 10
48.731357
 20
92.647943
 30
0.0
 11
48.731357
 21
62.647943
 31
0.0
  0
LINE
  5
2D5
100
AcDbEntity
  8
2
370
    50
100
AcDbLine
 10
32.731357
 20
74.852112
 30
0.0
 11
32.731357
 21
62.647943
 31
0.0
  0
LINE
  5
2D6
100
AcDbEntity
  8
2
370
    50
100
AcDbLine
 10
48.731357
 20
92.647943
 30
0.0
 11
46.731357
 21
92.647943
 31
0.0
  0
LINE
  5
2D7
100
AcDbEntity
  8
2
370
    50
100
AcDbLine
 10
-83.898907
 20
6.657216
 30
0.0
 11
-84.042396
 21
3.497329
 31
0.0
  0
LINE
  5
2D8
100
AcDbEntity
  8
2
370
    50
100
AcDbLine
 10
-78.29549
 20
12.372324
 30
0.0
 11
-61.042396
 21
13.497329
 31
0.0
  0
LINE
  5
2D9
100
AcDbEntity
  8
2
370
    50
100
AcDbLine
 10
-84.042396
 20
3.497329
 30
0.0
 11
-53.042396
 21
3.497329
 31
0.0
  0
LINE
  5
2DA
100
AcDbEntity
  8
2
370
    50
100
AcDbLine
 10
-53.042396
 20
13.497329
 30
0.0
 11
-61.042396
 21
13.497329
 31
0.0
  0
LINE
  5
2DB
100
AcDbEntity
  8
2
370
    50
100
AcDbLine
 10
-45.042396
 20
13.497329
 30
0.0
 11
-53.042396
 21
13.497329
 31
0.0
  0
LINE
  5
2DC
100
AcDbEntity
  8
2
370
    50
100
AcDbLine
 10
-34.73422
 20
7.157536
 30
0.0
 11
-34.542396
 21
3.497329
 31
0.0
  0
LINE
  5
2DD
100
AcDbEntity
  8
2
370
    50
100
AcDbLine
 10
-39.904314
 20
12.786991
 30
0.0
 11
-45.042396
 21
13.497329
 31
0.0
  0
LINE
  5
2DE
100
AcDbEntity
  8
2
370
    50
100
AcDbLine
 10
-34.542396
 20
3.497329
 30
0.0
 11
-53.042396
 21
3.497329
 31
0.0
  0
ARC
  5
2DF
100
AcDbEntity
  8
2
370
    50
100
AcDbCircle
 10
-77.905083
 20
6.385039
 30
0.0
 40
6.0
100
AcDbArc
 50
93.730748
 51
177.4
  0
ARC
  5
2E0
100
AcDbEntity
  8
2
370
    50
100
AcDbCircle
 10
-40.725997
 20
6.84352
 30
0.0
 40
6.0
100
AcDbArc
 50
3.0
 51
82.128767
  0
POINT
  5
2E1
100
AcDbEntity
  8
2
370
    50
100
AcDbPoint
 10
-53.042396
 20
-1.530671
 30
0.0
  0
POINT
  5
2E2
100
AcDbEntity
  8
2
370
    50
100
AcDbPoint
 10
-53.042396
 20
-1.530671
 30
0.0
  0
POINT
  5
2E3
100
AcDbEntity
  8
2
370
    50
100
AcDbPoint
 10
-53.042396
 20
-1.530671
 30
0.0
  0
POINT
  5
2E4
100
AcDbEntity
  8
2
370
    50
100
AcDbPoint
 10
-53.042396
 20
-1.530671
 30
0.0
  0
POINT
  5
2E5
100
AcDbEntity
  8
2
370
    50
100
AcDbPoint
 10
-53.042396
 20
-1.530671
 30
0.0
  0
POINT
  5
2E6
100
AcDbEntity
  8
2
370
    50
100
AcDbPoint
 10
-53.042396
 20
-1.530671
 30
0.0
  0
POINT
  5
2E7
100
AcDbEntity
  8
2
370
    50
100
AcDbPoint
 10
-53.042396
 20
-1.530671
 30
0.0
  0
POINT
  5
2E8
100
AcDbEntity
  8
2
370
    50
100
AcDbPoint
 10
-53.042396
 20
-1.530671
 30
0.0
  0
POINT
  5
2E9
100
AcDbEntity
  8
2
370
    50
100
AcDbPoint
 10
-53.042396
 20
-1.530671
 30
0.0
  0
POINT
  5
2EA
100
AcDbEntity
  8
2
370
    50
100
AcDbPoint
 10
-53.042396
 20
-1.530671
 30
0.0
  0
POINT
  5
2EB
100
AcDbEntity
  8
2
370
    50
100
AcDbPoint
 10
-53.042396
 20
-1.530671
 30
0.0
  0
POINT
  5
2EC
100
AcDbEntity
  8
2
370
    50
100
AcDbPoint
 10
-53.042396
 20
-1.530671
 30
0.0
  0
POINT
  5
2ED
100
AcDbEntity
  8
2
370
    50
100
AcDbPoint
 10
-53.042396
 20
-1.530671
 30
0.0
  0
POINT
  5
2EE
100
AcDbEntity
  8
2
370
    50
100
AcDbPoint
 10
-53.042396
 20
-1.530671
 30
0.0
  0
POINT
  5
2EF
100
AcDbEntity
  8
2
370
    50
100
AcDbPoint
 10
-53.042396
 20
-1.530671
 30
0.0
  0
POINT
  5
2F0
100
AcDbEntity
  8
2
370
    50
100
AcDbPoint
 10
-53.042396
 20
-1.530671
 30
0.0
  0
POINT
  5
2F1
100
AcDbEntity
  8
2
370
    50
100
AcDbPoint
 10
-53.042396
 20
-1.530671
 30
0.0
  0
POINT
  5
2F2
100
AcDbEntity
  8
2
370
    50
100
AcDbPoint
 10
-53.042396
 20
-1.530671
 30
0.0
  0
POINT
  5
2F3
100
AcDbEntity
  8
2
370
    50
100
AcDbPoint
 10
-53.042396
 20
-1.530671
 30
0.0
  0
POINT
  5
2F4
100
AcDbEntity
  8
2
370
    50
100
AcDbPoint
 10
-53.042396
 20
-1.530671
 30
0.0
  0
POINT
  5
2F5
100
AcDbEntity
  8
2
370
    50
100
AcDbPoint
 10
-53.042396
 20
-1.530671
 30
0.0
  0
POINT
  5
2F6
100
AcDbEntity
  8
2
370
    50
100
AcDbPoint
 10
-53.042396
 20
-1.530671
 30
0.0
  0
POINT
  5
2F7
100
AcDbEntity
  8
2
370
    50
100
AcDbPoint
 10
-53.042396
 20
-1.530671
 30
0.0
  0
POINT
  5
2F8
100
AcDbEntity
  8
2
370
    50
100
AcDbPoint
 10
-53.042396
 20
-1.530671
 30
0.0
  0
POINT
  5
2F9
100
AcDbEntity
  8
2
370
    50
100
AcDbPoint
 10
-53.042396
 20
-1.530671
 30
0.0
  0
POINT
  5
2FA
100
AcDbEntity
  8
2
370
    50
100
AcDbPoint
 10
-53.042396
 20
-1.530671
 30
0.0
  0
POINT
  5
2FB
100
AcDbEntity
  8
2
370
    50
100
AcDbPoint
 10
-53.042396
 20
-1.530671
 30
0.0
  0
POINT
  5
2FC
100
AcDbEntity
  8
2
370
    50
100
AcDbPoint
 10
-53.042396
 20
-1.530671
 30
0.0
  0
POINT
  5
2FD
100
AcDbEntity
  8
2
370
    50
100
AcDbPoint
 10
-53.042396
 20
-1.530671
 30
0.0
  0
POINT
  5
2FE
100
AcDbEntity
  8
2
370
    50
100
AcDbPoint
 10
-53.042396
 20
-1.530671
 30
0.0
  0
POINT
  5
2FF
100
AcDbEntity
  8
2
370
    50
100
AcDbPoint
 10
-53.042396
 20
-1.530671
 30
0.0
  0
POINT
  5
300
100
AcDbEntity
  8
2
370
    50
100
AcDbPoint
 10
-53.042396
 20
-1.530671
 30
0.0
  0
POINT
  5
301
100
AcDbEntity
  8
2
370
    50
100
AcDbPoint
 10
-53.042396
 20
-1.530671
 30
0.0
  0
POINT
  5
302
100
AcDbEntity
  8
2
370
    50
100
AcDbPoint
 10
-53.042396
 20
-1.530671
 30
0.0
  0
POINT
  5
303
100
AcDbEntity
  8
2
370
    50
100
AcDbPoint
 10
-53.042396
 20
-1.530671
 30
0.0
  0
POINT
  5
304
100
AcDbEntity
  8
2
370
    50
100
AcDbPoint
 10
-53.042396
 20
-1.530671
 30
0.0
  0
POINT
  5
305
100
AcDbEntity
  8
2
370
    50
100
AcDbPoint
 10
-53.042396
 20
-1.530671
 30
0.0
  0
POINT
  5
306
100
AcDbEntity
  8
2
370
    50
100
AcDbPoint
 10
-53.042396
 20
-1.530671
 30
0.0
  0
POINT
  5
307
100
AcDbEntity
  8
2
370
    50
100
AcDbPoint
 10
-53.042396
 20
-1.530671
 30
0.0
  0
ARC
  5
308
100
AcDbEntity
  8
2
370
    50
100
AcDbCircle
 10
-70.042396
 20
33.20308
 30
0.0
 40
20.0
100
AcDbArc
 50
46.392867
 51
73.642274
  0
ARC
  5
309
100
AcDbEntity
  8
2
370
    50
100
AcDbCircle
 10
-40.542362
 20
40.997328
 30
0.0
 40
6.0
100
AcDbArc
 50
223.11199
 51
16.913084
  0
LINE
  5
30A
100
AcDbEntity
  8
2
370
    50
100
AcDbLine
 10
-44.922478
 20
36.896769
 30
0.0
 11
-56.248202
 21
47.6848
 31
0.0
  0
ARC
  5
30B
100
AcDbEntity
  8
2
370
    50
100
AcDbCircle
 10
-40.542431
 20
84.298598
 30
0.0
 40
6.0
100
AcDbArc
 50
343.11199
 51
133.99098
  0
LINE
  5
30C
100
AcDbEntity
  8
2
370
    50
100
AcDbLine
 10
-79.767205
 20
56.901162
 30
0.0
 11
-64.409725
 21
52.39352
 31
0.0
  0
LINE
  5
30D
100
AcDbEntity
  8
2
370
    50
100
AcDbLine
 10
-79.403527
 20
68.491475
 30
0.0
 11
-64.397956
 21
72.905825
 31
0.0
  0
LINE
  5
30E
100
AcDbEntity
  8
2
370
    50
100
AcDbLine
 10
-44.656851
 20
88.665697
 30
0.0
 11
-56.239323
 21
77.61955
 31
0.0
  0
ARC
  5
30F
100
AcDbEntity
  8
2
370
    50
100
AcDbCircle
 10
-70.042396
 20
92.092807
 30
0.0
 40
20.0
100
AcDbArc
 50
286.392867
 51
313.642274
  0
LINE
  5
310
100
AcDbEntity
  8
2
370
    50
100
AcDbLine
 10
-34.801184
 20
82.555586
 30
0.0
 11
-38.481031
 21
67.353206
 31
0.0
  0
LINE
  5
311
100
AcDbEntity
  8
2
370
    50
100
AcDbLine
 10
-34.703134
 20
42.376971
 30
0.0
 11
-38.478141
 21
57.93076
 31
0.0
  0
ARC
  5
312
100
AcDbEntity
  8
2
370
    50
100
AcDbCircle
 10
-19.042396
 20
62.647943
 30
0.0
 40
20.0
100
AcDbArc
 50
166.392867
 51
193.642274
  0
ARC
  5
313
100
AcDbEntity
  8
2
370
    50
100
AcDbCircle
 10
-78.042396
 20
62.647904
 30
0.0
 40
6.0
100
AcDbArc
 50
103.11199
 51
253.99098
  0
LINE
  5
314
100
AcDbEntity
  8
2
370
    50
100
AcDbLine
 10
-12.618396
 20
73.047943
 30
0.0
 11
-14.202396
 21
72.082943
 31
0.0
  0
LINE
  5
315
100
AcDbEntity
  8
2
370
    50
100
AcDbLine
 10
-14.202396
 20
73.244943
 30
0.0
 11
-18.042396
 21
73.125187
 31
0.0
  0
LINE
  5
316
100
AcDbEntity
  8
2
370
    50
100
AcDbLine
 10
-18.042396
 20
71.962943
 30
0.0
 11
-14.202396
 21
72.082943
 31
0.0
  0
LINE
  5
317
100
AcDbEntity
  8
2
370
    50
100
AcDbLine
 10
-14.202396
 20
62.647943
 30
0.0
 11
-14.202396
 21
73.244943
 31
0.0
  0
LINE
  5
318
100
AcDbEntity
  8
2
370
    50
100
AcDbLine
 10
7.495903
 20
52.248293
 30
0.0
 11
-14.202396
 21
52.247943
 31
0.0
  0
LINE
  5
319
100
AcDbEntity
  8
2
370
    50
100
AcDbLine
 10
7.495903
 20
73.048139
 30
0.0
 11
-14.202396
 21
73.047943
 31
0.0
  0
LINE
  5
31A
100
AcDbEntity
  8
2
370
    50
100
AcDbLine
 10
-12.615882
 20
52.249255
 30
0.0
 11
-14.200116
 21
53.213872
 31
0.0
  0
LINE
  5
31B
100
AcDbEntity
  8
2
370
    50
100
AcDbLine
 10
-14.199835
 20
52.051872
 30
0.0
 11
-18.039864
 21
52.1707
 31
0.0
  0
LINE
  5
31C
100
AcDbEntity
  8
2
370
    50
100
AcDbLine
 10
-18.040145
 20
53.332944
 30
0.0
 11
-14.200116
 21
53.213872
 31
0.0
  0
LINE
  5
31D
100
AcDbEntity
  8
2
370
    50
100
AcDbLine
 10
-14.202396
 20
62.648872
 30
0.0
 11
-14.199835
 21
52.051872
 31
0.0
  0
LINE
  5
31E
100
AcDbEntity
  8
2
370
    50
100
AcDbLine
 10
-28.042396
 20
49.897943
 30
0.0
 11
-18.042396
 21
49.897943
 31
0.0
  0
ARC
  5
31F
100
AcDbEntity
  8
2
370
    50
100
AcDbCircle
 10
-36.455396
 20
56.272943
 30
0.0
 40
18.413
100
AcDbArc
 50
339.744
 51
20.256
  0
ARC
  5
320
100
AcDbEntity
  8
2
370
    50
100
AcDbCircle
 10
-10.768396
 20
56.272943
 30
0.0
 40
18.413
100
AcDbArc
 50
159.744
 51
200.257
  0
LINE
  5
321
100
AcDbEntity
  8
2
370
    50
100
AcDbLine
 10
-28.042396
 20
75.397943
 30
0.0
 11
-18.042396
 21
75.397943
 31
0.0
  0
LINE
  5
322
100
AcDbEntity
  8
2
370
    50
100
AcDbLine
 10
-18.042396
 20
49.897943
 30
0.0
 11
-18.042396
 21
75.397943
 31
0.0
  0
ARC
  5
323
100
AcDbEntity
  8
2
370
    50
100
AcDbCircle
 10
-10.768396
 20
69.022943
 30
0.0
 40
18.413
100
AcDbArc
 50
159.744
 51
200.257
  0
ARC
  5
324
100
AcDbEntity
  8
2
370
    50
100
AcDbCircle
 10
-36.455396
 20
69.022943
 30
0.0
 40
18.413
100
AcDbArc
 50
339.744
 51
20.256
  0
LINE
  5
325
100
AcDbEntity
  8
2
370
    50
100
AcDbLine
 10
-33.375396
 20
74.147943
 30
0.0
 11
-36.836315
 21
74.147943
 31
0.0
  0
ARC
  5
326
100
AcDbEntity
  8
2
370
    50
100
AcDbCircle
 10
-33.375396
 20
86.147943
 30
0.0
 40
12.0
100
AcDbArc
 50
270.0
 51
296.384
  0
LINE
  5
327
100
AcDbEntity
  8
2
370
    50
100
AcDbLine
 10
-33.375396
 20
51.147943
 30
0.0
 11
-36.831907
 21
51.147943
 31
0.0
  0
ARC
  5
328
100
AcDbEntity
  8
2
370
    50
100
AcDbCircle
 10
-33.375396
 20
39.147943
 30
0.0
 40
12.0
100
AcDbArc
 50
63.616
 51
90.0
  0
LINE
  5
329
100
AcDbEntity
  8
2
370
    50
100
AcDbLine
 10
-73.349396
 20
52.169943
 30
0.0
 11
-75.742396
 21
52.169943
 31
0.0
  0
ARC
  5
32A
100
AcDbEntity
  8
2
370
    50
100
AcDbCircle
 10
-73.349396
 20
-17.829057
 30
0.0
 40
70.0
100
AcDbArc
 50
79.917407
 51
90.0
  0
LINE
  5
32B
100
AcDbEntity
  8
2
370
    50
100
AcDbLine
 10
-73.349396
 20
73.124943
 30
0.0
 11
-75.742396
 21
73.124943
 31
0.0
  0
ARC
  5
32C
100
AcDbEntity
  8
2
370
    50
100
AcDbCircle
 10
-73.349396
 20
143.124943
 30
0.0
 40
70.0
100
AcDbArc
 50
270.0
 51
280.082593
  0
LINE
  5
32D
100
AcDbEntity
  8
2
370
    50
100
AcDbLine
 10
-73.042396
 20
53.331943
 30
0.0
 11
-71.029396
 21
52.169943
 31
0.0
  0
LINE
  5
32E
100
AcDbEntity
  8
2
370
    50
100
AcDbLine
 10
-73.042396
 20
54.927334
 30
0.0
 11
-73.042396
 21
52.169943
 31
0.0
  0
LINE
  5
32F
100
AcDbEntity
  8
2
370
    50
100
AcDbLine
 10
-75.742396
 20
53.331943
 30
0.0
 11
-73.042396
 21
53.331943
 31
0.0
  0
LINE
  5
330
100
AcDbEntity
  8
2
370
    50
100
AcDbLine
 10
-73.042396
 20
71.962943
 30
0.0
 11
-71.029396
 21
73.124943
 31
0.0
  0
LINE
  5
331
100
AcDbEntity
  8
2
370
    50
100
AcDbLine
 10
-75.742396
 20
71.962943
 30
0.0
 11
-73.042396
 21
71.962943
 31
0.0
  0
LINE
  5
332
100
AcDbEntity
  8
2
370
    50
100
AcDbLine
 10
-73.042396
 20
70.362797
 30
0.0
 11
-73.042396
 21
73.124943
 31
0.0
  0
TEXT
  5
333
100
AcDbEntity
  8
3
370
    50
100
AcDbText
 10
145.416291
 20
-120.006746
 30
0.0
 40
3.0
  1
１　１
 72
     5
 11
153.816291
 21
-120.006746
 31
0.0
100
AcDbText
  0
TEXT
  5
334
100
AcDbEntity
  8
3
370
    50
100
AcDbText
 10
32.608078
 20
-117.867317
 30
0.0
 40
3.0
  1
ＣＫ１３－２１Ａ
 72
     5
 11
56.008078
 21
-117.867317
 31
0.0
100
AcDbText
  0
DIMENSION
  5
335
100
AcDbEntity
  8
3
370
    25
100
AcDbDimension
  2
*D0
 10
-104.394836
 20
-40.502671
 30
0.0
 11
-124.841599
 21
-23.231085
 31
0.0
 70
     1
 71
     0
 72
     0
 41
0.0
 42
0.0
  3
Standard
100
AcDbAlignedDimension
 13
-53.042396
 23
16.497329
 33
0.0
 14
-99.619901
 24
-40.502671
 34
0.0
 50
270.0
  0
DIMENSION
  5
336
100
AcDbEntity
  8
3
370
    25
100
AcDbDimension
  2
*D1
 10
89.980843
 20
-10.502671
 30
0.0
 11
84.230843
 21
-41.502671
 31
0.0
 70
     1
 71
     0
 72
     0
 41
0.0
 42
0.0
  3
Standard
100
AcDbAlignedDimension
 13
48.731357
 23
-70.502671
 33
0.0
 14
48.731357
 24
-10.502671
 34
0.0
 50
270.0
  0
LINE
  5
337
100
AcDbEntity
  8
3
370
    25
  6
CENTER
100
AcDbLine
 10
188.845334
 20
62.647574
 30
0.0
 11
99.239521
 21
62.647574
 31
0.0
  0
LINE
  5
338
100
AcDbEntity
  8
3
370
    25
  6
CENTER
100
AcDbLine
 10
128.75668
 20
29.853204
 30
0.0
 11
128.75668
 21
95.182615
 31
0.0
  0
LINE
  5
339
100
AcDbEntity
  8
3
370
    25
  6
CENTER
100
AcDbLine
 10
-160.915873
 20
-40.502671
 30
0.0
 11
74.291604
 21
-40.502671
 31
0.0
  0
LINE
  5
33A
100
AcDbEntity
  8
3
370
    25
  6
CENTER
100
AcDbLine
 10
-53.042396
 20
21.372329
 30
0.0
 11
-53.042396
 21
-57.423671
 31
0.0
  0
LINE
  5
33B
100
AcDbEntity
  8
3
370
    25
  6
CENTER
100
AcDbLine
 10
-53.042396
 20
40.078178
 30
0.0
 11
-53.042396
 21
88.077613
 31
0.0
  0
LINE
  5
33C
100
AcDbEntity
  8
3
370
    25
  6
CENTER
100
AcDbLine
 10
70.454526
 20
62.647943
 30
0.0
 11
-160.915873
 21
62.647943
 31
0.0
  0
TEXT
  5
33D
100
AcDbEntity
  8
3
370
    25
100
AcDbText
 10
1.707104
 20
-87.462318
 30
0.0
 40
3.5
  1
４４７
 72
     5
 11
11.507104
 21
-87.462318
 31
0.0
100
AcDbText
  0
DIMENSION
  5
33E
100
AcDbEntity
  8
3
370
    25
100
AcDbDimension
  2
*D2
 10
66.956604
 20
-87.962318
 30
0.0
 11
6.957104
 21
-85.962318
 31
0.0
 71
     0
 72
     0
 41
0.0
 42
0.0
  3
Standard
100
AcDbAlignedDimension
 13
-53.042396
 23
-57.423671
 33
0.0
 14
66.956604
 24
-49.562671
 34
0.0
100
AcDbRotatedDimension
  0
TEXT
  5
33F
100
AcDbEntity
  8
3
370
    25
100
AcDbText
 10
-126.484896
 20
-87.462318
 30
0.0
 40
3.5
  1
２２５
 72
     5
 11
-116.684896
 21
-87.462318
 31
0.0
100
AcDbText
  0
DIMENSION
  5
340
100
AcDbEntity
  8
3
370
    25
100
AcDbDimension
  2
*D3
 10
-85.042396
 20
-87.962318
 30
0.0
 11
-121.234896
 21
-85.962318
 31
0.0
 71
     0
 72
     0
 41
0.0
 42
0.0
  3
Standard
100
AcDbAlignedDimension
 13
-157.427396
 23
-46.852671
 33
0.0
 14
-85.042396
 24
-49.702671
 34
0.0
100
AcDbRotatedDimension
  0
DIMENSION
  5
341
100
AcDbEntity
  8
3
370
    25
100
AcDbDimension
  2
*D4
 10
-83.042396
 20
-58.27256
 30
0.0
 11
-90.792396
 21
-56.02256
 31
0.0
 71
     0
 72
     0
 41
0.0
 42
0.0
  3
Standard
100
AcDbAlignedDimension
 13
-85.042396
 23
-49.702671
 33
0.0
 14
-83.042396
 24
-49.817671
 34
0.0
100
AcDbRotatedDimension
  0
DIMENSION
  5
342
100
AcDbEntity
  8
3
370
    25
100
AcDbDimension
  2
*D5
 10
-53.042396
 20
-87.962318
 30
0.0
 11
-68.042396
 21
-85.712318
 31
0.0
 71
     0
 72
     0
 41
0.0
 42
0.0
  3
Standard
100
AcDbAlignedDimension
 13
-83.042396
 23
-49.817671
 33
0.0
 14
-53.042396
 24
-57.423671
 34
0.0
100
AcDbRotatedDimension
  0
DIMENSION
  5
343
100
AcDbEntity
  8
3
370
    25
100
AcDbDimension
  2
*D6
 10
-168.833328
 20
-46.852671
 30
0.0
 11
-178.083328
 21
-45.752671
 31
0.0
 70
     1
 71
     0
 72
     0
 41
0.0
 42
0.0
  3
Standard
100
AcDbAlignedDimension
 13
-157.427396
 23
-34.152671
 33
0.0
 14
-157.427396
 24
-46.852671
 34
0.0
 50
90.0
  0
TEXT
  5
344
100
AcDbEntity
  8
3
370
    50
100
AcDbText
 10
168.035138
 20
-135.940469
 30
0.0
 40
3.0
  1
５０３６０５
 72
     5
 11
185.435138
 21
-135.940469
 31
0.0
100
AcDbText
  0
TEXT
  5
345
100
AcDbEntity
  8
3
370
    50
100
AcDbText
 10
172.549065
 20
-128.050147
 30
0.0
 40
3.0
  1
１０　　５　１０
 72
     5
 11
195.949065
 21
-128.050147
 31
0.0
100
AcDbText
  0
TEXT
  5
346
100
AcDbEntity
  8
3
370
    50
100
AcDbText
 10
33.120239
 20
-113.942329
 30
0.0
 40
2.8
  1
ストレート止水栓（２００－１－４２０－１５）
 72
     5
 11
94.160239
 21
-113.942329
 31
0.0
100
AcDbText
  0
TEXT
  5
347
100
AcDbEntity
  8
3
370
    50
100
AcDbText
 10
115.76712
 20
-136.249054
 30
0.0
 40
2.8
  1
外観寸法図
 72
     5
 11
129.20712
 21
-136.249054
 31
0.0
100
AcDbText
  0
LWPOLYLINE
  5
348
100
AcDbEntity
  8
3
370
    25
100
AcDbPolyline
 90
        3
 70
     0
 10
60.440926
 20
-29.940847
 10
69.509972
 20
-20.899487
 10
84.841087
 20
-20.899487
  0
LINE
  5
34D
100
AcDbEntity
  8
3
370
    25
100
AcDbLine
 10
61.809038
 20
-28.576912
 30
0.0
 11
61.443572
 21
-28.210327
 31
0.0
  0
LINE
  5
34E
100
AcDbEntity
  8
3
370
    25
100
AcDbLine
 10
61.443572
 20
-28.210327
 30
0.0
 11
60.440926
 21
-29.940847
 31
0.0
  0
LINE
  5
34F
100
AcDbEntity
  8
3
370
    25
100
AcDbLine
 10
60.440926
 20
-29.940847
 30
0.0
 11
62.174503
 21
-28.943496
 31
0.0
  0
LINE
  5
350
100
AcDbEntity
  8
3
370
    25
100
AcDbLine
 10
62.174503
 20
-28.943496
 30
0.0
 11
61.809038
 21
-28.576912
 31
0.0
  0
TEXT
  5
351
100
AcDbEntity
  8
3
370
    25
100
AcDbText
 10
70.172913
 20
-20.365793
 30
0.0
 40
3.5
  1
Ｒ１／２
 72
     5
 11
83.472913
 21
-20.365793
 31
0.0
100
AcDbText
  0
ENDSEC
  0
SECTION
  2
OBJECTS
  0
DICTIONARY
  5
3A4
100
AcDbDictionary
280
     0
281
     1
  3
ACAD_GROUP
350
3A5
  3
ACAD_MLINESTYLE
350
3A6
  0
DICTIONARY
  5
3A5
102
{ACAD_REACTORS
330
3A4
102
}
100
AcDbDictionary
280
     0
281
     1
  0
DICTIONARY
  5
3A6
102
{ACAD_REACTORS
330
3A4
102
}
100
AcDbDictionary
280
     0
281
     1
  3
Standard
350
3A7
  0
MLINESTYLE
  5
3A7
102
{ACAD_REACTORS
330
3A6
102
}
100
AcDbMlineStyle
  2
Standard
 70
     0
  3

 62
     0
 51
90.0
 52
90.0
 71
     2
 49
0.5
 62
   256
  6
ByLayer
 49
-0.5
 62
   256
  6
ByLayer
  0
ENDSEC
  0
EOF
