  0
SECTION
  2
HEADER
  9
$ACADVER
  1
AC1015
  9
$ACADMAINTVER
 70
     6
  9
$DWGCODEPAGE
  3
ANSI_932
  9
$INSBASE
 10
0.0
 20
0.0
 30
0.0
  9
$EXTMIN
 10
-420.5
 20
-297.0
 30
1.000000E+20
  9
$EXTMAX
 10
420.5
 20
297.0
 30
-1.000000E+20
  9
$LIMMIN
 10
-420.5
 20
-297.0
  9
$LIMMAX
 10
420.5
 20
297.0
  9
$ORTHOMODE
 70
     0
  9
$REGENMODE
 70
     1
  9
$FILLMODE
 70
     1
  9
$QTEXTMODE
 70
     0
  9
$MIRRTEXT
 70
     1
  9
$LTSCALE
 40
1.0
  9
$ATTMODE
 70
     1
  9
$TEXTSIZE
 40
0.2
  9
$TRACEWID
 40
0.05
  9
$TEXTSTYLE
  7
STANDARD
  9
$CLAYER
  8
0
  9
$CELTYPE
  6
CONTINUOUS
  9
$CECOLOR
 62
   256
  9
$CELTSCALE
 40
1.0
  9
$DISPSILH
 70
     0
  9
$DIMSCALE
 40
1.0
  9
$DIMASZ
 40
2.0
  9
$DIMEXO
 40
1.0
  9
$DIMDLI
 40
0.38
  9
$DIMRND
 40
0.0
  9
$DIMDLE
 40
0.0
  9
$DIMEXE
 40
2.0
  9
$DIMTP
 40
0.0
  9
$DIMTM
 40
0.0
  9
$DIMTXT
 40
3.5
  9
$DIMCEN
 40
0.09
  9
$DIMTSZ
 40
0.0
  9
$DIMTOL
 70
     0
  9
$DIMLIM
 70
     0
  9
$DIMTIH
 70
     0
  9
$DIMTOH
 70
     0
  9
$DIMSE1
 70
     0
  9
$DIMSE2
 70
     0
  9
$DIMTAD
 70
     1
  9
$DIMZIN
 70
     0
  9
$DIMBLK
  1

  9
$DIMASO
 70
     1
  9
$DIMSHO
 70
     1
  9
$DIMPOST
  1

  9
$DIMAPOST
  1

  9
$DIMALT
 70
     0
  9
$DIMALTD
 70
     2
  9
$DIMALTF
 40
25.4
  9
$DIMLFAC
 40
1.0
  9
$DIMTOFL
 70
     0
  9
$DIMTVP
 40
0.0
  9
$DIMTIX
 70
     0
  9
$DIMSOXD
 70
     0
  9
$DIMSAH
 70
     0
  9
$DIMBLK1
  1

  9
$DIMBLK2
  1

  9
$DIMSTYLE
  2
Standard
  9
$DIMCLRD
 70
     0
  9
$DIMCLRE
 70
     0
  9
$DIMCLRT
 70
     0
  9
$DIMTFAC
 40
1.0
  9
$DIMGAP
 40
0.5
  9
$DIMJUST
 70
     0
  9
$DIMSD1
 70
     0
  9
$DIMSD2
 70
     0
  9
$DIMTOLJ
 70
     1
  9
$DIMTZIN
 70
     0
  9
$DIMALTZ
 70
     0
  9
$DIMALTTZ
 70
     0
  9
$DIMUPT
 70
     0
  9
$DIMDEC
 70
     3
  9
$DIMTDEC
 70
     4
  9
$DIMALTU
 70
     2
  9
$DIMALTTD
 70
     2
  9
$DIMTXSTY
  7
STANDARD
  9
$DIMAUNIT
 70
     0
  9
$DIMADEC
 70
     0
  9
$DIMALTRND
 40
0.0
  9
$DIMAZIN
 70
     0
  9
$DIMDSEP
 70
     0
  9
$DIMATFIT
 70
     3
  9
$DIMFRAC
 70
     0
  9
$DIMLDRBLK
  1

  9
$DIMLUNIT
 70
     2
  9
$DIMLWD
 70
     0
  9
$DIMLWE
 70
     0
  9
$DIMTMOVE
 70
     0
  9
$LUNITS
 70
     2
  9
$LUPREC
 70
     4
  9
$SKETCHINC
 40
0.1
  9
$FILLETRAD
 40
0.0
  9
$AUNITS
 70
     0
  9
$AUPREC
 70
     0
  9
$MENU
  1
acad
  9
$ELEVATION
 40
0.0
  9
$PELEVATION
 40
0.0
  9
$THICKNESS
 40
0.0
  9
$LIMCHECK
 70
     0
  9
$CHAMFERA
 40
0.0
  9
$CHAMFERB
 40
0.0
  9
$CHAMFERC
 40
0.0
  9
$CHAMFERD
 40
0.0
  9
$SKPOLY
 70
     0
  9
$TDCREATE
 40
2453580.000000000
  9
$TDUCREATE
 40
0.000000000
  9
$TDUPDATE
 40
0.000000000
  9
$TDUUPDATE
 40
2447892.625000000
  9
$TDINDWG
 40
0.0000000000
  9
$TDUSRTIMER
 40
0.0000000000
  9
$USRTIMER
 70
     1
  9
$ANGBASE
 50
0.0
  9
$ANGDIR
 70
     0
  9
$PDMODE
 70
     0
  9
$PDSIZE
 40
0.0
  9
$PLINEWID
 40
0.0
  9
$SPLFRAME
 70
     0
  9
$SPLINETYPE
 70
     6
  9
$SPLINESEGS
 70
     8
  9
$HANDSEED
  5
221
  9
$SURFTAB1
 70
     6
  9
$SURFTAB2
 70
     6
  9
$SURFTYPE
 70
     6
  9
$SURFU
 70
     6
  9
$SURFV
 70
     6
  9
$UCSBASE
  2

  9
$UCSNAME
  2

  9
$UCSORG
 10
0.0
 20
0.0
 30
0.0
  9
$UCSXDIR
 10
1.0
 20
0.0
 30
0.0
  9
$UCSYDIR
 10
0.0
 20
1.0
 30
0.0
  9
$UCSORTHOREF
  2

  9
$UCSORTHOVIEW
 70
     0
  9
$UCSORGTOP
 10
0.0
 20
0.0
 30
0.0
  9
$UCSORGBOTTOM
 10
0.0
 20
0.0
 30
0.0
  9
$UCSORGLEFT
 10
0.0
 20
0.0
 30
0.0
  9
$UCSORGRIGHT
 10
0.0
 20
0.0
 30
0.0
  9
$UCSORGFRONT
 10
0.0
 20
0.0
 30
0.0
  9
$UCSORGBACK
 10
0.0
 20
0.0
 30
0.0
  9
$PUCSBASE
  2

  9
$PUCSNAME
  2

  9
$PUCSORG
 10
0.0
 20
0.0
 30
0.0
  9
$PUCSXDIR
 10
1.0
 20
0.0
 30
0.0
  9
$PUCSYDIR
 10
0.0
 20
1.0
 30
0.0
  9
$PUCSORTHOREF
  2

  9
$PUCSORTHOVIEW
 70
     0
  9
$PUCSORGTOP
 10
0.0
 20
0.0
 30
0.0
  9
$PUCSORGBOTTOM
 10
0.0
 20
0.0
 30
0.0
  9
$PUCSORGLEFT
 10
0.0
 20
0.0
 30
0.0
  9
$PUCSORGRIGHT
 10
0.0
 20
0.0
 30
0.0
  9
$PUCSORGFRONT
 10
0.0
 20
0.0
 30
0.0
  9
$PUCSORGBACK
 10
0.0
 20
0.0
 30
0.0
  9
$USERI1
 70
     0
  9
$USERI2
 70
     0
  9
$USERI3
 70
     0
  9
$USERI4
 70
     0
  9
$USERI5
 70
     0
  9
$USERR1
 40
0.0
  9
$USERR2
 40
0.0
  9
$USERR3
 40
0.0
  9
$USERR4
 40
0.0
  9
$USERR5
 40
0.0
  9
$WORLDVIEW
 70
     1
  9
$SHADEDGE
 70
     3
  9
$SHADEDIF
 70
    70
  9
$TILEMODE
 70
     1
  9
$MAXACTVP
 70
    16
  9
$PINSBASE
 10
0.0
 20
0.0
 30
0.0
  9
$PLIMCHECK
 70
     0
  9
$PEXTMIN
 10
1.000000E+20
 20
1.000000E+20
 30
1.000000E+20
  9
$PEXTMAX
 10
-1.000000E+20
 20
-1.000000E+20
 30
-1.000000E+20
  9
$PLIMMIN
 10
0.0
 20
0.0
  9
$PLIMMAX
 10
12.0
 20
9.0
  9
$UNITMODE
 70
     0
  9
$VISRETAIN
 70
     0
  9
$PLINEGEN
 70
     1
  9
$PSLTSCALE
 70
     0
  9
$TREEDEPTH
 70
  3020
  9
$CMLSTYLE
  2
Standard
  9
$CMLJUST
 70
     0
  9
$CMLSCALE
 40
1.0
  9
$PROXYGRAPHICS
 70
     0
  9
$MEASUREMENT
 70
     0
  9
$CELWEIGHT
370
     0
  9
$ENDCAPS
280
     0
  9
$JOINSTYLE
280
     0
  9
$LWDISPLAY
290
     0
  9
$INSUNITS
 70
     0
  9
$HYPERLINKBASE
  1

  9
$STYLESHEET
  1

  9
$XEDIT
290
     1
  9
$CEPSNTYPE
380
     0
  9
$PSTYLEMODE
290
     1
  9
$FINGERPRINTGUID
  2

  9
$VERSIONGUID
  2

  9
$EXTNAMES
290
     1
  9
$PSVPSCALE
 40
0.0
  0
ENDSEC
  0
SECTION
  2
CLASSES
  0
CLASS
  1
LWPOLYLINE
  2
AcDbPolyline
  3
AutoCAD 2000
 90
        0
280
     0
281
     1
  0
CLASS
  1
IMAGE
  2
AcDbRasterImage
  3
ISM
 90
      127
280
     0
281
     1
  0
CLASS
  1
OLE2FRAME
  2
AcDbOle2Frame
  3
AutoCAD 2000
 90
        0
280
     0
281
     1
  0
CLASS
  1
HATCH
  2
AcDbHatch
  3
AutoCAD 2000
 90
        0
280
     0
281
     1
  0
CLASS
  1
DICTIONARYVAR
  2
AcDbDictionaryVar
  3
AutoCAD 2000
 90
        0
280
     0
281
     0
  0
CLASS
  1
RASTERVARIABLES
  2
AcDbRasterVariables
  3
ISM
 90
        0
280
     0
281
     0
  0
CLASS
  1
IMAGEDEF
  2
AcDbRasterImageDef
  3
ISM
 90
        0
280
     0
281
     0
  0
CLASS
  1
IMAGEDEF_REACTOR
  2
AcDbRasterImageDefReactor
  3
ISM
 90
        1
280
     0
281
     0
  0
CLASS
  1
IDBUFFER
  2
AcDbIdBuffer
  3
AutoCAD 2000
 90
        0
280
     0
281
     0
  0
CLASS
  1
SPATIAL_FILTER
  2
AcDbSpatialFilter
  3
AutoCAD 2000
 90
        0
280
     0
281
     0
  0
CLASS
  1
XRECORD
  2
AcDbXrecord
  3
AutoCAD 2000
 90
        0
280
     0
281
     0
  0
CLASS
  1
SORTENTSTABLE
  2
AcDbSortentsTable
  3
AutoCAD 2000
 90
        0
280
     0
281
     0
  0
CLASS
  1
LAYER_INDEX
  2
AcDbLayerIndex
  3
AutoCAD 2000
 90
        0
280
     0
281
     0
  0
CLASS
  1
SPATIAL_INDEX
  2
AcDbSpatialIndex
  3
AutoCAD 2000
 90
        0
280
     0
281
     0
  0
CLASS
  1
OBJECT_PTR
  2
CAseDLPNTableRecord
  3
"ASE-LPNTableRecord"
 90
        1
280
     0
281
     0
  0
CLASS
  1
LAYOUT
  2
AcDbLayout
  3
AutoCAD 2000
 90
        0
280
     0
281
     0
  0
CLASS
  1
PLOTSETTINGS
  2
AcDbPlotSettings
  3
AutoCAD 2000
 90
        0
280
     0
281
     0
  0
CLASS
  1
ACDBDICTIONARYWDFLT
  2
AcDbDictionaryWithDefault
  3
AutoCAD 2000
 90
        0
280
     0
281
     0
  0
CLASS
  1
ACDBPLACEHOLDER
  2
AcDbPlaceHolder
  3
AutoCAD 2000
 90
        0
280
     0
281
     0
  0
CLASS
  1
VBA_PROJECT
  2
AcDbVbaProject
  3
acadvba
 90
        0
280
     0
281
     0
  0
CLASS
  1
WIPEOUT
  2
AcDbWipeout
  3
WipeOut|AutoCAD Express Tool|expresstools@autodesk.com
 90
      127
280
     0
281
     1
  0
CLASS
  1
WIPEOUTVARIABLES
  2
AcDbWipeoutVariables
  3
WipeOut|AutoCAD Express Tool|expresstools@autodesk.com
 90
        0
280
     0
281
     0
  0
CLASS
  1
RTEXT
  2
RText
  3
RText|AutoCAD Express Tool|expresstools@autodesk.com
 90
        0
280
     0
281
     1
  0
CLASS
  1
ARCALIGNEDTEXT
  2
AcDbArcAlignedText
  3
ATEXT|AutoCAD Express Tool|expresstools@autodesk.com
 90
        0
280
     0
281
     1
  0
ENDSEC
  0
SECTION
  2
TABLES
  0
TABLE
  2
VPORT
  5
6
100
AcDbSymbolTable
 70
     1
  0
VPORT
  5
19
100
AcDbSymbolTableRecord
100
AcDbViewportTableRecord
  2
*ACTIVE
 70
     0
 10
0.0
 20
0.0
 11
1.0
 21
1.0
 12
0.0
 22
0.0
 13
0.0
 23
0.0
 14
1.0
 24
1.0
 15
0.0
 25
0.0
 16
0.0
 26
0.0
 36
1.0
 17
0.0
 27
0.0
 37
0.0
 40
594.0
 41
1.415825
 42
50.0
 43
0.0
 44
0.0
 50
0.0
 51
0.0
 71
     0
 72
   500
 73
     1
 74
     1
 75
     0
 76
     0
 77
     0
 78
     0
281
     0
 65
     0
110
0.0
120
0.0
130
0.0
111
1.0
121
0.0
131
0.0
112
0.0
122
1.0
132
0.0
345
0
346
0
 79
     0
146
0.0
  0
ENDTAB
  0
TABLE
  2
LTYPE
  5
3
100
AcDbSymbolTable
 70
     9
  0
LTYPE
  5
C
100
AcDbSymbolTableRecord
100
AcDbLinetypeTableRecord
  2
ByBlock
 70
    64
  3

 72
    65
 73
     0
 40
0.0
  0
LTYPE
  5
D
100
AcDbSymbolTableRecord
100
AcDbLinetypeTableRecord
  2
ByLayer
 70
    64
  3

 72
    65
 73
     0
 40
0.0
  0
LTYPE
  5
E
100
AcDbSymbolTableRecord
100
AcDbLinetypeTableRecord
  2
CONTINUOUS
 70
     0
  3
Solid line
 72
    65
 73
     0
 40
0.0
  0
LTYPE
  5
F
100
AcDbSymbolTableRecord
100
AcDbLinetypeTableRecord
  2
DASHED
 70
     0
  3
__ __ __ __ __ __ __ __ __ __ __ __ __ __ __
 72
    65
 73
     2
 40
2.0
 49
1.2
 74
     0
 49
-0.8
 74
     0
  0
LTYPE
  5
10
100
AcDbSymbolTableRecord
100
AcDbLinetypeTableRecord
  2
CENTER
 70
     0
  3
____ _ ____ _ ____ _ ____ _ ____ _ ____ _ ____
 72
    65
 73
     4
 40
12.0
 49
9.0
 74
     0
 49
-1.0
 74
     0
 49
1.0
 74
     0
 49
-1.0
 74
     0
  0
LTYPE
  5
11
100
AcDbSymbolTableRecord
100
AcDbLinetypeTableRecord
  2
HIDDEN
 70
     0
  3
_ _ _ _ _ _ _ _ _ _ _ _ _ _ _ _ _ _ _ _ _ _ _
 72
    65
 73
     2
 40
3.2
 49
2.4
 74
     0
 49
-0.8
 74
     0
  0
LTYPE
  5
12
100
AcDbSymbolTableRecord
100
AcDbLinetypeTableRecord
  2
PHANTOM
 70
     0
  3
_____ _ _ _____ _ _ _____ _ _ _____ _ _ _____
 72
    65
 73
     6
 40
13.5
 49
9.0
 74
     0
 49
-1.0
 74
     0
 49
1.0
 74
     0
 49
-0.5
 74
     0
 49
1.0
 74
     0
 49
-1.0
 74
     0
  0
LTYPE
  5
13
100
AcDbSymbolTableRecord
100
AcDbLinetypeTableRecord
  2
DOT
 70
     0
  3
...............................................
 72
    65
 73
     2
 40
1.0
 49
0.5
 74
     0
 49
-0.5
 74
     0
  0
LTYPE
  5
14
100
AcDbSymbolTableRecord
100
AcDbLinetypeTableRecord
  2
DASHDOT
 70
     0
  3
__ . __ . __ . __ . __ . __ . __ . __ . __ . __
 72
    65
 73
     4
 40
8.0
 49
5.0
 74
     0
 49
-1.0
 74
     0
 49
1.0
 74
     0
 49
-1.0
 74
     0
  0
ENDTAB
  0
TABLE
  2
LAYER
  5
1
100
AcDbSymbolTable
 70
     4
  0
LAYER
  5
15
100
AcDbSymbolTableRecord
100
AcDbLayerTableRecord
  2
0
 70
     0
 62
     7
  6
CONTINUOUS
290
     1
370
    -3
390
0
  0
LAYER
  5
16
100
AcDbSymbolTableRecord
100
AcDbLayerTableRecord
  2
1
 70
     0
 62
     7
  6
CONTINUOUS
290
     1
370
    -3
390
0
  0
LAYER
  5
17
100
AcDbSymbolTableRecord
100
AcDbLayerTableRecord
  2
2
 70
     0
 62
     7
  6
CONTINUOUS
290
     1
370
    -3
390
0
  0
LAYER
  5
18
100
AcDbSymbolTableRecord
100
AcDbLayerTableRecord
  2
3
 70
     0
 62
     7
  6
CONTINUOUS
290
     1
370
    -3
390
0
  0
ENDTAB
  0
TABLE
  2
STYLE
  5
2
100
AcDbSymbolTable
 70
     1
  0
STYLE
  5
1B
100
AcDbSymbolTableRecord
100
AcDbTextStyleTableRecord
  2
STANDARD
 70
    64
 40
0.0
 41
1.0
 50
0.0
 71
     0
 42
1.0
  3
txt
  4
BIGFONT
  0
ENDTAB
  0
TABLE
  2
VIEW
  5
4
100
AcDbSymbolTable
 70
     0
  0
ENDTAB
  0
TABLE
  2
UCS
  5
5
100
AcDbSymbolTable
 70
     0
  0
ENDTAB
  0
TABLE
  2
APPID
  5
7
100
AcDbSymbolTable
 70
     1
  0
APPID
  5
1A
100
AcDbSymbolTableRecord
100
AcDbRegAppTableRecord
  2
ACAD
 70
     0
  0
ENDTAB
  0
TABLE
  2
DIMSTYLE
  5
8
100
AcDbSymbolTable
 70
     1
100
AcDbDimStyleTable
 71
     0
  0
DIMSTYLE
105
2A
100
AcDbSymbolTableRecord
100
AcDbDimStyleTableRecord
  2
Standard
 70
     0
  3

  4

 40
1.0
 41
2.0
 42
1.0
 43
0.38
 44
2.0
 45
0.0
 46
0.0
 47
0.0
 48
0.0
 71
     0
 72
     0
 73
     0
 74
     0
 75
     0
 76
     0
 77
     1
 78
     0
 79
     0
140
3.5
141
0.09
142
0.0
143
25.4
144
1.0
145
0.0
146
1.0
147
0.5
148
0.0
170
     0
171
     2
172
     0
173
     0
174
     0
175
     0
176
     0
177
     0
178
     0
179
     0
271
     3
272
     4
273
     2
274
     2
275
     0
276
     0
277
     2
278
    46
279
     0
280
     0
281
     0
282
     0
283
     1
284
     0
285
     0
286
     0
288
     0
289
     3
340
1B
341
0
342
0
343
0
344
0
371
    -2
372
    -2
  0
ENDTAB
  0
TABLE
  2
BLOCK_RECORD
  5
25
100
AcDbSymbolTable
 70
     7
  0
BLOCK_RECORD
  5
23
100
AcDbSymbolTableRecord
100
AcDbBlockTableRecord
  2
*Model_Space
340
0
  0
BLOCK_RECORD
  5
24
100
AcDbSymbolTableRecord
100
AcDbBlockTableRecord
  2
*Paper_Space
340
0
  0
BLOCK_RECORD
  5
1C
100
AcDbSymbolTableRecord
100
AcDbBlockTableRecord
  2
*D0
340
0
  0
BLOCK_RECORD
  5
1D
100
AcDbSymbolTableRecord
100
AcDbBlockTableRecord
  2
*D1
340
0
  0
BLOCK_RECORD
  5
1E
100
AcDbSymbolTableRecord
100
AcDbBlockTableRecord
  2
*D2
340
0
  0
BLOCK_RECORD
  5
1F
100
AcDbSymbolTableRecord
100
AcDbBlockTableRecord
  2
*D3
340
0
  0
BLOCK_RECORD
  5
20
100
AcDbSymbolTableRecord
100
AcDbBlockTableRecord
  2
*D4
340
0
  0
BLOCK_RECORD
  5
21
100
AcDbSymbolTableRecord
100
AcDbBlockTableRecord
  2
*D5
340
0
  0
BLOCK_RECORD
  5
22
100
AcDbSymbolTableRecord
100
AcDbBlockTableRecord
  2
*D6
340
0
  0
ENDTAB
  0
ENDSEC
  0
SECTION
  2
BLOCKS
  0
BLOCK
  5
26
100
AcDbEntity
  8
0
390
0
100
AcDbBlockBegin
  2
*Model_Space
 70
     0
 10
0.0
 20
0.0
 30
0.0
  3
*Model_Space
  1

  0
ENDBLK
  5
27
100
AcDbEntity
  8
0
390
0
100
AcDbBlockEnd
  0
BLOCK
  5
28
100
AcDbEntity
 67
     1
  8
0
390
0
100
AcDbBlockBegin
  2
*Paper_Space
 70
     0
 10
0.0
 20
0.0
 30
0.0
  3
*Paper_Space
  1

  0
ENDBLK
  5
29
100
AcDbEntity
 67
     1
  8
0
390
0
100
AcDbBlockEnd
  0
BLOCK
  5
1C9
100
AcDbEntity
  8
3
100
AcDbBlockBegin
  2
*D0
 70
     1
 10
0.0
 20
0.0
 30
0.0
  3
*D0
  1

  0
TEXT
  5
1CA
100
AcDbEntity
  8
3
370
    25
100
AcDbText
 10
17.127877
 20
-55.316986
 30
0.0
 40
3.5
  1
１４
 72
     5
 11
23.427877
 21
-55.316986
 31
0.0
100
AcDbText
  0
LINE
  5
1CB
100
AcDbEntity
  8
3
370
    25
100
AcDbLine
 10
13.627877
 20
-46.562196
 30
0.0
 11
13.627877
 21
-56.816986
 31
0.0
  0
LINE
  5
1CC
100
AcDbEntity
  8
3
370
    25
100
AcDbLine
 10
13.627877
 20
-55.816986
 30
0.0
 11
15.559728
 21
-56.334624
 31
0.0
  0
LINE
  5
1CD
100
AcDbEntity
  8
3
370
    25
100
AcDbLine
 10
13.627877
 20
-55.816986
 30
0.0
 11
15.559728
 21
-55.299348
 31
0.0
  0
LINE
  5
1CE
100
AcDbEntity
  8
3
370
    25
100
AcDbLine
 10
15.559728
 20
-56.334624
 30
0.0
 11
15.559728
 21
-55.299348
 31
0.0
  0
LINE
  5
1CF
100
AcDbEntity
  8
3
370
    25
100
AcDbLine
 10
13.627877
 20
-55.816986
 30
0.0
 11
27.627877
 21
-55.816986
 31
0.0
  0
LINE
  5
1D0
100
AcDbEntity
  8
3
370
    25
100
AcDbLine
 10
27.627877
 20
-55.816986
 30
0.0
 11
25.696025
 21
-55.299348
 31
0.0
  0
LINE
  5
1D1
100
AcDbEntity
  8
3
370
    25
100
AcDbLine
 10
27.627877
 20
-55.816986
 30
0.0
 11
25.696025
 21
-56.334624
 31
0.0
  0
LINE
  5
1D2
100
AcDbEntity
  8
3
370
    25
100
AcDbLine
 10
25.696025
 20
-55.299348
 30
0.0
 11
25.696025
 21
-56.334624
 31
0.0
  0
LINE
  5
1D3
100
AcDbEntity
  8
3
370
    25
100
AcDbLine
 10
27.627877
 20
-33.039696
 30
0.0
 11
27.627877
 21
-56.816986
 31
0.0
  0
ENDBLK
  5
1D4
100
AcDbEntity
  8
3
100
AcDbBlockEnd
  0
BLOCK
  5
1D5
100
AcDbEntity
  8
3
100
AcDbBlockBegin
  2
*D1
 70
     1
 10
0.0
 20
0.0
 30
0.0
  3
*D1
  1

  0
TEXT
  5
1D6
100
AcDbEntity
  8
3
370
    25
100
AcDbText
 10
-12.372042
 20
-55.303993
 30
0.0
 40
3.5
  1
４５
 72
     5
 11
-6.072042
 21
-55.303993
 31
0.0
100
AcDbText
  0
LINE
  5
1D7
100
AcDbEntity
  8
3
370
    25
100
AcDbLine
 10
-31.371961
 20
-41.816079
 30
0.0
 11
-31.371961
 21
-56.803993
 31
0.0
  0
LINE
  5
1D8
100
AcDbEntity
  8
3
370
    25
100
AcDbLine
 10
-31.371961
 20
-55.803993
 30
0.0
 11
-29.44011
 21
-56.321631
 31
0.0
  0
LINE
  5
1D9
100
AcDbEntity
  8
3
370
    25
100
AcDbLine
 10
-31.371961
 20
-55.803993
 30
0.0
 11
-29.44011
 21
-55.286355
 31
0.0
  0
LINE
  5
1DA
100
AcDbEntity
  8
3
370
    25
100
AcDbLine
 10
-29.44011
 20
-56.321631
 30
0.0
 11
-29.44011
 21
-55.286355
 31
0.0
  0
LINE
  5
1DB
100
AcDbEntity
  8
3
370
    25
100
AcDbLine
 10
-31.371961
 20
-55.803993
 30
0.0
 11
13.627877
 21
-55.803993
 31
0.0
  0
LINE
  5
1DC
100
AcDbEntity
  8
3
370
    25
100
AcDbLine
 10
13.627877
 20
-55.803993
 30
0.0
 11
11.696025
 21
-55.286355
 31
0.0
  0
LINE
  5
1DD
100
AcDbEntity
  8
3
370
    25
100
AcDbLine
 10
13.627877
 20
-55.803993
 30
0.0
 11
11.696025
 21
-56.321631
 31
0.0
  0
LINE
  5
1DE
100
AcDbEntity
  8
3
370
    25
100
AcDbLine
 10
11.696025
 20
-55.286355
 30
0.0
 11
11.696025
 21
-56.321631
 31
0.0
  0
LINE
  5
1DF
100
AcDbEntity
  8
3
370
    25
100
AcDbLine
 10
13.627877
 20
-46.562196
 30
0.0
 11
13.627877
 21
-56.803993
 31
0.0
  0
ENDBLK
  5
1E0
100
AcDbEntity
  8
3
100
AcDbBlockEnd
  0
BLOCK
  5
1E1
100
AcDbEntity
  8
3
100
AcDbBlockBegin
  2
*D2
 70
     1
 10
0.0
 20
0.0
 30
0.0
  3
*D2
  1

  0
TEXT
  5
1E2
100
AcDbEntity
  8
3
370
    25
100
AcDbText
 10
-33.706182
 20
-108.179497
 30
0.0
 40
3.5
  1
８８
 72
     5
 11
-27.406182
 21
-108.179497
 31
0.0
100
AcDbText
  0
LINE
  5
1E3
100
AcDbEntity
  8
3
370
    25
100
AcDbLine
 10
-74.040241
 20
-103.227109
 30
0.0
 11
-74.040241
 21
-109.679497
 31
0.0
  0
LINE
  5
1E4
100
AcDbEntity
  8
3
370
    25
100
AcDbLine
 10
-74.040241
 20
-108.679497
 30
0.0
 11
-72.108389
 21
-109.197135
 31
0.0
  0
LINE
  5
1E5
100
AcDbEntity
  8
3
370
    25
100
AcDbLine
 10
-74.040241
 20
-108.679497
 30
0.0
 11
-72.108389
 21
-108.161859
 31
0.0
  0
LINE
  5
1E6
100
AcDbEntity
  8
3
370
    25
100
AcDbLine
 10
-72.108389
 20
-109.197135
 30
0.0
 11
-72.108389
 21
-108.161859
 31
0.0
  0
LINE
  5
1E7
100
AcDbEntity
  8
3
370
    25
100
AcDbLine
 10
-74.040241
 20
-108.679497
 30
0.0
 11
13.627877
 21
-108.679497
 31
0.0
  0
LINE
  5
1E8
100
AcDbEntity
  8
3
370
    25
100
AcDbLine
 10
13.627877
 20
-108.679497
 30
0.0
 11
11.696025
 21
-108.161859
 31
0.0
  0
LINE
  5
1E9
100
AcDbEntity
  8
3
370
    25
100
AcDbLine
 10
13.627877
 20
-108.679497
 30
0.0
 11
11.696025
 21
-109.197135
 31
0.0
  0
LINE
  5
1EA
100
AcDbEntity
  8
3
370
    25
100
AcDbLine
 10
11.696025
 20
-108.161859
 30
0.0
 11
11.696025
 21
-109.197135
 31
0.0
  0
LINE
  5
1EB
100
AcDbEntity
  8
3
370
    25
100
AcDbLine
 10
13.627877
 20
-46.562196
 30
0.0
 11
13.627877
 21
-109.679497
 31
0.0
  0
ENDBLK
  5
1EC
100
AcDbEntity
  8
3
100
AcDbBlockEnd
  0
BLOCK
  5
1ED
100
AcDbEntity
  8
3
100
AcDbBlockBegin
  2
*D3
 70
     1
 10
0.0
 20
0.0
 30
0.0
  3
*D3
  1

  0
TEXT
  5
1EE
100
AcDbEntity
  8
3
370
    25
100
AcDbText
 10
-106.602417
 20
10.195844
 30
0.0
 40
3.5
  1
７３
 50
90.0
 72
     5
 11
-106.602417
 21
16.495844
 31
0.0
100
AcDbText
  0
LINE
  5
1EF
100
AcDbEntity
  8
3
370
    25
100
AcDbLine
 10
-78.77668
 20
-22.762196
 30
0.0
 11
-107.102417
 21
-22.762196
 31
0.0
  0
LINE
  5
1F0
100
AcDbEntity
  8
3
370
    25
100
AcDbLine
 10
-106.102417
 20
-22.762196
 30
0.0
 11
-105.584779
 21
-20.830344
 31
0.0
  0
LINE
  5
1F1
100
AcDbEntity
  8
3
370
    25
100
AcDbLine
 10
-106.102417
 20
-22.762196
 30
0.0
 11
-106.620055
 21
-20.830344
 31
0.0
  0
LINE
  5
1F2
100
AcDbEntity
  8
3
370
    25
100
AcDbLine
 10
-105.584779
 20
-20.830344
 30
0.0
 11
-106.620055
 21
-20.830344
 31
0.0
  0
LINE
  5
1F3
100
AcDbEntity
  8
3
370
    25
100
AcDbLine
 10
-106.102417
 20
-22.762196
 30
0.0
 11
-106.102417
 21
50.153884
 31
0.0
  0
LINE
  5
1F4
100
AcDbEntity
  8
3
370
    25
100
AcDbLine
 10
-106.102417
 20
50.153884
 30
0.0
 11
-106.620055
 21
48.222032
 31
0.0
  0
LINE
  5
1F5
100
AcDbEntity
  8
3
370
    25
100
AcDbLine
 10
-106.102417
 20
50.153884
 30
0.0
 11
-105.584779
 21
48.222032
 31
0.0
  0
LINE
  5
1F6
100
AcDbEntity
  8
3
370
    25
100
AcDbLine
 10
-106.620055
 20
48.222032
 30
0.0
 11
-105.584779
 21
48.222032
 31
0.0
  0
LINE
  5
1F7
100
AcDbEntity
  8
3
370
    25
100
AcDbLine
 10
-42.372123
 20
50.153884
 30
0.0
 11
-107.102417
 21
50.153884
 31
0.0
  0
ENDBLK
  5
1F8
100
AcDbEntity
  8
3
100
AcDbBlockEnd
  0
BLOCK
  5
1F9
100
AcDbEntity
  8
3
100
AcDbBlockBegin
  2
*D4
 70
     1
 10
0.0
 20
0.0
 30
0.0
  3
*D4
  1

  0
TEXT
  5
1FA
100
AcDbEntity
  8
3
370
    25
100
AcDbText
 10
47.517059
 20
83.871986
 30
0.0
 40
3.5
  1
φ４６
 50
90.0
 72
     5
 11
47.517059
 21
93.671986
 31
0.0
100
AcDbText
  0
LINE
  5
1FB
100
AcDbEntity
  8
3
370
    25
100
AcDbLine
 10
14.628123
 20
66.121986
 30
0.0
 11
49.017059
 21
66.121986
 31
0.0
  0
LINE
  5
1FC
100
AcDbEntity
  8
3
370
    25
100
AcDbLine
 10
48.017059
 20
66.121986
 30
0.0
 11
48.534697
 21
68.053838
 31
0.0
  0
LINE
  5
1FD
100
AcDbEntity
  8
3
370
    25
100
AcDbLine
 10
48.017059
 20
66.121986
 30
0.0
 11
47.499421
 21
68.053838
 31
0.0
  0
LINE
  5
1FE
100
AcDbEntity
  8
3
370
    25
100
AcDbLine
 10
48.534697
 20
68.053838
 30
0.0
 11
47.499421
 21
68.053838
 31
0.0
  0
LINE
  5
1FF
100
AcDbEntity
  8
3
370
    25
100
AcDbLine
 10
48.017059
 20
66.121986
 30
0.0
 11
48.017059
 21
112.121986
 31
0.0
  0
LINE
  5
200
100
AcDbEntity
  8
3
370
    25
100
AcDbLine
 10
48.017059
 20
112.121986
 30
0.0
 11
47.499421
 21
110.190135
 31
0.0
  0
LINE
  5
201
100
AcDbEntity
  8
3
370
    25
100
AcDbLine
 10
48.017059
 20
112.121986
 30
0.0
 11
48.534697
 21
110.190135
 31
0.0
  0
LINE
  5
202
100
AcDbEntity
  8
3
370
    25
100
AcDbLine
 10
47.499421
 20
110.190135
 30
0.0
 11
48.534697
 21
110.190135
 31
0.0
  0
LINE
  5
203
100
AcDbEntity
  8
3
370
    25
100
AcDbLine
 10
14.628123
 20
112.121986
 30
0.0
 11
49.017059
 21
112.121986
 31
0.0
  0
ENDBLK
  5
204
100
AcDbEntity
  8
3
100
AcDbBlockEnd
  0
BLOCK
  5
205
100
AcDbEntity
  8
3
100
AcDbBlockBegin
  2
*D5
 70
     1
 10
0.0
 20
0.0
 30
0.0
  3
*D5
  1

  0
LINE
  5
206
100
AcDbEntity
  8
3
370
    25
100
AcDbLine
 10
-75.040241
 20
-102.227109
 30
0.0
 11
-107.102417
 21
-102.227109
 31
0.0
  0
LINE
  5
207
100
AcDbEntity
  8
3
370
    25
100
AcDbLine
 10
-106.102417
 20
-102.227109
 30
0.0
 11
-105.584779
 21
-100.295257
 31
0.0
  0
LINE
  5
208
100
AcDbEntity
  8
3
370
    25
100
AcDbLine
 10
-106.102417
 20
-102.227109
 30
0.0
 11
-106.620055
 21
-100.295257
 31
0.0
  0
LINE
  5
209
100
AcDbEntity
  8
3
370
    25
100
AcDbLine
 10
-105.584779
 20
-100.295257
 30
0.0
 11
-106.620055
 21
-100.295257
 31
0.0
  0
LINE
  5
20A
100
AcDbEntity
  8
3
370
    25
100
AcDbLine
 10
-106.102417
 20
-102.227109
 30
0.0
 11
-106.102417
 21
-22.762196
 31
0.0
  0
LINE
  5
20B
100
AcDbEntity
  8
3
370
    25
100
AcDbLine
 10
-106.102417
 20
-22.762196
 30
0.0
 11
-106.620055
 21
-24.694048
 31
0.0
  0
LINE
  5
20C
100
AcDbEntity
  8
3
370
    25
100
AcDbLine
 10
-106.102417
 20
-22.762196
 30
0.0
 11
-105.584779
 21
-24.694048
 31
0.0
  0
LINE
  5
20D
100
AcDbEntity
  8
3
370
    25
100
AcDbLine
 10
-106.620055
 20
-24.694048
 30
0.0
 11
-105.584779
 21
-24.694048
 31
0.0
  0
LINE
  5
20E
100
AcDbEntity
  8
3
370
    25
100
AcDbLine
 10
-78.77668
 20
-22.762196
 30
0.0
 11
-107.102417
 21
-22.762196
 31
0.0
  0
ENDBLK
  5
20F
100
AcDbEntity
  8
3
100
AcDbBlockEnd
  0
BLOCK
  5
210
100
AcDbEntity
  8
3
100
AcDbBlockBegin
  2
*D6
 70
     1
 10
0.0
 20
0.0
 30
0.0
  3
*D6
  1

  0
TEXT
  5
211
100
AcDbEntity
  8
3
370
    25
100
AcDbText
 10
-78.514914
 20
-116.043367
 30
0.0
 40
3.5
  1
８゜
 50
356.0
 72
     5
 11
-72.230261
 21
-116.482833
 31
0.0
100
AcDbText
  0
LINE
  5
212
100
AcDbEntity
  8
3
370
    25
100
AcDbLine
 10
-74.349085
 20
-104.42465
 30
0.0
 11
-76.210609
 21
-117.670082
 31
0.0
  0
LINE
  5
213
100
AcDbEntity
  8
3
370
    25
100
AcDbLine
 10
-74.040241
 20
-104.859398
 30
0.0
 11
-74.040241
 21
-117.821849
 31
0.0
  0
LINE
  5
214
100
AcDbEntity
  8
3
370
    25
100
AcDbLine
 10
-76.071436
 20
-116.679814
 30
0.0
 11
-77.856689
 21
-115.778221
 31
0.0
  0
LINE
  5
215
100
AcDbEntity
  8
3
370
    25
100
AcDbLine
 10
-76.071436
 20
-116.679814
 30
0.0
 11
-78.068307
 21
-116.791639
 31
0.0
  0
LINE
  5
216
100
AcDbEntity
  8
3
370
    25
100
AcDbLine
 10
-77.856689
 20
-115.778221
 30
0.0
 11
-78.068307
 21
-116.791639
 31
0.0
  0
LINE
  5
217
100
AcDbEntity
  8
3
370
    25
100
AcDbLine
 10
-74.040241
 20
-116.821849
 30
0.0
 11
-72.078366
 21
-117.210496
 31
0.0
  0
LINE
  5
218
100
AcDbEntity
  8
3
370
    25
100
AcDbLine
 10
-74.040241
 20
-116.821849
 30
0.0
 11
-72.146883
 21
-116.17749
 31
0.0
  0
LINE
  5
219
100
AcDbEntity
  8
3
370
    25
100
AcDbLine
 10
-72.078366
 20
-117.210496
 30
0.0
 11
-72.146883
 21
-116.17749
 31
0.0
  0
ARC
  5
21A
100
AcDbEntity
  8
3
370
    25
100
AcDbCircle
 10
-74.040241
 20
-102.227109
 30
0.0
 40
14.59474
100
AcDbArc
 50
243.089095
 51
288.910905
  0
ENDBLK
  5
21B
100
AcDbEntity
  8
3
100
AcDbBlockEnd
  0
ENDSEC
  0
SECTION
  2
ENTITIES
  0
LINE
  5
2B
100
AcDbEntity
  8
1
370
   100
100
AcDbLine
 10
-186.510785
 20
137.514384
 30
0.0
 11
197.491193
 21
137.514384
 31
0.0
  0
LINE
  5
2C
100
AcDbEntity
  8
1
370
   100
100
AcDbLine
 10
-186.510785
 20
137.514384
 30
0.0
 11
-186.510785
 21
-138.985941
 31
0.0
  0
LINE
  5
2D
100
AcDbEntity
  8
1
370
   100
100
AcDbLine
 10
-186.510785
 20
-138.985941
 30
0.0
 11
197.491193
 21
-138.985941
 31
0.0
  0
LINE
  5
2E
100
AcDbEntity
  8
1
370
   100
100
AcDbLine
 10
197.491193
 20
-138.985941
 30
0.0
 11
197.491193
 21
137.514384
 31
0.0
  0
TEXT
  5
2F
100
AcDbEntity
  8
1
370
    50
100
AcDbText
 10
179.814221
 20
-113.126428
 30
0.0
 40
3.0
  1
設計
 72
     5
 11
185.214221
 21
-113.126428
 31
0.0
100
AcDbText
  0
TEXT
  5
30
100
AcDbEntity
  8
1
370
    50
100
AcDbText
 10
189.563739
 20
-113.049829
 30
0.0
 40
3.0
  1
製図
 72
     5
 11
194.963739
 21
-113.049829
 31
0.0
100
AcDbText
  0
TEXT
  5
31
100
AcDbEntity
  8
1
370
    50
100
AcDbText
 10
159.502872
 20
-113.126428
 30
0.0
 40
3.0
  1
承認
 72
     5
 11
164.902872
 21
-113.126428
 31
0.0
100
AcDbText
  0
TEXT
  5
32
100
AcDbEntity
  8
1
370
    50
100
AcDbText
 10
169.494839
 20
-113.09901
 30
0.0
 40
3.0
  1
検図
 72
     5
 11
174.894839
 21
-113.09901
 31
0.0
100
AcDbText
  0
LINE
  5
33
100
AcDbEntity
  8
1
370
    25
100
AcDbLine
 10
142.491193
 20
-113.985941
 30
0.0
 11
197.491193
 21
-113.985941
 31
0.0
  0
LINE
  5
34
100
AcDbEntity
  8
1
370
    25
100
AcDbLine
 10
171.241193
 20
-122.985941
 30
0.0
 11
171.241193
 21
-129.985941
 31
0.0
  0
TEXT
  5
35
100
AcDbEntity
  8
1
370
    50
100
AcDbText
 10
159.775795
 20
-128.006264
 30
0.0
 40
3.0
  1
日　付
 72
     5
 11
168.175795
 21
-128.006264
 31
0.0
100
AcDbText
  0
LINE
  5
36
100
AcDbEntity
  8
1
370
    50
100
AcDbLine
 10
20.491193
 20
-129.985941
 30
0.0
 11
197.491193
 21
-129.985941
 31
0.0
  0
TEXT
  5
37
100
AcDbEntity
  8
1
370
    50
100
AcDbText
 10
143.887505
 20
-128.161203
 30
0.0
 40
3.0
  1
第三角法
 72
     5
 11
155.287505
 21
-128.161203
 31
0.0
100
AcDbText
  0
TEXT
  5
38
100
AcDbEntity
  8
1
370
    50
100
AcDbText
 10
145.54371
 20
-112.99901
 30
0.0
 40
3.0
  1
尺　度
 72
     5
 11
153.94371
 21
-112.99901
 31
0.0
100
AcDbText
  0
LINE
  5
39
100
AcDbEntity
  8
1
370
   100
100
AcDbLine
 10
20.491193
 20
-108.985941
 30
0.0
 11
197.491193
 21
-108.985941
 31
0.0
  0
LINE
  5
3A
100
AcDbEntity
  8
1
370
    50
100
AcDbLine
 10
105.991193
 20
-108.985941
 30
0.0
 11
105.991193
 21
-138.985941
 31
0.0
  0
LINE
  5
3B
100
AcDbEntity
  8
1
370
    25
100
AcDbLine
 10
187.491193
 20
-122.985941
 30
0.0
 11
187.491193
 21
-108.985941
 31
0.0
  0
LINE
  5
3C
100
AcDbEntity
  8
1
370
    25
100
AcDbLine
 10
177.491193
 20
-122.985941
 30
0.0
 11
177.491193
 21
-108.985941
 31
0.0
  0
LINE
  5
3D
100
AcDbEntity
  8
1
370
    25
100
AcDbLine
 10
167.491193
 20
-122.985941
 30
0.0
 11
167.491193
 21
-108.985941
 31
0.0
  0
LINE
  5
3E
100
AcDbEntity
  8
1
370
    50
100
AcDbLine
 10
142.491193
 20
-138.985941
 30
0.0
 11
142.491193
 21
-108.985941
 31
0.0
  0
LINE
  5
3F
100
AcDbEntity
  8
1
370
    50
100
AcDbLine
 10
94.991193
 20
-108.985941
 30
0.0
 11
94.991193
 21
-138.985941
 31
0.0
  0
LINE
  5
40
100
AcDbEntity
  8
1
370
    50
100
AcDbLine
 10
31.491193
 20
-108.985941
 30
0.0
 11
31.491193
 21
-129.985941
 31
0.0
  0
LINE
  5
41
100
AcDbEntity
  8
1
370
    50
100
AcDbLine
 10
142.491193
 20
-122.985941
 30
0.0
 11
197.491193
 21
-122.985941
 31
0.0
  0
TEXT
  5
42
100
AcDbEntity
  8
1
370
    50
100
AcDbText
 10
143.550565
 20
-135.940469
 30
0.0
 40
3.0
  1
コードＮｏ
 41
0.9
 72
     5
 11
156.510565
 21
-135.940469
 31
0.0
100
AcDbText
  0
TEXT
  5
43
100
AcDbEntity
  8
1
370
   100
100
AcDbText
 10
26.443387
 20
-136.43783
 30
0.0
 40
4.0
  1
ミズタニバルブ工業株式会社
 41
1.2
 72
     5
 11
87.883387
 21
-136.43783
 31
0.0
100
AcDbText
  0
LINE
  5
44
100
AcDbEntity
  8
1
370
    50
100
AcDbLine
 10
20.491193
 20
-119.485941
 30
0.0
 11
142.491193
 21
-119.485941
 31
0.0
  0
LINE
  5
45
100
AcDbEntity
  8
1
370
    50
100
AcDbLine
 10
57.741193
 20
-119.485941
 30
0.0
 11
57.741193
 21
-129.985941
 31
0.0
  0
LINE
  5
46
100
AcDbEntity
  8
1
370
    50
100
AcDbLine
 10
68.741193
 20
-119.485941
 30
0.0
 11
68.741193
 21
-129.985941
 31
0.0
  0
LINE
  5
47
100
AcDbEntity
  8
1
370
    50
100
AcDbLine
 10
157.491193
 20
-138.985941
 30
0.0
 11
157.491193
 21
-108.985941
 31
0.0
  0
TEXT
  5
48
100
AcDbEntity
  8
1
370
    50
100
AcDbText
 10
172.549065
 20
-128.050147
 30
0.0
 40
3.0
  1
　　・　　・
 72
     5
 11
189.949065
 21
-128.050147
 31
0.0
100
AcDbText
  0
LINE
  5
49
100
AcDbEntity
  8
1
370
   100
100
AcDbLine
 10
20.491193
 20
-108.985941
 30
0.0
 11
20.491193
 21
-138.985941
 31
0.0
  0
TEXT
  5
4A
100
AcDbEntity
  8
1
370
    50
100
AcDbText
 10
145.416291
 20
-120.006746
 30
0.0
 40
3.0
  1
　／ 
 72
     5
 11
150.816291
 21
-120.006746
 31
0.0
100
AcDbText
  0
TEXT
  5
4B
100
AcDbEntity
  8
1
370
    50
100
AcDbText
 10
96.952061
 20
-136.012454
 30
0.0
 40
3.0
  1
備 考 
 72
     5
 11
103.852061
 21
-136.012454
 31
0.0
100
AcDbText
  0
TEXT
  5
4C
100
AcDbEntity
  8
1
370
    50
100
AcDbText
 10
96.756267
 20
-115.44592
 30
0.0
 40
3.0
  1
仕 上
 72
     5
 11
103.656267
 21
-115.44592
 31
0.0
100
AcDbText
  0
TEXT
  5
4D
100
AcDbEntity
  8
1
370
    50
100
AcDbText
 10
96.723588
 20
-124.445833
 30
0.0
 40
3.0
  1
表 面
 72
     5
 11
103.623588
 21
-124.445833
 31
0.0
100
AcDbText
  0
TEXT
  5
4E
100
AcDbEntity
  8
1
370
    50
100
AcDbText
 10
96.723588
 20
-127.945833
 30
0.0
 40
3.0
  1
処 理
 72
     5
 11
103.623588
 21
-127.945833
 31
0.0
100
AcDbText
  0
TEXT
  5
4F
100
AcDbEntity
  8
1
370
    50
100
AcDbText
 10
22.396675
 20
-115.8467
 30
0.0
 40
3.0
  1
品 名
 72
     5
 11
29.296675
 21
-115.8467
 31
0.0
100
AcDbText
  0
TEXT
  5
50
100
AcDbEntity
  8
1
370
    50
100
AcDbText
 10
22.198883
 20
-126.231267
 30
0.0
 40
3.0
  1
材 質
 72
     5
 11
29.098883
 21
-126.231267
 31
0.0
100
AcDbText
  0
TEXT
  5
51
100
AcDbEntity
  8
1
370
    50
100
AcDbText
 10
59.448883
 20
-126.231267
 30
0.0
 40
3.0
  1
規 格
 72
     5
 11
66.348883
 21
-126.231267
 31
0.0
100
AcDbText
  0
LINE
  5
52
100
AcDbEntity
  8
2
370
    50
100
AcDbLine
 10
-43.371877
 20
-0.261818
 30
0.0
 11
-43.371877
 21
1.14301
 31
0.0
  0
LINE
  5
53
100
AcDbEntity
  8
2
370
    50
100
AcDbLine
 10
-19.371877
 20
-0.261818
 30
0.0
 11
-19.371877
 21
1.14301
 31
0.0
  0
LINE
  5
54
100
AcDbEntity
  8
2
370
    50
100
AcDbLine
 10
-18.871877
 20
-3.582397
 30
0.0
 11
-18.871877
 21
-0.261818
 31
0.0
  0
LINE
  5
55
100
AcDbEntity
  8
2
370
    50
100
AcDbLine
 10
-43.871877
 20
-6.793982
 30
0.0
 11
-43.871877
 21
-0.261818
 31
0.0
  0
LINE
  5
56
100
AcDbEntity
  8
2
370
    50
100
AcDbLine
 10
-42.826825
 20
1.14301
 30
0.0
 11
-43.371877
 21
0.198952
 31
0.0
  0
LINE
  5
57
100
AcDbEntity
  8
2
370
    50
100
AcDbLine
 10
-43.871877
 20
-0.261818
 30
0.0
 11
-43.371877
 21
-0.261818
 31
0.0
  0
LINE
  5
58
100
AcDbEntity
  8
2
370
    50
100
AcDbLine
 10
-19.371877
 20
-0.261818
 30
0.0
 11
-18.871877
 21
-0.261818
 31
0.0
  0
LINE
  5
59
100
AcDbEntity
  8
2
370
    50
100
AcDbLine
 10
-19.916929
 20
1.14301
 30
0.0
 11
-19.371877
 21
0.198952
 31
0.0
  0
LINE
  5
5A
100
AcDbEntity
  8
2
370
    50
100
AcDbLine
 10
12.127877
 20
0.237804
 30
0.0
 11
13.427877
 21
0.237804
 31
0.0
  0
LINE
  5
5B
100
AcDbEntity
  8
2
370
    50
100
AcDbLine
 10
12.127877
 20
-45.762196
 30
0.0
 11
13.427877
 21
-45.762196
 31
0.0
  0
LINE
  5
5C
100
AcDbEntity
  8
2
370
    50
100
AcDbLine
 10
13.627877
 20
-12.284696
 30
0.0
 11
26.427877
 21
-12.284696
 31
0.0
  0
LINE
  5
5D
100
AcDbEntity
  8
2
370
    50
100
AcDbLine
 10
13.627877
 20
-33.239696
 30
0.0
 11
26.427877
 21
-33.239696
 31
0.0
  0
LINE
  5
5E
100
AcDbEntity
  8
2
370
    50
100
AcDbLine
 10
-8.872123
 20
-13.512196
 30
0.0
 11
7.127877
 21
-13.512196
 31
0.0
  0
ARC
  5
5F
100
AcDbEntity
  8
2
370
    50
100
AcDbCircle
 10
7.127877
 20
-9.512196
 30
0.0
 40
4.0
100
AcDbArc
 50
270.0
 51
360.0
  0
ARC
  5
60
100
AcDbEntity
  8
2
370
    50
100
AcDbCircle
 10
7.127877
 20
-36.012196
 30
0.0
 40
4.0
100
AcDbArc
 50
0.0
 51
90.0
  0
LINE
  5
61
100
AcDbEntity
  8
2
370
    50
100
AcDbLine
 10
27.627877
 20
-32.039696
 30
0.0
 11
27.627877
 21
-13.484696
 31
0.0
  0
LINE
  5
62
100
AcDbEntity
  8
2
370
    50
100
AcDbLine
 10
11.127877
 20
-44.762196
 30
0.0
 11
11.127877
 21
-22.762196
 31
0.0
  0
LINE
  5
63
100
AcDbEntity
  8
2
370
    50
100
AcDbLine
 10
11.127877
 20
-22.762196
 30
0.0
 11
11.127877
 21
-0.762196
 31
0.0
  0
LINE
  5
64
100
AcDbEntity
  8
2
370
    50
100
AcDbLine
 10
13.627877
 20
-45.562196
 30
0.0
 11
13.627877
 21
-22.762196
 31
0.0
  0
LINE
  5
65
100
AcDbEntity
  8
2
370
    50
100
AcDbLine
 10
13.627877
 20
-22.762196
 30
0.0
 11
13.627877
 21
0.037804
 31
0.0
  0
ARC
  5
66
100
AcDbEntity
  8
2
370
    50
100
AcDbCircle
 10
12.127877
 20
-0.762196
 30
0.0
 40
1.0
100
AcDbArc
 50
90.0
 51
180.0
  0
ARC
  5
67
100
AcDbEntity
  8
2
370
    50
100
AcDbCircle
 10
12.127877
 20
-44.762196
 30
0.0
 40
1.0
100
AcDbArc
 50
180.0
 51
270.0
  0
ARC
  5
68
100
AcDbEntity
  8
2
370
    50
100
AcDbCircle
 10
-31.372123
 20
14.237804
 30
0.0
 40
50.0
100
AcDbArc
 50
250.10355
 51
285.740549
  0
LINE
  5
69
100
AcDbEntity
  8
2
370
    25
100
AcDbLine
 10
16.627877
 20
-13.484696
 30
0.0
 11
27.627877
 21
-13.484696
 31
0.0
  0
LINE
  5
6A
100
AcDbEntity
  8
2
370
    25
100
AcDbLine
 10
16.627877
 20
-32.039696
 30
0.0
 11
27.627877
 21
-32.039696
 31
0.0
  0
LINE
  5
6B
100
AcDbEntity
  8
2
370
    50
100
AcDbLine
 10
27.627877
 20
-13.484696
 30
0.0
 11
26.427877
 21
-12.284696
 31
0.0
  0
LINE
  5
6C
100
AcDbEntity
  8
2
370
    50
100
AcDbLine
 10
16.627877
 20
-13.484696
 30
0.0
 11
15.427877
 21
-12.284696
 31
0.0
  0
LINE
  5
6D
100
AcDbEntity
  8
2
370
    50
100
AcDbLine
 10
27.627877
 20
-32.039696
 30
0.0
 11
26.427877
 21
-33.239696
 31
0.0
  0
LINE
  5
6E
100
AcDbEntity
  8
2
370
    50
100
AcDbLine
 10
16.627877
 20
-32.039696
 30
0.0
 11
15.427877
 21
-33.239696
 31
0.0
  0
LINE
  5
6F
100
AcDbEntity
  8
2
370
    50
100
AcDbLine
 10
13.627877
 20
-45.562196
 30
0.0
 11
13.427877
 21
-45.762196
 31
0.0
  0
LINE
  5
70
100
AcDbEntity
  8
2
370
    50
100
AcDbLine
 10
13.627877
 20
0.037804
 30
0.0
 11
13.427877
 21
0.237804
 31
0.0
  0
LINE
  5
71
100
AcDbEntity
  8
2
370
    50
100
AcDbLine
 10
7.127877
 20
-32.012196
 30
0.0
 11
-4.243955
 21
-32.012196
 31
0.0
  0
ARC
  5
72
100
AcDbEntity
  8
2
370
    50
100
AcDbCircle
 10
-4.243955
 20
-82.012196
 30
0.0
 40
50.0
100
AcDbArc
 50
90.0
 51
105.740549
  0
LINE
  5
73
100
AcDbEntity
  8
2
370
    25
  6
CENTER
100
AcDbLine
 10
-77.77668
 20
-22.762196
 30
0.0
 11
37.502846
 21
-22.762196
 31
0.0
  0
ARC
  5
74
100
AcDbEntity
  8
2
370
    50
100
AcDbCircle
 10
-8.872123
 20
-3.512196
 30
0.0
 40
10.0
100
AcDbArc
 50
180.0
 51
270.0
  0
ARC
  5
75
100
AcDbEntity
  8
2
370
    50
100
AcDbCircle
 10
-53.872123
 20
-5.939154
 30
0.0
 40
10.0
100
AcDbArc
 50
268.004332
 51
360.0
  0
ARC
  5
76
100
AcDbEntity
  8
2
370
    50
100
AcDbCircle
 10
-54.847194
 20
-33.922171
 30
0.0
 40
18.0
100
AcDbArc
 50
88.004332
 51
172.0
  0
LINE
  5
77
100
AcDbEntity
  8
2
370
    25
  6
CENTER
100
AcDbLine
 10
-31.371877
 20
72.044475
 30
0.0
 11
-31.371877
 21
106.102153
 31
0.0
  0
LINE
  5
78
100
AcDbEntity
  8
2
370
    50
100
AcDbLine
 10
11.128123
 20
67.121986
 30
0.0
 11
11.128123
 21
111.121986
 31
0.0
  0
LINE
  5
79
100
AcDbEntity
  8
2
370
    50
100
AcDbLine
 10
27.628123
 20
81.071986
 30
0.0
 11
27.628123
 21
97.171986
 31
0.0
  0
LINE
  5
7A
100
AcDbEntity
  8
2
370
    50
100
AcDbLine
 10
12.128123
 20
112.121986
 30
0.0
 11
13.628123
 21
112.121986
 31
0.0
  0
LINE
  5
7B
100
AcDbEntity
  8
2
370
    50
100
AcDbLine
 10
12.128123
 20
66.121986
 30
0.0
 11
13.628123
 21
66.121986
 31
0.0
  0
LINE
  5
7C
100
AcDbEntity
  8
2
370
    50
100
AcDbLine
 10
13.628123
 20
66.121986
 30
0.0
 11
13.628123
 21
112.121986
 31
0.0
  0
ARC
  5
7D
100
AcDbEntity
  8
2
370
    50
100
AcDbCircle
 10
12.128123
 20
111.121986
 30
0.0
 40
1.0
100
AcDbArc
 50
90.0
 51
180.0
  0
ARC
  5
7E
100
AcDbEntity
  8
2
370
    50
100
AcDbCircle
 10
12.128123
 20
67.121986
 30
0.0
 40
1.0
100
AcDbArc
 50
180.0
 51
270.0
  0
ARC
  5
7F
100
AcDbEntity
  8
2
370
    50
100
AcDbCircle
 10
7.128123
 20
102.371986
 30
0.0
 40
4.0
100
AcDbArc
 50
270.0
 51
360.0
  0
ARC
  5
80
100
AcDbEntity
  8
2
370
    50
100
AcDbCircle
 10
7.128123
 20
75.871986
 30
0.0
 40
4.0
100
AcDbArc
 50
0.0
 51
90.0
  0
LINE
  5
81
100
AcDbEntity
  8
2
370
    50
100
AcDbLine
 10
13.628123
 20
98.371986
 30
0.0
 11
26.428123
 21
98.371986
 31
0.0
  0
LINE
  5
82
100
AcDbEntity
  8
2
370
    50
100
AcDbLine
 10
13.628123
 20
79.871986
 30
0.0
 11
26.428123
 21
79.871986
 31
0.0
  0
LINE
  5
83
100
AcDbEntity
  8
2
370
    50
100
AcDbLine
 10
-13.809488
 20
98.371986
 30
0.0
 11
7.128123
 21
98.371986
 31
0.0
  0
LINE
  5
84
100
AcDbEntity
  8
2
370
    50
100
AcDbLine
 10
-13.809488
 20
79.871986
 30
0.0
 11
7.128123
 21
79.871986
 31
0.0
  0
LINE
  5
85
100
AcDbEntity
  8
2
370
    25
100
AcDbLine
 10
16.628123
 20
97.171986
 30
0.0
 11
27.628123
 21
97.171986
 31
0.0
  0
LINE
  5
86
100
AcDbEntity
  8
2
370
    25
100
AcDbLine
 10
16.628123
 20
81.071986
 30
0.0
 11
27.628123
 21
81.071986
 31
0.0
  0
LINE
  5
87
100
AcDbEntity
  8
2
370
    50
100
AcDbLine
 10
26.428123
 20
98.371986
 30
0.0
 11
27.628123
 21
97.171986
 31
0.0
  0
LINE
  5
88
100
AcDbEntity
  8
2
370
    50
100
AcDbLine
 10
26.428123
 20
79.871986
 30
0.0
 11
26.428123
 21
98.371986
 31
0.0
  0
LINE
  5
89
100
AcDbEntity
  8
2
370
    50
100
AcDbLine
 10
15.428123
 20
98.371986
 30
0.0
 11
16.628123
 21
97.171986
 31
0.0
  0
LINE
  5
8A
100
AcDbEntity
  8
2
370
    50
100
AcDbLine
 10
15.428123
 20
79.871986
 30
0.0
 11
16.628123
 21
81.071986
 31
0.0
  0
LINE
  5
8B
100
AcDbEntity
  8
2
370
    50
100
AcDbLine
 10
16.628123
 20
79.871986
 30
0.0
 11
16.628123
 21
98.371986
 31
0.0
  0
ARC
  5
8C
100
AcDbEntity
  8
2
370
    50
100
AcDbCircle
 10
-13.809488
 20
128.371986
 30
0.0
 40
30.0
100
AcDbArc
 50
267.461843
 51
270.0
  0
ARC
  5
8D
100
AcDbEntity
  8
2
370
    50
100
AcDbCircle
 10
-13.809488
 20
49.871986
 30
0.0
 40
30.0
100
AcDbArc
 50
90.0
 51
92.538157
  0
LINE
  5
8E
100
AcDbEntity
  8
2
370
    50
100
AcDbLine
 10
-59.024182
 20
97.371986
 30
0.0
 11
-51.017169
 21
97.371986
 31
0.0
  0
LINE
  5
8F
100
AcDbEntity
  8
2
370
    50
100
AcDbLine
 10
-59.024182
 20
80.871986
 30
0.0
 11
-51.017169
 21
80.871986
 31
0.0
  0
ARC
  5
90
100
AcDbEntity
  8
2
370
    50
100
AcDbCircle
 10
-59.024182
 20
197.371986
 30
0.0
 40
100.0
100
AcDbArc
 50
267.474887
 51
270.0
  0
ARC
  5
91
100
AcDbEntity
  8
2
370
    50
100
AcDbCircle
 10
-59.024182
 20
-19.128014
 30
0.0
 40
100.0
100
AcDbArc
 50
90.0
 51
92.525113
  0
ELLIPSE
  5
92
100
AcDbEntity
  8
2
370
    50
100
AcDbEllipse
 10
-65.411186
 20
89.121986
 30
0.0
 11
0.0
 21
8.5835340000000002
 31
0.0
210
0.0
220
0.0
230
1.0
 40
0.990268
 41
6.04793
 42
3.3768479999999998
  0
LINE
  5
93
100
AcDbEntity
  8
2
370
    50
100
AcDbLine
 10
-80.951407
 20
91.521986
 30
0.0
 11
-86.124836
 21
91.521986
 31
0.0
  0
LINE
  5
94
100
AcDbEntity
  8
2
370
    50
100
AcDbLine
 10
-80.951407
 20
86.721986
 30
0.0
 11
-86.124836
 21
86.721986
 31
0.0
  0
ARC
  5
95
100
AcDbEntity
  8
2
370
    50
100
AcDbCircle
 10
-85.011451
 20
89.121986
 30
0.0
 40
2.4
100
AcDbArc
 50
90.0
 51
270.0
  0
ARC
  5
96
100
AcDbEntity
  8
2
370
    50
100
AcDbCircle
 10
-86.124836
 20
89.121986
 30
0.0
 40
2.4
100
AcDbArc
 50
90.0
 51
270.0
  0
ELLIPSE
  5
97
100
AcDbEntity
  8
2
370
    50
100
AcDbEllipse
 10
-65.550606
 20
89.121986
 30
0.0
 11
0.0
 21
9.5
 31
0.0
210
0.0
220
0.0
230
1.0
 40
0.967075
 41
5.7686830000000002
 42
3.6560950000000001
  0
LWPOLYLINE
  5
98
100
AcDbEntity
  8
2
370
    50
100
AcDbPolyline
 90
       58
 70
     0
 10
-73.825102
 20
100.221345
 10
-73.831242
 20
100.218791
 10
-73.837381
 20
100.216234
 10
-73.843519
 20
100.213673
 10
-73.849655
 20
100.211109
 10
-73.85579
 20
100.208541
 10
-74.331613
 20
99.996599
 10
-74.797732
 20
99.763719
 10
-75.25322
 20
99.510615
 10
-76.546628
 20
98.637097
 10
-76.950321
 20
98.310237
 10
-77.338749
 20
97.966722
 10
-77.710983
 20
97.607268
 10
-77.756855
 20
97.560713
 10
-77.802457
 20
97.51391
 10
-77.847794
 20
97.466857
 10
-77.892869
 20
97.419551
 10
-77.937686
 20
97.371986
 10
-78.261008
 20
97.012437
 10
-78.569953
 20
96.639392
 10
-78.864009
 20
96.253613
 10
-79.65171
 20
95.027491
 10
-79.881078
 20
94.598395
 10
-80.092993
 20
94.160373
 10
-80.28694
 20
93.714188
 10
-80.475161
 20
93.225551
 10
-80.641809
 20
92.729289
 10
-80.786731
 20
92.226353
 10
-81.08962
 20
90.687039
 10
-81.146116
 20
90.166944
 10
-81.180126
 20
89.644942
 10
-81.191496
 20
89.121986
 10
-81.180126
 20
88.599031
 10
-81.146116
 20
88.077029
 10
-81.08962
 20
87.556934
 10
-80.786731
 20
86.01762
 10
-80.641809
 20
85.514684
 10
-80.475161
 20
85.018421
 10
-80.28694
 20
84.529785
 10
-79.989249
 20
83.863521
 10
-79.65171
 20
83.216482
 10
-79.276052
 20
82.591237
 10
-78.864009
 20
81.99036
 10
-78.41731
 20
81.416419
 10
-77.937686
 20
80.871986
 10
-77.881624
 20
80.812572
 10
-77.825159
 20
80.753558
 10
-77.768281
 20
80.694938
 10
-77.710983
 20
80.636705
 10
-77.146501
 20
80.103456
 10
-76.546628
 20
79.606875
 10
-75.914491
 20
79.149373
 10
-75.25322
 20
78.733358
 10
-74.565943
 20
78.361241
 10
-73.85579
 20
78.035432
 10
-73.845566
 20
78.031155
 10
-73.835339
 20
78.026888
 10
-73.825107
 20
78.02263
  0
LWPOLYLINE
  5
D4
100
AcDbEntity
  8
2
370
    50
100
AcDbPolyline
 90
        8
 70
     0
 10
-81.967522
 20
91.533199
 10
-82.065195
 20
90.935005
 10
-82.135217
 20
90.332957
 10
-82.177389
 20
89.728227
 10
-82.191496
 20
89.121986
 10
-82.166782
 20
88.319493
 10
-82.092982
 20
87.520316
 10
-81.970578
 20
86.727172
  0
ELLIPSE
  5
DE
100
AcDbEntity
  8
2
370
    50
100
AcDbEllipse
 10
-74.457684
 20
89.121986
 30
0.0
 11
0.0
 21
7.9000000000000004
 31
0.0
210
0.0
220
0.0
230
1.0
 40
0.990268
 41
0.729519
 42
1.2618469999999999
  0
ELLIPSE
  5
DF
100
AcDbEntity
  8
2
370
    50
100
AcDbEllipse
 10
-74.457684
 20
89.121986
 30
0.0
 11
0.0
 21
7.9000000000000004
 31
0.0
210
0.0
220
0.0
230
1.0
 40
0.990268
 41
1.878692
 42
2.4109769999999999
  0
ELLIPSE
  5
E0
100
AcDbEntity
  8
2
370
    50
100
AcDbEllipse
 10
-74.457684
 20
89.121986
 30
0.0
 11
0.0
 21
7.9000000000000004
 31
0.0
210
0.0
220
0.0
230
1.0
 40
0.919801
 41
0.909925
 42
1.2628349999999999
  0
ELLIPSE
  5
E1
100
AcDbEntity
  8
2
370
    50
100
AcDbEllipse
 10
-74.457684
 20
89.121986
 30
0.0
 11
0.0
 21
7.9000000000000004
 31
0.0
210
0.0
220
0.0
230
1.0
 40
0.919801
 41
1.8834690000000001
 42
2.241066
  0
LINE
  5
E2
100
AcDbEntity
  8
2
370
    25
  6
CENTER
100
AcDbLine
 10
-91.293594
 20
89.121986
 30
0.0
 11
33.026717
 21
89.121986
 31
0.0
  0
LINE
  5
E3
100
AcDbEntity
  8
2
370
    50
100
AcDbLine
 10
-80.009441
 20
90.307986
 30
0.0
 11
-73.691303
 21
100.435829
 31
0.0
  0
LINE
  5
E4
100
AcDbEntity
  8
2
370
    50
100
AcDbLine
 10
-59.684479
 20
101.621986
 30
0.0
 11
-71.416733
 21
101.621986
 31
0.0
  0
LINE
  5
E5
100
AcDbEntity
  8
2
370
    50
100
AcDbLine
 10
-57.409909
 20
100.435829
 30
0.0
 11
-55.498566
 21
97.371986
 31
0.0
  0
LINE
  5
E6
100
AcDbEntity
  8
2
370
    50
100
AcDbLine
 10
-57.409909
 20
77.808144
 30
0.0
 11
-55.498566
 21
80.871986
 31
0.0
  0
LINE
  5
E7
100
AcDbEntity
  8
2
370
    50
100
AcDbLine
 10
-80.009441
 20
87.935986
 30
0.0
 11
-73.691303
 21
77.808144
 31
0.0
  0
LINE
  5
E8
100
AcDbEntity
  8
2
370
    50
100
AcDbLine
 10
-59.684479
 20
76.621986
 30
0.0
 11
-71.416733
 21
76.621986
 31
0.0
  0
ELLIPSE
  5
E9
100
AcDbEntity
  8
2
370
    50
100
AcDbEllipse
 10
-65.550606
 20
89.121986
 30
0.0
 11
14.513593
 21
0.0
 31
0.0
210
0.0
220
0.0
230
1.0
 40
0.9416
 41
0.975322
 42
1.154712
  0
ELLIPSE
  5
EA
100
AcDbEntity
  8
2
370
    50
100
AcDbEllipse
 10
-65.550606
 20
89.121986
 30
0.0
 11
14.513593
 21
0.0
 31
0.0
210
0.0
220
0.0
230
1.0
 40
0.9416
 41
5.1284729999999996
 42
5.3078630000000002
  0
ELLIPSE
  5
EB
100
AcDbEntity
  8
2
370
    50
100
AcDbEllipse
 10
-65.550606
 20
89.121986
 30
0.0
 11
14.513593
 21
0.0
 31
0.0
210
0.0
220
0.0
230
1.0
 40
0.9416
 41
4.1169149999999997
 42
4.2963050000000003
  0
ELLIPSE
  5
EC
100
AcDbEntity
  8
2
370
    50
100
AcDbEllipse
 10
-65.550606
 20
89.121986
 30
0.0
 11
14.513593
 21
0.0
 31
0.0
210
0.0
220
0.0
230
1.0
 40
0.9416
 41
1.98688
 42
2.1662710000000001
  0
ELLIPSE
  5
ED
100
AcDbEntity
  8
2
370
    50
100
AcDbEllipse
 10
-65.550606
 20
89.121986
 30
0.0
 11
14.513593
 21
0.0
 31
0.0
210
0.0
220
0.0
230
1.0
 40
0.9416
 41
3.0546989999999998
 42
3.2284869999999999
  0
ELLIPSE
  5
EE
100
AcDbEntity
  8
2
370
    50
100
AcDbEllipse
 10
-69.308279
 20
89.121986
 30
0.0
 11
0.0
 21
10.5
 31
0.0
210
0.0
220
0.0
230
1.0
 40
0.985827
 41
0.641227
 42
1.3719779999999999
  0
ELLIPSE
  5
EF
100
AcDbEntity
  8
2
370
    50
100
AcDbEllipse
 10
-69.308279
 20
89.121986
 30
0.0
 11
0.0
 21
10.5
 31
0.0
210
0.0
220
0.0
230
1.0
 40
0.985827
 41
1.7696149999999999
 42
2.5003649999999999
  0
ELLIPSE
  5
F0
100
AcDbEntity
  8
2
370
    50
100
AcDbEllipse
 10
-65.550606
 20
89.121986
 30
0.0
 11
0.0
 21
11.7235
 31
0.0
210
0.0
220
0.0
230
1.0
 40
0.994348
 41
5.4930019999999997
 42
3.9317760000000002
  0
LINE
  5
F1
100
AcDbEntity
  8
2
370
    50
100
AcDbLine
 10
-56.3718
 20
-37.584642
 30
0.0
 11
-56.855057
 21
-41.023192
 31
0.0
  0
LINE
  5
F2
100
AcDbEntity
  8
2
370
    50
100
AcDbLine
 10
-72.672095
 20
-31.417224
 30
0.0
 11
-73.689614
 21
-38.657249
 31
0.0
  0
ARC
  5
F3
100
AcDbEntity
  8
2
370
    50
100
AcDbCircle
 10
-50.430192
 20
-38.419681
 30
0.0
 40
6.0
100
AcDbArc
 50
70.10355
 51
172.0
  0
ARC
  5
F4
100
AcDbEntity
  8
2
370
    50
100
AcDbCircle
 10
-54.847269
 20
-33.92234
 30
0.0
 40
18.0
100
AcDbArc
 50
88.004332
 51
172.0
  0
LINE
  5
F5
100
AcDbEntity
  8
2
370
    50
100
AcDbLine
 10
-74.623544
 20
-39.535821
 30
0.0
 11
-74.59872
 21
-39.53931
 31
0.0
  0
LINE
  5
F6
100
AcDbEntity
  8
2
370
    25
100
AcDbLine
 10
-56.220808
 20
-42.096844
 30
0.0
 11
-56.363469
 21
-43.111935
 31
0.0
  0
LINE
  5
F7
100
AcDbEntity
  8
2
370
    25
100
AcDbLine
 10
-74.59872
 20
-39.53931
 30
0.0
 11
-74.737893
 21
-40.529578
 31
0.0
  0
ARC
  5
F8
100
AcDbEntity
  8
2
370
    50
100
AcDbCircle
 10
-55.864788
 20
-41.162365
 30
0.0
 40
1.0
100
AcDbArc
 50
172.0
 51
249.144087
  0
ARC
  5
F9
100
AcDbEntity
  8
2
370
    50
100
AcDbCircle
 10
-74.679882
 20
-38.518076
 30
0.0
 40
1.0
100
AcDbArc
 50
274.855913
 51
352.0
  0
LINE
  5
FA
100
AcDbEntity
  8
2
370
    50
100
AcDbLine
 10
-56.220808
 20
-42.096844
 30
0.0
 11
-55.393118
 21
-43.195225
 31
0.0
  0
LINE
  5
FB
100
AcDbEntity
  8
2
370
    50
100
AcDbLine
 10
-74.595232
 20
-39.514487
 30
0.0
 11
-75.693613
 21
-40.342177
 31
0.0
  0
LINE
  5
FC
100
AcDbEntity
  8
2
370
    50
100
AcDbLine
 10
-72.126597
 20
-41.9064
 30
0.0
 11
-72.621731
 21
-41.836813
 31
0.0
  0
LINE
  5
FD
100
AcDbEntity
  8
2
370
    50
100
AcDbLine
 10
-59.253112
 20
-43.71565
 30
0.0
 11
-58.757978
 21
-43.785236
 31
0.0
  0
LINE
  5
FE
100
AcDbEntity
  8
2
370
    50
100
AcDbLine
 10
-63.133902
 20
-78.514205
 30
0.0
 11
-64.38646
 21
-87.426618
 31
0.0
  0
LINE
  5
FF
100
AcDbEntity
  8
2
370
    50
100
AcDbLine
 10
-79.981849
 20
-101.39207
 30
0.0
 11
-68.098632
 21
-103.062147
 31
0.0
  0
LINE
  5
100
100
AcDbEntity
  8
2
370
    50
100
AcDbLine
 10
-73.483548
 20
-98.266037
 30
0.0
 11
-66.056538
 21
-99.309835
 31
0.0
  0
LINE
  5
101
100
AcDbEntity
  8
2
370
    50
100
AcDbLine
 10
-72.926856
 20
-94.304964
 30
0.0
 11
-65.499845
 21
-95.348762
 31
0.0
  0
LINE
  5
102
100
AcDbEntity
  8
2
370
    50
100
AcDbLine
 10
-72.370163
 20
-90.343892
 30
0.0
 11
-64.943153
 21
-91.38769
 31
0.0
  0
LINE
  5
103
100
AcDbEntity
  8
2
370
    50
100
AcDbLine
 10
-67.415902
 20
-102.668261
 30
0.0
 11
-66.056538
 21
-99.309835
 31
0.0
  0
LINE
  5
104
100
AcDbEntity
  8
2
370
    50
100
AcDbLine
 10
-67.046806
 20
-99.170662
 30
0.0
 11
-65.499845
 21
-95.348762
 31
0.0
  0
LINE
  5
105
100
AcDbEntity
  8
2
370
    50
100
AcDbLine
 10
-66.490113
 20
-95.209589
 30
0.0
 11
-64.943153
 21
-91.38769
 31
0.0
  0
LINE
  5
106
100
AcDbEntity
  8
2
370
    50
100
AcDbLine
 10
-65.933421
 20
-91.248517
 30
0.0
 11
-64.38646
 21
-87.426618
 31
0.0
  0
LINE
  5
107
100
AcDbEntity
  8
2
370
    50
100
AcDbLine
 10
-80.529562
 20
-100.825256
 30
0.0
 11
-80.910559
 21
-97.222238
 31
0.0
  0
LINE
  5
108
100
AcDbEntity
  8
2
370
    50
100
AcDbLine
 10
-73.483548
 20
-98.266037
 30
0.0
 11
-80.910559
 21
-97.222238
 31
0.0
  0
LINE
  5
109
100
AcDbEntity
  8
2
370
    50
100
AcDbLine
 10
-79.920291
 20
-97.361411
 30
0.0
 11
-80.353866
 21
-93.261166
 31
0.0
  0
LINE
  5
10A
100
AcDbEntity
  8
2
370
    50
100
AcDbLine
 10
-72.926856
 20
-94.304964
 30
0.0
 11
-80.353866
 21
-93.261166
 31
0.0
  0
LINE
  5
10B
100
AcDbEntity
  8
2
370
    50
100
AcDbLine
 10
-79.363598
 20
-93.400339
 30
0.0
 11
-79.797174
 21
-89.300094
 31
0.0
  0
LINE
  5
10C
100
AcDbEntity
  8
2
370
    50
100
AcDbLine
 10
-72.370163
 20
-90.343892
 30
0.0
 11
-79.797174
 21
-89.300094
 31
0.0
  0
LINE
  5
10D
100
AcDbEntity
  8
2
370
    50
100
AcDbLine
 10
-78.806906
 20
-89.439267
 30
0.0
 11
-79.240481
 21
-85.339021
 31
0.0
  0
LINE
  5
10E
100
AcDbEntity
  8
2
370
    50
100
AcDbLine
 10
-77.987923
 20
-76.426609
 30
0.0
 11
-79.240481
 21
-85.339021
 31
0.0
  0
LINE
  5
10F
100
AcDbEntity
  8
2
370
    50
100
AcDbLine
 10
-67.415902
 20
-102.668261
 30
0.0
 11
-68.098632
 21
-103.062147
 31
0.0
  0
LINE
  5
110
100
AcDbEntity
  8
2
370
    50
100
AcDbLine
 10
-79.981849
 20
-101.39207
 30
0.0
 11
-80.529562
 21
-100.825256
 31
0.0
  0
LINE
  5
111
100
AcDbEntity
  8
2
370
    25
  6
CENTER
100
AcDbLine
 10
-63.826304
 20
-29.551172
 30
0.0
 11
-74.209912
 21
-103.434382
 31
0.0
  0
POINT
  5
112
100
AcDbEntity
  8
2
370
    50
100
AcDbPoint
 10
-70.407823
 20
-76.381112
 30
0.0
  0
LINE
  5
113
100
AcDbEntity
  8
2
370
    50
100
AcDbLine
 10
-51.205184
 20
-69.082574
 30
0.0
 11
-56.156524
 21
-68.386709
 31
0.0
  0
LINE
  5
114
100
AcDbEntity
  8
2
370
    50
100
AcDbLine
 10
-52.596915
 20
-78.985255
 30
0.0
 11
-57.548255
 21
-78.289389
 31
0.0
  0
LINE
  5
115
100
AcDbEntity
  8
2
370
    50
100
AcDbLine
 10
-52.596915
 20
-78.985255
 30
0.0
 11
-51.205184
 21
-69.082574
 31
0.0
  0
ARC
  5
116
100
AcDbEntity
  8
2
370
    50
100
AcDbCircle
 10
-57.687428
 20
-79.279657
 30
0.0
 40
1.0
100
AcDbArc
 50
82.0
 51
172.0
  0
ARC
  5
117
100
AcDbEntity
  8
2
370
    50
100
AcDbCircle
 10
-56.017351
 20
-67.396441
 30
0.0
 40
1.0
100
AcDbArc
 50
172.0
 51
262.0
  0
ARC
  5
118
100
AcDbEntity
  8
2
370
    50
100
AcDbCircle
 10
-83.434398
 20
-75.661157
 30
0.0
 40
1.0
100
AcDbArc
 50
352.0
 51
82.0
  0
ARC
  5
119
100
AcDbEntity
  8
2
370
    50
100
AcDbCircle
 10
-81.764321
 20
-63.77794
 30
0.0
 40
1.0
100
AcDbArc
 50
262.0
 51
352.0
  0
LINE
  5
11A
100
AcDbEntity
  8
2
370
    50
100
AcDbLine
 10
-86.854834
 20
-64.072342
 30
0.0
 11
-81.903494
 21
-64.768208
 31
0.0
  0
LINE
  5
11B
100
AcDbEntity
  8
2
370
    50
100
AcDbLine
 10
-88.246565
 20
-73.975023
 30
0.0
 11
-86.854834
 21
-64.072342
 31
0.0
  0
LINE
  5
11C
100
AcDbEntity
  8
2
370
    50
100
AcDbLine
 10
-88.246565
 20
-73.975023
 30
0.0
 11
-83.295225
 21
-74.670889
 31
0.0
  0
LINE
  5
11D
100
AcDbEntity
  8
2
370
    50
100
AcDbLine
 10
-82.44413
 20
-75.80033
 30
0.0
 11
-70.560913
 21
-77.470407
 31
0.0
  0
LINE
  5
11E
100
AcDbEntity
  8
2
370
    50
100
AcDbLine
 10
-70.560913
 20
-77.470407
 30
0.0
 11
-58.677696
 21
-79.140484
 31
0.0
  0
LINE
  5
11F
100
AcDbEntity
  8
2
370
    50
100
AcDbLine
 10
-80.774053
 20
-63.917113
 30
0.0
 11
-68.890836
 21
-65.58719
 31
0.0
  0
LINE
  5
120
100
AcDbEntity
  8
2
370
    50
100
AcDbLine
 10
-68.890836
 20
-65.58719
 30
0.0
 11
-57.007619
 21
-67.257267
 31
0.0
  0
LINE
  5
121
100
AcDbEntity
  8
2
370
    50
100
AcDbLine
 10
-62.503607
 20
-66.484857
 30
0.0
 11
-62.973984
 21
-66.41875
 31
0.0
  0
LINE
  5
122
100
AcDbEntity
  8
2
370
    50
100
AcDbLine
 10
-74.807687
 20
-64.755631
 30
0.0
 11
-75.278065
 21
-64.689524
 31
0.0
  0
LINE
  5
123
100
AcDbEntity
  8
2
370
    50
100
AcDbLine
 10
-36.568114
 20
102.121514
 30
0.0
 11
-26.175809
 21
102.121514
 31
0.0
  0
LINE
  5
124
100
AcDbEntity
  8
2
370
    50
100
AcDbLine
 10
-45.228368
 20
91.121514
 30
0.0
 11
-40.032215
 21
100.121514
 31
0.0
  0
LINE
  5
125
100
AcDbEntity
  8
2
370
    50
100
AcDbLine
 10
-45.228368
 20
87.121514
 30
0.0
 11
-40.032215
 21
78.121514
 31
0.0
  0
LINE
  5
126
100
AcDbEntity
  8
2
370
    50
100
AcDbLine
 10
-36.568114
 20
76.121514
 30
0.0
 11
-26.175809
 21
76.121514
 31
0.0
  0
LINE
  5
127
100
AcDbEntity
  8
2
370
    50
100
AcDbLine
 10
-22.711707
 20
78.121514
 30
0.0
 11
-17.515555
 21
87.121514
 31
0.0
  0
LINE
  5
128
100
AcDbEntity
  8
2
370
    50
100
AcDbLine
 10
-22.711707
 20
100.121514
 30
0.0
 11
-17.515555
 21
91.121514
 31
0.0
  0
ARC
  5
129
100
AcDbEntity
  8
2
370
    50
100
AcDbCircle
 10
-31.371961
 20
89.121514
 30
0.0
 40
14.0
100
AcDbArc
 50
111.786789
 51
128.213211
  0
ARC
  5
12A
100
AcDbEntity
  8
2
370
    50
100
AcDbCircle
 10
-31.371961
 20
89.121514
 30
0.0
 40
14.0
100
AcDbArc
 50
231.786789
 51
248.213211
  0
ARC
  5
12B
100
AcDbEntity
  8
2
370
    50
100
AcDbCircle
 10
-31.371961
 20
89.121514
 30
0.0
 40
14.0
100
AcDbArc
 50
291.786789
 51
308.213211
  0
ARC
  5
12C
100
AcDbEntity
  8
2
370
    50
100
AcDbCircle
 10
-31.371961
 20
89.121514
 30
0.0
 40
14.0
100
AcDbArc
 50
51.786789
 51
68.213211
  0
LINE
  5
12D
100
AcDbEntity
  8
2
370
    50
100
AcDbLine
 10
-41.071961
 20
26.14301
 30
0.0
 11
-31.371961
 21
26.14301
 31
0.0
  0
LINE
  5
12E
100
AcDbEntity
  8
2
370
    50
100
AcDbLine
 10
-43.871961
 20
1.14301
 30
0.0
 11
-31.371961
 21
1.14301
 31
0.0
  0
LINE
  5
12F
100
AcDbEntity
  8
2
370
    50
100
AcDbLine
 10
-41.371961
 20
10.64301
 30
0.0
 11
-41.371961
 21
25.84301
 31
0.0
  0
ARC
  5
130
100
AcDbEntity
  8
2
370
    50
100
AcDbCircle
 10
-38.873584
 20
4.642334
 30
0.0
 40
6.5
100
AcDbArc
 50
112.604372
 51
181.280202
  0
ARC
  5
131
100
AcDbEntity
  8
2
370
    50
100
AcDbCircle
 10
-40.871961
 20
4.497112
 30
0.0
 40
4.5
100
AcDbArc
 50
180.0
 51
228.189685
  0
LINE
  5
132
100
AcDbEntity
  8
2
370
    50
100
AcDbLine
 10
-41.371961
 20
25.84301
 30
0.0
 11
-41.071961
 21
26.14301
 31
0.0
  0
LINE
  5
133
100
AcDbEntity
  8
2
370
    50
100
AcDbLine
 10
-21.671961
 20
26.14301
 30
0.0
 11
-31.371961
 21
26.14301
 31
0.0
  0
LINE
  5
134
100
AcDbEntity
  8
2
370
    50
100
AcDbLine
 10
-18.871961
 20
1.14301
 30
0.0
 11
-31.371961
 21
1.14301
 31
0.0
  0
LINE
  5
135
100
AcDbEntity
  8
2
370
    50
100
AcDbLine
 10
-21.371961
 20
10.64301
 30
0.0
 11
-21.371961
 21
25.84301
 31
0.0
  0
ARC
  5
136
100
AcDbEntity
  8
2
370
    50
100
AcDbCircle
 10
-23.870339
 20
4.642334
 30
0.0
 40
6.5
100
AcDbArc
 50
358.719798
 51
67.395628
  0
ARC
  5
137
100
AcDbEntity
  8
2
370
    50
100
AcDbCircle
 10
-21.871961
 20
4.497112
 30
0.0
 40
4.5
100
AcDbArc
 50
311.810315
 51
360.0
  0
LINE
  5
138
100
AcDbEntity
  8
2
370
    50
100
AcDbLine
 10
-21.371961
 20
25.84301
 30
0.0
 11
-21.671961
 21
26.14301
 31
0.0
  0
LINE
  5
139
100
AcDbEntity
  8
2
370
    25
  6
CENTER
100
AcDbLine
 10
-31.371961
 20
-40.816079
 30
0.0
 11
-31.371961
 21
32.207246
 31
0.0
  0
LINE
  5
13A
100
AcDbEntity
  8
2
370
    25
  6
CENTER
100
AcDbLine
 10
-35.490682
 20
43.737804
 30
0.0
 11
-26.753011
 21
43.737804
 31
0.0
  0
CIRCLE
  5
13B
100
AcDbEntity
  8
2
370
    50
100
AcDbCircle
 10
-31.372123
 20
43.737804
 30
0.0
 40
2.25
  0
LINE
  5
13C
100
AcDbEntity
  8
2
370
    50
100
AcDbLine
 10
-48.371877
 20
87.971986
 30
0.0
 11
-48.371877
 21
90.271986
 31
0.0
  0
LINE
  5
13D
100
AcDbEntity
  8
2
370
    50
100
AcDbLine
 10
-14.371877
 20
87.971986
 30
0.0
 11
-14.371877
 21
90.271986
 31
0.0
  0
LINE
  5
13E
100
AcDbEntity
  8
2
370
    50
100
AcDbLine
 10
-47.871877
 20
90.771986
 30
0.0
 11
-37.658967
 21
90.771986
 31
0.0
  0
LINE
  5
13F
100
AcDbEntity
  8
2
370
    50
100
AcDbLine
 10
-37.658967
 20
90.771986
 30
0.0
 11
-14.871877
 21
90.771986
 31
0.0
  0
LINE
  5
140
100
AcDbEntity
  8
2
370
    50
100
AcDbLine
 10
-47.871877
 20
87.471986
 30
0.0
 11
-37.658967
 21
87.471986
 31
0.0
  0
LINE
  5
141
100
AcDbEntity
  8
2
370
    50
100
AcDbLine
 10
-37.658967
 20
87.471986
 30
0.0
 11
-14.871877
 21
87.471986
 31
0.0
  0
ARC
  5
142
100
AcDbEntity
  8
2
370
    50
100
AcDbCircle
 10
-47.871877
 20
90.271986
 30
0.0
 40
0.5
100
AcDbArc
 50
90.0
 51
180.0
  0
ARC
  5
143
100
AcDbEntity
  8
2
370
    50
100
AcDbCircle
 10
-47.871877
 20
87.971986
 30
0.0
 40
0.5
100
AcDbArc
 50
180.0
 51
270.0
  0
ARC
  5
144
100
AcDbEntity
  8
2
370
    50
100
AcDbCircle
 10
-14.871877
 20
90.271986
 30
0.0
 40
0.5
100
AcDbArc
 50
0.0
 51
90.0
  0
ARC
  5
145
100
AcDbEntity
  8
2
370
    50
100
AcDbCircle
 10
-14.871877
 20
87.971986
 30
0.0
 40
0.5
100
AcDbArc
 50
270.0
 51
360.0
  0
ARC
  5
146
100
AcDbEntity
  8
2
370
    50
100
AcDbCircle
 10
-31.371877
 20
89.121986
 30
0.0
 40
6.5
100
AcDbArc
 50
14.705225
 51
165.294775
  0
ARC
  5
147
100
AcDbEntity
  8
2
370
    50
100
AcDbCircle
 10
-31.371877
 20
89.121986
 30
0.0
 40
6.5
100
AcDbArc
 50
194.705225
 51
345.294775
  0
LINE
  5
148
100
AcDbEntity
  8
2
370
    25
  6
CENTER
100
AcDbLine
 10
-31.372123
 20
14.870714
 30
0.0
 11
-31.372123
 21
55.550373
 31
0.0
  0
ARC
  5
149
100
AcDbEntity
  8
2
370
    50
100
AcDbCircle
 10
-31.371961
 20
89.121514
 30
0.0
 40
14.0
100
AcDbArc
 50
351.786789
 51
353.2335
  0
ARC
  5
14A
100
AcDbEntity
  8
2
370
    50
100
AcDbCircle
 10
-31.371961
 20
89.121514
 30
0.0
 40
14.0
100
AcDbArc
 50
6.770396
 51
8.213211
  0
ARC
  5
14B
100
AcDbEntity
  8
2
370
    50
100
AcDbCircle
 10
-31.371961
 20
89.121514
 30
0.0
 40
7.8
100
AcDbArc
 50
12.216077
 51
167.783923
  0
ARC
  5
14C
100
AcDbEntity
  8
2
370
    50
100
AcDbCircle
 10
-31.371961
 20
89.121514
 30
0.0
 40
7.8
100
AcDbArc
 50
192.208973
 51
347.791027
  0
ARC
  5
14D
100
AcDbEntity
  8
2
370
    50
100
AcDbCircle
 10
-31.371961
 20
89.121514
 30
0.0
 40
9.7
100
AcDbArc
 50
9.796646
 51
170.203354
  0
ARC
  5
14E
100
AcDbEntity
  8
2
370
    50
100
AcDbCircle
 10
-31.371961
 20
89.121514
 30
0.0
 40
9.7
100
AcDbArc
 50
189.79098
 51
350.20902
  0
ARC
  5
14F
100
AcDbEntity
  8
2
370
    50
100
AcDbCircle
 10
-31.371961
 20
89.121514
 30
0.0
 40
10.0
100
AcDbArc
 50
9.49998
 51
170.50002
  0
ARC
  5
150
100
AcDbEntity
  8
2
370
    50
100
AcDbCircle
 10
-31.371961
 20
89.121514
 30
0.0
 40
10.0
100
AcDbArc
 50
189.494489
 51
350.505511
  0
ARC
  5
151
100
AcDbEntity
  8
2
370
    50
100
AcDbCircle
 10
-31.371961
 20
89.121514
 30
0.0
 40
14.0
100
AcDbArc
 50
171.786789
 51
173.229604
  0
ARC
  5
152
100
AcDbEntity
  8
2
370
    50
100
AcDbCircle
 10
-31.371961
 20
89.121514
 30
0.0
 40
14.0
100
AcDbArc
 50
186.7665
 51
188.213211
  0
ARC
  5
153
100
AcDbEntity
  8
2
370
    50
100
AcDbCircle
 10
-31.371961
 20
89.121514
 30
0.0
 40
7.5
100
AcDbArc
 50
12.712734
 51
167.287266
  0
ARC
  5
154
100
AcDbEntity
  8
2
370
    50
100
AcDbCircle
 10
-31.371961
 20
89.121514
 30
0.0
 40
7.5
100
AcDbArc
 50
192.705332
 51
347.294668
  0
ARC
  5
155
100
AcDbEntity
  8
2
370
    50
100
AcDbCircle
 10
-13.809488
 20
128.371986
 30
0.0
 40
30.0
100
AcDbArc
 50
253.295541
 51
270.0
  0
ARC
  5
156
100
AcDbEntity
  8
2
370
    50
100
AcDbCircle
 10
-13.809488
 20
49.871986
 30
0.0
 40
30.0
100
AcDbArc
 50
90.0
 51
106.703143
  0
ARC
  5
157
100
AcDbEntity
  8
2
370
    50
100
AcDbCircle
 10
-51.017169
 20
127.371986
 30
0.0
 40
30.0
100
AcDbArc
 50
270.0
 51
290.469228
  0
ARC
  5
158
100
AcDbEntity
  8
2
370
    50
100
AcDbCircle
 10
-51.017169
 20
50.871986
 30
0.0
 40
30.0
100
AcDbArc
 50
69.532191
 51
90.0
  0
TEXT
  5
159
100
AcDbEntity
  8
2
370
    50
100
AcDbText
 10
33.767723
 20
-118.379379
 30
0.0
 40
3.0
  1
Ｋ１３－２０
 72
     5
 11
51.167723
 21
-118.379379
 31
0.0
100
AcDbText
  0
LINE
  5
15A
100
AcDbEntity
  8
2
370
    50
100
AcDbLine
 10
26.428123
 20
79.871986
 30
0.0
 11
27.628123
 21
81.071986
 31
0.0
  0
TEXT
  5
15B
100
AcDbEntity
  8
2
370
    50
100
AcDbText
 10
34.474487
 20
-114.493759
 30
0.0
 40
3.0
  1
横水栓　（ホース接続形・共用・逆止）
 72
     5
 11
87.874487
 21
-114.493759
 31
0.0
100
AcDbText
  0
TEXT
  5
15C
100
AcDbEntity
  8
2
370
    50
100
AcDbText
 10
145.32756
 20
-119.249886
 30
0.0
 40
3.0
  1
１　１
 72
     5
 11
153.72756
 21
-119.249886
 31
0.0
100
AcDbText
  0
TEXT
  5
15D
100
AcDbEntity
  8
2
370
    50
100
AcDbText
 10
172.579391
 20
-127.937538
 30
0.0
 40
3.0
  1
０５　　７　２７
 72
     5
 11
195.979391
 21
-127.937538
 31
0.0
100
AcDbText
  0
TEXT
  5
15E
100
AcDbEntity
  8
2
370
    50
100
AcDbText
 10
169.279343
 20
-136.092743
 30
0.0
 40
3.0
  1
５０２０００
 72
     5
 11
186.679343
 21
-136.092743
 31
0.0
100
AcDbText
  0
LINE
  5
15F
100
AcDbEntity
  8
2
370
    50
100
AcDbLine
 10
-57.007619
 20
-67.257267
 30
0.0
 11
-58.677696
 21
-79.140484
 31
0.0
  0
LINE
  5
160
100
AcDbEntity
  8
2
370
    50
100
AcDbLine
 10
-80.774053
 20
-63.917113
 30
0.0
 11
-82.44413
 21
-75.80033
 31
0.0
  0
LINE
  5
161
100
AcDbEntity
  8
2
370
    25
100
AcDbLine
 10
-67.415902
 20
-102.668261
 30
0.0
 11
-80.529562
 21
-100.825256
 31
0.0
  0
LINE
  5
162
100
AcDbEntity
  8
2
370
    25
100
AcDbLine
 10
-64.38646
 20
-87.426618
 30
0.0
 11
-79.240481
 21
-85.339021
 31
0.0
  0
POINT
  5
163
100
AcDbEntity
  8
2
370
    50
100
AcDbPoint
 10
-65.550681
 20
-41.820757
 30
0.0
  0
LINE
  5
164
100
AcDbEntity
  8
2
370
    50
100
AcDbLine
 10
-79.041083
 20
-64.160666
 30
0.0
 11
-77.231833
 21
-51.287181
 31
0.0
  0
LINE
  5
165
100
AcDbEntity
  8
2
370
    50
100
AcDbLine
 10
-58.740588
 20
-67.013715
 30
0.0
 11
-56.931338
 21
-54.14023
 31
0.0
  0
LINE
  5
166
100
AcDbEntity
  8
2
370
    50
100
AcDbLine
 10
-55.198369
 20
-54.383783
 30
0.0
 11
-56.931338
 21
-54.14023
 31
0.0
  0
LINE
  5
167
100
AcDbEntity
  8
2
370
    50
100
AcDbLine
 10
-55.198369
 20
-54.383783
 30
0.0
 11
-54.068927
 21
-53.532688
 31
0.0
  0
LINE
  5
168
100
AcDbEntity
  8
2
370
    50
100
AcDbLine
 10
-67.081585
 20
-52.713705
 30
0.0
 11
-78.964802
 21
-51.043628
 31
0.0
  0
ARC
  5
169
100
AcDbEntity
  8
2
370
    50
100
AcDbCircle
 10
-65.272335
 20
-39.84022
 30
0.0
 40
13.0
100
AcDbArc
 50
239.380135
 51
262.0
  0
LINE
  5
16A
100
AcDbEntity
  8
2
370
    50
100
AcDbLine
 10
-74.75791
 20
-50.625041
 30
0.0
 11
-71.893753
 21
-51.027572
 31
0.0
  0
LINE
  5
16B
100
AcDbEntity
  8
2
370
    50
100
AcDbLine
 10
-73.505352
 20
-41.712628
 30
0.0
 11
-70.641195
 21
-42.115159
 31
0.0
  0
ARC
  5
16C
100
AcDbEntity
  8
2
370
    50
100
AcDbCircle
 10
-67.359932
 20
-54.694241
 30
0.0
 40
13.0
100
AcDbArc
 50
82.0
 51
104.619865
  0
LINE
  5
16D
100
AcDbEntity
  8
2
370
    50
100
AcDbLine
 10
-53.667465
 20
-43.490834
 30
0.0
 11
-77.433898
 21
-40.150679
 31
0.0
  0
ARC
  5
16E
100
AcDbEntity
  8
2
370
    50
100
AcDbCircle
 10
-76.346351
 20
-43.964149
 30
0.0
 40
3.625
100
AcDbArc
 50
38.397181
 51
125.602819
  0
ARC
  5
16F
100
AcDbEntity
  8
2
370
    50
100
AcDbCircle
 10
-76.868251
 20
-47.677654
 30
0.0
 40
3.625
100
AcDbArc
 50
218.397181
 51
305.602819
  0
LINE
  5
170
100
AcDbEntity
  8
2
370
    50
100
AcDbLine
 10
-79.70925
 20
-49.929175
 30
0.0
 11
-78.456692
 21
-41.016763
 31
0.0
  0
LINE
  5
171
100
AcDbEntity
  8
2
370
    50
100
AcDbLine
 10
-79.815897
 20
-49.914187
 30
0.0
 11
-78.563339
 21
-41.001774
 31
0.0
  0
LINE
  5
172
100
AcDbEntity
  8
2
370
    50
100
AcDbLine
 10
-78.563339
 20
-41.001774
 30
0.0
 11
-77.433898
 21
-40.150679
 31
0.0
  0
LINE
  5
173
100
AcDbEntity
  8
2
370
    50
100
AcDbLine
 10
-79.815897
 20
-49.914187
 30
0.0
 11
-78.964802
 21
-51.043628
 31
0.0
  0
LINE
  5
174
100
AcDbEntity
  8
2
370
    50
100
AcDbLine
 10
-54.068927
 20
-53.532688
 30
0.0
 11
-52.81637
 21
-44.620275
 31
0.0
  0
LINE
  5
175
100
AcDbEntity
  8
2
370
    50
100
AcDbLine
 10
-53.667465
 20
-43.490834
 30
0.0
 11
-52.81637
 21
-44.620275
 31
0.0
  0
LINE
  5
176
100
AcDbEntity
  8
2
370
    50
100
AcDbLine
 10
-67.081585
 20
-52.713705
 30
0.0
 11
-55.198369
 21
-54.383783
 31
0.0
  0
ARC
  5
177
100
AcDbEntity
  8
2
370
    50
100
AcDbCircle
 10
-65.272335
 20
-39.84022
 30
0.0
 40
13.0
100
AcDbArc
 50
262.0
 51
284.619865
  0
LINE
  5
178
100
AcDbEntity
  8
2
370
    50
100
AcDbLine
 10
-61.991072
 20
-52.419303
 30
0.0
 11
-60.738514
 21
-43.50689
 31
0.0
  0
LINE
  5
179
100
AcDbEntity
  8
2
370
    50
100
AcDbLine
 10
-59.126915
 20
-52.821834
 30
0.0
 11
-61.991072
 21
-52.419303
 31
0.0
  0
LINE
  5
17A
100
AcDbEntity
  8
2
370
    50
100
AcDbLine
 10
-59.126915
 20
-52.821834
 30
0.0
 11
-57.874357
 21
-43.909421
 31
0.0
  0
ARC
  5
17B
100
AcDbEntity
  8
2
370
    50
100
AcDbCircle
 10
-56.285915
 20
-50.570313
 30
0.0
 40
3.625
100
AcDbArc
 50
218.397181
 51
305.602819
  0
ARC
  5
17C
100
AcDbEntity
  8
2
370
    50
100
AcDbCircle
 10
-67.359932
 20
-54.694241
 30
0.0
 40
13.0
100
AcDbArc
 50
59.380135
 51
82.0
  0
LINE
  5
17D
100
AcDbEntity
  8
2
370
    50
100
AcDbLine
 10
-57.874357
 20
-43.909421
 30
0.0
 11
-60.738514
 21
-43.50689
 31
0.0
  0
ARC
  5
17E
100
AcDbEntity
  8
2
370
    50
100
AcDbCircle
 10
-55.764016
 20
-46.856808
 30
0.0
 40
3.625
100
AcDbArc
 50
38.397181
 51
125.602819
  0
LINE
  5
17F
100
AcDbEntity
  8
2
370
    50
100
AcDbLine
 10
-70.641195
 20
-42.115159
 30
0.0
 11
-71.893753
 21
-51.027572
 31
0.0
  0
LINE
  5
180
100
AcDbEntity
  8
2
370
    50
100
AcDbLine
 10
-74.75791
 20
-50.625041
 30
0.0
 11
-73.505352
 21
-41.712628
 31
0.0
  0
LINE
  5
181
100
AcDbEntity
  8
2
370
    25
100
AcDbLine
 10
-78.050815
 20
-64.299839
 30
0.0
 11
-77.981229
 21
-63.804705
 31
0.0
  0
LINE
  5
182
100
AcDbEntity
  8
2
370
    50
100
AcDbLine
 10
-77.981229
 20
-63.804705
 30
0.0
 11
-78.832324
 21
-62.675264
 31
0.0
  0
LINE
  5
183
100
AcDbEntity
  8
2
370
    25
100
AcDbLine
 10
-77.981229
 20
-63.804705
 30
0.0
 11
-68.821249
 21
-65.092056
 31
0.0
  0
LINE
  5
184
100
AcDbEntity
  8
2
370
    25
100
AcDbLine
 10
-59.730856
 20
-66.874541
 30
0.0
 11
-59.66127
 21
-66.379407
 31
0.0
  0
LINE
  5
185
100
AcDbEntity
  8
2
370
    50
100
AcDbLine
 10
-59.66127
 20
-66.379407
 30
0.0
 11
-58.531828
 21
-65.528312
 31
0.0
  0
LINE
  5
186
100
AcDbEntity
  8
2
370
    50
100
AcDbLine
 10
-59.66127
 20
-66.379407
 30
0.0
 11
-68.821249
 21
-65.092056
 31
0.0
  0
LINE
  5
187
100
AcDbEntity
  8
2
370
    25
100
AcDbLine
 10
26.427877
 20
-12.284696
 30
0.0
 11
26.427877
 21
-33.239696
 31
0.0
  0
LINE
  5
188
100
AcDbEntity
  8
2
370
    25
100
AcDbLine
 10
16.627877
 20
-12.284696
 30
0.0
 11
16.627877
 21
-33.239696
 31
0.0
  0
LINE
  5
189
100
AcDbEntity
  8
2
370
    50
100
AcDbLine
 10
-31.371961
 20
10.64301
 30
0.0
 11
-21.371961
 21
10.64301
 31
0.0
  0
ELLIPSE
  5
18A
100
AcDbEntity
  8
2
370
    50
100
AcDbEllipse
 10
-20.113631
 20
4.888847
 30
0.0
 11
0.0
 21
3.2201629999999999
 31
0.0
210
0.0
220
0.0
230
1.0
 40
0.806815
 41
0.0
 42
6.2831849999999996
  0
ELLIPSE
  5
18B
100
AcDbEntity
  8
2
370
    50
100
AcDbEllipse
 10
-31.371961
 20
4.888847
 30
0.0
 11
5.1961519999999997
 21
0.0
 31
0.0
210
0.0
220
0.0
230
1.0
 40
0.619721
 41
4.7123889999999999
 42
1.5707960000000001
  0
LINE
  5
18C
100
AcDbEntity
  8
2
370
    50
100
AcDbLine
 10
-31.371961
 20
10.64301
 30
0.0
 11
-41.371961
 21
10.64301
 31
0.0
  0
ELLIPSE
  5
18D
100
AcDbEntity
  8
2
370
    50
100
AcDbEllipse
 10
-42.630291
 20
4.888847
 30
0.0
 11
0.0
 21
-3.2201629999999999
 31
0.0
210
0.0
220
0.0
230
1.0
 40
0.806815
 41
0.0
 42
6.2831849999999996
  0
ELLIPSE
  5
18E
100
AcDbEntity
  8
2
370
    50
100
AcDbEllipse
 10
-31.371961
 20
4.888847
 30
0.0
 11
-5.1961519999999997
 21
0.0
 31
0.0
210
0.0
220
0.0
230
1.0
 40
0.619721
 41
4.7123889999999999
 42
1.5707960000000001
  0
LINE
  5
18F
100
AcDbEntity
  8
2
370
    50
100
AcDbLine
 10
-19.371877
 20
-0.261818
 30
0.0
 11
-31.371961
 21
-0.261818
 31
0.0
  0
LINE
  5
190
100
AcDbEntity
  8
2
370
    50
100
AcDbLine
 10
-43.371877
 20
-0.261818
 30
0.0
 11
-31.371961
 21
-0.261818
 31
0.0
  0
LINE
  5
191
100
AcDbEntity
  8
2
370
    25
100
AcDbLine
 10
-21.371961
 20
25.84301
 30
0.0
 11
-41.371961
 21
25.84301
 31
0.0
  0
LINE
  5
192
100
AcDbEntity
  8
2
370
    50
100
AcDbLine
 10
-31.372123
 20
35.237804
 30
0.0
 11
-24.872123
 21
35.237804
 31
0.0
  0
LINE
  5
193
100
AcDbEntity
  8
2
370
    50
100
AcDbLine
 10
-37.872123
 20
26.14301
 30
0.0
 11
-37.872123
 21
35.237804
 31
0.0
  0
LINE
  5
194
100
AcDbEntity
  8
2
370
    50
100
AcDbLine
 10
-24.872123
 20
26.14301
 30
0.0
 11
-24.872123
 21
35.237804
 31
0.0
  0
ARC
  5
195
100
AcDbEntity
  8
2
370
    50
100
AcDbCircle
 10
-31.372123
 20
109.314682
 30
0.0
 40
60.0
100
AcDbArc
 50
260.405932
 51
279.594068
  0
ARC
  5
196
100
AcDbEntity
  8
2
370
    50
100
AcDbCircle
 10
-20.372123
 20
44.237804
 30
0.0
 40
6.0
100
AcDbArc
 50
358.0
 51
99.594068
  0
LINE
  5
197
100
AcDbEntity
  8
2
370
    50
100
AcDbLine
 10
-24.872123
 20
35.237804
 30
0.0
 11
-23.178021
 21
38.797301
 31
0.0
  0
ARC
  5
198
100
AcDbEntity
  8
2
370
    50
100
AcDbCircle
 10
-21.372123
 20
37.937804
 30
0.0
 40
2.0
100
AcDbArc
 50
53.101806
 51
154.54841
  0
ARC
  5
199
100
AcDbEntity
  8
2
370
    50
100
AcDbCircle
 10
-31.372123
 20
109.314682
 30
0.0
 40
61.5
100
AcDbArc
 50
270.0
 51
279.594068
  0
LINE
  5
19A
100
AcDbEntity
  8
2
370
    50
100
AcDbLine
 10
-26.533347
 20
35.237804
 30
0.0
 11
-24.532444
 21
39.441923
 31
0.0
  0
LINE
  5
19B
100
AcDbEntity
  8
2
370
    25
  6
CENTER
100
AcDbLine
 10
-35.490682
 20
43.737804
 30
0.0
 11
-26.753011
 21
43.737804
 31
0.0
  0
LINE
  5
19C
100
AcDbEntity
  8
2
370
    50
100
AcDbLine
 10
-14.375779
 20
44.028407
 30
0.0
 11
-14.576327
 21
38.285455
 31
0.0
  0
LINE
  5
19D
100
AcDbEntity
  8
2
370
    50
100
AcDbLine
 10
-20.171333
 20
39.537211
 30
0.0
 11
-16.976006
 21
37.138249
 31
0.0
  0
ARC
  5
19E
100
AcDbEntity
  8
2
370
    50
100
AcDbCircle
 10
-16.075413
 20
38.337804
 30
0.0
 40
1.5
100
AcDbArc
 50
233.101806
 51
358.0
  0
ARC
  5
19F
100
AcDbEntity
  8
2
370
    50
100
AcDbCircle
 10
-20.372123
 20
44.237804
 30
0.0
 40
4.5
100
AcDbArc
 50
358.0
 51
99.594068
  0
LINE
  5
1A0
100
AcDbEntity
  8
2
370
    50
100
AcDbLine
 10
-15.874865
 20
44.080756
 30
0.0
 11
-16.075413
 21
38.337804
 31
0.0
  0
LINE
  5
1A1
100
AcDbEntity
  8
2
370
    50
100
AcDbLine
 10
-19.270741
 20
40.736767
 30
0.0
 11
-16.075413
 21
38.337804
 31
0.0
  0
ARC
  5
1A2
100
AcDbEntity
  8
2
370
    50
100
AcDbCircle
 10
-21.372123
 20
37.937804
 30
0.0
 40
3.5
100
AcDbArc
 50
53.101806
 51
154.54841
  0
ARC
  5
1A3
100
AcDbEntity
  8
2
370
    50
100
AcDbCircle
 10
-42.372123
 20
44.237804
 30
0.0
 40
6.0
100
AcDbArc
 50
80.405932
 51
182.0
  0
LINE
  5
1A4
100
AcDbEntity
  8
2
370
    50
100
AcDbLine
 10
-48.368468
 20
44.028407
 30
0.0
 11
-48.16792
 21
38.285455
 31
0.0
  0
ARC
  5
1A5
100
AcDbEntity
  8
2
370
    50
100
AcDbCircle
 10
-46.668834
 20
38.337804
 30
0.0
 40
1.5
100
AcDbArc
 50
182.0
 51
306.898194
  0
LINE
  5
1A6
100
AcDbEntity
  8
2
370
    50
100
AcDbLine
 10
-42.572914
 20
39.537211
 30
0.0
 11
-45.768241
 21
37.138249
 31
0.0
  0
ARC
  5
1A7
100
AcDbEntity
  8
2
370
    50
100
AcDbCircle
 10
-41.372123
 20
37.937804
 30
0.0
 40
2.0
100
AcDbArc
 50
25.45159
 51
126.898194
  0
LINE
  5
1A8
100
AcDbEntity
  8
2
370
    50
100
AcDbLine
 10
-37.872123
 20
35.237804
 30
0.0
 11
-39.566226
 21
38.797301
 31
0.0
  0
ARC
  5
1A9
100
AcDbEntity
  8
2
370
    50
100
AcDbCircle
 10
-31.372123
 20
109.314682
 30
0.0
 40
61.5
100
AcDbArc
 50
260.405932
 51
270.0
  0
ARC
  5
1AA
100
AcDbEntity
  8
2
370
    50
100
AcDbCircle
 10
-42.372123
 20
44.237804
 30
0.0
 40
4.5
100
AcDbArc
 50
80.405932
 51
182.0
  0
LINE
  5
1AB
100
AcDbEntity
  8
2
370
    50
100
AcDbLine
 10
-46.869382
 20
44.080756
 30
0.0
 11
-46.668834
 21
38.337804
 31
0.0
  0
LINE
  5
1AC
100
AcDbEntity
  8
2
370
    50
100
AcDbLine
 10
-43.473506
 20
40.736767
 30
0.0
 11
-46.668834
 21
38.337804
 31
0.0
  0
ARC
  5
1AD
100
AcDbEntity
  8
2
370
    50
100
AcDbCircle
 10
-41.372123
 20
37.937804
 30
0.0
 40
3.5
100
AcDbArc
 50
25.45159
 51
126.898194
  0
LINE
  5
1AE
100
AcDbEntity
  8
2
370
    50
100
AcDbLine
 10
-36.2109
 20
35.237804
 30
0.0
 11
-38.211803
 21
39.441923
 31
0.0
  0
LINE
  5
1AF
100
AcDbEntity
  8
2
370
    50
100
AcDbLine
 10
-31.372123
 20
35.237804
 30
0.0
 11
-37.872123
 21
35.237804
 31
0.0
  0
TEXT
  5
1B0
100
AcDbEntity
  8
2
370
    50
100
AcDbText
 10
114.487244
 20
-136.272888
 30
0.0
 40
3.5
  1
外観寸法図
 72
     5
 11
131.287244
 21
-136.272888
 31
0.0
100
AcDbText
  0
DIMENSION
  5
1B1
100
AcDbEntity
  8
3
370
    25
100
AcDbDimension
  2
*D0
 10
27.627877
 20
-55.816986
 30
0.0
 11
20.627877
 21
-53.566986
 31
0.0
 71
     0
 72
     0
 41
0.0
 42
0.0
  3
Standard
100
AcDbAlignedDimension
 13
13.627877
 23
-45.562196
 33
0.0
 14
27.627877
 24
-32.039696
 34
0.0
100
AcDbRotatedDimension
  0
DIMENSION
  5
1B2
100
AcDbEntity
  8
3
370
    25
100
AcDbDimension
  2
*D1
 10
13.627877
 20
-55.803993
 30
0.0
 11
-8.872042
 21
-53.553993
 31
0.0
 71
     0
 72
     0
 41
0.0
 42
0.0
  3
Standard
100
AcDbAlignedDimension
 13
-31.371961
 23
-40.816079
 33
0.0
 14
13.627877
 24
-45.562196
 34
0.0
100
AcDbRotatedDimension
  0
DIMENSION
  5
1B3
100
AcDbEntity
  8
3
370
    25
100
AcDbDimension
  2
*D2
 10
13.627877
 20
-108.679497
 30
0.0
 11
-30.206182
 21
-106.429497
 31
0.0
 71
     0
 72
     0
 41
0.0
 42
0.0
  3
Standard
100
AcDbAlignedDimension
 13
-74.040241
 23
-102.227109
 33
0.0
 14
13.627877
 24
-45.562196
 34
0.0
100
AcDbRotatedDimension
  0
DIMENSION
  5
1B4
100
AcDbEntity
  8
3
370
    25
100
AcDbDimension
  2
*D3
 10
-106.102417
 20
50.153884
 30
0.0
 11
-110.102417
 21
13.695844
 31
0.0
 71
     0
 72
     0
 41
0.0
 42
0.0
  3
Standard
100
AcDbAlignedDimension
 13
-77.77668
 23
-22.762196
 33
0.0
 14
-41.372123
 24
50.153884
 34
0.0
 50
90.0
100
AcDbRotatedDimension
  0
DIMENSION
  5
1B5
100
AcDbEntity
  8
3
370
    25
100
AcDbDimension
  2
*D4
 10
48.017059
 20
112.121986
 30
0.0
 11
42.267059
 21
87.371986
 31
0.0
 71
     0
 72
     0
 41
0.0
 42
0.0
  3
Standard
100
AcDbAlignedDimension
 13
13.628123
 23
66.121986
 33
0.0
 14
13.628123
 24
112.121986
 34
0.0
 50
90.0
100
AcDbRotatedDimension
  0
TEXT
  5
1B6
100
AcDbEntity
  8
3
370
    50
100
AcDbText
 10
-106.602417
 20
-65.994652
 30
0.0
 40
3.5
  1
８０
 50
90.0
 72
     5
 11
-106.602417
 21
-59.694652
 31
0.0
100
AcDbText
  0
DIMENSION
  5
1B7
100
AcDbEntity
  8
3
370
    25
100
AcDbDimension
  2
*D5
 10
-106.102417
 20
-22.762196
 30
0.0
 11
-108.602417
 21
-62.494652
 31
0.0
 71
     0
 72
     0
 41
0.0
 42
0.0
  3
Standard
100
AcDbAlignedDimension
 13
-74.040241
 23
-102.227109
 33
0.0
 14
-77.77668
 24
-22.762196
 34
0.0
 50
90.0
100
AcDbRotatedDimension
  0
TEXT
  5
1B8
100
AcDbEntity
  8
3
370
    50
100
AcDbText
 10
28.959794
 20
14.328125
 30
0.0
 40
3.5
  1
ＰＪ１／２
 72
     5
 11
45.759794
 21
14.328125
 31
0.0
100
AcDbText
  0
TEXT
  5
1B9
100
AcDbEntity
  8
3
370
    50
100
AcDbText
 10
28.469178
 20
9.287577
 30
0.0
 40
3.5
  1
（給水栓ネジ）
 72
     5
 11
52.269178
 21
9.287577
 31
0.0
100
AcDbText
  0
LWPOLYLINE
  5
1BA
100
AcDbEntity
  8
3
370
    25
100
AcDbPolyline
 90
        3
 70
     0
 10
17.611024
 20
-12.191483
 10
27.482054
 20
13.731532
 10
51.99768
 20
13.731532
  0
LINE
  5
1BF
100
AcDbEntity
  8
3
370
    25
100
AcDbLine
 10
18.298486
 20
-10.38609
 30
0.0
 11
17.814732
 21
-10.201885
 31
0.0
  0
LINE
  5
1C0
100
AcDbEntity
  8
3
370
    25
100
AcDbLine
 10
17.814732
 20
-10.201885
 30
0.0
 11
17.611024
 21
-12.191483
 31
0.0
  0
LINE
  5
1C1
100
AcDbEntity
  8
3
370
    25
100
AcDbLine
 10
17.611024
 20
-12.191483
 30
0.0
 11
18.78224
 21
-10.570295
 31
0.0
  0
LINE
  5
1C2
100
AcDbEntity
  8
3
370
    25
100
AcDbLine
 10
18.78224
 20
-10.570295
 30
0.0
 11
18.298486
 21
-10.38609
 31
0.0
  0
DIMENSION
  5
1C3
100
AcDbEntity
  8
3
370
    25
100
AcDbDimension
  2
*D6
 10
-74.040241
 20
-103.859398
 30
0.0
 11
-71.531966
 21
-116.531663
 31
0.0
 70
     2
 71
     0
 72
     0
 41
0.0
 42
0.0
  3
Standard
100
AcDb2LineAngularDimension
 13
-74.209912
 23
-103.434382
 33
0.0
 14
-74.040241
 24
-102.227109
 34
0.0
 15
-74.040241
 25
-102.227109
 35
0.0
 16
-75.058318
 26
-116.786297
 36
0.0
1001
ACAD
1000
DSTYLE
1002
{
1070
   275
1070
     0
1070
   179
1070
     0
1002
}
  0
LWPOLYLINE
  5
1C4
100
AcDbEntity
  8
3
370
    25
100
AcDbPolyline
 90
        2
 70
     0
 10
-58.8843
 20
-58.506676
 10
-37.452133
 20
-70.509293
  0
TEXT
  5
1C8
100
AcDbEntity
  8
3
370
    50
100
AcDbText
 10
-36.763407
 20
-73.814865
 30
0.0
 40
3.5
  1
逆止弁内蔵
 72
     5
 11
-19.963407
 21
-73.814865
 31
0.0
100
AcDbText
  0
ENDSEC
  0
SECTION
  2
OBJECTS
  0
DICTIONARY
  5
21C
100
AcDbDictionary
280
     0
281
     1
  3
ACAD_GROUP
350
21D
  3
ACAD_MLINESTYLE
350
21E
  0
DICTIONARY
  5
21D
102
{ACAD_REACTORS
330
21C
102
}
100
AcDbDictionary
280
     0
281
     1
  0
DICTIONARY
  5
21E
102
{ACAD_REACTORS
330
21C
102
}
100
AcDbDictionary
280
     0
281
     1
  3
Standard
350
21F
  0
MLINESTYLE
  5
21F
102
{ACAD_REACTORS
330
21E
102
}
100
AcDbMlineStyle
  2
Standard
 70
     0
  3

 62
     0
 51
90.0
 52
90.0
 71
     2
 49
0.5
 62
   256
  6
ByLayer
 49
-0.5
 62
   256
  6
ByLayer
  0
ENDSEC
  0
EOF
