  0
SECTION
  2
HEADER
  9
$ACADVER
  1
AC1015
  9
$ACADMAINTVER
 70
     6
  9
$DWGCODEPAGE
  3
ANSI_932
  9
$INSBASE
 10
0.0
 20
0.0
 30
0.0
  9
$EXTMIN
 10
-420.5
 20
-297.0
 30
1.000000E+20
  9
$EXTMAX
 10
420.5
 20
297.0
 30
-1.000000E+20
  9
$LIMMIN
 10
-420.5
 20
-297.0
  9
$LIMMAX
 10
420.5
 20
297.0
  9
$ORTHOMODE
 70
     0
  9
$REGENMODE
 70
     1
  9
$FILLMODE
 70
     1
  9
$QTEXTMODE
 70
     0
  9
$MIRRTEXT
 70
     1
  9
$LTSCALE
 40
1.0
  9
$ATTMODE
 70
     1
  9
$TEXTSIZE
 40
0.2
  9
$TRACEWID
 40
0.05
  9
$TEXTSTYLE
  7
STANDARD
  9
$CLAYER
  8
0
  9
$CELTYPE
  6
CONTINUOUS
  9
$CECOLOR
 62
   256
  9
$CELTSCALE
 40
1.0
  9
$DISPSILH
 70
     0
  9
$DIMSCALE
 40
1.0
  9
$DIMASZ
 40
2.0
  9
$DIMEXO
 40
1.0
  9
$DIMDLI
 40
0.38
  9
$DIMRND
 40
0.0
  9
$DIMDLE
 40
0.0
  9
$DIMEXE
 40
2.0
  9
$DIMTP
 40
0.0
  9
$DIMTM
 40
0.0
  9
$DIMTXT
 40
3.5
  9
$DIMCEN
 40
0.09
  9
$DIMTSZ
 40
0.0
  9
$DIMTOL
 70
     0
  9
$DIMLIM
 70
     0
  9
$DIMTIH
 70
     0
  9
$DIMTOH
 70
     0
  9
$DIMSE1
 70
     0
  9
$DIMSE2
 70
     0
  9
$DIMTAD
 70
     1
  9
$DIMZIN
 70
     0
  9
$DIMBLK
  1

  9
$DIMASO
 70
     1
  9
$DIMSHO
 70
     1
  9
$DIMPOST
  1

  9
$DIMAPOST
  1

  9
$DIMALT
 70
     0
  9
$DIMALTD
 70
     2
  9
$DIMALTF
 40
25.4
  9
$DIMLFAC
 40
1.0
  9
$DIMTOFL
 70
     0
  9
$DIMTVP
 40
0.0
  9
$DIMTIX
 70
     0
  9
$DIMSOXD
 70
     0
  9
$DIMSAH
 70
     0
  9
$DIMBLK1
  1

  9
$DIMBLK2
  1

  9
$DIMSTYLE
  2
Standard
  9
$DIMCLRD
 70
     0
  9
$DIMCLRE
 70
     0
  9
$DIMCLRT
 70
     0
  9
$DIMTFAC
 40
1.0
  9
$DIMGAP
 40
0.5
  9
$DIMJUST
 70
     0
  9
$DIMSD1
 70
     0
  9
$DIMSD2
 70
     0
  9
$DIMTOLJ
 70
     1
  9
$DIMTZIN
 70
     0
  9
$DIMALTZ
 70
     0
  9
$DIMALTTZ
 70
     0
  9
$DIMUPT
 70
     0
  9
$DIMDEC
 70
     3
  9
$DIMTDEC
 70
     4
  9
$DIMALTU
 70
     2
  9
$DIMALTTD
 70
     2
  9
$DIMTXSTY
  7
STANDARD
  9
$DIMAUNIT
 70
     0
  9
$DIMADEC
 70
     0
  9
$DIMALTRND
 40
0.0
  9
$DIMAZIN
 70
     0
  9
$DIMDSEP
 70
     0
  9
$DIMATFIT
 70
     3
  9
$DIMFRAC
 70
     0
  9
$DIMLDRBLK
  1

  9
$DIMLUNIT
 70
     2
  9
$DIMLWD
 70
     0
  9
$DIMLWE
 70
     0
  9
$DIMTMOVE
 70
     0
  9
$LUNITS
 70
     2
  9
$LUPREC
 70
     4
  9
$SKETCHINC
 40
0.1
  9
$FILLETRAD
 40
0.0
  9
$AUNITS
 70
     0
  9
$AUPREC
 70
     0
  9
$MENU
  1
acad
  9
$ELEVATION
 40
0.0
  9
$PELEVATION
 40
0.0
  9
$THICKNESS
 40
0.0
  9
$LIMCHECK
 70
     0
  9
$CHAMFERA
 40
0.0
  9
$CHAMFERB
 40
0.0
  9
$CHAMFERC
 40
0.0
  9
$CHAMFERD
 40
0.0
  9
$SKPOLY
 70
     0
  9
$TDCREATE
 40
2453383.000000000
  9
$TDUCREATE
 40
0.000000000
  9
$TDUPDATE
 40
0.000000000
  9
$TDUUPDATE
 40
2447892.625000000
  9
$TDINDWG
 40
0.0000000000
  9
$TDUSRTIMER
 40
0.0000000000
  9
$USRTIMER
 70
     1
  9
$ANGBASE
 50
0.0
  9
$ANGDIR
 70
     0
  9
$PDMODE
 70
     0
  9
$PDSIZE
 40
0.0
  9
$PLINEWID
 40
0.0
  9
$SPLFRAME
 70
     0
  9
$SPLINETYPE
 70
     6
  9
$SPLINESEGS
 70
     8
  9
$HANDSEED
  5
1FD
  9
$SURFTAB1
 70
     6
  9
$SURFTAB2
 70
     6
  9
$SURFTYPE
 70
     6
  9
$SURFU
 70
     6
  9
$SURFV
 70
     6
  9
$UCSBASE
  2

  9
$UCSNAME
  2

  9
$UCSORG
 10
0.0
 20
0.0
 30
0.0
  9
$UCSXDIR
 10
1.0
 20
0.0
 30
0.0
  9
$UCSYDIR
 10
0.0
 20
1.0
 30
0.0
  9
$UCSORTHOREF
  2

  9
$UCSORTHOVIEW
 70
     0
  9
$UCSORGTOP
 10
0.0
 20
0.0
 30
0.0
  9
$UCSORGBOTTOM
 10
0.0
 20
0.0
 30
0.0
  9
$UCSORGLEFT
 10
0.0
 20
0.0
 30
0.0
  9
$UCSORGRIGHT
 10
0.0
 20
0.0
 30
0.0
  9
$UCSORGFRONT
 10
0.0
 20
0.0
 30
0.0
  9
$UCSORGBACK
 10
0.0
 20
0.0
 30
0.0
  9
$PUCSBASE
  2

  9
$PUCSNAME
  2

  9
$PUCSORG
 10
0.0
 20
0.0
 30
0.0
  9
$PUCSXDIR
 10
1.0
 20
0.0
 30
0.0
  9
$PUCSYDIR
 10
0.0
 20
1.0
 30
0.0
  9
$PUCSORTHOREF
  2

  9
$PUCSORTHOVIEW
 70
     0
  9
$PUCSORGTOP
 10
0.0
 20
0.0
 30
0.0
  9
$PUCSORGBOTTOM
 10
0.0
 20
0.0
 30
0.0
  9
$PUCSORGLEFT
 10
0.0
 20
0.0
 30
0.0
  9
$PUCSORGRIGHT
 10
0.0
 20
0.0
 30
0.0
  9
$PUCSORGFRONT
 10
0.0
 20
0.0
 30
0.0
  9
$PUCSORGBACK
 10
0.0
 20
0.0
 30
0.0
  9
$USERI1
 70
     0
  9
$USERI2
 70
     0
  9
$USERI3
 70
     0
  9
$USERI4
 70
     0
  9
$USERI5
 70
     0
  9
$USERR1
 40
0.0
  9
$USERR2
 40
0.0
  9
$USERR3
 40
0.0
  9
$USERR4
 40
0.0
  9
$USERR5
 40
0.0
  9
$WORLDVIEW
 70
     1
  9
$SHADEDGE
 70
     3
  9
$SHADEDIF
 70
    70
  9
$TILEMODE
 70
     1
  9
$MAXACTVP
 70
    16
  9
$PINSBASE
 10
0.0
 20
0.0
 30
0.0
  9
$PLIMCHECK
 70
     0
  9
$PEXTMIN
 10
1.000000E+20
 20
1.000000E+20
 30
1.000000E+20
  9
$PEXTMAX
 10
-1.000000E+20
 20
-1.000000E+20
 30
-1.000000E+20
  9
$PLIMMIN
 10
0.0
 20
0.0
  9
$PLIMMAX
 10
12.0
 20
9.0
  9
$UNITMODE
 70
     0
  9
$VISRETAIN
 70
     0
  9
$PLINEGEN
 70
     1
  9
$PSLTSCALE
 70
     0
  9
$TREEDEPTH
 70
  3020
  9
$CMLSTYLE
  2
Standard
  9
$CMLJUST
 70
     0
  9
$CMLSCALE
 40
1.0
  9
$PROXYGRAPHICS
 70
     0
  9
$MEASUREMENT
 70
     0
  9
$CELWEIGHT
370
     0
  9
$ENDCAPS
280
     0
  9
$JOINSTYLE
280
     0
  9
$LWDISPLAY
290
     0
  9
$INSUNITS
 70
     0
  9
$HYPERLINKBASE
  1

  9
$STYLESHEET
  1

  9
$XEDIT
290
     1
  9
$CEPSNTYPE
380
     0
  9
$PSTYLEMODE
290
     1
  9
$FINGERPRINTGUID
  2

  9
$VERSIONGUID
  2

  9
$EXTNAMES
290
     1
  9
$PSVPSCALE
 40
0.0
  0
ENDSEC
  0
SECTION
  2
CLASSES
  0
CLASS
  1
LWPOLYLINE
  2
AcDbPolyline
  3
AutoCAD 2000
 90
        0
280
     0
281
     1
  0
CLASS
  1
IMAGE
  2
AcDbRasterImage
  3
ISM
 90
      127
280
     0
281
     1
  0
CLASS
  1
OLE2FRAME
  2
AcDbOle2Frame
  3
AutoCAD 2000
 90
        0
280
     0
281
     1
  0
CLASS
  1
HATCH
  2
AcDbHatch
  3
AutoCAD 2000
 90
        0
280
     0
281
     1
  0
CLASS
  1
DICTIONARYVAR
  2
AcDbDictionaryVar
  3
AutoCAD 2000
 90
        0
280
     0
281
     0
  0
CLASS
  1
RASTERVARIABLES
  2
AcDbRasterVariables
  3
ISM
 90
        0
280
     0
281
     0
  0
CLASS
  1
IMAGEDEF
  2
AcDbRasterImageDef
  3
ISM
 90
        0
280
     0
281
     0
  0
CLASS
  1
IMAGEDEF_REACTOR
  2
AcDbRasterImageDefReactor
  3
ISM
 90
        1
280
     0
281
     0
  0
CLASS
  1
IDBUFFER
  2
AcDbIdBuffer
  3
AutoCAD 2000
 90
        0
280
     0
281
     0
  0
CLASS
  1
SPATIAL_FILTER
  2
AcDbSpatialFilter
  3
AutoCAD 2000
 90
        0
280
     0
281
     0
  0
CLASS
  1
XRECORD
  2
AcDbXrecord
  3
AutoCAD 2000
 90
        0
280
     0
281
     0
  0
CLASS
  1
SORTENTSTABLE
  2
AcDbSortentsTable
  3
AutoCAD 2000
 90
        0
280
     0
281
     0
  0
CLASS
  1
LAYER_INDEX
  2
AcDbLayerIndex
  3
AutoCAD 2000
 90
        0
280
     0
281
     0
  0
CLASS
  1
SPATIAL_INDEX
  2
AcDbSpatialIndex
  3
AutoCAD 2000
 90
        0
280
     0
281
     0
  0
CLASS
  1
OBJECT_PTR
  2
CAseDLPNTableRecord
  3
"ASE-LPNTableRecord"
 90
        1
280
     0
281
     0
  0
CLASS
  1
LAYOUT
  2
AcDbLayout
  3
AutoCAD 2000
 90
        0
280
     0
281
     0
  0
CLASS
  1
PLOTSETTINGS
  2
AcDbPlotSettings
  3
AutoCAD 2000
 90
        0
280
     0
281
     0
  0
CLASS
  1
ACDBDICTIONARYWDFLT
  2
AcDbDictionaryWithDefault
  3
AutoCAD 2000
 90
        0
280
     0
281
     0
  0
CLASS
  1
ACDBPLACEHOLDER
  2
AcDbPlaceHolder
  3
AutoCAD 2000
 90
        0
280
     0
281
     0
  0
CLASS
  1
VBA_PROJECT
  2
AcDbVbaProject
  3
acadvba
 90
        0
280
     0
281
     0
  0
CLASS
  1
WIPEOUT
  2
AcDbWipeout
  3
WipeOut|AutoCAD Express Tool|expresstools@autodesk.com
 90
      127
280
     0
281
     1
  0
CLASS
  1
WIPEOUTVARIABLES
  2
AcDbWipeoutVariables
  3
WipeOut|AutoCAD Express Tool|expresstools@autodesk.com
 90
        0
280
     0
281
     0
  0
CLASS
  1
RTEXT
  2
RText
  3
RText|AutoCAD Express Tool|expresstools@autodesk.com
 90
        0
280
     0
281
     1
  0
CLASS
  1
ARCALIGNEDTEXT
  2
AcDbArcAlignedText
  3
ATEXT|AutoCAD Express Tool|expresstools@autodesk.com
 90
        0
280
     0
281
     1
  0
ENDSEC
  0
SECTION
  2
TABLES
  0
TABLE
  2
VPORT
  5
6
100
AcDbSymbolTable
 70
     1
  0
VPORT
  5
19
100
AcDbSymbolTableRecord
100
AcDbViewportTableRecord
  2
*ACTIVE
 70
     0
 10
0.0
 20
0.0
 11
1.0
 21
1.0
 12
0.0
 22
0.0
 13
0.0
 23
0.0
 14
1.0
 24
1.0
 15
0.0
 25
0.0
 16
0.0
 26
0.0
 36
1.0
 17
0.0
 27
0.0
 37
0.0
 40
594.0
 41
1.415825
 42
50.0
 43
0.0
 44
0.0
 50
0.0
 51
0.0
 71
     0
 72
   500
 73
     1
 74
     1
 75
     0
 76
     0
 77
     0
 78
     0
281
     0
 65
     0
110
0.0
120
0.0
130
0.0
111
1.0
121
0.0
131
0.0
112
0.0
122
1.0
132
0.0
345
0
346
0
 79
     0
146
0.0
  0
ENDTAB
  0
TABLE
  2
LTYPE
  5
3
100
AcDbSymbolTable
 70
     9
  0
LTYPE
  5
C
100
AcDbSymbolTableRecord
100
AcDbLinetypeTableRecord
  2
ByBlock
 70
    64
  3

 72
    65
 73
     0
 40
0.0
  0
LTYPE
  5
D
100
AcDbSymbolTableRecord
100
AcDbLinetypeTableRecord
  2
ByLayer
 70
    64
  3

 72
    65
 73
     0
 40
0.0
  0
LTYPE
  5
E
100
AcDbSymbolTableRecord
100
AcDbLinetypeTableRecord
  2
CONTINUOUS
 70
     0
  3
Solid line
 72
    65
 73
     0
 40
0.0
  0
LTYPE
  5
F
100
AcDbSymbolTableRecord
100
AcDbLinetypeTableRecord
  2
DASHED
 70
     0
  3
__ __ __ __ __ __ __ __ __ __ __ __ __ __ __
 72
    65
 73
     2
 40
2.0
 49
1.2
 74
     0
 49
-0.8
 74
     0
  0
LTYPE
  5
10
100
AcDbSymbolTableRecord
100
AcDbLinetypeTableRecord
  2
CENTER
 70
     0
  3
____ _ ____ _ ____ _ ____ _ ____ _ ____ _ ____
 72
    65
 73
     4
 40
12.0
 49
9.0
 74
     0
 49
-1.0
 74
     0
 49
1.0
 74
     0
 49
-1.0
 74
     0
  0
LTYPE
  5
11
100
AcDbSymbolTableRecord
100
AcDbLinetypeTableRecord
  2
HIDDEN
 70
     0
  3
_ _ _ _ _ _ _ _ _ _ _ _ _ _ _ _ _ _ _ _ _ _ _
 72
    65
 73
     2
 40
3.2
 49
2.4
 74
     0
 49
-0.8
 74
     0
  0
LTYPE
  5
12
100
AcDbSymbolTableRecord
100
AcDbLinetypeTableRecord
  2
PHANTOM
 70
     0
  3
_____ _ _ _____ _ _ _____ _ _ _____ _ _ _____
 72
    65
 73
     6
 40
13.5
 49
9.0
 74
     0
 49
-1.0
 74
     0
 49
1.0
 74
     0
 49
-0.5
 74
     0
 49
1.0
 74
     0
 49
-1.0
 74
     0
  0
LTYPE
  5
13
100
AcDbSymbolTableRecord
100
AcDbLinetypeTableRecord
  2
DOT
 70
     0
  3
...............................................
 72
    65
 73
     2
 40
1.0
 49
0.5
 74
     0
 49
-0.5
 74
     0
  0
LTYPE
  5
14
100
AcDbSymbolTableRecord
100
AcDbLinetypeTableRecord
  2
DASHDOT
 70
     0
  3
__ . __ . __ . __ . __ . __ . __ . __ . __ . __
 72
    65
 73
     4
 40
8.0
 49
5.0
 74
     0
 49
-1.0
 74
     0
 49
1.0
 74
     0
 49
-1.0
 74
     0
  0
ENDTAB
  0
TABLE
  2
LAYER
  5
1
100
AcDbSymbolTable
 70
     4
  0
LAYER
  5
15
100
AcDbSymbolTableRecord
100
AcDbLayerTableRecord
  2
0
 70
     0
 62
     7
  6
CONTINUOUS
290
     1
370
    -3
390
0
  0
LAYER
  5
16
100
AcDbSymbolTableRecord
100
AcDbLayerTableRecord
  2
1
 70
     0
 62
     7
  6
CONTINUOUS
290
     1
370
    -3
390
0
  0
LAYER
  5
17
100
AcDbSymbolTableRecord
100
AcDbLayerTableRecord
  2
2
 70
     0
 62
     7
  6
CONTINUOUS
290
     1
370
    -3
390
0
  0
LAYER
  5
18
100
AcDbSymbolTableRecord
100
AcDbLayerTableRecord
  2
3
 70
     0
 62
     7
  6
CONTINUOUS
290
     1
370
    -3
390
0
  0
ENDTAB
  0
TABLE
  2
STYLE
  5
2
100
AcDbSymbolTable
 70
     1
  0
STYLE
  5
1B
100
AcDbSymbolTableRecord
100
AcDbTextStyleTableRecord
  2
STANDARD
 70
    64
 40
0.0
 41
1.0
 50
0.0
 71
     0
 42
1.0
  3
txt
  4
BIGFONT
  0
ENDTAB
  0
TABLE
  2
VIEW
  5
4
100
AcDbSymbolTable
 70
     0
  0
ENDTAB
  0
TABLE
  2
UCS
  5
5
100
AcDbSymbolTable
 70
     0
  0
ENDTAB
  0
TABLE
  2
APPID
  5
7
100
AcDbSymbolTable
 70
     1
  0
APPID
  5
1A
100
AcDbSymbolTableRecord
100
AcDbRegAppTableRecord
  2
ACAD
 70
     0
  0
ENDTAB
  0
TABLE
  2
DIMSTYLE
  5
8
100
AcDbSymbolTable
 70
     1
100
AcDbDimStyleTable
 71
     0
  0
DIMSTYLE
105
2A
100
AcDbSymbolTableRecord
100
AcDbDimStyleTableRecord
  2
Standard
 70
     0
  3

  4

 40
1.0
 41
2.0
 42
1.0
 43
0.38
 44
2.0
 45
0.0
 46
0.0
 47
0.0
 48
0.0
 71
     0
 72
     0
 73
     0
 74
     0
 75
     0
 76
     0
 77
     1
 78
     0
 79
     0
140
3.5
141
0.09
142
0.0
143
25.4
144
1.0
145
0.0
146
1.0
147
0.5
148
0.0
170
     0
171
     2
172
     0
173
     0
174
     0
175
     0
176
     0
177
     0
178
     0
179
     0
271
     3
272
     4
273
     2
274
     2
275
     0
276
     0
277
     2
278
    46
279
     0
280
     0
281
     0
282
     0
283
     1
284
     0
285
     0
286
     0
288
     0
289
     3
340
1B
341
0
342
0
343
0
344
0
371
    -2
372
    -2
  0
ENDTAB
  0
TABLE
  2
BLOCK_RECORD
  5
25
100
AcDbSymbolTable
 70
     7
  0
BLOCK_RECORD
  5
23
100
AcDbSymbolTableRecord
100
AcDbBlockTableRecord
  2
*Model_Space
340
0
  0
BLOCK_RECORD
  5
24
100
AcDbSymbolTableRecord
100
AcDbBlockTableRecord
  2
*Paper_Space
340
0
  0
BLOCK_RECORD
  5
1C
100
AcDbSymbolTableRecord
100
AcDbBlockTableRecord
  2
*D0
340
0
  0
BLOCK_RECORD
  5
1D
100
AcDbSymbolTableRecord
100
AcDbBlockTableRecord
  2
*D1
340
0
  0
BLOCK_RECORD
  5
1E
100
AcDbSymbolTableRecord
100
AcDbBlockTableRecord
  2
*D2
340
0
  0
BLOCK_RECORD
  5
1F
100
AcDbSymbolTableRecord
100
AcDbBlockTableRecord
  2
*D3
340
0
  0
BLOCK_RECORD
  5
20
100
AcDbSymbolTableRecord
100
AcDbBlockTableRecord
  2
*D4
340
0
  0
BLOCK_RECORD
  5
21
100
AcDbSymbolTableRecord
100
AcDbBlockTableRecord
  2
*D5
340
0
  0
BLOCK_RECORD
  5
22
100
AcDbSymbolTableRecord
100
AcDbBlockTableRecord
  2
*D6
340
0
  0
ENDTAB
  0
ENDSEC
  0
SECTION
  2
BLOCKS
  0
BLOCK
  5
26
100
AcDbEntity
  8
0
390
0
100
AcDbBlockBegin
  2
*Model_Space
 70
     0
 10
0.0
 20
0.0
 30
0.0
  3
*Model_Space
  1

  0
ENDBLK
  5
27
100
AcDbEntity
  8
0
390
0
100
AcDbBlockEnd
  0
BLOCK
  5
28
100
AcDbEntity
 67
     1
  8
0
390
0
100
AcDbBlockBegin
  2
*Paper_Space
 70
     0
 10
0.0
 20
0.0
 30
0.0
  3
*Paper_Space
  1

  0
ENDBLK
  5
29
100
AcDbEntity
 67
     1
  8
0
390
0
100
AcDbBlockEnd
  0
BLOCK
  5
1A6
100
AcDbEntity
  8
3
100
AcDbBlockBegin
  2
*D0
 70
     1
 10
0.0
 20
0.0
 30
0.0
  3
*D0
  1

  0
TEXT
  5
1A7
100
AcDbEntity
  8
3
370
    25
100
AcDbText
 10
-6.416935
 20
67.901759
 30
0.0
 40
3.5
  1
%%c46
 50
90.0
 41
2.0
 72
     5
 11
-6.416935
 21
77.001759
 31
0.0
100
AcDbText
  0
LINE
  5
1A8
100
AcDbEntity
  8
3
370
    25
100
AcDbLine
 10
-36.164956
 20
96.151759
 30
0.0
 11
-4.916935
 21
96.151759
 31
0.0
  0
LINE
  5
1A9
100
AcDbEntity
  8
3
370
    25
100
AcDbLine
 10
-5.916935
 20
96.151759
 30
0.0
 11
-6.434573
 21
94.219908
 31
0.0
  0
LINE
  5
1AA
100
AcDbEntity
  8
3
370
    25
100
AcDbLine
 10
-5.916935
 20
96.151759
 30
0.0
 11
-5.399297
 21
94.219908
 31
0.0
  0
LINE
  5
1AB
100
AcDbEntity
  8
3
370
    25
100
AcDbLine
 10
-6.434573
 20
94.219908
 30
0.0
 11
-5.399297
 21
94.219908
 31
0.0
  0
LINE
  5
1AC
100
AcDbEntity
  8
3
370
    25
100
AcDbLine
 10
-5.916935
 20
96.151759
 30
0.0
 11
-5.916935
 21
50.151759
 31
0.0
  0
LINE
  5
1AD
100
AcDbEntity
  8
3
370
    25
100
AcDbLine
 10
-5.916935
 20
50.151759
 30
0.0
 11
-5.399297
 21
52.083611
 31
0.0
  0
LINE
  5
1AE
100
AcDbEntity
  8
3
370
    25
100
AcDbLine
 10
-5.916935
 20
50.151759
 30
0.0
 11
-6.434573
 21
52.083611
 31
0.0
  0
LINE
  5
1AF
100
AcDbEntity
  8
3
370
    25
100
AcDbLine
 10
-5.399297
 20
52.083611
 30
0.0
 11
-6.434573
 21
52.083611
 31
0.0
  0
LINE
  5
1B0
100
AcDbEntity
  8
3
370
    25
100
AcDbLine
 10
-36.164956
 20
50.151759
 30
0.0
 11
-4.916935
 21
50.151759
 31
0.0
  0
ENDBLK
  5
1B1
100
AcDbEntity
  8
3
100
AcDbBlockEnd
  0
BLOCK
  5
1B2
100
AcDbEntity
  8
3
100
AcDbBlockBegin
  2
*D1
 70
     1
 10
0.0
 20
0.0
 30
0.0
  3
*D1
  1

  0
TEXT
  5
1B3
100
AcDbEntity
  8
3
370
    25
100
AcDbText
 10
-33.665203
 20
-81.305534
 30
0.0
 40
3.5
  1
１４
 72
     5
 11
-27.365203
 21
-81.305534
 31
0.0
100
AcDbText
  0
LINE
  5
1B4
100
AcDbEntity
  8
3
370
    25
100
AcDbLine
 10
-37.165203
 20
-62.532423
 30
0.0
 11
-37.165203
 21
-82.805534
 31
0.0
  0
LINE
  5
1B5
100
AcDbEntity
  8
3
370
    25
100
AcDbLine
 10
-37.165203
 20
-81.805534
 30
0.0
 11
-35.233351
 21
-82.323172
 31
0.0
  0
LINE
  5
1B6
100
AcDbEntity
  8
3
370
    25
100
AcDbLine
 10
-37.165203
 20
-81.805534
 30
0.0
 11
-35.233351
 21
-81.287896
 31
0.0
  0
LINE
  5
1B7
100
AcDbEntity
  8
3
370
    25
100
AcDbLine
 10
-35.233351
 20
-82.323172
 30
0.0
 11
-35.233351
 21
-81.287896
 31
0.0
  0
LINE
  5
1B8
100
AcDbEntity
  8
3
370
    25
100
AcDbLine
 10
-37.165203
 20
-81.805534
 30
0.0
 11
-23.165203
 21
-81.805534
 31
0.0
  0
LINE
  5
1B9
100
AcDbEntity
  8
3
370
    25
100
AcDbLine
 10
-23.165203
 20
-81.805534
 30
0.0
 11
-25.097055
 21
-81.287896
 31
0.0
  0
LINE
  5
1BA
100
AcDbEntity
  8
3
370
    25
100
AcDbLine
 10
-23.165203
 20
-81.805534
 30
0.0
 11
-25.097055
 21
-82.323172
 31
0.0
  0
LINE
  5
1BB
100
AcDbEntity
  8
3
370
    25
100
AcDbLine
 10
-25.097055
 20
-81.287896
 30
0.0
 11
-25.097055
 21
-82.323172
 31
0.0
  0
LINE
  5
1BC
100
AcDbEntity
  8
3
370
    25
100
AcDbLine
 10
-23.165203
 20
-49.009923
 30
0.0
 11
-23.165203
 21
-82.805534
 31
0.0
  0
ENDBLK
  5
1BD
100
AcDbEntity
  8
3
100
AcDbBlockEnd
  0
BLOCK
  5
1BE
100
AcDbEntity
  8
3
100
AcDbBlockBegin
  2
*D2
 70
     1
 10
0.0
 20
0.0
 30
0.0
  3
*D2
  1

  0
TEXT
  5
1BF
100
AcDbEntity
  8
3
370
    25
100
AcDbText
 10
-63.165203
 20
-81.305534
 30
0.0
 40
3.5
  1
４５
 72
     5
 11
-56.865203
 21
-81.305534
 31
0.0
100
AcDbText
  0
LINE
  5
1C0
100
AcDbEntity
  8
3
370
    25
100
AcDbLine
 10
-82.165203
 20
-71.404953
 30
0.0
 11
-82.165203
 21
-82.805534
 31
0.0
  0
LINE
  5
1C1
100
AcDbEntity
  8
3
370
    25
100
AcDbLine
 10
-82.165203
 20
-81.805534
 30
0.0
 11
-80.233351
 21
-82.323172
 31
0.0
  0
LINE
  5
1C2
100
AcDbEntity
  8
3
370
    25
100
AcDbLine
 10
-82.165203
 20
-81.805534
 30
0.0
 11
-80.233351
 21
-81.287896
 31
0.0
  0
LINE
  5
1C3
100
AcDbEntity
  8
3
370
    25
100
AcDbLine
 10
-80.233351
 20
-82.323172
 30
0.0
 11
-80.233351
 21
-81.287896
 31
0.0
  0
LINE
  5
1C4
100
AcDbEntity
  8
3
370
    25
100
AcDbLine
 10
-82.165203
 20
-81.805534
 30
0.0
 11
-37.165203
 21
-81.805534
 31
0.0
  0
LINE
  5
1C5
100
AcDbEntity
  8
3
370
    25
100
AcDbLine
 10
-37.165203
 20
-81.805534
 30
0.0
 11
-39.097055
 21
-81.287896
 31
0.0
  0
LINE
  5
1C6
100
AcDbEntity
  8
3
370
    25
100
AcDbLine
 10
-37.165203
 20
-81.805534
 30
0.0
 11
-39.097055
 21
-82.323172
 31
0.0
  0
LINE
  5
1C7
100
AcDbEntity
  8
3
370
    25
100
AcDbLine
 10
-39.097055
 20
-81.287896
 30
0.0
 11
-39.097055
 21
-82.323172
 31
0.0
  0
LINE
  5
1C8
100
AcDbEntity
  8
3
370
    25
100
AcDbLine
 10
-37.165203
 20
-62.532423
 30
0.0
 11
-37.165203
 21
-82.805534
 31
0.0
  0
ENDBLK
  5
1C9
100
AcDbEntity
  8
3
100
AcDbBlockEnd
  0
BLOCK
  5
1CA
100
AcDbEntity
  8
3
100
AcDbBlockBegin
  2
*D3
 70
     1
 10
0.0
 20
0.0
 30
0.0
  3
*D3
  1

  0
TEXT
  5
1CB
100
AcDbEntity
  8
3
370
    25
100
AcDbText
 10
-154.821243
 20
-54.732423
 30
0.0
 40
3.5
  1
２５
 50
90.0
 72
     5
 11
-154.821243
 21
-48.432423
 31
0.0
100
AcDbText
  0
LINE
  5
1CC
100
AcDbEntity
  8
3
370
    25
100
AcDbLine
 10
-118.178776
 20
-63.732423
 30
0.0
 11
-155.321243
 21
-63.732423
 31
0.0
  0
LINE
  5
1CD
100
AcDbEntity
  8
3
370
    25
100
AcDbLine
 10
-154.321243
 20
-63.732423
 30
0.0
 11
-153.803605
 21
-61.800572
 31
0.0
  0
LINE
  5
1CE
100
AcDbEntity
  8
3
370
    25
100
AcDbLine
 10
-154.321243
 20
-63.732423
 30
0.0
 11
-154.838881
 21
-61.800572
 31
0.0
  0
LINE
  5
1CF
100
AcDbEntity
  8
3
370
    25
100
AcDbLine
 10
-153.803605
 20
-61.800572
 30
0.0
 11
-154.838881
 21
-61.800572
 31
0.0
  0
LINE
  5
1D0
100
AcDbEntity
  8
3
370
    25
100
AcDbLine
 10
-154.321243
 20
-63.732423
 30
0.0
 11
-154.321243
 21
-38.732423
 31
0.0
  0
LINE
  5
1D1
100
AcDbEntity
  8
3
370
    25
100
AcDbLine
 10
-154.321243
 20
-38.732423
 30
0.0
 11
-154.838881
 21
-40.664275
 31
0.0
  0
LINE
  5
1D2
100
AcDbEntity
  8
3
370
    25
100
AcDbLine
 10
-154.321243
 20
-38.732423
 30
0.0
 11
-153.803605
 21
-40.664275
 31
0.0
  0
LINE
  5
1D3
100
AcDbEntity
  8
3
370
    25
100
AcDbLine
 10
-154.838881
 20
-40.664275
 30
0.0
 11
-153.803605
 21
-40.664275
 31
0.0
  0
LINE
  5
1D4
100
AcDbEntity
  8
3
370
    25
100
AcDbLine
 10
-129.569759
 20
-38.732423
 30
0.0
 11
-155.321243
 21
-38.732423
 31
0.0
  0
ENDBLK
  5
1D5
100
AcDbEntity
  8
3
100
AcDbBlockEnd
  0
BLOCK
  5
1D6
100
AcDbEntity
  8
3
100
AcDbBlockBegin
  2
*D4
 70
     1
 10
0.0
 20
0.0
 30
0.0
  3
*D4
  1

  0
LINE
  5
1D7
100
AcDbEntity
  8
3
370
    25
100
AcDbLine
 10
-117.178776
 20
-64.732423
 30
0.0
 11
-117.178776
 21
-82.805534
 31
0.0
  0
LINE
  5
1D8
100
AcDbEntity
  8
3
370
    25
100
AcDbLine
 10
-117.178776
 20
-81.805534
 30
0.0
 11
-115.246924
 21
-82.323172
 31
0.0
  0
LINE
  5
1D9
100
AcDbEntity
  8
3
370
    25
100
AcDbLine
 10
-117.178776
 20
-81.805534
 30
0.0
 11
-115.246924
 21
-81.287896
 31
0.0
  0
LINE
  5
1DA
100
AcDbEntity
  8
3
370
    25
100
AcDbLine
 10
-115.246924
 20
-82.323172
 30
0.0
 11
-115.246924
 21
-81.287896
 31
0.0
  0
LINE
  5
1DB
100
AcDbEntity
  8
3
370
    25
100
AcDbLine
 10
-117.178776
 20
-81.805534
 30
0.0
 11
-82.165203
 21
-81.805534
 31
0.0
  0
LINE
  5
1DC
100
AcDbEntity
  8
3
370
    25
100
AcDbLine
 10
-82.165203
 20
-81.805534
 30
0.0
 11
-84.097055
 21
-81.287896
 31
0.0
  0
LINE
  5
1DD
100
AcDbEntity
  8
3
370
    25
100
AcDbLine
 10
-82.165203
 20
-81.805534
 30
0.0
 11
-84.097055
 21
-82.323172
 31
0.0
  0
LINE
  5
1DE
100
AcDbEntity
  8
3
370
    25
100
AcDbLine
 10
-84.097055
 20
-81.287896
 30
0.0
 11
-84.097055
 21
-82.323172
 31
0.0
  0
LINE
  5
1DF
100
AcDbEntity
  8
3
370
    25
100
AcDbLine
 10
-82.165203
 20
-72.99028
 30
0.0
 11
-82.165203
 21
-82.805534
 31
0.0
  0
ENDBLK
  5
1E0
100
AcDbEntity
  8
3
100
AcDbBlockEnd
  0
BLOCK
  5
1E1
100
AcDbEntity
  8
3
100
AcDbBlockBegin
  2
*D5
 70
     1
 10
0.0
 20
0.0
 30
0.0
  3
*D5
  1

  0
TEXT
  5
1E2
100
AcDbEntity
  8
3
370
    25
100
AcDbText
 10
-124.14035
 20
-74.142075
 30
0.0
 40
3.5
  1
８゜
 50
356.0
 72
     5
 11
-117.855697
 21
-74.58154
 31
0.0
100
AcDbText
  0
LINE
  5
1E3
100
AcDbEntity
  8
3
370
    25
100
AcDbLine
 10
-118.877967
 20
-75.824322
 30
0.0
 11
-118.998125
 21
-76.679294
 31
0.0
  0
LINE
  5
1E4
100
AcDbEntity
  8
3
370
    25
100
AcDbLine
 10
-117.178776
 20
-73.507813
 30
0.0
 11
-117.178776
 21
-76.806515
 31
0.0
  0
LINE
  5
1E5
100
AcDbEntity
  8
3
370
    25
100
AcDbLine
 10
-118.858952
 20
-75.689026
 30
0.0
 11
-120.631535
 21
-74.76277
 31
0.0
  0
LINE
  5
1E6
100
AcDbEntity
  8
3
370
    25
100
AcDbLine
 10
-118.858952
 20
-75.689026
 30
0.0
 11
-120.857182
 21
-75.773156
 31
0.0
  0
LINE
  5
1E7
100
AcDbEntity
  8
3
370
    25
100
AcDbLine
 10
-120.631535
 20
-74.76277
 30
0.0
 11
-120.857182
 21
-75.773156
 31
0.0
  0
LINE
  5
1E8
100
AcDbEntity
  8
3
370
    25
100
AcDbLine
 10
-117.178776
 20
-75.806515
 30
0.0
 11
-115.211701
 21
-76.167927
 31
0.0
  0
LINE
  5
1E9
100
AcDbEntity
  8
3
370
    25
100
AcDbLine
 10
-117.178776
 20
-75.806515
 30
0.0
 11
-115.294534
 21
-75.135969
 31
0.0
  0
LINE
  5
1EA
100
AcDbEntity
  8
3
370
    25
100
AcDbLine
 10
-115.211701
 20
-76.167927
 30
0.0
 11
-115.294534
 21
-75.135969
 31
0.0
  0
ARC
  5
1EB
100
AcDbEntity
  8
3
370
    25
100
AcDbCircle
 10
-117.178776
 20
-63.733947
 30
0.0
 40
12.072569
100
AcDbArc
 50
239.502519
 51
292.497482
  0
ENDBLK
  5
1EC
100
AcDbEntity
  8
3
100
AcDbBlockEnd
  0
BLOCK
  5
1ED
100
AcDbEntity
  8
3
100
AcDbBlockBegin
  2
*D6
 70
     1
 10
0.0
 20
0.0
 30
0.0
  3
*D6
  1

  0
LINE
  5
1EE
100
AcDbEntity
  8
3
370
    25
100
AcDbLine
 10
-129.569759
 20
-38.732423
 30
0.0
 11
-155.321243
 21
-38.732423
 31
0.0
  0
LINE
  5
1EF
100
AcDbEntity
  8
3
370
    25
100
AcDbLine
 10
-154.321243
 20
-38.732423
 30
0.0
 11
-153.803605
 21
-36.800572
 31
0.0
  0
LINE
  5
1F0
100
AcDbEntity
  8
3
370
    25
100
AcDbLine
 10
-154.321243
 20
-38.732423
 30
0.0
 11
-154.838881
 21
-36.800572
 31
0.0
  0
LINE
  5
1F1
100
AcDbEntity
  8
3
370
    25
100
AcDbLine
 10
-153.803605
 20
-36.800572
 30
0.0
 11
-154.838881
 21
-36.800572
 31
0.0
  0
LINE
  5
1F2
100
AcDbEntity
  8
3
370
    25
100
AcDbLine
 10
-154.321243
 20
-38.732423
 30
0.0
 11
-154.321243
 21
34.237125
 31
0.0
  0
LINE
  5
1F3
100
AcDbEntity
  8
3
370
    25
100
AcDbLine
 10
-154.321243
 20
34.237125
 30
0.0
 11
-154.838881
 21
32.305274
 31
0.0
  0
LINE
  5
1F4
100
AcDbEntity
  8
3
370
    25
100
AcDbLine
 10
-154.321243
 20
34.237125
 30
0.0
 11
-153.803605
 21
32.305274
 31
0.0
  0
LINE
  5
1F5
100
AcDbEntity
  8
3
370
    25
100
AcDbLine
 10
-154.838881
 20
32.305274
 30
0.0
 11
-153.803605
 21
32.305274
 31
0.0
  0
LINE
  5
1F6
100
AcDbEntity
  8
3
370
    25
100
AcDbLine
 10
-97.250153
 20
34.237125
 30
0.0
 11
-155.321243
 21
34.237125
 31
0.0
  0
ENDBLK
  5
1F7
100
AcDbEntity
  8
3
100
AcDbBlockEnd
  0
ENDSEC
  0
SECTION
  2
ENTITIES
  0
LINE
  5
2B
100
AcDbEntity
  8
1
370
   100
100
AcDbLine
 10
-186.510785
 20
137.514384
 30
0.0
 11
197.491193
 21
137.514384
 31
0.0
  0
LINE
  5
2C
100
AcDbEntity
  8
1
370
   100
100
AcDbLine
 10
-186.510785
 20
137.514384
 30
0.0
 11
-186.510785
 21
-138.985941
 31
0.0
  0
LINE
  5
2D
100
AcDbEntity
  8
1
370
   100
100
AcDbLine
 10
-186.510785
 20
-138.985941
 30
0.0
 11
197.491193
 21
-138.985941
 31
0.0
  0
LINE
  5
2E
100
AcDbEntity
  8
1
370
   100
100
AcDbLine
 10
197.491193
 20
-138.985941
 30
0.0
 11
197.491193
 21
137.514384
 31
0.0
  0
TEXT
  5
2F
100
AcDbEntity
  8
1
370
    50
100
AcDbText
 10
179.814221
 20
-113.126428
 30
0.0
 40
3.0
  1
設計
 72
     5
 11
185.214221
 21
-113.126428
 31
0.0
100
AcDbText
  0
TEXT
  5
30
100
AcDbEntity
  8
1
370
    50
100
AcDbText
 10
189.563739
 20
-113.049829
 30
0.0
 40
3.0
  1
製図
 72
     5
 11
194.963739
 21
-113.049829
 31
0.0
100
AcDbText
  0
TEXT
  5
31
100
AcDbEntity
  8
1
370
    50
100
AcDbText
 10
159.502872
 20
-113.126428
 30
0.0
 40
3.0
  1
承認
 72
     5
 11
164.902872
 21
-113.126428
 31
0.0
100
AcDbText
  0
TEXT
  5
32
100
AcDbEntity
  8
1
370
    50
100
AcDbText
 10
169.494839
 20
-113.09901
 30
0.0
 40
3.0
  1
検図
 72
     5
 11
174.894839
 21
-113.09901
 31
0.0
100
AcDbText
  0
LINE
  5
33
100
AcDbEntity
  8
1
370
    25
100
AcDbLine
 10
142.491193
 20
-113.985941
 30
0.0
 11
197.491193
 21
-113.985941
 31
0.0
  0
LINE
  5
34
100
AcDbEntity
  8
1
370
    25
100
AcDbLine
 10
171.241193
 20
-122.985941
 30
0.0
 11
171.241193
 21
-129.985941
 31
0.0
  0
TEXT
  5
35
100
AcDbEntity
  8
1
370
    50
100
AcDbText
 10
159.775795
 20
-128.006264
 30
0.0
 40
3.0
  1
日　付
 72
     5
 11
168.175795
 21
-128.006264
 31
0.0
100
AcDbText
  0
LINE
  5
36
100
AcDbEntity
  8
1
370
    50
100
AcDbLine
 10
20.491193
 20
-129.985941
 30
0.0
 11
197.491193
 21
-129.985941
 31
0.0
  0
TEXT
  5
37
100
AcDbEntity
  8
1
370
    50
100
AcDbText
 10
143.887505
 20
-128.161203
 30
0.0
 40
3.0
  1
第三角法
 72
     5
 11
155.287505
 21
-128.161203
 31
0.0
100
AcDbText
  0
TEXT
  5
38
100
AcDbEntity
  8
1
370
    50
100
AcDbText
 10
145.54371
 20
-112.99901
 30
0.0
 40
3.0
  1
尺　度
 72
     5
 11
153.94371
 21
-112.99901
 31
0.0
100
AcDbText
  0
LINE
  5
39
100
AcDbEntity
  8
1
370
   100
100
AcDbLine
 10
20.491193
 20
-108.985941
 30
0.0
 11
197.491193
 21
-108.985941
 31
0.0
  0
LINE
  5
3A
100
AcDbEntity
  8
1
370
    50
100
AcDbLine
 10
105.991193
 20
-108.985941
 30
0.0
 11
105.991193
 21
-138.985941
 31
0.0
  0
LINE
  5
3B
100
AcDbEntity
  8
1
370
    25
100
AcDbLine
 10
187.491193
 20
-122.985941
 30
0.0
 11
187.491193
 21
-108.985941
 31
0.0
  0
LINE
  5
3C
100
AcDbEntity
  8
1
370
    25
100
AcDbLine
 10
177.491193
 20
-122.985941
 30
0.0
 11
177.491193
 21
-108.985941
 31
0.0
  0
LINE
  5
3D
100
AcDbEntity
  8
1
370
    25
100
AcDbLine
 10
167.491193
 20
-122.985941
 30
0.0
 11
167.491193
 21
-108.985941
 31
0.0
  0
LINE
  5
3E
100
AcDbEntity
  8
1
370
    50
100
AcDbLine
 10
142.491193
 20
-138.985941
 30
0.0
 11
142.491193
 21
-108.985941
 31
0.0
  0
LINE
  5
3F
100
AcDbEntity
  8
1
370
    50
100
AcDbLine
 10
94.991193
 20
-108.985941
 30
0.0
 11
94.991193
 21
-138.985941
 31
0.0
  0
LINE
  5
40
100
AcDbEntity
  8
1
370
    50
100
AcDbLine
 10
31.491193
 20
-108.985941
 30
0.0
 11
31.491193
 21
-129.985941
 31
0.0
  0
LINE
  5
41
100
AcDbEntity
  8
1
370
    50
100
AcDbLine
 10
142.491193
 20
-122.985941
 30
0.0
 11
197.491193
 21
-122.985941
 31
0.0
  0
TEXT
  5
42
100
AcDbEntity
  8
1
370
    50
100
AcDbText
 10
143.550565
 20
-135.940469
 30
0.0
 40
3.0
  1
コードＮｏ
 41
0.9
 72
     5
 11
156.510565
 21
-135.940469
 31
0.0
100
AcDbText
  0
TEXT
  5
43
100
AcDbEntity
  8
1
370
   100
100
AcDbText
 10
26.443387
 20
-136.43783
 30
0.0
 40
4.0
  1
ミズタニバルブ工業株式会社
 41
1.2
 72
     5
 11
87.883387
 21
-136.43783
 31
0.0
100
AcDbText
  0
LINE
  5
44
100
AcDbEntity
  8
1
370
    50
100
AcDbLine
 10
20.491193
 20
-119.485941
 30
0.0
 11
142.491193
 21
-119.485941
 31
0.0
  0
LINE
  5
45
100
AcDbEntity
  8
1
370
    50
100
AcDbLine
 10
57.741193
 20
-119.485941
 30
0.0
 11
57.741193
 21
-129.985941
 31
0.0
  0
LINE
  5
46
100
AcDbEntity
  8
1
370
    50
100
AcDbLine
 10
68.741193
 20
-119.485941
 30
0.0
 11
68.741193
 21
-129.985941
 31
0.0
  0
LINE
  5
47
100
AcDbEntity
  8
1
370
    50
100
AcDbLine
 10
157.491193
 20
-138.985941
 30
0.0
 11
157.491193
 21
-108.985941
 31
0.0
  0
TEXT
  5
48
100
AcDbEntity
  8
1
370
    50
100
AcDbText
 10
172.549065
 20
-128.050147
 30
0.0
 40
3.0
  1
　　・　　・
 72
     5
 11
189.949065
 21
-128.050147
 31
0.0
100
AcDbText
  0
LINE
  5
49
100
AcDbEntity
  8
1
370
   100
100
AcDbLine
 10
20.491193
 20
-108.985941
 30
0.0
 11
20.491193
 21
-138.985941
 31
0.0
  0
TEXT
  5
4A
100
AcDbEntity
  8
1
370
    50
100
AcDbText
 10
145.416291
 20
-120.006746
 30
0.0
 40
3.0
  1
　／ 
 72
     5
 11
150.816291
 21
-120.006746
 31
0.0
100
AcDbText
  0
TEXT
  5
4B
100
AcDbEntity
  8
1
370
    50
100
AcDbText
 10
96.952061
 20
-136.012454
 30
0.0
 40
3.0
  1
備 考 
 72
     5
 11
103.852061
 21
-136.012454
 31
0.0
100
AcDbText
  0
TEXT
  5
4C
100
AcDbEntity
  8
1
370
    50
100
AcDbText
 10
96.756267
 20
-115.44592
 30
0.0
 40
3.0
  1
仕 上
 72
     5
 11
103.656267
 21
-115.44592
 31
0.0
100
AcDbText
  0
TEXT
  5
4D
100
AcDbEntity
  8
1
370
    50
100
AcDbText
 10
96.723588
 20
-124.445833
 30
0.0
 40
3.0
  1
表 面
 72
     5
 11
103.623588
 21
-124.445833
 31
0.0
100
AcDbText
  0
TEXT
  5
4E
100
AcDbEntity
  8
1
370
    50
100
AcDbText
 10
96.723588
 20
-127.945833
 30
0.0
 40
3.0
  1
処 理
 72
     5
 11
103.623588
 21
-127.945833
 31
0.0
100
AcDbText
  0
TEXT
  5
4F
100
AcDbEntity
  8
1
370
    50
100
AcDbText
 10
22.396675
 20
-115.8467
 30
0.0
 40
3.0
  1
品 名
 72
     5
 11
29.296675
 21
-115.8467
 31
0.0
100
AcDbText
  0
TEXT
  5
50
100
AcDbEntity
  8
1
370
    50
100
AcDbText
 10
22.198883
 20
-126.231267
 30
0.0
 40
3.0
  1
材 質
 72
     5
 11
29.098883
 21
-126.231267
 31
0.0
100
AcDbText
  0
TEXT
  5
51
100
AcDbEntity
  8
1
370
    50
100
AcDbText
 10
59.448883
 20
-126.231267
 30
0.0
 40
3.0
  1
規 格
 72
     5
 11
66.348883
 21
-126.231267
 31
0.0
100
AcDbText
  0
LINE
  5
52
100
AcDbEntity
  8
2
370
    50
100
AcDbLine
 10
-94.164956
 20
-16.232045
 30
0.0
 11
-94.164956
 21
-14.827218
 31
0.0
  0
LINE
  5
53
100
AcDbEntity
  8
2
370
    50
100
AcDbLine
 10
-70.164956
 20
-16.232045
 30
0.0
 11
-70.164956
 21
-14.827218
 31
0.0
  0
LINE
  5
54
100
AcDbEntity
  8
2
370
    50
100
AcDbLine
 10
-69.664956
 20
-19.552625
 30
0.0
 11
-69.664956
 21
-16.232045
 31
0.0
  0
LINE
  5
55
100
AcDbEntity
  8
2
370
    50
100
AcDbLine
 10
-94.664956
 20
-22.128517
 30
0.0
 11
-94.664956
 21
-16.232045
 31
0.0
  0
LINE
  5
56
100
AcDbEntity
  8
2
370
    50
100
AcDbLine
 10
-93.619904
 20
-14.827218
 30
0.0
 11
-94.164956
 21
-15.771276
 31
0.0
  0
LINE
  5
57
100
AcDbEntity
  8
2
370
    50
100
AcDbLine
 10
-94.664956
 20
-16.232045
 30
0.0
 11
-94.164956
 21
-16.232045
 31
0.0
  0
LINE
  5
58
100
AcDbEntity
  8
2
370
    50
100
AcDbLine
 10
-94.441498
 20
-16.232045
 30
0.0
 11
-69.664956
 21
-16.232045
 31
0.0
  0
LINE
  5
59
100
AcDbEntity
  8
2
370
    50
100
AcDbLine
 10
-70.710009
 20
-14.827218
 30
0.0
 11
-70.164956
 21
-15.771276
 31
0.0
  0
LINE
  5
5A
100
AcDbEntity
  8
2
370
    50
100
AcDbLine
 10
-38.665203
 20
-15.732423
 30
0.0
 11
-37.365203
 21
-15.732423
 31
0.0
  0
LINE
  5
5B
100
AcDbEntity
  8
2
370
    50
100
AcDbLine
 10
-38.665203
 20
-61.732423
 30
0.0
 11
-37.365203
 21
-61.732423
 31
0.0
  0
LINE
  5
5C
100
AcDbEntity
  8
2
370
    50
100
AcDbLine
 10
-37.165203
 20
-28.254923
 30
0.0
 11
-24.365203
 21
-28.254923
 31
0.0
  0
LINE
  5
5D
100
AcDbEntity
  8
2
370
    50
100
AcDbLine
 10
-37.165203
 20
-49.209923
 30
0.0
 11
-24.365203
 21
-49.209923
 31
0.0
  0
LINE
  5
5E
100
AcDbEntity
  8
2
370
    50
100
AcDbLine
 10
-59.665203
 20
-29.482423
 30
0.0
 11
-43.665203
 21
-29.482423
 31
0.0
  0
ARC
  5
5F
100
AcDbEntity
  8
2
370
    50
100
AcDbCircle
 10
-43.665203
 20
-25.482423
 30
0.0
 40
4.0
100
AcDbArc
 50
270.0
 51
360.0
  0
ARC
  5
60
100
AcDbEntity
  8
2
370
    50
100
AcDbCircle
 10
-43.665203
 20
-51.982423
 30
0.0
 40
4.0
100
AcDbArc
 50
0.0
 51
90.0
  0
LINE
  5
61
100
AcDbEntity
  8
2
370
    50
100
AcDbLine
 10
-23.165203
 20
-48.009923
 30
0.0
 11
-23.165203
 21
-29.454923
 31
0.0
  0
LINE
  5
62
100
AcDbEntity
  8
2
370
    50
100
AcDbLine
 10
-39.665203
 20
-60.732423
 30
0.0
 11
-39.665203
 21
-51.982423
 31
0.0
  0
LINE
  5
63
100
AcDbEntity
  8
2
370
    50
100
AcDbLine
 10
-39.665203
 20
-53.290367
 30
0.0
 11
-39.665203
 21
-16.732423
 31
0.0
  0
LINE
  5
64
100
AcDbEntity
  8
2
370
    50
100
AcDbLine
 10
-37.165203
 20
-61.532423
 30
0.0
 11
-37.165203
 21
-49.209923
 31
0.0
  0
LINE
  5
65
100
AcDbEntity
  8
2
370
    50
100
AcDbLine
 10
-37.165203
 20
-51.984833
 30
0.0
 11
-37.165203
 21
-15.932423
 31
0.0
  0
ARC
  5
66
100
AcDbEntity
  8
2
370
    50
100
AcDbCircle
 10
-38.665203
 20
-16.732423
 30
0.0
 40
1.0
100
AcDbArc
 50
90.0
 51
180.0
  0
ARC
  5
67
100
AcDbEntity
  8
2
370
    50
100
AcDbCircle
 10
-38.665203
 20
-60.732423
 30
0.0
 40
1.0
100
AcDbArc
 50
180.0
 51
270.0
  0
LINE
  5
68
100
AcDbEntity
  8
2
370
    25
100
AcDbLine
 10
-34.165203
 20
-29.454923
 30
0.0
 11
-23.165203
 21
-29.454923
 31
0.0
  0
LINE
  5
69
100
AcDbEntity
  8
2
370
    25
100
AcDbLine
 10
-34.165203
 20
-48.009923
 30
0.0
 11
-23.165203
 21
-48.009923
 31
0.0
  0
LINE
  5
6A
100
AcDbEntity
  8
2
370
    50
100
AcDbLine
 10
-23.165203
 20
-29.454923
 30
0.0
 11
-24.365203
 21
-28.254923
 31
0.0
  0
LINE
  5
6B
100
AcDbEntity
  8
2
370
    50
100
AcDbLine
 10
-34.165203
 20
-29.454923
 30
0.0
 11
-35.365203
 21
-28.254923
 31
0.0
  0
LINE
  5
6C
100
AcDbEntity
  8
2
370
    50
100
AcDbLine
 10
-23.165203
 20
-48.009923
 30
0.0
 11
-24.365203
 21
-49.209923
 31
0.0
  0
LINE
  5
6D
100
AcDbEntity
  8
2
370
    50
100
AcDbLine
 10
-34.165203
 20
-48.009923
 30
0.0
 11
-35.365203
 21
-49.209923
 31
0.0
  0
LINE
  5
6E
100
AcDbEntity
  8
2
370
    50
100
AcDbLine
 10
-37.165203
 20
-61.532423
 30
0.0
 11
-37.365203
 21
-61.732423
 31
0.0
  0
LINE
  5
6F
100
AcDbEntity
  8
2
370
    50
100
AcDbLine
 10
-37.165203
 20
-15.932423
 30
0.0
 11
-37.365203
 21
-15.732423
 31
0.0
  0
LINE
  5
70
100
AcDbEntity
  8
2
370
    50
100
AcDbLine
 10
-43.665203
 20
-47.982423
 30
0.0
 11
-55.037035
 21
-47.982423
 31
0.0
  0
ARC
  5
71
100
AcDbEntity
  8
2
370
    50
100
AcDbCircle
 10
-55.037035
 20
-97.982423
 30
0.0
 40
50.0
100
AcDbArc
 50
90.0
 51
105.740549
  0
LINE
  5
72
100
AcDbEntity
  8
2
370
    25
  6
CENTER
100
AcDbLine
 10
-128.569759
 20
-38.732423
 30
0.0
 11
-13.290233
 21
-38.732423
 31
0.0
  0
ARC
  5
73
100
AcDbEntity
  8
2
370
    50
100
AcDbCircle
 10
-59.665203
 20
-19.482423
 30
0.0
 40
10.0
100
AcDbArc
 50
180.0
 51
270.0
  0
LINE
  5
74
100
AcDbEntity
  8
2
370
    25
  6
CENTER
100
AcDbLine
 10
-82.164956
 20
56.074247
 30
0.0
 11
-82.164956
 21
90.131926
 31
0.0
  0
LINE
  5
75
100
AcDbEntity
  8
2
370
    50
100
AcDbLine
 10
-39.664956
 20
51.151759
 30
0.0
 11
-39.664956
 21
95.151759
 31
0.0
  0
LINE
  5
76
100
AcDbEntity
  8
2
370
    50
100
AcDbLine
 10
-23.164956
 20
65.101759
 30
0.0
 11
-23.164956
 21
81.201759
 31
0.0
  0
LINE
  5
77
100
AcDbEntity
  8
2
370
    50
100
AcDbLine
 10
-38.664956
 20
96.151759
 30
0.0
 11
-37.364956
 21
96.151759
 31
0.0
  0
LINE
  5
78
100
AcDbEntity
  8
2
370
    50
100
AcDbLine
 10
-38.664956
 20
50.151759
 30
0.0
 11
-37.364956
 21
50.151759
 31
0.0
  0
LINE
  5
79
100
AcDbEntity
  8
2
370
    50
100
AcDbLine
 10
-37.164956
 20
50.351759
 30
0.0
 11
-37.164956
 21
95.951759
 31
0.0
  0
ARC
  5
7A
100
AcDbEntity
  8
2
370
    50
100
AcDbCircle
 10
-38.664956
 20
95.151759
 30
0.0
 40
1.0
100
AcDbArc
 50
90.0
 51
180.0
  0
ARC
  5
7B
100
AcDbEntity
  8
2
370
    50
100
AcDbCircle
 10
-38.664956
 20
51.151759
 30
0.0
 40
1.0
100
AcDbArc
 50
180.0
 51
270.0
  0
ARC
  5
7C
100
AcDbEntity
  8
2
370
    50
100
AcDbCircle
 10
-43.664956
 20
86.401759
 30
0.0
 40
4.0
100
AcDbArc
 50
270.0
 51
360.0
  0
ARC
  5
7D
100
AcDbEntity
  8
2
370
    50
100
AcDbCircle
 10
-43.664956
 20
59.901759
 30
0.0
 40
4.0
100
AcDbArc
 50
0.0
 51
90.0
  0
LINE
  5
7E
100
AcDbEntity
  8
2
370
    50
100
AcDbLine
 10
-37.164956
 20
82.401759
 30
0.0
 11
-24.364956
 21
82.401759
 31
0.0
  0
LINE
  5
7F
100
AcDbEntity
  8
2
370
    50
100
AcDbLine
 10
-37.164956
 20
63.901759
 30
0.0
 11
-24.364956
 21
63.901759
 31
0.0
  0
LINE
  5
80
100
AcDbEntity
  8
2
370
    50
100
AcDbLine
 10
-64.602568
 20
82.401759
 30
0.0
 11
-43.664956
 21
82.401759
 31
0.0
  0
LINE
  5
81
100
AcDbEntity
  8
2
370
    50
100
AcDbLine
 10
-64.602568
 20
63.901759
 30
0.0
 11
-43.664956
 21
63.901759
 31
0.0
  0
LINE
  5
82
100
AcDbEntity
  8
2
370
    25
100
AcDbLine
 10
-34.164956
 20
81.201759
 30
0.0
 11
-23.164956
 21
81.201759
 31
0.0
  0
LINE
  5
83
100
AcDbEntity
  8
2
370
    25
100
AcDbLine
 10
-34.164956
 20
65.101759
 30
0.0
 11
-23.164956
 21
65.101759
 31
0.0
  0
LINE
  5
84
100
AcDbEntity
  8
2
370
    50
100
AcDbLine
 10
-24.364956
 20
82.401759
 30
0.0
 11
-23.164956
 21
81.201759
 31
0.0
  0
LINE
  5
85
100
AcDbEntity
  8
2
370
    50
100
AcDbLine
 10
-24.364956
 20
63.901759
 30
0.0
 11
-24.364956
 21
82.401759
 31
0.0
  0
LINE
  5
86
100
AcDbEntity
  8
2
370
    50
100
AcDbLine
 10
-35.364956
 20
82.401759
 30
0.0
 11
-34.164956
 21
81.201759
 31
0.0
  0
LINE
  5
87
100
AcDbEntity
  8
2
370
    50
100
AcDbLine
 10
-35.364956
 20
63.901759
 30
0.0
 11
-34.164956
 21
65.101759
 31
0.0
  0
LINE
  5
88
100
AcDbEntity
  8
2
370
    50
100
AcDbLine
 10
-34.164956
 20
63.901759
 30
0.0
 11
-34.164956
 21
82.401759
 31
0.0
  0
ARC
  5
89
100
AcDbEntity
  8
2
370
    50
100
AcDbCircle
 10
-64.602568
 20
112.401759
 30
0.0
 40
30.0
100
AcDbArc
 50
267.461843
 51
270.0
  0
ARC
  5
8A
100
AcDbEntity
  8
2
370
    50
100
AcDbCircle
 10
-64.602568
 20
33.901759
 30
0.0
 40
30.0
100
AcDbArc
 50
90.0
 51
92.538157
  0
LINE
  5
8B
100
AcDbEntity
  8
2
370
    25
  6
CENTER
100
AcDbLine
 10
-142.086673
 20
73.151759
 30
0.0
 11
-17.766363
 21
73.151759
 31
0.0
  0
POINT
  5
8C
100
AcDbEntity
  8
2
370
    50
100
AcDbPoint
 10
-82.165203
 20
-28.232423
 30
0.0
  0
LINE
  5
8D
100
AcDbEntity
  8
2
370
    50
100
AcDbLine
 10
-94.665041
 20
-14.827218
 30
0.0
 11
-94.164956
 21
-14.827218
 31
0.0
  0
LINE
  5
8E
100
AcDbEntity
  8
2
370
    50
100
AcDbLine
 10
-92.165041
 20
-5.327218
 30
0.0
 11
-92.165041
 21
9.872782
 31
0.0
  0
LINE
  5
8F
100
AcDbEntity
  8
2
370
    50
100
AcDbLine
 10
-92.165041
 20
9.872782
 30
0.0
 11
-91.865041
 21
10.172782
 31
0.0
  0
LINE
  5
90
100
AcDbEntity
  8
2
370
    50
100
AcDbLine
 10
-69.665041
 20
-14.827218
 30
0.0
 11
-70.164956
 21
-14.827218
 31
0.0
  0
LINE
  5
91
100
AcDbEntity
  8
2
370
    25
  6
CENTER
100
AcDbLine
 10
-82.165203
 20
-71.99028
 30
0.0
 11
-82.165203
 21
39.580145
 31
0.0
  0
ARC
  5
92
100
AcDbEntity
  8
2
370
    50
100
AcDbCircle
 10
-64.602568
 20
112.401759
 30
0.0
 40
30.0
100
AcDbArc
 50
253.295541
 51
270.0
  0
ARC
  5
93
100
AcDbEntity
  8
2
370
    50
100
AcDbCircle
 10
-64.602568
 20
33.901759
 30
0.0
 40
30.0
100
AcDbArc
 50
90.0
 51
106.703143
  0
LINE
  5
94
100
AcDbEntity
  8
2
370
    50
100
AcDbLine
 10
-24.364956
 20
63.901759
 30
0.0
 11
-23.164956
 21
65.101759
 31
0.0
  0
LINE
  5
95
100
AcDbEntity
  8
2
370
    50
100
AcDbLine
 10
-88.665203
 20
19.267577
 30
0.0
 11
-75.665203
 21
19.267577
 31
0.0
  0
LINE
  5
96
100
AcDbEntity
  8
2
370
    50
100
AcDbLine
 10
-88.665203
 20
10.172782
 30
0.0
 11
-88.665203
 21
19.267577
 31
0.0
  0
LINE
  5
97
100
AcDbEntity
  8
2
370
    50
100
AcDbLine
 10
-75.665203
 20
10.172782
 30
0.0
 11
-75.665203
 21
19.267577
 31
0.0
  0
ARC
  5
98
100
AcDbEntity
  8
2
370
    50
100
AcDbCircle
 10
-82.165203
 20
93.344454
 30
0.0
 40
60.0
100
AcDbArc
 50
260.405932
 51
279.594068
  0
ARC
  5
99
100
AcDbEntity
  8
2
370
    50
100
AcDbCircle
 10
-71.165203
 20
28.267577
 30
0.0
 40
6.0
100
AcDbArc
 50
358.0
 51
99.594068
  0
LINE
  5
9A
100
AcDbEntity
  8
2
370
    50
100
AcDbLine
 10
-75.665203
 20
19.267577
 30
0.0
 11
-73.9711
 21
22.827073
 31
0.0
  0
ARC
  5
9B
100
AcDbEntity
  8
2
370
    50
100
AcDbCircle
 10
-72.165203
 20
21.967577
 30
0.0
 40
2.0
100
AcDbArc
 50
53.101806
 51
154.54841
  0
LINE
  5
9C
100
AcDbEntity
  8
2
370
    25
  6
CENTER
100
AcDbLine
 10
-86.283762
 20
27.767577
 30
0.0
 11
-77.54609
 21
27.767577
 31
0.0
  0
CIRCLE
  5
9D
100
AcDbEntity
  8
2
370
    50
100
AcDbCircle
 10
-82.165203
 20
27.767577
 30
0.0
 40
2.25
  0
LINE
  5
9E
100
AcDbEntity
  8
2
370
    50
100
AcDbLine
 10
-65.168858
 20
28.05818
 30
0.0
 11
-65.369406
 21
22.315228
 31
0.0
  0
LINE
  5
9F
100
AcDbEntity
  8
2
370
    50
100
AcDbLine
 10
-70.964413
 20
23.566984
 30
0.0
 11
-67.769085
 21
21.168021
 31
0.0
  0
ARC
  5
A0
100
AcDbEntity
  8
2
370
    50
100
AcDbCircle
 10
-66.868492
 20
22.367577
 30
0.0
 40
1.5
100
AcDbArc
 50
233.101806
 51
358.0
  0
ARC
  5
A1
100
AcDbEntity
  8
2
370
    50
100
AcDbCircle
 10
-93.165203
 20
28.267577
 30
0.0
 40
6.0
100
AcDbArc
 50
80.405932
 51
182.0
  0
LINE
  5
A2
100
AcDbEntity
  8
2
370
    50
100
AcDbLine
 10
-99.161548
 20
28.05818
 30
0.0
 11
-98.961
 21
22.315228
 31
0.0
  0
ARC
  5
A3
100
AcDbEntity
  8
2
370
    50
100
AcDbCircle
 10
-97.461913
 20
22.367577
 30
0.0
 40
1.5
100
AcDbArc
 50
182.0
 51
306.898194
  0
LINE
  5
A4
100
AcDbEntity
  8
2
370
    50
100
AcDbLine
 10
-93.365993
 20
23.566984
 30
0.0
 11
-96.561321
 21
21.168021
 31
0.0
  0
ARC
  5
A5
100
AcDbEntity
  8
2
370
    50
100
AcDbCircle
 10
-92.165203
 20
21.967577
 30
0.0
 40
2.0
100
AcDbArc
 50
25.45159
 51
126.898194
  0
LINE
  5
A6
100
AcDbEntity
  8
2
370
    50
100
AcDbLine
 10
-88.665203
 20
19.267577
 30
0.0
 11
-90.359305
 21
22.827073
 31
0.0
  0
ARC
  5
A7
100
AcDbEntity
  8
2
370
    50
100
AcDbCircle
 10
-82.165041
 20
-1.732423
 30
0.0
 40
50.0
100
AcDbArc
 50
249.842024
 51
285.740549
  0
LINE
  5
A8
100
AcDbEntity
  8
2
370
    50
100
AcDbLine
 10
-123.786683
 20
-51.472958
 30
0.0
 11
-125.278686
 21
-62.089111
 31
0.0
  0
LINE
  5
A9
100
AcDbEntity
  8
2
370
    50
100
AcDbLine
 10
-107.404796
 20
-53.467162
 30
0.0
 11
-108.939263
 21
-64.385467
 31
0.0
  0
LINE
  5
AA
100
AcDbEntity
  8
2
370
    50
100
AcDbLine
 10
-123.219197
 20
-62.883467
 30
0.0
 11
-124.853139
 21
-62.653832
 31
0.0
  0
LINE
  5
AB
100
AcDbEntity
  8
2
370
    50
100
AcDbLine
 10
-124.853139
 20
-62.653832
 30
0.0
 11
-125.278686
 21
-62.089111
 31
0.0
  0
LINE
  5
AC
100
AcDbEntity
  8
2
370
    50
100
AcDbLine
 10
-109.503984
 20
-64.811015
 30
0.0
 11
-108.939263
 21
-64.385467
 31
0.0
  0
LINE
  5
AD
100
AcDbEntity
  8
2
370
    50
100
AcDbLine
 10
-123.219197
 20
-62.883467
 30
0.0
 11
-109.503984
 21
-64.811015
 31
0.0
  0
ARC
  5
AE
100
AcDbEntity
  8
2
370
    50
100
AcDbCircle
 10
-101.463187
 20
-54.302201
 30
0.0
 40
6.0
100
AcDbArc
 50
69.842024
 51
172.0
  0
LINE
  5
AF
100
AcDbEntity
  8
2
370
    50
100
AcDbLine
 10
-107.344691
 20
-32.980153
 30
0.0
 11
-102.07685
 21
-31.56864
 31
0.0
  0
ARC
  5
B0
100
AcDbEntity
  8
2
370
    50
100
AcDbCircle
 10
-101.521262
 20
-54.713484
 30
0.0
 40
22.5
100
AcDbArc
 50
105.0
 51
172.28073
  0
ARC
  5
B1
100
AcDbEntity
  8
2
370
    50
100
AcDbCircle
 10
-104.665041
 20
-21.909381
 30
0.0
 40
10.0
100
AcDbArc
 50
285.0
 51
360.0
  0
LINE
  5
B2
100
AcDbEntity
  8
2
370
    50
100
AcDbLine
 10
-94.665041
 20
-14.827218
 30
0.0
 11
-69.665041
 21
-14.827218
 31
0.0
  0
LINE
  5
B3
100
AcDbEntity
  8
2
370
    50
100
AcDbLine
 10
-72.165041
 20
-5.327218
 30
0.0
 11
-72.165041
 21
9.872782
 31
0.0
  0
LINE
  5
B4
100
AcDbEntity
  8
2
370
    50
100
AcDbLine
 10
-92.165041
 20
-5.327218
 30
0.0
 11
-72.165041
 21
-5.327218
 31
0.0
  0
ARC
  5
B5
100
AcDbEntity
  8
2
370
    50
100
AcDbCircle
 10
-72.665041
 20
-11.473116
 30
0.0
 40
4.5
100
AcDbArc
 50
311.810315
 51
360.0
  0
ARC
  5
B6
100
AcDbEntity
  8
2
370
    50
100
AcDbCircle
 10
-74.663418
 20
-11.327893
 30
0.0
 40
6.5
100
AcDbArc
 50
358.719798
 51
67.395628
  0
ARC
  5
B7
100
AcDbEntity
  8
2
370
    50
100
AcDbCircle
 10
-89.666663
 20
-11.327893
 30
0.0
 40
6.5
100
AcDbArc
 50
112.604372
 51
181.280202
  0
ARC
  5
B8
100
AcDbEntity
  8
2
370
    50
100
AcDbCircle
 10
-91.665041
 20
-11.473116
 30
0.0
 40
4.5
100
AcDbArc
 50
180.0
 51
228.189685
  0
LINE
  5
B9
100
AcDbEntity
  8
2
370
    50
100
AcDbLine
 10
-72.465041
 20
10.172782
 30
0.0
 11
-72.165041
 21
9.872782
 31
0.0
  0
ELLIPSE
  5
BA
100
AcDbEntity
  8
2
370
    50
100
AcDbEllipse
 10
-70.90671
 20
-11.08138
 30
0.0
 11
0.0
 21
3.2201629999999999
 31
0.0
210
0.0
220
0.0
230
1.0
 40
0.806815
 41
0.0
 42
6.2831849999999996
  0
ELLIPSE
  5
BB
100
AcDbEntity
  8
2
370
    50
100
AcDbEllipse
 10
-82.165041
 20
-11.08138
 30
0.0
 11
5.1961519999999997
 21
0.0
 31
0.0
210
0.0
220
0.0
230
1.0
 40
0.619721
 41
4.7123889999999999
 42
1.5707960000000001
  0
POINT
  5
BC
100
AcDbEntity
  8
2
370
    50
100
AcDbPoint
 10
-117.178776
 20
-63.732423
 30
0.0
  0
LINE
  5
BD
100
AcDbEntity
  8
2
370
    50
100
AcDbLine
 10
-37.365203
 20
-15.732423
 30
0.0
 11
-37.365203
 21
-61.732423
 31
0.0
  0
LINE
  5
BE
100
AcDbEntity
  8
2
370
    50
100
AcDbLine
 10
-34.165203
 20
-28.254923
 30
0.0
 11
-34.165203
 21
-49.209923
 31
0.0
  0
LINE
  5
BF
100
AcDbEntity
  8
2
370
    50
100
AcDbLine
 10
-24.365203
 20
-28.254923
 30
0.0
 11
-24.365203
 21
-49.209923
 31
0.0
  0
ELLIPSE
  5
C0
100
AcDbEntity
  8
2
370
    50
100
AcDbEllipse
 10
-82.165041
 20
-11.08138
 30
0.0
 11
-5.1961519999999997
 21
0.0
 31
0.0
210
0.0
220
0.0
230
1.0
 40
0.619721
 41
4.7123889999999999
 42
1.5707960000000001
  0
ELLIPSE
  5
C1
100
AcDbEntity
  8
2
370
    50
100
AcDbEllipse
 10
-93.423371
 20
-11.08138
 30
0.0
 11
0.0
 21
-3.2201629999999999
 31
0.0
210
0.0
220
0.0
230
1.0
 40
0.806815
 41
0.0
 42
6.2831849999999996
  0
LINE
  5
C2
100
AcDbEntity
  8
2
370
    50
100
AcDbLine
 10
-92.165041
 20
9.872782
 30
0.0
 11
-88.665203
 21
9.872782
 31
0.0
  0
LINE
  5
C3
100
AcDbEntity
  8
2
370
    50
100
AcDbLine
 10
-89.480179
 20
9.872782
 30
0.0
 11
-72.165041
 21
9.872782
 31
0.0
  0
LINE
  5
C4
100
AcDbEntity
  8
2
370
    50
100
AcDbLine
 10
-91.865041
 20
10.172782
 30
0.0
 11
-88.665203
 21
10.172782
 31
0.0
  0
LINE
  5
C5
100
AcDbEntity
  8
2
370
    50
100
AcDbLine
 10
-89.367935
 20
10.172782
 30
0.0
 11
-72.465041
 21
10.172782
 31
0.0
  0
LINE
  5
C6
100
AcDbEntity
  8
2
370
    50
100
AcDbLine
 10
-99.164956
 20
72.001759
 30
0.0
 11
-99.164956
 21
74.301759
 31
0.0
  0
LINE
  5
C7
100
AcDbEntity
  8
2
370
    50
100
AcDbLine
 10
-65.164956
 20
72.001759
 30
0.0
 11
-65.164956
 21
74.301759
 31
0.0
  0
LINE
  5
C8
100
AcDbEntity
  8
2
370
    50
100
AcDbLine
 10
-98.664956
 20
74.801759
 30
0.0
 11
-88.452046
 21
74.801759
 31
0.0
  0
LINE
  5
C9
100
AcDbEntity
  8
2
370
    50
100
AcDbLine
 10
-89.040825
 20
74.801759
 30
0.0
 11
-65.664956
 21
74.801759
 31
0.0
  0
LINE
  5
CA
100
AcDbEntity
  8
2
370
    50
100
AcDbLine
 10
-98.664956
 20
71.501759
 30
0.0
 11
-75.041313
 21
71.501759
 31
0.0
  0
LINE
  5
CB
100
AcDbEntity
  8
2
370
    50
100
AcDbLine
 10
-75.877867
 20
71.501759
 30
0.0
 11
-65.664956
 21
71.501759
 31
0.0
  0
ARC
  5
CC
100
AcDbEntity
  8
2
370
    50
100
AcDbCircle
 10
-98.664956
 20
74.301759
 30
0.0
 40
0.5
100
AcDbArc
 50
90.0
 51
180.0
  0
ARC
  5
CD
100
AcDbEntity
  8
2
370
    50
100
AcDbCircle
 10
-98.664956
 20
72.001759
 30
0.0
 40
0.5
100
AcDbArc
 50
180.0
 51
270.0
  0
ARC
  5
CE
100
AcDbEntity
  8
2
370
    50
100
AcDbCircle
 10
-65.664956
 20
74.301759
 30
0.0
 40
0.5
100
AcDbArc
 50
0.0
 51
90.0
  0
ARC
  5
CF
100
AcDbEntity
  8
2
370
    50
100
AcDbCircle
 10
-65.664956
 20
72.001759
 30
0.0
 40
0.5
100
AcDbArc
 50
270.0
 51
360.0
  0
LINE
  5
D0
100
AcDbEntity
  8
2
370
    50
100
AcDbLine
 10
-117.164956
 20
81.401759
 30
0.0
 11
-101.810249
 21
81.401759
 31
0.0
  0
LINE
  5
D1
100
AcDbEntity
  8
2
370
    50
100
AcDbLine
 10
-117.164956
 20
64.901759
 30
0.0
 11
-101.810249
 21
64.901759
 31
0.0
  0
ARC
  5
D2
100
AcDbEntity
  8
2
370
    50
100
AcDbCircle
 10
-101.810249
 20
111.401759
 30
0.0
 40
30.0
100
AcDbArc
 50
270.0
 51
290.468737
  0
ARC
  5
D3
100
AcDbEntity
  8
2
370
    50
100
AcDbCircle
 10
-101.810249
 20
34.901759
 30
0.0
 40
30.0
100
AcDbArc
 50
69.531263
 51
90.0
  0
ARC
  5
D4
100
AcDbEntity
  8
2
370
    50
100
AcDbCircle
 10
-117.164956
 20
73.151759
 30
0.0
 40
8.25
100
AcDbArc
 50
90.0
 51
270.0
  0
ARC
  5
D5
100
AcDbEntity
  8
2
370
    50
100
AcDbCircle
 10
-82.164956
 20
73.151759
 30
0.0
 40
6.5
100
AcDbArc
 50
194.705225
 51
345.294775
  0
ARC
  5
D6
100
AcDbEntity
  8
2
370
    50
100
AcDbCircle
 10
-82.164956
 20
73.151759
 30
0.0
 40
6.5
100
AcDbArc
 50
14.705225
 51
165.294775
  0
LINE
  5
D7
100
AcDbEntity
  8
2
370
    50
100
AcDbLine
 10
-37.364956
 20
96.151759
 30
0.0
 11
-37.364956
 21
50.151759
 31
0.0
  0
LINE
  5
D8
100
AcDbEntity
  8
2
370
    50
100
AcDbLine
 10
-37.164956
 20
50.351759
 30
0.0
 11
-37.364956
 21
50.151759
 31
0.0
  0
LINE
  5
D9
100
AcDbEntity
  8
2
370
    50
100
AcDbLine
 10
-37.164956
 20
95.951759
 30
0.0
 11
-37.364956
 21
96.151759
 31
0.0
  0
LINE
  5
DA
100
AcDbEntity
  8
2
370
    50
100
AcDbLine
 10
-87.361109
 20
86.151759
 30
0.0
 11
-76.968804
 21
86.151759
 31
0.0
  0
LINE
  5
DB
100
AcDbEntity
  8
2
370
    50
100
AcDbLine
 10
-96.021363
 20
75.151759
 30
0.0
 11
-90.82521
 21
84.151759
 31
0.0
  0
LINE
  5
DC
100
AcDbEntity
  8
2
370
    50
100
AcDbLine
 10
-96.021363
 20
71.151759
 30
0.0
 11
-90.82521
 21
62.151759
 31
0.0
  0
LINE
  5
DD
100
AcDbEntity
  8
2
370
    50
100
AcDbLine
 10
-87.361109
 20
60.151759
 30
0.0
 11
-76.968804
 21
60.151759
 31
0.0
  0
LINE
  5
DE
100
AcDbEntity
  8
2
370
    50
100
AcDbLine
 10
-73.504702
 20
62.151759
 30
0.0
 11
-68.30855
 21
71.151759
 31
0.0
  0
LINE
  5
DF
100
AcDbEntity
  8
2
370
    50
100
AcDbLine
 10
-73.504702
 20
84.151759
 30
0.0
 11
-68.30855
 21
75.151759
 31
0.0
  0
ARC
  5
E0
100
AcDbEntity
  8
2
370
    50
100
AcDbCircle
 10
-82.164956
 20
73.151759
 30
0.0
 40
14.0
100
AcDbArc
 50
111.786789
 51
128.213211
  0
ARC
  5
E1
100
AcDbEntity
  8
2
370
    50
100
AcDbCircle
 10
-82.164956
 20
73.151759
 30
0.0
 40
14.0
100
AcDbArc
 50
231.786789
 51
248.213211
  0
ARC
  5
E2
100
AcDbEntity
  8
2
370
    50
100
AcDbCircle
 10
-82.164956
 20
73.151759
 30
0.0
 40
14.0
100
AcDbArc
 50
291.786789
 51
308.213211
  0
ARC
  5
E3
100
AcDbEntity
  8
2
370
    50
100
AcDbCircle
 10
-82.164956
 20
73.151759
 30
0.0
 40
14.0
100
AcDbArc
 50
51.786789
 51
68.213211
  0
ARC
  5
E4
100
AcDbEntity
  8
2
370
    50
100
AcDbCircle
 10
-82.164956
 20
73.151759
 30
0.0
 40
14.0
100
AcDbArc
 50
351.786789
 51
353.231552
  0
ARC
  5
E5
100
AcDbEntity
  8
2
370
    50
100
AcDbCircle
 10
-82.164956
 20
73.151759
 30
0.0
 40
14.0
100
AcDbArc
 50
6.768448
 51
8.213211
  0
ARC
  5
E6
100
AcDbEntity
  8
2
370
    50
100
AcDbCircle
 10
-82.164956
 20
73.151759
 30
0.0
 40
14.0
100
AcDbArc
 50
171.786789
 51
173.231552
  0
ARC
  5
E7
100
AcDbEntity
  8
2
370
    50
100
AcDbCircle
 10
-82.164956
 20
73.151759
 30
0.0
 40
14.0
100
AcDbArc
 50
186.768448
 51
188.213211
  0
ARC
  5
E8
100
AcDbEntity
  8
2
370
    50
100
AcDbCircle
 10
-82.164956
 20
73.151759
 30
0.0
 40
10.0
100
AcDbArc
 50
189.497234
 51
350.502766
  0
ARC
  5
E9
100
AcDbEntity
  8
2
370
    50
100
AcDbCircle
 10
-82.164956
 20
73.151759
 30
0.0
 40
10.0
100
AcDbArc
 50
9.497234
 51
170.502766
  0
ARC
  5
EA
100
AcDbEntity
  8
2
370
    50
100
AcDbCircle
 10
-82.164956
 20
73.151759
 30
0.0
 40
9.7
100
AcDbArc
 50
189.793813
 51
350.206187
  0
ARC
  5
EB
100
AcDbEntity
  8
2
370
    50
100
AcDbCircle
 10
-82.164956
 20
73.151759
 30
0.0
 40
9.7
100
AcDbArc
 50
9.793813
 51
170.206187
  0
ARC
  5
EC
100
AcDbEntity
  8
2
370
    50
100
AcDbCircle
 10
-82.164956
 20
73.151759
 30
0.0
 40
7.8
100
AcDbArc
 50
192.212525
 51
347.787475
  0
ARC
  5
ED
100
AcDbEntity
  8
2
370
    50
100
AcDbCircle
 10
-82.164956
 20
73.151759
 30
0.0
 40
7.8
100
AcDbArc
 50
12.212525
 51
167.787475
  0
ARC
  5
EE
100
AcDbEntity
  8
2
370
    50
100
AcDbCircle
 10
-82.164956
 20
73.151759
 30
0.0
 40
7.5
100
AcDbArc
 50
192.709033
 51
347.290967
  0
ARC
  5
EF
100
AcDbEntity
  8
2
370
    50
100
AcDbCircle
 10
-82.164956
 20
73.151759
 30
0.0
 40
7.5
100
AcDbArc
 50
12.709033
 51
167.290967
  0
LINE
  5
F0
100
AcDbEntity
  8
2
370
    25
  6
CENTER
100
AcDbLine
 10
-116.400081
 20
-58.193248
 30
0.0
 11
-118.738794
 21
-74.834054
 31
0.0
  0
DIMENSION
  5
F1
100
AcDbEntity
  8
3
370
    25
100
AcDbDimension
  2
*D0
 10
-5.916935
 20
50.151759
 30
0.0
 11
-11.666935
 21
71.401759
 31
0.0
 70
     1
 71
     0
 72
     0
 41
0.0
 42
0.0
  3
Standard
100
AcDbAlignedDimension
 13
-37.164956
 23
96.151759
 33
0.0
 14
-37.164956
 24
50.151759
 34
0.0
 50
90.0
  0
LWPOLYLINE
  5
F2
100
AcDbEntity
  8
3
370
    25
100
AcDbPolyline
 90
        2
 70
     0
 10
-39.664956
 20
90.811846
 10
-52.800317
 20
103.5376
  0
LINE
  5
F6
100
AcDbEntity
  8
3
370
    25
100
AcDbLine
 10
-41.052444
 20
92.156067
 30
0.0
 11
-41.412627
 21
91.784291
 31
0.0
  0
LINE
  5
F7
100
AcDbEntity
  8
3
370
    25
100
AcDbLine
 10
-41.412627
 20
91.784291
 30
0.0
 11
-39.664956
 21
90.811846
 31
0.0
  0
LINE
  5
F8
100
AcDbEntity
  8
3
370
    25
100
AcDbLine
 10
-39.664956
 20
90.811846
 30
0.0
 11
-40.692261
 21
92.527843
 31
0.0
  0
LINE
  5
F9
100
AcDbEntity
  8
3
370
    25
100
AcDbLine
 10
-40.692261
 20
92.527843
 30
0.0
 11
-41.052444
 21
92.156067
 31
0.0
  0
LINE
  5
FA
100
AcDbEntity
  8
3
370
    50
100
AcDbLine
 10
-59.161151
 20
109.323621
 30
0.0
 11
-57.136252
 21
109.323621
 31
0.0
  0
LINE
  5
FB
100
AcDbEntity
  8
3
370
    50
100
AcDbLine
 10
-59.161151
 20
109.863558
 30
0.0
 11
-56.761271
 21
109.526277
 31
0.0
  0
LINE
  5
FC
100
AcDbEntity
  8
3
370
    50
100
AcDbLine
 10
-57.084065
 20
110.328975
 30
0.0
 11
-59.161151
 21
110.620891
 31
0.0
  0
LINE
  5
FD
100
AcDbEntity
  8
3
370
    50
100
AcDbLine
 10
-59.161151
 20
110.823546
 30
0.0
 11
-56.761271
 21
110.823546
 31
0.0
  0
ARC
  5
FE
100
AcDbEntity
  8
3
370
    50
100
AcDbCircle
 10
-57.136252
 20
111.198528
 30
0.0
 40
0.374981
100
AcDbArc
 50
0.0
 51
90.0
  0
ARC
  5
FF
100
AcDbEntity
  8
3
370
    50
100
AcDbCircle
 10
-57.136252
 20
109.957643
 30
0.0
 40
0.374981
100
AcDbArc
 50
360.0
 51
82.0
  0
ARC
  5
100
100
AcDbEntity
  8
3
370
    50
100
AcDbCircle
 10
-57.136252
 20
108.94864
 30
0.0
 40
0.374981
100
AcDbArc
 50
0.0
 51
90.0
  0
LINE
  5
101
100
AcDbEntity
  8
3
370
    50
100
AcDbLine
 10
-56.011308
 20
111.573509
 30
0.0
 11
-56.011308
 21
110.823546
 31
0.0
  0
LINE
  5
102
100
AcDbEntity
  8
3
370
    50
100
AcDbLine
 10
-56.011308
 20
110.823546
 30
0.0
 11
-54.961361
 21
110.823546
 31
0.0
  0
LINE
  5
103
100
AcDbEntity
  8
3
370
    50
100
AcDbLine
 10
-54.211398
 20
111.198528
 30
0.0
 11
-54.211398
 21
110.223576
 31
0.0
  0
LINE
  5
104
100
AcDbEntity
  8
3
370
    50
100
AcDbLine
 10
-54.961361
 20
110.823546
 30
0.0
 11
-54.961361
 21
110.223576
 31
0.0
  0
LINE
  5
105
100
AcDbEntity
  8
3
370
    50
100
AcDbLine
 10
-56.38629
 20
109.323621
 30
0.0
 11
-55.861316
 21
109.323621
 31
0.0
  0
ARC
  5
106
100
AcDbEntity
  8
3
370
    50
100
AcDbCircle
 10
-55.861316
 20
110.223576
 30
0.0
 40
0.899955
100
AcDbArc
 50
270.0
 51
360.0
  0
ARC
  5
107
100
AcDbEntity
  8
3
370
    50
100
AcDbCircle
 10
-53.081856
 20
111.122154
 30
0.0
 40
1.79991
100
AcDbArc
 50
228.524141
 51
272.241513
  0
ARC
  5
108
100
AcDbEntity
  8
3
370
    50
100
AcDbCircle
 10
-53.081856
 20
111.122154
 30
0.0
 40
2.549873
100
AcDbArc
 50
232.173442
 51
271.582042
  0
LINE
  5
109
100
AcDbEntity
  8
3
370
    50
100
AcDbLine
 10
-53.329263
 20
110.373569
 30
0.0
 11
-52.463281
 21
110.373569
 31
0.0
  0
LINE
  5
10A
100
AcDbEntity
  8
3
370
    50
100
AcDbLine
 10
-52.636477
 20
111.573509
 30
0.0
 11
-53.329263
 21
110.373569
 31
0.0
  0
LINE
  5
10B
100
AcDbEntity
  8
3
370
    50
100
AcDbLine
 10
-52.203486
 20
110.823546
 30
0.0
 11
-52.463281
 21
110.373569
 31
0.0
  0
LINE
  5
10C
100
AcDbEntity
  8
3
370
    50
100
AcDbLine
 10
-52.203486
 20
110.823546
 30
0.0
 11
-51.58653
 21
110.823546
 31
0.0
  0
ARC
  5
10D
100
AcDbEntity
  8
3
370
    50
100
AcDbCircle
 10
-51.211548
 20
111.198528
 30
0.0
 40
0.374981
100
AcDbArc
 50
0.0
 51
90.0
  0
LINE
  5
10E
100
AcDbEntity
  8
3
370
    50
100
AcDbLine
 10
-52.636477
 20
109.323621
 30
0.0
 11
-52.486485
 21
109.323621
 31
0.0
  0
ARC
  5
10F
100
AcDbEntity
  8
3
370
    50
100
AcDbCircle
 10
-52.486485
 20
110.223576
 30
0.0
 40
1.649918
100
AcDbArc
 50
270.0
 51
360.0
  0
LINE
  5
110
100
AcDbEntity
  8
3
370
    50
100
AcDbLine
 10
-52.036507
 20
109.773599
 30
0.0
 11
-51.707101
 21
109.773599
 31
0.0
  0
LINE
  5
111
100
AcDbEntity
  8
3
370
    50
100
AcDbLine
 10
-52.036507
 20
110.523561
 30
0.0
 11
-51.58653
 21
110.523561
 31
0.0
  0
LINE
  5
112
100
AcDbEntity
  8
3
370
    50
100
AcDbLine
 10
-52.036507
 20
109.773599
 30
0.0
 11
-52.036507
 21
110.523561
 31
0.0
  0
LINE
  5
113
100
AcDbEntity
  8
3
370
    50
100
AcDbLine
 10
-51.58653
 20
110.823546
 30
0.0
 11
-51.58653
 21
110.523561
 31
0.0
  0
ARC
  5
114
100
AcDbEntity
  8
3
370
    50
100
AcDbCircle
 10
-52.486485
 20
110.223576
 30
0.0
 40
0.899955
100
AcDbArc
 50
270.0
 51
330.0
  0
LINE
  5
115
100
AcDbEntity
  8
3
370
    50
100
AcDbLine
 10
-50.461586
 20
110.823546
 30
0.0
 11
-48.661676
 21
110.823546
 31
0.0
  0
LINE
  5
116
100
AcDbEntity
  8
3
370
    50
100
AcDbLine
 10
-50.461586
 20
109.323621
 30
0.0
 11
-49.036657
 21
109.323621
 31
0.0
  0
ARC
  5
117
100
AcDbEntity
  8
3
370
    50
100
AcDbCircle
 10
-49.036657
 20
111.198528
 30
0.0
 40
0.374981
100
AcDbArc
 50
0.0
 51
90.0
  0
ARC
  5
118
100
AcDbEntity
  8
3
370
    50
100
AcDbCircle
 10
-49.036657
 20
108.94864
 30
0.0
 40
0.374981
100
AcDbArc
 50
0.0
 51
90.0
  0
ARC
  5
119
100
AcDbEntity
  8
3
370
    50
100
AcDbCircle
 10
-55.861316
 20
110.223576
 30
0.0
 40
1.649918
100
AcDbArc
 50
270.0
 51
317.461176
  0
ARC
  5
11A
100
AcDbEntity
  8
3
370
    50
100
AcDbCircle
 10
-55.861316
 20
110.223576
 30
0.0
 40
1.649918
100
AcDbArc
 50
344.17338
 51
360.0
  0
CIRCLE
  5
11B
100
AcDbEntity
  8
3
370
    50
100
AcDbCircle
 10
-53.536432
 20
111.34852
 30
0.0
 40
0.224989
  0
CIRCLE
  5
11C
100
AcDbEntity
  8
3
370
    50
100
AcDbCircle
 10
-53.98641
 20
111.34852
 30
0.0
 40
0.224989
  0
LINE
  5
11D
100
AcDbEntity
  8
3
370
    50
100
AcDbLine
 10
-56.38629
 20
109.323621
 30
0.0
 11
-56.38629
 21
108.573659
 31
0.0
  0
LINE
  5
11E
100
AcDbEntity
  8
3
370
    50
100
AcDbLine
 10
-53.011458
 20
109.323621
 30
0.0
 11
-53.011458
 21
108.573659
 31
0.0
  0
LINE
  5
11F
100
AcDbEntity
  8
3
370
    50
100
AcDbLine
 10
-52.636477
 20
109.336209
 30
0.0
 11
-52.636477
 21
108.573659
 31
0.0
  0
LINE
  5
120
100
AcDbEntity
  8
3
370
    50
100
AcDbLine
 10
-50.836567
 20
111.198528
 30
0.0
 11
-50.836567
 21
110.223576
 31
0.0
  0
LINE
  5
121
100
AcDbEntity
  8
3
370
    50
100
AcDbLine
 10
-59.161151
 20
111.573509
 30
0.0
 11
-57.136252
 21
111.573509
 31
0.0
  0
LINE
  5
122
100
AcDbEntity
  8
3
370
    50
100
AcDbLine
 10
-56.011308
 20
111.573509
 30
0.0
 11
-54.58638
 21
111.573509
 31
0.0
  0
LINE
  5
123
100
AcDbEntity
  8
3
370
    50
100
AcDbLine
 10
-52.636477
 20
111.573509
 30
0.0
 11
-51.211548
 21
111.573509
 31
0.0
  0
LINE
  5
124
100
AcDbEntity
  8
3
370
    50
100
AcDbLine
 10
-50.461586
 20
111.573509
 30
0.0
 11
-49.036657
 21
111.573509
 31
0.0
  0
LINE
  5
125
100
AcDbEntity
  8
3
370
    50
100
AcDbLine
 10
-50.461586
 20
108.573659
 30
0.0
 11
-48.661676
 21
108.573659
 31
0.0
  0
LINE
  5
126
100
AcDbEntity
  8
3
370
    50
100
AcDbLine
 10
-52.636477
 20
108.573659
 30
0.0
 11
-52.486485
 21
108.573659
 31
0.0
  0
LINE
  5
127
100
AcDbEntity
  8
3
370
    50
100
AcDbLine
 10
-59.161151
 20
108.573659
 30
0.0
 11
-56.761271
 21
108.573659
 31
0.0
  0
LINE
  5
128
100
AcDbEntity
  8
3
370
    50
100
AcDbLine
 10
-56.761271
 20
110.823546
 30
0.0
 11
-56.761271
 21
111.198528
 31
0.0
  0
LINE
  5
129
100
AcDbEntity
  8
3
370
    50
100
AcDbLine
 10
-56.761271
 20
108.573659
 30
0.0
 11
-56.761271
 21
108.94864
 31
0.0
  0
LINE
  5
12A
100
AcDbEntity
  8
3
370
    50
100
AcDbLine
 10
-56.761271
 20
109.526277
 30
0.0
 11
-56.761271
 21
109.957643
 31
0.0
  0
LINE
  5
12B
100
AcDbEntity
  8
3
370
    50
100
AcDbLine
 10
-59.161151
 20
108.573659
 30
0.0
 11
-59.161151
 21
109.323621
 31
0.0
  0
LINE
  5
12C
100
AcDbEntity
  8
3
370
    50
100
AcDbLine
 10
-59.161151
 20
109.863558
 30
0.0
 11
-59.161151
 21
110.620891
 31
0.0
  0
LINE
  5
12D
100
AcDbEntity
  8
3
370
    50
100
AcDbLine
 10
-59.161151
 20
110.823546
 30
0.0
 11
-59.161151
 21
111.573509
 31
0.0
  0
LINE
  5
12E
100
AcDbEntity
  8
3
370
    50
100
AcDbLine
 10
-48.661676
 20
110.823546
 30
0.0
 11
-48.661676
 21
111.198528
 31
0.0
  0
LINE
  5
12F
100
AcDbEntity
  8
3
370
    50
100
AcDbLine
 10
-50.461586
 20
108.573659
 30
0.0
 11
-50.461586
 21
109.323621
 31
0.0
  0
LINE
  5
130
100
AcDbEntity
  8
3
370
    50
100
AcDbLine
 10
-50.461586
 20
110.823546
 30
0.0
 11
-50.461586
 21
111.573509
 31
0.0
  0
LINE
  5
131
100
AcDbEntity
  8
3
370
    50
100
AcDbLine
 10
-56.38629
 20
108.573659
 30
0.0
 11
-55.861316
 21
108.573659
 31
0.0
  0
LINE
  5
132
100
AcDbEntity
  8
3
370
    50
100
AcDbLine
 10
-53.165651
 20
108.573659
 30
0.0
 11
-53.011458
 21
108.573659
 31
0.0
  0
ARC
  5
133
100
AcDbEntity
  8
3
370
    50
100
AcDbCircle
 10
-54.58638
 20
111.198528
 30
0.0
 40
0.374981
100
AcDbArc
 50
0.0
 51
90.0
  0
LINE
  5
134
100
AcDbEntity
  8
3
370
    50
100
AcDbLine
 10
-56.711413
 20
113.702675
 30
0.0
 11
-56.711413
 21
115.277675
 31
0.0
  0
LINE
  5
135
100
AcDbEntity
  8
3
370
    50
100
AcDbLine
 10
-56.361413
 20
115.277675
 30
0.0
 11
-56.361413
 21
113.702675
 31
0.0
  0
LINE
  5
136
100
AcDbEntity
  8
3
370
    50
100
AcDbLine
 10
-56.361413
 20
115.277675
 30
0.0
 11
-56.711413
 21
115.277675
 31
0.0
  0
LINE
  5
137
100
AcDbEntity
  8
3
370
    50
100
AcDbLine
 10
-56.361413
 20
113.702675
 30
0.0
 11
-56.711413
 21
113.702675
 31
0.0
  0
LINE
  5
138
100
AcDbEntity
  8
3
370
    50
100
AcDbLine
 10
-57.600609
 20
113.425979
 30
0.0
 11
-57.77385
 21
113.252738
 31
0.0
  0
LINE
  5
139
100
AcDbEntity
  8
3
370
    50
100
AcDbLine
 10
-55.661413
 20
115.277675
 30
0.0
 11
-55.451413
 21
115.277675
 31
0.0
  0
LINE
  5
13A
100
AcDbEntity
  8
3
370
    50
100
AcDbLine
 10
-56.098913
 20
113.702675
 30
0.0
 11
-55.818913
 21
113.702675
 31
0.0
  0
LINE
  5
13B
100
AcDbEntity
  8
3
370
    50
100
AcDbLine
 10
-56.098913
 20
113.702675
 30
0.0
 11
-56.098913
 21
113.982675
 31
0.0
  0
LINE
  5
13C
100
AcDbEntity
  8
3
370
    50
100
AcDbLine
 10
-55.451413
 20
114.997675
 30
0.0
 11
-55.451413
 21
115.277675
 31
0.0
  0
LINE
  5
13D
100
AcDbEntity
  8
3
370
    50
100
AcDbLine
 10
-55.608913
 20
114.997675
 30
0.0
 11
-55.451413
 21
114.997675
 31
0.0
  0
LINE
  5
13E
100
AcDbEntity
  8
3
370
    50
100
AcDbLine
 10
-55.959328
 20
114.519779
 30
0.0
 11
-55.740331
 21
114.316149
 31
0.0
  0
ARC
  5
13F
100
AcDbEntity
  8
3
370
    50
100
AcDbCircle
 10
-55.608913
 20
114.822675
 30
0.0
 40
0.175
100
AcDbArc
 50
90.0
 51
227.082289
  0
LINE
  5
140
100
AcDbEntity
  8
3
370
    50
100
AcDbLine
 10
-55.728079
 20
114.694516
 30
0.0
 11
-55.509082
 21
114.490886
 31
0.0
  0
ARC
  5
141
100
AcDbEntity
  8
3
370
    50
100
AcDbCircle
 10
-55.818913
 20
114.157675
 30
0.0
 40
0.455
100
AcDbArc
 50
270.0
 51
47.082289
  0
ARC
  5
142
100
AcDbEntity
  8
3
370
    50
100
AcDbCircle
 10
-55.871413
 20
114.175175
 30
0.0
 40
0.1925
100
AcDbArc
 50
270.0
 51
47.082289
  0
ARC
  5
143
100
AcDbEntity
  8
3
370
    50
100
AcDbCircle
 10
-55.661413
 20
114.840175
 30
0.0
 40
0.4375
100
AcDbArc
 50
90.0
 51
227.082289
  0
LINE
  5
144
100
AcDbEntity
  8
3
370
    50
100
AcDbLine
 10
-55.871413
 20
113.982675
 30
0.0
 11
-56.098913
 21
113.982675
 31
0.0
  0
LINE
  5
145
100
AcDbEntity
  8
3
370
    50
100
AcDbLine
 10
-57.341413
 20
114.325675
 30
0.0
 11
-57.341413
 21
115.277675
 31
0.0
  0
LINE
  5
146
100
AcDbEntity
  8
3
370
    50
100
AcDbLine
 10
-57.026413
 20
114.325675
 30
0.0
 11
-57.026413
 21
115.277675
 31
0.0
  0
LINE
  5
147
100
AcDbEntity
  8
3
370
    50
100
AcDbLine
 10
-57.026413
 20
115.277675
 30
0.0
 11
-57.341413
 21
115.277675
 31
0.0
  0
ARC
  5
148
100
AcDbEntity
  8
3
370
    50
100
AcDbCircle
 10
-57.649413
 20
114.325675
 30
0.0
 40
0.623
100
AcDbArc
 50
190.22669
 51
360.0
  0
ARC
  5
149
100
AcDbEntity
  8
3
370
    50
100
AcDbCircle
 10
-57.684413
 20
114.325675
 30
0.0
 40
0.343
100
AcDbArc
 50
190.573586
 51
360.0
  0
ARC
  5
14A
100
AcDbEntity
  8
3
370
    50
100
AcDbCircle
 10
-56.536413
 20
114.490175
 30
0.0
 40
1.505
100
AcDbArc
 50
225.0
 51
188.720397
  0
ARC
  5
14B
100
AcDbEntity
  8
3
370
    50
100
AcDbCircle
 10
-56.536413
 20
114.490175
 30
0.0
 40
1.75
100
AcDbArc
 50
225.0
 51
189.066832
  0
LINE
  5
14C
100
AcDbEntity
  8
3
370
    50
100
AcDbLine
 10
-58.024016
 20
114.261998
 30
0.0
 11
-58.021589
 21
114.262735
 31
0.0
  0
LINE
  5
14D
100
AcDbEntity
  8
3
370
    50
100
AcDbLine
 10
-58.262516
 20
114.215065
 30
0.0
 11
-58.264548
 21
114.214398
 31
0.0
  0
HATCH
  5
14E
100
AcDbEntity
  8
3
370
    25
100
AcDbHatch
 10
0.0
 20
0.0
 30
0.0
210
0.0
220
0.0
230
1.0
  2
_U
 70
     0
 71
     1
 91
        1
 92
        1
 93
        4
 72
     1
 10
-56.361412999999999
 20
115.277675
 11
-56.361412999999999
 21
113.702675
 72
     1
 10
-56.361412999999999
 20
113.702675
 11
-56.711413
 21
113.702675
 72
     1
 10
-56.711413
 20
113.702675
 11
-56.711413
 21
115.277675
 72
     1
 10
-56.711413
 20
115.277675
 11
-56.361412999999999
 21
115.277675
 97
        4
330
0
330
0
330
0
330
0
 75
     0
 76
     0
 52
45.0
 41
1.0
 77
     0
 78
     1
 53
45.0
 43
0.0
 44
0.0
 45
-0.141421
 46
0.141421
 79
     0
 98
        1
 10
0.0
 20
0.0
  0
LINE
  5
14F
100
AcDbEntity
  8
3
370
    25
100
AcDbLine
 10
-55.652459
 20
113.734215
 30
0.0
 11
-55.395454
 21
113.991221
 31
0.0
  0
LINE
  5
150
100
AcDbEntity
  8
3
370
    25
100
AcDbLine
 10
-55.966842
 20
113.702675
 30
0.0
 11
-55.382642
 21
114.286875
 31
0.0
  0
LINE
  5
151
100
AcDbEntity
  8
3
370
    25
100
AcDbLine
 10
-56.098913
 20
113.853446
 30
0.0
 11
-55.969685
 21
113.982675
 31
0.0
  0
LINE
  5
152
100
AcDbEntity
  8
3
370
    25
100
AcDbLine
 10
-55.696595
 20
114.255765
 30
0.0
 11
-55.485294
 21
114.467066
 31
0.0
  0
LINE
  5
153
100
AcDbEntity
  8
3
370
    25
100
AcDbLine
 10
-55.832942
 20
114.402261
 30
0.0
 11
-55.630976
 21
114.604227
 31
0.0
  0
LINE
  5
154
100
AcDbEntity
  8
3
370
    25
100
AcDbLine
 10
-55.451413
 20
115.066632
 30
0.0
 11
-55.520371
 21
114.997675
 31
0.0
  0
LINE
  5
155
100
AcDbEntity
  8
3
370
    25
100
AcDbLine
 10
-55.768089
 20
114.749956
 30
0.0
 11
-55.978892
 21
114.539153
 31
0.0
  0
LINE
  5
156
100
AcDbEntity
  8
3
370
    25
100
AcDbLine
 10
-56.081818
 20
114.71907
 30
0.0
 11
-55.523213
 21
115.277675
 31
0.0
  0
LINE
  5
157
100
AcDbEntity
  8
3
370
    25
100
AcDbLine
 10
-56.057273
 20
115.026458
 30
0.0
 11
-55.847696
 21
115.236034
 31
0.0
  0
LINE
  5
158
100
AcDbEntity
  8
3
370
    25
100
AcDbLine
 10
-57.331806
 20
112.931377
 30
0.0
 11
-57.149248
 21
113.113935
 31
0.0
  0
LINE
  5
159
100
AcDbEntity
  8
3
370
    25
100
AcDbLine
 10
-55.160182
 20
115.103001
 30
0.0
 11
-54.977616
 21
115.285567
 31
0.0
  0
LINE
  5
15A
100
AcDbEntity
  8
3
370
    25
100
AcDbLine
 10
-57.134713
 20
112.845627
 30
0.0
 11
-56.941724
 21
113.038616
 31
0.0
  0
LINE
  5
15B
100
AcDbEntity
  8
3
370
    25
100
AcDbLine
 10
-55.084863
 20
114.895477
 30
0.0
 11
-54.891866
 21
115.088475
 31
0.0
  0
LINE
  5
15C
100
AcDbEntity
  8
3
370
    25
100
AcDbLine
 10
-56.915721
 20
112.781776
 30
0.0
 11
-56.705461
 21
112.992037
 31
0.0
  0
LINE
  5
15D
100
AcDbEntity
  8
3
370
    25
100
AcDbLine
 10
-55.038284
 20
114.659214
 30
0.0
 11
-54.828015
 21
114.869483
 31
0.0
  0
LINE
  5
15E
100
AcDbEntity
  8
3
370
    25
100
AcDbLine
 10
-56.669418
 20
112.745236
 30
0.0
 11
-56.428846
 21
112.985808
 31
0.0
  0
LINE
  5
15F
100
AcDbEntity
  8
3
370
    25
100
AcDbLine
 10
-55.032055
 20
114.382599
 30
0.0
 11
-54.791475
 21
114.62318
 31
0.0
  0
LINE
  5
160
100
AcDbEntity
  8
3
370
    25
100
AcDbLine
 10
-56.385082
 20
112.74673
 30
0.0
 11
-56.079583
 21
113.052229
 31
0.0
  0
LINE
  5
161
100
AcDbEntity
  8
3
370
    25
100
AcDbLine
 10
-55.098476
 20
114.033336
 30
0.0
 11
-54.792969
 21
114.338843
 31
0.0
  0
LINE
  5
162
100
AcDbEntity
  8
3
370
    25
100
AcDbLine
 10
-56.035604
 20
112.813365
 30
0.0
 11
-54.859604
 21
113.989365
 31
0.0
  0
LINE
  5
163
100
AcDbEntity
  8
3
370
    25
100
AcDbLine
 10
-55.439533
 20
113.126593
 30
0.0
 11
-55.172832
 21
113.393294
 31
0.0
  0
LINE
  5
164
100
AcDbEntity
  8
3
370
    25
100
AcDbLine
 10
-57.510016
 20
113.036009
 30
0.0
 11
-57.333542
 21
113.212484
 31
0.0
  0
LINE
  5
165
100
AcDbEntity
  8
3
370
    25
100
AcDbLine
 10
-55.258731
 20
115.287295
 30
0.0
 11
-55.082248
 21
115.463778
 31
0.0
  0
LINE
  5
166
100
AcDbEntity
  8
3
370
    25
100
AcDbLine
 10
-57.671035
 20
113.157833
 30
0.0
 11
-57.497427
 21
113.331441
 31
0.0
  0
LINE
  5
167
100
AcDbEntity
  8
3
370
    25
100
AcDbLine
 10
-55.377688
 20
115.45118
 30
0.0
 11
-55.204072
 21
115.624796
 31
0.0
  0
LINE
  5
168
100
AcDbEntity
  8
3
370
    25
100
AcDbLine
 10
-57.340839
 20
113.770872
 30
0.0
 11
-57.107971
 21
114.00374
 31
0.0
  0
LINE
  5
169
100
AcDbEntity
  8
3
370
    25
100
AcDbLine
 10
-55.515759
 20
115.595952
 30
0.0
 11
-55.34227
 21
115.769441
 31
0.0
  0
LINE
  5
16A
100
AcDbEntity
  8
3
370
    25
100
AcDbLine
 10
-57.703059
 20
113.691495
 30
0.0
 11
-57.026413
 21
114.36814
 31
0.0
  0
LINE
  5
16B
100
AcDbEntity
  8
3
370
    25
100
AcDbLine
 10
-55.67276
 20
115.721794
 30
0.0
 11
-55.496713
 21
115.897841
 31
0.0
  0
LINE
  5
16C
100
AcDbEntity
  8
3
370
    25
100
AcDbLine
 10
-57.924255
 20
113.753141
 30
0.0
 11
-57.694571
 21
113.982825
 31
0.0
  0
LINE
  5
16D
100
AcDbEntity
  8
3
370
    25
100
AcDbLine
 10
-57.341413
 20
114.335983
 30
0.0
 11
-57.026413
 21
114.650983
 31
0.0
  0
LINE
  5
16E
100
AcDbEntity
  8
3
370
    25
100
AcDbLine
 10
-55.849565
 20
115.827831
 30
0.0
 11
-55.667932
 21
116.009464
 31
0.0
  0
LINE
  5
16F
100
AcDbEntity
  8
3
370
    25
100
AcDbLine
 10
-58.089196
 20
113.871043
 30
0.0
 11
-57.900743
 21
114.059497
 31
0.0
  0
LINE
  5
170
100
AcDbEntity
  8
3
370
    25
100
AcDbLine
 10
-57.341413
 20
114.618826
 30
0.0
 11
-57.026413
 21
114.933826
 31
0.0
  0
LINE
  5
171
100
AcDbEntity
  8
3
370
    25
100
AcDbLine
 10
-56.048373
 20
115.911866
 30
0.0
 11
-55.857236
 21
116.103004
 31
0.0
  0
LINE
  5
172
100
AcDbEntity
  8
3
370
    25
100
AcDbLine
 10
-58.207503
 20
114.035579
 30
0.0
 11
-58.013638
 21
114.229444
 31
0.0
  0
LINE
  5
173
100
AcDbEntity
  8
3
370
    25
100
AcDbLine
 10
-57.341413
 20
114.901668
 30
0.0
 11
-57.026413
 21
115.216668
 31
0.0
  0
LINE
  5
174
100
AcDbEntity
  8
3
370
    25
100
AcDbLine
 10
-56.273521
 20
115.96956
 30
0.0
 11
-56.067031
 21
116.176051
 31
0.0
  0
LINE
  5
175
100
AcDbEntity
  8
3
370
    25
100
AcDbLine
 10
-58.270585
 20
114.255339
 30
0.0
 11
-58.038418
 21
114.487507
 31
0.0
  0
LINE
  5
176
100
AcDbEntity
  8
3
370
    25
100
AcDbLine
 10
-57.341413
 20
115.184511
 30
0.0
 11
-57.24825
 21
115.277675
 31
0.0
  0
LINE
  5
177
100
AcDbEntity
  8
3
370
    25
100
AcDbLine
 10
-56.533754
 20
115.992171
 30
0.0
 11
-56.301578
 21
116.224347
 31
0.0
  0
LINE
  5
178
100
AcDbEntity
  8
3
370
    25
100
AcDbLine
 10
-58.286112
 20
114.522655
 30
0.0
 11
-58.00467
 21
114.804097
 31
0.0
  0
LINE
  5
179
100
AcDbEntity
  8
3
370
    25
100
AcDbLine
 10
-56.850344
 20
115.958423
 30
0.0
 11
-56.568894
 21
116.239873
 31
0.0
  0
LINE
  5
17A
100
AcDbEntity
  8
3
370
    25
100
AcDbLine
 10
-58.250959
 20
114.840651
 30
0.0
 11
-57.814348
 21
115.277262
 31
0.0
  0
LINE
  5
17B
100
AcDbEntity
  8
3
370
    25
100
AcDbLine
 10
-57.32351
 20
115.7681
 30
0.0
 11
-56.88689
 21
116.20472
 31
0.0
  0
LINE
  5
17C
100
AcDbEntity
  8
3
370
    25
100
AcDbLine
 10
-58.101668
 20
115.272785
 30
0.0
 11
-57.319024
 21
116.055429
 31
0.0
  0
LINE
  5
17D
100
AcDbEntity
  8
3
370
    50
100
AcDbLine
 10
-48.661676
 20
108.94864
 30
0.0
 11
-48.661676
 21
108.573659
 31
0.0
  0
LINE
  5
17E
100
AcDbEntity
  8
3
370
    50
100
AcDbLine
 10
-52.686413
 20
115.073508
 30
0.0
 11
-53.386413
 21
115.073508
 31
0.0
  0
LINE
  5
17F
100
AcDbEntity
  8
3
370
    50
100
AcDbLine
 10
-53.036413
 20
115.073508
 30
0.0
 11
-53.036413
 21
113.440175
 31
0.0
  0
LINE
  5
180
100
AcDbEntity
  8
3
370
    50
100
AcDbLine
 10
-50.236413
 20
115.073508
 30
0.0
 11
-49.536413
 21
115.073508
 31
0.0
  0
LINE
  5
181
100
AcDbEntity
  8
3
370
    50
100
AcDbLine
 10
-51.636413
 20
115.073508
 30
0.0
 11
-52.336413
 21
115.073508
 31
0.0
  0
LINE
  5
182
100
AcDbEntity
  8
3
370
    50
100
AcDbLine
 10
-51.986413
 20
115.073508
 30
0.0
 11
-51.574984
 21
112.740175
 31
0.0
  0
LINE
  5
183
100
AcDbEntity
  8
3
370
    50
100
AcDbLine
 10
-51.574984
 20
112.740175
 30
0.0
 11
-50.936413
 21
114.494632
 31
0.0
  0
LINE
  5
184
100
AcDbEntity
  8
3
370
    50
100
AcDbLine
 10
-50.297843
 20
112.740175
 30
0.0
 11
-50.936413
 21
114.494632
 31
0.0
  0
LINE
  5
185
100
AcDbEntity
  8
3
370
    50
100
AcDbLine
 10
-49.886413
 20
115.073508
 30
0.0
 11
-50.297843
 21
112.740175
 31
0.0
  0
ARC
  5
186
100
AcDbEntity
  8
3
370
    50
100
AcDbCircle
 10
-53.736413
 20
113.440175
 30
0.0
 40
0.7
100
AcDbArc
 50
180.0
 51
360.0
  0
LINE
  5
187
100
AcDbEntity
  8
3
370
    50
100
AcDbLine
 10
-53.211413
 20
105.073776
 30
0.0
 11
-53.211413
 21
107.407109
 31
0.0
  0
LINE
  5
188
100
AcDbEntity
  8
3
370
    50
100
AcDbLine
 10
-54.611413
 20
105.073776
 30
0.0
 11
-54.611413
 21
107.407109
 31
0.0
  0
LINE
  5
189
100
AcDbEntity
  8
3
370
    50
100
AcDbLine
 10
-54.961413
 20
105.073776
 30
0.0
 11
-54.261413
 21
105.073776
 31
0.0
  0
LINE
  5
18A
100
AcDbEntity
  8
3
370
    50
100
AcDbLine
 10
-53.561413
 20
105.073776
 30
0.0
 11
-52.861413
 21
105.073776
 31
0.0
  0
LINE
  5
18B
100
AcDbEntity
  8
3
370
    50
100
AcDbLine
 10
-53.211413
 20
107.407109
 30
0.0
 11
-53.911413
 21
106.194673
 31
0.0
  0
LINE
  5
18C
100
AcDbEntity
  8
3
370
    50
100
AcDbLine
 10
-54.611413
 20
107.407109
 30
0.0
 11
-53.911413
 21
106.194673
 31
0.0
  0
TEXT
  5
18D
100
AcDbEntity
  8
3
370
    50
100
AcDbText
 10
-19.462252
 20
-1.499982
 30
0.0
 40
3.5
  1
ＰＪ１／２
 72
     5
 11
-2.662252
 21
-1.499982
 31
0.0
100
AcDbText
  0
TEXT
  5
18E
100
AcDbEntity
  8
3
370
    50
100
AcDbText
 10
-22.323902
 20
-6.68265
 30
0.0
 40
3.5
  1
（給水栓ネジ）
 72
     5
 11
1.476098
 21
-6.68265
 31
0.0
100
AcDbText
  0
LWPOLYLINE
  5
18F
100
AcDbEntity
  8
3
370
    25
100
AcDbPolyline
 90
        3
 70
     0
 10
-33.182056
 20
-28.161711
 10
-23.311025
 20
-2.238695
 10
1.204601
 20
-2.238695
  0
LINE
  5
194
100
AcDbEntity
  8
3
370
    25
100
AcDbLine
 10
-32.494594
 20
-26.356317
 30
0.0
 11
-32.978347
 21
-26.172112
 31
0.0
  0
LINE
  5
195
100
AcDbEntity
  8
3
370
    25
100
AcDbLine
 10
-32.978347
 20
-26.172112
 30
0.0
 11
-33.182056
 21
-28.161711
 31
0.0
  0
LINE
  5
196
100
AcDbEntity
  8
3
370
    25
100
AcDbLine
 10
-33.182056
 20
-28.161711
 30
0.0
 11
-32.01084
 21
-26.540522
 31
0.0
  0
LINE
  5
197
100
AcDbEntity
  8
3
370
    25
100
AcDbLine
 10
-32.01084
 20
-26.540522
 30
0.0
 11
-32.494594
 21
-26.356317
 31
0.0
  0
DIMENSION
  5
198
100
AcDbEntity
  8
3
370
    25
100
AcDbDimension
  2
*D1
 10
-23.165203
 20
-81.805534
 30
0.0
 11
-30.165203
 21
-79.555534
 31
0.0
 71
     0
 72
     0
 41
0.0
 42
0.0
  3
Standard
100
AcDbAlignedDimension
 13
-37.165203
 23
-61.532423
 33
0.0
 14
-23.165203
 24
-48.009923
 34
0.0
100
AcDbRotatedDimension
  0
DIMENSION
  5
199
100
AcDbEntity
  8
3
370
    25
100
AcDbDimension
  2
*D2
 10
-37.165203
 20
-81.805534
 30
0.0
 11
-59.665203
 21
-79.555534
 31
0.0
 71
     0
 72
     0
 41
0.0
 42
0.0
  3
Standard
100
AcDbAlignedDimension
 13
-82.165203
 23
-70.404953
 33
0.0
 14
-37.165203
 24
-61.532423
 34
0.0
100
AcDbRotatedDimension
  0
DIMENSION
  5
19A
100
AcDbEntity
  8
3
370
    25
100
AcDbDimension
  2
*D3
 10
-154.321243
 20
-38.732423
 30
0.0
 11
-158.321243
 21
-51.232423
 31
0.0
 71
     0
 72
     0
 41
0.0
 42
0.0
  3
Standard
100
AcDbAlignedDimension
 13
-117.178776
 23
-63.732423
 33
0.0
 14
-128.569759
 24
-38.732423
 34
0.0
 50
90.0
100
AcDbRotatedDimension
  0
TEXT
  5
19B
100
AcDbEntity
  8
3
370
    50
100
AcDbText
 10
-103.171989
 20
-81.305534
 30
0.0
 40
3.5
  1
３５
 72
     5
 11
-96.871989
 21
-81.305534
 31
0.0
100
AcDbText
  0
DIMENSION
  5
19C
100
AcDbEntity
  8
3
370
    25
100
AcDbDimension
  2
*D4
 10
-82.165203
 20
-81.805534
 30
0.0
 11
-99.671989
 21
-79.805534
 31
0.0
 71
     0
 72
     0
 41
0.0
 42
0.0
  3
Standard
100
AcDbAlignedDimension
 13
-117.178776
 23
-63.732423
 33
0.0
 14
-82.165203
 24
-71.99028
 34
0.0
100
AcDbRotatedDimension
  0
TEXT
  5
19D
100
AcDbEntity
  8
3
370
    50
100
AcDbText
 10
145.584534
 20
-119.606865
 30
0.0
 40
3.0
  1
１　１
 72
     5
 11
153.984534
 21
-119.606865
 31
0.0
100
AcDbText
  0
TEXT
  5
19E
100
AcDbEntity
  8
3
370
    50
100
AcDbText
 10
34.189095
 20
-113.987549
 30
0.0
 40
3.0
  1
横水栓　（共用）
 72
     5
 11
57.589095
 21
-113.987549
 31
0.0
100
AcDbText
  0
TEXT
  5
19F
100
AcDbEntity
  8
3
370
    50
100
AcDbText
 10
33.988163
 20
-118.137993
 30
0.0
 40
3.0
  1
Ｋ１３－１９
 72
     5
 11
51.388163
 21
-118.137993
 31
0.0
100
AcDbText
  0
TEXT
  5
1A0
100
AcDbEntity
  8
3
370
    50
100
AcDbText
 10
172.579391
 20
-127.937538
 30
0.0
 40
3.0
  1
０９　１１　２０
 72
     5
 11
195.979391
 21
-127.937538
 31
0.0
100
AcDbText
  0
TEXT
  5
1A1
100
AcDbEntity
  8
3
370
    50
100
AcDbText
 10
169.279343
 20
-136.092743
 30
0.0
 40
3.0
  1
５０１９００
 72
     5
 11
186.679343
 21
-136.092743
 31
0.0
100
AcDbText
  0
TEXT
  5
1A2
100
AcDbEntity
  8
3
370
    50
100
AcDbText
 10
116.039291
 20
-135.872574
 30
0.0
 40
3.0
  1
外観寸法図
 72
     5
 11
130.439291
 21
-135.872574
 31
0.0
100
AcDbText
  0
DIMENSION
  5
1A3
100
AcDbEntity
  8
3
370
    25
100
AcDbDimension
  2
*D5
 10
-117.178776
 20
-72.507813
 30
0.0
 11
-117.157402
 21
-74.63037
 31
0.0
 70
     2
 71
     0
 72
     0
 41
0.0
 42
0.0
  3
Standard
100
AcDb2LineAngularDimension
 13
-118.738794
 23
-74.834054
 33
0.0
 14
-117.178776
 24
-63.733947
 34
0.0
 15
-117.178776
 25
-63.733947
 35
0.0
 16
-118.020915
 26
-75.777107
 36
0.0
1001
ACAD
1000
DSTYLE
1002
{
1070
   275
1070
     0
1070
   179
1070
     0
1002
}
  0
TEXT
  5
1A4
100
AcDbEntity
  8
3
370
    50
100
AcDbText
 10
-154.821243
 20
-5.747649
 30
0.0
 40
3.5
  1
７３
 50
90.0
 72
     5
 11
-154.821243
 21
0.552351
 31
0.0
100
AcDbText
  0
DIMENSION
  5
1A5
100
AcDbEntity
  8
3
370
    25
100
AcDbDimension
  2
*D6
 10
-154.321243
 20
34.237125
 30
0.0
 11
-156.821243
 21
-2.247649
 31
0.0
 71
     0
 72
     0
 41
0.0
 42
0.0
  3
Standard
100
AcDbAlignedDimension
 13
-128.569759
 23
-38.732423
 33
0.0
 14
-96.250153
 24
34.237125
 34
0.0
 50
90.0
100
AcDbRotatedDimension
  0
ENDSEC
  0
SECTION
  2
OBJECTS
  0
DICTIONARY
  5
1F8
100
AcDbDictionary
280
     0
281
     1
  3
ACAD_GROUP
350
1F9
  3
ACAD_MLINESTYLE
350
1FA
  0
DICTIONARY
  5
1F9
102
{ACAD_REACTORS
330
1F8
102
}
100
AcDbDictionary
280
     0
281
     1
  0
DICTIONARY
  5
1FA
102
{ACAD_REACTORS
330
1F8
102
}
100
AcDbDictionary
280
     0
281
     1
  3
Standard
350
1FB
  0
MLINESTYLE
  5
1FB
102
{ACAD_REACTORS
330
1FA
102
}
100
AcDbMlineStyle
  2
Standard
 70
     0
  3

 62
     0
 51
90.0
 52
90.0
 71
     2
 49
0.5
 62
   256
  6
ByLayer
 49
-0.5
 62
   256
  6
ByLayer
  0
ENDSEC
  0
EOF
