  0
SECTION
  2
HEADER
  9
$ACADVER
  1
AC1015
  9
$ACADMAINTVER
 70
     6
  9
$DWGCODEPAGE
  3
ANSI_932
  9
$INSBASE
 10
0.0
 20
0.0
 30
0.0
  9
$EXTMIN
 10
-420.5
 20
-297.0
 30
1.000000E+20
  9
$EXTMAX
 10
420.5
 20
297.0
 30
-1.000000E+20
  9
$LIMMIN
 10
-420.5
 20
-297.0
  9
$LIMMAX
 10
420.5
 20
297.0
  9
$ORTHOMODE
 70
     0
  9
$REGENMODE
 70
     1
  9
$FILLMODE
 70
     1
  9
$QTEXTMODE
 70
     0
  9
$MIRRTEXT
 70
     1
  9
$LTSCALE
 40
1.0
  9
$ATTMODE
 70
     1
  9
$TEXTSIZE
 40
0.2
  9
$TRACEWID
 40
0.05
  9
$TEXTSTYLE
  7
STANDARD
  9
$CLAYER
  8
0
  9
$CELTYPE
  6
CONTINUOUS
  9
$CECOLOR
 62
   256
  9
$CELTSCALE
 40
1.0
  9
$DISPSILH
 70
     0
  9
$DIMSCALE
 40
1.0
  9
$DIMASZ
 40
2.0
  9
$DIMEXO
 40
1.0
  9
$DIMDLI
 40
0.38
  9
$DIMRND
 40
0.0
  9
$DIMDLE
 40
0.0
  9
$DIMEXE
 40
2.0
  9
$DIMTP
 40
0.0
  9
$DIMTM
 40
0.0
  9
$DIMTXT
 40
3.5
  9
$DIMCEN
 40
0.09
  9
$DIMTSZ
 40
0.0
  9
$DIMTOL
 70
     0
  9
$DIMLIM
 70
     0
  9
$DIMTIH
 70
     0
  9
$DIMTOH
 70
     0
  9
$DIMSE1
 70
     0
  9
$DIMSE2
 70
     0
  9
$DIMTAD
 70
     1
  9
$DIMZIN
 70
     0
  9
$DIMBLK
  1

  9
$DIMASO
 70
     1
  9
$DIMSHO
 70
     1
  9
$DIMPOST
  1

  9
$DIMAPOST
  1

  9
$DIMALT
 70
     0
  9
$DIMALTD
 70
     2
  9
$DIMALTF
 40
25.4
  9
$DIMLFAC
 40
1.0
  9
$DIMTOFL
 70
     0
  9
$DIMTVP
 40
0.0
  9
$DIMTIX
 70
     0
  9
$DIMSOXD
 70
     0
  9
$DIMSAH
 70
     0
  9
$DIMBLK1
  1

  9
$DIMBLK2
  1

  9
$DIMSTYLE
  2
Standard
  9
$DIMCLRD
 70
     0
  9
$DIMCLRE
 70
     0
  9
$DIMCLRT
 70
     0
  9
$DIMTFAC
 40
1.0
  9
$DIMGAP
 40
0.5
  9
$DIMJUST
 70
     0
  9
$DIMSD1
 70
     0
  9
$DIMSD2
 70
     0
  9
$DIMTOLJ
 70
     1
  9
$DIMTZIN
 70
     0
  9
$DIMALTZ
 70
     0
  9
$DIMALTTZ
 70
     0
  9
$DIMUPT
 70
     0
  9
$DIMDEC
 70
     3
  9
$DIMTDEC
 70
     4
  9
$DIMALTU
 70
     2
  9
$DIMALTTD
 70
     2
  9
$DIMTXSTY
  7
STANDARD
  9
$DIMAUNIT
 70
     0
  9
$DIMADEC
 70
     0
  9
$DIMALTRND
 40
0.0
  9
$DIMAZIN
 70
     0
  9
$DIMDSEP
 70
     0
  9
$DIMATFIT
 70
     3
  9
$DIMFRAC
 70
     0
  9
$DIMLDRBLK
  1

  9
$DIMLUNIT
 70
     2
  9
$DIMLWD
 70
     0
  9
$DIMLWE
 70
     0
  9
$DIMTMOVE
 70
     0
  9
$LUNITS
 70
     2
  9
$LUPREC
 70
     4
  9
$SKETCHINC
 40
0.1
  9
$FILLETRAD
 40
0.0
  9
$AUNITS
 70
     0
  9
$AUPREC
 70
     0
  9
$MENU
  1
acad
  9
$ELEVATION
 40
0.0
  9
$PELEVATION
 40
0.0
  9
$THICKNESS
 40
0.0
  9
$LIMCHECK
 70
     0
  9
$CHAMFERA
 40
0.0
  9
$CHAMFERB
 40
0.0
  9
$CHAMFERC
 40
0.0
  9
$CHAMFERD
 40
0.0
  9
$SKPOLY
 70
     0
  9
$TDCREATE
 40
2453383.000000000
  9
$TDUCREATE
 40
0.000000000
  9
$TDUPDATE
 40
0.000000000
  9
$TDUUPDATE
 40
2447892.625000000
  9
$TDINDWG
 40
0.0000000000
  9
$TDUSRTIMER
 40
0.0000000000
  9
$USRTIMER
 70
     1
  9
$ANGBASE
 50
0.0
  9
$ANGDIR
 70
     0
  9
$PDMODE
 70
     0
  9
$PDSIZE
 40
0.0
  9
$PLINEWID
 40
0.0
  9
$SPLFRAME
 70
     0
  9
$SPLINETYPE
 70
     6
  9
$SPLINESEGS
 70
     8
  9
$HANDSEED
  5
242
  9
$SURFTAB1
 70
     6
  9
$SURFTAB2
 70
     6
  9
$SURFTYPE
 70
     6
  9
$SURFU
 70
     6
  9
$SURFV
 70
     6
  9
$UCSBASE
  2

  9
$UCSNAME
  2

  9
$UCSORG
 10
0.0
 20
0.0
 30
0.0
  9
$UCSXDIR
 10
1.0
 20
0.0
 30
0.0
  9
$UCSYDIR
 10
0.0
 20
1.0
 30
0.0
  9
$UCSORTHOREF
  2

  9
$UCSORTHOVIEW
 70
     0
  9
$UCSORGTOP
 10
0.0
 20
0.0
 30
0.0
  9
$UCSORGBOTTOM
 10
0.0
 20
0.0
 30
0.0
  9
$UCSORGLEFT
 10
0.0
 20
0.0
 30
0.0
  9
$UCSORGRIGHT
 10
0.0
 20
0.0
 30
0.0
  9
$UCSORGFRONT
 10
0.0
 20
0.0
 30
0.0
  9
$UCSORGBACK
 10
0.0
 20
0.0
 30
0.0
  9
$PUCSBASE
  2

  9
$PUCSNAME
  2

  9
$PUCSORG
 10
0.0
 20
0.0
 30
0.0
  9
$PUCSXDIR
 10
1.0
 20
0.0
 30
0.0
  9
$PUCSYDIR
 10
0.0
 20
1.0
 30
0.0
  9
$PUCSORTHOREF
  2

  9
$PUCSORTHOVIEW
 70
     0
  9
$PUCSORGTOP
 10
0.0
 20
0.0
 30
0.0
  9
$PUCSORGBOTTOM
 10
0.0
 20
0.0
 30
0.0
  9
$PUCSORGLEFT
 10
0.0
 20
0.0
 30
0.0
  9
$PUCSORGRIGHT
 10
0.0
 20
0.0
 30
0.0
  9
$PUCSORGFRONT
 10
0.0
 20
0.0
 30
0.0
  9
$PUCSORGBACK
 10
0.0
 20
0.0
 30
0.0
  9
$USERI1
 70
     0
  9
$USERI2
 70
     0
  9
$USERI3
 70
     0
  9
$USERI4
 70
     0
  9
$USERI5
 70
     0
  9
$USERR1
 40
0.0
  9
$USERR2
 40
0.0
  9
$USERR3
 40
0.0
  9
$USERR4
 40
0.0
  9
$USERR5
 40
0.0
  9
$WORLDVIEW
 70
     1
  9
$SHADEDGE
 70
     3
  9
$SHADEDIF
 70
    70
  9
$TILEMODE
 70
     1
  9
$MAXACTVP
 70
    16
  9
$PINSBASE
 10
0.0
 20
0.0
 30
0.0
  9
$PLIMCHECK
 70
     0
  9
$PEXTMIN
 10
1.000000E+20
 20
1.000000E+20
 30
1.000000E+20
  9
$PEXTMAX
 10
-1.000000E+20
 20
-1.000000E+20
 30
-1.000000E+20
  9
$PLIMMIN
 10
0.0
 20
0.0
  9
$PLIMMAX
 10
12.0
 20
9.0
  9
$UNITMODE
 70
     0
  9
$VISRETAIN
 70
     0
  9
$PLINEGEN
 70
     1
  9
$PSLTSCALE
 70
     0
  9
$TREEDEPTH
 70
  3020
  9
$CMLSTYLE
  2
Standard
  9
$CMLJUST
 70
     0
  9
$CMLSCALE
 40
1.0
  9
$PROXYGRAPHICS
 70
     0
  9
$MEASUREMENT
 70
     0
  9
$CELWEIGHT
370
     0
  9
$ENDCAPS
280
     0
  9
$JOINSTYLE
280
     0
  9
$LWDISPLAY
290
     0
  9
$INSUNITS
 70
     0
  9
$HYPERLINKBASE
  1

  9
$STYLESHEET
  1

  9
$XEDIT
290
     1
  9
$CEPSNTYPE
380
     0
  9
$PSTYLEMODE
290
     1
  9
$FINGERPRINTGUID
  2

  9
$VERSIONGUID
  2

  9
$EXTNAMES
290
     1
  9
$PSVPSCALE
 40
0.0
  0
ENDSEC
  0
SECTION
  2
CLASSES
  0
CLASS
  1
LWPOLYLINE
  2
AcDbPolyline
  3
AutoCAD 2000
 90
        0
280
     0
281
     1
  0
CLASS
  1
IMAGE
  2
AcDbRasterImage
  3
ISM
 90
      127
280
     0
281
     1
  0
CLASS
  1
OLE2FRAME
  2
AcDbOle2Frame
  3
AutoCAD 2000
 90
        0
280
     0
281
     1
  0
CLASS
  1
HATCH
  2
AcDbHatch
  3
AutoCAD 2000
 90
        0
280
     0
281
     1
  0
CLASS
  1
DICTIONARYVAR
  2
AcDbDictionaryVar
  3
AutoCAD 2000
 90
        0
280
     0
281
     0
  0
CLASS
  1
RASTERVARIABLES
  2
AcDbRasterVariables
  3
ISM
 90
        0
280
     0
281
     0
  0
CLASS
  1
IMAGEDEF
  2
AcDbRasterImageDef
  3
ISM
 90
        0
280
     0
281
     0
  0
CLASS
  1
IMAGEDEF_REACTOR
  2
AcDbRasterImageDefReactor
  3
ISM
 90
        1
280
     0
281
     0
  0
CLASS
  1
IDBUFFER
  2
AcDbIdBuffer
  3
AutoCAD 2000
 90
        0
280
     0
281
     0
  0
CLASS
  1
SPATIAL_FILTER
  2
AcDbSpatialFilter
  3
AutoCAD 2000
 90
        0
280
     0
281
     0
  0
CLASS
  1
XRECORD
  2
AcDbXrecord
  3
AutoCAD 2000
 90
        0
280
     0
281
     0
  0
CLASS
  1
SORTENTSTABLE
  2
AcDbSortentsTable
  3
AutoCAD 2000
 90
        0
280
     0
281
     0
  0
CLASS
  1
LAYER_INDEX
  2
AcDbLayerIndex
  3
AutoCAD 2000
 90
        0
280
     0
281
     0
  0
CLASS
  1
SPATIAL_INDEX
  2
AcDbSpatialIndex
  3
AutoCAD 2000
 90
        0
280
     0
281
     0
  0
CLASS
  1
OBJECT_PTR
  2
CAseDLPNTableRecord
  3
"ASE-LPNTableRecord"
 90
        1
280
     0
281
     0
  0
CLASS
  1
LAYOUT
  2
AcDbLayout
  3
AutoCAD 2000
 90
        0
280
     0
281
     0
  0
CLASS
  1
PLOTSETTINGS
  2
AcDbPlotSettings
  3
AutoCAD 2000
 90
        0
280
     0
281
     0
  0
CLASS
  1
ACDBDICTIONARYWDFLT
  2
AcDbDictionaryWithDefault
  3
AutoCAD 2000
 90
        0
280
     0
281
     0
  0
CLASS
  1
ACDBPLACEHOLDER
  2
AcDbPlaceHolder
  3
AutoCAD 2000
 90
        0
280
     0
281
     0
  0
CLASS
  1
VBA_PROJECT
  2
AcDbVbaProject
  3
acadvba
 90
        0
280
     0
281
     0
  0
CLASS
  1
WIPEOUT
  2
AcDbWipeout
  3
WipeOut|AutoCAD Express Tool|expresstools@autodesk.com
 90
      127
280
     0
281
     1
  0
CLASS
  1
WIPEOUTVARIABLES
  2
AcDbWipeoutVariables
  3
WipeOut|AutoCAD Express Tool|expresstools@autodesk.com
 90
        0
280
     0
281
     0
  0
CLASS
  1
RTEXT
  2
RText
  3
RText|AutoCAD Express Tool|expresstools@autodesk.com
 90
        0
280
     0
281
     1
  0
CLASS
  1
ARCALIGNEDTEXT
  2
AcDbArcAlignedText
  3
ATEXT|AutoCAD Express Tool|expresstools@autodesk.com
 90
        0
280
     0
281
     1
  0
ENDSEC
  0
SECTION
  2
TABLES
  0
TABLE
  2
VPORT
  5
6
100
AcDbSymbolTable
 70
     1
  0
VPORT
  5
19
100
AcDbSymbolTableRecord
100
AcDbViewportTableRecord
  2
*ACTIVE
 70
     0
 10
0.0
 20
0.0
 11
1.0
 21
1.0
 12
0.0
 22
0.0
 13
0.0
 23
0.0
 14
1.0
 24
1.0
 15
0.0
 25
0.0
 16
0.0
 26
0.0
 36
1.0
 17
0.0
 27
0.0
 37
0.0
 40
594.0
 41
1.415825
 42
50.0
 43
0.0
 44
0.0
 50
0.0
 51
0.0
 71
     0
 72
   500
 73
     1
 74
     1
 75
     0
 76
     0
 77
     0
 78
     0
281
     0
 65
     0
110
0.0
120
0.0
130
0.0
111
1.0
121
0.0
131
0.0
112
0.0
122
1.0
132
0.0
345
0
346
0
 79
     0
146
0.0
  0
ENDTAB
  0
TABLE
  2
LTYPE
  5
3
100
AcDbSymbolTable
 70
     9
  0
LTYPE
  5
C
100
AcDbSymbolTableRecord
100
AcDbLinetypeTableRecord
  2
ByBlock
 70
    64
  3

 72
    65
 73
     0
 40
0.0
  0
LTYPE
  5
D
100
AcDbSymbolTableRecord
100
AcDbLinetypeTableRecord
  2
ByLayer
 70
    64
  3

 72
    65
 73
     0
 40
0.0
  0
LTYPE
  5
E
100
AcDbSymbolTableRecord
100
AcDbLinetypeTableRecord
  2
CONTINUOUS
 70
     0
  3
Solid line
 72
    65
 73
     0
 40
0.0
  0
LTYPE
  5
F
100
AcDbSymbolTableRecord
100
AcDbLinetypeTableRecord
  2
DASHED
 70
     0
  3
__ __ __ __ __ __ __ __ __ __ __ __ __ __ __
 72
    65
 73
     2
 40
2.0
 49
1.2
 74
     0
 49
-0.8
 74
     0
  0
LTYPE
  5
10
100
AcDbSymbolTableRecord
100
AcDbLinetypeTableRecord
  2
CENTER
 70
     0
  3
____ _ ____ _ ____ _ ____ _ ____ _ ____ _ ____
 72
    65
 73
     4
 40
12.0
 49
9.0
 74
     0
 49
-1.0
 74
     0
 49
1.0
 74
     0
 49
-1.0
 74
     0
  0
LTYPE
  5
11
100
AcDbSymbolTableRecord
100
AcDbLinetypeTableRecord
  2
HIDDEN
 70
     0
  3
_ _ _ _ _ _ _ _ _ _ _ _ _ _ _ _ _ _ _ _ _ _ _
 72
    65
 73
     2
 40
3.2
 49
2.4
 74
     0
 49
-0.8
 74
     0
  0
LTYPE
  5
12
100
AcDbSymbolTableRecord
100
AcDbLinetypeTableRecord
  2
PHANTOM
 70
     0
  3
_____ _ _ _____ _ _ _____ _ _ _____ _ _ _____
 72
    65
 73
     6
 40
13.5
 49
9.0
 74
     0
 49
-1.0
 74
     0
 49
1.0
 74
     0
 49
-0.5
 74
     0
 49
1.0
 74
     0
 49
-1.0
 74
     0
  0
LTYPE
  5
13
100
AcDbSymbolTableRecord
100
AcDbLinetypeTableRecord
  2
DOT
 70
     0
  3
...............................................
 72
    65
 73
     2
 40
1.0
 49
0.5
 74
     0
 49
-0.5
 74
     0
  0
LTYPE
  5
14
100
AcDbSymbolTableRecord
100
AcDbLinetypeTableRecord
  2
DASHDOT
 70
     0
  3
__ . __ . __ . __ . __ . __ . __ . __ . __ . __
 72
    65
 73
     4
 40
8.0
 49
5.0
 74
     0
 49
-1.0
 74
     0
 49
1.0
 74
     0
 49
-1.0
 74
     0
  0
ENDTAB
  0
TABLE
  2
LAYER
  5
1
100
AcDbSymbolTable
 70
     4
  0
LAYER
  5
15
100
AcDbSymbolTableRecord
100
AcDbLayerTableRecord
  2
0
 70
     0
 62
     7
  6
CONTINUOUS
290
     1
370
    -3
390
0
  0
LAYER
  5
16
100
AcDbSymbolTableRecord
100
AcDbLayerTableRecord
  2
1
 70
     0
 62
     7
  6
CONTINUOUS
290
     1
370
    -3
390
0
  0
LAYER
  5
17
100
AcDbSymbolTableRecord
100
AcDbLayerTableRecord
  2
2
 70
     0
 62
     7
  6
CONTINUOUS
290
     1
370
    -3
390
0
  0
LAYER
  5
18
100
AcDbSymbolTableRecord
100
AcDbLayerTableRecord
  2
3
 70
     0
 62
     7
  6
CONTINUOUS
290
     1
370
    -3
390
0
  0
ENDTAB
  0
TABLE
  2
STYLE
  5
2
100
AcDbSymbolTable
 70
     1
  0
STYLE
  5
1B
100
AcDbSymbolTableRecord
100
AcDbTextStyleTableRecord
  2
STANDARD
 70
    64
 40
0.0
 41
1.0
 50
0.0
 71
     0
 42
1.0
  3
txt
  4
BIGFONT
  0
ENDTAB
  0
TABLE
  2
VIEW
  5
4
100
AcDbSymbolTable
 70
     0
  0
ENDTAB
  0
TABLE
  2
UCS
  5
5
100
AcDbSymbolTable
 70
     0
  0
ENDTAB
  0
TABLE
  2
APPID
  5
7
100
AcDbSymbolTable
 70
     1
  0
APPID
  5
1A
100
AcDbSymbolTableRecord
100
AcDbRegAppTableRecord
  2
ACAD
 70
     0
  0
ENDTAB
  0
TABLE
  2
DIMSTYLE
  5
8
100
AcDbSymbolTable
 70
     1
100
AcDbDimStyleTable
 71
     0
  0
DIMSTYLE
105
26
100
AcDbSymbolTableRecord
100
AcDbDimStyleTableRecord
  2
Standard
 70
     0
  3

  4

 40
1.0
 41
2.0
 42
1.0
 43
0.38
 44
2.0
 45
0.0
 46
0.0
 47
0.0
 48
0.0
 71
     0
 72
     0
 73
     0
 74
     0
 75
     0
 76
     0
 77
     1
 78
     0
 79
     0
140
3.5
141
0.09
142
0.0
143
25.4
144
1.0
145
0.0
146
1.0
147
0.5
148
0.0
170
     0
171
     2
172
     0
173
     0
174
     0
175
     0
176
     0
177
     0
178
     0
179
     0
271
     3
272
     4
273
     2
274
     2
275
     0
276
     0
277
     2
278
    46
279
     0
280
     0
281
     0
282
     0
283
     1
284
     0
285
     0
286
     0
288
     0
289
     3
340
1B
341
0
342
0
343
0
344
0
371
    -2
372
    -2
  0
ENDTAB
  0
TABLE
  2
BLOCK_RECORD
  5
21
100
AcDbSymbolTable
 70
     3
  0
BLOCK_RECORD
  5
1F
100
AcDbSymbolTableRecord
100
AcDbBlockTableRecord
  2
*Model_Space
340
0
  0
BLOCK_RECORD
  5
20
100
AcDbSymbolTableRecord
100
AcDbBlockTableRecord
  2
*Paper_Space
340
0
  0
BLOCK_RECORD
  5
1C
100
AcDbSymbolTableRecord
100
AcDbBlockTableRecord
  2
*D0
340
0
  0
BLOCK_RECORD
  5
1D
100
AcDbSymbolTableRecord
100
AcDbBlockTableRecord
  2
*D1
340
0
  0
BLOCK_RECORD
  5
1E
100
AcDbSymbolTableRecord
100
AcDbBlockTableRecord
  2
*D2
340
0
  0
ENDTAB
  0
ENDSEC
  0
SECTION
  2
BLOCKS
  0
BLOCK
  5
22
100
AcDbEntity
  8
0
390
0
100
AcDbBlockBegin
  2
*Model_Space
 70
     0
 10
0.0
 20
0.0
 30
0.0
  3
*Model_Space
  1

  0
ENDBLK
  5
23
100
AcDbEntity
  8
0
390
0
100
AcDbBlockEnd
  0
BLOCK
  5
24
100
AcDbEntity
 67
     1
  8
0
390
0
100
AcDbBlockBegin
  2
*Paper_Space
 70
     0
 10
0.0
 20
0.0
 30
0.0
  3
*Paper_Space
  1

  0
ENDBLK
  5
25
100
AcDbEntity
 67
     1
  8
0
390
0
100
AcDbBlockEnd
  0
BLOCK
  5
219
100
AcDbEntity
  8
3
100
AcDbBlockBegin
  2
*D0
 70
     1
 10
0.0
 20
0.0
 30
0.0
  3
*D0
  1

  0
TEXT
  5
21A
100
AcDbEntity
  8
3
370
    18
100
AcDbText
 10
-32.971767
 20
-53.294586
 30
0.0
 40
3.5
  1
５７（リフト３ｍｉｎ）
 50
90.0
 72
     5
 11
-32.971767
 21
-15.494586
 31
0.0
100
AcDbText
  0
LINE
  5
21B
100
AcDbEntity
  8
3
370
    25
100
AcDbLine
 10
-11.632596
 20
-62.544586
 30
0.0
 11
-33.471767
 21
-62.544586
 31
0.0
  0
LINE
  5
21C
100
AcDbEntity
  8
3
370
    25
100
AcDbLine
 10
-32.471767
 20
-62.544586
 30
0.0
 11
-31.954129
 21
-60.612735
 31
0.0
  0
LINE
  5
21D
100
AcDbEntity
  8
3
370
    25
100
AcDbLine
 10
-32.471767
 20
-62.544586
 30
0.0
 11
-32.989406
 21
-60.612735
 31
0.0
  0
LINE
  5
21E
100
AcDbEntity
  8
3
370
    25
100
AcDbLine
 10
-31.954129
 20
-60.612735
 30
0.0
 11
-32.989406
 21
-60.612735
 31
0.0
  0
LINE
  5
21F
100
AcDbEntity
  8
3
370
    25
100
AcDbLine
 10
-32.471767
 20
-62.544586
 30
0.0
 11
-32.471767
 21
-5.544586
 31
0.0
  0
LINE
  5
220
100
AcDbEntity
  8
3
370
    25
100
AcDbLine
 10
-32.471767
 20
-5.544586
 30
0.0
 11
-32.989406
 21
-7.476438
 31
0.0
  0
LINE
  5
221
100
AcDbEntity
  8
3
370
    25
100
AcDbLine
 10
-32.471767
 20
-5.544586
 30
0.0
 11
-31.954129
 21
-7.476438
 31
0.0
  0
LINE
  5
222
100
AcDbEntity
  8
3
370
    25
100
AcDbLine
 10
-32.989406
 20
-7.476438
 30
0.0
 11
-31.954129
 21
-7.476438
 31
0.0
  0
LINE
  5
223
100
AcDbEntity
  8
3
370
    25
100
AcDbLine
 10
23.556906
 20
-5.544586
 30
0.0
 11
-33.471767
 21
-5.544586
 31
0.0
  0
ENDBLK
  5
224
100
AcDbEntity
  8
3
100
AcDbBlockEnd
  0
BLOCK
  5
225
100
AcDbEntity
  8
3
100
AcDbBlockBegin
  2
*D1
 70
     1
 10
0.0
 20
0.0
 30
0.0
  3
*D1
  1

  0
TEXT
  5
226
100
AcDbEntity
  8
3
370
    25
100
AcDbText
 10
38.556583
 20
-92.004364
 30
0.0
 40
3.5
  1
３５
 72
     5
 11
44.856583
 21
-92.004364
 31
0.0
100
AcDbText
  0
LINE
  5
227
100
AcDbEntity
  8
3
370
    25
100
AcDbLine
 10
24.556583
 20
-80.465586
 30
0.0
 11
24.556583
 21
-93.504364
 31
0.0
  0
LINE
  5
228
100
AcDbEntity
  8
3
370
    25
100
AcDbLine
 10
24.556583
 20
-92.504364
 30
0.0
 11
26.488435
 21
-93.022002
 31
0.0
  0
LINE
  5
229
100
AcDbEntity
  8
3
370
    25
100
AcDbLine
 10
24.556583
 20
-92.504364
 30
0.0
 11
26.488435
 21
-91.986726
 31
0.0
  0
LINE
  5
22A
100
AcDbEntity
  8
3
370
    25
100
AcDbLine
 10
26.488435
 20
-93.022002
 30
0.0
 11
26.488435
 21
-91.986726
 31
0.0
  0
LINE
  5
22B
100
AcDbEntity
  8
3
370
    25
100
AcDbLine
 10
24.556583
 20
-92.504364
 30
0.0
 11
59.556583
 21
-92.504364
 31
0.0
  0
LINE
  5
22C
100
AcDbEntity
  8
3
370
    25
100
AcDbLine
 10
59.556583
 20
-92.504364
 30
0.0
 11
57.624732
 21
-91.986726
 31
0.0
  0
LINE
  5
22D
100
AcDbEntity
  8
3
370
    25
100
AcDbLine
 10
59.556583
 20
-92.504364
 30
0.0
 11
57.624732
 21
-93.022002
 31
0.0
  0
LINE
  5
22E
100
AcDbEntity
  8
3
370
    25
100
AcDbLine
 10
57.624732
 20
-91.986726
 30
0.0
 11
57.624732
 21
-93.022002
 31
0.0
  0
LINE
  5
22F
100
AcDbEntity
  8
3
370
    25
100
AcDbLine
 10
59.556583
 20
-76.294586
 30
0.0
 11
59.556583
 21
-93.504364
 31
0.0
  0
ENDBLK
  5
230
100
AcDbEntity
  8
3
100
AcDbBlockEnd
  0
BLOCK
  5
231
100
AcDbEntity
  8
3
100
AcDbBlockBegin
  2
*D2
 70
     1
 10
0.0
 20
0.0
 30
0.0
  3
*D2
  1

  0
TEXT
  5
232
100
AcDbEntity
  8
3
370
    25
100
AcDbText
 10
6.056583
 20
-92.004364
 30
0.0
 40
3.5
  1
３０
 72
     5
 11
12.356583
 21
-92.004364
 31
0.0
100
AcDbText
  0
LINE
  5
233
100
AcDbEntity
  8
3
370
    25
100
AcDbLine
 10
-5.443417
 20
-72.859586
 30
0.0
 11
-5.443417
 21
-93.504364
 31
0.0
  0
LINE
  5
234
100
AcDbEntity
  8
3
370
    25
100
AcDbLine
 10
-5.443417
 20
-92.504364
 30
0.0
 11
-3.511565
 21
-93.022002
 31
0.0
  0
LINE
  5
235
100
AcDbEntity
  8
3
370
    25
100
AcDbLine
 10
-5.443417
 20
-92.504364
 30
0.0
 11
-3.511565
 21
-91.986726
 31
0.0
  0
LINE
  5
236
100
AcDbEntity
  8
3
370
    25
100
AcDbLine
 10
-3.511565
 20
-93.022002
 30
0.0
 11
-3.511565
 21
-91.986726
 31
0.0
  0
LINE
  5
237
100
AcDbEntity
  8
3
370
    25
100
AcDbLine
 10
-5.443417
 20
-92.504364
 30
0.0
 11
24.556583
 21
-92.504364
 31
0.0
  0
LINE
  5
238
100
AcDbEntity
  8
3
370
    25
100
AcDbLine
 10
24.556583
 20
-92.504364
 30
0.0
 11
22.624732
 21
-91.986726
 31
0.0
  0
LINE
  5
239
100
AcDbEntity
  8
3
370
    25
100
AcDbLine
 10
24.556583
 20
-92.504364
 30
0.0
 11
22.624732
 21
-93.022002
 31
0.0
  0
LINE
  5
23A
100
AcDbEntity
  8
3
370
    25
100
AcDbLine
 10
22.624732
 20
-91.986726
 30
0.0
 11
22.624732
 21
-93.022002
 31
0.0
  0
LINE
  5
23B
100
AcDbEntity
  8
3
370
    25
100
AcDbLine
 10
24.556583
 20
-80.465586
 30
0.0
 11
24.556583
 21
-93.504364
 31
0.0
  0
ENDBLK
  5
23C
100
AcDbEntity
  8
3
100
AcDbBlockEnd
  0
ENDSEC
  0
SECTION
  2
ENTITIES
  0
LINE
  5
27
100
AcDbEntity
  8
1
370
   100
100
AcDbLine
 10
-186.510785
 20
137.514384
 30
0.0
 11
197.491193
 21
137.514384
 31
0.0
  0
LINE
  5
28
100
AcDbEntity
  8
1
370
   100
100
AcDbLine
 10
-186.510785
 20
137.514384
 30
0.0
 11
-186.510785
 21
-138.985941
 31
0.0
  0
LINE
  5
29
100
AcDbEntity
  8
1
370
   100
100
AcDbLine
 10
-186.510785
 20
-138.985941
 30
0.0
 11
197.491193
 21
-138.985941
 31
0.0
  0
LINE
  5
2A
100
AcDbEntity
  8
1
370
   100
100
AcDbLine
 10
197.491193
 20
-138.985941
 30
0.0
 11
197.491193
 21
137.514384
 31
0.0
  0
TEXT
  5
2B
100
AcDbEntity
  8
1
370
    50
100
AcDbText
 10
179.814221
 20
-113.126428
 30
0.0
 40
3.0
  1
設計
 72
     5
 11
185.214221
 21
-113.126428
 31
0.0
100
AcDbText
  0
TEXT
  5
2C
100
AcDbEntity
  8
1
370
    50
100
AcDbText
 10
189.563739
 20
-113.049829
 30
0.0
 40
3.0
  1
製図
 72
     5
 11
194.963739
 21
-113.049829
 31
0.0
100
AcDbText
  0
TEXT
  5
2D
100
AcDbEntity
  8
1
370
    50
100
AcDbText
 10
159.502872
 20
-113.126428
 30
0.0
 40
3.0
  1
承認
 72
     5
 11
164.902872
 21
-113.126428
 31
0.0
100
AcDbText
  0
TEXT
  5
2E
100
AcDbEntity
  8
1
370
    50
100
AcDbText
 10
169.494839
 20
-113.09901
 30
0.0
 40
3.0
  1
検図
 72
     5
 11
174.894839
 21
-113.09901
 31
0.0
100
AcDbText
  0
LINE
  5
2F
100
AcDbEntity
  8
1
370
    25
100
AcDbLine
 10
142.491193
 20
-113.985941
 30
0.0
 11
197.491193
 21
-113.985941
 31
0.0
  0
LINE
  5
30
100
AcDbEntity
  8
1
370
    25
100
AcDbLine
 10
171.241193
 20
-122.985941
 30
0.0
 11
171.241193
 21
-129.985941
 31
0.0
  0
TEXT
  5
31
100
AcDbEntity
  8
1
370
    50
100
AcDbText
 10
159.775795
 20
-128.006264
 30
0.0
 40
3.0
  1
日　付
 72
     5
 11
168.175795
 21
-128.006264
 31
0.0
100
AcDbText
  0
LINE
  5
32
100
AcDbEntity
  8
1
370
    50
100
AcDbLine
 10
20.491193
 20
-129.985941
 30
0.0
 11
197.491193
 21
-129.985941
 31
0.0
  0
TEXT
  5
33
100
AcDbEntity
  8
1
370
    50
100
AcDbText
 10
143.887505
 20
-128.161203
 30
0.0
 40
3.0
  1
第三角法
 72
     5
 11
155.287505
 21
-128.161203
 31
0.0
100
AcDbText
  0
TEXT
  5
34
100
AcDbEntity
  8
1
370
    50
100
AcDbText
 10
145.54371
 20
-112.99901
 30
0.0
 40
3.0
  1
尺　度
 72
     5
 11
153.94371
 21
-112.99901
 31
0.0
100
AcDbText
  0
LINE
  5
35
100
AcDbEntity
  8
1
370
   100
100
AcDbLine
 10
20.491193
 20
-108.985941
 30
0.0
 11
197.491193
 21
-108.985941
 31
0.0
  0
LINE
  5
36
100
AcDbEntity
  8
1
370
    50
100
AcDbLine
 10
105.991193
 20
-108.985941
 30
0.0
 11
105.991193
 21
-138.985941
 31
0.0
  0
LINE
  5
37
100
AcDbEntity
  8
1
370
    25
100
AcDbLine
 10
187.491193
 20
-122.985941
 30
0.0
 11
187.491193
 21
-108.985941
 31
0.0
  0
LINE
  5
38
100
AcDbEntity
  8
1
370
    25
100
AcDbLine
 10
177.491193
 20
-122.985941
 30
0.0
 11
177.491193
 21
-108.985941
 31
0.0
  0
LINE
  5
39
100
AcDbEntity
  8
1
370
    25
100
AcDbLine
 10
167.491193
 20
-122.985941
 30
0.0
 11
167.491193
 21
-108.985941
 31
0.0
  0
LINE
  5
3A
100
AcDbEntity
  8
1
370
    50
100
AcDbLine
 10
142.491193
 20
-138.985941
 30
0.0
 11
142.491193
 21
-108.985941
 31
0.0
  0
LINE
  5
3B
100
AcDbEntity
  8
1
370
    50
100
AcDbLine
 10
94.991193
 20
-108.985941
 30
0.0
 11
94.991193
 21
-138.985941
 31
0.0
  0
LINE
  5
3C
100
AcDbEntity
  8
1
370
    50
100
AcDbLine
 10
31.491193
 20
-108.985941
 30
0.0
 11
31.491193
 21
-129.985941
 31
0.0
  0
LINE
  5
3D
100
AcDbEntity
  8
1
370
    50
100
AcDbLine
 10
142.491193
 20
-122.985941
 30
0.0
 11
197.491193
 21
-122.985941
 31
0.0
  0
TEXT
  5
3E
100
AcDbEntity
  8
1
370
    50
100
AcDbText
 10
143.550565
 20
-135.940469
 30
0.0
 40
3.0
  1
コードＮｏ
 41
0.9
 72
     5
 11
156.510565
 21
-135.940469
 31
0.0
100
AcDbText
  0
TEXT
  5
3F
100
AcDbEntity
  8
1
370
   100
100
AcDbText
 10
26.443387
 20
-136.43783
 30
0.0
 40
4.0
  1
ミズタニバルブ工業株式会社
 41
1.2
 72
     5
 11
87.883387
 21
-136.43783
 31
0.0
100
AcDbText
  0
LINE
  5
40
100
AcDbEntity
  8
1
370
    50
100
AcDbLine
 10
20.491193
 20
-119.485941
 30
0.0
 11
142.491193
 21
-119.485941
 31
0.0
  0
LINE
  5
41
100
AcDbEntity
  8
1
370
    50
100
AcDbLine
 10
57.741193
 20
-119.485941
 30
0.0
 11
57.741193
 21
-129.985941
 31
0.0
  0
LINE
  5
42
100
AcDbEntity
  8
1
370
    50
100
AcDbLine
 10
68.741193
 20
-119.485941
 30
0.0
 11
68.741193
 21
-129.985941
 31
0.0
  0
LINE
  5
43
100
AcDbEntity
  8
1
370
    50
100
AcDbLine
 10
157.491193
 20
-138.985941
 30
0.0
 11
157.491193
 21
-108.985941
 31
0.0
  0
TEXT
  5
44
100
AcDbEntity
  8
1
370
    50
100
AcDbText
 10
172.549065
 20
-128.050147
 30
0.0
 40
3.0
  1
　　・　　・
 72
     5
 11
189.949065
 21
-128.050147
 31
0.0
100
AcDbText
  0
LINE
  5
45
100
AcDbEntity
  8
1
370
   100
100
AcDbLine
 10
20.491193
 20
-108.985941
 30
0.0
 11
20.491193
 21
-138.985941
 31
0.0
  0
TEXT
  5
46
100
AcDbEntity
  8
1
370
    50
100
AcDbText
 10
145.416291
 20
-120.006746
 30
0.0
 40
3.0
  1
　／ 
 72
     5
 11
150.816291
 21
-120.006746
 31
0.0
100
AcDbText
  0
TEXT
  5
47
100
AcDbEntity
  8
1
370
    50
100
AcDbText
 10
96.952061
 20
-136.012454
 30
0.0
 40
3.0
  1
備 考 
 72
     5
 11
103.852061
 21
-136.012454
 31
0.0
100
AcDbText
  0
TEXT
  5
48
100
AcDbEntity
  8
1
370
    50
100
AcDbText
 10
96.756267
 20
-115.44592
 30
0.0
 40
3.0
  1
仕 上
 72
     5
 11
103.656267
 21
-115.44592
 31
0.0
100
AcDbText
  0
TEXT
  5
49
100
AcDbEntity
  8
1
370
    50
100
AcDbText
 10
96.723588
 20
-124.445833
 30
0.0
 40
3.0
  1
表 面
 72
     5
 11
103.623588
 21
-124.445833
 31
0.0
100
AcDbText
  0
TEXT
  5
4A
100
AcDbEntity
  8
1
370
    50
100
AcDbText
 10
96.723588
 20
-127.945833
 30
0.0
 40
3.0
  1
処 理
 72
     5
 11
103.623588
 21
-127.945833
 31
0.0
100
AcDbText
  0
TEXT
  5
4B
100
AcDbEntity
  8
1
370
    50
100
AcDbText
 10
22.396675
 20
-115.8467
 30
0.0
 40
3.0
  1
品 名
 72
     5
 11
29.296675
 21
-115.8467
 31
0.0
100
AcDbText
  0
TEXT
  5
4C
100
AcDbEntity
  8
1
370
    50
100
AcDbText
 10
22.198883
 20
-126.231267
 30
0.0
 40
3.0
  1
材 質
 72
     5
 11
29.098883
 21
-126.231267
 31
0.0
100
AcDbText
  0
TEXT
  5
4D
100
AcDbEntity
  8
1
370
    50
100
AcDbText
 10
59.448883
 20
-126.231267
 30
0.0
 40
3.0
  1
規 格
 72
     5
 11
66.348883
 21
-126.231267
 31
0.0
100
AcDbText
  0
TEXT
  5
4E
100
AcDbEntity
  8
2
370
    50
100
AcDbText
 10
-150.010785
 20
-66.985616
 30
0.0
 40
1.0
  1
　
 72
     5
 11
-150.210785
 21
-66.985616
 31
0.0
100
AcDbText
  0
LINE
  5
4F
100
AcDbEntity
  8
2
370
    50
100
AcDbLine
 10
-4.281417
 20
-73.021586
 30
0.0
 11
-4.281417
 21
-52.067586
 31
0.0
  0
LINE
  5
50
100
AcDbEntity
  8
2
370
    50
100
AcDbLine
 10
-4.281417
 20
56.314422
 30
0.0
 11
-4.281417
 21
62.179547
 31
0.0
  0
LINE
  5
51
100
AcDbEntity
  8
2
370
    50
100
AcDbLine
 10
-4.281417
 20
71.403376
 30
0.0
 11
-4.281417
 21
77.268422
 31
0.0
  0
CIRCLE
  5
52
100
AcDbEntity
  8
2
370
    50
100
AcDbCircle
 10
-98.293443
 20
-62.544586
 30
0.0
 40
6.5
  0
CIRCLE
  5
53
100
AcDbEntity
  8
2
370
    50
100
AcDbCircle
 10
-98.293443
 20
-62.544586
 30
0.0
 40
9.315
  0
CIRCLE
  5
54
100
AcDbEntity
  8
2
370
    50
100
AcDbCircle
 10
-98.293443
 20
-62.544586
 30
0.0
 40
10.477
  0
ARC
  5
55
100
AcDbEntity
  8
2
370
    50
100
AcDbCircle
 10
-98.293443
 20
-62.544586
 30
0.0
 40
13.0
100
AcDbArc
 50
158.213211
 51
21.786789
  0
ARC
  5
56
100
AcDbEntity
  8
2
370
    50
100
AcDbCircle
 10
-85.293443
 20
-57.348434
 30
0.0
 40
1.0
100
AcDbArc
 50
180.0
 51
201.786789
  0
ARC
  5
57
100
AcDbEntity
  8
2
370
    50
100
AcDbCircle
 10
-111.293443
 20
-57.348434
 30
0.0
 40
1.0
100
AcDbArc
 50
338.213211
 51
360.0
  0
LINE
  5
58
100
AcDbEntity
  8
2
370
    50
100
AcDbLine
 10
49.556445
 20
66.791258
 30
0.0
 11
58.417833
 21
66.791284
 31
0.0
  0
LINE
  5
59
100
AcDbEntity
  8
2
370
    50
100
AcDbLine
 10
59.556583
 20
-62.544586
 30
0.0
 11
59.556583
 21
-49.794586
 31
0.0
  0
LINE
  5
5A
100
AcDbEntity
  8
2
370
    50
100
AcDbLine
 10
59.556583
 20
-75.294586
 30
0.0
 11
59.556583
 21
-62.544586
 31
0.0
  0
ARC
  5
5B
100
AcDbEntity
  8
2
370
    50
100
AcDbCircle
 10
24.556583
 20
-42.044586
 30
0.0
 40
33.5
100
AcDbArc
 50
247.624
 51
284.593
  0
LINE
  5
5C
100
AcDbEntity
  8
2
370
    50
100
AcDbLine
 10
40.267583
 20
-74.044586
 30
0.0
 11
36.271583
 21
-74.044586
 31
0.0
  0
ARC
  5
5D
100
AcDbEntity
  8
2
370
    50
100
AcDbCircle
 10
40.267583
 20
-89.044586
 30
0.0
 40
15.0
100
AcDbArc
 50
51.737
 51
90.0
  0
ARC
  5
5E
100
AcDbEntity
  8
2
370
    50
100
AcDbCircle
 10
36.271583
 20
-87.044586
 30
0.0
 40
13.0
100
AcDbArc
 50
90.0
 51
104.593
  0
LINE
  5
5F
100
AcDbEntity
  8
2
370
    50
100
AcDbLine
 10
49.556583
 20
-77.266586
 30
0.0
 11
58.417583
 21
-77.266586
 31
0.0
  0
LINE
  5
60
100
AcDbEntity
  8
2
370
    50
100
AcDbLine
 10
11.803583
 20
-73.021586
 30
0.0
 11
-4.281417
 21
-73.021586
 31
0.0
  0
LINE
  5
61
100
AcDbEntity
  8
2
370
    50
100
AcDbLine
 10
49.556583
 20
-47.822586
 30
0.0
 11
58.417583
 21
-47.822586
 31
0.0
  0
ARC
  5
62
100
AcDbEntity
  8
2
370
    50
100
AcDbCircle
 10
41.372583
 20
-39.045586
 30
0.0
 40
12.0
100
AcDbArc
 50
271.508
 51
313.002
  0
LINE
  5
63
100
AcDbEntity
  8
2
370
    50
100
AcDbLine
 10
36.556583
 20
-46.044586
 30
0.0
 11
36.556583
 21
-36.572586
 31
0.0
  0
ARC
  5
64
100
AcDbEntity
  8
2
370
    50
100
AcDbCircle
 10
41.556583
 20
-46.044586
 30
0.0
 40
5.0
100
AcDbArc
 50
180.001
 51
270.001
  0
LINE
  5
65
100
AcDbEntity
  8
2
370
    50
100
AcDbLine
 10
58.417583
 20
-47.822586
 30
0.0
 11
59.556583
 21
-49.794586
 31
0.0
  0
LINE
  5
66
100
AcDbEntity
  8
2
370
    50
100
AcDbLine
 10
58.417583
 20
-77.266586
 30
0.0
 11
59.556583
 21
-75.294586
 31
0.0
  0
LINE
  5
67
100
AcDbEntity
  8
2
370
    50
100
AcDbLine
 10
12.556583
 20
-49.067586
 30
0.0
 11
12.556583
 21
-36.572586
 31
0.0
  0
LINE
  5
68
100
AcDbEntity
  8
2
370
    50
100
AcDbLine
 10
9.556583
 20
-52.067586
 30
0.0
 11
-4.281417
 21
-52.067586
 31
0.0
  0
ARC
  5
69
100
AcDbEntity
  8
2
370
    50
100
AcDbCircle
 10
9.556583
 20
-49.067586
 30
0.0
 40
3.0
100
AcDbArc
 50
270.001
 51
360.0
  0
LINE
  5
6A
100
AcDbEntity
  8
2
370
    50
100
AcDbLine
 10
4.556583
 20
-62.544586
 30
0.0
 11
4.556583
 21
-52.067586
 31
0.0
  0
LINE
  5
6B
100
AcDbEntity
  8
2
370
    50
100
AcDbLine
 10
4.556583
 20
-53.229586
 30
0.0
 11
6.569583
 21
-52.067586
 31
0.0
  0
LINE
  5
6C
100
AcDbEntity
  8
2
370
    25
100
AcDbLine
 10
-5.443417
 20
-53.229586
 30
0.0
 11
4.556583
 21
-53.229586
 31
0.0
  0
LINE
  5
6D
100
AcDbEntity
  8
2
370
    50
100
AcDbLine
 10
4.556583
 20
-71.859586
 30
0.0
 11
6.569583
 21
-73.021586
 31
0.0
  0
LINE
  5
6E
100
AcDbEntity
  8
2
370
    25
100
AcDbLine
 10
-5.443417
 20
-71.859586
 30
0.0
 11
4.556583
 21
-71.859586
 31
0.0
  0
LINE
  5
6F
100
AcDbEntity
  8
2
370
    50
100
AcDbLine
 10
4.556583
 20
-73.021586
 30
0.0
 11
4.556583
 21
-62.544586
 31
0.0
  0
LINE
  5
70
100
AcDbEntity
  8
2
370
    50
100
AcDbLine
 10
24.556583
 20
-37.136586
 30
0.0
 11
36.556583
 21
-37.136586
 31
0.0
  0
LINE
  5
71
100
AcDbEntity
  8
2
370
    50
100
AcDbLine
 10
35.743583
 20
-37.136586
 30
0.0
 11
36.556583
 21
-38.544586
 31
0.0
  0
LINE
  5
72
100
AcDbEntity
  8
2
370
    50
100
AcDbLine
 10
12.556583
 20
-37.136586
 30
0.0
 11
24.556583
 21
-37.136586
 31
0.0
  0
LINE
  5
73
100
AcDbEntity
  8
2
370
    50
100
AcDbLine
 10
13.369583
 20
-37.136586
 30
0.0
 11
12.556583
 21
-38.544586
 31
0.0
  0
LINE
  5
74
100
AcDbEntity
  8
2
370
    50
100
AcDbLine
 10
-110.293443
 20
-36.572586
 30
0.0
 11
-110.293443
 21
-57.348434
 31
0.0
  0
LINE
  5
75
100
AcDbEntity
  8
2
370
    50
100
AcDbLine
 10
-86.293443
 20
-36.572586
 30
0.0
 11
-86.293443
 21
-57.348434
 31
0.0
  0
LINE
  5
76
100
AcDbEntity
  8
2
370
    50
100
AcDbLine
 10
49.556583
 20
54.041422
 30
0.0
 11
59.556583
 21
54.041422
 31
0.0
  0
ARC
  5
77
100
AcDbEntity
  8
2
370
    50
100
AcDbCircle
 10
41.143583
 20
60.416422
 30
0.0
 40
18.413
100
AcDbArc
 50
339.744
 51
20.256
  0
ARC
  5
78
100
AcDbEntity
  8
2
370
    50
100
AcDbCircle
 10
66.830583
 20
60.416422
 30
0.0
 40
18.413
100
AcDbArc
 50
159.744
 51
200.257
  0
LINE
  5
79
100
AcDbEntity
  8
2
370
    50
100
AcDbLine
 10
49.556583
 20
79.541422
 30
0.0
 11
59.556583
 21
79.541422
 31
0.0
  0
LINE
  5
7A
100
AcDbEntity
  8
2
370
    50
100
AcDbLine
 10
59.556583
 20
54.041422
 30
0.0
 11
59.556583
 21
79.541422
 31
0.0
  0
ARC
  5
7B
100
AcDbEntity
  8
2
370
    50
100
AcDbCircle
 10
66.830583
 20
73.166422
 30
0.0
 40
18.413
100
AcDbArc
 50
159.744
 51
200.257
  0
ARC
  5
7C
100
AcDbEntity
  8
2
370
    50
100
AcDbCircle
 10
41.143583
 20
73.166422
 30
0.0
 40
18.413
100
AcDbArc
 50
339.744
 51
20.256
  0
LINE
  5
7D
100
AcDbEntity
  8
2
370
    50
100
AcDbLine
 10
44.223583
 20
78.291422
 30
0.0
 11
40.767073
 21
78.291422
 31
0.0
  0
ARC
  5
7E
100
AcDbEntity
  8
2
370
    50
100
AcDbCircle
 10
44.223583
 20
90.291422
 30
0.0
 40
12.0
100
AcDbArc
 50
270.0
 51
296.384
  0
LINE
  5
7F
100
AcDbEntity
  8
2
370
    50
100
AcDbLine
 10
44.223583
 20
55.291422
 30
0.0
 11
40.762665
 21
55.291422
 31
0.0
  0
ARC
  5
80
100
AcDbEntity
  8
2
370
    50
100
AcDbCircle
 10
44.223583
 20
43.291422
 30
0.0
 40
12.0
100
AcDbArc
 50
63.616
 51
90.0
  0
LINE
  5
81
100
AcDbEntity
  8
2
370
    50
100
AcDbLine
 10
4.249583
 20
56.313422
 30
0.0
 11
-4.281417
 21
56.313422
 31
0.0
  0
ARC
  5
82
100
AcDbEntity
  8
2
370
    50
100
AcDbCircle
 10
4.249583
 20
-13.685578
 30
0.0
 40
70.0
100
AcDbArc
 50
79.917407
 51
90.0
  0
LINE
  5
83
100
AcDbEntity
  8
2
370
    50
100
AcDbLine
 10
4.249583
 20
77.268422
 30
0.0
 11
-4.281417
 21
77.268422
 31
0.0
  0
ARC
  5
84
100
AcDbEntity
  8
2
370
    50
100
AcDbCircle
 10
4.249583
 20
147.268422
 30
0.0
 40
70.0
100
AcDbArc
 50
270.0
 51
280.082593
  0
LINE
  5
85
100
AcDbEntity
  8
2
370
    50
100
AcDbLine
 10
4.556583
 20
57.475422
 30
0.0
 11
6.569583
 21
56.313422
 31
0.0
  0
LINE
  5
86
100
AcDbEntity
  8
2
370
    50
100
AcDbLine
 10
4.556583
 20
59.076568
 30
0.0
 11
4.556583
 21
56.313422
 31
0.0
  0
LINE
  5
87
100
AcDbEntity
  8
2
370
    25
100
AcDbLine
 10
-5.442417
 20
57.475422
 30
0.0
 11
4.556583
 21
57.475422
 31
0.0
  0
LINE
  5
88
100
AcDbEntity
  8
2
370
    50
100
AcDbLine
 10
4.556583
 20
76.106422
 30
0.0
 11
6.569583
 21
77.268422
 31
0.0
  0
LINE
  5
89
100
AcDbEntity
  8
2
370
    25
100
AcDbLine
 10
-5.443417
 20
76.106422
 30
0.0
 11
4.556583
 21
76.106422
 31
0.0
  0
LINE
  5
8A
100
AcDbEntity
  8
2
370
    50
100
AcDbLine
 10
4.556583
 20
74.512031
 30
0.0
 11
4.556583
 21
77.268422
 31
0.0
  0
LINE
  5
8B
100
AcDbEntity
  8
2
370
    50
100
AcDbLine
 10
49.556685
 20
-55.183586
 30
0.0
 11
57.584583
 21
-55.183586
 31
0.0
  0
LINE
  5
8C
100
AcDbEntity
  8
2
370
    50
100
AcDbLine
 10
49.556685
 20
-69.905586
 30
0.0
 11
57.584583
 21
-69.905586
 31
0.0
  0
ARC
  5
8D
100
AcDbEntity
  8
2
370
    50
100
AcDbCircle
 10
62.308953
 20
-62.544586
 30
0.0
 40
14.724288
100
AcDbArc
 50
150.00514
 51
209.99486
  0
ARC
  5
8E
100
AcDbEntity
  8
2
370
    50
100
AcDbCircle
 10
44.832165
 20
-62.544586
 30
0.0
 40
14.724418
100
AcDbArc
 50
330.005432
 51
29.994568
  0
ARC
  5
8F
100
AcDbEntity
  8
2
370
    50
100
AcDbCircle
 10
55.135979
 20
-51.503086
 30
0.0
 40
4.420605
100
AcDbArc
 50
303.635476
 51
360.0
  0
ARC
  5
90
100
AcDbEntity
  8
2
370
    50
100
AcDbCircle
 10
52.005115
 20
-51.503155
 30
0.0
 40
4.42045
100
AcDbArc
 50
147.813463
 51
236.365908
  0
ARC
  5
91
100
AcDbEntity
  8
2
370
    50
100
AcDbCircle
 10
55.135979
 20
-73.586086
 30
0.0
 40
4.420605
100
AcDbArc
 50
0.0
 51
56.364524
  0
ARC
  5
92
100
AcDbEntity
  8
2
370
    50
100
AcDbCircle
 10
52.005115
 20
-73.586017
 30
0.0
 40
4.42045
100
AcDbArc
 50
123.634092
 51
229.280657
  0
LINE
  5
93
100
AcDbEntity
  8
2
370
    50
100
AcDbLine
 10
-98.293443
 20
-37.136586
 30
0.0
 11
-86.293443
 21
-37.136586
 31
0.0
  0
LINE
  5
94
100
AcDbEntity
  8
2
370
    50
100
AcDbLine
 10
-87.106443
 20
-37.136586
 30
0.0
 11
-86.293443
 21
-38.544586
 31
0.0
  0
LINE
  5
95
100
AcDbEntity
  8
2
370
    50
100
AcDbLine
 10
-110.293443
 20
-37.136586
 30
0.0
 11
-98.293443
 21
-37.136586
 31
0.0
  0
LINE
  5
96
100
AcDbEntity
  8
2
370
    50
100
AcDbLine
 10
-109.480443
 20
-37.136586
 30
0.0
 11
-110.293443
 21
-38.544586
 31
0.0
  0
LINE
  5
97
100
AcDbEntity
  8
2
370
    50
100
AcDbLine
 10
-109.480443
 20
-37.136586
 30
0.0
 11
-109.480443
 21
-36.572586
 31
0.0
  0
LINE
  5
98
100
AcDbEntity
  8
2
370
    50
100
AcDbLine
 10
-87.106443
 20
-37.136586
 30
0.0
 11
-87.106443
 21
-36.572586
 31
0.0
  0
LINE
  5
99
100
AcDbEntity
  8
2
370
    50
100
AcDbLine
 10
13.369583
 20
-37.136586
 30
0.0
 11
13.369583
 21
-36.572586
 31
0.0
  0
LINE
  5
9A
100
AcDbEntity
  8
2
370
    50
100
AcDbLine
 10
35.743583
 20
-37.136586
 30
0.0
 11
35.743583
 21
-36.572586
 31
0.0
  0
LINE
  5
9B
100
AcDbEntity
  8
2
370
    50
100
AcDbLine
 10
-111.043069
 20
-55.183586
 30
0.0
 11
-111.04313
 21
-60.005792
 31
0.0
  0
LINE
  5
9C
100
AcDbEntity
  8
2
370
    50
100
AcDbLine
 10
-111.043069
 20
-55.183586
 30
0.0
 11
-111.043097
 21
-57.395914
 31
0.0
  0
LINE
  5
9D
100
AcDbEntity
  8
2
370
    50
100
AcDbLine
 10
-111.043194
 20
-65.083056
 30
0.0
 11
-111.043256
 21
-69.905262
 31
0.0
  0
LINE
  5
9E
100
AcDbEntity
  8
2
370
    50
100
AcDbLine
 10
-111.043069
 20
-55.183586
 30
0.0
 11
-111.043097
 21
-57.395914
 31
0.0
  0
LINE
  5
9F
100
AcDbEntity
  8
2
370
    50
100
AcDbLine
 10
-111.043228
 20
-67.692934
 30
0.0
 11
-111.043256
 21
-69.905262
 31
0.0
  0
LINE
  5
A0
100
AcDbEntity
  8
2
370
    50
100
AcDbLine
 10
-111.043256
 20
-69.905262
 30
0.0
 11
-106.867902
 21
-72.315904
 31
0.0
  0
LINE
  5
A1
100
AcDbEntity
  8
2
370
    50
100
AcDbLine
 10
-98.293443
 20
-77.26637
 30
0.0
 11
-94.118166
 21
-74.855844
 31
0.0
  0
LINE
  5
A2
100
AcDbEntity
  8
2
370
    50
100
AcDbLine
 10
-85.543817
 20
-69.905586
 30
0.0
 11
-85.543939
 21
-65.084303
 31
0.0
  0
LINE
  5
A3
100
AcDbEntity
  8
2
370
    50
100
AcDbLine
 10
-85.544068
 20
-60.004222
 30
0.0
 11
-85.544191
 21
-55.182938
 31
0.0
  0
LINE
  5
A4
100
AcDbEntity
  8
2
370
    50
100
AcDbLine
 10
-85.544191
 20
-55.182938
 30
0.0
 11
-86.293443
 21
-54.750383
 31
0.0
  0
LINE
  5
A5
100
AcDbEntity
  8
2
370
    50
100
AcDbLine
 10
-110.293443
 20
-54.750789
 30
0.0
 11
-111.043069
 21
-55.183586
 31
0.0
  0
LINE
  5
A6
100
AcDbEntity
  8
2
370
    50
100
AcDbLine
 10
-5.443417
 20
-62.544586
 30
0.0
 11
-5.443417
 21
-53.229586
 31
0.0
  0
LINE
  5
A7
100
AcDbEntity
  8
2
370
    50
100
AcDbLine
 10
-5.443417
 20
-62.544586
 30
0.0
 11
-5.443417
 21
-71.859586
 31
0.0
  0
LINE
  5
A8
100
AcDbEntity
  8
2
370
    50
100
AcDbLine
 10
-4.281417
 20
-73.021586
 30
0.0
 11
-5.443417
 21
-71.859586
 31
0.0
  0
LINE
  5
A9
100
AcDbEntity
  8
2
370
    50
100
AcDbLine
 10
-5.443417
 20
-53.229586
 30
0.0
 11
-4.281417
 21
-52.067586
 31
0.0
  0
LINE
  5
AA
100
AcDbEntity
  8
2
370
    50
100
AcDbLine
 10
-5.443417
 20
70.108086
 30
0.0
 11
-5.443417
 21
76.106422
 31
0.0
  0
LINE
  5
AB
100
AcDbEntity
  8
2
370
    50
100
AcDbLine
 10
-5.443417
 20
63.474837
 30
0.0
 11
-5.443417
 21
57.476422
 31
0.0
  0
LINE
  5
AC
100
AcDbEntity
  8
2
370
    50
100
AcDbLine
 10
-4.281417
 20
56.314422
 30
0.0
 11
-5.443417
 21
57.476422
 31
0.0
  0
LINE
  5
AD
100
AcDbEntity
  8
2
370
    50
100
AcDbLine
 10
-5.443417
 20
76.106422
 30
0.0
 11
-4.281417
 21
77.268422
 31
0.0
  0
LINE
  5
AE
100
AcDbEntity
  8
2
370
    50
100
AcDbLine
 10
-102.468423
 20
-74.855944
 30
0.0
 11
-98.293443
 21
-77.26637
 31
0.0
  0
LINE
  5
AF
100
AcDbEntity
  8
2
370
    50
100
AcDbLine
 10
-89.719468
 20
-72.316329
 30
0.0
 11
-85.543817
 21
-69.905586
 31
0.0
  0
ARC
  5
B0
100
AcDbEntity
  8
2
370
    50
100
AcDbCircle
 10
24.556583
 20
-24.044586
 30
0.0
 40
18.5
100
AcDbArc
 50
71.074
 51
89.999
  0
ARC
  5
B1
100
AcDbEntity
  8
2
370
    50
100
AcDbCircle
 10
24.556583
 20
-24.044586
 30
0.0
 40
18.5
100
AcDbArc
 50
89.999
 51
108.924
  0
LINE
  5
B2
100
AcDbEntity
  8
2
370
    50
100
AcDbLine
 10
30.556583
 20
-6.544586
 30
0.0
 11
24.556583
 21
-6.544586
 31
0.0
  0
LINE
  5
B3
100
AcDbEntity
  8
2
370
    50
100
AcDbLine
 10
18.556583
 20
-6.544586
 30
0.0
 11
24.556583
 21
-6.544586
 31
0.0
  0
LINE
  5
B4
100
AcDbEntity
  8
2
370
    50
100
AcDbLine
 10
24.556583
 20
-6.544586
 30
0.0
 11
24.556583
 21
-8.544586
 31
0.0
  0
LINE
  5
B5
100
AcDbEntity
  8
2
370
    50
100
AcDbLine
 10
18.556583
 20
-6.544586
 30
0.0
 11
18.556583
 21
-8.544586
 31
0.0
  0
LINE
  5
B6
100
AcDbEntity
  8
2
370
    50
100
AcDbLine
 10
23.756583
 20
-6.544586
 30
0.0
 11
23.756583
 21
-8.544586
 31
0.0
  0
LINE
  5
B7
100
AcDbEntity
  8
2
370
    50
100
AcDbLine
 10
22.971583
 20
-6.544586
 30
0.0
 11
22.971583
 21
-8.544586
 31
0.0
  0
LINE
  5
B8
100
AcDbEntity
  8
2
370
    50
100
AcDbLine
 10
22.213583
 20
-6.544586
 30
0.0
 11
22.213583
 21
-8.544586
 31
0.0
  0
LINE
  5
B9
100
AcDbEntity
  8
2
370
    50
100
AcDbLine
 10
21.498583
 20
-6.544586
 30
0.0
 11
21.498583
 21
-8.544586
 31
0.0
  0
LINE
  5
BA
100
AcDbEntity
  8
2
370
    50
100
AcDbLine
 10
20.837583
 20
-6.544586
 30
0.0
 11
20.837583
 21
-8.544586
 31
0.0
  0
LINE
  5
BB
100
AcDbEntity
  8
2
370
    50
100
AcDbLine
 10
20.243583
 20
-6.544586
 30
0.0
 11
20.243583
 21
-8.544586
 31
0.0
  0
LINE
  5
BC
100
AcDbEntity
  8
2
370
    50
100
AcDbLine
 10
19.725583
 20
-6.544586
 30
0.0
 11
19.725583
 21
-8.544586
 31
0.0
  0
LINE
  5
BD
100
AcDbEntity
  8
2
370
    50
100
AcDbLine
 10
19.294583
 20
-6.544586
 30
0.0
 11
19.294583
 21
-8.544586
 31
0.0
  0
LINE
  5
BE
100
AcDbEntity
  8
2
370
    50
100
AcDbLine
 10
18.957583
 20
-6.544586
 30
0.0
 11
18.957583
 21
-8.544586
 31
0.0
  0
LINE
  5
BF
100
AcDbEntity
  8
2
370
    50
100
AcDbLine
 10
18.719583
 20
-6.544586
 30
0.0
 11
18.719583
 21
-8.544586
 31
0.0
  0
LINE
  5
C0
100
AcDbEntity
  8
2
370
    50
100
AcDbLine
 10
18.586583
 20
-6.544586
 30
0.0
 11
18.586583
 21
-8.544586
 31
0.0
  0
LINE
  5
C1
100
AcDbEntity
  8
2
370
    50
100
AcDbLine
 10
30.526583
 20
-6.544586
 30
0.0
 11
30.526583
 21
-8.544586
 31
0.0
  0
LINE
  5
C2
100
AcDbEntity
  8
2
370
    50
100
AcDbLine
 10
30.393583
 20
-6.544586
 30
0.0
 11
30.393583
 21
-8.544586
 31
0.0
  0
LINE
  5
C3
100
AcDbEntity
  8
2
370
    50
100
AcDbLine
 10
30.155583
 20
-6.544586
 30
0.0
 11
30.155583
 21
-8.544586
 31
0.0
  0
LINE
  5
C4
100
AcDbEntity
  8
2
370
    50
100
AcDbLine
 10
29.818583
 20
-6.544586
 30
0.0
 11
29.818583
 21
-8.544586
 31
0.0
  0
LINE
  5
C5
100
AcDbEntity
  8
2
370
    50
100
AcDbLine
 10
29.387583
 20
-6.544586
 30
0.0
 11
29.387583
 21
-8.544586
 31
0.0
  0
LINE
  5
C6
100
AcDbEntity
  8
2
370
    50
100
AcDbLine
 10
28.869583
 20
-6.544586
 30
0.0
 11
28.869583
 21
-8.544586
 31
0.0
  0
LINE
  5
C7
100
AcDbEntity
  8
2
370
    50
100
AcDbLine
 10
28.275583
 20
-6.544586
 30
0.0
 11
28.275583
 21
-8.544586
 31
0.0
  0
LINE
  5
C8
100
AcDbEntity
  8
2
370
    50
100
AcDbLine
 10
27.614583
 20
-6.544586
 30
0.0
 11
27.614583
 21
-8.544586
 31
0.0
  0
LINE
  5
C9
100
AcDbEntity
  8
2
370
    50
100
AcDbLine
 10
26.898583
 20
-6.544586
 30
0.0
 11
26.898583
 21
-8.544586
 31
0.0
  0
LINE
  5
CA
100
AcDbEntity
  8
2
370
    50
100
AcDbLine
 10
26.141583
 20
-6.544586
 30
0.0
 11
26.141583
 21
-8.544586
 31
0.0
  0
LINE
  5
CB
100
AcDbEntity
  8
2
370
    50
100
AcDbLine
 10
25.356583
 20
-6.544586
 30
0.0
 11
25.356583
 21
-8.544586
 31
0.0
  0
LINE
  5
CC
100
AcDbEntity
  8
2
370
    50
100
AcDbLine
 10
30.556583
 20
-6.544586
 30
0.0
 11
30.556583
 21
-8.544586
 31
0.0
  0
LINE
  5
CD
100
AcDbEntity
  8
2
370
    50
100
AcDbLine
 10
30.556583
 20
-8.544586
 30
0.0
 11
24.556583
 21
-8.544586
 31
0.0
  0
LINE
  5
CE
100
AcDbEntity
  8
2
370
    50
100
AcDbLine
 10
18.556583
 20
-8.544586
 30
0.0
 11
24.556583
 21
-8.544586
 31
0.0
  0
CIRCLE
  5
CF
100
AcDbEntity
  8
2
370
    50
100
AcDbCircle
 10
24.556583
 20
66.791422
 30
0.0
 40
6.0
  0
ARC
  5
D0
100
AcDbEntity
  8
2
370
    50
100
AcDbCircle
 10
-98.293443
 20
-24.044589
 30
0.0
 40
18.5
100
AcDbArc
 50
90.002
 51
108.927
  0
ARC
  5
D1
100
AcDbEntity
  8
2
370
    50
100
AcDbCircle
 10
-98.293443
 20
-24.044589
 30
0.0
 40
18.5
100
AcDbArc
 50
71.076
 51
90.002
  0
LINE
  5
D2
100
AcDbEntity
  8
2
370
    50
100
AcDbLine
 10
-104.293443
 20
-6.544589
 30
0.0
 11
-98.293443
 21
-6.544589
 31
0.0
  0
LINE
  5
D3
100
AcDbEntity
  8
2
370
    50
100
AcDbLine
 10
-92.293443
 20
-6.544589
 30
0.0
 11
-98.293443
 21
-6.544589
 31
0.0
  0
LINE
  5
D4
100
AcDbEntity
  8
2
370
    50
100
AcDbLine
 10
-98.293443
 20
-6.544589
 30
0.0
 11
-98.293443
 21
-8.544589
 31
0.0
  0
LINE
  5
D5
100
AcDbEntity
  8
2
370
    50
100
AcDbLine
 10
-92.293443
 20
-6.544589
 30
0.0
 11
-92.293443
 21
-8.544589
 31
0.0
  0
LINE
  5
D6
100
AcDbEntity
  8
2
370
    50
100
AcDbLine
 10
-97.493443
 20
-6.544589
 30
0.0
 11
-97.493443
 21
-8.544589
 31
0.0
  0
LINE
  5
D7
100
AcDbEntity
  8
2
370
    50
100
AcDbLine
 10
-96.708443
 20
-6.544589
 30
0.0
 11
-96.708443
 21
-8.544589
 31
0.0
  0
LINE
  5
D8
100
AcDbEntity
  8
2
370
    50
100
AcDbLine
 10
-95.951443
 20
-6.544589
 30
0.0
 11
-95.951443
 21
-8.544589
 31
0.0
  0
LINE
  5
D9
100
AcDbEntity
  8
2
370
    50
100
AcDbLine
 10
-95.235443
 20
-6.544589
 30
0.0
 11
-95.235443
 21
-8.544589
 31
0.0
  0
LINE
  5
DA
100
AcDbEntity
  8
2
370
    50
100
AcDbLine
 10
-94.574443
 20
-6.544589
 30
0.0
 11
-94.574443
 21
-8.544589
 31
0.0
  0
LINE
  5
DB
100
AcDbEntity
  8
2
370
    50
100
AcDbLine
 10
-93.980443
 20
-6.544589
 30
0.0
 11
-93.980443
 21
-8.544589
 31
0.0
  0
LINE
  5
DC
100
AcDbEntity
  8
2
370
    50
100
AcDbLine
 10
-93.462443
 20
-6.544589
 30
0.0
 11
-93.462443
 21
-8.544589
 31
0.0
  0
LINE
  5
DD
100
AcDbEntity
  8
2
370
    50
100
AcDbLine
 10
-93.031443
 20
-6.544589
 30
0.0
 11
-93.031443
 21
-8.544589
 31
0.0
  0
LINE
  5
DE
100
AcDbEntity
  8
2
370
    50
100
AcDbLine
 10
-92.694443
 20
-6.544589
 30
0.0
 11
-92.694443
 21
-8.544589
 31
0.0
  0
LINE
  5
DF
100
AcDbEntity
  8
2
370
    50
100
AcDbLine
 10
-92.456443
 20
-6.544589
 30
0.0
 11
-92.456443
 21
-8.544589
 31
0.0
  0
LINE
  5
E0
100
AcDbEntity
  8
2
370
    50
100
AcDbLine
 10
-92.323443
 20
-6.544589
 30
0.0
 11
-92.323443
 21
-8.544589
 31
0.0
  0
LINE
  5
E1
100
AcDbEntity
  8
2
370
    50
100
AcDbLine
 10
-104.263443
 20
-6.544589
 30
0.0
 11
-104.263443
 21
-8.544589
 31
0.0
  0
LINE
  5
E2
100
AcDbEntity
  8
2
370
    50
100
AcDbLine
 10
-104.130443
 20
-6.544589
 30
0.0
 11
-104.130443
 21
-8.544589
 31
0.0
  0
LINE
  5
E3
100
AcDbEntity
  8
2
370
    50
100
AcDbLine
 10
-103.892443
 20
-6.544589
 30
0.0
 11
-103.892443
 21
-8.544589
 31
0.0
  0
LINE
  5
E4
100
AcDbEntity
  8
2
370
    50
100
AcDbLine
 10
-103.555443
 20
-6.544589
 30
0.0
 11
-103.555443
 21
-8.544589
 31
0.0
  0
LINE
  5
E5
100
AcDbEntity
  8
2
370
    50
100
AcDbLine
 10
-103.124443
 20
-6.544589
 30
0.0
 11
-103.124443
 21
-8.544589
 31
0.0
  0
LINE
  5
E6
100
AcDbEntity
  8
2
370
    50
100
AcDbLine
 10
-102.606443
 20
-6.544589
 30
0.0
 11
-102.606443
 21
-8.544589
 31
0.0
  0
LINE
  5
E7
100
AcDbEntity
  8
2
370
    50
100
AcDbLine
 10
-102.012443
 20
-6.544589
 30
0.0
 11
-102.012443
 21
-8.544589
 31
0.0
  0
LINE
  5
E8
100
AcDbEntity
  8
2
370
    50
100
AcDbLine
 10
-101.351443
 20
-6.544589
 30
0.0
 11
-101.351443
 21
-8.544589
 31
0.0
  0
LINE
  5
E9
100
AcDbEntity
  8
2
370
    50
100
AcDbLine
 10
-100.635443
 20
-6.544589
 30
0.0
 11
-100.635443
 21
-8.544589
 31
0.0
  0
LINE
  5
EA
100
AcDbEntity
  8
2
370
    50
100
AcDbLine
 10
-99.878443
 20
-6.544589
 30
0.0
 11
-99.878443
 21
-8.544589
 31
0.0
  0
LINE
  5
EB
100
AcDbEntity
  8
2
370
    50
100
AcDbLine
 10
-99.093443
 20
-6.544589
 30
0.0
 11
-99.093443
 21
-8.544589
 31
0.0
  0
LINE
  5
EC
100
AcDbEntity
  8
2
370
    50
100
AcDbLine
 10
-104.293443
 20
-6.544589
 30
0.0
 11
-104.293443
 21
-8.544589
 31
0.0
  0
LINE
  5
ED
100
AcDbEntity
  8
2
370
    50
100
AcDbLine
 10
-104.293443
 20
-8.544589
 30
0.0
 11
-98.293443
 21
-8.544589
 31
0.0
  0
LINE
  5
EE
100
AcDbEntity
  8
2
370
    50
100
AcDbLine
 10
-92.293443
 20
-8.544589
 30
0.0
 11
-98.293443
 21
-8.544589
 31
0.0
  0
ARC
  5
EF
100
AcDbEntity
  8
2
370
    50
100
AcDbCircle
 10
6.941583
 20
-10.259586
 30
0.0
 40
18.0
100
AcDbArc
 50
288.49
 51
312.304
  0
ARC
  5
F0
100
AcDbEntity
  8
2
370
    50
100
AcDbCircle
 10
14.235583
 20
-32.072586
 30
0.0
 40
5.0
100
AcDbArc
 50
108.49
 51
133.305
  0
ARC
  5
F1
100
AcDbEntity
  8
2
370
    50
100
AcDbCircle
 10
14.235583
 20
-32.072586
 30
0.0
 40
5.0
100
AcDbArc
 50
226.694
 51
244.158
  0
LINE
  5
F2
100
AcDbEntity
  8
2
370
    50
100
AcDbLine
 10
10.806583
 20
-35.711586
 30
0.0
 11
10.806583
 21
-28.434586
 31
0.0
  0
LINE
  5
F3
100
AcDbEntity
  8
2
370
    50
100
AcDbLine
 10
38.306583
 20
-35.711586
 30
0.0
 11
38.306583
 21
-28.434586
 31
0.0
  0
ARC
  5
F4
100
AcDbEntity
  8
2
370
    50
100
AcDbCircle
 10
34.876583
 20
-32.072586
 30
0.0
 40
5.0
100
AcDbArc
 50
295.841
 51
313.306
  0
ARC
  5
F5
100
AcDbEntity
  8
2
370
    50
100
AcDbCircle
 10
34.876583
 20
-32.072586
 30
0.0
 40
5.0
100
AcDbArc
 50
46.693
 51
71.508
  0
ARC
  5
F6
100
AcDbEntity
  8
2
370
    50
100
AcDbCircle
 10
42.171583
 20
-10.259586
 30
0.0
 40
18.0
100
AcDbArc
 50
227.697
 51
251.509
  0
LINE
  5
F7
100
AcDbEntity
  8
2
370
    50
100
AcDbLine
 10
24.556583
 20
-23.572586
 30
0.0
 11
19.056583
 21
-23.572586
 31
0.0
  0
LINE
  5
F8
100
AcDbEntity
  8
2
370
    50
100
AcDbLine
 10
24.556583
 20
-23.572586
 30
0.0
 11
30.056583
 21
-23.572586
 31
0.0
  0
LINE
  5
F9
100
AcDbEntity
  8
2
370
    50
100
AcDbLine
 10
24.556583
 20
-36.572586
 30
0.0
 11
12.056583
 21
-36.572586
 31
0.0
  0
LINE
  5
FA
100
AcDbEntity
  8
2
370
    50
100
AcDbLine
 10
24.556583
 20
-36.572586
 30
0.0
 11
37.056583
 21
-36.572586
 31
0.0
  0
LINE
  5
FB
100
AcDbEntity
  8
2
370
    50
100
AcDbLine
 10
38.306583
 20
-35.711586
 30
0.0
 11
38.306583
 21
-28.433586
 31
0.0
  0
ARC
  5
FC
100
AcDbEntity
  8
2
370
    50
100
AcDbCircle
 10
34.877583
 20
-32.072586
 30
0.0
 40
5.0
100
AcDbArc
 50
295.842
 51
313.306
  0
ARC
  5
FD
100
AcDbEntity
  8
2
370
    50
100
AcDbCircle
 10
34.877583
 20
-32.072586
 30
0.0
 40
5.0
100
AcDbArc
 50
46.695
 51
71.509
  0
LINE
  5
FE
100
AcDbEntity
  8
2
370
    50
100
AcDbLine
 10
37.056583
 20
-36.572586
 30
0.0
 11
24.556583
 21
-36.572586
 31
0.0
  0
LINE
  5
FF
100
AcDbEntity
  8
2
370
    50
100
AcDbLine
 10
33.575583
 20
-28.433586
 30
0.0
 11
29.035583
 21
-28.433586
 31
0.0
  0
LINE
  5
100
100
AcDbEntity
  8
2
370
    50
100
AcDbLine
 10
29.035583
 20
-35.711586
 30
0.0
 11
33.575583
 21
-35.711586
 31
0.0
  0
LINE
  5
101
100
AcDbEntity
  8
2
370
    50
100
AcDbLine
 10
33.575583
 20
-28.433586
 30
0.0
 11
33.575583
 21
-35.711586
 31
0.0
  0
LINE
  5
102
100
AcDbEntity
  8
2
370
    50
100
AcDbLine
 10
29.035583
 20
-28.433586
 30
0.0
 11
29.035583
 21
-35.711586
 31
0.0
  0
LINE
  5
103
100
AcDbEntity
  8
2
370
    50
100
AcDbLine
 10
29.035583
 20
-28.433586
 30
0.0
 11
27.980583
 21
-28.090586
 31
0.0
  0
LINE
  5
104
100
AcDbEntity
  8
2
370
    50
100
AcDbLine
 10
27.980583
 20
-28.090586
 30
0.0
 11
26.824583
 21
-27.974586
 31
0.0
  0
LINE
  5
105
100
AcDbEntity
  8
2
370
    50
100
AcDbLine
 10
26.824583
 20
-27.974586
 30
0.0
 11
26.164583
 21
-27.936586
 31
0.0
  0
LINE
  5
106
100
AcDbEntity
  8
2
370
    50
100
AcDbLine
 10
26.164583
 20
-27.936586
 30
0.0
 11
25.770583
 21
-27.920586
 31
0.0
  0
LINE
  5
107
100
AcDbEntity
  8
2
370
    50
100
AcDbLine
 10
25.770583
 20
-27.920586
 30
0.0
 11
25.509583
 21
-27.913586
 31
0.0
  0
LINE
  5
108
100
AcDbEntity
  8
2
370
    50
100
AcDbLine
 10
25.509583
 20
-27.913586
 30
0.0
 11
25.324583
 21
-27.908586
 31
0.0
  0
LINE
  5
109
100
AcDbEntity
  8
2
370
    50
100
AcDbLine
 10
25.324583
 20
-27.908586
 30
0.0
 11
25.183583
 21
-27.906586
 31
0.0
  0
LINE
  5
10A
100
AcDbEntity
  8
2
370
    50
100
AcDbLine
 10
25.183583
 20
-27.906586
 30
0.0
 11
25.070583
 21
-27.904586
 31
0.0
  0
LINE
  5
10B
100
AcDbEntity
  8
2
370
    50
100
AcDbLine
 10
25.070583
 20
-27.904586
 30
0.0
 11
24.977583
 21
-27.903586
 31
0.0
  0
LINE
  5
10C
100
AcDbEntity
  8
2
370
    50
100
AcDbLine
 10
24.977583
 20
-27.903586
 30
0.0
 11
24.897583
 21
-27.902586
 31
0.0
  0
LINE
  5
10D
100
AcDbEntity
  8
2
370
    50
100
AcDbLine
 10
24.897583
 20
-27.902586
 30
0.0
 11
24.827583
 21
-27.901586
 31
0.0
  0
LINE
  5
10E
100
AcDbEntity
  8
2
370
    50
100
AcDbLine
 10
24.827583
 20
-27.901586
 30
0.0
 11
24.763583
 21
-27.901586
 31
0.0
  0
LINE
  5
10F
100
AcDbEntity
  8
2
370
    50
100
AcDbLine
 10
24.763583
 20
-27.901586
 30
0.0
 11
24.704583
 21
-27.901586
 31
0.0
  0
LINE
  5
110
100
AcDbEntity
  8
2
370
    50
100
AcDbLine
 10
24.704583
 20
-27.901586
 30
0.0
 11
24.648583
 21
-27.901586
 31
0.0
  0
LINE
  5
111
100
AcDbEntity
  8
2
370
    50
100
AcDbLine
 10
24.648583
 20
-27.901586
 30
0.0
 11
24.594583
 21
-27.900586
 31
0.0
  0
LINE
  5
112
100
AcDbEntity
  8
2
370
    50
100
AcDbLine
 10
24.594583
 20
-27.900586
 30
0.0
 11
24.556583
 21
-27.900586
 31
0.0
  0
LINE
  5
113
100
AcDbEntity
  8
2
370
    50
100
AcDbLine
 10
24.556583
 20
-36.572586
 30
0.0
 11
24.642583
 21
-36.571586
 31
0.0
  0
LINE
  5
114
100
AcDbEntity
  8
2
370
    50
100
AcDbLine
 10
24.642583
 20
-36.571586
 30
0.0
 11
24.730583
 21
-36.571586
 31
0.0
  0
LINE
  5
115
100
AcDbEntity
  8
2
370
    50
100
AcDbLine
 10
24.730583
 20
-36.571586
 30
0.0
 11
24.822583
 21
-36.570586
 31
0.0
  0
LINE
  5
116
100
AcDbEntity
  8
2
370
    50
100
AcDbLine
 10
24.822583
 20
-36.570586
 30
0.0
 11
24.919583
 21
-36.569586
 31
0.0
  0
LINE
  5
117
100
AcDbEntity
  8
2
370
    50
100
AcDbLine
 10
24.919583
 20
-36.569586
 30
0.0
 11
25.024583
 21
-36.567586
 31
0.0
  0
LINE
  5
118
100
AcDbEntity
  8
2
370
    50
100
AcDbLine
 10
25.024583
 20
-36.567586
 30
0.0
 11
25.140583
 21
-36.564586
 31
0.0
  0
LINE
  5
119
100
AcDbEntity
  8
2
370
    50
100
AcDbLine
 10
25.140583
 20
-36.564586
 30
0.0
 11
25.272583
 21
-36.560586
 31
0.0
  0
LINE
  5
11A
100
AcDbEntity
  8
2
370
    50
100
AcDbLine
 10
25.272583
 20
-36.560586
 30
0.0
 11
25.426583
 21
-36.555586
 31
0.0
  0
LINE
  5
11B
100
AcDbEntity
  8
2
370
    50
100
AcDbLine
 10
25.426583
 20
-36.555586
 30
0.0
 11
25.610583
 21
-36.547586
 31
0.0
  0
LINE
  5
11C
100
AcDbEntity
  8
2
370
    50
100
AcDbLine
 10
25.610583
 20
-36.547586
 30
0.0
 11
25.841583
 21
-36.535586
 31
0.0
  0
LINE
  5
11D
100
AcDbEntity
  8
2
370
    50
100
AcDbLine
 10
25.841583
 20
-36.535586
 30
0.0
 11
26.139583
 21
-36.516586
 31
0.0
  0
LINE
  5
11E
100
AcDbEntity
  8
2
370
    50
100
AcDbLine
 10
26.139583
 20
-36.516586
 30
0.0
 11
26.541583
 21
-36.482586
 31
0.0
  0
LINE
  5
11F
100
AcDbEntity
  8
2
370
    50
100
AcDbLine
 10
26.541583
 20
-36.482586
 30
0.0
 11
27.106583
 21
-36.418586
 31
0.0
  0
LINE
  5
120
100
AcDbEntity
  8
2
370
    50
100
AcDbLine
 10
27.106583
 20
-36.418586
 30
0.0
 11
27.890583
 21
-36.286586
 31
0.0
  0
LINE
  5
121
100
AcDbEntity
  8
2
370
    50
100
AcDbLine
 10
27.890583
 20
-36.286586
 30
0.0
 11
28.758583
 21
-36.009586
 31
0.0
  0
LINE
  5
122
100
AcDbEntity
  8
2
370
    50
100
AcDbLine
 10
28.758583
 20
-36.009586
 30
0.0
 11
29.035583
 21
-35.711586
 31
0.0
  0
LINE
  5
123
100
AcDbEntity
  8
2
370
    50
100
AcDbLine
 10
33.575583
 20
-35.711586
 30
0.0
 11
33.660583
 21
-35.939586
 31
0.0
  0
LINE
  5
124
100
AcDbEntity
  8
2
370
    50
100
AcDbLine
 10
33.660583
 20
-35.939586
 30
0.0
 11
33.874583
 21
-36.129586
 31
0.0
  0
LINE
  5
125
100
AcDbEntity
  8
2
370
    50
100
AcDbLine
 10
33.874583
 20
-36.129586
 30
0.0
 11
34.138583
 21
-36.268586
 31
0.0
  0
LINE
  5
126
100
AcDbEntity
  8
2
370
    50
100
AcDbLine
 10
34.138583
 20
-36.268586
 30
0.0
 11
34.397583
 21
-36.363586
 31
0.0
  0
LINE
  5
127
100
AcDbEntity
  8
2
370
    50
100
AcDbLine
 10
34.397583
 20
-36.363586
 30
0.0
 11
34.629583
 21
-36.427586
 31
0.0
  0
LINE
  5
128
100
AcDbEntity
  8
2
370
    50
100
AcDbLine
 10
34.629583
 20
-36.427586
 30
0.0
 11
34.829583
 21
-36.471586
 31
0.0
  0
LINE
  5
129
100
AcDbEntity
  8
2
370
    50
100
AcDbLine
 10
34.829583
 20
-36.471586
 30
0.0
 11
35.002583
 21
-36.501586
 31
0.0
  0
LINE
  5
12A
100
AcDbEntity
  8
2
370
    50
100
AcDbLine
 10
35.002583
 20
-36.501586
 30
0.0
 11
35.152583
 21
-36.522586
 31
0.0
  0
LINE
  5
12B
100
AcDbEntity
  8
2
370
    50
100
AcDbLine
 10
35.152583
 20
-36.522586
 30
0.0
 11
35.284583
 21
-36.538586
 31
0.0
  0
LINE
  5
12C
100
AcDbEntity
  8
2
370
    50
100
AcDbLine
 10
35.284583
 20
-36.538586
 30
0.0
 11
35.402583
 21
-36.549586
 31
0.0
  0
LINE
  5
12D
100
AcDbEntity
  8
2
370
    50
100
AcDbLine
 10
35.402583
 20
-36.549586
 30
0.0
 11
35.509583
 21
-36.557586
 31
0.0
  0
LINE
  5
12E
100
AcDbEntity
  8
2
370
    50
100
AcDbLine
 10
35.509583
 20
-36.557586
 30
0.0
 11
35.609583
 21
-36.563586
 31
0.0
  0
LINE
  5
12F
100
AcDbEntity
  8
2
370
    50
100
AcDbLine
 10
35.609583
 20
-36.563586
 30
0.0
 11
35.703583
 21
-36.567586
 31
0.0
  0
LINE
  5
130
100
AcDbEntity
  8
2
370
    50
100
AcDbLine
 10
35.703583
 20
-36.567586
 30
0.0
 11
35.792583
 21
-36.570586
 31
0.0
  0
LINE
  5
131
100
AcDbEntity
  8
2
370
    50
100
AcDbLine
 10
35.792583
 20
-36.570586
 30
0.0
 11
35.879583
 21
-36.571586
 31
0.0
  0
LINE
  5
132
100
AcDbEntity
  8
2
370
    50
100
AcDbLine
 10
35.879583
 20
-36.571586
 30
0.0
 11
35.940583
 21
-36.572586
 31
0.0
  0
LINE
  5
133
100
AcDbEntity
  8
2
370
    50
100
AcDbLine
 10
38.012583
 20
-28.176586
 30
0.0
 11
37.605583
 21
-28.055586
 31
0.0
  0
LINE
  5
134
100
AcDbEntity
  8
2
370
    50
100
AcDbLine
 10
37.605583
 20
-28.055586
 30
0.0
 11
37.260583
 21
-27.991586
 31
0.0
  0
LINE
  5
135
100
AcDbEntity
  8
2
370
    50
100
AcDbLine
 10
37.260583
 20
-27.991586
 30
0.0
 11
36.998583
 21
-27.957586
 31
0.0
  0
LINE
  5
136
100
AcDbEntity
  8
2
370
    50
100
AcDbLine
 10
36.998583
 20
-27.957586
 30
0.0
 11
36.800583
 21
-27.937586
 31
0.0
  0
LINE
  5
137
100
AcDbEntity
  8
2
370
    50
100
AcDbLine
 10
36.800583
 20
-27.937586
 30
0.0
 11
36.647583
 21
-27.925586
 31
0.0
  0
LINE
  5
138
100
AcDbEntity
  8
2
370
    50
100
AcDbLine
 10
36.647583
 20
-27.925586
 30
0.0
 11
36.525583
 21
-27.917586
 31
0.0
  0
LINE
  5
139
100
AcDbEntity
  8
2
370
    50
100
AcDbLine
 10
36.525583
 20
-27.917586
 30
0.0
 11
36.424583
 21
-27.912586
 31
0.0
  0
LINE
  5
13A
100
AcDbEntity
  8
2
370
    50
100
AcDbLine
 10
36.424583
 20
-27.912586
 30
0.0
 11
36.337583
 21
-27.908586
 31
0.0
  0
LINE
  5
13B
100
AcDbEntity
  8
2
370
    50
100
AcDbLine
 10
36.337583
 20
-27.908586
 30
0.0
 11
36.262583
 21
-27.905586
 31
0.0
  0
LINE
  5
13C
100
AcDbEntity
  8
2
370
    50
100
AcDbLine
 10
36.262583
 20
-27.905586
 30
0.0
 11
36.195583
 21
-27.904586
 31
0.0
  0
LINE
  5
13D
100
AcDbEntity
  8
2
370
    50
100
AcDbLine
 10
36.195583
 20
-27.904586
 30
0.0
 11
36.133583
 21
-27.902586
 31
0.0
  0
LINE
  5
13E
100
AcDbEntity
  8
2
370
    50
100
AcDbLine
 10
36.133583
 20
-27.902586
 30
0.0
 11
36.075583
 21
-27.901586
 31
0.0
  0
LINE
  5
13F
100
AcDbEntity
  8
2
370
    50
100
AcDbLine
 10
36.075583
 20
-27.901586
 30
0.0
 11
36.019583
 21
-27.901586
 31
0.0
  0
LINE
  5
140
100
AcDbEntity
  8
2
370
    50
100
AcDbLine
 10
36.019583
 20
-27.901586
 30
0.0
 11
35.966583
 21
-27.900586
 31
0.0
  0
LINE
  5
141
100
AcDbEntity
  8
2
370
    50
100
AcDbLine
 10
35.966583
 20
-27.900586
 30
0.0
 11
35.912583
 21
-27.901586
 31
0.0
  0
LINE
  5
142
100
AcDbEntity
  8
2
370
    50
100
AcDbLine
 10
35.912583
 20
-27.901586
 30
0.0
 11
35.858583
 21
-27.901586
 31
0.0
  0
LINE
  5
143
100
AcDbEntity
  8
2
370
    50
100
AcDbLine
 10
35.858583
 20
-27.901586
 30
0.0
 11
35.803583
 21
-27.901586
 31
0.0
  0
LINE
  5
144
100
AcDbEntity
  8
2
370
    50
100
AcDbLine
 10
35.803583
 20
-27.901586
 30
0.0
 11
35.745583
 21
-27.902586
 31
0.0
  0
LINE
  5
145
100
AcDbEntity
  8
2
370
    50
100
AcDbLine
 10
35.745583
 20
-27.902586
 30
0.0
 11
35.683583
 21
-27.904586
 31
0.0
  0
LINE
  5
146
100
AcDbEntity
  8
2
370
    50
100
AcDbLine
 10
35.683583
 20
-27.904586
 30
0.0
 11
35.615583
 21
-27.906586
 31
0.0
  0
LINE
  5
147
100
AcDbEntity
  8
2
370
    50
100
AcDbLine
 10
35.615583
 20
-27.906586
 30
0.0
 11
35.539583
 21
-27.908586
 31
0.0
  0
LINE
  5
148
100
AcDbEntity
  8
2
370
    50
100
AcDbLine
 10
35.539583
 20
-27.908586
 30
0.0
 11
35.452583
 21
-27.912586
 31
0.0
  0
LINE
  5
149
100
AcDbEntity
  8
2
370
    50
100
AcDbLine
 10
35.452583
 20
-27.912586
 30
0.0
 11
35.350583
 21
-27.917586
 31
0.0
  0
LINE
  5
14A
100
AcDbEntity
  8
2
370
    50
100
AcDbLine
 10
35.350583
 20
-27.917586
 30
0.0
 11
35.226583
 21
-27.925586
 31
0.0
  0
LINE
  5
14B
100
AcDbEntity
  8
2
370
    50
100
AcDbLine
 10
35.226583
 20
-27.925586
 30
0.0
 11
35.071583
 21
-27.938586
 31
0.0
  0
LINE
  5
14C
100
AcDbEntity
  8
2
370
    50
100
AcDbLine
 10
35.071583
 20
-27.938586
 30
0.0
 11
34.870583
 21
-27.958586
 31
0.0
  0
LINE
  5
14D
100
AcDbEntity
  8
2
370
    50
100
AcDbLine
 10
34.870583
 20
-27.958586
 30
0.0
 11
34.604583
 21
-27.994586
 31
0.0
  0
LINE
  5
14E
100
AcDbEntity
  8
2
370
    50
100
AcDbLine
 10
34.604583
 20
-27.994586
 30
0.0
 11
34.254583
 21
-28.060586
 31
0.0
  0
LINE
  5
14F
100
AcDbEntity
  8
2
370
    50
100
AcDbLine
 10
34.254583
 20
-28.060586
 30
0.0
 11
33.847583
 21
-28.185586
 31
0.0
  0
LINE
  5
150
100
AcDbEntity
  8
2
370
    50
100
AcDbLine
 10
33.847583
 20
-28.185586
 30
0.0
 11
33.582583
 21
-28.391586
 31
0.0
  0
LINE
  5
151
100
AcDbEntity
  8
2
370
    50
100
AcDbLine
 10
33.582583
 20
-28.391586
 30
0.0
 11
33.575583
 21
-28.433586
 31
0.0
  0
LINE
  5
152
100
AcDbEntity
  8
2
370
    50
100
AcDbLine
 10
10.806583
 20
-35.711586
 30
0.0
 11
10.806583
 21
-28.433586
 31
0.0
  0
ARC
  5
153
100
AcDbEntity
  8
2
370
    50
100
AcDbCircle
 10
14.235583
 20
-32.072586
 30
0.0
 40
5.0
100
AcDbArc
 50
226.694
 51
244.158
  0
ARC
  5
154
100
AcDbEntity
  8
2
370
    50
100
AcDbCircle
 10
14.235583
 20
-32.072586
 30
0.0
 40
5.0
100
AcDbArc
 50
108.491
 51
133.305
  0
LINE
  5
155
100
AcDbEntity
  8
2
370
    50
100
AcDbLine
 10
12.056583
 20
-36.572586
 30
0.0
 11
24.556583
 21
-36.572586
 31
0.0
  0
LINE
  5
156
100
AcDbEntity
  8
2
370
    50
100
AcDbLine
 10
15.537583
 20
-28.433586
 30
0.0
 11
20.077583
 21
-28.433586
 31
0.0
  0
LINE
  5
157
100
AcDbEntity
  8
2
370
    50
100
AcDbLine
 10
20.077583
 20
-35.711586
 30
0.0
 11
15.537583
 21
-35.711586
 31
0.0
  0
LINE
  5
158
100
AcDbEntity
  8
2
370
    50
100
AcDbLine
 10
15.537583
 20
-28.433586
 30
0.0
 11
15.537583
 21
-35.711586
 31
0.0
  0
LINE
  5
159
100
AcDbEntity
  8
2
370
    50
100
AcDbLine
 10
20.077583
 20
-28.433586
 30
0.0
 11
20.077583
 21
-35.711586
 31
0.0
  0
LINE
  5
15A
100
AcDbEntity
  8
2
370
    50
100
AcDbLine
 10
20.077583
 20
-28.433586
 30
0.0
 11
21.132583
 21
-28.090586
 31
0.0
  0
LINE
  5
15B
100
AcDbEntity
  8
2
370
    50
100
AcDbLine
 10
21.132583
 20
-28.090586
 30
0.0
 11
22.288583
 21
-27.974586
 31
0.0
  0
LINE
  5
15C
100
AcDbEntity
  8
2
370
    50
100
AcDbLine
 10
22.288583
 20
-27.974586
 30
0.0
 11
22.948583
 21
-27.936586
 31
0.0
  0
LINE
  5
15D
100
AcDbEntity
  8
2
370
    50
100
AcDbLine
 10
22.948583
 20
-27.936586
 30
0.0
 11
23.342583
 21
-27.920586
 31
0.0
  0
LINE
  5
15E
100
AcDbEntity
  8
2
370
    50
100
AcDbLine
 10
23.342583
 20
-27.920586
 30
0.0
 11
23.603583
 21
-27.913586
 31
0.0
  0
LINE
  5
15F
100
AcDbEntity
  8
2
370
    50
100
AcDbLine
 10
23.603583
 20
-27.913586
 30
0.0
 11
23.788583
 21
-27.908586
 31
0.0
  0
LINE
  5
160
100
AcDbEntity
  8
2
370
    50
100
AcDbLine
 10
23.788583
 20
-27.908586
 30
0.0
 11
23.929583
 21
-27.906586
 31
0.0
  0
LINE
  5
161
100
AcDbEntity
  8
2
370
    50
100
AcDbLine
 10
23.929583
 20
-27.906586
 30
0.0
 11
24.042583
 21
-27.904586
 31
0.0
  0
LINE
  5
162
100
AcDbEntity
  8
2
370
    50
100
AcDbLine
 10
24.042583
 20
-27.904586
 30
0.0
 11
24.135583
 21
-27.903586
 31
0.0
  0
LINE
  5
163
100
AcDbEntity
  8
2
370
    50
100
AcDbLine
 10
24.135583
 20
-27.903586
 30
0.0
 11
24.215583
 21
-27.902586
 31
0.0
  0
LINE
  5
164
100
AcDbEntity
  8
2
370
    50
100
AcDbLine
 10
24.215583
 20
-27.902586
 30
0.0
 11
24.285583
 21
-27.901586
 31
0.0
  0
LINE
  5
165
100
AcDbEntity
  8
2
370
    50
100
AcDbLine
 10
24.285583
 20
-27.901586
 30
0.0
 11
24.349583
 21
-27.901586
 31
0.0
  0
LINE
  5
166
100
AcDbEntity
  8
2
370
    50
100
AcDbLine
 10
24.349583
 20
-27.901586
 30
0.0
 11
24.408583
 21
-27.901586
 31
0.0
  0
LINE
  5
167
100
AcDbEntity
  8
2
370
    50
100
AcDbLine
 10
24.408583
 20
-27.901586
 30
0.0
 11
24.464583
 21
-27.901586
 31
0.0
  0
LINE
  5
168
100
AcDbEntity
  8
2
370
    50
100
AcDbLine
 10
24.464583
 20
-27.901586
 30
0.0
 11
24.518583
 21
-27.900586
 31
0.0
  0
LINE
  5
169
100
AcDbEntity
  8
2
370
    50
100
AcDbLine
 10
24.518583
 20
-27.900586
 30
0.0
 11
24.556583
 21
-27.900586
 31
0.0
  0
LINE
  5
16A
100
AcDbEntity
  8
2
370
    50
100
AcDbLine
 10
24.556583
 20
-36.572586
 30
0.0
 11
24.470583
 21
-36.571586
 31
0.0
  0
LINE
  5
16B
100
AcDbEntity
  8
2
370
    50
100
AcDbLine
 10
24.470583
 20
-36.571586
 30
0.0
 11
24.382583
 21
-36.571586
 31
0.0
  0
LINE
  5
16C
100
AcDbEntity
  8
2
370
    50
100
AcDbLine
 10
24.382583
 20
-36.571586
 30
0.0
 11
24.290583
 21
-36.570586
 31
0.0
  0
LINE
  5
16D
100
AcDbEntity
  8
2
370
    50
100
AcDbLine
 10
24.290583
 20
-36.570586
 30
0.0
 11
24.193583
 21
-36.569586
 31
0.0
  0
LINE
  5
16E
100
AcDbEntity
  8
2
370
    50
100
AcDbLine
 10
24.193583
 20
-36.569586
 30
0.0
 11
24.088583
 21
-36.567586
 31
0.0
  0
LINE
  5
16F
100
AcDbEntity
  8
2
370
    50
100
AcDbLine
 10
24.088583
 20
-36.567586
 30
0.0
 11
23.972583
 21
-36.564586
 31
0.0
  0
LINE
  5
170
100
AcDbEntity
  8
2
370
    50
100
AcDbLine
 10
23.972583
 20
-36.564586
 30
0.0
 11
23.840583
 21
-36.560586
 31
0.0
  0
LINE
  5
171
100
AcDbEntity
  8
2
370
    50
100
AcDbLine
 10
23.840583
 20
-36.560586
 30
0.0
 11
23.686583
 21
-36.555586
 31
0.0
  0
LINE
  5
172
100
AcDbEntity
  8
2
370
    50
100
AcDbLine
 10
23.686583
 20
-36.555586
 30
0.0
 11
23.502583
 21
-36.547586
 31
0.0
  0
LINE
  5
173
100
AcDbEntity
  8
2
370
    50
100
AcDbLine
 10
23.502583
 20
-36.547586
 30
0.0
 11
23.271583
 21
-36.535586
 31
0.0
  0
LINE
  5
174
100
AcDbEntity
  8
2
370
    50
100
AcDbLine
 10
23.271583
 20
-36.535586
 30
0.0
 11
22.973583
 21
-36.516586
 31
0.0
  0
LINE
  5
175
100
AcDbEntity
  8
2
370
    50
100
AcDbLine
 10
22.973583
 20
-36.516586
 30
0.0
 11
22.571583
 21
-36.482586
 31
0.0
  0
LINE
  5
176
100
AcDbEntity
  8
2
370
    50
100
AcDbLine
 10
22.571583
 20
-36.482586
 30
0.0
 11
22.006583
 21
-36.418586
 31
0.0
  0
LINE
  5
177
100
AcDbEntity
  8
2
370
    50
100
AcDbLine
 10
22.006583
 20
-36.418586
 30
0.0
 11
21.222583
 21
-36.286586
 31
0.0
  0
LINE
  5
178
100
AcDbEntity
  8
2
370
    50
100
AcDbLine
 10
21.222583
 20
-36.286586
 30
0.0
 11
20.354583
 21
-36.009586
 31
0.0
  0
LINE
  5
179
100
AcDbEntity
  8
2
370
    50
100
AcDbLine
 10
20.354583
 20
-36.009586
 30
0.0
 11
20.077583
 21
-35.711586
 31
0.0
  0
LINE
  5
17A
100
AcDbEntity
  8
2
370
    50
100
AcDbLine
 10
15.537583
 20
-35.711586
 30
0.0
 11
15.452583
 21
-35.939586
 31
0.0
  0
LINE
  5
17B
100
AcDbEntity
  8
2
370
    50
100
AcDbLine
 10
15.452583
 20
-35.939586
 30
0.0
 11
15.238583
 21
-36.129586
 31
0.0
  0
LINE
  5
17C
100
AcDbEntity
  8
2
370
    50
100
AcDbLine
 10
15.238583
 20
-36.129586
 30
0.0
 11
14.974583
 21
-36.268586
 31
0.0
  0
LINE
  5
17D
100
AcDbEntity
  8
2
370
    50
100
AcDbLine
 10
14.974583
 20
-36.268586
 30
0.0
 11
14.715583
 21
-36.363586
 31
0.0
  0
LINE
  5
17E
100
AcDbEntity
  8
2
370
    50
100
AcDbLine
 10
14.715583
 20
-36.363586
 30
0.0
 11
14.483583
 21
-36.427586
 31
0.0
  0
LINE
  5
17F
100
AcDbEntity
  8
2
370
    50
100
AcDbLine
 10
14.483583
 20
-36.427586
 30
0.0
 11
14.283583
 21
-36.471586
 31
0.0
  0
LINE
  5
180
100
AcDbEntity
  8
2
370
    50
100
AcDbLine
 10
14.283583
 20
-36.471586
 30
0.0
 11
14.110583
 21
-36.501586
 31
0.0
  0
LINE
  5
181
100
AcDbEntity
  8
2
370
    50
100
AcDbLine
 10
14.110583
 20
-36.501586
 30
0.0
 11
13.960583
 21
-36.522586
 31
0.0
  0
LINE
  5
182
100
AcDbEntity
  8
2
370
    50
100
AcDbLine
 10
13.960583
 20
-36.522586
 30
0.0
 11
13.828583
 21
-36.538586
 31
0.0
  0
LINE
  5
183
100
AcDbEntity
  8
2
370
    50
100
AcDbLine
 10
13.828583
 20
-36.538586
 30
0.0
 11
13.710583
 21
-36.549586
 31
0.0
  0
LINE
  5
184
100
AcDbEntity
  8
2
370
    50
100
AcDbLine
 10
13.710583
 20
-36.549586
 30
0.0
 11
13.603583
 21
-36.557586
 31
0.0
  0
LINE
  5
185
100
AcDbEntity
  8
2
370
    50
100
AcDbLine
 10
13.603583
 20
-36.557586
 30
0.0
 11
13.503583
 21
-36.563586
 31
0.0
  0
LINE
  5
186
100
AcDbEntity
  8
2
370
    50
100
AcDbLine
 10
13.503583
 20
-36.563586
 30
0.0
 11
13.409583
 21
-36.567586
 31
0.0
  0
LINE
  5
187
100
AcDbEntity
  8
2
370
    50
100
AcDbLine
 10
13.409583
 20
-36.567586
 30
0.0
 11
13.320583
 21
-36.570586
 31
0.0
  0
LINE
  5
188
100
AcDbEntity
  8
2
370
    50
100
AcDbLine
 10
13.320583
 20
-36.570586
 30
0.0
 11
13.233583
 21
-36.571586
 31
0.0
  0
LINE
  5
189
100
AcDbEntity
  8
2
370
    50
100
AcDbLine
 10
13.233583
 20
-36.571586
 30
0.0
 11
13.172583
 21
-36.572586
 31
0.0
  0
LINE
  5
18A
100
AcDbEntity
  8
2
370
    50
100
AcDbLine
 10
11.100583
 20
-28.176586
 30
0.0
 11
11.507583
 21
-28.055586
 31
0.0
  0
LINE
  5
18B
100
AcDbEntity
  8
2
370
    50
100
AcDbLine
 10
11.507583
 20
-28.055586
 30
0.0
 11
11.852583
 21
-27.991586
 31
0.0
  0
LINE
  5
18C
100
AcDbEntity
  8
2
370
    50
100
AcDbLine
 10
11.852583
 20
-27.991586
 30
0.0
 11
12.114583
 21
-27.957586
 31
0.0
  0
LINE
  5
18D
100
AcDbEntity
  8
2
370
    50
100
AcDbLine
 10
12.114583
 20
-27.957586
 30
0.0
 11
12.312583
 21
-27.937586
 31
0.0
  0
LINE
  5
18E
100
AcDbEntity
  8
2
370
    50
100
AcDbLine
 10
12.312583
 20
-27.937586
 30
0.0
 11
12.465583
 21
-27.925586
 31
0.0
  0
LINE
  5
18F
100
AcDbEntity
  8
2
370
    50
100
AcDbLine
 10
12.465583
 20
-27.925586
 30
0.0
 11
12.587583
 21
-27.917586
 31
0.0
  0
LINE
  5
190
100
AcDbEntity
  8
2
370
    50
100
AcDbLine
 10
12.587583
 20
-27.917586
 30
0.0
 11
12.688583
 21
-27.912586
 31
0.0
  0
LINE
  5
191
100
AcDbEntity
  8
2
370
    50
100
AcDbLine
 10
12.688583
 20
-27.912586
 30
0.0
 11
12.775583
 21
-27.908586
 31
0.0
  0
LINE
  5
192
100
AcDbEntity
  8
2
370
    50
100
AcDbLine
 10
12.775583
 20
-27.908586
 30
0.0
 11
12.850583
 21
-27.905586
 31
0.0
  0
LINE
  5
193
100
AcDbEntity
  8
2
370
    50
100
AcDbLine
 10
12.850583
 20
-27.905586
 30
0.0
 11
12.917583
 21
-27.904586
 31
0.0
  0
LINE
  5
194
100
AcDbEntity
  8
2
370
    50
100
AcDbLine
 10
12.917583
 20
-27.904586
 30
0.0
 11
12.979583
 21
-27.902586
 31
0.0
  0
LINE
  5
195
100
AcDbEntity
  8
2
370
    50
100
AcDbLine
 10
12.979583
 20
-27.902586
 30
0.0
 11
13.037583
 21
-27.901586
 31
0.0
  0
LINE
  5
196
100
AcDbEntity
  8
2
370
    50
100
AcDbLine
 10
13.037583
 20
-27.901586
 30
0.0
 11
13.093583
 21
-27.901586
 31
0.0
  0
LINE
  5
197
100
AcDbEntity
  8
2
370
    50
100
AcDbLine
 10
13.093583
 20
-27.901586
 30
0.0
 11
13.146583
 21
-27.900586
 31
0.0
  0
LINE
  5
198
100
AcDbEntity
  8
2
370
    50
100
AcDbLine
 10
13.146583
 20
-27.900586
 30
0.0
 11
13.200583
 21
-27.901586
 31
0.0
  0
LINE
  5
199
100
AcDbEntity
  8
2
370
    50
100
AcDbLine
 10
13.200583
 20
-27.901586
 30
0.0
 11
13.254583
 21
-27.901586
 31
0.0
  0
LINE
  5
19A
100
AcDbEntity
  8
2
370
    50
100
AcDbLine
 10
13.254583
 20
-27.901586
 30
0.0
 11
13.309583
 21
-27.901586
 31
0.0
  0
LINE
  5
19B
100
AcDbEntity
  8
2
370
    50
100
AcDbLine
 10
13.309583
 20
-27.901586
 30
0.0
 11
13.367583
 21
-27.902586
 31
0.0
  0
LINE
  5
19C
100
AcDbEntity
  8
2
370
    50
100
AcDbLine
 10
13.367583
 20
-27.902586
 30
0.0
 11
13.429583
 21
-27.904586
 31
0.0
  0
LINE
  5
19D
100
AcDbEntity
  8
2
370
    50
100
AcDbLine
 10
13.429583
 20
-27.904586
 30
0.0
 11
13.497583
 21
-27.906586
 31
0.0
  0
LINE
  5
19E
100
AcDbEntity
  8
2
370
    50
100
AcDbLine
 10
13.497583
 20
-27.906586
 30
0.0
 11
13.573583
 21
-27.908586
 31
0.0
  0
LINE
  5
19F
100
AcDbEntity
  8
2
370
    50
100
AcDbLine
 10
13.573583
 20
-27.908586
 30
0.0
 11
13.660583
 21
-27.912586
 31
0.0
  0
LINE
  5
1A0
100
AcDbEntity
  8
2
370
    50
100
AcDbLine
 10
13.660583
 20
-27.912586
 30
0.0
 11
13.762583
 21
-27.917586
 31
0.0
  0
LINE
  5
1A1
100
AcDbEntity
  8
2
370
    50
100
AcDbLine
 10
13.762583
 20
-27.917586
 30
0.0
 11
13.886583
 21
-27.925586
 31
0.0
  0
LINE
  5
1A2
100
AcDbEntity
  8
2
370
    50
100
AcDbLine
 10
13.886583
 20
-27.925586
 30
0.0
 11
14.041583
 21
-27.938586
 31
0.0
  0
LINE
  5
1A3
100
AcDbEntity
  8
2
370
    50
100
AcDbLine
 10
14.041583
 20
-27.938586
 30
0.0
 11
14.242583
 21
-27.958586
 31
0.0
  0
LINE
  5
1A4
100
AcDbEntity
  8
2
370
    50
100
AcDbLine
 10
14.242583
 20
-27.958586
 30
0.0
 11
14.508583
 21
-27.994586
 31
0.0
  0
LINE
  5
1A5
100
AcDbEntity
  8
2
370
    50
100
AcDbLine
 10
14.508583
 20
-27.994586
 30
0.0
 11
14.858583
 21
-28.060586
 31
0.0
  0
LINE
  5
1A6
100
AcDbEntity
  8
2
370
    50
100
AcDbLine
 10
14.858583
 20
-28.060586
 30
0.0
 11
15.265583
 21
-28.185586
 31
0.0
  0
LINE
  5
1A7
100
AcDbEntity
  8
2
370
    50
100
AcDbLine
 10
15.265583
 20
-28.185586
 30
0.0
 11
15.530583
 21
-28.391586
 31
0.0
  0
LINE
  5
1A8
100
AcDbEntity
  8
2
370
    50
100
AcDbLine
 10
15.530583
 20
-28.391586
 30
0.0
 11
15.537583
 21
-28.433586
 31
0.0
  0
LINE
  5
1A9
100
AcDbEntity
  8
2
370
    50
100
AcDbLine
 10
-98.293443
 20
-36.572586
 30
0.0
 11
-110.793443
 21
-36.572586
 31
0.0
  0
LINE
  5
1AA
100
AcDbEntity
  8
2
370
    50
100
AcDbLine
 10
-98.293443
 20
-36.572586
 30
0.0
 11
-85.793443
 21
-36.572586
 31
0.0
  0
LINE
  5
1AB
100
AcDbEntity
  8
2
370
    50
100
AcDbLine
 10
-85.793443
 20
-36.572586
 30
0.0
 11
-98.293443
 21
-36.572586
 31
0.0
  0
LINE
  5
1AC
100
AcDbEntity
  8
2
370
    50
100
AcDbLine
 10
-110.793443
 20
-36.572586
 30
0.0
 11
-98.293443
 21
-36.572586
 31
0.0
  0
LINE
  5
1AD
100
AcDbEntity
  8
2
370
    50
100
AcDbLine
 10
-109.529443
 20
-36.570586
 30
0.0
 11
-109.616443
 21
-36.571586
 31
0.0
  0
LINE
  5
1AE
100
AcDbEntity
  8
2
370
    50
100
AcDbLine
 10
-109.616443
 20
-36.571586
 30
0.0
 11
-109.677443
 21
-36.572586
 31
0.0
  0
ARC
  5
1AF
100
AcDbEntity
  8
2
370
    50
100
AcDbCircle
 10
-108.614443
 20
-32.072586
 30
0.0
 40
5.0
100
AcDbArc
 50
237.601537
 51
244.158
  0
ARC
  5
1B0
100
AcDbEntity
  8
2
370
    50
100
AcDbCircle
 10
-108.614443
 20
-32.072586
 30
0.0
 40
5.0
100
AcDbArc
 50
108.491
 51
122.398463
  0
LINE
  5
1B1
100
AcDbEntity
  8
2
370
    50
100
AcDbLine
 10
-110.793443
 20
-36.572586
 30
0.0
 11
-98.293443
 21
-36.572586
 31
0.0
  0
LINE
  5
1B2
100
AcDbEntity
  8
2
370
    50
100
AcDbLine
 10
-108.672443
 20
-28.433586
 30
0.0
 11
-108.672443
 21
-35.711586
 31
0.0
  0
LINE
  5
1B3
100
AcDbEntity
  8
2
370
    50
100
AcDbLine
 10
-100.914443
 20
-28.433586
 30
0.0
 11
-100.914443
 21
-35.711586
 31
0.0
  0
ARC
  5
1B4
100
AcDbEntity
  8
2
370
    50
100
AcDbCircle
 10
-113.979443
 20
-9.731586
 30
0.0
 40
18.0
100
AcDbArc
 50
282.122
 51
304.465
  0
LINE
  5
1B5
100
AcDbEntity
  8
2
370
    50
100
AcDbLine
 10
-111.293463
 20
-27.850875
 30
0.0
 11
-111.293463
 21
-36.294298
 31
0.0
  0
ELLIPSE
  5
1B6
100
AcDbEntity
  8
2
370
    50
100
AcDbEllipse
 10
-104.793443
 20
-28.433586
 30
0.0
 11
-3.879
 21
0.0
 31
0.0
210
0.0
220
0.0
230
1.0
 40
0.137407
 41
3.1415929999999999
 42
0.0
  0
LINE
  5
1B7
100
AcDbEntity
  8
2
370
    50
100
AcDbLine
 10
-111.293463
 20
-28.433586
 30
0.0
 11
-108.672443
 21
-28.433586
 31
0.0
  0
LINE
  5
1B8
100
AcDbEntity
  8
2
370
    50
100
AcDbLine
 10
-111.293463
 20
-35.711586
 30
0.0
 11
-108.672443
 21
-35.711586
 31
0.0
  0
ELLIPSE
  5
1B9
100
AcDbEntity
  8
2
370
    50
100
AcDbEllipse
 10
-104.793443
 20
-35.711586
 30
0.0
 11
-3.879
 21
0.0
 31
0.0
210
0.0
220
0.0
230
1.0
 40
0.221964
 41
0.0
 42
3.1415929999999999
  0
LINE
  5
1BA
100
AcDbEntity
  8
2
370
    50
100
AcDbLine
 10
-100.914443
 20
-35.711586
 30
0.0
 11
-98.293422
 21
-35.711586
 31
0.0
  0
LINE
  5
1BB
100
AcDbEntity
  8
2
370
    50
100
AcDbLine
 10
-100.914443
 20
-28.433586
 30
0.0
 11
-98.293422
 21
-28.433586
 31
0.0
  0
LINE
  5
1BC
100
AcDbEntity
  8
2
370
    50
100
AcDbLine
 10
-95.672443
 20
-28.433586
 30
0.0
 11
-98.293463
 21
-28.433586
 31
0.0
  0
LINE
  5
1BD
100
AcDbEntity
  8
2
370
    50
100
AcDbLine
 10
-95.672443
 20
-35.711586
 30
0.0
 11
-98.293463
 21
-35.711586
 31
0.0
  0
ELLIPSE
  5
1BE
100
AcDbEntity
  8
2
370
    50
100
AcDbEllipse
 10
-91.793443
 20
-35.711586
 30
0.0
 11
3.879
 21
0.0
 31
0.0
210
0.0
220
0.0
230
1.0
 40
0.221964
 41
3.1415929999999999
 42
0.0
  0
LINE
  5
1BF
100
AcDbEntity
  8
2
370
    50
100
AcDbLine
 10
-85.293422
 20
-35.711586
 30
0.0
 11
-87.914443
 21
-35.711586
 31
0.0
  0
LINE
  5
1C0
100
AcDbEntity
  8
2
370
    50
100
AcDbLine
 10
-85.293422
 20
-28.433586
 30
0.0
 11
-87.914443
 21
-28.433586
 31
0.0
  0
ELLIPSE
  5
1C1
100
AcDbEntity
  8
2
370
    50
100
AcDbEllipse
 10
-91.793443
 20
-28.433586
 30
0.0
 11
3.879
 21
0.0
 31
0.0
210
0.0
220
0.0
230
1.0
 40
0.137407
 41
0.0
 42
3.1415929999999999
  0
LINE
  5
1C2
100
AcDbEntity
  8
2
370
    50
100
AcDbLine
 10
-85.293422
 20
-27.850875
 30
0.0
 11
-85.293422
 21
-36.294298
 31
0.0
  0
LINE
  5
1C3
100
AcDbEntity
  8
2
370
    50
100
AcDbLine
 10
-103.793443
 20
-24.572586
 30
0.0
 11
-92.793443
 21
-24.572586
 31
0.0
  0
ARC
  5
1C4
100
AcDbEntity
  8
2
370
    50
100
AcDbCircle
 10
-82.607443
 20
-9.731586
 30
0.0
 40
18.0
100
AcDbArc
 50
235.535
 51
257.878
  0
LINE
  5
1C5
100
AcDbEntity
  8
2
370
    50
100
AcDbLine
 10
-95.672443
 20
-28.433586
 30
0.0
 11
-95.672443
 21
-35.711586
 31
0.0
  0
LINE
  5
1C6
100
AcDbEntity
  8
2
370
    50
100
AcDbLine
 10
-87.914443
 20
-28.433586
 30
0.0
 11
-87.914443
 21
-35.711586
 31
0.0
  0
LINE
  5
1C7
100
AcDbEntity
  8
2
370
    50
100
AcDbLine
 10
-85.793443
 20
-36.572586
 30
0.0
 11
-98.293443
 21
-36.572586
 31
0.0
  0
ARC
  5
1C8
100
AcDbEntity
  8
2
370
    50
100
AcDbCircle
 10
-87.972443
 20
-32.072586
 30
0.0
 40
5.0
100
AcDbArc
 50
57.601537
 51
71.509
  0
ARC
  5
1C9
100
AcDbEntity
  8
2
370
    50
100
AcDbCircle
 10
-87.972443
 20
-32.072586
 30
0.0
 40
5.0
100
AcDbArc
 50
295.842
 51
302.398463
  0
LINE
  5
1CA
100
AcDbEntity
  8
2
370
    50
100
AcDbLine
 10
19.806583
 20
-23.572586
 30
0.0
 11
19.806583
 21
-18.544586
 31
0.0
  0
LINE
  5
1CB
100
AcDbEntity
  8
2
370
    50
100
AcDbLine
 10
24.556583
 20
-18.544586
 30
0.0
 11
19.806583
 21
-18.544586
 31
0.0
  0
LINE
  5
1CC
100
AcDbEntity
  8
2
370
    50
100
AcDbLine
 10
29.306583
 20
-23.572586
 30
0.0
 11
29.306583
 21
-18.544586
 31
0.0
  0
LINE
  5
1CD
100
AcDbEntity
  8
2
370
    50
100
AcDbLine
 10
-93.543443
 20
-24.572586
 30
0.0
 11
-93.543443
 21
-18.544589
 31
0.0
  0
LINE
  5
1CE
100
AcDbEntity
  8
2
370
    50
100
AcDbLine
 10
-103.043443
 20
-24.572586
 30
0.0
 11
-103.043443
 21
-18.544589
 31
0.0
  0
LINE
  5
1CF
100
AcDbEntity
  8
2
370
    50
100
AcDbLine
 10
-6.299927
 20
-15.384699
 30
0.0
 11
-6.443417
 21
-18.544586
 31
0.0
  0
LINE
  5
1D0
100
AcDbEntity
  8
2
370
    50
100
AcDbLine
 10
-0.696511
 20
-9.669592
 30
0.0
 11
16.556583
 21
-8.544586
 31
0.0
  0
LINE
  5
1D1
100
AcDbEntity
  8
2
370
    50
100
AcDbLine
 10
-6.443417
 20
-18.544586
 30
0.0
 11
20.306583
 21
-18.544586
 31
0.0
  0
LINE
  5
1D2
100
AcDbEntity
  8
2
370
    50
100
AcDbLine
 10
24.556583
 20
-8.544586
 30
0.0
 11
16.556583
 21
-8.544586
 31
0.0
  0
LINE
  5
1D3
100
AcDbEntity
  8
2
370
    50
100
AcDbLine
 10
32.556583
 20
-8.544586
 30
0.0
 11
24.556583
 21
-8.544586
 31
0.0
  0
LINE
  5
1D4
100
AcDbEntity
  8
2
370
    50
100
AcDbLine
 10
42.86476
 20
-14.884379
 30
0.0
 11
43.056583
 21
-18.544586
 31
0.0
  0
LINE
  5
1D5
100
AcDbEntity
  8
2
370
    50
100
AcDbLine
 10
37.694666
 20
-9.254925
 30
0.0
 11
32.556583
 21
-8.544586
 31
0.0
  0
LINE
  5
1D6
100
AcDbEntity
  8
2
370
    50
100
AcDbLine
 10
43.056583
 20
-18.544586
 30
0.0
 11
24.556583
 21
-18.544586
 31
0.0
  0
ARC
  5
1D7
100
AcDbEntity
  8
2
370
    50
100
AcDbCircle
 10
-0.306104
 20
-15.656877
 30
0.0
 40
6.0
100
AcDbArc
 50
93.730748
 51
177.4
  0
ARC
  5
1D8
100
AcDbEntity
  8
2
370
    50
100
AcDbCircle
 10
36.872983
 20
-15.198395
 30
0.0
 40
6.0
100
AcDbArc
 50
3.0
 51
82.128767
  0
ARC
  5
1D9
100
AcDbEntity
  8
2
370
    50
100
AcDbCircle
 10
7.556583
 20
37.346558
 30
0.0
 40
20.0
100
AcDbArc
 50
46.357726
 51
73.607133
  0
ARC
  5
1DA
100
AcDbEntity
  8
2
370
    50
100
AcDbCircle
 10
-0.443417
 20
66.791461
 30
0.0
 40
6.0
100
AcDbArc
 50
103.086916
 51
256.88801
  0
LINE
  5
1DB
100
AcDbEntity
  8
2
370
    50
100
AcDbLine
 10
-1.804547
 20
60.94789
 30
0.0
 11
13.201024
 21
56.53354
 31
0.0
  0
ARC
  5
1DC
100
AcDbEntity
  8
2
370
    50
100
AcDbCircle
 10
37.056618
 20
88.442037
 30
0.0
 40
6.0
100
AcDbArc
 50
346.00902
 51
136.88801
  0
LINE
  5
1DD
100
AcDbEntity
  8
2
370
    50
100
AcDbLine
 10
32.942129
 20
40.773668
 30
0.0
 11
21.359657
 21
51.819815
 31
0.0
  0
LINE
  5
1DE
100
AcDbEntity
  8
2
370
    50
100
AcDbLine
 10
42.797795
 20
46.883779
 30
0.0
 11
39.117949
 21
62.086159
 31
0.0
  0
LINE
  5
1DF
100
AcDbEntity
  8
2
370
    50
100
AcDbLine
 10
42.895846
 20
87.062394
 30
0.0
 11
39.120839
 21
71.508605
 31
0.0
  0
ARC
  5
1E0
100
AcDbEntity
  8
2
370
    50
100
AcDbCircle
 10
58.556583
 20
66.791422
 30
0.0
 40
20.0
100
AcDbArc
 50
166.357726
 51
193.607133
  0
LINE
  5
1E1
100
AcDbEntity
  8
2
370
    50
100
AcDbLine
 10
32.676502
 20
92.542596
 30
0.0
 11
21.350777
 21
81.754565
 31
0.0
  0
LINE
  5
1E2
100
AcDbEntity
  8
2
370
    50
100
AcDbLine
 10
-2.168225
 20
72.538203
 30
0.0
 11
13.189255
 21
77.045845
 31
0.0
  0
ARC
  5
1E3
100
AcDbEntity
  8
2
370
    50
100
AcDbCircle
 10
7.556583
 20
96.236285
 30
0.0
 40
20.0
100
AcDbArc
 50
286.357726
 51
313.607133
  0
ARC
  5
1E4
100
AcDbEntity
  8
2
370
    50
100
AcDbCircle
 10
37.056549
 20
45.140767
 30
0.0
 40
6.0
100
AcDbArc
 50
226.00902
 51
16.88801
  0
LINE
  5
1E5
100
AcDbEntity
  8
2
370
    50
100
AcDbLine
 10
-98.293443
 20
-8.544589
 30
0.0
 11
-90.293443
 21
-8.544589
 31
0.0
  0
LINE
  5
1E6
100
AcDbEntity
  8
2
370
    50
100
AcDbLine
 10
-70.642827
 20
-18.544589
 30
0.0
 11
-98.293443
 21
-18.544589
 31
0.0
  0
LINE
  5
1E7
100
AcDbEntity
  8
2
370
    50
100
AcDbLine
 10
-76.376194
 20
-9.501653
 30
0.0
 11
-90.293443
 21
-8.544589
 31
0.0
  0
LINE
  5
1E8
100
AcDbEntity
  8
2
370
    50
100
AcDbLine
 10
-70.794008
 20
-15.215338
 30
0.0
 11
-70.642827
 21
-18.544589
 31
0.0
  0
ARC
  5
1E9
100
AcDbEntity
  8
2
370
    50
100
AcDbCircle
 10
-95.028981
 20
-14.544589
 30
0.0
 40
6.0
100
AcDbArc
 50
2.599999
 51
90.0
  0
LINE
  5
1EA
100
AcDbEntity
  8
2
370
    50
100
AcDbLine
 10
-88.841159
 20
-18.544589
 30
0.0
 11
-89.035158
 21
-14.272411
 31
0.0
  0
LINE
  5
1EB
100
AcDbEntity
  8
2
370
    50
100
AcDbLine
 10
-95.028981
 20
-8.544589
 30
0.0
 11
-98.293443
 21
-8.544589
 31
0.0
  0
ARC
  5
1EC
100
AcDbEntity
  8
2
370
    50
100
AcDbCircle
 10
-76.787831
 20
-15.487516
 30
0.0
 40
6.0
100
AcDbArc
 50
2.6
 51
86.066065
  0
ARC
  5
1ED
100
AcDbEntity
  8
2
370
    50
100
AcDbCircle
 10
-119.799054
 20
-15.487516
 30
0.0
 40
6.0
100
AcDbArc
 50
93.933935
 51
177.4
  0
LINE
  5
1EE
100
AcDbEntity
  8
2
370
    50
100
AcDbLine
 10
-101.557904
 20
-8.544589
 30
0.0
 11
-98.293443
 21
-8.544589
 31
0.0
  0
LINE
  5
1EF
100
AcDbEntity
  8
2
370
    50
100
AcDbLine
 10
-107.745726
 20
-18.544589
 30
0.0
 11
-107.551728
 21
-14.272411
 31
0.0
  0
ARC
  5
1F0
100
AcDbEntity
  8
2
370
    50
100
AcDbCircle
 10
-101.557904
 20
-14.544589
 30
0.0
 40
6.0
100
AcDbArc
 50
90.0
 51
177.400001
  0
LINE
  5
1F1
100
AcDbEntity
  8
2
370
    50
100
AcDbLine
 10
-125.792878
 20
-15.215338
 30
0.0
 11
-125.944058
 21
-18.544589
 31
0.0
  0
LINE
  5
1F2
100
AcDbEntity
  8
2
370
    50
100
AcDbLine
 10
-120.210691
 20
-9.501653
 30
0.0
 11
-106.293443
 21
-8.544589
 31
0.0
  0
LINE
  5
1F3
100
AcDbEntity
  8
2
370
    50
100
AcDbLine
 10
-125.944058
 20
-18.544589
 30
0.0
 11
-98.293443
 21
-18.544589
 31
0.0
  0
LINE
  5
1F4
100
AcDbEntity
  8
2
370
    50
100
AcDbLine
 10
-98.293443
 20
-8.544589
 30
0.0
 11
-106.293443
 21
-8.544589
 31
0.0
  0
POINT
  5
1F5
100
AcDbEntity
  8
3
370
    50
100
AcDbPoint
 10
18.556583
 20
19.955414
 30
0.0
  0
DIMENSION
  5
1F6
100
AcDbEntity
  8
3
370
    25
100
AcDbDimension
  2
*D0
 10
-32.471767
 20
-5.544586
 30
0.0
 11
-52.221767
 21
-49.794586
 31
0.0
 70
     1
 71
     0
 72
     0
 41
0.0
 42
0.0
  3
Standard
100
AcDbAlignedDimension
 13
-10.632596
 23
-62.544586
 33
0.0
 14
24.556906
 24
-5.544586
 34
0.0
 50
90.0
  0
LINE
  5
1F7
100
AcDbEntity
  8
3
370
    25
  6
CENTER
100
AcDbLine
 10
-117.432952
 20
-62.544586
 30
0.0
 11
-80.082219
 21
-62.544586
 31
0.0
  0
LINE
  5
1F8
100
AcDbEntity
  8
3
370
    25
  6
CENTER
100
AcDbLine
 10
24.556583
 20
-0.669586
 30
0.0
 11
24.556583
 21
-79.465586
 31
0.0
  0
LINE
  5
1F9
100
AcDbEntity
  8
3
370
    25
  6
CENTER
100
AcDbLine
 10
24.556583
 20
51.049422
 30
0.0
 11
24.556583
 21
82.772422
 31
0.0
  0
LINE
  5
1FA
100
AcDbEntity
  8
3
370
    25
  6
CENTER
100
AcDbLine
 10
62.963583
 20
66.791422
 30
0.0
 11
-9.511417
 21
66.791422
 31
0.0
  0
LINE
  5
1FB
100
AcDbEntity
  8
3
370
    25
  6
CENTER
100
AcDbLine
 10
-98.293443
 20
-79.039252
 30
0.0
 11
-98.293443
 21
-0.936624
 31
0.0
  0
LINE
  5
1FC
100
AcDbEntity
  8
3
370
    25
  6
CENTER
100
AcDbLine
 10
-10.632596
 20
-62.544586
 30
0.0
 11
65.225846
 21
-62.544586
 31
0.0
  0
LWPOLYLINE
  5
1FD
100
AcDbEntity
  8
3
370
    25
100
AcDbPolyline
 90
        3
 70
     0
 10
54.13615
 20
-51.865166
 10
60.785339
 20
-36.452911
 10
77.263786
 20
-36.452911
  0
LINE
  5
202
100
AcDbEntity
  8
3
370
    25
100
AcDbLine
 10
54.901414
 20
-50.09135
 30
0.0
 11
54.426121
 21
-49.886298
 31
0.0
  0
LINE
  5
203
100
AcDbEntity
  8
3
370
    25
100
AcDbLine
 10
54.426121
 20
-49.886298
 30
0.0
 11
54.13615
 21
-51.865166
 31
0.0
  0
LINE
  5
204
100
AcDbEntity
  8
3
370
    25
100
AcDbLine
 10
54.13615
 20
-51.865166
 30
0.0
 11
55.376706
 21
-50.296402
 31
0.0
  0
LINE
  5
205
100
AcDbEntity
  8
3
370
    25
100
AcDbLine
 10
55.376706
 20
-50.296402
 30
0.0
 11
54.901414
 21
-50.09135
 31
0.0
  0
TEXT
  5
206
100
AcDbEntity
  8
3
370
    50
100
AcDbText
 10
60.590889
 20
-35.746479
 30
0.0
 40
3.5
  1
ＲＣ１／２
 72
     5
 11
77.390889
 21
-35.746479
 31
0.0
100
AcDbText
  0
TEXT
  5
207
100
AcDbEntity
  8
3
370
    50
100
AcDbText
 10
-21.156328
 20
-44.483681
 30
0.0
 40
3.5
  1
ＰＪ１／２
 72
     5
 11
-4.356328
 21
-44.483681
 31
0.0
100
AcDbText
  0
DIMENSION
  5
208
100
AcDbEntity
  8
3
370
    25
100
AcDbDimension
  2
*D1
 10
59.556583
 20
-92.504364
 30
0.0
 11
42.056583
 21
-90.254364
 31
0.0
 71
     0
 72
     0
 41
0.0
 42
0.0
  3
Standard
100
AcDbAlignedDimension
 13
24.556583
 23
-79.465586
 33
0.0
 14
59.556583
 24
-75.294586
 34
0.0
100
AcDbRotatedDimension
  0
DIMENSION
  5
209
100
AcDbEntity
  8
3
370
    25
100
AcDbDimension
  2
*D2
 10
24.556583
 20
-92.504364
 30
0.0
 11
9.556583
 21
-90.254364
 31
0.0
 71
     0
 72
     0
 41
0.0
 42
0.0
  3
Standard
100
AcDbAlignedDimension
 13
-5.443417
 23
-71.859586
 33
0.0
 14
24.556583
 24
-79.465586
 34
0.0
100
AcDbRotatedDimension
  0
LWPOLYLINE
  5
20A
100
AcDbEntity
  8
3
370
    25
100
AcDbPolyline
 90
        3
 70
     0
 10
0.485361
 20
-51.902782
 10
-2.717133
 20
-44.931324
 10
-22.501278
 20
-44.931324
  0
LINE
  5
20F
100
AcDbEntity
  8
3
370
    25
100
AcDbLine
 10
-0.321061
 20
-50.147295
 30
0.0
 11
-0.791442
 21
-50.363375
 31
0.0
  0
LINE
  5
210
100
AcDbEntity
  8
3
370
    25
100
AcDbLine
 10
-0.791442
 20
-50.363375
 30
0.0
 11
0.485361
 21
-51.902782
 31
0.0
  0
LINE
  5
211
100
AcDbEntity
  8
3
370
    25
100
AcDbLine
 10
0.485361
 20
-51.902782
 30
0.0
 11
0.14932
 21
-49.931215
 31
0.0
  0
LINE
  5
212
100
AcDbEntity
  8
3
370
    25
100
AcDbLine
 10
0.14932
 20
-49.931215
 30
0.0
 11
-0.321061
 21
-50.147295
 31
0.0
  0
TEXT
  5
213
100
AcDbEntity
  8
3
370
    50
100
AcDbText
 10
34.170605
 20
-117.450813
 30
0.0
 40
3.0
  1
ＣＫ１３－１５Ａ
 72
     5
 11
57.570605
 21
-117.450813
 31
0.0
100
AcDbText
  0
TEXT
  5
214
100
AcDbEntity
  8
3
370
    50
100
AcDbText
 10
145.330597
 20
-119.885239
 30
0.0
 40
3.0
  1
１　１
 72
     5
 11
153.730597
 21
-119.885239
 31
0.0
100
AcDbText
  0
TEXT
  5
215
100
AcDbEntity
  8
3
370
    50
100
AcDbText
 10
34.617359
 20
-113.655167
 30
0.0
 40
3.0
  1
ストレート止水栓
 72
     5
 11
58.017359
 21
-113.655167
 31
0.0
100
AcDbText
  0
TEXT
  5
216
100
AcDbEntity
  8
3
370
    50
100
AcDbText
 10
169.347443
 20
-135.813049
 30
0.0
 40
3.0
  1
５０３６０４
 72
     5
 11
186.747443
 21
-135.813049
 31
0.0
100
AcDbText
  0
TEXT
  5
217
100
AcDbEntity
  8
3
370
    50
100
AcDbText
 10
172.160553
 20
-127.912689
 30
0.0
 40
3.0
  1
１０　　５　１０
 72
     5
 11
195.560553
 21
-127.912689
 31
0.0
100
AcDbText
  0
TEXT
  5
218
100
AcDbEntity
  8
3
370
    50
100
AcDbText
 10
116.25679
 20
-135.907791
 30
0.0
 40
3.0
  1
外観寸法図
 72
     5
 11
130.65679
 21
-135.907791
 31
0.0
100
AcDbText
  0
ENDSEC
  0
SECTION
  2
OBJECTS
  0
DICTIONARY
  5
23D
100
AcDbDictionary
280
     0
281
     1
  3
ACAD_GROUP
350
23E
  3
ACAD_MLINESTYLE
350
23F
  0
DICTIONARY
  5
23E
102
{ACAD_REACTORS
330
23D
102
}
100
AcDbDictionary
280
     0
281
     1
  0
DICTIONARY
  5
23F
102
{ACAD_REACTORS
330
23D
102
}
100
AcDbDictionary
280
     0
281
     1
  3
Standard
350
240
  0
MLINESTYLE
  5
240
102
{ACAD_REACTORS
330
23F
102
}
100
AcDbMlineStyle
  2
Standard
 70
     0
  3

 62
     0
 51
90.0
 52
90.0
 71
     2
 49
0.5
 62
   256
  6
ByLayer
 49
-0.5
 62
   256
  6
ByLayer
  0
ENDSEC
  0
EOF
