  0
SECTION
  2
HEADER
  9
$ACADVER
  1
AC1015
  9
$ACADMAINTVER
 70
     6
  9
$DWGCODEPAGE
  3
ANSI_932
  9
$INSBASE
 10
0.0
 20
0.0
 30
0.0
  9
$EXTMIN
 10
-420.5
 20
-297.0
 30
1.000000E+20
  9
$EXTMAX
 10
420.5
 20
297.0
 30
-1.000000E+20
  9
$LIMMIN
 10
-420.5
 20
-297.0
  9
$LIMMAX
 10
420.5
 20
297.0
  9
$ORTHOMODE
 70
     0
  9
$REGENMODE
 70
     1
  9
$FILLMODE
 70
     1
  9
$QTEXTMODE
 70
     0
  9
$MIRRTEXT
 70
     1
  9
$LTSCALE
 40
1.0
  9
$ATTMODE
 70
     1
  9
$TEXTSIZE
 40
0.2
  9
$TRACEWID
 40
0.05
  9
$TEXTSTYLE
  7
STANDARD
  9
$CLAYER
  8
0
  9
$CELTYPE
  6
CONTINUOUS
  9
$CECOLOR
 62
   256
  9
$CELTSCALE
 40
1.0
  9
$DISPSILH
 70
     0
  9
$DIMSCALE
 40
1.0
  9
$DIMASZ
 40
2.0
  9
$DIMEXO
 40
1.0
  9
$DIMDLI
 40
0.38
  9
$DIMRND
 40
0.0
  9
$DIMDLE
 40
0.0
  9
$DIMEXE
 40
2.0
  9
$DIMTP
 40
0.0
  9
$DIMTM
 40
0.0
  9
$DIMTXT
 40
3.5
  9
$DIMCEN
 40
0.09
  9
$DIMTSZ
 40
0.0
  9
$DIMTOL
 70
     0
  9
$DIMLIM
 70
     0
  9
$DIMTIH
 70
     0
  9
$DIMTOH
 70
     0
  9
$DIMSE1
 70
     0
  9
$DIMSE2
 70
     0
  9
$DIMTAD
 70
     1
  9
$DIMZIN
 70
     0
  9
$DIMBLK
  1

  9
$DIMASO
 70
     1
  9
$DIMSHO
 70
     1
  9
$DIMPOST
  1

  9
$DIMAPOST
  1

  9
$DIMALT
 70
     0
  9
$DIMALTD
 70
     2
  9
$DIMALTF
 40
25.4
  9
$DIMLFAC
 40
1.0
  9
$DIMTOFL
 70
     0
  9
$DIMTVP
 40
0.0
  9
$DIMTIX
 70
     0
  9
$DIMSOXD
 70
     0
  9
$DIMSAH
 70
     0
  9
$DIMBLK1
  1

  9
$DIMBLK2
  1

  9
$DIMSTYLE
  2
Standard
  9
$DIMCLRD
 70
     0
  9
$DIMCLRE
 70
     0
  9
$DIMCLRT
 70
     0
  9
$DIMTFAC
 40
1.0
  9
$DIMGAP
 40
0.5
  9
$DIMJUST
 70
     0
  9
$DIMSD1
 70
     0
  9
$DIMSD2
 70
     0
  9
$DIMTOLJ
 70
     1
  9
$DIMTZIN
 70
     0
  9
$DIMALTZ
 70
     0
  9
$DIMALTTZ
 70
     0
  9
$DIMUPT
 70
     0
  9
$DIMDEC
 70
     3
  9
$DIMTDEC
 70
     4
  9
$DIMALTU
 70
     2
  9
$DIMALTTD
 70
     2
  9
$DIMTXSTY
  7
STANDARD
  9
$DIMAUNIT
 70
     0
  9
$DIMADEC
 70
     0
  9
$DIMALTRND
 40
0.0
  9
$DIMAZIN
 70
     0
  9
$DIMDSEP
 70
     0
  9
$DIMATFIT
 70
     3
  9
$DIMFRAC
 70
     0
  9
$DIMLDRBLK
  1

  9
$DIMLUNIT
 70
     2
  9
$DIMLWD
 70
     0
  9
$DIMLWE
 70
     0
  9
$DIMTMOVE
 70
     0
  9
$LUNITS
 70
     2
  9
$LUPREC
 70
     4
  9
$SKETCHINC
 40
0.1
  9
$FILLETRAD
 40
0.0
  9
$AUNITS
 70
     0
  9
$AUPREC
 70
     0
  9
$MENU
  1
acad
  9
$ELEVATION
 40
0.0
  9
$PELEVATION
 40
0.0
  9
$THICKNESS
 40
0.0
  9
$LIMCHECK
 70
     0
  9
$CHAMFERA
 40
0.0
  9
$CHAMFERB
 40
0.0
  9
$CHAMFERC
 40
0.0
  9
$CHAMFERD
 40
0.0
  9
$SKPOLY
 70
     0
  9
$TDCREATE
 40
2453383.000000000
  9
$TDUCREATE
 40
0.000000000
  9
$TDUPDATE
 40
0.000000000
  9
$TDUUPDATE
 40
2447892.625000000
  9
$TDINDWG
 40
0.0000000000
  9
$TDUSRTIMER
 40
0.0000000000
  9
$USRTIMER
 70
     1
  9
$ANGBASE
 50
0.0
  9
$ANGDIR
 70
     0
  9
$PDMODE
 70
     0
  9
$PDSIZE
 40
0.0
  9
$PLINEWID
 40
0.0
  9
$SPLFRAME
 70
     0
  9
$SPLINETYPE
 70
     6
  9
$SPLINESEGS
 70
     8
  9
$HANDSEED
  5
21D
  9
$SURFTAB1
 70
     6
  9
$SURFTAB2
 70
     6
  9
$SURFTYPE
 70
     6
  9
$SURFU
 70
     6
  9
$SURFV
 70
     6
  9
$UCSBASE
  2

  9
$UCSNAME
  2

  9
$UCSORG
 10
0.0
 20
0.0
 30
0.0
  9
$UCSXDIR
 10
1.0
 20
0.0
 30
0.0
  9
$UCSYDIR
 10
0.0
 20
1.0
 30
0.0
  9
$UCSORTHOREF
  2

  9
$UCSORTHOVIEW
 70
     0
  9
$UCSORGTOP
 10
0.0
 20
0.0
 30
0.0
  9
$UCSORGBOTTOM
 10
0.0
 20
0.0
 30
0.0
  9
$UCSORGLEFT
 10
0.0
 20
0.0
 30
0.0
  9
$UCSORGRIGHT
 10
0.0
 20
0.0
 30
0.0
  9
$UCSORGFRONT
 10
0.0
 20
0.0
 30
0.0
  9
$UCSORGBACK
 10
0.0
 20
0.0
 30
0.0
  9
$PUCSBASE
  2

  9
$PUCSNAME
  2

  9
$PUCSORG
 10
0.0
 20
0.0
 30
0.0
  9
$PUCSXDIR
 10
1.0
 20
0.0
 30
0.0
  9
$PUCSYDIR
 10
0.0
 20
1.0
 30
0.0
  9
$PUCSORTHOREF
  2

  9
$PUCSORTHOVIEW
 70
     0
  9
$PUCSORGTOP
 10
0.0
 20
0.0
 30
0.0
  9
$PUCSORGBOTTOM
 10
0.0
 20
0.0
 30
0.0
  9
$PUCSORGLEFT
 10
0.0
 20
0.0
 30
0.0
  9
$PUCSORGRIGHT
 10
0.0
 20
0.0
 30
0.0
  9
$PUCSORGFRONT
 10
0.0
 20
0.0
 30
0.0
  9
$PUCSORGBACK
 10
0.0
 20
0.0
 30
0.0
  9
$USERI1
 70
     0
  9
$USERI2
 70
     0
  9
$USERI3
 70
     0
  9
$USERI4
 70
     0
  9
$USERI5
 70
     0
  9
$USERR1
 40
0.0
  9
$USERR2
 40
0.0
  9
$USERR3
 40
0.0
  9
$USERR4
 40
0.0
  9
$USERR5
 40
0.0
  9
$WORLDVIEW
 70
     1
  9
$SHADEDGE
 70
     3
  9
$SHADEDIF
 70
    70
  9
$TILEMODE
 70
     1
  9
$MAXACTVP
 70
    16
  9
$PINSBASE
 10
0.0
 20
0.0
 30
0.0
  9
$PLIMCHECK
 70
     0
  9
$PEXTMIN
 10
1.000000E+20
 20
1.000000E+20
 30
1.000000E+20
  9
$PEXTMAX
 10
-1.000000E+20
 20
-1.000000E+20
 30
-1.000000E+20
  9
$PLIMMIN
 10
0.0
 20
0.0
  9
$PLIMMAX
 10
12.0
 20
9.0
  9
$UNITMODE
 70
     0
  9
$VISRETAIN
 70
     0
  9
$PLINEGEN
 70
     1
  9
$PSLTSCALE
 70
     0
  9
$TREEDEPTH
 70
  3020
  9
$CMLSTYLE
  2
Standard
  9
$CMLJUST
 70
     0
  9
$CMLSCALE
 40
1.0
  9
$PROXYGRAPHICS
 70
     0
  9
$MEASUREMENT
 70
     0
  9
$CELWEIGHT
370
     0
  9
$ENDCAPS
280
     0
  9
$JOINSTYLE
280
     0
  9
$LWDISPLAY
290
     0
  9
$INSUNITS
 70
     0
  9
$HYPERLINKBASE
  1

  9
$STYLESHEET
  1

  9
$XEDIT
290
     1
  9
$CEPSNTYPE
380
     0
  9
$PSTYLEMODE
290
     1
  9
$FINGERPRINTGUID
  2

  9
$VERSIONGUID
  2

  9
$EXTNAMES
290
     1
  9
$PSVPSCALE
 40
0.0
  0
ENDSEC
  0
SECTION
  2
CLASSES
  0
CLASS
  1
LWPOLYLINE
  2
AcDbPolyline
  3
AutoCAD 2000
 90
        0
280
     0
281
     1
  0
CLASS
  1
IMAGE
  2
AcDbRasterImage
  3
ISM
 90
      127
280
     0
281
     1
  0
CLASS
  1
OLE2FRAME
  2
AcDbOle2Frame
  3
AutoCAD 2000
 90
        0
280
     0
281
     1
  0
CLASS
  1
HATCH
  2
AcDbHatch
  3
AutoCAD 2000
 90
        0
280
     0
281
     1
  0
CLASS
  1
DICTIONARYVAR
  2
AcDbDictionaryVar
  3
AutoCAD 2000
 90
        0
280
     0
281
     0
  0
CLASS
  1
RASTERVARIABLES
  2
AcDbRasterVariables
  3
ISM
 90
        0
280
     0
281
     0
  0
CLASS
  1
IMAGEDEF
  2
AcDbRasterImageDef
  3
ISM
 90
        0
280
     0
281
     0
  0
CLASS
  1
IMAGEDEF_REACTOR
  2
AcDbRasterImageDefReactor
  3
ISM
 90
        1
280
     0
281
     0
  0
CLASS
  1
IDBUFFER
  2
AcDbIdBuffer
  3
AutoCAD 2000
 90
        0
280
     0
281
     0
  0
CLASS
  1
SPATIAL_FILTER
  2
AcDbSpatialFilter
  3
AutoCAD 2000
 90
        0
280
     0
281
     0
  0
CLASS
  1
XRECORD
  2
AcDbXrecord
  3
AutoCAD 2000
 90
        0
280
     0
281
     0
  0
CLASS
  1
SORTENTSTABLE
  2
AcDbSortentsTable
  3
AutoCAD 2000
 90
        0
280
     0
281
     0
  0
CLASS
  1
LAYER_INDEX
  2
AcDbLayerIndex
  3
AutoCAD 2000
 90
        0
280
     0
281
     0
  0
CLASS
  1
SPATIAL_INDEX
  2
AcDbSpatialIndex
  3
AutoCAD 2000
 90
        0
280
     0
281
     0
  0
CLASS
  1
OBJECT_PTR
  2
CAseDLPNTableRecord
  3
"ASE-LPNTableRecord"
 90
        1
280
     0
281
     0
  0
CLASS
  1
LAYOUT
  2
AcDbLayout
  3
AutoCAD 2000
 90
        0
280
     0
281
     0
  0
CLASS
  1
PLOTSETTINGS
  2
AcDbPlotSettings
  3
AutoCAD 2000
 90
        0
280
     0
281
     0
  0
CLASS
  1
ACDBDICTIONARYWDFLT
  2
AcDbDictionaryWithDefault
  3
AutoCAD 2000
 90
        0
280
     0
281
     0
  0
CLASS
  1
ACDBPLACEHOLDER
  2
AcDbPlaceHolder
  3
AutoCAD 2000
 90
        0
280
     0
281
     0
  0
CLASS
  1
VBA_PROJECT
  2
AcDbVbaProject
  3
acadvba
 90
        0
280
     0
281
     0
  0
CLASS
  1
WIPEOUT
  2
AcDbWipeout
  3
WipeOut|AutoCAD Express Tool|expresstools@autodesk.com
 90
      127
280
     0
281
     1
  0
CLASS
  1
WIPEOUTVARIABLES
  2
AcDbWipeoutVariables
  3
WipeOut|AutoCAD Express Tool|expresstools@autodesk.com
 90
        0
280
     0
281
     0
  0
CLASS
  1
RTEXT
  2
RText
  3
RText|AutoCAD Express Tool|expresstools@autodesk.com
 90
        0
280
     0
281
     1
  0
CLASS
  1
ARCALIGNEDTEXT
  2
AcDbArcAlignedText
  3
ATEXT|AutoCAD Express Tool|expresstools@autodesk.com
 90
        0
280
     0
281
     1
  0
ENDSEC
  0
SECTION
  2
TABLES
  0
TABLE
  2
VPORT
  5
6
100
AcDbSymbolTable
 70
     1
  0
VPORT
  5
19
100
AcDbSymbolTableRecord
100
AcDbViewportTableRecord
  2
*ACTIVE
 70
     0
 10
0.0
 20
0.0
 11
1.0
 21
1.0
 12
0.0
 22
0.0
 13
0.0
 23
0.0
 14
1.0
 24
1.0
 15
0.0
 25
0.0
 16
0.0
 26
0.0
 36
1.0
 17
0.0
 27
0.0
 37
0.0
 40
594.0
 41
1.415825
 42
50.0
 43
0.0
 44
0.0
 50
0.0
 51
0.0
 71
     0
 72
   500
 73
     1
 74
     1
 75
     0
 76
     0
 77
     0
 78
     0
281
     0
 65
     0
110
0.0
120
0.0
130
0.0
111
1.0
121
0.0
131
0.0
112
0.0
122
1.0
132
0.0
345
0
346
0
 79
     0
146
0.0
  0
ENDTAB
  0
TABLE
  2
LTYPE
  5
3
100
AcDbSymbolTable
 70
     9
  0
LTYPE
  5
C
100
AcDbSymbolTableRecord
100
AcDbLinetypeTableRecord
  2
ByBlock
 70
    64
  3

 72
    65
 73
     0
 40
0.0
  0
LTYPE
  5
D
100
AcDbSymbolTableRecord
100
AcDbLinetypeTableRecord
  2
ByLayer
 70
    64
  3

 72
    65
 73
     0
 40
0.0
  0
LTYPE
  5
E
100
AcDbSymbolTableRecord
100
AcDbLinetypeTableRecord
  2
CONTINUOUS
 70
     0
  3
Solid line
 72
    65
 73
     0
 40
0.0
  0
LTYPE
  5
F
100
AcDbSymbolTableRecord
100
AcDbLinetypeTableRecord
  2
DASHED
 70
     0
  3
__ __ __ __ __ __ __ __ __ __ __ __ __ __ __
 72
    65
 73
     2
 40
2.0
 49
1.2
 74
     0
 49
-0.8
 74
     0
  0
LTYPE
  5
10
100
AcDbSymbolTableRecord
100
AcDbLinetypeTableRecord
  2
CENTER
 70
     0
  3
____ _ ____ _ ____ _ ____ _ ____ _ ____ _ ____
 72
    65
 73
     4
 40
12.0
 49
9.0
 74
     0
 49
-1.0
 74
     0
 49
1.0
 74
     0
 49
-1.0
 74
     0
  0
LTYPE
  5
11
100
AcDbSymbolTableRecord
100
AcDbLinetypeTableRecord
  2
HIDDEN
 70
     0
  3
_ _ _ _ _ _ _ _ _ _ _ _ _ _ _ _ _ _ _ _ _ _ _
 72
    65
 73
     2
 40
3.2
 49
2.4
 74
     0
 49
-0.8
 74
     0
  0
LTYPE
  5
12
100
AcDbSymbolTableRecord
100
AcDbLinetypeTableRecord
  2
PHANTOM
 70
     0
  3
_____ _ _ _____ _ _ _____ _ _ _____ _ _ _____
 72
    65
 73
     6
 40
13.5
 49
9.0
 74
     0
 49
-1.0
 74
     0
 49
1.0
 74
     0
 49
-0.5
 74
     0
 49
1.0
 74
     0
 49
-1.0
 74
     0
  0
LTYPE
  5
13
100
AcDbSymbolTableRecord
100
AcDbLinetypeTableRecord
  2
DOT
 70
     0
  3
...............................................
 72
    65
 73
     2
 40
1.0
 49
0.5
 74
     0
 49
-0.5
 74
     0
  0
LTYPE
  5
14
100
AcDbSymbolTableRecord
100
AcDbLinetypeTableRecord
  2
DASHDOT
 70
     0
  3
__ . __ . __ . __ . __ . __ . __ . __ . __ . __
 72
    65
 73
     4
 40
8.0
 49
5.0
 74
     0
 49
-1.0
 74
     0
 49
1.0
 74
     0
 49
-1.0
 74
     0
  0
ENDTAB
  0
TABLE
  2
LAYER
  5
1
100
AcDbSymbolTable
 70
     4
  0
LAYER
  5
15
100
AcDbSymbolTableRecord
100
AcDbLayerTableRecord
  2
0
 70
     0
 62
     7
  6
CONTINUOUS
290
     1
370
    -3
390
0
  0
LAYER
  5
16
100
AcDbSymbolTableRecord
100
AcDbLayerTableRecord
  2
1
 70
     0
 62
     7
  6
CONTINUOUS
290
     1
370
    -3
390
0
  0
LAYER
  5
17
100
AcDbSymbolTableRecord
100
AcDbLayerTableRecord
  2
2
 70
     0
 62
     7
  6
CONTINUOUS
290
     1
370
    -3
390
0
  0
LAYER
  5
18
100
AcDbSymbolTableRecord
100
AcDbLayerTableRecord
  2
3
 70
     0
 62
     7
  6
CONTINUOUS
290
     1
370
    -3
390
0
  0
ENDTAB
  0
TABLE
  2
STYLE
  5
2
100
AcDbSymbolTable
 70
     1
  0
STYLE
  5
1B
100
AcDbSymbolTableRecord
100
AcDbTextStyleTableRecord
  2
STANDARD
 70
    64
 40
0.0
 41
1.0
 50
0.0
 71
     0
 42
1.0
  3
txt
  4
BIGFONT
  0
ENDTAB
  0
TABLE
  2
VIEW
  5
4
100
AcDbSymbolTable
 70
     0
  0
ENDTAB
  0
TABLE
  2
UCS
  5
5
100
AcDbSymbolTable
 70
     0
  0
ENDTAB
  0
TABLE
  2
APPID
  5
7
100
AcDbSymbolTable
 70
     1
  0
APPID
  5
1A
100
AcDbSymbolTableRecord
100
AcDbRegAppTableRecord
  2
ACAD
 70
     0
  0
ENDTAB
  0
TABLE
  2
DIMSTYLE
  5
8
100
AcDbSymbolTable
 70
     1
100
AcDbDimStyleTable
 71
     0
  0
DIMSTYLE
105
2A
100
AcDbSymbolTableRecord
100
AcDbDimStyleTableRecord
  2
Standard
 70
     0
  3

  4

 40
1.0
 41
2.0
 42
1.0
 43
0.38
 44
2.0
 45
0.0
 46
0.0
 47
0.0
 48
0.0
 71
     0
 72
     0
 73
     0
 74
     0
 75
     0
 76
     0
 77
     1
 78
     0
 79
     0
140
3.5
141
0.09
142
0.0
143
25.4
144
1.0
145
0.0
146
1.0
147
0.5
148
0.0
170
     0
171
     2
172
     0
173
     0
174
     0
175
     0
176
     0
177
     0
178
     0
179
     0
271
     3
272
     4
273
     2
274
     2
275
     0
276
     0
277
     2
278
    46
279
     0
280
     0
281
     0
282
     0
283
     1
284
     0
285
     0
286
     0
288
     0
289
     3
340
1B
341
0
342
0
343
0
344
0
371
    -2
372
    -2
  0
ENDTAB
  0
TABLE
  2
BLOCK_RECORD
  5
25
100
AcDbSymbolTable
 70
     7
  0
BLOCK_RECORD
  5
23
100
AcDbSymbolTableRecord
100
AcDbBlockTableRecord
  2
*Model_Space
340
0
  0
BLOCK_RECORD
  5
24
100
AcDbSymbolTableRecord
100
AcDbBlockTableRecord
  2
*Paper_Space
340
0
  0
BLOCK_RECORD
  5
1C
100
AcDbSymbolTableRecord
100
AcDbBlockTableRecord
  2
*D0
340
0
  0
BLOCK_RECORD
  5
1D
100
AcDbSymbolTableRecord
100
AcDbBlockTableRecord
  2
*D1
340
0
  0
BLOCK_RECORD
  5
1E
100
AcDbSymbolTableRecord
100
AcDbBlockTableRecord
  2
*D2
340
0
  0
BLOCK_RECORD
  5
1F
100
AcDbSymbolTableRecord
100
AcDbBlockTableRecord
  2
*D3
340
0
  0
BLOCK_RECORD
  5
20
100
AcDbSymbolTableRecord
100
AcDbBlockTableRecord
  2
*D4
340
0
  0
BLOCK_RECORD
  5
21
100
AcDbSymbolTableRecord
100
AcDbBlockTableRecord
  2
*D5
340
0
  0
BLOCK_RECORD
  5
22
100
AcDbSymbolTableRecord
100
AcDbBlockTableRecord
  2
*D6
340
0
  0
ENDTAB
  0
ENDSEC
  0
SECTION
  2
BLOCKS
  0
BLOCK
  5
26
100
AcDbEntity
  8
0
390
0
100
AcDbBlockBegin
  2
*Model_Space
 70
     0
 10
0.0
 20
0.0
 30
0.0
  3
*Model_Space
  1

  0
ENDBLK
  5
27
100
AcDbEntity
  8
0
390
0
100
AcDbBlockEnd
  0
BLOCK
  5
28
100
AcDbEntity
 67
     1
  8
0
390
0
100
AcDbBlockBegin
  2
*Paper_Space
 70
     0
 10
0.0
 20
0.0
 30
0.0
  3
*Paper_Space
  1

  0
ENDBLK
  5
29
100
AcDbEntity
 67
     1
  8
0
390
0
100
AcDbBlockEnd
  0
BLOCK
  5
1C7
100
AcDbEntity
  8
3
100
AcDbBlockBegin
  2
*D0
 70
     1
 10
0.0
 20
0.0
 30
0.0
  3
*D0
  1

  0
TEXT
  5
1C8
100
AcDbEntity
  8
3
370
    25
100
AcDbText
 10
-173.193283
 20
-70.352596
 30
0.0
 40
3.5
  1
56
 50
90.0
 72
     5
 11
-173.193283
 21
-64.052596
 31
0.0
100
AcDbText
  0
LINE
  5
1C9
100
AcDbEntity
  8
3
370
    25
100
AcDbLine
 10
-132.47167
 20
-94.852596
 30
0.0
 11
-173.693283
 21
-94.852596
 31
0.0
  0
LINE
  5
1CA
100
AcDbEntity
  8
3
370
    25
100
AcDbLine
 10
-172.693283
 20
-94.852596
 30
0.0
 11
-172.175645
 21
-92.920745
 31
0.0
  0
LINE
  5
1CB
100
AcDbEntity
  8
3
370
    25
100
AcDbLine
 10
-172.693283
 20
-94.852596
 30
0.0
 11
-173.210921
 21
-92.920745
 31
0.0
  0
LINE
  5
1CC
100
AcDbEntity
  8
3
370
    25
100
AcDbLine
 10
-172.175645
 20
-92.920745
 30
0.0
 11
-173.210921
 21
-92.920745
 31
0.0
  0
LINE
  5
1CD
100
AcDbEntity
  8
3
370
    25
100
AcDbLine
 10
-172.693283
 20
-94.852596
 30
0.0
 11
-172.693283
 21
-38.852596
 31
0.0
  0
LINE
  5
1CE
100
AcDbEntity
  8
3
370
    25
100
AcDbLine
 10
-172.693283
 20
-38.852596
 30
0.0
 11
-173.210921
 21
-40.784448
 31
0.0
  0
LINE
  5
1CF
100
AcDbEntity
  8
3
370
    25
100
AcDbLine
 10
-172.693283
 20
-38.852596
 30
0.0
 11
-172.175645
 21
-40.784448
 31
0.0
  0
LINE
  5
1D0
100
AcDbEntity
  8
3
370
    25
100
AcDbLine
 10
-173.210921
 20
-40.784448
 30
0.0
 11
-172.175645
 21
-40.784448
 31
0.0
  0
LINE
  5
1D1
100
AcDbEntity
  8
3
370
    25
100
AcDbLine
 10
-145.87167
 20
-38.852596
 30
0.0
 11
-173.693283
 21
-38.852596
 31
0.0
  0
ENDBLK
  5
1D2
100
AcDbEntity
  8
3
100
AcDbBlockEnd
  0
BLOCK
  5
1D3
100
AcDbEntity
  8
3
100
AcDbBlockBegin
  2
*D1
 70
     1
 10
0.0
 20
0.0
 30
0.0
  3
*D1
  1

  0
TEXT
  5
1D4
100
AcDbEntity
  8
3
370
    25
100
AcDbText
 10
75.445547
 20
-70.435688
 30
0.0
 40
3.5
  1
%%c４６
 72
     5
 11
85.245547
 21
-70.435688
 31
0.0
100
AcDbText
  0
LINE
  5
1D5
100
AcDbEntity
  8
3
370
    25
100
AcDbLine
 10
94.028638
 20
-39.012641
 30
0.0
 11
56.94432
 21
-71.595732
 31
0.0
  0
LINE
  5
1D6
100
AcDbEntity
  8
3
370
    25
100
AcDbLine
 10
57.695547
 20
-70.935688
 30
0.0
 11
59.627399
 21
-71.453326
 31
0.0
  0
LINE
  5
1D7
100
AcDbEntity
  8
3
370
    25
100
AcDbLine
 10
57.695547
 20
-70.935688
 30
0.0
 11
59.627399
 21
-70.41805
 31
0.0
  0
LINE
  5
1D8
100
AcDbEntity
  8
3
370
    25
100
AcDbLine
 10
59.627399
 20
-71.453326
 30
0.0
 11
59.627399
 21
-70.41805
 31
0.0
  0
LINE
  5
1D9
100
AcDbEntity
  8
3
370
    25
100
AcDbLine
 10
57.695547
 20
-70.935688
 30
0.0
 11
103.695547
 21
-70.935688
 31
0.0
  0
LINE
  5
1DA
100
AcDbEntity
  8
3
370
    25
100
AcDbLine
 10
103.695547
 20
-70.935688
 30
0.0
 11
101.763695
 21
-70.41805
 31
0.0
  0
LINE
  5
1DB
100
AcDbEntity
  8
3
370
    25
100
AcDbLine
 10
103.695547
 20
-70.935688
 30
0.0
 11
101.763695
 21
-71.453326
 31
0.0
  0
LINE
  5
1DC
100
AcDbEntity
  8
3
370
    25
100
AcDbLine
 10
101.763695
 20
-70.41805
 30
0.0
 11
101.763695
 21
-71.453326
 31
0.0
  0
LINE
  5
1DD
100
AcDbEntity
  8
3
370
    25
100
AcDbLine
 10
140.028638
 20
-39.012641
 30
0.0
 11
102.94432
 21
-71.595732
 31
0.0
  0
ENDBLK
  5
1DE
100
AcDbEntity
  8
3
100
AcDbBlockEnd
  0
BLOCK
  5
1DF
100
AcDbEntity
  8
3
100
AcDbBlockBegin
  2
*D2
 70
     1
 10
0.0
 20
0.0
 30
0.0
  3
*D2
  1

  0
TEXT
  5
1E0
100
AcDbEntity
  8
3
370
    25
100
AcDbText
 10
-173.193283
 20
-7.352596
 30
0.0
 40
3.5
  1
70
 50
90.0
 41
2.0
 72
     5
 11
-173.193283
 21
-1.752596
 31
0.0
100
AcDbText
  0
LINE
  5
1E1
100
AcDbEntity
  8
3
370
    25
100
AcDbLine
 10
-145.87167
 20
-38.852596
 30
0.0
 11
-173.693283
 21
-38.852596
 31
0.0
  0
LINE
  5
1E2
100
AcDbEntity
  8
3
370
    25
100
AcDbLine
 10
-172.693283
 20
-38.852596
 30
0.0
 11
-172.175645
 21
-36.920745
 31
0.0
  0
LINE
  5
1E3
100
AcDbEntity
  8
3
370
    25
100
AcDbLine
 10
-172.693283
 20
-38.852596
 30
0.0
 11
-173.210921
 21
-36.920745
 31
0.0
  0
LINE
  5
1E4
100
AcDbEntity
  8
3
370
    25
100
AcDbLine
 10
-172.175645
 20
-36.920745
 30
0.0
 11
-173.210921
 21
-36.920745
 31
0.0
  0
LINE
  5
1E5
100
AcDbEntity
  8
3
370
    25
100
AcDbLine
 10
-172.693283
 20
-38.852596
 30
0.0
 11
-172.693283
 21
31.147404
 31
0.0
  0
LINE
  5
1E6
100
AcDbEntity
  8
3
370
    25
100
AcDbLine
 10
-172.693283
 20
31.147404
 30
0.0
 11
-173.210921
 21
29.215552
 31
0.0
  0
LINE
  5
1E7
100
AcDbEntity
  8
3
370
    25
100
AcDbLine
 10
-172.693283
 20
31.147404
 30
0.0
 11
-172.175645
 21
29.215552
 31
0.0
  0
LINE
  5
1E8
100
AcDbEntity
  8
3
370
    25
100
AcDbLine
 10
-173.210921
 20
29.215552
 30
0.0
 11
-172.175645
 21
29.215552
 31
0.0
  0
LINE
  5
1E9
100
AcDbEntity
  8
3
370
    25
100
AcDbLine
 10
-143.138184
 20
31.147404
 30
0.0
 11
-173.693283
 21
31.147404
 31
0.0
  0
ENDBLK
  5
1EA
100
AcDbEntity
  8
3
100
AcDbBlockEnd
  0
BLOCK
  5
1EB
100
AcDbEntity
  8
3
100
AcDbBlockBegin
  2
*D3
 70
     1
 10
0.0
 20
0.0
 30
0.0
  3
*D3
  1

  0
TEXT
  5
1EC
100
AcDbEntity
  8
3
370
    25
100
AcDbText
 10
-8.366388
 20
6.147404
 30
0.0
 40
3.5
  1
101
 50
90.0
 41
2.0
 72
     5
 11
-8.366388
 21
15.247404
 31
0.0
100
AcDbText
  0
LINE
  5
1ED
100
AcDbEntity
  8
3
370
    25
100
AcDbLine
 10
94.252348
 20
-38.852596
 30
0.0
 11
-8.866388
 21
-38.852596
 31
0.0
  0
LINE
  5
1EE
100
AcDbEntity
  8
3
370
    25
100
AcDbLine
 10
-7.866388
 20
-38.852596
 30
0.0
 11
-7.34875
 21
-36.920745
 31
0.0
  0
LINE
  5
1EF
100
AcDbEntity
  8
3
370
    25
100
AcDbLine
 10
-7.866388
 20
-38.852596
 30
0.0
 11
-8.384026
 21
-36.920745
 31
0.0
  0
LINE
  5
1F0
100
AcDbEntity
  8
3
370
    25
100
AcDbLine
 10
-7.34875
 20
-36.920745
 30
0.0
 11
-8.384026
 21
-36.920745
 31
0.0
  0
LINE
  5
1F1
100
AcDbEntity
  8
3
370
    25
100
AcDbLine
 10
-7.866388
 20
-38.852596
 30
0.0
 11
-7.866388
 21
61.647404
 31
0.0
  0
LINE
  5
1F2
100
AcDbEntity
  8
3
370
    25
100
AcDbLine
 10
-7.866388
 20
61.647404
 30
0.0
 11
-8.384026
 21
59.715552
 31
0.0
  0
LINE
  5
1F3
100
AcDbEntity
  8
3
370
    25
100
AcDbLine
 10
-7.866388
 20
61.647404
 30
0.0
 11
-7.34875
 21
59.715552
 31
0.0
  0
LINE
  5
1F4
100
AcDbEntity
  8
3
370
    25
100
AcDbLine
 10
-8.384026
 20
59.715552
 30
0.0
 11
-7.34875
 21
59.715552
 31
0.0
  0
LINE
  5
1F5
100
AcDbEntity
  8
3
370
    25
100
AcDbLine
 10
-43.497652
 20
61.647404
 30
0.0
 11
-6.866388
 21
61.647404
 31
0.0
  0
ENDBLK
  5
1F6
100
AcDbEntity
  8
3
100
AcDbBlockEnd
  0
BLOCK
  5
1F7
100
AcDbEntity
  8
3
100
AcDbBlockBegin
  2
*D4
 70
     1
 10
0.0
 20
0.0
 30
0.0
  3
*D4
  1

  0
TEXT
  5
1F8
100
AcDbEntity
  8
3
370
    25
100
AcDbText
 10
-127.62167
 20
-118.046165
 30
0.0
 40
3.5
  1
φ１３
 72
     5
 11
-117.82167
 21
-118.046165
 31
0.0
100
AcDbText
  0
LINE
  5
1F9
100
AcDbEntity
  8
3
370
    25
100
AcDbLine
 10
-115.87167
 20
-102.352596
 30
0.0
 11
-115.87167
 21
-119.546165
 31
0.0
  0
LINE
  5
1FA
100
AcDbEntity
  8
3
370
    25
100
AcDbLine
 10
-115.87167
 20
-118.546165
 30
0.0
 11
-117.803521
 21
-118.028527
 31
0.0
  0
LINE
  5
1FB
100
AcDbEntity
  8
3
370
    25
100
AcDbLine
 10
-115.87167
 20
-118.546165
 30
0.0
 11
-117.803521
 21
-119.063804
 31
0.0
  0
LINE
  5
1FC
100
AcDbEntity
  8
3
370
    25
100
AcDbLine
 10
-117.803521
 20
-118.028527
 30
0.0
 11
-117.803521
 21
-119.063804
 31
0.0
  0
LINE
  5
1FD
100
AcDbEntity
  8
3
370
    25
100
AcDbLine
 10
-115.87167
 20
-118.546165
 30
0.0
 11
-128.87167
 21
-118.546165
 31
0.0
  0
LINE
  5
1FE
100
AcDbEntity
  8
3
370
    25
100
AcDbLine
 10
-128.87167
 20
-118.546165
 30
0.0
 11
-126.939818
 21
-119.063804
 31
0.0
  0
LINE
  5
1FF
100
AcDbEntity
  8
3
370
    25
100
AcDbLine
 10
-128.87167
 20
-118.546165
 30
0.0
 11
-126.939818
 21
-118.028527
 31
0.0
  0
LINE
  5
200
100
AcDbEntity
  8
3
370
    25
100
AcDbLine
 10
-126.939818
 20
-119.063804
 30
0.0
 11
-126.939818
 21
-118.028527
 31
0.0
  0
LINE
  5
201
100
AcDbEntity
  8
3
370
    25
100
AcDbLine
 10
-128.87167
 20
-102.352596
 30
0.0
 11
-128.87167
 21
-119.546165
 31
0.0
  0
ENDBLK
  5
202
100
AcDbEntity
  8
3
100
AcDbBlockEnd
  0
BLOCK
  5
203
100
AcDbEntity
  8
3
100
AcDbBlockBegin
  2
*D5
 70
     1
 10
0.0
 20
0.0
 30
0.0
  3
*D5
  1

  0
LINE
  5
204
100
AcDbEntity
  8
3
370
    25
100
AcDbLine
 10
-52.247652
 20
58.221817
 30
0.0
 11
-52.247652
 21
-15.240749
 31
0.0
  0
LINE
  5
205
100
AcDbEntity
  8
3
370
    25
100
AcDbLine
 10
-52.247652
 20
-14.240749
 30
0.0
 11
-50.3158
 21
-14.758387
 31
0.0
  0
LINE
  5
206
100
AcDbEntity
  8
3
370
    25
100
AcDbLine
 10
-52.247652
 20
-14.240749
 30
0.0
 11
-50.3158
 21
-13.723111
 31
0.0
  0
LINE
  5
207
100
AcDbEntity
  8
3
370
    25
100
AcDbLine
 10
-50.3158
 20
-14.758387
 30
0.0
 11
-50.3158
 21
-13.723111
 31
0.0
  0
LINE
  5
208
100
AcDbEntity
  8
3
370
    25
100
AcDbLine
 10
-52.247652
 20
-14.240749
 30
0.0
 11
117.779865
 21
-14.240749
 31
0.0
  0
LINE
  5
209
100
AcDbEntity
  8
3
370
    25
100
AcDbLine
 10
117.779865
 20
-14.240749
 30
0.0
 11
115.848014
 21
-13.723111
 31
0.0
  0
LINE
  5
20A
100
AcDbEntity
  8
3
370
    25
100
AcDbLine
 10
117.779865
 20
-14.240749
 30
0.0
 11
115.848014
 21
-14.758387
 31
0.0
  0
LINE
  5
20B
100
AcDbEntity
  8
3
370
    25
100
AcDbLine
 10
115.848014
 20
-13.723111
 30
0.0
 11
115.848014
 21
-14.758387
 31
0.0
  0
ENDBLK
  5
20C
100
AcDbEntity
  8
3
100
AcDbBlockEnd
  0
BLOCK
  5
20D
100
AcDbEntity
  8
3
100
AcDbBlockBegin
  2
*D6
 70
     1
 10
0.0
 20
0.0
 30
0.0
  3
*D6
  1

  0
TEXT
  5
20E
100
AcDbEntity
  8
3
370
    25
100
AcDbText
 10
-100.371718
 20
-13.740749
 30
0.0
 40
3.5
  1
（５８）
 72
     5
 11
-87.071718
 21
-13.740749
 31
0.0
100
AcDbText
  0
LINE
  5
20F
100
AcDbEntity
  8
3
370
    25
100
AcDbLine
 10
-122.37167
 20
-14.240749
 30
0.0
 11
-120.439818
 21
-14.758387
 31
0.0
  0
LINE
  5
210
100
AcDbEntity
  8
3
370
    25
100
AcDbLine
 10
-122.37167
 20
-14.240749
 30
0.0
 11
-120.439818
 21
-13.723111
 31
0.0
  0
LINE
  5
211
100
AcDbEntity
  8
3
370
    25
100
AcDbLine
 10
-120.439818
 20
-14.758387
 30
0.0
 11
-120.439818
 21
-13.723111
 31
0.0
  0
LINE
  5
212
100
AcDbEntity
  8
3
370
    25
100
AcDbLine
 10
-122.37167
 20
-14.240749
 30
0.0
 11
-64.371765
 21
-14.240749
 31
0.0
  0
LINE
  5
213
100
AcDbEntity
  8
3
370
    25
100
AcDbLine
 10
-64.371765
 20
-14.240749
 30
0.0
 11
-66.303617
 21
-13.723111
 31
0.0
  0
LINE
  5
214
100
AcDbEntity
  8
3
370
    25
100
AcDbLine
 10
-64.371765
 20
-14.240749
 30
0.0
 11
-66.303617
 21
-14.758387
 31
0.0
  0
LINE
  5
215
100
AcDbEntity
  8
3
370
    25
100
AcDbLine
 10
-66.303617
 20
-13.723111
 30
0.0
 11
-66.303617
 21
-14.758387
 31
0.0
  0
LINE
  5
216
100
AcDbEntity
  8
3
370
    25
100
AcDbLine
 10
-64.371765
 20
23.147404
 30
0.0
 11
-64.371765
 21
-15.240749
 31
0.0
  0
ENDBLK
  5
217
100
AcDbEntity
  8
3
100
AcDbBlockEnd
  0
ENDSEC
  0
SECTION
  2
ENTITIES
  0
LINE
  5
2B
100
AcDbEntity
  8
1
370
   100
100
AcDbLine
 10
-186.510785
 20
137.514384
 30
0.0
 11
197.491193
 21
137.514384
 31
0.0
  0
LINE
  5
2C
100
AcDbEntity
  8
1
370
   100
100
AcDbLine
 10
-186.510785
 20
137.514384
 30
0.0
 11
-186.510785
 21
-138.985941
 31
0.0
  0
LINE
  5
2D
100
AcDbEntity
  8
1
370
   100
100
AcDbLine
 10
-186.510785
 20
-138.985941
 30
0.0
 11
197.491193
 21
-138.985941
 31
0.0
  0
LINE
  5
2E
100
AcDbEntity
  8
1
370
   100
100
AcDbLine
 10
197.491193
 20
-138.985941
 30
0.0
 11
197.491193
 21
137.514384
 31
0.0
  0
TEXT
  5
2F
100
AcDbEntity
  8
1
370
    50
100
AcDbText
 10
179.814221
 20
-113.126428
 30
0.0
 40
3.0
  1
設計
 72
     5
 11
185.214221
 21
-113.126428
 31
0.0
100
AcDbText
  0
TEXT
  5
30
100
AcDbEntity
  8
1
370
    50
100
AcDbText
 10
189.563739
 20
-113.049829
 30
0.0
 40
3.0
  1
製図
 72
     5
 11
194.963739
 21
-113.049829
 31
0.0
100
AcDbText
  0
TEXT
  5
31
100
AcDbEntity
  8
1
370
    50
100
AcDbText
 10
159.502872
 20
-113.126428
 30
0.0
 40
3.0
  1
承認
 72
     5
 11
164.902872
 21
-113.126428
 31
0.0
100
AcDbText
  0
TEXT
  5
32
100
AcDbEntity
  8
1
370
    50
100
AcDbText
 10
169.494839
 20
-113.09901
 30
0.0
 40
3.0
  1
検図
 72
     5
 11
174.894839
 21
-113.09901
 31
0.0
100
AcDbText
  0
LINE
  5
33
100
AcDbEntity
  8
1
370
    25
100
AcDbLine
 10
142.491193
 20
-113.985941
 30
0.0
 11
197.491193
 21
-113.985941
 31
0.0
  0
LINE
  5
34
100
AcDbEntity
  8
1
370
    25
100
AcDbLine
 10
171.241193
 20
-122.985941
 30
0.0
 11
171.241193
 21
-129.985941
 31
0.0
  0
TEXT
  5
35
100
AcDbEntity
  8
1
370
    50
100
AcDbText
 10
159.775795
 20
-128.006264
 30
0.0
 40
3.0
  1
日　付
 72
     5
 11
168.175795
 21
-128.006264
 31
0.0
100
AcDbText
  0
LINE
  5
36
100
AcDbEntity
  8
1
370
    50
100
AcDbLine
 10
20.491193
 20
-129.985941
 30
0.0
 11
197.491193
 21
-129.985941
 31
0.0
  0
TEXT
  5
37
100
AcDbEntity
  8
1
370
    50
100
AcDbText
 10
143.887505
 20
-128.161203
 30
0.0
 40
3.0
  1
第三角法
 72
     5
 11
155.287505
 21
-128.161203
 31
0.0
100
AcDbText
  0
TEXT
  5
38
100
AcDbEntity
  8
1
370
    50
100
AcDbText
 10
145.54371
 20
-112.99901
 30
0.0
 40
3.0
  1
尺　度
 72
     5
 11
153.94371
 21
-112.99901
 31
0.0
100
AcDbText
  0
LINE
  5
39
100
AcDbEntity
  8
1
370
   100
100
AcDbLine
 10
20.491193
 20
-108.985941
 30
0.0
 11
197.491193
 21
-108.985941
 31
0.0
  0
LINE
  5
3A
100
AcDbEntity
  8
1
370
    50
100
AcDbLine
 10
105.991193
 20
-108.985941
 30
0.0
 11
105.991193
 21
-138.985941
 31
0.0
  0
LINE
  5
3B
100
AcDbEntity
  8
1
370
    25
100
AcDbLine
 10
187.491193
 20
-122.985941
 30
0.0
 11
187.491193
 21
-108.985941
 31
0.0
  0
LINE
  5
3C
100
AcDbEntity
  8
1
370
    25
100
AcDbLine
 10
177.491193
 20
-122.985941
 30
0.0
 11
177.491193
 21
-108.985941
 31
0.0
  0
LINE
  5
3D
100
AcDbEntity
  8
1
370
    25
100
AcDbLine
 10
167.491193
 20
-122.985941
 30
0.0
 11
167.491193
 21
-108.985941
 31
0.0
  0
LINE
  5
3E
100
AcDbEntity
  8
1
370
    50
100
AcDbLine
 10
142.491193
 20
-138.985941
 30
0.0
 11
142.491193
 21
-108.985941
 31
0.0
  0
LINE
  5
3F
100
AcDbEntity
  8
1
370
    50
100
AcDbLine
 10
94.991193
 20
-108.985941
 30
0.0
 11
94.991193
 21
-138.985941
 31
0.0
  0
LINE
  5
40
100
AcDbEntity
  8
1
370
    50
100
AcDbLine
 10
31.491193
 20
-108.985941
 30
0.0
 11
31.491193
 21
-129.985941
 31
0.0
  0
LINE
  5
41
100
AcDbEntity
  8
1
370
    50
100
AcDbLine
 10
142.491193
 20
-122.985941
 30
0.0
 11
197.491193
 21
-122.985941
 31
0.0
  0
TEXT
  5
42
100
AcDbEntity
  8
1
370
    50
100
AcDbText
 10
143.550565
 20
-135.940469
 30
0.0
 40
3.0
  1
コードＮｏ
 41
0.9
 72
     5
 11
156.510565
 21
-135.940469
 31
0.0
100
AcDbText
  0
TEXT
  5
43
100
AcDbEntity
  8
1
370
   100
100
AcDbText
 10
26.443387
 20
-136.43783
 30
0.0
 40
4.0
  1
ミズタニバルブ工業株式会社
 41
1.2
 72
     5
 11
87.883387
 21
-136.43783
 31
0.0
100
AcDbText
  0
LINE
  5
44
100
AcDbEntity
  8
1
370
    50
100
AcDbLine
 10
20.491193
 20
-119.485941
 30
0.0
 11
142.491193
 21
-119.485941
 31
0.0
  0
LINE
  5
45
100
AcDbEntity
  8
1
370
    50
100
AcDbLine
 10
57.741193
 20
-119.485941
 30
0.0
 11
57.741193
 21
-129.985941
 31
0.0
  0
LINE
  5
46
100
AcDbEntity
  8
1
370
    50
100
AcDbLine
 10
68.741193
 20
-119.485941
 30
0.0
 11
68.741193
 21
-129.985941
 31
0.0
  0
LINE
  5
47
100
AcDbEntity
  8
1
370
    50
100
AcDbLine
 10
157.491193
 20
-138.985941
 30
0.0
 11
157.491193
 21
-108.985941
 31
0.0
  0
TEXT
  5
48
100
AcDbEntity
  8
1
370
    50
100
AcDbText
 10
172.549065
 20
-128.050147
 30
0.0
 40
3.0
  1
　　・　　・
 72
     5
 11
189.949065
 21
-128.050147
 31
0.0
100
AcDbText
  0
LINE
  5
49
100
AcDbEntity
  8
1
370
   100
100
AcDbLine
 10
20.491193
 20
-108.985941
 30
0.0
 11
20.491193
 21
-138.985941
 31
0.0
  0
TEXT
  5
4A
100
AcDbEntity
  8
1
370
    50
100
AcDbText
 10
145.416291
 20
-120.006746
 30
0.0
 40
3.0
  1
　／ 
 72
     5
 11
150.816291
 21
-120.006746
 31
0.0
100
AcDbText
  0
TEXT
  5
4B
100
AcDbEntity
  8
1
370
    50
100
AcDbText
 10
96.952061
 20
-136.012454
 30
0.0
 40
3.0
  1
備 考 
 72
     5
 11
103.852061
 21
-136.012454
 31
0.0
100
AcDbText
  0
TEXT
  5
4C
100
AcDbEntity
  8
1
370
    50
100
AcDbText
 10
96.756267
 20
-115.44592
 30
0.0
 40
3.0
  1
仕 上
 72
     5
 11
103.656267
 21
-115.44592
 31
0.0
100
AcDbText
  0
TEXT
  5
4D
100
AcDbEntity
  8
1
370
    50
100
AcDbText
 10
96.723588
 20
-124.445833
 30
0.0
 40
3.0
  1
表 面
 72
     5
 11
103.623588
 21
-124.445833
 31
0.0
100
AcDbText
  0
TEXT
  5
4E
100
AcDbEntity
  8
1
370
    50
100
AcDbText
 10
96.723588
 20
-127.945833
 30
0.0
 40
3.0
  1
処 理
 72
     5
 11
103.623588
 21
-127.945833
 31
0.0
100
AcDbText
  0
TEXT
  5
4F
100
AcDbEntity
  8
1
370
    50
100
AcDbText
 10
22.396675
 20
-115.8467
 30
0.0
 40
3.0
  1
品 名
 72
     5
 11
29.296675
 21
-115.8467
 31
0.0
100
AcDbText
  0
TEXT
  5
50
100
AcDbEntity
  8
1
370
    50
100
AcDbText
 10
22.198883
 20
-126.231267
 30
0.0
 40
3.0
  1
材 質
 72
     5
 11
29.098883
 21
-126.231267
 31
0.0
100
AcDbText
  0
TEXT
  5
51
100
AcDbEntity
  8
1
370
    50
100
AcDbText
 10
59.448883
 20
-126.231267
 30
0.0
 40
3.0
  1
規 格
 72
     5
 11
66.348883
 21
-126.231267
 31
0.0
100
AcDbText
  0
LINE
  5
52
100
AcDbEntity
  8
2
370
    25
  6
CENTER
100
AcDbLine
 10
-122.37167
 20
106.702209
 30
0.0
 11
-122.37167
 21
-103.551056
 31
0.0
  0
LINE
  5
53
100
AcDbEntity
  8
2
370
    50
100
AcDbLine
 10
-113.12167
 20
11.147404
 30
0.0
 11
-113.12167
 21
-32.352596
 31
0.0
  0
LINE
  5
54
100
AcDbEntity
  8
2
370
    50
100
AcDbLine
 10
-131.62167
 20
6.941258
 30
0.0
 11
-131.62167
 21
-32.352596
 31
0.0
  0
LINE
  5
55
100
AcDbEntity
  8
2
370
    50
100
AcDbLine
 10
-99.37167
 20
-37.352596
 30
0.0
 11
-99.37167
 21
-38.352596
 31
0.0
  0
LINE
  5
56
100
AcDbEntity
  8
2
370
    50
100
AcDbLine
 10
-145.37167
 20
-37.352596
 30
0.0
 11
-145.37167
 21
-38.352596
 31
0.0
  0
LINE
  5
57
100
AcDbEntity
  8
2
370
    50
100
AcDbLine
 10
-97.87167
 20
43.147404
 30
0.0
 11
-103.37167
 21
43.147404
 31
0.0
  0
LINE
  5
58
100
AcDbEntity
  8
2
370
    50
100
AcDbLine
 10
-97.87167
 20
19.147404
 30
0.0
 11
-105.12167
 21
19.147404
 31
0.0
  0
ARC
  5
59
100
AcDbEntity
  8
2
370
    50
100
AcDbCircle
 10
-103.37167
 20
50.147404
 30
0.0
 40
7.0
100
AcDbArc
 50
180.0
 51
270.0
  0
ARC
  5
5A
100
AcDbEntity
  8
2
370
    50
100
AcDbCircle
 10
-85.37167
 20
31.147404
 30
0.0
 40
50.0
100
AcDbArc
 50
168.745287
 51
197.612439
  0
ARC
  5
5B
100
AcDbEntity
  8
2
370
    50
100
AcDbCircle
 10
-161.62167
 20
6.941258
 30
0.0
 40
30.0
100
AcDbArc
 50
0.0
 51
17.612439
  0
ARC
  5
5C
100
AcDbEntity
  8
2
370
    50
100
AcDbCircle
 10
-136.37167
 20
41.296295
 30
0.0
 40
2.0
100
AcDbArc
 50
348.745287
 51
360.0
  0
LINE
  5
5D
100
AcDbEntity
  8
2
370
    50
100
AcDbLine
 10
-100.37167
 20
-36.352596
 30
0.0
 11
-144.37167
 21
-36.352596
 31
0.0
  0
LINE
  5
5E
100
AcDbEntity
  8
2
370
    50
100
AcDbLine
 10
-99.87167
 20
-38.852596
 30
0.0
 11
-144.87167
 21
-38.852596
 31
0.0
  0
ARC
  5
5F
100
AcDbEntity
  8
2
370
    50
100
AcDbCircle
 10
-135.62167
 20
-32.352596
 30
0.0
 40
4.0
100
AcDbArc
 50
270.0
 51
360.0
  0
ARC
  5
60
100
AcDbEntity
  8
2
370
    50
100
AcDbCircle
 10
-109.12167
 20
-32.352596
 30
0.0
 40
4.0
100
AcDbArc
 50
180.0
 51
270.0
  0
LINE
  5
61
100
AcDbEntity
  8
2
370
    50
100
AcDbLine
 10
-110.37167
 20
54.147404
 30
0.0
 11
-109.37167
 21
55.147404
 31
0.0
  0
LINE
  5
62
100
AcDbEntity
  8
2
370
    50
100
AcDbLine
 10
-134.37167
 20
54.147404
 30
0.0
 11
-135.37167
 21
55.147404
 31
0.0
  0
LINE
  5
63
100
AcDbEntity
  8
2
370
    50
100
AcDbLine
 10
-134.37167
 20
54.147404
 30
0.0
 11
-134.37167
 21
41.296295
 31
0.0
  0
LINE
  5
64
100
AcDbEntity
  8
2
370
    50
100
AcDbLine
 10
-110.37167
 20
54.147404
 30
0.0
 11
-110.37167
 21
50.147404
 31
0.0
  0
ARC
  5
65
100
AcDbEntity
  8
2
370
    50
100
AcDbCircle
 10
-144.37167
 20
-37.352596
 30
0.0
 40
1.0
100
AcDbArc
 50
90.0
 51
180.0
  0
ARC
  5
66
100
AcDbEntity
  8
2
370
    50
100
AcDbCircle
 10
-100.37167
 20
-37.352596
 30
0.0
 40
1.0
100
AcDbArc
 50
360.0
 51
90.0
  0
ARC
  5
67
100
AcDbEntity
  8
2
370
    50
100
AcDbCircle
 10
-105.12167
 20
11.147404
 30
0.0
 40
8.0
100
AcDbArc
 50
90.0
 51
180.0
  0
LINE
  5
68
100
AcDbEntity
  8
2
370
    50
100
AcDbLine
 10
-144.87167
 20
-38.852596
 30
0.0
 11
-145.37167
 21
-38.352596
 31
0.0
  0
LINE
  5
69
100
AcDbEntity
  8
2
370
    50
100
AcDbLine
 10
-99.87167
 20
-38.852596
 30
0.0
 11
-99.37167
 21
-38.352596
 31
0.0
  0
LINE
  5
6A
100
AcDbEntity
  8
2
370
    25
  6
CENTER
100
AcDbLine
 10
117.779865
 20
64.747404
 30
0.0
 11
117.779865
 21
-104.104889
 31
0.0
  0
LINE
  5
6B
100
AcDbEntity
  8
2
370
    50
100
AcDbLine
 10
127.029865
 20
10.268287
 30
0.0
 11
127.029865
 21
-32.352596
 31
0.0
  0
LINE
  5
6C
100
AcDbEntity
  8
2
370
    50
100
AcDbLine
 10
108.529865
 20
10.268287
 30
0.0
 11
108.529865
 21
-32.352596
 31
0.0
  0
LINE
  5
6D
100
AcDbEntity
  8
2
370
    50
100
AcDbLine
 10
140.779865
 20
-37.352596
 30
0.0
 11
140.779865
 21
-38.352596
 31
0.0
  0
LINE
  5
6E
100
AcDbEntity
  8
2
370
    50
100
AcDbLine
 10
94.779865
 20
-37.352596
 30
0.0
 11
94.779865
 21
-38.352596
 31
0.0
  0
LINE
  5
6F
100
AcDbEntity
  8
2
370
    50
100
AcDbLine
 10
139.779865
 20
-36.352596
 30
0.0
 11
95.779865
 21
-36.352596
 31
0.0
  0
LINE
  5
70
100
AcDbEntity
  8
2
370
    50
100
AcDbLine
 10
140.279865
 20
-38.852596
 30
0.0
 11
95.279865
 21
-38.852596
 31
0.0
  0
ARC
  5
71
100
AcDbEntity
  8
2
370
    50
100
AcDbCircle
 10
104.529865
 20
-32.352596
 30
0.0
 40
4.0
100
AcDbArc
 50
270.0
 51
360.0
  0
ARC
  5
72
100
AcDbEntity
  8
2
370
    50
100
AcDbCircle
 10
131.029865
 20
-32.352596
 30
0.0
 40
4.0
100
AcDbArc
 50
180.0
 51
270.0
  0
LINE
  5
73
100
AcDbEntity
  8
2
370
    50
100
AcDbLine
 10
105.779865
 20
54.147404
 30
0.0
 11
105.779865
 21
40.511292
 31
0.0
  0
LINE
  5
74
100
AcDbEntity
  8
2
370
    50
100
AcDbLine
 10
129.779865
 20
54.147404
 30
0.0
 11
129.779865
 21
40.511292
 31
0.0
  0
ARC
  5
75
100
AcDbEntity
  8
2
370
    50
100
AcDbCircle
 10
95.779865
 20
-37.352596
 30
0.0
 40
1.0
100
AcDbArc
 50
90.0
 51
180.0
  0
ARC
  5
76
100
AcDbEntity
  8
2
370
    50
100
AcDbCircle
 10
139.779865
 20
-37.352596
 30
0.0
 40
1.0
100
AcDbArc
 50
360.0
 51
90.0
  0
LINE
  5
77
100
AcDbEntity
  8
2
370
    50
100
AcDbLine
 10
95.279865
 20
-38.852596
 30
0.0
 11
94.779865
 21
-38.352596
 31
0.0
  0
LINE
  5
78
100
AcDbEntity
  8
2
370
    50
100
AcDbLine
 10
140.279865
 20
-38.852596
 30
0.0
 11
140.779865
 21
-38.352596
 31
0.0
  0
LINE
  5
79
100
AcDbEntity
  8
2
370
    50
100
AcDbLine
 10
140.779865
 20
-38.352596
 30
0.0
 11
94.779865
 21
-38.352596
 31
0.0
  0
LINE
  5
7A
100
AcDbEntity
  8
2
370
    25
100
AcDbLine
 10
-97.87167
 20
42.547404
 30
0.0
 11
-98.37167
 21
42.547404
 31
0.0
  0
LINE
  5
7B
100
AcDbEntity
  8
2
370
    25
100
AcDbLine
 10
-97.87167
 20
19.747404
 30
0.0
 11
-98.37167
 21
19.747404
 31
0.0
  0
LINE
  5
7C
100
AcDbEntity
  8
2
370
    50
100
AcDbLine
 10
-98.37167
 20
42.547404
 30
0.0
 11
-98.97167
 21
43.147404
 31
0.0
  0
LINE
  5
7D
100
AcDbEntity
  8
2
370
    50
100
AcDbLine
 10
-98.37167
 20
19.747404
 30
0.0
 11
-98.97167
 21
19.147404
 31
0.0
  0
LINE
  5
7E
100
AcDbEntity
  8
2
370
    50
100
AcDbLine
 10
-131.47167
 20
-42.352596
 30
0.0
 11
-132.84917
 21
-40.975096
 31
0.0
  0
LINE
  5
7F
100
AcDbEntity
  8
2
370
    50
100
AcDbLine
 10
-113.27167
 20
-42.352596
 30
0.0
 11
-111.89417
 21
-40.975096
 31
0.0
  0
LINE
  5
80
100
AcDbEntity
  8
2
370
    50
100
AcDbLine
 10
126.879865
 20
-42.352596
 30
0.0
 11
108.679865
 21
-42.352596
 31
0.0
  0
LINE
  5
81
100
AcDbEntity
  8
2
370
    50
100
AcDbLine
 10
126.879865
 20
-42.352596
 30
0.0
 11
128.257365
 21
-40.975096
 31
0.0
  0
LINE
  5
82
100
AcDbEntity
  8
2
370
    50
100
AcDbLine
 10
108.679865
 20
-42.352596
 30
0.0
 11
107.302365
 21
-40.975096
 31
0.0
  0
ARC
  5
83
100
AcDbEntity
  8
2
370
    50
100
AcDbCircle
 10
78.529865
 20
10.268287
 30
0.0
 40
30.0
100
AcDbArc
 50
0.0
 51
8.787851
  0
ARC
  5
84
100
AcDbEntity
  8
2
370
    50
100
AcDbCircle
 10
157.029865
 20
10.268287
 30
0.0
 40
30.0
100
AcDbArc
 50
171.212149
 51
180.0
  0
LINE
  5
85
100
AcDbEntity
  8
2
370
    25
100
AcDbLine
 10
-134.73667
 20
54.512404
 30
0.0
 11
-134.73667
 21
55.147404
 31
0.0
  0
LINE
  5
86
100
AcDbEntity
  8
2
370
    25
100
AcDbLine
 10
-110.00667
 20
55.147404
 30
0.0
 11
-110.00667
 21
54.512404
 31
0.0
  0
LINE
  5
87
100
AcDbEntity
  8
2
370
    50
100
AcDbLine
 10
105.779865
 20
54.147404
 30
0.0
 11
104.779865
 21
55.147404
 31
0.0
  0
LINE
  5
88
100
AcDbEntity
  8
2
370
    50
100
AcDbLine
 10
129.779865
 20
54.147404
 30
0.0
 11
130.779865
 21
55.147404
 31
0.0
  0
LINE
  5
89
100
AcDbEntity
  8
2
370
    25
100
AcDbLine
 10
130.144865
 20
54.512404
 30
0.0
 11
130.144865
 21
55.147404
 31
0.0
  0
LINE
  5
8A
100
AcDbEntity
  8
2
370
    25
100
AcDbLine
 10
105.414865
 20
55.147404
 30
0.0
 11
105.414865
 21
54.512404
 31
0.0
  0
ARC
  5
8B
100
AcDbEntity
  8
2
370
    50
100
AcDbCircle
 10
-94.37167
 20
22.251501
 30
0.0
 40
5.0
100
AcDbArc
 50
225.572996
 51
314.427004
  0
ARC
  5
8C
100
AcDbEntity
  8
2
370
    50
100
AcDbCircle
 10
-94.37167
 20
40.110073
 30
0.0
 40
5.0
100
AcDbArc
 50
45.572996
 51
134.427004
  0
LINE
  5
8D
100
AcDbEntity
  8
2
370
    50
100
AcDbLine
 10
-85.87167
 20
25.085072
 30
0.0
 11
-90.87167
 21
18.680787
 31
0.0
  0
LINE
  5
8E
100
AcDbEntity
  8
2
370
    50
100
AcDbLine
 10
-85.87167
 20
37.085072
 30
0.0
 11
-90.87167
 21
43.680787
 31
0.0
  0
LINE
  5
8F
100
AcDbEntity
  8
2
370
    50
100
AcDbLine
 10
-85.87167
 20
37.085072
 30
0.0
 11
-85.87167
 21
25.085072
 31
0.0
  0
LINE
  5
90
100
AcDbEntity
  8
2
370
    50
100
AcDbLine
 10
-97.87167
 20
43.680787
 30
0.0
 11
-97.87167
 21
18.680787
 31
0.0
  0
LINE
  5
91
100
AcDbEntity
  8
2
370
    50
100
AcDbLine
 10
-85.87167
 20
35.89725
 30
0.0
 11
-78.87167
 21
35.89725
 31
0.0
  0
LINE
  5
92
100
AcDbEntity
  8
2
370
    50
100
AcDbLine
 10
-85.87167
 20
26.397557
 30
0.0
 11
-78.87167
 21
26.397557
 31
0.0
  0
LINE
  5
93
100
AcDbEntity
  8
2
370
    50
100
AcDbLine
 10
-77.112946
 20
61.809858
 30
0.0
 11
-72.827344
 21
60.661534
 31
0.0
  0
ARC
  5
94
100
AcDbEntity
  8
2
370
    50
100
AcDbCircle
 10
-74.12144
 20
55.831905
 30
0.0
 40
5.0
100
AcDbArc
 50
8.108858
 51
75.0
  0
LINE
  5
95
100
AcDbEntity
  8
2
370
    50
100
AcDbLine
 10
-78.87167
 20
26.397557
 30
0.0
 11
-78.37167
 21
26.897557
 31
0.0
  0
LINE
  5
96
100
AcDbEntity
  8
2
370
    50
100
AcDbLine
 10
-78.87167
 20
35.89725
 30
0.0
 11
-78.37167
 21
35.39725
 31
0.0
  0
LINE
  5
97
100
AcDbEntity
  8
2
370
    50
100
AcDbLine
 10
-78.37167
 20
35.39725
 30
0.0
 11
-78.37167
 21
35.297404
 31
0.0
  0
LINE
  5
98
100
AcDbEntity
  8
2
370
    50
100
AcDbLine
 10
-78.37167
 20
26.997404
 30
0.0
 11
-78.37167
 21
26.897557
 31
0.0
  0
LINE
  5
99
100
AcDbEntity
  8
2
370
    50
100
AcDbLine
 10
-64.371765
 20
38.147404
 30
0.0
 11
-67.507928
 21
38.147404
 31
0.0
  0
LINE
  5
9A
100
AcDbEntity
  8
2
370
    50
100
AcDbLine
 10
-64.371765
 20
24.147404
 30
0.0
 11
-67.507928
 21
24.147404
 31
0.0
  0
LINE
  5
9B
100
AcDbEntity
  8
2
370
    50
100
AcDbLine
 10
-64.371765
 20
38.147404
 30
0.0
 11
-64.371765
 21
24.147404
 31
0.0
  0
LINE
  5
9C
100
AcDbEntity
  8
2
370
    50
100
AcDbLine
 10
-72.657727
 20
16.147157
 30
0.0
 11
-77.371765
 21
16.147157
 31
0.0
  0
ARC
  5
9D
100
AcDbEntity
  8
2
370
    50
100
AcDbCircle
 10
-72.657727
 20
21.147157
 30
0.0
 40
5.0
100
AcDbArc
 50
270.0
 51
356.72409
  0
ARC
  5
9E
100
AcDbEntity
  8
2
370
    50
100
AcDbCircle
 10
-77.371765
 20
60.843932
 30
0.0
 40
1.0
100
AcDbArc
 50
75.0
 51
180.0
  0
LINE
  5
9F
100
AcDbEntity
  8
2
370
    50
100
AcDbLine
 10
-78.371765
 20
60.843932
 30
0.0
 11
-78.371765
 21
17.147157
 31
0.0
  0
ARC
  5
A0
100
AcDbEntity
  8
2
370
    50
100
AcDbCircle
 10
-77.371765
 20
17.147157
 30
0.0
 40
1.0
100
AcDbArc
 50
180.0
 51
270.0
  0
POINT
  5
A1
100
AcDbEntity
  8
2
370
    50
100
AcDbPoint
 10
-85.371292
 20
31.147157
 30
0.0
  0
ARC
  5
A2
100
AcDbEntity
  8
2
370
    50
100
AcDbCircle
 10
-247.371765
 20
31.147404
 30
0.0
 40
180.0
100
AcDbArc
 50
0.0
 51
8.10886
  0
ARC
  5
A3
100
AcDbEntity
  8
2
370
    50
100
AcDbCircle
 10
-247.371765
 20
31.147404
 30
0.0
 40
180.0
100
AcDbArc
 50
356.724092
 51
360.0
  0
ARC
  5
A4
100
AcDbEntity
  8
2
370
    50
100
AcDbCircle
 10
139.4305
 20
18.647404
 30
0.0
 40
6.0
100
AcDbArc
 50
259.129151
 51
40.870849
  0
ARC
  5
A5
100
AcDbEntity
  8
2
370
    50
100
AcDbCircle
 10
96.12923
 20
18.647404
 30
0.0
 40
6.0
100
AcDbArc
 50
139.129151
 51
280.870849
  0
LINE
  5
A6
100
AcDbEntity
  8
2
370
    50
100
AcDbLine
 10
123.448559
 20
58.113595
 30
0.0
 11
128.407539
 21
43.816445
 31
0.0
  0
ARC
  5
A7
100
AcDbEntity
  8
2
370
    50
100
AcDbCircle
 10
156.751008
 20
53.647404
 30
0.0
 40
30.0
100
AcDbArc
 50
199.129151
 51
220.870849
  0
LINE
  5
A8
100
AcDbEntity
  8
2
370
    50
100
AcDbLine
 10
143.967619
 20
22.573541
 30
0.0
 11
134.065414
 21
34.016719
 31
0.0
  0
LINE
  5
A9
100
AcDbEntity
  8
2
370
    50
100
AcDbLine
 10
112.111171
 20
58.113595
 30
0.0
 11
107.152191
 21
43.816445
 31
0.0
  0
LINE
  5
AA
100
AcDbEntity
  8
2
370
    50
100
AcDbLine
 10
91.592111
 20
22.573541
 30
0.0
 11
101.494317
 21
34.016719
 31
0.0
  0
ARC
  5
AB
100
AcDbEntity
  8
2
370
    50
100
AcDbCircle
 10
78.808722
 20
53.647404
 30
0.0
 40
30.0
100
AcDbArc
 50
319.129151
 51
340.870849
  0
LINE
  5
AC
100
AcDbEntity
  8
2
370
    50
100
AcDbLine
 10
138.298925
 20
12.755075
 30
0.0
 11
123.43774
 21
15.609048
 31
0.0
  0
LINE
  5
AD
100
AcDbEntity
  8
2
370
    50
100
AcDbLine
 10
97.260805
 20
12.755075
 30
0.0
 11
112.121991
 21
15.609048
 31
0.0
  0
ARC
  5
AE
100
AcDbEntity
  8
2
370
    50
100
AcDbCircle
 10
117.779865
 20
-13.852596
 30
0.0
 40
30.0
100
AcDbArc
 50
79.129151
 51
100.870849
  0
CIRCLE
  5
AF
100
AcDbEntity
  8
2
370
    50
100
AcDbCircle
 10
117.779865
 20
31.147404
 30
0.0
 40
7.0
  0
CIRCLE
  5
B0
100
AcDbEntity
  8
2
370
    50
100
AcDbCircle
 10
117.779865
 20
31.147404
 30
0.0
 40
5.5
  0
LINE
  5
B1
100
AcDbEntity
  8
2
370
    50
100
AcDbLine
 10
109.852348
 20
65.147404
 30
0.0
 11
109.852348
 21
65.847404
 31
0.0
  0
LINE
  5
B2
100
AcDbEntity
  8
2
370
    50
100
AcDbLine
 10
125.652348
 20
65.147404
 30
0.0
 11
125.652348
 21
66.189466
 31
0.0
  0
LINE
  5
B3
100
AcDbEntity
  8
2
370
    25
  6
CENTER
100
AcDbLine
 10
-22.347652
 20
94.647404
 30
0.0
 11
87.879865
 21
94.647404
 31
0.0
  0
LINE
  5
B4
100
AcDbEntity
  8
2
370
    50
100
AcDbLine
 10
-22.347652
 20
102.547404
 30
0.0
 11
87.879865
 21
102.547404
 31
0.0
  0
LINE
  5
B5
100
AcDbEntity
  8
2
370
    50
100
AcDbLine
 10
-22.347652
 20
86.747404
 30
0.0
 11
87.879865
 21
86.747404
 31
0.0
  0
ARC
  5
B6
100
AcDbEntity
  8
2
370
    50
100
AcDbCircle
 10
87.879865
 20
64.747404
 30
0.0
 40
22.0
100
AcDbArc
 50
2.865984
 51
90.0
  0
ARC
  5
B7
100
AcDbEntity
  8
2
370
    25
  6
CENTER
100
AcDbCircle
 10
87.879865
 20
64.747404
 30
0.0
 40
29.9
100
AcDbArc
 50
0.0
 51
90.0
  0
ARC
  5
B8
100
AcDbEntity
  8
2
370
    50
100
AcDbCircle
 10
87.879865
 20
64.747404
 30
0.0
 40
37.8
100
AcDbArc
 50
2.186353
 51
90.0
  0
LINE
  5
B9
100
AcDbEntity
  8
2
370
    25
  6
CENTER
100
AcDbLine
 10
-52.247652
 20
64.747404
 30
0.0
 11
-52.247652
 21
59.221817
 31
0.0
  0
ARC
  5
BA
100
AcDbEntity
  8
2
370
    25
  6
CENTER
100
AcDbCircle
 10
-22.347652
 20
64.747404
 30
0.0
 40
29.9
100
AcDbArc
 50
90.0
 51
180.0
  0
ARC
  5
BB
100
AcDbEntity
  8
2
370
    50
100
AcDbCircle
 10
-22.347652
 20
64.747404
 30
0.0
 40
37.8
100
AcDbArc
 50
90.0
 51
176.841576
  0
ARC
  5
BC
100
AcDbEntity
  8
2
370
    50
100
AcDbCircle
 10
-22.347652
 20
64.747404
 30
0.0
 40
22.0
100
AcDbArc
 50
90.0
 51
175.040397
  0
LINE
  5
BD
100
AcDbEntity
  8
2
370
    50
100
AcDbLine
 10
-59.997652
 20
61.647404
 30
0.0
 11
-44.497652
 21
61.647404
 31
0.0
  0
ARC
  5
BE
100
AcDbEntity
  8
2
370
    50
100
AcDbCircle
 10
-47.497652
 20
64.293155
 30
0.0
 40
4.0
100
AcDbArc
 50
318.590378
 51
36.055042
  0
ARC
  5
BF
100
AcDbEntity
  8
2
370
    50
100
AcDbCircle
 10
-56.997652
 20
64.293155
 30
0.0
 40
4.0
100
AcDbArc
 50
140.6372
 51
221.409622
  0
ARC
  5
C0
100
AcDbEntity
  8
2
370
    50
100
AcDbCircle
 10
-120.09667
 20
-95.352596
 30
0.0
 40
15.025
100
AcDbArc
 50
156.463422
 51
203.536578
  0
LINE
  5
C1
100
AcDbEntity
  8
2
370
    50
100
AcDbLine
 10
-133.87167
 20
-89.352596
 30
0.0
 11
-110.87167
 21
-89.352596
 31
0.0
  0
LINE
  5
C2
100
AcDbEntity
  8
2
370
    50
100
AcDbLine
 10
129.279865
 20
-89.352596
 30
0.0
 11
106.279865
 21
-89.352596
 31
0.0
  0
LINE
  5
C3
100
AcDbEntity
  8
2
370
    50
100
AcDbLine
 10
-110.87167
 20
-101.352596
 30
0.0
 11
-133.87167
 21
-101.352596
 31
0.0
  0
ARC
  5
C4
100
AcDbEntity
  8
2
370
    50
100
AcDbCircle
 10
-124.64667
 20
-95.352596
 30
0.0
 40
15.025
100
AcDbArc
 50
336.463422
 51
23.536578
  0
LINE
  5
C5
100
AcDbEntity
  8
2
370
    25
  6
CENTER
100
AcDbLine
 10
142.459885
 20
31.147404
 30
0.0
 11
91.68837
 21
31.147404
 31
0.0
  0
LINE
  5
C6
100
AcDbEntity
  8
2
370
    25
  6
CENTER
100
AcDbLine
 10
-59.994221
 20
31.147404
 30
0.0
 11
-142.138184
 21
31.147404
 31
0.0
  0
ARC
  5
C7
100
AcDbEntity
  8
2
370
    50
100
AcDbCircle
 10
-132.023349
 20
59.462024
 30
0.0
 40
5.74832
100
AcDbArc
 50
98.486542
 51
228.64134
  0
ARC
  5
C8
100
AcDbEntity
  8
2
370
    50
100
AcDbCircle
 10
-112.71999
 20
59.462024
 30
0.0
 40
5.74832
100
AcDbArc
 50
311.35866
 51
81.513458
  0
ELLIPSE
  5
C9
100
AcDbEntity
  8
2
370
    50
100
AcDbEllipse
 10
-110.236117
 20
59.397404
 30
0.0
 11
0.0
 21
4.0
 31
0.0
210
0.0
220
0.0
230
1.0
 40
0.810375
 41
0.0
 42
6.2831849999999996
  0
ELLIPSE
  5
CA
100
AcDbEntity
  8
2
370
    50
100
AcDbEllipse
 10
-134.507222
 20
59.397404
 30
0.0
 11
0.0
 21
4.0
 31
0.0
210
0.0
220
0.0
230
1.0
 40
0.810375
 41
0.0
 42
6.2831849999999996
  0
LINE
  5
CB
100
AcDbEntity
  8
2
370
    50
100
AcDbLine
 10
105.779865
 20
54.147404
 30
0.0
 11
110.735494
 21
54.147404
 31
0.0
  0
LINE
  5
CC
100
AcDbEntity
  8
2
370
    50
100
AcDbLine
 10
124.824236
 20
54.147404
 30
0.0
 11
129.779865
 21
54.147404
 31
0.0
  0
LINE
  5
CD
100
AcDbEntity
  8
2
370
    50
100
AcDbLine
 10
-135.82167
 20
55.147404
 30
0.0
 11
-108.92167
 21
55.147404
 31
0.0
  0
LINE
  5
CE
100
AcDbEntity
  8
2
370
    50
100
AcDbLine
 10
-114.47167
 20
94.647404
 30
0.0
 11
-114.47167
 21
66.758414
 31
0.0
  0
LINE
  5
CF
100
AcDbEntity
  8
2
370
    50
100
AcDbLine
 10
-130.27167
 20
94.647404
 30
0.0
 11
-130.27167
 21
66.758414
 31
0.0
  0
ARC
  5
D0
100
AcDbEntity
  8
2
370
    50
100
AcDbCircle
 10
-122.37167
 20
94.647404
 30
0.0
 40
7.9
100
AcDbArc
 50
0.0
 51
180.0
  0
LINE
  5
D1
100
AcDbEntity
  8
2
370
    50
100
AcDbLine
 10
-130.12167
 20
61.647404
 30
0.0
 11
-114.62167
 21
61.647404
 31
0.0
  0
ARC
  5
D2
100
AcDbEntity
  8
2
370
    50
100
AcDbCircle
 10
-127.12167
 20
64.293155
 30
0.0
 40
4.0
100
AcDbArc
 50
143.944958
 51
221.409622
  0
ARC
  5
D3
100
AcDbEntity
  8
2
370
    50
100
AcDbCircle
 10
-117.62167
 20
64.293155
 30
0.0
 40
4.0
100
AcDbArc
 50
318.590378
 51
39.3628
  0
LINE
  5
D4
100
AcDbEntity
  8
2
370
    50
100
AcDbLine
 10
-114.47167
 20
66.758414
 30
0.0
 11
-130.27167
 21
66.758414
 31
0.0
  0
LINE
  5
D5
100
AcDbEntity
  8
2
370
    50
100
AcDbLine
 10
-132.87167
 20
65.147404
 30
0.0
 11
-131.029388
 21
65.147404
 31
0.0
  0
LINE
  5
D6
100
AcDbEntity
  8
2
370
    50
100
AcDbLine
 10
-113.713952
 20
65.147404
 30
0.0
 11
-111.87167
 21
65.147404
 31
0.0
  0
ELLIPSE
  5
D7
100
AcDbEntity
  8
2
370
    50
100
AcDbEllipse
 10
-122.37167
 20
59.397404
 30
0.0
 11
6.4154999999999998
 21
0.0
 31
0.0
210
0.0
220
0.0
230
1.0
 40
0.62349
 41
4.7123889999999999
 42
0.597406
  0
ELLIPSE
  5
D8
100
AcDbEntity
  8
2
370
    50
100
AcDbEllipse
 10
-122.37167
 20
59.397404
 30
0.0
 11
6.4154999999999998
 21
0.0
 31
0.0
210
0.0
220
0.0
230
1.0
 40
0.62349
 41
2.5441859999999998
 42
4.7123889999999999
  0
ARC
  5
D9
100
AcDbEntity
  8
2
370
    50
100
AcDbCircle
 10
117.779865
 20
56.147404
 30
0.0
 40
6.0
100
AcDbArc
 50
19.129151
 51
90.0
  0
ARC
  5
DA
100
AcDbEntity
  8
2
370
    50
100
AcDbCircle
 10
117.779865
 20
56.147404
 30
0.0
 40
6.0
100
AcDbArc
 50
90.0
 51
160.870849
  0
LINE
  5
DB
100
AcDbEntity
  8
2
370
    50
100
AcDbLine
 10
135.279865
 20
-56.352596
 30
0.0
 11
135.279865
 21
-54.852596
 31
0.0
  0
LINE
  5
DC
100
AcDbEntity
  8
2
370
    50
100
AcDbLine
 10
100.279865
 20
-54.852596
 30
0.0
 11
135.279865
 21
-54.852596
 31
0.0
  0
LINE
  5
DD
100
AcDbEntity
  8
2
370
    50
100
AcDbLine
 10
100.279865
 20
-56.352596
 30
0.0
 11
135.279865
 21
-56.352596
 31
0.0
  0
LINE
  5
DE
100
AcDbEntity
  8
2
370
    50
100
AcDbLine
 10
129.779865
 20
-65.052596
 30
0.0
 11
105.779865
 21
-65.052596
 31
0.0
  0
LINE
  5
DF
100
AcDbEntity
  8
2
370
    50
100
AcDbLine
 10
137.779865
 20
-58.052596
 30
0.0
 11
137.779865
 21
-56.852596
 31
0.0
  0
LINE
  5
E0
100
AcDbEntity
  8
2
370
    50
100
AcDbLine
 10
103.459315
 20
-58.552596
 30
0.0
 11
132.100416
 21
-58.552596
 31
0.0
  0
LINE
  5
E1
100
AcDbEntity
  8
2
370
    50
100
AcDbLine
 10
137.779865
 20
-56.852596
 30
0.0
 11
97.779865
 21
-56.852596
 31
0.0
  0
LINE
  5
E2
100
AcDbEntity
  8
2
370
    50
100
AcDbLine
 10
137.779865
 20
-58.052596
 30
0.0
 11
97.779865
 21
-58.052596
 31
0.0
  0
ARC
  5
E3
100
AcDbEntity
  8
2
370
    50
100
AcDbCircle
 10
132.100416
 20
-53.552596
 30
0.0
 40
5.0
100
AcDbArc
 50
270.0
 51
293.556464
  0
ARC
  5
E4
100
AcDbEntity
  8
2
370
    50
100
AcDbCircle
 10
132.100416
 20
-61.352596
 30
0.0
 40
5.0
100
AcDbArc
 50
66.443536
 51
90.0
  0
ARC
  5
E5
100
AcDbEntity
  8
2
370
    50
100
AcDbCircle
 10
134.498331
 20
-59.052596
 30
0.0
 40
1.0
100
AcDbArc
 50
90.0
 51
113.556464
  0
ARC
  5
E6
100
AcDbEntity
  8
2
370
    50
100
AcDbCircle
 10
134.498331
 20
-55.852596
 30
0.0
 40
1.0
100
AcDbArc
 50
246.443536
 51
270.0
  0
ARC
  5
E7
100
AcDbEntity
  8
2
370
    50
100
AcDbCircle
 10
117.779865
 20
-42.302596
 30
0.0
 40
16.25
100
AcDbArc
 50
270.0
 51
284.250033
  0
ARC
  5
E8
100
AcDbEntity
  8
2
370
    50
100
AcDbCircle
 10
126.029865
 20
-42.302596
 30
0.0
 40
16.25
100
AcDbArc
 50
262.930286
 51
284.250033
  0
ARC
  5
E9
100
AcDbEntity
  8
2
370
    50
100
AcDbCircle
 10
122.029865
 20
-42.302596
 30
0.0
 40
16.25
100
AcDbArc
 50
262.485955
 51
284.250033
  0
ARC
  5
EA
100
AcDbEntity
  8
2
370
    50
100
AcDbCircle
 10
130.029865
 20
-42.302596
 30
0.0
 40
16.25
100
AcDbArc
 50
262.930286
 51
270.0
  0
ARC
  5
EB
100
AcDbEntity
  8
2
370
    50
100
AcDbCircle
 10
117.779865
 20
-72.602596
 30
0.0
 40
16.25
100
AcDbArc
 50
75.749967
 51
90.0
  0
ARC
  5
EC
100
AcDbEntity
  8
2
370
    50
100
AcDbCircle
 10
122.029865
 20
-72.602596
 30
0.0
 40
16.25
100
AcDbArc
 50
75.749967
 51
97.514045
  0
ARC
  5
ED
100
AcDbEntity
  8
2
370
    50
100
AcDbCircle
 10
126.029865
 20
-72.602596
 30
0.0
 40
16.25
100
AcDbArc
 50
75.749967
 51
97.069714
  0
ARC
  5
EE
100
AcDbEntity
  8
2
370
    50
100
AcDbCircle
 10
130.029865
 20
-72.602596
 30
0.0
 40
16.25
100
AcDbArc
 50
90.0
 51
97.069714
  0
LINE
  5
EF
100
AcDbEntity
  8
2
370
    50
100
AcDbLine
 10
100.279865
 20
-56.352596
 30
0.0
 11
100.279865
 21
-54.852596
 31
0.0
  0
LINE
  5
F0
100
AcDbEntity
  8
2
370
    50
100
AcDbLine
 10
97.779865
 20
-58.052596
 30
0.0
 11
97.779865
 21
-56.852596
 31
0.0
  0
ARC
  5
F1
100
AcDbEntity
  8
2
370
    50
100
AcDbCircle
 10
103.459315
 20
-53.552596
 30
0.0
 40
5.0
100
AcDbArc
 50
246.443536
 51
270.0
  0
ARC
  5
F2
100
AcDbEntity
  8
2
370
    50
100
AcDbCircle
 10
103.459315
 20
-61.352596
 30
0.0
 40
5.0
100
AcDbArc
 50
90.0
 51
113.556464
  0
ARC
  5
F3
100
AcDbEntity
  8
2
370
    50
100
AcDbCircle
 10
117.779865
 20
-42.302596
 30
0.0
 40
16.25
100
AcDbArc
 50
255.749967
 51
270.0
  0
ARC
  5
F4
100
AcDbEntity
  8
2
370
    50
100
AcDbCircle
 10
109.529865
 20
-42.302596
 30
0.0
 40
16.25
100
AcDbArc
 50
255.749967
 51
277.069714
  0
ARC
  5
F5
100
AcDbEntity
  8
2
370
    50
100
AcDbCircle
 10
113.529865
 20
-42.302596
 30
0.0
 40
16.25
100
AcDbArc
 50
255.749967
 51
277.514045
  0
ARC
  5
F6
100
AcDbEntity
  8
2
370
    50
100
AcDbCircle
 10
105.529865
 20
-42.302596
 30
0.0
 40
16.25
100
AcDbArc
 50
270.0
 51
277.069714
  0
ARC
  5
F7
100
AcDbEntity
  8
2
370
    50
100
AcDbCircle
 10
117.779865
 20
-72.602596
 30
0.0
 40
16.25
100
AcDbArc
 50
90.0
 51
104.250033
  0
ARC
  5
F8
100
AcDbEntity
  8
2
370
    50
100
AcDbCircle
 10
113.529865
 20
-72.602596
 30
0.0
 40
16.25
100
AcDbArc
 50
82.485955
 51
104.250033
  0
ARC
  5
F9
100
AcDbEntity
  8
2
370
    50
100
AcDbCircle
 10
109.529865
 20
-72.602596
 30
0.0
 40
16.25
100
AcDbArc
 50
82.930286
 51
104.250033
  0
ARC
  5
FA
100
AcDbEntity
  8
2
370
    50
100
AcDbCircle
 10
105.529865
 20
-72.602596
 30
0.0
 40
16.25
100
AcDbArc
 50
82.930286
 51
90.0
  0
LINE
  5
FB
100
AcDbEntity
  8
2
370
    25
100
AcDbLine
 10
108.679865
 20
-89.352596
 30
0.0
 11
108.679865
 21
-65.052596
 31
0.0
  0
LINE
  5
FC
100
AcDbEntity
  8
2
370
    25
100
AcDbLine
 10
108.679865
 20
-54.852596
 30
0.0
 11
108.679865
 21
-42.352596
 31
0.0
  0
LINE
  5
FD
100
AcDbEntity
  8
2
370
    50
100
AcDbLine
 10
107.302365
 20
-89.352596
 30
0.0
 11
107.302365
 21
-65.052596
 31
0.0
  0
LINE
  5
FE
100
AcDbEntity
  8
2
370
    50
100
AcDbLine
 10
107.302365
 20
-54.852596
 30
0.0
 11
107.302365
 21
-38.852596
 31
0.0
  0
LINE
  5
FF
100
AcDbEntity
  8
2
370
    25
100
AcDbLine
 10
126.879865
 20
-89.352596
 30
0.0
 11
126.879865
 21
-65.052596
 31
0.0
  0
LINE
  5
100
100
AcDbEntity
  8
2
370
    25
100
AcDbLine
 10
126.879865
 20
-54.852596
 30
0.0
 11
126.879865
 21
-42.352596
 31
0.0
  0
LINE
  5
101
100
AcDbEntity
  8
2
370
    50
100
AcDbLine
 10
128.257365
 20
-89.352596
 30
0.0
 11
128.257365
 21
-65.052596
 31
0.0
  0
LINE
  5
102
100
AcDbEntity
  8
2
370
    50
100
AcDbLine
 10
128.257365
 20
-54.852596
 30
0.0
 11
128.257365
 21
-38.852596
 31
0.0
  0
TEXT
  5
103
100
AcDbEntity
  8
2
370
    50
100
AcDbText
 10
145.313019
 20
-120.010483
 30
0.0
 40
3.0
  1
１　１
 72
     5
 11
153.713019
 21
-120.010483
 31
0.0
100
AcDbText
  0
LINE
  5
104
100
AcDbEntity
  8
2
370
    50
100
AcDbLine
 10
-78.87167
 20
35.89725
 30
0.0
 11
-78.87167
 21
26.397557
 31
0.0
  0
LINE
  5
105
100
AcDbEntity
  8
2
370
    50
100
AcDbLine
 10
-134.37167
 20
54.147404
 30
0.0
 11
-110.37167
 21
54.147404
 31
0.0
  0
LINE
  5
106
100
AcDbEntity
  8
2
370
    50
100
AcDbLine
 10
-99.37167
 20
-38.352596
 30
0.0
 11
-145.37167
 21
-38.352596
 31
0.0
  0
LINE
  5
107
100
AcDbEntity
  8
2
370
    50
100
AcDbLine
 10
-131.47167
 20
-42.352596
 30
0.0
 11
-113.27167
 21
-42.352596
 31
0.0
  0
LINE
  5
108
100
AcDbEntity
  8
2
370
    50
100
AcDbLine
 10
-59.792261
 20
66.83007
 30
0.0
 11
-44.40507
 21
66.83007
 31
0.0
  0
LINE
  5
109
100
AcDbEntity
  8
2
370
    50
100
AcDbLine
 10
-111.89417
 20
-89.352596
 30
0.0
 11
-111.89417
 21
-65.052596
 31
0.0
  0
LINE
  5
10A
100
AcDbEntity
  8
2
370
    50
100
AcDbLine
 10
-111.89417
 20
-54.852596
 30
0.0
 11
-111.89417
 21
-38.852596
 31
0.0
  0
LINE
  5
10B
100
AcDbEntity
  8
2
370
    25
100
AcDbLine
 10
-113.27167
 20
-89.352596
 30
0.0
 11
-113.27167
 21
-65.052596
 31
0.0
  0
LINE
  5
10C
100
AcDbEntity
  8
2
370
    25
100
AcDbLine
 10
-113.27167
 20
-54.852596
 30
0.0
 11
-113.27167
 21
-42.352596
 31
0.0
  0
LINE
  5
10D
100
AcDbEntity
  8
2
370
    25
100
AcDbLine
 10
-131.47167
 20
-89.352596
 30
0.0
 11
-131.47167
 21
-65.052596
 31
0.0
  0
LINE
  5
10E
100
AcDbEntity
  8
2
370
    25
100
AcDbLine
 10
-131.47167
 20
-54.852596
 30
0.0
 11
-131.47167
 21
-42.352596
 31
0.0
  0
LINE
  5
10F
100
AcDbEntity
  8
2
370
    50
100
AcDbLine
 10
-132.84917
 20
-89.352596
 30
0.0
 11
-132.84917
 21
-65.052596
 31
0.0
  0
LINE
  5
110
100
AcDbEntity
  8
2
370
    50
100
AcDbLine
 10
-132.84917
 20
-54.852596
 30
0.0
 11
-132.84917
 21
-38.852596
 31
0.0
  0
LINE
  5
111
100
AcDbEntity
  8
2
370
    50
100
AcDbLine
 10
-104.87167
 20
-56.352596
 30
0.0
 11
-104.87167
 21
-54.852596
 31
0.0
  0
LINE
  5
112
100
AcDbEntity
  8
2
370
    50
100
AcDbLine
 10
-139.87167
 20
-54.852596
 30
0.0
 11
-104.87167
 21
-54.852596
 31
0.0
  0
LINE
  5
113
100
AcDbEntity
  8
2
370
    50
100
AcDbLine
 10
-139.87167
 20
-56.352596
 30
0.0
 11
-104.87167
 21
-56.352596
 31
0.0
  0
LINE
  5
114
100
AcDbEntity
  8
2
370
    50
100
AcDbLine
 10
-110.37167
 20
-65.052596
 30
0.0
 11
-134.37167
 21
-65.052596
 31
0.0
  0
LINE
  5
115
100
AcDbEntity
  8
2
370
    50
100
AcDbLine
 10
-108.62167
 20
-64.042233
 30
0.0
 11
-108.62167
 21
-58.552596
 31
0.0
  0
LINE
  5
116
100
AcDbEntity
  8
2
370
    50
100
AcDbLine
 10
-110.37167
 20
-65.052596
 30
0.0
 11
-108.62167
 21
-64.042233
 31
0.0
  0
LINE
  5
117
100
AcDbEntity
  8
2
370
    50
100
AcDbLine
 10
-102.37167
 20
-58.052596
 30
0.0
 11
-102.37167
 21
-56.852596
 31
0.0
  0
LINE
  5
118
100
AcDbEntity
  8
2
370
    50
100
AcDbLine
 10
-136.69222
 20
-58.552596
 30
0.0
 11
-108.051119
 21
-58.552596
 31
0.0
  0
LINE
  5
119
100
AcDbEntity
  8
2
370
    50
100
AcDbLine
 10
-102.37167
 20
-56.852596
 30
0.0
 11
-142.37167
 21
-56.852596
 31
0.0
  0
LINE
  5
11A
100
AcDbEntity
  8
2
370
    50
100
AcDbLine
 10
-102.37167
 20
-58.052596
 30
0.0
 11
-142.37167
 21
-58.052596
 31
0.0
  0
ARC
  5
11B
100
AcDbEntity
  8
2
370
    50
100
AcDbCircle
 10
-108.051119
 20
-53.552596
 30
0.0
 40
5.0
100
AcDbArc
 50
270.0
 51
293.556464
  0
ARC
  5
11C
100
AcDbEntity
  8
2
370
    50
100
AcDbCircle
 10
-108.051119
 20
-61.352596
 30
0.0
 40
5.0
100
AcDbArc
 50
66.443536
 51
90.0
  0
ARC
  5
11D
100
AcDbEntity
  8
2
370
    50
100
AcDbCircle
 10
-105.653203
 20
-59.052596
 30
0.0
 40
1.0
100
AcDbArc
 50
90.0
 51
113.556464
  0
ARC
  5
11E
100
AcDbEntity
  8
2
370
    50
100
AcDbCircle
 10
-105.653203
 20
-55.852596
 30
0.0
 40
1.0
100
AcDbArc
 50
246.443536
 51
270.0
  0
LINE
  5
11F
100
AcDbEntity
  8
2
370
    50
100
AcDbLine
 10
-115.37167
 20
-64.042233
 30
0.0
 11
-115.37167
 21
-58.552596
 31
0.0
  0
ARC
  5
120
100
AcDbEntity
  8
2
370
    50
100
AcDbCircle
 10
-122.37167
 20
-40.298703
 30
0.0
 40
24.753893
100
AcDbArc
 50
253.573579
 51
286.426421
  0
ARC
  5
121
100
AcDbEntity
  8
2
370
    50
100
AcDbCircle
 10
-111.99667
 20
-58.910517
 30
0.0
 40
6.142079
100
AcDbArc
 50
236.668091
 51
303.331909
  0
ARC
  5
122
100
AcDbEntity
  8
2
370
    50
100
AcDbCircle
 10
-122.37167
 20
-42.302596
 30
0.0
 40
16.25
100
AcDbArc
 50
270.0
 51
284.250033
  0
ARC
  5
123
100
AcDbEntity
  8
2
370
    50
100
AcDbCircle
 10
-114.12167
 20
-42.302596
 30
0.0
 40
16.25
100
AcDbArc
 50
262.930286
 51
284.250033
  0
ARC
  5
124
100
AcDbEntity
  8
2
370
    50
100
AcDbCircle
 10
-118.12167
 20
-42.302596
 30
0.0
 40
16.25
100
AcDbArc
 50
262.485955
 51
284.250033
  0
ARC
  5
125
100
AcDbEntity
  8
2
370
    50
100
AcDbCircle
 10
-110.12167
 20
-42.302596
 30
0.0
 40
16.25
100
AcDbArc
 50
262.930286
 51
270.0
  0
ARC
  5
126
100
AcDbEntity
  8
2
370
    50
100
AcDbCircle
 10
-122.37167
 20
-72.602596
 30
0.0
 40
16.25
100
AcDbArc
 50
75.749967
 51
90.0
  0
ARC
  5
127
100
AcDbEntity
  8
2
370
    50
100
AcDbCircle
 10
-118.12167
 20
-72.602596
 30
0.0
 40
16.25
100
AcDbArc
 50
75.749967
 51
97.514045
  0
ARC
  5
128
100
AcDbEntity
  8
2
370
    50
100
AcDbCircle
 10
-114.12167
 20
-72.602596
 30
0.0
 40
16.25
100
AcDbArc
 50
75.749967
 51
97.069714
  0
ARC
  5
129
100
AcDbEntity
  8
2
370
    50
100
AcDbCircle
 10
-110.12167
 20
-72.602596
 30
0.0
 40
16.25
100
AcDbArc
 50
90.0
 51
97.069714
  0
LINE
  5
12A
100
AcDbEntity
  8
2
370
    50
100
AcDbLine
 10
-139.87167
 20
-56.352596
 30
0.0
 11
-139.87167
 21
-54.852596
 31
0.0
  0
LINE
  5
12B
100
AcDbEntity
  8
2
370
    50
100
AcDbLine
 10
-142.37167
 20
-58.052596
 30
0.0
 11
-142.37167
 21
-56.852596
 31
0.0
  0
LINE
  5
12C
100
AcDbEntity
  8
2
370
    50
100
AcDbLine
 10
-136.12167
 20
-64.042233
 30
0.0
 11
-136.12167
 21
-58.552596
 31
0.0
  0
LINE
  5
12D
100
AcDbEntity
  8
2
370
    50
100
AcDbLine
 10
-134.37167
 20
-65.052596
 30
0.0
 11
-136.12167
 21
-64.042233
 31
0.0
  0
ARC
  5
12E
100
AcDbEntity
  8
2
370
    50
100
AcDbCircle
 10
-132.74667
 20
-58.910517
 30
0.0
 40
6.142079
100
AcDbArc
 50
236.668091
 51
303.331909
  0
LINE
  5
12F
100
AcDbEntity
  8
2
370
    50
100
AcDbLine
 10
-129.37167
 20
-64.042233
 30
0.0
 11
-129.37167
 21
-58.552596
 31
0.0
  0
ARC
  5
130
100
AcDbEntity
  8
2
370
    50
100
AcDbCircle
 10
-136.69222
 20
-53.552596
 30
0.0
 40
5.0
100
AcDbArc
 50
246.443536
 51
270.0
  0
ARC
  5
131
100
AcDbEntity
  8
2
370
    50
100
AcDbCircle
 10
-136.69222
 20
-61.352596
 30
0.0
 40
5.0
100
AcDbArc
 50
90.0
 51
113.556464
  0
ARC
  5
132
100
AcDbEntity
  8
2
370
    50
100
AcDbCircle
 10
-122.37167
 20
-42.302596
 30
0.0
 40
16.25
100
AcDbArc
 50
255.749967
 51
270.0
  0
ARC
  5
133
100
AcDbEntity
  8
2
370
    50
100
AcDbCircle
 10
-130.62167
 20
-42.302596
 30
0.0
 40
16.25
100
AcDbArc
 50
255.749967
 51
277.069714
  0
ARC
  5
134
100
AcDbEntity
  8
2
370
    50
100
AcDbCircle
 10
-126.62167
 20
-42.302596
 30
0.0
 40
16.25
100
AcDbArc
 50
255.749967
 51
277.514045
  0
ARC
  5
135
100
AcDbEntity
  8
2
370
    50
100
AcDbCircle
 10
-134.62167
 20
-42.302596
 30
0.0
 40
16.25
100
AcDbArc
 50
270.0
 51
277.069714
  0
ARC
  5
136
100
AcDbEntity
  8
2
370
    50
100
AcDbCircle
 10
-122.37167
 20
-72.602596
 30
0.0
 40
16.25
100
AcDbArc
 50
90.0
 51
104.250033
  0
ARC
  5
137
100
AcDbEntity
  8
2
370
    50
100
AcDbCircle
 10
-126.62167
 20
-72.602596
 30
0.0
 40
16.25
100
AcDbArc
 50
82.485955
 51
104.250033
  0
ARC
  5
138
100
AcDbEntity
  8
2
370
    50
100
AcDbCircle
 10
-130.62167
 20
-72.602596
 30
0.0
 40
16.25
100
AcDbArc
 50
82.930286
 51
104.250033
  0
ARC
  5
139
100
AcDbEntity
  8
2
370
    50
100
AcDbCircle
 10
-134.62167
 20
-72.602596
 30
0.0
 40
16.25
100
AcDbArc
 50
82.930286
 51
90.0
  0
POINT
  5
13A
100
AcDbEntity
  8
2
370
    50
100
AcDbPoint
 10
-122.37167
 20
-54.852596
 30
0.0
  0
ELLIPSE
  5
13B
100
AcDbEntity
  8
2
370
    50
100
AcDbEllipse
 10
-112.412378
 20
-95.352596
 30
0.0
 11
0.0
 21
6.0
 31
0.0
210
0.0
220
0.0
230
1.0
 40
0.458833
 41
0.0
 42
6.2831849999999996
  0
ELLIPSE
  5
13C
100
AcDbEntity
  8
2
370
    50
100
AcDbEllipse
 10
-122.37167
 20
-95.352596
 30
0.0
 11
0.0
 21
6.0
 31
0.0
210
0.0
220
0.0
230
1.0
 40
0.926667
 41
0.0
 42
6.2831849999999996
  0
POINT
  5
13D
100
AcDbEntity
  8
2
370
    50
100
AcDbPoint
 10
117.752348
 20
65.147404
 30
0.0
  0
LINE
  5
13E
100
AcDbEntity
  8
2
370
    50
100
AcDbLine
 10
104.329865
 20
55.147404
 30
0.0
 11
111.082345
 21
55.147404
 31
0.0
  0
LINE
  5
13F
100
AcDbEntity
  8
2
370
    50
100
AcDbLine
 10
124.477385
 20
55.147404
 30
0.0
 11
131.229865
 21
55.147404
 31
0.0
  0
LINE
  5
140
100
AcDbEntity
  8
2
370
    25
100
AcDbLine
 10
-67.371765
 20
31.147404
 30
0.0
 11
-64.371765
 21
31.147404
 31
0.0
  0
LINE
  5
141
100
AcDbEntity
  8
2
370
    50
100
AcDbLine
 10
-77.371765
 20
23.147404
 30
0.0
 11
-72.397482
 21
23.147404
 31
0.0
  0
ARC
  5
142
100
AcDbEntity
  8
2
370
    50
100
AcDbCircle
 10
-72.397482
 20
28.147404
 30
0.0
 40
5.0
100
AcDbArc
 50
270.0
 51
359.017739
  0
ARC
  5
143
100
AcDbEntity
  8
2
370
    50
100
AcDbCircle
 10
-77.371765
 20
24.147404
 30
0.0
 40
1.0
100
AcDbArc
 50
180.0
 51
270.0
  0
LINE
  5
144
100
AcDbEntity
  8
2
370
    25
100
AcDbLine
 10
-67.37246
 20
30.647404
 30
0.0
 11
-64.371765
 21
30.647404
 31
0.0
  0
LINE
  5
145
100
AcDbEntity
  8
2
370
    25
100
AcDbLine
 10
-67.37246
 20
30.147404
 30
0.0
 11
-64.371765
 21
30.147404
 31
0.0
  0
LINE
  5
146
100
AcDbEntity
  8
2
370
    25
100
AcDbLine
 10
-67.37246
 20
29.647404
 30
0.0
 11
-64.371765
 21
29.647404
 31
0.0
  0
LINE
  5
147
100
AcDbEntity
  8
2
370
    25
100
AcDbLine
 10
-67.37246
 20
29.147404
 30
0.0
 11
-64.371765
 21
29.147404
 31
0.0
  0
LINE
  5
148
100
AcDbEntity
  8
2
370
    25
100
AcDbLine
 10
-67.37246
 20
28.647404
 30
0.0
 11
-64.371765
 21
28.647404
 31
0.0
  0
LINE
  5
149
100
AcDbEntity
  8
2
370
    25
100
AcDbLine
 10
-67.396767
 20
28.147404
 30
0.0
 11
-64.371765
 21
28.147404
 31
0.0
  0
LINE
  5
14A
100
AcDbEntity
  8
2
370
    25
100
AcDbLine
 10
-67.405796
 20
27.647404
 30
0.0
 11
-64.371765
 21
27.647404
 31
0.0
  0
LINE
  5
14B
100
AcDbEntity
  8
2
370
    25
100
AcDbLine
 10
-67.416215
 20
27.147404
 30
0.0
 11
-64.371765
 21
27.147404
 31
0.0
  0
LINE
  5
14C
100
AcDbEntity
  8
2
370
    25
100
AcDbLine
 10
-67.428024
 20
26.647404
 30
0.0
 11
-64.371765
 21
26.647404
 31
0.0
  0
LINE
  5
14D
100
AcDbEntity
  8
2
370
    25
100
AcDbLine
 10
-67.441223
 20
26.147404
 30
0.0
 11
-64.371765
 21
26.147404
 31
0.0
  0
LINE
  5
14E
100
AcDbEntity
  8
2
370
    25
100
AcDbLine
 10
-67.455813
 20
25.647404
 30
0.0
 11
-64.371765
 21
25.647404
 31
0.0
  0
LINE
  5
14F
100
AcDbEntity
  8
2
370
    25
100
AcDbLine
 10
-67.471793
 20
25.147404
 30
0.0
 11
-64.371765
 21
25.147404
 31
0.0
  0
LINE
  5
150
100
AcDbEntity
  8
2
370
    25
100
AcDbLine
 10
-67.489165
 20
24.647404
 30
0.0
 11
-64.371765
 21
24.647404
 31
0.0
  0
LINE
  5
151
100
AcDbEntity
  8
2
370
    25
100
AcDbLine
 10
-67.37246
 20
31.647404
 30
0.0
 11
-64.371765
 21
31.647404
 31
0.0
  0
LINE
  5
152
100
AcDbEntity
  8
2
370
    25
100
AcDbLine
 10
-67.37246
 20
32.147404
 30
0.0
 11
-64.371765
 21
32.147404
 31
0.0
  0
LINE
  5
153
100
AcDbEntity
  8
2
370
    25
100
AcDbLine
 10
-67.37246
 20
32.647404
 30
0.0
 11
-64.371765
 21
32.647404
 31
0.0
  0
LINE
  5
154
100
AcDbEntity
  8
2
370
    25
100
AcDbLine
 10
-67.37246
 20
33.147404
 30
0.0
 11
-64.371765
 21
33.147404
 31
0.0
  0
LINE
  5
155
100
AcDbEntity
  8
2
370
    25
100
AcDbLine
 10
-67.37246
 20
33.647404
 30
0.0
 11
-64.371765
 21
33.647404
 31
0.0
  0
LINE
  5
156
100
AcDbEntity
  8
2
370
    25
100
AcDbLine
 10
-67.396767
 20
34.147404
 30
0.0
 11
-64.371765
 21
34.147404
 31
0.0
  0
LINE
  5
157
100
AcDbEntity
  8
2
370
    25
100
AcDbLine
 10
-67.405796
 20
34.647404
 30
0.0
 11
-64.371765
 21
34.647404
 31
0.0
  0
LINE
  5
158
100
AcDbEntity
  8
2
370
    25
100
AcDbLine
 10
-67.416215
 20
35.147404
 30
0.0
 11
-64.371765
 21
35.147404
 31
0.0
  0
LINE
  5
159
100
AcDbEntity
  8
2
370
    25
100
AcDbLine
 10
-67.428024
 20
35.647404
 30
0.0
 11
-64.371765
 21
35.647404
 31
0.0
  0
LINE
  5
15A
100
AcDbEntity
  8
2
370
    25
100
AcDbLine
 10
-67.441223
 20
36.147404
 30
0.0
 11
-64.371765
 21
36.147404
 31
0.0
  0
LINE
  5
15B
100
AcDbEntity
  8
2
370
    25
100
AcDbLine
 10
-67.455813
 20
36.647404
 30
0.0
 11
-64.371765
 21
36.647404
 31
0.0
  0
LINE
  5
15C
100
AcDbEntity
  8
2
370
    25
100
AcDbLine
 10
-67.471793
 20
37.147404
 30
0.0
 11
-64.371765
 21
37.147404
 31
0.0
  0
LINE
  5
15D
100
AcDbEntity
  8
2
370
    25
100
AcDbLine
 10
-67.489165
 20
37.647404
 30
0.0
 11
-64.371765
 21
37.647404
 31
0.0
  0
LINE
  5
15E
100
AcDbEntity
  8
2
370
    50
100
AcDbLine
 10
-90.87167
 20
18.647404
 30
0.0
 11
-90.87167
 21
43.647404
 31
0.0
  0
ELLIPSE
  5
15F
100
AcDbEntity
  8
2
370
    50
100
AcDbEllipse
 10
-94.37167
 20
31.147404
 30
0.0
 11
0.0
 21
-5.0
 31
0.0
210
0.0
220
0.0
230
1.0
 40
0.6
 41
0.0
 42
6.2831849999999996
  0
ELLIPSE
  5
160
100
AcDbEntity
  8
2
370
    50
100
AcDbEllipse
 10
-94.37167
 20
19.718118
 30
0.0
 11
3.0
 21
0.0
 31
0.0
210
0.0
220
0.0
230
1.0
 40
0.833333
 41
0.0
 42
6.2831849999999996
  0
ELLIPSE
  5
161
100
AcDbEntity
  8
2
370
    50
100
AcDbEllipse
 10
-94.37167
 20
42.57669
 30
0.0
 11
-3.0
 21
0.0
 31
0.0
210
0.0
220
0.0
230
1.0
 40
0.833333
 41
0.0
 42
6.2831849999999996
  0
LINE
  5
162
100
AcDbEntity
  8
2
370
    50
100
AcDbLine
 10
-98.37167
 20
42.547404
 30
0.0
 11
-98.37167
 21
19.747404
 31
0.0
  0
LINE
  5
163
100
AcDbEntity
  8
2
370
    50
100
AcDbLine
 10
117.779865
 20
-64.042611
 30
0.0
 11
117.779865
 21
-58.552692
 31
0.0
  0
LINE
  5
164
100
AcDbEntity
  8
2
370
    50
100
AcDbLine
 10
105.780042
 20
-65.052596
 30
0.0
 11
105.780042
 21
-58.552596
 31
0.0
  0
LINE
  5
165
100
AcDbEntity
  8
2
370
    50
100
AcDbLine
 10
129.779688
 20
-65.052596
 30
0.0
 11
129.779688
 21
-58.552596
 31
0.0
  0
ARC
  5
166
100
AcDbEntity
  8
2
370
    50
100
AcDbCircle
 10
123.779777
 20
-46.726084
 30
0.0
 40
18.326512
100
AcDbArc
 50
250.889582
 51
289.110418
  0
ARC
  5
167
100
AcDbEntity
  8
2
370
    50
100
AcDbCircle
 10
111.779954
 20
-46.726084
 30
0.0
 40
18.326512
100
AcDbArc
 50
250.889582
 51
289.110418
  0
LINE
  5
168
100
AcDbEntity
  8
2
370
    50
100
AcDbLine
 10
129.279696
 20
-101.35242
 30
0.0
 11
106.280035
 21
-101.35242
 31
0.0
  0
LINE
  5
169
100
AcDbEntity
  8
2
370
    50
100
AcDbLine
 10
129.279696
 20
-101.35242
 30
0.0
 11
129.279696
 21
-89.352596
 31
0.0
  0
LINE
  5
16A
100
AcDbEntity
  8
2
370
    50
100
AcDbLine
 10
106.280035
 20
-101.35242
 30
0.0
 11
106.280035
 21
-89.352596
 31
0.0
  0
ELLIPSE
  5
16B
100
AcDbEntity
  8
2
370
    50
100
AcDbEllipse
 10
123.52978
 20
-95.352508
 30
0.0
 11
0.0
 21
5.9999120000000001
 31
0.0
210
0.0
220
0.0
230
1.0
 40
0.794667
 41
0.0
 42
6.2831849999999996
  0
ELLIPSE
  5
16C
100
AcDbEntity
  8
2
370
    50
100
AcDbEllipse
 10
112.02995
 20
-95.352508
 30
0.0
 11
0.0
 21
5.9999120000000001
 31
0.0
210
0.0
220
0.0
230
1.0
 40
0.794667
 41
0.0
 42
6.2831849999999996
  0
LINE
  5
16D
100
AcDbEntity
  8
2
370
    50
100
AcDbLine
 10
103.779865
 20
55.426727
 30
0.0
 11
103.779865
 21
63.11308
 31
0.0
  0
LINE
  5
16E
100
AcDbEntity
  8
2
370
    50
100
AcDbLine
 10
131.779865
 20
55.426727
 30
0.0
 11
131.779865
 21
63.11308
 31
0.0
  0
LINE
  5
16F
100
AcDbEntity
  8
2
370
    50
100
AcDbLine
 10
107.279865
 20
65.147404
 30
0.0
 11
128.279865
 21
65.147404
 31
0.0
  0
ARC
  5
170
100
AcDbEntity
  8
2
370
    50
100
AcDbCircle
 10
108.354866
 20
59.269903
 30
0.0
 40
5.975001
100
AcDbArc
 50
100.364894
 51
139.968454
  0
ARC
  5
171
100
AcDbEntity
  8
2
370
    50
100
AcDbCircle
 10
127.204864
 20
59.269903
 30
0.0
 40
5.975001
100
AcDbArc
 50
40.031546
 51
79.635106
  0
LINE
  5
172
100
AcDbEntity
  8
2
370
    50
100
AcDbLine
 10
131.229865
 20
55.147404
 30
0.0
 11
131.779865
 21
55.426727
 31
0.0
  0
LINE
  5
173
100
AcDbEntity
  8
2
370
    50
100
AcDbLine
 10
104.329865
 20
55.147404
 30
0.0
 11
103.779865
 21
55.426727
 31
0.0
  0
ELLIPSE
  5
174
100
AcDbEntity
  8
2
370
    50
100
AcDbEllipse
 10
124.779758
 20
59.373973
 30
0.0
 11
5.2365899999999996
 21
0.0
 31
0.0
210
0.0
220
0.0
230
1.0
 40
0.779251
 41
4.6443009999999996
 42
2.5751409999999999
  0
ELLIPSE
  5
175
100
AcDbEntity
  8
2
370
    50
100
AcDbEllipse
 10
110.779722
 20
59.373973
 30
0.0
 11
-5.2365899999999996
 21
0.0
 31
0.0
210
0.0
220
0.0
230
1.0
 40
0.779251
 41
3.7080199999999999
 42
1.6389339999999999
  0
HATCH
  5
176
100
AcDbEntity
  8
2
370
    25
100
AcDbHatch
 10
0.0
 20
0.0
 30
0.0
210
0.0
220
0.0
230
1.0
  2
_U
 70
     0
 71
     1
 91
        1
 92
        1
 93
        4
 72
     1
 10
100.279865
 20
-54.852595999999998
 11
135.279865
 21
-54.852595999999998
 72
     1
 10
135.279865
 20
-54.852595999999998
 11
135.279865
 21
-56.352595999999998
 72
     1
 10
135.279865
 20
-56.352595999999998
 11
100.279865
 21
-56.352595999999998
 72
     1
 10
100.279865
 20
-56.352595999999998
 11
100.279865
 21
-54.852595999999998
 97
        4
330
0
330
0
330
0
330
0
 75
     0
 76
     0
 52
45.0
 41
1.0
 77
     0
 78
     1
 53
45.0
 43
0.0
 44
0.0
 45
-1.4142140000000001
 46
1.4142140000000001
 79
     0
 98
        1
 10
0.0
 20
0.0
  0
HATCH
  5
177
100
AcDbEntity
  8
2
370
    25
100
AcDbHatch
 10
0.0
 20
0.0
 30
0.0
210
0.0
220
0.0
230
1.0
  2
_U
 70
     0
 71
     1
 91
        1
 92
        1
 93
        4
 72
     1
 10
-139.87166999999999
 20
-54.852595999999998
 11
-104.87166999999999
 21
-54.852595999999998
 72
     1
 10
-104.87166999999999
 20
-54.852595999999998
 11
-104.87166999999999
 21
-56.352595999999998
 72
     1
 10
-104.87166999999999
 20
-56.352595999999998
 11
-139.87166999999999
 21
-56.352595999999998
 72
     1
 10
-139.87166999999999
 20
-56.352595999999998
 11
-139.87166999999999
 21
-54.852595999999998
 97
        4
330
0
330
0
330
0
330
0
 75
     0
 76
     0
 52
45.0
 41
1.0
 77
     0
 78
     1
 53
45.0
 43
0.0
 44
0.0
 45
-1.4142140000000001
 46
1.4142140000000001
 79
     0
 98
        1
 10
0.0
 20
0.0
  0
ELLIPSE
  5
178
100
AcDbEntity
  8
2
370
    50
100
AcDbEllipse
 10
-132.330962
 20
-95.352596
 30
0.0
 11
0.0
 21
6.0
 31
0.0
210
0.0
220
0.0
230
1.0
 40
0.458833
 41
0.0
 42
6.2831849999999996
  0
DIMENSION
  5
179
100
AcDbEntity
  8
3
370
    25
100
AcDbDimension
  2
*D0
 10
-172.693283
 20
-38.852596
 30
0.0
 11
-174.943283
 21
-66.852596
 31
0.0
 71
     0
 72
     0
 41
0.0
 42
0.0
  3
Standard
100
AcDbAlignedDimension
 13
-131.47167
 23
-94.852596
 33
0.0
 14
-144.87167
 24
-38.852596
 34
0.0
 50
90.0
100
AcDbRotatedDimension
  0
DIMENSION
  5
17A
100
AcDbEntity
  8
3
370
    25
100
AcDbDimension
  2
*D1
 10
103.695547
 20
-70.935688
 30
0.0
 11
78.070547
 21
-68.685688
 31
0.0
 70
     1
 71
     0
 72
     0
 41
0.0
 42
0.0
 51
221.303246
  3
Standard
100
AcDbAlignedDimension
 13
94.779865
 23
-38.352596
 33
0.0
 14
140.779865
 24
-38.352596
 34
0.0
  0
LWPOLYLINE
  5
17B
100
AcDbEntity
  8
3
370
    25
100
AcDbPolyline
 90
        3
 70
     0
 10
-132.84917
 20
-68.763607
 10
-145.282063
 20
-84.873768
 10
-166.129841
 20
-84.873768
  0
LINE
  5
180
100
AcDbEntity
  8
3
370
    25
100
AcDbLine
 10
-134.029452
 20
-70.292981
 30
0.0
 11
-133.619658
 21
-70.609237
 31
0.0
  0
LINE
  5
181
100
AcDbEntity
  8
3
370
    25
100
AcDbLine
 10
-133.619658
 20
-70.609237
 30
0.0
 11
-132.84917
 21
-68.763607
 31
0.0
  0
LINE
  5
182
100
AcDbEntity
  8
3
370
    25
100
AcDbLine
 10
-132.84917
 20
-68.763607
 30
0.0
 11
-134.439247
 21
-69.976725
 31
0.0
  0
LINE
  5
183
100
AcDbEntity
  8
3
370
    25
100
AcDbLine
 10
-134.439247
 20
-69.976725
 30
0.0
 11
-134.029452
 21
-70.292981
 31
0.0
  0
TEXT
  5
184
100
AcDbEntity
  8
3
370
    50
100
AcDbText
 10
-165.535553
 20
-83.964878
 30
0.0
 40
3.5
  1
ＰＪ１／２
 72
     5
 11
-148.735553
 21
-83.964878
 31
0.0
100
AcDbText
  0
DIMENSION
  5
185
100
AcDbEntity
  8
3
370
    25
100
AcDbDimension
  2
*D2
 10
-172.693283
 20
31.147404
 30
0.0
 11
-176.693283
 21
-3.852596
 31
0.0
 71
     0
 72
     0
 41
0.0
 42
0.0
  3
Standard
100
AcDbAlignedDimension
 13
-144.87167
 23
-38.852596
 33
0.0
 14
-142.138184
 24
31.147404
 34
0.0
 50
90.0
100
AcDbRotatedDimension
  0
DIMENSION
  5
186
100
AcDbEntity
  8
3
370
    25
100
AcDbDimension
  2
*D3
 10
-7.866388
 20
61.647404
 30
0.0
 11
-13.616388
 21
9.647404
 31
0.0
 70
     1
 71
     0
 72
     0
 41
0.0
 42
0.0
 51
270.0
  3
Standard
100
AcDbAlignedDimension
 13
95.252348
 23
-38.852596
 33
0.0
 14
-44.497652
 24
61.647404
 34
0.0
 50
90.0
  0
TEXT
  5
187
100
AcDbEntity
  8
3
370
    50
100
AcDbText
 10
-157.201019
 20
-65.504227
 30
0.0
 40
3.5
  1
２４六角
 72
     5
 11
-143.901019
 21
-65.504227
 31
0.0
100
AcDbText
  0
TEXT
  5
188
100
AcDbEntity
  8
3
370
    50
100
AcDbText
 10
-159.777481
 20
-101.575142
 30
0.0
 40
3.5
  1
２３六角
 72
     5
 11
-146.477481
 21
-101.575142
 31
0.0
100
AcDbText
  0
LWPOLYLINE
  5
189
100
AcDbEntity
  8
3
370
    25
100
AcDbPolyline
 90
        3
 70
     0
 10
-136.12167
 20
-61.571678
 10
-143.743439
 20
-66.046638
 10
-157.439293
 20
-66.046638
  0
LINE
  5
18E
100
AcDbEntity
  8
3
370
    25
100
AcDbLine
 10
-137.787604
 20
-62.549796
 30
0.0
 11
-137.525518
 21
-62.996182
 31
0.0
  0
LINE
  5
18F
100
AcDbEntity
  8
3
370
    25
100
AcDbLine
 10
-137.525518
 20
-62.996182
 30
0.0
 11
-136.12167
 21
-61.571678
 31
0.0
  0
LINE
  5
190
100
AcDbEntity
  8
3
370
    25
100
AcDbLine
 10
-136.12167
 20
-61.571678
 30
0.0
 11
-138.04969
 21
-62.10341
 31
0.0
  0
LINE
  5
191
100
AcDbEntity
  8
3
370
    25
100
AcDbLine
 10
-138.04969
 20
-62.10341
 30
0.0
 11
-137.787604
 21
-62.549796
 31
0.0
  0
LWPOLYLINE
  5
192
100
AcDbEntity
  8
3
370
    25
100
AcDbPolyline
 90
        3
 70
     0
 10
-135.121193
 20
-95.472307
 10
-145.777481
 20
-101.981979
 10
-160.151367
 20
-101.981979
  0
LINE
  5
197
100
AcDbEntity
  8
3
370
    25
100
AcDbLine
 10
-136.769779
 20
-96.479389
 30
0.0
 11
-136.499932
 21
-96.921126
 31
0.0
  0
LINE
  5
198
100
AcDbEntity
  8
3
370
    25
100
AcDbLine
 10
-136.499932
 20
-96.921126
 30
0.0
 11
-135.121193
 21
-95.472307
 31
0.0
  0
LINE
  5
199
100
AcDbEntity
  8
3
370
    25
100
AcDbLine
 10
-135.121193
 20
-95.472307
 30
0.0
 11
-137.039626
 21
-96.037651
 31
0.0
  0
LINE
  5
19A
100
AcDbEntity
  8
3
370
    25
100
AcDbLine
 10
-137.039626
 20
-96.037651
 30
0.0
 11
-136.769779
 21
-96.479389
 31
0.0
  0
TEXT
  5
19B
100
AcDbEntity
  8
3
370
    50
100
AcDbText
 10
145.313019
 20
-120.010483
 30
0.0
 40
3.0
  1
１　１
 72
     5
 11
153.713019
 21
-120.010483
 31
0.0
100
AcDbText
  0
LINE
  5
19C
100
AcDbEntity
  8
3
370
    50
100
AcDbLine
 10
-98.858376
 20
-110.985941
 30
0.0
 11
20.491193
 21
-110.985941
 31
0.0
  0
TEXT
  5
19D
100
AcDbEntity
  8
3
370
    50
100
AcDbText
 10
-94.636383
 20
-137.24575
 30
0.0
 40
3.2
  1
コードＮｏ
 72
     5
 11
-79.276383
 21
-137.24575
 31
0.0
100
AcDbText
  0
TEXT
  5
19E
100
AcDbEntity
  8
3
370
    50
100
AcDbText
 10
-61.504513
 20
-137.372086
 30
0.0
 40
3.2
  1
品　　番
 72
     5
 11
-49.344513
 21
-137.372086
 31
0.0
100
AcDbText
  0
TEXT
  5
19F
100
AcDbEntity
  8
3
370
    50
100
AcDbText
 10
-24.237247
 20
-137.24575
 30
0.0
 40
3.2
  1
Ａ寸法
 72
     5
 11
-15.277247
 21
-137.24575
 31
0.0
100
AcDbText
  0
TEXT
  5
1A0
100
AcDbEntity
  8
3
370
    50
100
AcDbText
 10
-96.711174
 20
-129.825027
 30
0.0
 40
3.2
  1
５０１３００
 72
     5
 11
-78.151174
 21
-129.825027
 31
0.0
100
AcDbText
  0
TEXT
  5
1A1
100
AcDbEntity
  8
3
370
    50
100
AcDbText
 10
-72.757683
 20
-129.87587
 30
0.0
 40
3.2
  1
Ｋ１３－１３
 72
     5
 11
-54.197683
 21
-129.87587
 31
0.0
100
AcDbText
  0
LINE
  5
1A2
100
AcDbEntity
  8
3
370
    50
100
AcDbLine
 10
-98.858376
 20
-131.985941
 30
0.0
 11
20.491193
 21
-131.985941
 31
0.0
  0
LINE
  5
1A3
100
AcDbEntity
  8
3
370
    50
100
AcDbLine
 10
-98.858376
 20
-124.985941
 30
0.0
 11
20.491193
 21
-124.985941
 31
0.0
  0
LINE
  5
1A4
100
AcDbEntity
  8
3
370
    50
100
AcDbLine
 10
-98.858376
 20
-117.985941
 30
0.0
 11
20.491193
 21
-117.985941
 31
0.0
  0
LINE
  5
1A5
100
AcDbEntity
  8
3
370
    50
100
AcDbLine
 10
-34.508807
 20
-138.985941
 30
0.0
 11
-34.508807
 21
-89.985941
 31
0.0
  0
LINE
  5
1A6
100
AcDbEntity
  8
3
370
    50
100
AcDbLine
 10
-75.008807
 20
-138.985941
 30
0.0
 11
-75.008807
 21
-89.985941
 31
0.0
  0
LINE
  5
1A7
100
AcDbEntity
  8
3
370
    50
100
AcDbLine
 10
-98.858376
 20
-138.985941
 30
0.0
 11
-98.858376
 21
-89.985941
 31
0.0
  0
LINE
  5
1A8
100
AcDbEntity
  8
3
370
    50
100
AcDbLine
 10
-98.858376
 20
-132.485941
 30
0.0
 11
20.491193
 21
-132.485941
 31
0.0
  0
TEXT
  5
1A9
100
AcDbEntity
  8
3
370
    50
100
AcDbText
 10
-24.237247
 20
-129.94575
 30
0.0
 40
3.2
  1
１７０
 72
     5
 11
-15.277247
 21
-129.94575
 31
0.0
100
AcDbText
  0
TEXT
  5
1AA
100
AcDbEntity
  8
3
370
    50
100
AcDbText
 10
-165.561016
 20
-89.490383
 30
0.0
 40
3.5
  1
取付穴φ２３±１
 72
     5
 11
-138.261016
 21
-89.490383
 31
0.0
100
AcDbText
  0
DIMENSION
  5
1AB
100
AcDbEntity
  8
3
370
    25
100
AcDbDimension
  2
*D4
 10
-128.87167
 20
-118.546165
 30
0.0
 11
-122.37167
 21
-116.296165
 31
0.0
 70
     1
 71
     0
 72
     0
 41
0.0
 42
0.0
  3
Standard
100
AcDbAlignedDimension
 13
-115.87167
 23
-101.352596
 33
0.0
 14
-128.87167
 24
-101.352596
 34
0.0
  0
TEXT
  5
1AC
100
AcDbEntity
  8
3
370
    50
100
AcDbText
 10
27.516107
 20
-13.740749
 30
0.0
 40
3.5
  1
Ａ寸法
 72
     5
 11
37.316107
 21
-13.740749
 31
0.0
100
AcDbText
  0
DIMENSION
  5
1AD
100
AcDbEntity
  8
3
370
    25
100
AcDbDimension
  2
*D5
 10
117.779865
 20
-14.240749
 30
0.0
 11
32.766107
 21
-12.240749
 31
0.0
 71
     0
 72
     0
 41
0.0
 42
0.0
  3
Standard
100
AcDbAlignedDimension
 13
-52.247652
 23
59.221817
 33
0.0
 14
117.779865
 24
-14.240749
 34
0.0
100
AcDbRotatedDimension
  0
TEXT
  5
1AE
100
AcDbEntity
  8
3
370
    50
100
AcDbText
 10
172.656906
 20
-127.745598
 30
0.0
 40
3.0
  1
０８　１１　１０
 72
     5
 11
196.056906
 21
-127.745598
 31
0.0
100
AcDbText
  0
LINE
  5
1AF
100
AcDbEntity
  8
3
370
    50
100
AcDbLine
 10
-98.858376
 20
-103.985941
 30
0.0
 11
-4.508807
 21
-103.985941
 31
0.0
  0
LINE
  5
1B0
100
AcDbEntity
  8
3
370
    50
100
AcDbLine
 10
-98.858376
 20
-96.985941
 30
0.0
 11
-4.508807
 21
-96.985941
 31
0.0
  0
LINE
  5
1B1
100
AcDbEntity
  8
3
370
    50
100
AcDbLine
 10
-98.858376
 20
-89.985941
 30
0.0
 11
20.491193
 21
-89.985941
 31
0.0
  0
LINE
  5
1B2
100
AcDbEntity
  8
3
370
    50
100
AcDbLine
 10
-4.508807
 20
-138.985941
 30
0.0
 11
-4.508807
 21
-89.985941
 31
0.0
  0
LINE
  5
1B3
100
AcDbEntity
  8
3
370
    50
100
AcDbLine
 10
20.491193
 20
-89.985941
 30
0.0
 11
20.491193
 21
-108.985941
 31
0.0
  0
TEXT
  5
1B4
100
AcDbEntity
  8
3
370
    50
100
AcDbText
 10
3.262753
 20
-137.24575
 30
0.0
 40
3.2
  1
備　考
 72
     5
 11
12.222753
 21
-137.24575
 31
0.0
100
AcDbText
  0
TEXT
  5
1B5
100
AcDbEntity
  8
3
370
    50
100
AcDbText
 10
-24.237247
 20
-115.94575
 30
0.0
 40
3.2
  1
３００
 72
     5
 11
-15.277247
 21
-115.94575
 31
0.0
100
AcDbText
  0
TEXT
  5
1B6
100
AcDbEntity
  8
3
370
    50
100
AcDbText
 10
-24.237247
 20
-94.94575
 30
0.0
 40
3.2
  1
３００
 72
     5
 11
-15.277247
 21
-94.94575
 31
0.0
100
AcDbText
  0
TEXT
  5
1B7
100
AcDbEntity
  8
3
370
    50
100
AcDbText
 10
-72.757683
 20
-108.87587
 30
0.0
 40
3.2
  1
Ｋ１３－１３Ａ
 72
     5
 11
-50.997682
 21
-108.87587
 31
0.0
100
AcDbText
  0
TEXT
  5
1B8
100
AcDbEntity
  8
3
370
    50
100
AcDbText
 10
-96.711174
 20
-108.825027
 30
0.0
 40
3.2
  1
５０１３０２
 72
     5
 11
-78.151174
 21
-108.825027
 31
0.0
100
AcDbText
  0
TEXT
  5
1B9
100
AcDbEntity
  8
3
370
    50
100
AcDbText
 10
-24.237247
 20
-108.94575
 30
0.0
 40
3.2
  1
１７０
 72
     5
 11
-15.277247
 21
-108.94575
 31
0.0
100
AcDbText
  0
TEXT
  5
1BA
100
AcDbEntity
  8
3
370
    50
100
AcDbText
 10
-96.711174
 20
-122.825027
 30
0.0
 40
3.2
  1
５０１３０８
 72
     5
 11
-78.151174
 21
-122.825027
 31
0.0
100
AcDbText
  0
TEXT
  5
1BB
100
AcDbEntity
  8
3
370
    50
100
AcDbText
 10
-72.757683
 20
-122.87587
 30
0.0
 40
3.2
  1
Ｋ１３－１３Ｅ
 72
     5
 11
-50.997682
 21
-122.87587
 31
0.0
100
AcDbText
  0
TEXT
  5
1BC
100
AcDbEntity
  8
3
370
    50
100
AcDbText
 10
-96.711174
 20
-115.825027
 30
0.0
 40
3.2
  1
５０１３０９
 72
     5
 11
-78.151174
 21
-115.825027
 31
0.0
100
AcDbText
  0
TEXT
  5
1BD
100
AcDbEntity
  8
3
370
    50
100
AcDbText
 10
-96.711174
 20
-101.825027
 30
0.0
 40
3.2
  1
５０１３２５
 72
     5
 11
-78.151174
 21
-101.825027
 31
0.0
100
AcDbText
  0
TEXT
  5
1BE
100
AcDbEntity
  8
3
370
    50
100
AcDbText
 10
-96.711174
 20
-94.825027
 30
0.0
 40
3.2
  1
５０１３２６
 72
     5
 11
-78.151174
 21
-94.825027
 31
0.0
100
AcDbText
  0
TEXT
  5
1BF
100
AcDbEntity
  8
3
370
    50
100
AcDbText
 10
-72.757683
 20
-115.87587
 30
0.0
 40
3.2
  1
Ｋ１３－１３Ｔ
 72
     5
 11
-50.997682
 21
-115.87587
 31
0.0
100
AcDbText
  0
TEXT
  5
1C0
100
AcDbEntity
  8
3
370
    50
100
AcDbText
 10
-72.757683
 20
-101.87587
 30
0.0
 40
3.2
  1
Ｋ１３－１３ＥＡ
 72
     5
 11
-47.797682
 21
-101.87587
 31
0.0
100
AcDbText
  0
TEXT
  5
1C1
100
AcDbEntity
  8
3
370
    50
100
AcDbText
 10
-72.757683
 20
-94.87587
 30
0.0
 40
3.2
  1
Ｋ１３－１３ＴＡ
 72
     5
 11
-47.797682
 21
-94.87587
 31
0.0
100
AcDbText
  0
TEXT
  5
1C2
100
AcDbEntity
  8
3
370
    50
100
AcDbText
 10
-24.237247
 20
-122.94575
 30
0.0
 40
3.2
  1
２４０
 72
     5
 11
-15.277247
 21
-122.94575
 31
0.0
100
AcDbText
  0
TEXT
  5
1C3
100
AcDbEntity
  8
3
370
    50
100
AcDbText
 10
-24.237247
 20
-101.94575
 30
0.0
 40
3.2
  1
２４０
 72
     5
 11
-15.277247
 21
-101.94575
 31
0.0
100
AcDbText
  0
TEXT
  5
1C4
100
AcDbEntity
  8
3
370
    50
100
AcDbText
 10
-1.739547
 20
-102.041039
 30
0.0
 40
3.2
  1
固定コマ仕様
 72
     5
 11
16.820453
 21
-102.041039
 31
0.0
100
AcDbText
  0
TEXT
  5
1C5
100
AcDbEntity
  8
3
370
    50
100
AcDbText
 10
34.238441
 20
-116.218437
 30
0.0
 40
4.0
  1
立水栓（自在）
 72
     5
 11
61.438441
 21
-116.218437
 31
0.0
100
AcDbText
  0
DIMENSION
  5
1C6
100
AcDbEntity
  8
3
370
    25
100
AcDbDimension
  2
*D6
 10
-64.371765
 20
-14.240749
 30
0.0
 11
-93.371718
 21
-11.990749
 31
0.0
 71
     0
 72
     0
 41
0.0
 42
0.0
  3
Standard
100
AcDbAlignedDimension
 13
-122.37167
 23
-14.240749
 33
0.0
 14
-64.371765
 24
24.147404
 34
0.0
100
AcDbRotatedDimension
  0
ENDSEC
  0
SECTION
  2
OBJECTS
  0
DICTIONARY
  5
218
100
AcDbDictionary
280
     0
281
     1
  3
ACAD_GROUP
350
219
  3
ACAD_MLINESTYLE
350
21A
  0
DICTIONARY
  5
219
102
{ACAD_REACTORS
330
218
102
}
100
AcDbDictionary
280
     0
281
     1
  0
DICTIONARY
  5
21A
102
{ACAD_REACTORS
330
218
102
}
100
AcDbDictionary
280
     0
281
     1
  3
Standard
350
21B
  0
MLINESTYLE
  5
21B
102
{ACAD_REACTORS
330
21A
102
}
100
AcDbMlineStyle
  2
Standard
 70
     0
  3

 62
     0
 51
90.0
 52
90.0
 71
     2
 49
0.5
 62
   256
  6
ByLayer
 49
-0.5
 62
   256
  6
ByLayer
  0
ENDSEC
  0
EOF
