  0
SECTION
  2
HEADER
  9
$ACADVER
  1
AC1015
  9
$ACADMAINTVER
 70
     6
  9
$DWGCODEPAGE
  3
ANSI_932
  9
$INSBASE
 10
0.0
 20
0.0
 30
0.0
  9
$EXTMIN
 10
-420.5
 20
-297.0
 30
1.000000E+20
  9
$EXTMAX
 10
420.5
 20
297.0
 30
-1.000000E+20
  9
$LIMMIN
 10
-420.5
 20
-297.0
  9
$LIMMAX
 10
420.5
 20
297.0
  9
$ORTHOMODE
 70
     0
  9
$REGENMODE
 70
     1
  9
$FILLMODE
 70
     1
  9
$QTEXTMODE
 70
     0
  9
$MIRRTEXT
 70
     1
  9
$LTSCALE
 40
1.0
  9
$ATTMODE
 70
     1
  9
$TEXTSIZE
 40
0.2
  9
$TRACEWID
 40
0.05
  9
$TEXTSTYLE
  7
STANDARD
  9
$CLAYER
  8
0
  9
$CELTYPE
  6
CONTINUOUS
  9
$CECOLOR
 62
   256
  9
$CELTSCALE
 40
1.0
  9
$DISPSILH
 70
     0
  9
$DIMSCALE
 40
1.0
  9
$DIMASZ
 40
2.0
  9
$DIMEXO
 40
1.0
  9
$DIMDLI
 40
0.38
  9
$DIMRND
 40
0.0
  9
$DIMDLE
 40
0.0
  9
$DIMEXE
 40
2.0
  9
$DIMTP
 40
0.0
  9
$DIMTM
 40
0.0
  9
$DIMTXT
 40
3.5
  9
$DIMCEN
 40
0.09
  9
$DIMTSZ
 40
0.0
  9
$DIMTOL
 70
     0
  9
$DIMLIM
 70
     0
  9
$DIMTIH
 70
     0
  9
$DIMTOH
 70
     0
  9
$DIMSE1
 70
     0
  9
$DIMSE2
 70
     0
  9
$DIMTAD
 70
     1
  9
$DIMZIN
 70
     0
  9
$DIMBLK
  1

  9
$DIMASO
 70
     1
  9
$DIMSHO
 70
     1
  9
$DIMPOST
  1

  9
$DIMAPOST
  1

  9
$DIMALT
 70
     0
  9
$DIMALTD
 70
     2
  9
$DIMALTF
 40
25.4
  9
$DIMLFAC
 40
1.0
  9
$DIMTOFL
 70
     0
  9
$DIMTVP
 40
0.0
  9
$DIMTIX
 70
     0
  9
$DIMSOXD
 70
     0
  9
$DIMSAH
 70
     0
  9
$DIMBLK1
  1

  9
$DIMBLK2
  1

  9
$DIMSTYLE
  2
Standard
  9
$DIMCLRD
 70
     0
  9
$DIMCLRE
 70
     0
  9
$DIMCLRT
 70
     0
  9
$DIMTFAC
 40
1.0
  9
$DIMGAP
 40
0.5
  9
$DIMJUST
 70
     0
  9
$DIMSD1
 70
     0
  9
$DIMSD2
 70
     0
  9
$DIMTOLJ
 70
     1
  9
$DIMTZIN
 70
     0
  9
$DIMALTZ
 70
     0
  9
$DIMALTTZ
 70
     0
  9
$DIMUPT
 70
     0
  9
$DIMDEC
 70
     3
  9
$DIMTDEC
 70
     4
  9
$DIMALTU
 70
     2
  9
$DIMALTTD
 70
     2
  9
$DIMTXSTY
  7
STANDARD
  9
$DIMAUNIT
 70
     0
  9
$DIMADEC
 70
     0
  9
$DIMALTRND
 40
0.0
  9
$DIMAZIN
 70
     0
  9
$DIMDSEP
 70
     0
  9
$DIMATFIT
 70
     3
  9
$DIMFRAC
 70
     0
  9
$DIMLDRBLK
  1

  9
$DIMLUNIT
 70
     2
  9
$DIMLWD
 70
     0
  9
$DIMLWE
 70
     0
  9
$DIMTMOVE
 70
     0
  9
$LUNITS
 70
     2
  9
$LUPREC
 70
     4
  9
$SKETCHINC
 40
0.1
  9
$FILLETRAD
 40
0.0
  9
$AUNITS
 70
     0
  9
$AUPREC
 70
     0
  9
$MENU
  1
acad
  9
$ELEVATION
 40
0.0
  9
$PELEVATION
 40
0.0
  9
$THICKNESS
 40
0.0
  9
$LIMCHECK
 70
     0
  9
$CHAMFERA
 40
0.0
  9
$CHAMFERB
 40
0.0
  9
$CHAMFERC
 40
0.0
  9
$CHAMFERD
 40
0.0
  9
$SKPOLY
 70
     0
  9
$TDCREATE
 40
2453383.000000000
  9
$TDUCREATE
 40
0.000000000
  9
$TDUPDATE
 40
0.000000000
  9
$TDUUPDATE
 40
2447892.625000000
  9
$TDINDWG
 40
0.0000000000
  9
$TDUSRTIMER
 40
0.0000000000
  9
$USRTIMER
 70
     1
  9
$ANGBASE
 50
0.0
  9
$ANGDIR
 70
     0
  9
$PDMODE
 70
     0
  9
$PDSIZE
 40
0.0
  9
$PLINEWID
 40
0.0
  9
$SPLFRAME
 70
     0
  9
$SPLINETYPE
 70
     6
  9
$SPLINESEGS
 70
     8
  9
$HANDSEED
  5
210
  9
$SURFTAB1
 70
     6
  9
$SURFTAB2
 70
     6
  9
$SURFTYPE
 70
     6
  9
$SURFU
 70
     6
  9
$SURFV
 70
     6
  9
$UCSBASE
  2

  9
$UCSNAME
  2

  9
$UCSORG
 10
0.0
 20
0.0
 30
0.0
  9
$UCSXDIR
 10
1.0
 20
0.0
 30
0.0
  9
$UCSYDIR
 10
0.0
 20
1.0
 30
0.0
  9
$UCSORTHOREF
  2

  9
$UCSORTHOVIEW
 70
     0
  9
$UCSORGTOP
 10
0.0
 20
0.0
 30
0.0
  9
$UCSORGBOTTOM
 10
0.0
 20
0.0
 30
0.0
  9
$UCSORGLEFT
 10
0.0
 20
0.0
 30
0.0
  9
$UCSORGRIGHT
 10
0.0
 20
0.0
 30
0.0
  9
$UCSORGFRONT
 10
0.0
 20
0.0
 30
0.0
  9
$UCSORGBACK
 10
0.0
 20
0.0
 30
0.0
  9
$PUCSBASE
  2

  9
$PUCSNAME
  2

  9
$PUCSORG
 10
0.0
 20
0.0
 30
0.0
  9
$PUCSXDIR
 10
1.0
 20
0.0
 30
0.0
  9
$PUCSYDIR
 10
0.0
 20
1.0
 30
0.0
  9
$PUCSORTHOREF
  2

  9
$PUCSORTHOVIEW
 70
     0
  9
$PUCSORGTOP
 10
0.0
 20
0.0
 30
0.0
  9
$PUCSORGBOTTOM
 10
0.0
 20
0.0
 30
0.0
  9
$PUCSORGLEFT
 10
0.0
 20
0.0
 30
0.0
  9
$PUCSORGRIGHT
 10
0.0
 20
0.0
 30
0.0
  9
$PUCSORGFRONT
 10
0.0
 20
0.0
 30
0.0
  9
$PUCSORGBACK
 10
0.0
 20
0.0
 30
0.0
  9
$USERI1
 70
     0
  9
$USERI2
 70
     0
  9
$USERI3
 70
     0
  9
$USERI4
 70
     0
  9
$USERI5
 70
     0
  9
$USERR1
 40
0.0
  9
$USERR2
 40
0.0
  9
$USERR3
 40
0.0
  9
$USERR4
 40
0.0
  9
$USERR5
 40
0.0
  9
$WORLDVIEW
 70
     1
  9
$SHADEDGE
 70
     3
  9
$SHADEDIF
 70
    70
  9
$TILEMODE
 70
     1
  9
$MAXACTVP
 70
    16
  9
$PINSBASE
 10
0.0
 20
0.0
 30
0.0
  9
$PLIMCHECK
 70
     0
  9
$PEXTMIN
 10
1.000000E+20
 20
1.000000E+20
 30
1.000000E+20
  9
$PEXTMAX
 10
-1.000000E+20
 20
-1.000000E+20
 30
-1.000000E+20
  9
$PLIMMIN
 10
0.0
 20
0.0
  9
$PLIMMAX
 10
12.0
 20
9.0
  9
$UNITMODE
 70
     0
  9
$VISRETAIN
 70
     0
  9
$PLINEGEN
 70
     1
  9
$PSLTSCALE
 70
     0
  9
$TREEDEPTH
 70
  3020
  9
$CMLSTYLE
  2
Standard
  9
$CMLJUST
 70
     0
  9
$CMLSCALE
 40
1.0
  9
$PROXYGRAPHICS
 70
     0
  9
$MEASUREMENT
 70
     0
  9
$CELWEIGHT
370
     0
  9
$ENDCAPS
280
     0
  9
$JOINSTYLE
280
     0
  9
$LWDISPLAY
290
     0
  9
$INSUNITS
 70
     0
  9
$HYPERLINKBASE
  1

  9
$STYLESHEET
  1

  9
$XEDIT
290
     1
  9
$CEPSNTYPE
380
     0
  9
$PSTYLEMODE
290
     1
  9
$FINGERPRINTGUID
  2

  9
$VERSIONGUID
  2

  9
$EXTNAMES
290
     1
  9
$PSVPSCALE
 40
0.0
  0
ENDSEC
  0
SECTION
  2
CLASSES
  0
CLASS
  1
LWPOLYLINE
  2
AcDbPolyline
  3
AutoCAD 2000
 90
        0
280
     0
281
     1
  0
CLASS
  1
IMAGE
  2
AcDbRasterImage
  3
ISM
 90
      127
280
     0
281
     1
  0
CLASS
  1
OLE2FRAME
  2
AcDbOle2Frame
  3
AutoCAD 2000
 90
        0
280
     0
281
     1
  0
CLASS
  1
HATCH
  2
AcDbHatch
  3
AutoCAD 2000
 90
        0
280
     0
281
     1
  0
CLASS
  1
DICTIONARYVAR
  2
AcDbDictionaryVar
  3
AutoCAD 2000
 90
        0
280
     0
281
     0
  0
CLASS
  1
RASTERVARIABLES
  2
AcDbRasterVariables
  3
ISM
 90
        0
280
     0
281
     0
  0
CLASS
  1
IMAGEDEF
  2
AcDbRasterImageDef
  3
ISM
 90
        0
280
     0
281
     0
  0
CLASS
  1
IMAGEDEF_REACTOR
  2
AcDbRasterImageDefReactor
  3
ISM
 90
        1
280
     0
281
     0
  0
CLASS
  1
IDBUFFER
  2
AcDbIdBuffer
  3
AutoCAD 2000
 90
        0
280
     0
281
     0
  0
CLASS
  1
SPATIAL_FILTER
  2
AcDbSpatialFilter
  3
AutoCAD 2000
 90
        0
280
     0
281
     0
  0
CLASS
  1
XRECORD
  2
AcDbXrecord
  3
AutoCAD 2000
 90
        0
280
     0
281
     0
  0
CLASS
  1
SORTENTSTABLE
  2
AcDbSortentsTable
  3
AutoCAD 2000
 90
        0
280
     0
281
     0
  0
CLASS
  1
LAYER_INDEX
  2
AcDbLayerIndex
  3
AutoCAD 2000
 90
        0
280
     0
281
     0
  0
CLASS
  1
SPATIAL_INDEX
  2
AcDbSpatialIndex
  3
AutoCAD 2000
 90
        0
280
     0
281
     0
  0
CLASS
  1
OBJECT_PTR
  2
CAseDLPNTableRecord
  3
"ASE-LPNTableRecord"
 90
        1
280
     0
281
     0
  0
CLASS
  1
LAYOUT
  2
AcDbLayout
  3
AutoCAD 2000
 90
        0
280
     0
281
     0
  0
CLASS
  1
PLOTSETTINGS
  2
AcDbPlotSettings
  3
AutoCAD 2000
 90
        0
280
     0
281
     0
  0
CLASS
  1
ACDBDICTIONARYWDFLT
  2
AcDbDictionaryWithDefault
  3
AutoCAD 2000
 90
        0
280
     0
281
     0
  0
CLASS
  1
ACDBPLACEHOLDER
  2
AcDbPlaceHolder
  3
AutoCAD 2000
 90
        0
280
     0
281
     0
  0
CLASS
  1
VBA_PROJECT
  2
AcDbVbaProject
  3
acadvba
 90
        0
280
     0
281
     0
  0
CLASS
  1
WIPEOUT
  2
AcDbWipeout
  3
WipeOut|AutoCAD Express Tool|expresstools@autodesk.com
 90
      127
280
     0
281
     1
  0
CLASS
  1
WIPEOUTVARIABLES
  2
AcDbWipeoutVariables
  3
WipeOut|AutoCAD Express Tool|expresstools@autodesk.com
 90
        0
280
     0
281
     0
  0
CLASS
  1
RTEXT
  2
RText
  3
RText|AutoCAD Express Tool|expresstools@autodesk.com
 90
        0
280
     0
281
     1
  0
CLASS
  1
ARCALIGNEDTEXT
  2
AcDbArcAlignedText
  3
ATEXT|AutoCAD Express Tool|expresstools@autodesk.com
 90
        0
280
     0
281
     1
  0
ENDSEC
  0
SECTION
  2
TABLES
  0
TABLE
  2
VPORT
  5
6
100
AcDbSymbolTable
 70
     1
  0
VPORT
  5
19
100
AcDbSymbolTableRecord
100
AcDbViewportTableRecord
  2
*ACTIVE
 70
     0
 10
0.0
 20
0.0
 11
1.0
 21
1.0
 12
0.0
 22
0.0
 13
0.0
 23
0.0
 14
1.0
 24
1.0
 15
0.0
 25
0.0
 16
0.0
 26
0.0
 36
1.0
 17
0.0
 27
0.0
 37
0.0
 40
594.0
 41
1.415825
 42
50.0
 43
0.0
 44
0.0
 50
0.0
 51
0.0
 71
     0
 72
   500
 73
     1
 74
     1
 75
     0
 76
     0
 77
     0
 78
     0
281
     0
 65
     0
110
0.0
120
0.0
130
0.0
111
1.0
121
0.0
131
0.0
112
0.0
122
1.0
132
0.0
345
0
346
0
 79
     0
146
0.0
  0
ENDTAB
  0
TABLE
  2
LTYPE
  5
3
100
AcDbSymbolTable
 70
     9
  0
LTYPE
  5
C
100
AcDbSymbolTableRecord
100
AcDbLinetypeTableRecord
  2
ByBlock
 70
    64
  3

 72
    65
 73
     0
 40
0.0
  0
LTYPE
  5
D
100
AcDbSymbolTableRecord
100
AcDbLinetypeTableRecord
  2
ByLayer
 70
    64
  3

 72
    65
 73
     0
 40
0.0
  0
LTYPE
  5
E
100
AcDbSymbolTableRecord
100
AcDbLinetypeTableRecord
  2
CONTINUOUS
 70
     0
  3
Solid line
 72
    65
 73
     0
 40
0.0
  0
LTYPE
  5
F
100
AcDbSymbolTableRecord
100
AcDbLinetypeTableRecord
  2
DASHED
 70
     0
  3
__ __ __ __ __ __ __ __ __ __ __ __ __ __ __
 72
    65
 73
     2
 40
2.0
 49
1.2
 74
     0
 49
-0.8
 74
     0
  0
LTYPE
  5
10
100
AcDbSymbolTableRecord
100
AcDbLinetypeTableRecord
  2
CENTER
 70
     0
  3
____ _ ____ _ ____ _ ____ _ ____ _ ____ _ ____
 72
    65
 73
     4
 40
12.0
 49
9.0
 74
     0
 49
-1.0
 74
     0
 49
1.0
 74
     0
 49
-1.0
 74
     0
  0
LTYPE
  5
11
100
AcDbSymbolTableRecord
100
AcDbLinetypeTableRecord
  2
HIDDEN
 70
     0
  3
_ _ _ _ _ _ _ _ _ _ _ _ _ _ _ _ _ _ _ _ _ _ _
 72
    65
 73
     2
 40
3.2
 49
2.4
 74
     0
 49
-0.8
 74
     0
  0
LTYPE
  5
12
100
AcDbSymbolTableRecord
100
AcDbLinetypeTableRecord
  2
PHANTOM
 70
     0
  3
_____ _ _ _____ _ _ _____ _ _ _____ _ _ _____
 72
    65
 73
     6
 40
13.5
 49
9.0
 74
     0
 49
-1.0
 74
     0
 49
1.0
 74
     0
 49
-0.5
 74
     0
 49
1.0
 74
     0
 49
-1.0
 74
     0
  0
LTYPE
  5
13
100
AcDbSymbolTableRecord
100
AcDbLinetypeTableRecord
  2
DOT
 70
     0
  3
...............................................
 72
    65
 73
     2
 40
1.0
 49
0.5
 74
     0
 49
-0.5
 74
     0
  0
LTYPE
  5
14
100
AcDbSymbolTableRecord
100
AcDbLinetypeTableRecord
  2
DASHDOT
 70
     0
  3
__ . __ . __ . __ . __ . __ . __ . __ . __ . __
 72
    65
 73
     4
 40
8.0
 49
5.0
 74
     0
 49
-1.0
 74
     0
 49
1.0
 74
     0
 49
-1.0
 74
     0
  0
ENDTAB
  0
TABLE
  2
LAYER
  5
1
100
AcDbSymbolTable
 70
     4
  0
LAYER
  5
15
100
AcDbSymbolTableRecord
100
AcDbLayerTableRecord
  2
0
 70
     0
 62
     7
  6
CONTINUOUS
290
     1
370
    -3
390
0
  0
LAYER
  5
16
100
AcDbSymbolTableRecord
100
AcDbLayerTableRecord
  2
1
 70
     0
 62
     7
  6
CONTINUOUS
290
     1
370
    -3
390
0
  0
LAYER
  5
17
100
AcDbSymbolTableRecord
100
AcDbLayerTableRecord
  2
2
 70
     0
 62
     7
  6
CONTINUOUS
290
     1
370
    -3
390
0
  0
LAYER
  5
18
100
AcDbSymbolTableRecord
100
AcDbLayerTableRecord
  2
3
 70
     0
 62
     7
  6
CONTINUOUS
290
     1
370
    -3
390
0
  0
ENDTAB
  0
TABLE
  2
STYLE
  5
2
100
AcDbSymbolTable
 70
     1
  0
STYLE
  5
1B
100
AcDbSymbolTableRecord
100
AcDbTextStyleTableRecord
  2
STANDARD
 70
    64
 40
0.0
 41
1.0
 50
0.0
 71
     0
 42
1.0
  3
txt
  4
BIGFONT
  0
ENDTAB
  0
TABLE
  2
VIEW
  5
4
100
AcDbSymbolTable
 70
     0
  0
ENDTAB
  0
TABLE
  2
UCS
  5
5
100
AcDbSymbolTable
 70
     0
  0
ENDTAB
  0
TABLE
  2
APPID
  5
7
100
AcDbSymbolTable
 70
     1
  0
APPID
  5
1A
100
AcDbSymbolTableRecord
100
AcDbRegAppTableRecord
  2
ACAD
 70
     0
  0
ENDTAB
  0
TABLE
  2
DIMSTYLE
  5
8
100
AcDbSymbolTable
 70
     1
100
AcDbDimStyleTable
 71
     0
  0
DIMSTYLE
105
29
100
AcDbSymbolTableRecord
100
AcDbDimStyleTableRecord
  2
Standard
 70
     0
  3

  4

 40
1.0
 41
2.0
 42
1.0
 43
0.38
 44
2.0
 45
0.0
 46
0.0
 47
0.0
 48
0.0
 71
     0
 72
     0
 73
     0
 74
     0
 75
     0
 76
     0
 77
     1
 78
     0
 79
     0
140
3.5
141
0.09
142
0.0
143
25.4
144
1.0
145
0.0
146
1.0
147
0.5
148
0.0
170
     0
171
     2
172
     0
173
     0
174
     0
175
     0
176
     0
177
     0
178
     0
179
     0
271
     3
272
     4
273
     2
274
     2
275
     0
276
     0
277
     2
278
    46
279
     0
280
     0
281
     0
282
     0
283
     1
284
     0
285
     0
286
     0
288
     0
289
     3
340
1B
341
0
342
0
343
0
344
0
371
    -2
372
    -2
  0
ENDTAB
  0
TABLE
  2
BLOCK_RECORD
  5
24
100
AcDbSymbolTable
 70
     6
  0
BLOCK_RECORD
  5
22
100
AcDbSymbolTableRecord
100
AcDbBlockTableRecord
  2
*Model_Space
340
0
  0
BLOCK_RECORD
  5
23
100
AcDbSymbolTableRecord
100
AcDbBlockTableRecord
  2
*Paper_Space
340
0
  0
BLOCK_RECORD
  5
1C
100
AcDbSymbolTableRecord
100
AcDbBlockTableRecord
  2
*D0
340
0
  0
BLOCK_RECORD
  5
1D
100
AcDbSymbolTableRecord
100
AcDbBlockTableRecord
  2
*D1
340
0
  0
BLOCK_RECORD
  5
1E
100
AcDbSymbolTableRecord
100
AcDbBlockTableRecord
  2
*D2
340
0
  0
BLOCK_RECORD
  5
1F
100
AcDbSymbolTableRecord
100
AcDbBlockTableRecord
  2
*D3
340
0
  0
BLOCK_RECORD
  5
20
100
AcDbSymbolTableRecord
100
AcDbBlockTableRecord
  2
*D4
340
0
  0
BLOCK_RECORD
  5
21
100
AcDbSymbolTableRecord
100
AcDbBlockTableRecord
  2
*D5
340
0
  0
ENDTAB
  0
ENDSEC
  0
SECTION
  2
BLOCKS
  0
BLOCK
  5
25
100
AcDbEntity
  8
0
390
0
100
AcDbBlockBegin
  2
*Model_Space
 70
     0
 10
0.0
 20
0.0
 30
0.0
  3
*Model_Space
  1

  0
ENDBLK
  5
26
100
AcDbEntity
  8
0
390
0
100
AcDbBlockEnd
  0
BLOCK
  5
27
100
AcDbEntity
 67
     1
  8
0
390
0
100
AcDbBlockBegin
  2
*Paper_Space
 70
     0
 10
0.0
 20
0.0
 30
0.0
  3
*Paper_Space
  1

  0
ENDBLK
  5
28
100
AcDbEntity
 67
     1
  8
0
390
0
100
AcDbBlockEnd
  0
BLOCK
  5
1C3
100
AcDbEntity
  8
3
100
AcDbBlockBegin
  2
*D0
 70
     1
 10
0.0
 20
0.0
 30
0.0
  3
*D0
  1

  0
TEXT
  5
1C4
100
AcDbEntity
  8
3
370
    18
100
AcDbText
 10
6.989245
 20
-83.211609
 30
0.0
 40
3.5
  1
７３
 72
     5
 11
13.289245
 21
-83.211609
 31
0.0
100
AcDbText
  0
LINE
  5
1C5
100
AcDbEntity
  8
3
370
    25
100
AcDbLine
 10
-26.010724
 20
-67.985627
 30
0.0
 11
-26.010724
 21
-84.711609
 31
0.0
  0
LINE
  5
1C6
100
AcDbEntity
  8
3
370
    25
100
AcDbLine
 10
-26.010724
 20
-83.711609
 30
0.0
 11
-24.078873
 21
-84.229247
 31
0.0
  0
LINE
  5
1C7
100
AcDbEntity
  8
3
370
    25
100
AcDbLine
 10
-26.010724
 20
-83.711609
 30
0.0
 11
-24.078873
 21
-83.193971
 31
0.0
  0
LINE
  5
1C8
100
AcDbEntity
  8
3
370
    25
100
AcDbLine
 10
-24.078873
 20
-84.229247
 30
0.0
 11
-24.078873
 21
-83.193971
 31
0.0
  0
LINE
  5
1C9
100
AcDbEntity
  8
3
370
    25
100
AcDbLine
 10
-26.010724
 20
-83.711609
 30
0.0
 11
46.989215
 21
-83.711609
 31
0.0
  0
LINE
  5
1CA
100
AcDbEntity
  8
3
370
    25
100
AcDbLine
 10
46.989215
 20
-83.711609
 30
0.0
 11
45.057363
 21
-83.193971
 31
0.0
  0
LINE
  5
1CB
100
AcDbEntity
  8
3
370
    25
100
AcDbLine
 10
46.989215
 20
-83.711609
 30
0.0
 11
45.057363
 21
-84.229247
 31
0.0
  0
LINE
  5
1CC
100
AcDbEntity
  8
3
370
    25
100
AcDbLine
 10
45.057363
 20
-83.193971
 30
0.0
 11
45.057363
 21
-84.229247
 31
0.0
  0
LINE
  5
1CD
100
AcDbEntity
  8
3
370
    25
100
AcDbLine
 10
46.989215
 20
-45.532616
 30
0.0
 11
46.989215
 21
-84.711609
 31
0.0
  0
ENDBLK
  5
1CE
100
AcDbEntity
  8
3
100
AcDbBlockEnd
  0
BLOCK
  5
1CF
100
AcDbEntity
  8
3
100
AcDbBlockBegin
  2
*D1
 70
     1
 10
0.0
 20
0.0
 30
0.0
  3
*D1
  1

  0
TEXT
  5
1D0
100
AcDbEntity
  8
3
370
    18
100
AcDbText
 10
65.989215
 20
-83.211609
 30
0.0
 40
3.5
  1
４５
 72
     5
 11
72.289215
 21
-83.211609
 31
0.0
100
AcDbText
  0
LINE
  5
1D1
100
AcDbEntity
  8
3
370
    25
100
AcDbLine
 10
46.989215
 20
-45.532616
 30
0.0
 11
46.989215
 21
-84.711609
 31
0.0
  0
LINE
  5
1D2
100
AcDbEntity
  8
3
370
    25
100
AcDbLine
 10
46.989215
 20
-83.711609
 30
0.0
 11
48.921067
 21
-84.229247
 31
0.0
  0
LINE
  5
1D3
100
AcDbEntity
  8
3
370
    25
100
AcDbLine
 10
46.989215
 20
-83.711609
 30
0.0
 11
48.921067
 21
-83.193971
 31
0.0
  0
LINE
  5
1D4
100
AcDbEntity
  8
3
370
    25
100
AcDbLine
 10
48.921067
 20
-84.229247
 30
0.0
 11
48.921067
 21
-83.193971
 31
0.0
  0
LINE
  5
1D5
100
AcDbEntity
  8
3
370
    25
100
AcDbLine
 10
46.989215
 20
-83.711609
 30
0.0
 11
91.989215
 21
-83.711609
 31
0.0
  0
LINE
  5
1D6
100
AcDbEntity
  8
3
370
    25
100
AcDbLine
 10
91.989215
 20
-83.711609
 30
0.0
 11
90.057363
 21
-83.193971
 31
0.0
  0
LINE
  5
1D7
100
AcDbEntity
  8
3
370
    25
100
AcDbLine
 10
91.989215
 20
-83.711609
 30
0.0
 11
90.057363
 21
-84.229247
 31
0.0
  0
LINE
  5
1D8
100
AcDbEntity
  8
3
370
    25
100
AcDbLine
 10
90.057363
 20
-83.193971
 30
0.0
 11
90.057363
 21
-84.229247
 31
0.0
  0
LINE
  5
1D9
100
AcDbEntity
  8
3
370
    25
100
AcDbLine
 10
91.989215
 20
-50.985616
 30
0.0
 11
91.989215
 21
-84.711609
 31
0.0
  0
ENDBLK
  5
1DA
100
AcDbEntity
  8
3
100
AcDbBlockEnd
  0
BLOCK
  5
1DB
100
AcDbEntity
  8
3
100
AcDbBlockBegin
  2
*D2
 70
     1
 10
0.0
 20
0.0
 30
0.0
  3
*D2
  1

  0
TEXT
  5
1DC
100
AcDbEntity
  8
3
370
    18
100
AcDbText
 10
95.489215
 20
-83.211609
 30
0.0
 40
3.5
  1
１４
 72
     5
 11
101.789215
 21
-83.211609
 31
0.0
100
AcDbText
  0
LINE
  5
1DD
100
AcDbEntity
  8
3
370
    25
100
AcDbLine
 10
91.989215
 20
-50.985616
 30
0.0
 11
91.989215
 21
-84.711609
 31
0.0
  0
LINE
  5
1DE
100
AcDbEntity
  8
3
370
    25
100
AcDbLine
 10
91.989215
 20
-83.711609
 30
0.0
 11
93.921067
 21
-84.229247
 31
0.0
  0
LINE
  5
1DF
100
AcDbEntity
  8
3
370
    25
100
AcDbLine
 10
91.989215
 20
-83.711609
 30
0.0
 11
93.921067
 21
-83.193971
 31
0.0
  0
LINE
  5
1E0
100
AcDbEntity
  8
3
370
    25
100
AcDbLine
 10
93.921067
 20
-84.229247
 30
0.0
 11
93.921067
 21
-83.193971
 31
0.0
  0
LINE
  5
1E1
100
AcDbEntity
  8
3
370
    25
100
AcDbLine
 10
91.989215
 20
-83.711609
 30
0.0
 11
105.989215
 21
-83.711609
 31
0.0
  0
LINE
  5
1E2
100
AcDbEntity
  8
3
370
    25
100
AcDbLine
 10
105.989215
 20
-83.711609
 30
0.0
 11
104.057363
 21
-83.193971
 31
0.0
  0
LINE
  5
1E3
100
AcDbEntity
  8
3
370
    25
100
AcDbLine
 10
105.989215
 20
-83.711609
 30
0.0
 11
104.057363
 21
-84.229247
 31
0.0
  0
LINE
  5
1E4
100
AcDbEntity
  8
3
370
    25
100
AcDbLine
 10
104.057363
 20
-83.193971
 30
0.0
 11
104.057363
 21
-84.229247
 31
0.0
  0
LINE
  5
1E5
100
AcDbEntity
  8
3
370
    25
100
AcDbLine
 10
105.989215
 20
-37.300616
 30
0.0
 11
105.989215
 21
-84.711609
 31
0.0
  0
ENDBLK
  5
1E6
100
AcDbEntity
  8
3
100
AcDbBlockEnd
  0
BLOCK
  5
1E7
100
AcDbEntity
  8
3
100
AcDbBlockBegin
  2
*D3
 70
     1
 10
0.0
 20
0.0
 30
0.0
  3
*D3
  1

  0
TEXT
  5
1E8
100
AcDbEntity
  8
3
370
    18
100
AcDbText
 10
-59.48317
 20
-50.485622
 30
0.0
 40
3.5
  1
４０
 50
90.0
 72
     5
 11
-59.48317
 21
-44.185622
 31
0.0
100
AcDbText
  0
LINE
  5
1E9
100
AcDbEntity
  8
3
370
    25
100
AcDbLine
 10
-30.229174
 20
-26.985616
 30
0.0
 11
-59.98317
 21
-26.985616
 31
0.0
  0
LINE
  5
1EA
100
AcDbEntity
  8
3
370
    25
100
AcDbLine
 10
-58.98317
 20
-26.985616
 30
0.0
 11
-59.500808
 21
-28.917468
 31
0.0
  0
LINE
  5
1EB
100
AcDbEntity
  8
3
370
    25
100
AcDbLine
 10
-58.98317
 20
-26.985616
 30
0.0
 11
-58.465531
 21
-28.917468
 31
0.0
  0
LINE
  5
1EC
100
AcDbEntity
  8
3
370
    25
100
AcDbLine
 10
-59.500808
 20
-28.917468
 30
0.0
 11
-58.465531
 21
-28.917468
 31
0.0
  0
LINE
  5
1ED
100
AcDbEntity
  8
3
370
    25
100
AcDbLine
 10
-58.98317
 20
-26.985616
 30
0.0
 11
-58.98317
 21
-66.985627
 31
0.0
  0
LINE
  5
1EE
100
AcDbEntity
  8
3
370
    25
100
AcDbLine
 10
-58.98317
 20
-66.985627
 30
0.0
 11
-58.465531
 21
-65.053775
 31
0.0
  0
LINE
  5
1EF
100
AcDbEntity
  8
3
370
    25
100
AcDbLine
 10
-58.98317
 20
-66.985627
 30
0.0
 11
-59.500808
 21
-65.053775
 31
0.0
  0
LINE
  5
1F0
100
AcDbEntity
  8
3
370
    25
100
AcDbLine
 10
-58.465531
 20
-65.053775
 30
0.0
 11
-59.500808
 21
-65.053775
 31
0.0
  0
LINE
  5
1F1
100
AcDbEntity
  8
3
370
    25
100
AcDbLine
 10
-27.010724
 20
-66.985627
 30
0.0
 11
-59.98317
 21
-66.985627
 31
0.0
  0
ENDBLK
  5
1F2
100
AcDbEntity
  8
3
100
AcDbBlockEnd
  0
BLOCK
  5
1F3
100
AcDbEntity
  8
3
100
AcDbBlockBegin
  2
*D4
 70
     1
 10
0.0
 20
0.0
 30
0.0
  3
*D4
  1

  0
TEXT
  5
1F4
100
AcDbEntity
  8
3
370
    18
100
AcDbText
 10
123.977066
 20
66.887606
 30
0.0
 40
3.5
  1
φ４６
 50
90.0
 72
     5
 11
123.977066
 21
76.687606
 31
0.0
100
AcDbText
  0
LINE
  5
1F5
100
AcDbEntity
  8
3
370
    25
100
AcDbLine
 10
92.989215
 20
95.137606
 30
0.0
 11
125.477066
 21
95.137606
 31
0.0
  0
LINE
  5
1F6
100
AcDbEntity
  8
3
370
    25
100
AcDbLine
 10
124.477066
 20
95.137606
 30
0.0
 11
123.959428
 21
93.205754
 31
0.0
  0
LINE
  5
1F7
100
AcDbEntity
  8
3
370
    25
100
AcDbLine
 10
124.477066
 20
95.137606
 30
0.0
 11
124.994704
 21
93.205754
 31
0.0
  0
LINE
  5
1F8
100
AcDbEntity
  8
3
370
    25
100
AcDbLine
 10
123.959428
 20
93.205754
 30
0.0
 11
124.994704
 21
93.205754
 31
0.0
  0
LINE
  5
1F9
100
AcDbEntity
  8
3
370
    25
100
AcDbLine
 10
124.477066
 20
95.137606
 30
0.0
 11
124.477066
 21
49.137606
 31
0.0
  0
LINE
  5
1FA
100
AcDbEntity
  8
3
370
    25
100
AcDbLine
 10
124.477066
 20
49.137606
 30
0.0
 11
124.994704
 21
51.069457
 31
0.0
  0
LINE
  5
1FB
100
AcDbEntity
  8
3
370
    25
100
AcDbLine
 10
124.477066
 20
49.137606
 30
0.0
 11
123.959428
 21
51.069457
 31
0.0
  0
LINE
  5
1FC
100
AcDbEntity
  8
3
370
    25
100
AcDbLine
 10
124.994704
 20
51.069457
 30
0.0
 11
123.959428
 21
51.069457
 31
0.0
  0
LINE
  5
1FD
100
AcDbEntity
  8
3
370
    25
100
AcDbLine
 10
92.989215
 20
49.137606
 30
0.0
 11
125.477066
 21
49.137606
 31
0.0
  0
ENDBLK
  5
1FE
100
AcDbEntity
  8
3
100
AcDbBlockEnd
  0
BLOCK
  5
1FF
100
AcDbEntity
  8
3
100
AcDbBlockBegin
  2
*D5
 70
     1
 10
0.0
 20
0.0
 30
0.0
  3
*D5
  1

  0
TEXT
  5
200
100
AcDbEntity
  8
3
370
    18
100
AcDbText
 10
-59.48317
 20
-17.659116
 30
0.0
 40
3.5
  1
５７（リフト３ｍｉｎ）
 50
90.0
 72
     5
 11
-59.48317
 21
20.140884
 31
0.0
100
AcDbText
  0
LINE
  5
201
100
AcDbEntity
  8
3
370
    25
100
AcDbLine
 10
45.989215
 20
30.167384
 30
0.0
 11
-59.98317
 21
30.167384
 31
0.0
  0
LINE
  5
202
100
AcDbEntity
  8
3
370
    25
100
AcDbLine
 10
-58.98317
 20
30.167384
 30
0.0
 11
-59.500808
 21
28.235532
 31
0.0
  0
LINE
  5
203
100
AcDbEntity
  8
3
370
    25
100
AcDbLine
 10
-58.98317
 20
30.167384
 30
0.0
 11
-58.465531
 21
28.235532
 31
0.0
  0
LINE
  5
204
100
AcDbEntity
  8
3
370
    25
100
AcDbLine
 10
-59.500808
 20
28.235532
 30
0.0
 11
-58.465531
 21
28.235532
 31
0.0
  0
LINE
  5
205
100
AcDbEntity
  8
3
370
    25
100
AcDbLine
 10
-58.98317
 20
30.167384
 30
0.0
 11
-58.98317
 21
-26.985616
 31
0.0
  0
LINE
  5
206
100
AcDbEntity
  8
3
370
    25
100
AcDbLine
 10
-58.98317
 20
-26.985616
 30
0.0
 11
-58.465531
 21
-25.053765
 31
0.0
  0
LINE
  5
207
100
AcDbEntity
  8
3
370
    25
100
AcDbLine
 10
-58.98317
 20
-26.985616
 30
0.0
 11
-59.500808
 21
-25.053765
 31
0.0
  0
LINE
  5
208
100
AcDbEntity
  8
3
370
    25
100
AcDbLine
 10
-58.465531
 20
-25.053765
 30
0.0
 11
-59.500808
 21
-25.053765
 31
0.0
  0
LINE
  5
209
100
AcDbEntity
  8
3
370
    25
100
AcDbLine
 10
-30.229174
 20
-26.985616
 30
0.0
 11
-59.98317
 21
-26.985616
 31
0.0
  0
ENDBLK
  5
20A
100
AcDbEntity
  8
3
100
AcDbBlockEnd
  0
ENDSEC
  0
SECTION
  2
ENTITIES
  0
LINE
  5
2A
100
AcDbEntity
  8
1
370
   100
100
AcDbLine
 10
-186.510785
 20
137.514384
 30
0.0
 11
197.491193
 21
137.514384
 31
0.0
  0
LINE
  5
2B
100
AcDbEntity
  8
1
370
   100
100
AcDbLine
 10
-186.510785
 20
137.514384
 30
0.0
 11
-186.510785
 21
-138.985941
 31
0.0
  0
LINE
  5
2C
100
AcDbEntity
  8
1
370
   100
100
AcDbLine
 10
-186.510785
 20
-138.985941
 30
0.0
 11
197.491193
 21
-138.985941
 31
0.0
  0
LINE
  5
2D
100
AcDbEntity
  8
1
370
   100
100
AcDbLine
 10
197.491193
 20
-138.985941
 30
0.0
 11
197.491193
 21
137.514384
 31
0.0
  0
TEXT
  5
2E
100
AcDbEntity
  8
1
370
    50
100
AcDbText
 10
179.814221
 20
-113.126428
 30
0.0
 40
3.0
  1
設計
 72
     5
 11
185.214221
 21
-113.126428
 31
0.0
100
AcDbText
  0
TEXT
  5
2F
100
AcDbEntity
  8
1
370
    50
100
AcDbText
 10
189.563739
 20
-113.049829
 30
0.0
 40
3.0
  1
製図
 72
     5
 11
194.963739
 21
-113.049829
 31
0.0
100
AcDbText
  0
TEXT
  5
30
100
AcDbEntity
  8
1
370
    50
100
AcDbText
 10
159.502872
 20
-113.126428
 30
0.0
 40
3.0
  1
承認
 72
     5
 11
164.902872
 21
-113.126428
 31
0.0
100
AcDbText
  0
TEXT
  5
31
100
AcDbEntity
  8
1
370
    50
100
AcDbText
 10
169.494839
 20
-113.09901
 30
0.0
 40
3.0
  1
検図
 72
     5
 11
174.894839
 21
-113.09901
 31
0.0
100
AcDbText
  0
LINE
  5
32
100
AcDbEntity
  8
1
370
    25
100
AcDbLine
 10
142.491193
 20
-113.985941
 30
0.0
 11
197.491193
 21
-113.985941
 31
0.0
  0
LINE
  5
33
100
AcDbEntity
  8
1
370
    25
100
AcDbLine
 10
171.241193
 20
-122.985941
 30
0.0
 11
171.241193
 21
-129.985941
 31
0.0
  0
TEXT
  5
34
100
AcDbEntity
  8
1
370
    50
100
AcDbText
 10
159.775795
 20
-128.006264
 30
0.0
 40
3.0
  1
日　付
 72
     5
 11
168.175795
 21
-128.006264
 31
0.0
100
AcDbText
  0
LINE
  5
35
100
AcDbEntity
  8
1
370
    50
100
AcDbLine
 10
20.491193
 20
-129.985941
 30
0.0
 11
197.491193
 21
-129.985941
 31
0.0
  0
TEXT
  5
36
100
AcDbEntity
  8
1
370
    50
100
AcDbText
 10
143.887505
 20
-128.161203
 30
0.0
 40
3.0
  1
第三角法
 72
     5
 11
155.287505
 21
-128.161203
 31
0.0
100
AcDbText
  0
TEXT
  5
37
100
AcDbEntity
  8
1
370
    50
100
AcDbText
 10
145.54371
 20
-112.99901
 30
0.0
 40
3.0
  1
尺　度
 72
     5
 11
153.94371
 21
-112.99901
 31
0.0
100
AcDbText
  0
LINE
  5
38
100
AcDbEntity
  8
1
370
   100
100
AcDbLine
 10
20.491193
 20
-108.985941
 30
0.0
 11
197.491193
 21
-108.985941
 31
0.0
  0
LINE
  5
39
100
AcDbEntity
  8
1
370
    50
100
AcDbLine
 10
105.991193
 20
-108.985941
 30
0.0
 11
105.991193
 21
-138.985941
 31
0.0
  0
LINE
  5
3A
100
AcDbEntity
  8
1
370
    25
100
AcDbLine
 10
187.491193
 20
-122.985941
 30
0.0
 11
187.491193
 21
-108.985941
 31
0.0
  0
LINE
  5
3B
100
AcDbEntity
  8
1
370
    25
100
AcDbLine
 10
177.491193
 20
-122.985941
 30
0.0
 11
177.491193
 21
-108.985941
 31
0.0
  0
LINE
  5
3C
100
AcDbEntity
  8
1
370
    25
100
AcDbLine
 10
167.491193
 20
-122.985941
 30
0.0
 11
167.491193
 21
-108.985941
 31
0.0
  0
LINE
  5
3D
100
AcDbEntity
  8
1
370
    50
100
AcDbLine
 10
142.491193
 20
-138.985941
 30
0.0
 11
142.491193
 21
-108.985941
 31
0.0
  0
LINE
  5
3E
100
AcDbEntity
  8
1
370
    50
100
AcDbLine
 10
94.991193
 20
-108.985941
 30
0.0
 11
94.991193
 21
-138.985941
 31
0.0
  0
LINE
  5
3F
100
AcDbEntity
  8
1
370
    50
100
AcDbLine
 10
31.491193
 20
-108.985941
 30
0.0
 11
31.491193
 21
-129.985941
 31
0.0
  0
LINE
  5
40
100
AcDbEntity
  8
1
370
    50
100
AcDbLine
 10
142.491193
 20
-122.985941
 30
0.0
 11
197.491193
 21
-122.985941
 31
0.0
  0
TEXT
  5
41
100
AcDbEntity
  8
1
370
    50
100
AcDbText
 10
143.550565
 20
-135.940469
 30
0.0
 40
3.0
  1
コードＮｏ
 41
0.9
 72
     5
 11
156.510565
 21
-135.940469
 31
0.0
100
AcDbText
  0
TEXT
  5
42
100
AcDbEntity
  8
1
370
   100
100
AcDbText
 10
26.443387
 20
-136.43783
 30
0.0
 40
4.0
  1
ミズタニバルブ工業株式会社
 41
1.2
 72
     5
 11
87.883387
 21
-136.43783
 31
0.0
100
AcDbText
  0
LINE
  5
43
100
AcDbEntity
  8
1
370
    50
100
AcDbLine
 10
20.491193
 20
-119.485941
 30
0.0
 11
142.491193
 21
-119.485941
 31
0.0
  0
LINE
  5
44
100
AcDbEntity
  8
1
370
    50
100
AcDbLine
 10
57.741193
 20
-119.485941
 30
0.0
 11
57.741193
 21
-129.985941
 31
0.0
  0
LINE
  5
45
100
AcDbEntity
  8
1
370
    50
100
AcDbLine
 10
68.741193
 20
-119.485941
 30
0.0
 11
68.741193
 21
-129.985941
 31
0.0
  0
LINE
  5
46
100
AcDbEntity
  8
1
370
    50
100
AcDbLine
 10
157.491193
 20
-138.985941
 30
0.0
 11
157.491193
 21
-108.985941
 31
0.0
  0
TEXT
  5
47
100
AcDbEntity
  8
1
370
    50
100
AcDbText
 10
172.549065
 20
-128.050147
 30
0.0
 40
3.0
  1
　　・　　・
 72
     5
 11
189.949065
 21
-128.050147
 31
0.0
100
AcDbText
  0
LINE
  5
48
100
AcDbEntity
  8
1
370
   100
100
AcDbLine
 10
20.491193
 20
-108.985941
 30
0.0
 11
20.491193
 21
-138.985941
 31
0.0
  0
TEXT
  5
49
100
AcDbEntity
  8
1
370
    50
100
AcDbText
 10
145.416291
 20
-120.006746
 30
0.0
 40
3.0
  1
　／ 
 72
     5
 11
150.816291
 21
-120.006746
 31
0.0
100
AcDbText
  0
TEXT
  5
4A
100
AcDbEntity
  8
1
370
    50
100
AcDbText
 10
96.952061
 20
-136.012454
 30
0.0
 40
3.0
  1
備 考 
 72
     5
 11
103.852061
 21
-136.012454
 31
0.0
100
AcDbText
  0
TEXT
  5
4B
100
AcDbEntity
  8
1
370
    50
100
AcDbText
 10
96.756267
 20
-115.44592
 30
0.0
 40
3.0
  1
仕 上
 72
     5
 11
103.656267
 21
-115.44592
 31
0.0
100
AcDbText
  0
TEXT
  5
4C
100
AcDbEntity
  8
1
370
    50
100
AcDbText
 10
96.723588
 20
-124.445833
 30
0.0
 40
3.0
  1
表 面
 72
     5
 11
103.623588
 21
-124.445833
 31
0.0
100
AcDbText
  0
TEXT
  5
4D
100
AcDbEntity
  8
1
370
    50
100
AcDbText
 10
96.723588
 20
-127.945833
 30
0.0
 40
3.0
  1
処 理
 72
     5
 11
103.623588
 21
-127.945833
 31
0.0
100
AcDbText
  0
TEXT
  5
4E
100
AcDbEntity
  8
1
370
    50
100
AcDbText
 10
22.396675
 20
-115.8467
 30
0.0
 40
3.0
  1
品 名
 72
     5
 11
29.296675
 21
-115.8467
 31
0.0
100
AcDbText
  0
TEXT
  5
4F
100
AcDbEntity
  8
1
370
    50
100
AcDbText
 10
22.198883
 20
-126.231267
 30
0.0
 40
3.0
  1
材 質
 72
     5
 11
29.098883
 21
-126.231267
 31
0.0
100
AcDbText
  0
TEXT
  5
50
100
AcDbEntity
  8
1
370
    50
100
AcDbText
 10
59.448883
 20
-126.231267
 30
0.0
 40
3.0
  1
規 格
 72
     5
 11
66.348883
 21
-126.231267
 31
0.0
100
AcDbText
  0
ARC
  5
51
100
AcDbEntity
  8
2
370
    50
100
AcDbCircle
 10
46.989215
 20
-11.485616
 30
0.0
 40
28.5
100
AcDbArc
 50
249.211
 51
293.447
  0
LINE
  5
52
100
AcDbEntity
  8
2
370
    50
100
AcDbLine
 10
68.674215
 20
-35.485616
 30
0.0
 11
85.489215
 21
-35.485616
 31
0.0
  0
ARC
  5
53
100
AcDbEntity
  8
2
370
    50
100
AcDbCircle
 10
68.674215
 20
-61.485616
 30
0.0
 40
26.0
100
AcDbArc
 50
90.0
 51
113.447
  0
LINE
  5
54
100
AcDbEntity
  8
2
370
    50
100
AcDbLine
 10
105.989215
 20
-36.300616
 30
0.0
 11
104.827215
 21
-37.462616
 31
0.0
  0
LINE
  5
55
100
AcDbEntity
  8
2
370
    25
100
AcDbLine
 10
105.989215
 20
-36.300616
 30
0.0
 11
94.002215
 21
-36.300616
 31
0.0
  0
LINE
  5
56
100
AcDbEntity
  8
2
370
    50
100
AcDbLine
 10
94.002215
 20
-36.300616
 30
0.0
 11
91.989215
 21
-37.462616
 31
0.0
  0
LINE
  5
57
100
AcDbEntity
  8
2
370
    50
100
AcDbLine
 10
91.989215
 20
-37.462616
 30
0.0
 11
104.827215
 21
-37.462616
 31
0.0
  0
LINE
  5
58
100
AcDbEntity
  8
2
370
    50
100
AcDbLine
 10
91.989215
 20
-49.985616
 30
0.0
 11
91.989215
 21
-26.985616
 31
0.0
  0
ARC
  5
59
100
AcDbEntity
  8
2
370
    50
100
AcDbCircle
 10
85.489215
 20
-39.485616
 30
0.0
 40
4.0
100
AcDbArc
 50
0.0
 51
90.0
  0
ARC
  5
5A
100
AcDbEntity
  8
2
370
    50
100
AcDbCircle
 10
91.489215
 20
-47.985616
 30
0.0
 40
2.0
100
AcDbArc
 50
180.001
 51
270.0
  0
LINE
  5
5B
100
AcDbEntity
  8
2
370
    50
100
AcDbLine
 10
89.489215
 20
-47.985616
 30
0.0
 11
89.489215
 21
-26.985616
 31
0.0
  0
LINE
  5
5C
100
AcDbEntity
  8
2
370
    50
100
AcDbLine
 10
91.489215
 20
-49.985616
 30
0.0
 11
91.989215
 21
-49.985616
 31
0.0
  0
LINE
  5
5D
100
AcDbEntity
  8
2
370
    50
100
AcDbLine
 10
105.989215
 20
-26.985616
 30
0.0
 11
105.989215
 21
-36.300616
 31
0.0
  0
LINE
  5
5E
100
AcDbEntity
  8
2
370
    50
100
AcDbLine
 10
105.989215
 20
-26.985616
 30
0.0
 11
105.989215
 21
-17.670616
 31
0.0
  0
LINE
  5
5F
100
AcDbEntity
  8
2
370
    50
100
AcDbLine
 10
91.489215
 20
-3.985616
 30
0.0
 11
91.989215
 21
-3.985616
 31
0.0
  0
LINE
  5
60
100
AcDbEntity
  8
2
370
    50
100
AcDbLine
 10
89.489215
 20
-5.985616
 30
0.0
 11
89.489215
 21
-26.985616
 31
0.0
  0
ARC
  5
61
100
AcDbEntity
  8
2
370
    50
100
AcDbCircle
 10
91.489215
 20
-5.985616
 30
0.0
 40
2.0
100
AcDbArc
 50
90.0
 51
180.001
  0
ARC
  5
62
100
AcDbEntity
  8
2
370
    50
100
AcDbCircle
 10
85.489215
 20
-14.485616
 30
0.0
 40
4.0
100
AcDbArc
 50
270.0
 51
360.0
  0
LINE
  5
63
100
AcDbEntity
  8
2
370
    50
100
AcDbLine
 10
91.989215
 20
-3.985616
 30
0.0
 11
91.989215
 21
-26.985616
 31
0.0
  0
LINE
  5
64
100
AcDbEntity
  8
2
370
    50
100
AcDbLine
 10
91.989215
 20
-16.508616
 30
0.0
 11
104.827215
 21
-16.508616
 31
0.0
  0
LINE
  5
65
100
AcDbEntity
  8
2
370
    50
100
AcDbLine
 10
94.002215
 20
-17.670616
 30
0.0
 11
91.989215
 21
-16.508616
 31
0.0
  0
LINE
  5
66
100
AcDbEntity
  8
2
370
    25
100
AcDbLine
 10
105.989215
 20
-17.670616
 30
0.0
 11
94.002215
 21
-17.670616
 31
0.0
  0
LINE
  5
67
100
AcDbEntity
  8
2
370
    50
100
AcDbLine
 10
105.989215
 20
-17.670616
 30
0.0
 11
104.827215
 21
-16.508616
 31
0.0
  0
LINE
  5
68
100
AcDbEntity
  8
2
370
    50
100
AcDbLine
 10
23.989215
 20
-26.985616
 30
0.0
 11
23.989215
 21
-13.985616
 31
0.0
  0
LINE
  5
69
100
AcDbEntity
  8
2
370
    50
100
AcDbLine
 10
23.989215
 20
-13.985616
 30
0.0
 11
22.24021
 21
-13.985616
 31
0.0
  0
LINE
  5
6A
100
AcDbEntity
  8
2
370
    50
100
AcDbLine
 10
23.989215
 20
-26.985616
 30
0.0
 11
23.989215
 21
-39.985616
 31
0.0
  0
LINE
  5
6B
100
AcDbEntity
  8
2
370
    50
100
AcDbLine
 10
23.989215
 20
-39.985616
 30
0.0
 11
22.24021
 21
-39.985616
 31
0.0
  0
LINE
  5
6C
100
AcDbEntity
  8
2
370
    50
100
AcDbLine
 10
22.24021
 20
-14.798616
 30
0.0
 11
25.064215
 21
-14.798616
 31
0.0
  0
LINE
  5
6D
100
AcDbEntity
  8
2
370
    50
100
AcDbLine
 10
35.802215
 20
-0.972614
 30
0.0
 11
35.802215
 21
-1.577616
 31
0.0
  0
LINE
  5
6E
100
AcDbEntity
  8
2
370
    50
100
AcDbLine
 10
35.802215
 20
-1.577616
 30
0.0
 11
34.989215
 21
-2.985616
 31
0.0
  0
LINE
  5
6F
100
AcDbEntity
  8
2
370
    50
100
AcDbLine
 10
58.176215
 20
-0.972614
 30
0.0
 11
58.176215
 21
-1.577616
 31
0.0
  0
LINE
  5
70
100
AcDbEntity
  8
2
370
    50
100
AcDbLine
 10
58.176215
 20
-1.577616
 30
0.0
 11
58.989215
 21
-2.985616
 31
0.0
  0
LINE
  5
71
100
AcDbEntity
  8
2
370
    50
100
AcDbLine
 10
34.989215
 20
-1.577616
 30
0.0
 11
46.989215
 21
-1.577616
 31
0.0
  0
LINE
  5
72
100
AcDbEntity
  8
2
370
    50
100
AcDbLine
 10
46.989215
 20
-1.577616
 30
0.0
 11
58.989215
 21
-1.577616
 31
0.0
  0
ARC
  5
73
100
AcDbEntity
  8
2
370
    50
100
AcDbCircle
 10
68.989215
 20
-8.485616
 30
0.0
 40
10.0
100
AcDbArc
 50
180.001
 51
270.0
  0
LINE
  5
74
100
AcDbEntity
  8
2
370
    50
100
AcDbLine
 10
58.989215
 20
-8.485616
 30
0.0
 11
58.989215
 21
-0.972614
 31
0.0
  0
LINE
  5
75
100
AcDbEntity
  8
2
370
    50
100
AcDbLine
 10
68.989215
 20
-18.485616
 30
0.0
 11
85.489215
 21
-18.485616
 31
0.0
  0
ARC
  5
76
100
AcDbEntity
  8
2
370
    50
100
AcDbCircle
 10
31.953215
 20
-53.368616
 30
0.0
 40
16.0
100
AcDbArc
 50
70.252
 51
103.56
  0
ARC
  5
77
100
AcDbEntity
  8
2
370
    50
100
AcDbCircle
 10
30.546215
 20
-47.535616
 30
0.0
 40
10.0
100
AcDbArc
 50
103.56
 51
130.975
  0
LINE
  5
78
100
AcDbEntity
  8
2
370
    50
100
AcDbLine
 10
25.064215
 20
-39.172616
 30
0.0
 11
22.24021
 21
-39.172616
 31
0.0
  0
ARC
  5
79
100
AcDbEntity
  8
2
370
    50
100
AcDbCircle
 10
29.989215
 20
-11.404616
 30
0.0
 40
5.0
100
AcDbArc
 50
263.601
 51
360.0
  0
LINE
  5
7A
100
AcDbEntity
  8
2
370
    50
100
AcDbLine
 10
34.989215
 20
-11.404616
 30
0.0
 11
34.989215
 21
-0.972614
 31
0.0
  0
ARC
  5
7B
100
AcDbEntity
  8
2
370
    50
100
AcDbCircle
 10
30.546215
 20
-6.435616
 30
0.0
 40
10.0
100
AcDbArc
 50
229.026
 51
263.601
  0
LINE
  5
7C
100
AcDbEntity
  8
2
370
    50
100
AcDbLine
 10
94.002215
 20
-26.985616
 30
0.0
 11
94.002215
 21
-16.508616
 31
0.0
  0
LINE
  5
7D
100
AcDbEntity
  8
2
370
    50
100
AcDbLine
 10
94.002215
 20
-26.985616
 30
0.0
 11
94.002215
 21
-37.462616
 31
0.0
  0
LINE
  5
7E
100
AcDbEntity
  8
2
370
    50
100
AcDbLine
 10
40.239215
 20
26.714384
 30
0.0
 11
46.989215
 21
26.714384
 31
0.0
  0
LINE
  5
7F
100
AcDbEntity
  8
2
370
    50
100
AcDbLine
 10
53.739215
 20
26.714384
 30
0.0
 11
46.989215
 21
26.714384
 31
0.0
  0
LINE
  5
80
100
AcDbEntity
  8
2
370
    50
100
AcDbLine
 10
51.739215
 20
11.027386
 30
0.0
 11
51.739215
 21
16.714384
 31
0.0
  0
LINE
  5
81
100
AcDbEntity
  8
2
370
    50
100
AcDbLine
 10
42.239215
 20
11.027386
 30
0.0
 11
42.239215
 21
16.714384
 31
0.0
  0
ARC
  5
82
100
AcDbEntity
  8
2
370
    50
100
AcDbCircle
 10
4.117215
 20
-54.485616
 30
0.0
 40
19.6
100
AcDbArc
 50
90.0
 51
170.0
  0
ARC
  5
83
100
AcDbEntity
  8
2
370
    50
100
AcDbCircle
 10
4.117215
 20
-54.485616
 30
0.0
 40
35.4
100
AcDbArc
 50
90.0
 51
170.0
  0
LINE
  5
84
100
AcDbEntity
  8
2
370
    50
100
AcDbLine
 10
-30.744785
 20
-48.338616
 30
0.0
 11
-32.922785
 21
-60.689616
 31
0.0
  0
LINE
  5
85
100
AcDbEntity
  8
2
370
    50
100
AcDbLine
 10
4.117215
 20
-34.885616
 30
0.0
 11
11.24021
 21
-34.885616
 31
0.0
  0
LINE
  5
86
100
AcDbEntity
  8
2
370
    50
100
AcDbLine
 10
4.117215
 20
-19.085616
 30
0.0
 11
11.24021
 21
-19.085616
 31
0.0
  0
ARC
  5
87
100
AcDbEntity
  8
2
370
    50
100
AcDbCircle
 10
-20.193785
 20
-65.671616
 30
0.0
 40
2.75
100
AcDbArc
 50
293.055
 51
350.0
  0
ARC
  5
88
100
AcDbEntity
  8
2
370
    50
100
AcDbCircle
 10
-31.026785
 20
-63.760616
 30
0.0
 40
2.75
100
AcDbArc
 50
170.0
 51
226.945
  0
LINE
  5
89
100
AcDbEntity
  8
2
370
    50
100
AcDbLine
 10
-19.116785
 20
-68.201616
 30
0.0
 11
-32.904785
 21
-65.769616
 31
0.0
  0
ARC
  5
8A
100
AcDbEntity
  8
2
370
    50
100
AcDbCircle
 10
-27.785785
 20
-63.723616
 30
0.0
 40
5.966
100
AcDbArc
 50
149.434
 51
175.77
  0
LINE
  5
8B
100
AcDbEntity
  8
2
370
    50
100
AcDbLine
 10
-17.362128
 20
-63.432649
 30
0.0
 11
-15.184785
 21
-51.081616
 31
0.0
  0
ARC
  5
8C
100
AcDbEntity
  8
2
370
    50
100
AcDbCircle
 10
-23.226785
 20
-64.527616
 30
0.0
 40
5.966
100
AcDbArc
 50
344.231
 51
9.747
  0
ARC
  5
8D
100
AcDbEntity
  8
2
370
    50
100
AcDbCircle
 10
21.989215
 20
72.137645
 30
0.0
 40
6.0
100
AcDbArc
 50
106.00902
 51
256.88801
  0
ARC
  5
8E
100
AcDbEntity
  8
2
370
    50
100
AcDbCircle
 10
80.989215
 20
72.137606
 30
0.0
 40
20.0
100
AcDbArc
 50
166.357726
 51
193.607133
  0
LINE
  5
8F
100
AcDbEntity
  8
2
370
    50
100
AcDbLine
 10
65.328478
 20
92.408578
 30
0.0
 11
61.55347
 21
76.85479
 31
0.0
  0
LINE
  5
90
100
AcDbEntity
  8
2
370
    50
100
AcDbLine
 10
65.230427
 20
52.229963
 30
0.0
 11
61.550581
 21
67.432343
 31
0.0
  0
ARC
  5
91
100
AcDbEntity
  8
2
370
    50
100
AcDbCircle
 10
29.989215
 20
42.692742
 30
0.0
 40
20.0
100
AcDbArc
 50
46.357726
 51
73.607133
  0
LINE
  5
92
100
AcDbEntity
  8
2
370
    50
100
AcDbLine
 10
55.374761
 20
46.119852
 30
0.0
 11
43.792288
 21
57.165999
 31
0.0
  0
LINE
  5
93
100
AcDbEntity
  8
2
370
    50
100
AcDbLine
 10
20.628084
 20
66.294074
 30
0.0
 11
35.633656
 21
61.879724
 31
0.0
  0
LINE
  5
94
100
AcDbEntity
  8
2
370
    50
100
AcDbLine
 10
20.264407
 20
77.884387
 30
0.0
 11
35.621887
 21
82.392029
 31
0.0
  0
ARC
  5
95
100
AcDbEntity
  8
2
370
    50
100
AcDbCircle
 10
59.489181
 20
50.486951
 30
0.0
 40
6.0
100
AcDbArc
 50
226.00902
 51
16.88801
  0
LINE
  5
96
100
AcDbEntity
  8
2
370
    50
100
AcDbLine
 10
55.109134
 20
97.88878
 30
0.0
 11
43.783409
 21
87.10075
 31
0.0
  0
ARC
  5
97
100
AcDbEntity
  8
2
370
    50
100
AcDbCircle
 10
59.489249
 20
93.788221
 30
0.0
 40
6.0
100
AcDbArc
 50
343.086916
 51
136.88801
  0
ARC
  5
98
100
AcDbEntity
  8
2
370
    50
100
AcDbCircle
 10
29.989215
 20
101.58247
 30
0.0
 40
20.0
100
AcDbArc
 50
286.357726
 51
313.607133
  0
ARC
  5
99
100
AcDbEntity
  8
2
370
    50
100
AcDbCircle
 10
-115.269648
 20
20.714384
 30
0.0
 40
6.0
100
AcDbArc
 50
2.599999
 51
90.0
  0
LINE
  5
9A
100
AcDbEntity
  8
2
370
    50
100
AcDbLine
 10
-109.081827
 20
16.714384
 30
0.0
 11
-109.275825
 21
20.986562
 31
0.0
  0
LINE
  5
9B
100
AcDbEntity
  8
2
370
    50
100
AcDbLine
 10
-127.986393
 20
16.714384
 30
0.0
 11
-127.792395
 21
20.986562
 31
0.0
  0
ARC
  5
9C
100
AcDbEntity
  8
2
370
    50
100
AcDbCircle
 10
-121.798572
 20
20.714384
 30
0.0
 40
6.0
100
AcDbArc
 50
90.0
 51
177.400001
  0
LINE
  5
9D
100
AcDbEntity
  8
2
370
    50
100
AcDbLine
 10
-131.534131
 20
-0.694325
 30
0.0
 11
-131.533721
 21
7.749533
 31
0.0
  0
ARC
  5
9E
100
AcDbEntity
  8
2
370
    50
100
AcDbCircle
 10
-128.85511
 20
3.527386
 30
0.0
 40
5.0
100
AcDbArc
 50
237.601537
 51
244.158
  0
ARC
  5
9F
100
AcDbEntity
  8
2
370
    50
100
AcDbCircle
 10
-128.85511
 20
3.527386
 30
0.0
 40
5.0
100
AcDbArc
 50
108.491
 51
122.398463
  0
LINE
  5
A0
100
AcDbEntity
  8
2
370
    50
100
AcDbLine
 10
-128.913098
 20
7.166386
 30
0.0
 11
-131.534131
 21
7.166386
 31
0.0
  0
LINE
  5
A1
100
AcDbEntity
  8
2
370
    50
100
AcDbLine
 10
-128.913098
 20
7.166386
 30
0.0
 11
-128.913098
 21
-0.111614
 31
0.0
  0
LINE
  5
A2
100
AcDbEntity
  8
2
370
    50
100
AcDbLine
 10
-131.534131
 20
-0.111614
 30
0.0
 11
-128.913098
 21
-0.111614
 31
0.0
  0
ELLIPSE
  5
A3
100
AcDbEntity
  8
2
370
    50
100
AcDbEllipse
 10
-125.03412
 20
7.166386
 30
0.0
 11
-3.878978
 21
0.0
 31
0.0
210
0.0
220
0.0
230
1.0
 40
0.137407
 41
3.1415929999999999
 42
0.0
  0
ELLIPSE
  5
A4
100
AcDbEntity
  8
2
370
    50
100
AcDbEllipse
 10
-125.03412
 20
-0.111614
 30
0.0
 11
-3.878978
 21
0.0
 31
0.0
210
0.0
220
0.0
230
1.0
 40
0.221966
 41
0.0
 42
3.1415929999999999
  0
ELLIPSE
  5
A5
100
AcDbEntity
  8
2
370
    50
100
AcDbEllipse
 10
-112.0341
 20
-0.111614
 30
0.0
 11
3.878978
 21
0.0
 31
0.0
210
0.0
220
0.0
230
1.0
 40
0.221966
 41
3.1415929999999999
 42
0.0
  0
ELLIPSE
  5
A6
100
AcDbEntity
  8
2
370
    50
100
AcDbEllipse
 10
-112.0341
 20
7.166386
 30
0.0
 11
3.878978
 21
0.0
 31
0.0
210
0.0
220
0.0
230
1.0
 40
0.137407
 41
0.0
 42
3.1415929999999999
  0
LINE
  5
A7
100
AcDbEntity
  8
2
370
    50
100
AcDbLine
 10
-105.534089
 20
-0.111614
 30
0.0
 11
-108.155122
 21
-0.111614
 31
0.0
  0
LINE
  5
A8
100
AcDbEntity
  8
2
370
    50
100
AcDbLine
 10
-108.155122
 20
7.166386
 30
0.0
 11
-108.155122
 21
-0.111614
 31
0.0
  0
LINE
  5
A9
100
AcDbEntity
  8
2
370
    50
100
AcDbLine
 10
-108.155122
 20
7.166386
 30
0.0
 11
-105.534089
 21
7.166386
 31
0.0
  0
LINE
  5
AA
100
AcDbEntity
  8
2
370
    50
100
AcDbLine
 10
34.489215
 20
-0.972614
 30
0.0
 11
46.989215
 21
-0.972614
 31
0.0
  0
ARC
  5
AB
100
AcDbEntity
  8
2
370
    50
100
AcDbCircle
 10
36.668215
 20
3.527386
 30
0.0
 40
5.0
100
AcDbArc
 50
108.491
 51
133.306
  0
ARC
  5
AC
100
AcDbEntity
  8
2
370
    50
100
AcDbCircle
 10
36.668215
 20
3.527386
 30
0.0
 40
5.0
100
AcDbArc
 50
226.694
 51
244.158
  0
LINE
  5
AD
100
AcDbEntity
  8
2
370
    50
100
AcDbLine
 10
33.239215
 20
-0.111614
 30
0.0
 11
33.239215
 21
7.166386
 31
0.0
  0
LINE
  5
AE
100
AcDbEntity
  8
2
370
    50
100
AcDbLine
 10
60.739215
 20
-0.111614
 30
0.0
 11
60.739215
 21
7.166386
 31
0.0
  0
ARC
  5
AF
100
AcDbEntity
  8
2
370
    50
100
AcDbCircle
 10
57.310215
 20
3.527386
 30
0.0
 40
5.0
100
AcDbArc
 50
295.842
 51
313.306
  0
ARC
  5
B0
100
AcDbEntity
  8
2
370
    50
100
AcDbCircle
 10
57.310215
 20
3.527386
 30
0.0
 40
5.0
100
AcDbArc
 50
46.695
 51
71.509
  0
LINE
  5
B1
100
AcDbEntity
  8
2
370
    50
100
AcDbLine
 10
59.489215
 20
-0.972614
 30
0.0
 11
46.989215
 21
-0.972614
 31
0.0
  0
LINE
  5
B2
100
AcDbEntity
  8
2
370
    50
100
AcDbLine
 10
56.008215
 20
7.166386
 30
0.0
 11
51.468215
 21
7.166386
 31
0.0
  0
LINE
  5
B3
100
AcDbEntity
  8
2
370
    50
100
AcDbLine
 10
51.468215
 20
-0.111614
 30
0.0
 11
56.008215
 21
-0.111614
 31
0.0
  0
LINE
  5
B4
100
AcDbEntity
  8
2
370
    50
100
AcDbLine
 10
56.008215
 20
7.166386
 30
0.0
 11
56.008215
 21
-0.111614
 31
0.0
  0
LINE
  5
B5
100
AcDbEntity
  8
2
370
    50
100
AcDbLine
 10
51.468215
 20
7.166386
 30
0.0
 11
51.468215
 21
-0.111614
 31
0.0
  0
ARC
  5
B6
100
AcDbEntity
  8
2
370
    50
100
AcDbCircle
 10
62.675215
 20
25.868386
 30
0.0
 40
18.0
100
AcDbArc
 50
235.535
 51
257.878
  0
ARC
  5
B7
100
AcDbEntity
  8
2
370
    50
100
AcDbCircle
 10
31.303215
 20
25.868386
 30
0.0
 40
18.0
100
AcDbArc
 50
282.122
 51
304.465
  0
LINE
  5
B8
100
AcDbEntity
  8
2
370
    50
100
AcDbLine
 10
41.489215
 20
11.027386
 30
0.0
 11
52.489215
 21
11.027386
 31
0.0
  0
LINE
  5
B9
100
AcDbEntity
  8
2
370
    50
100
AcDbLine
 10
42.510215
 20
7.166386
 30
0.0
 11
42.510215
 21
-0.111614
 31
0.0
  0
LINE
  5
BA
100
AcDbEntity
  8
2
370
    50
100
AcDbLine
 10
37.970215
 20
7.166386
 30
0.0
 11
37.970215
 21
-0.111614
 31
0.0
  0
LINE
  5
BB
100
AcDbEntity
  8
2
370
    50
100
AcDbLine
 10
42.510215
 20
-0.111614
 30
0.0
 11
37.970215
 21
-0.111614
 31
0.0
  0
LINE
  5
BC
100
AcDbEntity
  8
2
370
    50
100
AcDbLine
 10
37.970215
 20
7.166386
 30
0.0
 11
42.510215
 21
7.166386
 31
0.0
  0
ELLIPSE
  5
BD
100
AcDbEntity
  8
2
370
    50
100
AcDbEllipse
 10
46.989215
 20
7.166386
 30
0.0
 11
4.4790000000000001
 21
0.0
 31
0.0
210
0.0
220
0.0
230
1.0
 40
0.119
 41
0.0
 42
3.1415929999999999
  0
ELLIPSE
  5
BE
100
AcDbEntity
  8
2
370
    50
100
AcDbEllipse
 10
58.373715
 20
7.166361
 30
0.0
 11
2.3654999999999999
 21
-0.000025
 31
0.0
210
0.0
220
0.0
230
1.0
 40
0.225135
 41
0.506074
 42
3.1415929999999999
  0
ELLIPSE
  5
BF
100
AcDbEntity
  8
2
370
    50
100
AcDbEllipse
 10
46.989215
 20
-0.111614
 30
0.0
 11
4.4790000000000001
 21
0.0
 31
0.0
210
0.0
220
0.0
230
1.0
 40
0.19223
 41
3.1415929999999999
 42
0.0
  0
ELLIPSE
  5
C0
100
AcDbEntity
  8
2
370
    50
100
AcDbEllipse
 10
58.373715
 20
-0.111614
 30
0.0
 11
2.3654999999999999
 21
0.0
 31
0.0
210
0.0
220
0.0
230
1.0
 40
0.363982
 41
3.1415929999999999
 42
4.7130210000000003
  0
ELLIPSE
  5
C1
100
AcDbEntity
  8
2
370
    50
100
AcDbEllipse
 10
35.604715
 20
-0.111614
 30
0.0
 11
-2.3654999999999999
 21
0.0
 31
0.0
210
0.0
220
0.0
230
1.0
 40
0.363982
 41
1.5701639999999999
 42
3.1415929999999999
  0
ELLIPSE
  5
C2
100
AcDbEntity
  8
2
370
    50
100
AcDbEllipse
 10
35.604715
 20
7.166361
 30
0.0
 11
-2.3654999999999999
 21
-0.000025
 31
0.0
210
0.0
220
0.0
230
1.0
 40
0.225135
 41
3.1415929999999999
 42
5.7771109999999997
  0
LINE
  5
C3
100
AcDbEntity
  8
2
370
    50
100
AcDbLine
 10
-121.155142
 20
7.166386
 30
0.0
 11
-115.913078
 21
7.166386
 31
0.0
  0
LINE
  5
C4
100
AcDbEntity
  8
2
370
    50
100
AcDbLine
 10
-115.913078
 20
-0.111614
 30
0.0
 11
-121.155142
 21
-0.111614
 31
0.0
  0
LINE
  5
C5
100
AcDbEntity
  8
2
370
    50
100
AcDbLine
 10
-121.155142
 20
7.166386
 30
0.0
 11
-121.155142
 21
-0.111614
 31
0.0
  0
LINE
  5
C6
100
AcDbEntity
  8
2
370
    50
100
AcDbLine
 10
-115.913078
 20
7.166386
 30
0.0
 11
-115.913078
 21
-0.111614
 31
0.0
  0
LINE
  5
C7
100
AcDbEntity
  8
2
370
    50
100
AcDbLine
 10
-124.03411
 20
11.027386
 30
0.0
 11
-113.03411
 21
11.027386
 31
0.0
  0
ARC
  5
C8
100
AcDbEntity
  8
2
370
    50
100
AcDbCircle
 10
-134.22011
 20
25.868386
 30
0.0
 40
18.0
100
AcDbArc
 50
282.122
 51
304.465
  0
ARC
  5
C9
100
AcDbEntity
  8
2
370
    50
100
AcDbCircle
 10
-102.84811
 20
25.868386
 30
0.0
 40
18.0
100
AcDbArc
 50
235.535
 51
257.878
  0
LINE
  5
CA
100
AcDbEntity
  8
2
370
    50
100
AcDbLine
 10
-106.03411
 20
-0.972614
 30
0.0
 11
-118.53411
 21
-0.972614
 31
0.0
  0
ARC
  5
CB
100
AcDbEntity
  8
2
370
    50
100
AcDbCircle
 10
-108.21311
 20
3.527386
 30
0.0
 40
5.0
100
AcDbArc
 50
57.601537
 51
71.509
  0
ARC
  5
CC
100
AcDbEntity
  8
2
370
    50
100
AcDbCircle
 10
-108.21311
 20
3.527386
 30
0.0
 40
5.0
100
AcDbArc
 50
295.842
 51
302.398463
  0
LINE
  5
CD
100
AcDbEntity
  8
2
370
    50
100
AcDbLine
 10
-105.534089
 20
-0.694325
 30
0.0
 11
-105.534499
 21
7.749533
 31
0.0
  0
ARC
  5
CE
100
AcDbEntity
  8
2
370
    50
100
AcDbCircle
 10
-128.85511
 20
3.527386
 30
0.0
 40
5.0
100
AcDbArc
 50
237.601537
 51
244.158
  0
ARC
  5
CF
100
AcDbEntity
  8
2
370
    50
100
AcDbCircle
 10
-128.85511
 20
3.527386
 30
0.0
 40
5.0
100
AcDbArc
 50
108.491
 51
122.392909
  0
LINE
  5
D0
100
AcDbEntity
  8
2
370
    50
100
AcDbLine
 10
-131.03411
 20
-0.972614
 30
0.0
 11
-118.53411
 21
-0.972614
 31
0.0
  0
ARC
  5
D1
100
AcDbEntity
  8
2
370
    50
100
AcDbCircle
 10
-91.409452
 20
17.214384
 30
0.0
 40
0.5
100
AcDbArc
 50
270.0
 51
7.708649
  0
LINE
  5
D2
100
AcDbEntity
  8
2
370
    50
100
AcDbLine
 10
-118.53411
 20
16.714384
 30
0.0
 11
-91.409452
 21
16.714384
 31
0.0
  0
LINE
  5
D3
100
AcDbEntity
  8
2
370
    50
100
AcDbLine
 10
-118.53411
 20
26.714384
 30
0.0
 11
-111.38411
 21
26.714384
 31
0.0
  0
ELLIPSE
  5
D4
100
AcDbEntity
  8
2
370
    50
100
AcDbEllipse
 10
-96.877688
 20
20.720399
 30
0.0
 11
0.0
 21
-5.6912830000000003
 31
0.0
210
0.0
220
0.0
230
1.0
 40
0.956549
 41
1.7111160000000001
 42
3.1415929999999999
  0
LINE
  5
D5
100
AcDbEntity
  8
2
370
    50
100
AcDbLine
 10
-91.487206
 20
21.516379
 30
0.0
 11
-90.913971
 21
17.281452
 31
0.0
  0
LINE
  5
D6
100
AcDbEntity
  8
2
370
    50
100
AcDbLine
 10
-145.581014
 20
21.516379
 30
0.0
 11
-146.154249
 21
17.281452
 31
0.0
  0
ELLIPSE
  5
D7
100
AcDbEntity
  8
2
370
    50
100
AcDbEllipse
 10
-140.190532
 20
20.720399
 30
0.0
 11
0.0
 21
-5.6912830000000003
 31
0.0
210
0.0
220
0.0
230
1.0
 40
0.956549
 41
3.1415929999999999
 42
4.5720700000000001
  0
LINE
  5
D8
100
AcDbEntity
  8
2
370
    50
100
AcDbLine
 10
-118.53411
 20
26.714384
 30
0.0
 11
-125.68411
 21
26.714384
 31
0.0
  0
LINE
  5
D9
100
AcDbEntity
  8
2
370
    50
100
AcDbLine
 10
-118.53411
 20
16.714384
 30
0.0
 11
-145.658768
 21
16.714384
 31
0.0
  0
ARC
  5
DA
100
AcDbEntity
  8
2
370
    50
100
AcDbCircle
 10
-145.658768
 20
17.214384
 30
0.0
 40
0.5
100
AcDbArc
 50
172.291351
 51
270.0
  0
LINE
  5
DB
100
AcDbEntity
  8
2
370
    50
100
AcDbLine
 10
53.889215
 20
29.215384
 30
0.0
 11
46.989215
 21
29.214384
 31
0.0
  0
LINE
  5
DC
100
AcDbEntity
  8
2
370
    50
100
AcDbLine
 10
52.439215
 20
29.714384
 30
0.0
 11
46.989215
 21
29.714384
 31
0.0
  0
LINE
  5
DD
100
AcDbEntity
  8
2
370
    50
100
AcDbLine
 10
53.689215
 20
26.714384
 30
0.0
 11
53.889215
 21
26.914384
 31
0.0
  0
LINE
  5
DE
100
AcDbEntity
  8
2
370
    50
100
AcDbLine
 10
53.889215
 20
26.914384
 30
0.0
 11
53.889215
 21
29.215384
 31
0.0
  0
LINE
  5
DF
100
AcDbEntity
  8
2
370
    50
100
AcDbLine
 10
53.689215
 20
26.714384
 30
0.0
 11
40.289215
 21
26.714384
 31
0.0
  0
LINE
  5
E0
100
AcDbEntity
  8
2
370
    50
100
AcDbLine
 10
53.416215
 20
26.914384
 30
0.0
 11
53.416215
 21
29.214384
 31
0.0
  0
LINE
  5
E1
100
AcDbEntity
  8
2
370
    50
100
AcDbLine
 10
53.889215
 20
26.914384
 30
0.0
 11
40.089215
 21
26.914384
 31
0.0
  0
LINE
  5
E2
100
AcDbEntity
  8
2
370
    50
100
AcDbLine
 10
53.087215
 20
26.914384
 30
0.0
 11
53.087215
 21
29.214384
 31
0.0
  0
LINE
  5
E3
100
AcDbEntity
  8
2
370
    50
100
AcDbLine
 10
52.650215
 20
26.914384
 30
0.0
 11
52.650215
 21
29.214384
 31
0.0
  0
LINE
  5
E4
100
AcDbEntity
  8
2
370
    50
100
AcDbLine
 10
52.114215
 20
26.914384
 30
0.0
 11
52.114215
 21
29.214384
 31
0.0
  0
LINE
  5
E5
100
AcDbEntity
  8
2
370
    50
100
AcDbLine
 10
51.488215
 20
26.914384
 30
0.0
 11
51.488215
 21
29.214384
 31
0.0
  0
LINE
  5
E6
100
AcDbEntity
  8
2
370
    50
100
AcDbLine
 10
50.783215
 20
26.914384
 30
0.0
 11
50.783215
 21
29.214384
 31
0.0
  0
LINE
  5
E7
100
AcDbEntity
  8
2
370
    50
100
AcDbLine
 10
50.011215
 20
26.914384
 30
0.0
 11
50.011215
 21
29.214384
 31
0.0
  0
LINE
  5
E8
100
AcDbEntity
  8
2
370
    50
100
AcDbLine
 10
49.187215
 20
26.914384
 30
0.0
 11
49.187215
 21
29.214384
 31
0.0
  0
LINE
  5
E9
100
AcDbEntity
  8
2
370
    50
100
AcDbLine
 10
48.323215
 20
26.914384
 30
0.0
 11
48.323215
 21
29.214384
 31
0.0
  0
LINE
  5
EA
100
AcDbEntity
  8
2
370
    50
100
AcDbLine
 10
47.436215
 20
26.914384
 30
0.0
 11
47.436215
 21
29.214384
 31
0.0
  0
ARC
  5
EB
100
AcDbEntity
  8
2
370
    50
100
AcDbCircle
 10
46.989215
 20
-2.832616
 30
0.0
 40
33.0
100
AcDbArc
 50
80.494
 51
90.0
  0
LINE
  5
EC
100
AcDbEntity
  8
2
370
    50
100
AcDbLine
 10
52.439215
 20
29.714384
 30
0.0
 11
53.889215
 21
29.215384
 31
0.0
  0
LINE
  5
ED
100
AcDbEntity
  8
2
370
    50
100
AcDbLine
 10
53.745215
 20
26.914384
 30
0.0
 11
53.745215
 21
29.214384
 31
0.0
  0
LINE
  5
EE
100
AcDbEntity
  8
2
370
    50
100
AcDbLine
 10
40.089215
 20
29.215384
 30
0.0
 11
46.989215
 21
29.214384
 31
0.0
  0
LINE
  5
EF
100
AcDbEntity
  8
2
370
    50
100
AcDbLine
 10
41.539215
 20
29.714384
 30
0.0
 11
46.989215
 21
29.714384
 31
0.0
  0
LINE
  5
F0
100
AcDbEntity
  8
2
370
    50
100
AcDbLine
 10
40.289215
 20
26.714384
 30
0.0
 11
40.089215
 21
26.914384
 31
0.0
  0
LINE
  5
F1
100
AcDbEntity
  8
2
370
    50
100
AcDbLine
 10
40.089215
 20
26.914384
 30
0.0
 11
40.089215
 21
29.215384
 31
0.0
  0
LINE
  5
F2
100
AcDbEntity
  8
2
370
    50
100
AcDbLine
 10
40.562215
 20
26.914384
 30
0.0
 11
40.562215
 21
29.214384
 31
0.0
  0
LINE
  5
F3
100
AcDbEntity
  8
2
370
    50
100
AcDbLine
 10
40.891215
 20
26.914384
 30
0.0
 11
40.891215
 21
29.214384
 31
0.0
  0
LINE
  5
F4
100
AcDbEntity
  8
2
370
    50
100
AcDbLine
 10
41.328215
 20
26.914384
 30
0.0
 11
41.328215
 21
29.214384
 31
0.0
  0
LINE
  5
F5
100
AcDbEntity
  8
2
370
    50
100
AcDbLine
 10
41.864215
 20
26.914384
 30
0.0
 11
41.864215
 21
29.214384
 31
0.0
  0
LINE
  5
F6
100
AcDbEntity
  8
2
370
    50
100
AcDbLine
 10
42.490215
 20
26.914384
 30
0.0
 11
42.490215
 21
29.214384
 31
0.0
  0
LINE
  5
F7
100
AcDbEntity
  8
2
370
    50
100
AcDbLine
 10
43.195215
 20
26.914384
 30
0.0
 11
43.195215
 21
29.214384
 31
0.0
  0
LINE
  5
F8
100
AcDbEntity
  8
2
370
    50
100
AcDbLine
 10
43.967215
 20
26.914384
 30
0.0
 11
43.967215
 21
29.214384
 31
0.0
  0
LINE
  5
F9
100
AcDbEntity
  8
2
370
    50
100
AcDbLine
 10
44.791215
 20
26.914384
 30
0.0
 11
44.791215
 21
29.214384
 31
0.0
  0
LINE
  5
FA
100
AcDbEntity
  8
2
370
    50
100
AcDbLine
 10
45.655215
 20
26.914384
 30
0.0
 11
45.655215
 21
29.214384
 31
0.0
  0
LINE
  5
FB
100
AcDbEntity
  8
2
370
    50
100
AcDbLine
 10
46.542215
 20
26.914384
 30
0.0
 11
46.542215
 21
29.214384
 31
0.0
  0
ARC
  5
FC
100
AcDbEntity
  8
2
370
    50
100
AcDbCircle
 10
46.989215
 20
-2.832616
 30
0.0
 40
33.0
100
AcDbArc
 50
90.0
 51
99.506
  0
LINE
  5
FD
100
AcDbEntity
  8
2
370
    50
100
AcDbLine
 10
41.539215
 20
29.714384
 30
0.0
 11
40.089215
 21
29.215384
 31
0.0
  0
LINE
  5
FE
100
AcDbEntity
  8
2
370
    50
100
AcDbLine
 10
40.233215
 20
26.914384
 30
0.0
 11
40.233215
 21
29.214384
 31
0.0
  0
LINE
  5
FF
100
AcDbEntity
  8
2
370
    50
100
AcDbLine
 10
11.24021
 20
-36.985616
 30
0.0
 11
14.43721
 21
-40.731616
 31
0.0
  0
ARC
  5
100
100
AcDbEntity
  8
2
370
    50
100
AcDbCircle
 10
18.24021
 20
-37.485616
 30
0.0
 40
5.0
100
AcDbArc
 50
220.478
 51
323.13
  0
LINE
  5
101
100
AcDbEntity
  8
2
370
    50
100
AcDbLine
 10
11.24021
 20
-36.985616
 30
0.0
 11
11.24021
 21
-16.985616
 31
0.0
  0
LINE
  5
102
100
AcDbEntity
  8
2
370
    50
100
AcDbLine
 10
11.24021
 20
-16.985616
 30
0.0
 11
14.43721
 21
-13.240616
 31
0.0
  0
ARC
  5
103
100
AcDbEntity
  8
2
370
    50
100
AcDbCircle
 10
18.24021
 20
-16.485616
 30
0.0
 40
5.0
100
AcDbArc
 50
36.87
 51
139.522
  0
LINE
  5
104
100
AcDbEntity
  8
2
370
    50
100
AcDbLine
 10
22.24021
 20
-13.485616
 30
0.0
 11
22.24021
 21
-40.485616
 31
0.0
  0
LINE
  5
105
100
AcDbEntity
  8
2
370
    50
100
AcDbLine
 10
-105.817146
 20
-35.809678
 30
0.0
 11
-110.600067
 21
-38.571073
 31
0.0
  0
LINE
  5
106
100
AcDbEntity
  8
2
370
    50
100
AcDbLine
 10
-104.53411
 20
-20.397616
 30
0.0
 11
-104.53411
 21
-33.587616
 31
0.0
  0
LINE
  5
107
100
AcDbEntity
  8
2
370
    50
100
AcDbLine
 10
-131.346823
 20
-35.754782
 30
0.0
 11
-126.468153
 21
-38.571455
 31
0.0
  0
LINE
  5
108
100
AcDbEntity
  8
2
370
    50
100
AcDbLine
 10
-132.53411
 20
-33.700616
 30
0.0
 11
-132.53411
 21
-20.28402
 31
0.0
  0
ARC
  5
109
100
AcDbEntity
  8
2
370
    50
100
AcDbCircle
 10
-118.56111
 20
-26.992616
 30
0.0
 40
15.5
100
AcDbArc
 50
205.645
 51
214.423198
  0
ARC
  5
10A
100
AcDbEntity
  8
2
370
    50
100
AcDbCircle
 10
-118.56111
 20
-26.992616
 30
0.0
 40
15.5
100
AcDbArc
 50
145.482
 51
154.353806
  0
ARC
  5
10B
100
AcDbEntity
  8
2
370
    50
100
AcDbCircle
 10
-118.56111
 20
-26.992616
 30
0.0
 40
15.5
100
AcDbArc
 50
25.183
 51
34.748091
  0
LINE
  5
10C
100
AcDbEntity
  8
2
370
    50
100
AcDbLine
 10
-104.53411
 20
-33.587616
 30
0.0
 11
-105.817146
 21
-35.809678
 31
0.0
  0
LINE
  5
10D
100
AcDbEntity
  8
2
370
    50
100
AcDbLine
 10
-131.33211
 20
-18.209616
 30
0.0
 11
-119.782444
 21
-11.540809
 31
0.0
  0
ARC
  5
10E
100
AcDbEntity
  8
2
370
    50
100
AcDbCircle
 10
-118.56111
 20
-26.992616
 30
0.0
 40
15.5
100
AcDbArc
 50
85.25
 51
94.519349
  0
LINE
  5
10F
100
AcDbEntity
  8
2
370
    50
100
AcDbLine
 10
-117.27711
 20
-11.545616
 30
0.0
 11
-105.825288
 21
-18.158091
 31
0.0
  0
ELLIPSE
  5
110
100
AcDbEntity
  8
2
370
    50
100
AcDbEllipse
 10
18.24021
 20
-26.985616
 30
0.0
 11
0.0
 21
-6.6020000000000003
 31
0.0
210
0.0
220
0.0
230
1.0
 40
0.540745
 41
0.0
 42
6.2831849999999996
  0
ELLIPSE
  5
111
100
AcDbEntity
  8
2
370
    50
100
AcDbEllipse
 10
18.24021
 20
-14.845585
 30
0.0
 11
-3.5699999999999998
 21
0.0
 31
0.0
210
0.0
220
0.0
230
1.0
 40
0.928843
 41
0.0
 42
6.2831849999999996
  0
LINE
  5
112
100
AcDbEntity
  8
2
370
    50
100
AcDbLine
 10
22.24021
 20
85.637606
 30
0.0
 11
22.24021
 21
78.464313
 31
0.0
  0
ARC
  5
113
100
AcDbEntity
  8
2
370
    50
100
AcDbCircle
 10
18.24021
 20
82.637606
 30
0.0
 40
5.0
100
AcDbArc
 50
36.87
 51
44.429247
  0
LINE
  5
114
100
AcDbEntity
  8
2
370
    50
100
AcDbLine
 10
11.24021
 20
82.137606
 30
0.0
 11
14.43721
 21
85.882606
 31
0.0
  0
LINE
  5
115
100
AcDbEntity
  8
2
370
    50
100
AcDbLine
 10
11.24021
 20
62.137606
 30
0.0
 11
11.24021
 21
82.137606
 31
0.0
  0
LINE
  5
116
100
AcDbEntity
  8
2
370
    50
100
AcDbLine
 10
14.669633
 20
86.137746
 30
0.0
 11
21.810787
 21
86.137746
 31
0.0
  0
ARC
  5
117
100
AcDbEntity
  8
2
370
    50
100
AcDbCircle
 10
18.24021
 20
82.637606
 30
0.0
 40
5.0
100
AcDbArc
 50
135.570753
 51
139.522
  0
ELLIPSE
  5
118
100
AcDbEntity
  8
2
370
    50
100
AcDbEllipse
 10
18.24021
 20
79.154962
 30
0.0
 11
0.0
 21
-5.795356
 31
0.0
210
0.0
220
0.0
230
1.0
 40
0.61601
 41
1.427503
 42
5.729781
  0
ELLIPSE
  5
119
100
AcDbEntity
  8
2
370
    50
100
AcDbEllipse
 10
18.24021
 20
-39.125647
 30
0.0
 11
-3.5699999999999998
 21
0.0
 31
0.0
210
0.0
220
0.0
230
1.0
 40
0.928843
 41
0.0
 42
6.2831849999999996
  0
ELLIPSE
  5
11A
100
AcDbEntity
  8
2
370
    50
100
AcDbEllipse
 10
18.24021
 20
65.120249
 30
0.0
 11
0.0
 21
5.795356
 31
0.0
210
0.0
220
0.0
230
1.0
 40
0.61601
 41
0.553397
 42
4.8573360000000001
  0
LINE
  5
11B
100
AcDbEntity
  8
2
370
    50
100
AcDbLine
 10
-18.240662
 20
-63.233283
 30
0.0
 11
-32.028662
 21
-60.801283
 31
0.0
  0
LINE
  5
11C
100
AcDbEntity
  8
2
370
    50
100
AcDbLine
 10
-129.72111
 20
-0.972614
 30
0.0
 11
-129.72111
 21
-1.576616
 31
0.0
  0
LINE
  5
11D
100
AcDbEntity
  8
2
370
    50
100
AcDbLine
 10
-129.72111
 20
-1.576616
 30
0.0
 11
-130.53411
 21
-2.985616
 31
0.0
  0
LINE
  5
11E
100
AcDbEntity
  8
2
370
    50
100
AcDbLine
 10
-130.53411
 20
-1.576616
 30
0.0
 11
-118.53411
 21
-1.576616
 31
0.0
  0
LINE
  5
11F
100
AcDbEntity
  8
2
370
    50
100
AcDbLine
 10
-130.53411
 20
-7.985616
 30
0.0
 11
-130.53411
 21
-0.972614
 31
0.0
  0
LINE
  5
120
100
AcDbEntity
  8
2
370
    50
100
AcDbLine
 10
-130.53411
 20
-7.985616
 30
0.0
 11
-131.074079
 21
-18.060628
 31
0.0
  0
LINE
  5
121
100
AcDbEntity
  8
2
370
    50
100
AcDbLine
 10
-106.53411
 20
-7.985616
 30
0.0
 11
-105.993575
 21
-18.060919
 31
0.0
  0
LINE
  5
122
100
AcDbEntity
  8
2
370
    50
100
AcDbLine
 10
-106.53411
 20
-7.985616
 30
0.0
 11
-106.53411
 21
-0.972614
 31
0.0
  0
LINE
  5
123
100
AcDbEntity
  8
2
370
    50
100
AcDbLine
 10
-106.53411
 20
-1.576616
 30
0.0
 11
-118.53411
 21
-1.576616
 31
0.0
  0
LINE
  5
124
100
AcDbEntity
  8
2
370
    50
100
AcDbLine
 10
-107.34711
 20
-1.576616
 30
0.0
 11
-106.53411
 21
-2.985616
 31
0.0
  0
LINE
  5
125
100
AcDbEntity
  8
2
370
    50
100
AcDbLine
 10
-107.34711
 20
-0.972614
 30
0.0
 11
-107.34711
 21
-1.576616
 31
0.0
  0
LINE
  5
126
100
AcDbEntity
  8
2
370
    50
100
AcDbLine
 10
104.827215
 20
-26.985616
 30
0.0
 11
104.827215
 21
-16.508616
 31
0.0
  0
LINE
  5
127
100
AcDbEntity
  8
2
370
    50
100
AcDbLine
 10
104.827215
 20
-26.985616
 30
0.0
 11
104.827215
 21
-37.462616
 31
0.0
  0
LINE
  5
128
100
AcDbEntity
  8
2
370
    50
100
AcDbLine
 10
11.24021
 20
62.137606
 30
0.0
 11
14.43721
 21
58.392606
 31
0.0
  0
LINE
  5
129
100
AcDbEntity
  8
2
370
    50
100
AcDbLine
 10
14.669633
 20
58.137466
 30
0.0
 11
21.810787
 21
58.137466
 31
0.0
  0
ARC
  5
12A
100
AcDbEntity
  8
2
370
    50
100
AcDbCircle
 10
18.24021
 20
61.637606
 30
0.0
 40
5.0
100
AcDbArc
 50
220.478
 51
224.429247
  0
ARC
  5
12B
100
AcDbEntity
  8
2
370
    50
100
AcDbCircle
 10
18.24021
 20
61.637606
 30
0.0
 40
5.0
100
AcDbArc
 50
315.570753
 51
323.13
  0
ARC
  5
12C
100
AcDbEntity
  8
2
370
    50
100
AcDbCircle
 10
-118.53411
 20
-26.985616
 30
0.0
 40
10.0
100
AcDbArc
 50
322.504797
 51
217.495203
  0
ARC
  5
12D
100
AcDbEntity
  8
2
370
    50
100
AcDbCircle
 10
-118.53411
 20
-26.985616
 30
0.0
 40
8.35
100
AcDbArc
 50
341.839066
 51
198.160934
  0
ARC
  5
12E
100
AcDbEntity
  8
2
370
    50
100
AcDbCircle
 10
-118.56111
 20
-26.992616
 30
0.0
 40
7.907046
100
AcDbArc
 50
179.949277
 51
180.050723
  0
LINE
  5
12F
100
AcDbEntity
  8
2
370
    50
100
AcDbLine
 10
-113.78411
 20
11.027386
 30
0.0
 11
-113.78411
 21
16.714384
 31
0.0
  0
LINE
  5
130
100
AcDbEntity
  8
2
370
    50
100
AcDbLine
 10
-123.28411
 20
11.027386
 30
0.0
 11
-123.28411
 21
16.714384
 31
0.0
  0
LINE
  5
131
100
AcDbEntity
  8
2
370
    50
100
AcDbLine
 10
-111.63411
 20
29.215384
 30
0.0
 11
-118.53411
 21
29.214384
 31
0.0
  0
LINE
  5
132
100
AcDbEntity
  8
2
370
    50
100
AcDbLine
 10
-113.08411
 20
29.714384
 30
0.0
 11
-118.53411
 21
29.714384
 31
0.0
  0
LINE
  5
133
100
AcDbEntity
  8
2
370
    50
100
AcDbLine
 10
-111.83411
 20
26.714384
 30
0.0
 11
-111.63411
 21
26.914384
 31
0.0
  0
LINE
  5
134
100
AcDbEntity
  8
2
370
    50
100
AcDbLine
 10
-111.63411
 20
26.914384
 30
0.0
 11
-111.63411
 21
29.215384
 31
0.0
  0
LINE
  5
135
100
AcDbEntity
  8
2
370
    50
100
AcDbLine
 10
-112.10711
 20
26.914384
 30
0.0
 11
-112.10711
 21
29.214384
 31
0.0
  0
LINE
  5
136
100
AcDbEntity
  8
2
370
    50
100
AcDbLine
 10
-111.63411
 20
26.914384
 30
0.0
 11
-125.43411
 21
26.914384
 31
0.0
  0
LINE
  5
137
100
AcDbEntity
  8
2
370
    50
100
AcDbLine
 10
-112.43611
 20
26.914384
 30
0.0
 11
-112.43611
 21
29.214384
 31
0.0
  0
LINE
  5
138
100
AcDbEntity
  8
2
370
    50
100
AcDbLine
 10
-112.87311
 20
26.914384
 30
0.0
 11
-112.87311
 21
29.214384
 31
0.0
  0
LINE
  5
139
100
AcDbEntity
  8
2
370
    50
100
AcDbLine
 10
-113.40911
 20
26.914384
 30
0.0
 11
-113.40911
 21
29.214384
 31
0.0
  0
LINE
  5
13A
100
AcDbEntity
  8
2
370
    50
100
AcDbLine
 10
-114.03511
 20
26.914384
 30
0.0
 11
-114.03511
 21
29.214384
 31
0.0
  0
LINE
  5
13B
100
AcDbEntity
  8
2
370
    50
100
AcDbLine
 10
-114.74011
 20
26.914384
 30
0.0
 11
-114.74011
 21
29.214384
 31
0.0
  0
LINE
  5
13C
100
AcDbEntity
  8
2
370
    50
100
AcDbLine
 10
-115.51211
 20
26.914384
 30
0.0
 11
-115.51211
 21
29.214384
 31
0.0
  0
LINE
  5
13D
100
AcDbEntity
  8
2
370
    50
100
AcDbLine
 10
-116.33611
 20
26.914384
 30
0.0
 11
-116.33611
 21
29.214384
 31
0.0
  0
LINE
  5
13E
100
AcDbEntity
  8
2
370
    50
100
AcDbLine
 10
-117.20011
 20
26.914384
 30
0.0
 11
-117.20011
 21
29.214384
 31
0.0
  0
LINE
  5
13F
100
AcDbEntity
  8
2
370
    50
100
AcDbLine
 10
-118.08711
 20
26.914384
 30
0.0
 11
-118.08711
 21
29.214384
 31
0.0
  0
ARC
  5
140
100
AcDbEntity
  8
2
370
    50
100
AcDbCircle
 10
-118.53411
 20
-2.832616
 30
0.0
 40
33.0
100
AcDbArc
 50
80.494
 51
90.0
  0
LINE
  5
141
100
AcDbEntity
  8
2
370
    50
100
AcDbLine
 10
-113.08411
 20
29.714384
 30
0.0
 11
-111.63411
 21
29.215384
 31
0.0
  0
LINE
  5
142
100
AcDbEntity
  8
2
370
    50
100
AcDbLine
 10
-111.77811
 20
26.914384
 30
0.0
 11
-111.77811
 21
29.214384
 31
0.0
  0
LINE
  5
143
100
AcDbEntity
  8
2
370
    50
100
AcDbLine
 10
-125.43411
 20
29.215384
 30
0.0
 11
-118.53411
 21
29.214384
 31
0.0
  0
LINE
  5
144
100
AcDbEntity
  8
2
370
    50
100
AcDbLine
 10
-123.98411
 20
29.714384
 30
0.0
 11
-118.53411
 21
29.714384
 31
0.0
  0
LINE
  5
145
100
AcDbEntity
  8
2
370
    50
100
AcDbLine
 10
-125.23411
 20
26.714384
 30
0.0
 11
-125.43411
 21
26.914384
 31
0.0
  0
LINE
  5
146
100
AcDbEntity
  8
2
370
    50
100
AcDbLine
 10
-125.43411
 20
26.914384
 30
0.0
 11
-125.43411
 21
29.215384
 31
0.0
  0
LINE
  5
147
100
AcDbEntity
  8
2
370
    50
100
AcDbLine
 10
-124.96111
 20
26.914384
 30
0.0
 11
-124.96111
 21
29.214384
 31
0.0
  0
LINE
  5
148
100
AcDbEntity
  8
2
370
    50
100
AcDbLine
 10
-124.63211
 20
26.914384
 30
0.0
 11
-124.63211
 21
29.214384
 31
0.0
  0
LINE
  5
149
100
AcDbEntity
  8
2
370
    50
100
AcDbLine
 10
-124.19511
 20
26.914384
 30
0.0
 11
-124.19511
 21
29.214384
 31
0.0
  0
LINE
  5
14A
100
AcDbEntity
  8
2
370
    50
100
AcDbLine
 10
-123.65911
 20
26.914384
 30
0.0
 11
-123.65911
 21
29.214384
 31
0.0
  0
LINE
  5
14B
100
AcDbEntity
  8
2
370
    50
100
AcDbLine
 10
-123.03311
 20
26.914384
 30
0.0
 11
-123.03311
 21
29.214384
 31
0.0
  0
LINE
  5
14C
100
AcDbEntity
  8
2
370
    50
100
AcDbLine
 10
-122.32811
 20
26.914384
 30
0.0
 11
-122.32811
 21
29.214384
 31
0.0
  0
LINE
  5
14D
100
AcDbEntity
  8
2
370
    50
100
AcDbLine
 10
-121.55611
 20
26.914384
 30
0.0
 11
-121.55611
 21
29.214384
 31
0.0
  0
LINE
  5
14E
100
AcDbEntity
  8
2
370
    50
100
AcDbLine
 10
-120.73211
 20
26.914384
 30
0.0
 11
-120.73211
 21
29.214384
 31
0.0
  0
LINE
  5
14F
100
AcDbEntity
  8
2
370
    50
100
AcDbLine
 10
-119.86811
 20
26.914384
 30
0.0
 11
-119.86811
 21
29.214384
 31
0.0
  0
LINE
  5
150
100
AcDbEntity
  8
2
370
    50
100
AcDbLine
 10
-118.98111
 20
26.914384
 30
0.0
 11
-118.98111
 21
29.214384
 31
0.0
  0
ARC
  5
151
100
AcDbEntity
  8
2
370
    50
100
AcDbCircle
 10
-118.53411
 20
-2.832616
 30
0.0
 40
33.0
100
AcDbArc
 50
90.0
 51
99.506
  0
LINE
  5
152
100
AcDbEntity
  8
2
370
    50
100
AcDbLine
 10
-123.98411
 20
29.714384
 30
0.0
 11
-125.43411
 21
29.215384
 31
0.0
  0
LINE
  5
153
100
AcDbEntity
  8
2
370
    50
100
AcDbLine
 10
-125.29011
 20
26.914384
 30
0.0
 11
-125.29011
 21
29.214384
 31
0.0
  0
ARC
  5
154
100
AcDbEntity
  8
2
370
    50
100
AcDbCircle
 10
-118.56111
 20
-26.992616
 30
0.0
 40
22.993016
100
AcDbArc
 50
121.380784
 51
249.886015
  0
ELLIPSE
  5
155
100
AcDbEntity
  8
2
370
    50
100
AcDbEllipse
 10
-118.53411
 20
-66.985627
 30
0.0
 11
-7.0
 21
0.000001
 31
0.0
210
0.0
220
0.0
230
1.0
 40
0.173716
 41
0.0
 42
6.2831849999999996
  0
SPLINE
  5
156
100
AcDbEntity
  8
2
370
    50
100
AcDbSpline
210
0.0
220
0.0
230
1.0
 70
     8
 71
     3
 72
     0
 73
     0
 74
    52
 44
0.0000000001
 11
-111.848992
 21
-67.346234999999993
 31
0.0
 11
-111.80942400000001
 21
-67.322288
 31
0.0
 11
-111.76931
 21
-67.297376
 31
0.0
 11
-111.728604
 21
-67.271445
 31
0.0
 11
-111.687282
 21
-67.244398000000004
 31
0.0
 11
-111.645341
 21
-67.216125000000005
 31
0.0
 11
-111.60277499999999
 21
-67.186519000000004
 31
0.0
 11
-111.55958099999999
 21
-67.155471000000006
 31
0.0
 11
-111.515754
 21
-67.122873999999996
 31
0.0
 11
-111.47129
 21
-67.088616999999999
 31
0.0
 11
-111.42618400000001
 21
-67.052593999999999
 31
0.0
 11
-111.380431
 21
-67.014696000000001
 31
0.0
 11
-111.334028
 21
-66.974815000000007
 31
0.0
 11
-111.28697
 21
-66.932841999999994
 31
0.0
 11
-111.23925
 21
-66.888666000000001
 31
0.0
 11
-111.190853
 21
-66.842106999999999
 31
0.0
 11
-111.14187200000001
 21
-66.792985000000002
 31
0.0
 11
-111.092428
 21
-66.741139000000004
 31
0.0
 11
-111.042644
 21
-66.686408999999998
 31
0.0
 11
-110.99264100000001
 21
-66.628631999999996
 31
0.0
 11
-110.94254100000001
 21
-66.567649000000003
 31
0.0
 11
-110.892465
 21
-66.503298999999998
 31
0.0
 11
-110.842535
 21
-66.435418999999996
 31
0.0
 11
-110.792872
 21
-66.363849999999999
 31
0.0
 11
-110.74364
 21
-66.288387
 31
0.0
 11
-110.695154
 21
-66.208893000000003
 31
0.0
 11
-110.64775400000001
 21
-66.125382000000002
 31
0.0
 11
-110.601775
 21
-66.037865999999994
 31
0.0
 11
-110.55755499999999
 21
-65.946359999999999
 31
0.0
 11
-110.515432
 21
-65.850877999999994
 31
0.0
 11
-110.475742
 21
-65.751434000000003
 31
0.0
 11
-110.438823
 21
-65.648042000000004
 31
0.0
 11
-110.405157
 21
-65.540788000000006
 31
0.0
 11
-110.375137
 21
-65.430059
 31
0.0
 11
-110.349023
 21
-65.316310999999999
 31
0.0
 11
-110.327074
 21
-65.200002999999995
 31
0.0
 11
-110.309551
 21
-65.081592999999998
 31
0.0
 11
-110.296711
 21
-64.961539000000002
 31
0.0
 11
-110.288816
 21
-64.840298000000004
 31
0.0
 11
-110.286123
 21
-64.718345999999997
 31
0.0
 11
-110.28874
 21
-64.596438000000006
 31
0.0
 11
-110.296474
 21
-64.475161999999997
 31
0.0
 11
-110.309096
 21
-64.355003999999994
 31
0.0
 11
-110.32637800000001
 21
-64.236452999999997
 31
0.0
 11
-110.34809199999999
 21
-64.119994000000005
 31
0.0
 11
-110.37401
 21
-64.006117000000003
 31
0.0
 11
-110.403903
 21
-63.895308
 31
0.0
 11
-110.4375
 21
-63.788044999999997
 31
0.0
 11
-110.47429
 21
-63.684593999999997
 31
0.0
 11
-110.51389
 21
-63.585008999999999
 31
0.0
 11
-110.555953
 21
-63.489331999999997
 31
0.0
 11
-110.600005
 21
-63.397854000000002
 31
0.0
  0
LINE
  5
157
100
AcDbEntity
  8
2
370
    50
100
AcDbLine
 10
-126.468153
 20
-26.985616
 30
0.0
 11
-126.468153
 21
-63.397601
 31
0.0
  0
LINE
  5
158
100
AcDbEntity
  8
2
370
    50
100
AcDbLine
 10
-110.600067
 20
-26.985616
 30
0.0
 11
-110.600067
 21
-63.397731
 31
0.0
  0
ARC
  5
159
100
AcDbEntity
  8
2
370
    50
100
AcDbCircle
 10
-118.53411
 20
-26.985616
 30
0.0
 40
7.934043
100
AcDbArc
 50
0.0
 51
180.0
  0
ARC
  5
15A
100
AcDbEntity
  8
2
370
    50
100
AcDbCircle
 10
-118.56111
 20
-26.992616
 30
0.0
 40
22.993016
100
AcDbArc
 50
290.257352
 51
58.461466
  0
SPLINE
  5
15B
100
AcDbEntity
  8
2
370
    50
100
AcDbSpline
210
0.0
220
0.0
230
1.0
 70
     8
 71
     3
 72
     0
 73
     0
 74
    61
 44
0.0000000001
 11
-126.468215
 21
-63.397723999999997
 31
0.0
 11
-126.505388
 21
-63.474411000000003
 31
0.0
 11
-126.54113700000001
 21
-63.554138000000002
 31
0.0
 11
-126.575227
 21
-63.636780000000002
 31
0.0
 11
-126.607446
 21
-63.722171000000003
 31
0.0
 11
-126.637586
 21
-63.810146000000003
 31
0.0
 11
-126.665436
 21
-63.900537999999997
 31
0.0
 11
-126.690787
 21
-63.993181999999997
 31
0.0
 11
-126.71343
 21
-64.087913
 31
0.0
 11
-126.733155
 21
-64.184562999999997
 31
0.0
 11
-126.749752
 21
-64.282967999999997
 31
0.0
 11
-126.763019
 21
-64.382941000000002
 31
0.0
 11
-126.772852
 21
-64.484070000000003
 31
0.0
 11
-126.77919300000001
 21
-64.585977999999997
 31
0.0
 11
-126.781977
 21
-64.688326000000004
 31
0.0
 11
-126.78111199999999
 21
-64.790745000000001
 31
0.0
 11
-126.77656899999999
 21
-64.892838999999995
 31
0.0
 11
-126.768478
 21
-64.994316999999995
 31
0.0
 11
-126.756978
 21
-65.094890000000007
 31
0.0
 11
-126.74220699999999
 21
-65.194271999999998
 31
0.0
 11
-126.72430199999999
 21
-65.292174000000003
 31
0.0
 11
-126.703401
 21
-65.388311000000002
 31
0.0
 11
-126.679643
 21
-65.482393999999999
 31
0.0
 11
-126.653164
 21
-65.574135999999996
 31
0.0
 11
-126.62421500000001
 21
-65.663291999999998
 31
0.0
 11
-126.593075
 21
-65.749785000000003
 31
0.0
 11
-126.55995299999999
 21
-65.833577000000005
 31
0.0
 11
-126.52506200000001
 21
-65.914631
 31
0.0
 11
-126.48861100000001
 21
-65.992908
 31
0.0
 11
-126.450811
 21
-66.068370999999999
 31
0.0
 11
-126.411873
 21
-66.140981999999994
 31
0.0
 11
-126.37200799999999
 21
-66.210704000000007
 31
0.0
 11
-126.33142700000001
 21
-66.277506000000002
 31
0.0
 11
-126.29031500000001
 21
-66.341482999999997
 31
0.0
 11
-126.248785
 21
-66.402737999999999
 31
0.0
 11
-126.206941
 21
-66.461361999999994
 31
0.0
 11
-126.164888
 21
-66.517443
 31
0.0
 11
-126.122728
 21
-66.571070000000006
 31
0.0
 11
-126.080567
 21
-66.622332
 31
0.0
 11
-126.03850799999999
 21
-66.671318999999997
 31
0.0
 11
-125.996655
 21
-66.718119000000002
 31
0.0
 11
-125.955099
 21
-66.762832000000003
 31
0.0
 11
-125.913867
 21
-66.805571
 31
0.0
 11
-125.872979
 21
-66.846428000000003
 31
0.0
 11
-125.832459
 21
-66.885487999999995
 31
0.0
 11
-125.792328
 21
-66.922839999999994
 31
0.0
 11
-125.752611
 21
-66.958571000000006
 31
0.0
 11
-125.71333
 21
-66.992767999999998
 31
0.0
 11
-125.674508
 21
-67.02552
 31
0.0
 11
-125.636167
 21
-67.056911999999997
 31
0.0
 11
-125.598321
 21
-67.087057999999999
 31
0.0
 11
-125.560964
 21
-67.116035999999994
 31
0.0
 11
-125.524083
 21
-67.143890999999996
 31
0.0
 11
-125.487666
 21
-67.170666999999995
 31
0.0
 11
-125.45170400000001
 21
-67.196408000000005
 31
0.0
 11
-125.416185
 21
-67.221158000000003
 31
0.0
 11
-125.381096
 21
-67.244961000000004
 31
0.0
 11
-125.346428
 21
-67.267861999999994
 31
0.0
 11
-125.312168
 21
-67.289905000000005
 31
0.0
 11
-125.278305
 21
-67.311132999999998
 31
0.0
 11
-125.244938
 21
-67.331524999999999
 31
0.0
  0
SPLINE
  5
15C
100
AcDbEntity
  8
2
370
    50
100
AcDbSpline
210
0.0
220
0.0
230
1.0
 70
     8
 71
     3
 72
     0
 73
     0
 74
    82
 44
0.0000000001
 11
-111.53417
 21
-62.295945000000003
 31
0.0
 11
-111.727317
 21
-62.160884000000003
 31
0.0
 11
-111.90835
 21
-62.050597000000003
 31
0.0
 11
-112.079262
 21
-61.958908000000001
 31
0.0
 11
-112.242109
 21
-61.880056000000003
 31
0.0
 11
-112.39890699999999
 21
-61.811250999999999
 31
0.0
 11
-112.55122
 21
-61.750591999999997
 31
0.0
 11
-112.700576
 21
-61.69614
 31
0.0
 11
-112.848265
 21
-61.646469000000003
 31
0.0
 11
-112.995098
 21
-61.600895000000001
 31
0.0
 11
-113.14183800000001
 21
-61.558743999999997
 31
0.0
 11
-113.289259
 21
-61.519351
 31
0.0
 11
-113.437916
 21
-61.482298
 31
0.0
 11
-113.58804499999999
 21
-61.447406000000001
 31
0.0
 11
-113.73986499999999
 21
-61.414507
 31
0.0
 11
-113.893595
 21
-61.383429999999997
 31
0.0
 11
-114.04945600000001
 21
-61.354007000000003
 31
0.0
 11
-114.20766500000001
 21
-61.326067999999999
 31
0.0
 11
-114.36844000000001
 21
-61.299444999999999
 31
0.0
 11
-114.531831
 21
-61.274088999999996
 31
0.0
 11
-114.697772
 21
-61.250002000000002
 31
0.0
 11
-114.86622300000001
 21
-61.227159
 31
0.0
 11
-115.037142
 21
-61.205534999999998
 31
0.0
 11
-115.210491
 21
-61.185105
 31
0.0
 11
-115.38622700000001
 21
-61.165843000000002
 31
0.0
 11
-115.564311
 21
-61.147723999999997
 31
0.0
 11
-115.744699
 21
-61.130729000000002
 31
0.0
 11
-115.92729199999999
 21
-61.114862000000002
 31
0.0
 11
-116.111943
 21
-61.100124000000001
 31
0.0
 11
-116.298507
 21
-61.086514999999999
 31
0.0
 11
-116.48683699999999
 21
-61.074036
 31
0.0
 11
-116.676788
 21
-61.062688000000001
 31
0.0
 11
-116.86821399999999
 21
-61.052470999999997
 31
0.0
 11
-117.06096700000001
 21
-61.043385999999998
 31
0.0
 11
-117.254903
 21
-61.035435
 31
0.0
 11
-117.44987500000001
 21
-61.028616999999997
 31
0.0
 11
-117.645737
 21
-61.022933000000002
 31
0.0
 11
-117.842344
 21
-61.018383999999998
 31
0.0
 11
-118.039548
 21
-61.014971000000003
 31
0.0
 11
-118.23720400000001
 21
-61.012694000000003
 31
0.0
 11
-118.435141
 21
-61.011555999999999
 31
0.0
 11
-118.633135
 21
-61.011558000000001
 31
0.0
 11
-118.83102599999999
 21
-61.012700000000002
 31
0.0
 11
-119.02866
 21
-61.014980000000001
 31
0.0
 11
-119.22588
 21
-61.018397999999998
 31
0.0
 11
-119.42253100000001
 21
-61.022951999999997
 31
0.0
 11
-119.618458
 21
-61.028641
 31
0.0
 11
-119.81350399999999
 21
-61.035463999999997
 31
0.0
 11
-120.007515
 21
-61.043419999999998
 31
0.0
 11
-120.200334
 21
-61.052508000000003
 31
0.0
 11
-120.391806
 21
-61.062725999999998
 31
0.0
 11
-120.581777
 21
-61.074074000000003
 31
0.0
 11
-120.770089
 21
-61.086548999999998
 31
0.0
 11
-120.956588
 21
-61.100152000000001
 31
0.0
 11
-121.141114
 21
-61.114876000000002
 31
0.0
 11
-121.323544
 21
-61.130710000000001
 31
0.0
 11
-121.503812
 21
-61.147672
 31
0.0
 11
-121.681855
 21
-61.165779000000001
 31
0.0
 11
-121.857609
 21
-61.185048000000002
 31
0.0
 11
-122.031014
 21
-61.205497999999999
 31
0.0
 11
-122.202005
 21
-61.227145999999998
 31
0.0
 11
-122.370519
 21
-61.250011000000001
 31
0.0
 11
-122.536495
 21
-61.274109000000003
 31
0.0
 11
-122.699867
 21
-61.299456999999997
 31
0.0
 11
-122.86060999999999
 21
-61.326064000000002
 31
0.0
 11
-123.018866
 21
-61.354041000000002
 31
0.0
 11
-123.174814
 21
-61.383529000000003
 31
0.0
 11
-123.328632
 21
-61.414667999999999
 31
0.0
 11
-123.480497
 21
-61.447600000000001
 31
0.0
 11
-123.63058700000001
 21
-61.482463000000003
 31
0.0
 11
-123.779082
 21
-61.519395000000003
 31
0.0
 11
-123.926327
 21
-61.558613000000001
 31
0.0
 11
-124.073019
 21
-61.600707
 31
0.0
 11
-124.219891
 21
-61.646323000000002
 31
0.0
 11
-124.367677
 21
-61.696109
 31
0.0
 11
-124.517124
 21
-61.750703000000001
 31
0.0
 11
-124.66938500000001
 21
-61.811205000000001
 31
0.0
 11
-124.826121
 21
-61.879849
 31
0.0
 11
-124.989026
 21
-61.959006000000002
 31
0.0
 11
-125.159918
 21
-62.051158999999998
 31
0.0
 11
-125.340999
 21
-62.161174000000003
 31
0.0
 11
-125.53404999999999
 21
-62.295910999999997
 31
0.0
  0
CIRCLE
  5
15D
100
AcDbEntity
  8
2
370
    50
100
AcDbCircle
 10
46.989215
 20
72.137606
 30
0.0
 40
5.449109
  0
CIRCLE
  5
15E
100
AcDbEntity
  8
2
370
    50
100
AcDbCircle
 10
46.989215
 20
72.137606
 30
0.0
 40
6.9
  0
LINE
  5
15F
100
AcDbEntity
  8
2
370
    50
100
AcDbLine
 10
23.989215
 20
78.977672
 30
0.0
 11
23.989215
 21
85.137606
 31
0.0
  0
LINE
  5
160
100
AcDbEntity
  8
2
370
    50
100
AcDbLine
 10
23.989215
 20
85.137606
 30
0.0
 11
22.24021
 21
85.137606
 31
0.0
  0
LINE
  5
161
100
AcDbEntity
  8
2
370
    50
100
AcDbLine
 10
23.989215
 20
65.305294
 30
0.0
 11
23.989215
 21
59.137606
 31
0.0
  0
LINE
  5
162
100
AcDbEntity
  8
2
370
    50
100
AcDbLine
 10
23.989215
 20
59.137606
 30
0.0
 11
22.24021
 21
59.137606
 31
0.0
  0
LINE
  5
163
100
AcDbEntity
  8
2
370
    50
100
AcDbLine
 10
22.24021
 20
84.324606
 30
0.0
 11
25.064215
 21
84.324606
 31
0.0
  0
LINE
  5
164
100
AcDbEntity
  8
2
370
    50
100
AcDbLine
 10
25.064215
 20
59.950606
 30
0.0
 11
22.24021
 21
59.950606
 31
0.0
  0
ARC
  5
165
100
AcDbEntity
  8
2
370
    50
100
AcDbCircle
 10
30.546215
 20
92.687606
 30
0.0
 40
10.0
100
AcDbArc
 50
229.026
 51
239.49863
  0
LINE
  5
166
100
AcDbEntity
  8
2
370
    50
100
AcDbLine
 10
65.175749
 20
63.637606
 30
0.0
 11
85.489215
 21
63.637606
 31
0.0
  0
LINE
  5
167
100
AcDbEntity
  8
2
370
    50
100
AcDbLine
 10
105.989215
 20
62.822606
 30
0.0
 11
104.827215
 21
61.660606
 31
0.0
  0
LINE
  5
168
100
AcDbEntity
  8
2
370
    25
100
AcDbLine
 10
105.989215
 20
62.822606
 30
0.0
 11
94.002215
 21
62.822606
 31
0.0
  0
LINE
  5
169
100
AcDbEntity
  8
2
370
    50
100
AcDbLine
 10
94.002215
 20
62.822606
 30
0.0
 11
91.989215
 21
61.660606
 31
0.0
  0
LINE
  5
16A
100
AcDbEntity
  8
2
370
    50
100
AcDbLine
 10
91.989215
 20
61.660606
 30
0.0
 11
104.827215
 21
61.660606
 31
0.0
  0
LINE
  5
16B
100
AcDbEntity
  8
2
370
    50
100
AcDbLine
 10
91.989215
 20
49.137606
 30
0.0
 11
91.989215
 21
72.137606
 31
0.0
  0
ARC
  5
16C
100
AcDbEntity
  8
2
370
    50
100
AcDbCircle
 10
85.489215
 20
59.637606
 30
0.0
 40
4.0
100
AcDbArc
 50
0.0
 51
90.0
  0
ARC
  5
16D
100
AcDbEntity
  8
2
370
    50
100
AcDbCircle
 10
91.489215
 20
51.137606
 30
0.0
 40
2.0
100
AcDbArc
 50
180.001
 51
270.0
  0
LINE
  5
16E
100
AcDbEntity
  8
2
370
    50
100
AcDbLine
 10
89.489215
 20
51.137606
 30
0.0
 11
89.489215
 21
72.137606
 31
0.0
  0
LINE
  5
16F
100
AcDbEntity
  8
2
370
    50
100
AcDbLine
 10
91.489215
 20
49.137606
 30
0.0
 11
91.989215
 21
49.137606
 31
0.0
  0
LINE
  5
170
100
AcDbEntity
  8
2
370
    50
100
AcDbLine
 10
105.989215
 20
72.137606
 30
0.0
 11
105.989215
 21
62.822606
 31
0.0
  0
LINE
  5
171
100
AcDbEntity
  8
2
370
    50
100
AcDbLine
 10
105.989215
 20
72.137606
 30
0.0
 11
105.989215
 21
81.452606
 31
0.0
  0
LINE
  5
172
100
AcDbEntity
  8
2
370
    25
100
AcDbLine
 10
91.489215
 20
95.137606
 30
0.0
 11
91.989215
 21
95.137606
 31
0.0
  0
LINE
  5
173
100
AcDbEntity
  8
2
370
    50
100
AcDbLine
 10
89.489215
 20
93.137606
 30
0.0
 11
89.489215
 21
72.137606
 31
0.0
  0
ARC
  5
174
100
AcDbEntity
  8
2
370
    50
100
AcDbCircle
 10
91.489215
 20
93.137606
 30
0.0
 40
2.0
100
AcDbArc
 50
90.0
 51
180.001
  0
ARC
  5
175
100
AcDbEntity
  8
2
370
    50
100
AcDbCircle
 10
85.489215
 20
84.637606
 30
0.0
 40
4.0
100
AcDbArc
 50
270.0
 51
360.0
  0
LINE
  5
176
100
AcDbEntity
  8
2
370
    50
100
AcDbLine
 10
91.989215
 20
95.137606
 30
0.0
 11
91.989215
 21
72.137606
 31
0.0
  0
LINE
  5
177
100
AcDbEntity
  8
2
370
    50
100
AcDbLine
 10
91.989215
 20
82.614606
 30
0.0
 11
104.827215
 21
82.614606
 31
0.0
  0
LINE
  5
178
100
AcDbEntity
  8
2
370
    50
100
AcDbLine
 10
94.002215
 20
81.452606
 30
0.0
 11
91.989215
 21
82.614606
 31
0.0
  0
LINE
  5
179
100
AcDbEntity
  8
2
370
    25
100
AcDbLine
 10
105.989215
 20
81.452606
 30
0.0
 11
94.002215
 21
81.452606
 31
0.0
  0
LINE
  5
17A
100
AcDbEntity
  8
2
370
    50
100
AcDbLine
 10
105.989215
 20
81.452606
 30
0.0
 11
104.827215
 21
82.614606
 31
0.0
  0
LINE
  5
17B
100
AcDbEntity
  8
2
370
    50
100
AcDbLine
 10
65.175749
 20
80.637606
 30
0.0
 11
85.489215
 21
80.637606
 31
0.0
  0
LINE
  5
17C
100
AcDbEntity
  8
2
370
    50
100
AcDbLine
 10
94.002215
 20
72.137606
 30
0.0
 11
94.002215
 21
82.614606
 31
0.0
  0
LINE
  5
17D
100
AcDbEntity
  8
2
370
    50
100
AcDbLine
 10
94.002215
 20
72.137606
 30
0.0
 11
94.002215
 21
61.660606
 31
0.0
  0
LINE
  5
17E
100
AcDbEntity
  8
2
370
    50
100
AcDbLine
 10
104.827215
 20
72.137606
 30
0.0
 11
104.827215
 21
82.614606
 31
0.0
  0
LINE
  5
17F
100
AcDbEntity
  8
2
370
    50
100
AcDbLine
 10
104.827215
 20
72.137606
 30
0.0
 11
104.827215
 21
61.660606
 31
0.0
  0
ARC
  5
180
100
AcDbEntity
  8
2
370
    50
100
AcDbCircle
 10
65.175749
 20
106.637606
 30
0.0
 40
26.0
100
AcDbArc
 50
264.10404
 51
270.0
  0
ARC
  5
181
100
AcDbEntity
  8
2
370
    50
100
AcDbCircle
 10
65.175749
 20
37.637606
 30
0.0
 40
26.0
100
AcDbArc
 50
90.0
 51
95.901471
  0
ARC
  5
182
100
AcDbEntity
  8
2
370
    50
100
AcDbCircle
 10
33.591569
 20
97.857308
 30
0.0
 40
16.0
100
AcDbArc
 50
239.49863
 51
270.764126
  0
ARC
  5
183
100
AcDbEntity
  8
2
370
    50
100
AcDbCircle
 10
30.546215
 20
51.587606
 30
0.0
 40
10.0
100
AcDbArc
 50
120.50137
 51
130.974
  0
ARC
  5
184
100
AcDbEntity
  8
2
370
    50
100
AcDbCircle
 10
33.591569
 20
46.417904
 30
0.0
 40
16.0
100
AcDbArc
 50
89.220379
 51
120.50137
  0
LINE
  5
185
100
AcDbEntity
  8
2
370
    50
100
AcDbLine
 10
-25.134702
 20
64.237606
 30
0.0
 11
11.24021
 21
64.237606
 31
0.0
  0
LINE
  5
186
100
AcDbEntity
  8
2
370
    50
100
AcDbLine
 10
-25.134702
 20
80.037606
 30
0.0
 11
11.24021
 21
80.037606
 31
0.0
  0
LINE
  5
187
100
AcDbEntity
  8
2
370
    50
100
AcDbLine
 10
22.24021
 20
65.819818
 30
0.0
 11
22.24021
 21
58.637606
 31
0.0
  0
SPLINE
  5
188
100
AcDbEntity
  8
2
370
    50
100
AcDbSpline
210
0.0
220
0.0
230
1.0
 70
     8
 71
     3
 72
     0
 73
     0
 74
    85
 44
0.0000000001
 11
-23.257358
 21
80.037629999999993
 31
0.0
 11
-23.607707999999999
 21
80.135637000000003
 31
0.0
 11
-23.962135
 21
80.217731999999998
 31
0.0
 11
-24.319896
 21
80.283817999999997
 31
0.0
 11
-24.680261999999999
 21
80.333793999999997
 31
0.0
 11
-25.042507000000001
 21
80.367555999999993
 31
0.0
 11
-25.405901
 21
80.385002
 31
0.0
 11
-25.769715000000001
 21
80.386032
 31
0.0
 11
-26.133205
 21
80.370649999999998
 31
0.0
 11
-26.495636000000001
 21
80.338942000000003
 31
0.0
 11
-26.856280000000002
 21
80.291000999999994
 31
0.0
 11
-27.214404999999999
 21
80.226917999999998
 31
0.0
 11
-27.569279999999999
 21
80.146781000000004
 31
0.0
 11
-27.920142999999999
 21
80.050672000000006
 31
0.0
 11
-28.266311000000002
 21
79.938856000000001
 31
0.0
 11
-28.607130999999999
 21
79.811653000000007
 31
0.0
 11
-28.941949000000001
 21
79.669377999999995
 31
0.0
 11
-29.270111
 21
79.512349
 31
0.0
 11
-29.590965000000001
 21
79.340883000000005
 31
0.0
 11
-29.903856999999999
 21
79.155298000000002
 31
0.0
 11
-30.208134000000001
 21
78.955911
 31
0.0
 11
-30.503139000000001
 21
78.743053000000003
 31
0.0
 11
-30.788283
 21
78.517189999999999
 31
0.0
 11
-31.063085000000001
 21
78.278858
 31
0.0
 11
-31.327075000000001
 21
78.028589999999994
 31
0.0
 11
-31.579782000000002
 21
77.766919000000001
 31
0.0
 11
-31.820736
 21
77.494377
 31
0.0
 11
-32.049467
 21
77.211498000000006
 31
0.0
 11
-32.265501999999998
 21
76.918813999999998
 31
0.0
 11
-32.468373
 21
76.616857999999993
 31
0.0
 11
-32.657623000000001
 21
76.306191999999996
 31
0.0
 11
-32.832940000000001
 21
75.987470000000002
 31
0.0
 11
-32.994084000000001
 21
75.661349999999999
 31
0.0
 11
-33.140818000000003
 21
75.328484000000003
 31
0.0
 11
-33.272902000000002
 21
74.989529000000005
 31
0.0
 11
-33.390098000000002
 21
74.645138000000003
 31
0.0
 11
-33.492167999999999
 21
74.295966000000007
 31
0.0
 11
-33.578871999999997
 21
73.942668999999995
 31
0.0
 11
-33.649971999999998
 21
73.585901000000007
 31
0.0
 11
-33.705281999999997
 21
73.226350999999994
 31
0.0
 11
-33.744779000000001
 21
72.864727000000002
 31
0.0
 11
-33.768470000000001
 21
72.501717999999997
 31
0.0
 11
-33.776361999999999
 21
72.138015999999993
 31
0.0
 11
-33.768462999999997
 21
71.774314000000004
 31
0.0
 11
-33.744777999999997
 21
71.411302000000006
 31
0.0
 11
-33.705317000000001
 21
71.049672000000001
 31
0.0
 11
-33.650084999999997
 21
70.690115000000006
 31
0.0
 11
-33.579093999999998
 21
70.333325000000002
 31
0.0
 11
-33.492454000000002
 21
69.980012000000002
 31
0.0
 11
-33.390408999999998
 21
69.630836000000002
 31
0.0
 11
-33.273214000000003
 21
69.286445000000001
 31
0.0
 11
-33.141119000000003
 21
68.947490999999999
 31
0.0
 11
-32.994377999999998
 21
68.614624000000006
 31
0.0
 11
-32.833244000000001
 21
68.288493000000003
 31
0.0
 11
-32.657969000000001
 21
67.969748999999993
 31
0.0
 11
-32.468806000000001
 21
67.659041000000002
 31
0.0
 11
-32.266024000000002
 21
67.357026000000005
 31
0.0
 11
-32.050033999999997
 21
67.064311000000004
 31
0.0
 11
-31.821315999999999
 21
66.781424000000001
 31
0.0
 11
-31.580355999999998
 21
66.508886000000004
 31
0.0
 11
-31.327635000000001
 21
66.247220999999996
 31
0.0
 11
-31.063638000000001
 21
65.996950999999996
 31
0.0
 11
-30.788847000000001
 21
65.758600000000001
 31
0.0
 11
-30.503744999999999
 21
65.532690000000002
 31
0.0
 11
-30.208815999999999
 21
65.319744
 31
0.0
 11
-29.904591
 21
65.120275000000007
 31
0.0
 11
-29.591723000000002
 21
64.934655000000006
 31
0.0
 11
-29.270873000000002
 21
64.763186000000005
 31
0.0
 11
-28.942703999999999
 21
64.606168999999994
 31
0.0
 11
-28.607875
 21
64.463907000000006
 31
0.0
 11
-28.267050000000001
 21
64.336701000000005
 31
0.0
 11
-27.920888000000001
 21
64.224853999999993
 31
0.0
 11
-27.570052
 21
64.128668000000005
 31
0.0
 11
-27.215205999999998
 21
64.048445000000001
 31
0.0
 11
-26.857087
 21
63.984411000000001
 31
0.0
 11
-26.496442999999999
 21
63.936602999999998
 31
0.0
 11
-26.13401
 21
63.905033000000003
 31
0.0
 11
-25.770520999999999
 21
63.889713999999998
 31
0.0
 11
-25.40671
 21
63.890658000000002
 31
0.0
 11
-25.043310999999999
 21
63.907876000000002
 31
0.0
 11
-24.681058
 21
63.941381
 31
0.0
 11
-24.320685000000001
 21
63.991185000000002
 31
0.0
 11
-23.962935000000002
 21
64.057287000000002
 31
0.0
 11
-23.608567000000001
 21
64.139528999999996
 31
0.0
 11
-23.258417999999999
 21
64.237582000000003
 31
0.0
  0
ELLIPSE
  5
189
100
AcDbEntity
  8
2
370
    50
100
AcDbEllipse
 10
-25.134702
 20
72.137606
 30
0.0
 11
0.0
 21
7.9000000000000004
 31
0.0
210
0.0
220
0.0
230
1.0
 40
0.985833
 41
0.0
 42
3.1415929999999999
  0
POINT
  5
18A
100
AcDbEntity
  8
2
370
    50
100
AcDbPoint
 10
18.489215
 20
-16.985616
 30
0.0
  0
LINE
  5
18B
100
AcDbEntity
  8
2
370
    50
100
AcDbLine
 10
-96.877688
 20
26.411682
 30
0.0
 11
-111.83411
 21
26.714384
 31
0.0
  0
LINE
  5
18C
100
AcDbEntity
  8
2
370
    50
100
AcDbLine
 10
-125.23411
 20
26.714384
 30
0.0
 11
-140.190532
 21
26.411682
 31
0.0
  0
LINE
  5
18D
100
AcDbEntity
  8
2
370
    50
100
AcDbLine
 10
16.132705
 20
19.874271
 30
0.0
 11
15.989215
 21
16.714384
 31
0.0
  0
LINE
  5
18E
100
AcDbEntity
  8
2
370
    50
100
AcDbLine
 10
21.736121
 20
25.589378
 30
0.0
 11
38.989215
 21
26.714384
 31
0.0
  0
LINE
  5
18F
100
AcDbEntity
  8
2
370
    50
100
AcDbLine
 10
15.989215
 20
16.714384
 30
0.0
 11
46.989215
 21
16.714384
 31
0.0
  0
LINE
  5
190
100
AcDbEntity
  8
2
370
    50
100
AcDbLine
 10
46.989215
 20
26.714384
 30
0.0
 11
38.989215
 21
26.714384
 31
0.0
  0
LINE
  5
191
100
AcDbEntity
  8
2
370
    50
100
AcDbLine
 10
54.989215
 20
26.714384
 30
0.0
 11
46.989215
 21
26.714384
 31
0.0
  0
LINE
  5
192
100
AcDbEntity
  8
2
370
    50
100
AcDbLine
 10
65.297392
 20
20.374591
 30
0.0
 11
65.489215
 21
16.714384
 31
0.0
  0
LINE
  5
193
100
AcDbEntity
  8
2
370
    50
100
AcDbLine
 10
60.127298
 20
26.004045
 30
0.0
 11
54.989215
 21
26.714384
 31
0.0
  0
LINE
  5
194
100
AcDbEntity
  8
2
370
    50
100
AcDbLine
 10
65.489215
 20
16.714384
 30
0.0
 11
46.989215
 21
16.714384
 31
0.0
  0
ARC
  5
195
100
AcDbEntity
  8
2
370
    50
100
AcDbCircle
 10
22.126528
 20
19.602093
 30
0.0
 40
6.0
100
AcDbArc
 50
93.730748
 51
177.4
  0
ARC
  5
196
100
AcDbEntity
  8
2
370
    50
100
AcDbCircle
 10
59.305615
 20
20.060575
 30
0.0
 40
6.0
100
AcDbArc
 50
3.0
 51
82.128767
  0
TEXT
  5
197
100
AcDbEntity
  8
3
370
    50
100
AcDbText
 10
145.416291
 20
-120.006746
 30
0.0
 40
3.0
  1
１　１
 72
     5
 11
153.816291
 21
-120.006746
 31
0.0
100
AcDbText
  0
LINE
  5
198
100
AcDbEntity
  8
3
370
    25
  6
CENTER
100
AcDbLine
 10
46.989215
 20
-44.532616
 30
0.0
 11
46.989215
 21
37.820384
 31
0.0
  0
LINE
  5
199
100
AcDbEntity
  8
3
370
    25
  6
CENTER
100
AcDbLine
 10
-30.244785
 20
-26.985616
 30
0.0
 11
111.109215
 21
-26.985616
 31
0.0
  0
ARC
  5
19A
100
AcDbEntity
  8
3
370
    25
  6
CENTER
100
AcDbCircle
 10
4.117215
 20
-54.485616
 30
0.0
 40
27.5
100
AcDbArc
 50
90.0
 51
170.0
  0
LINE
  5
19B
100
AcDbEntity
  8
3
370
    25
  6
CENTER
100
AcDbLine
 10
-26.766785
 20
-71.273616
 30
0.0
 11
-22.964785
 21
-49.710616
 31
0.0
  0
LINE
  5
19C
100
AcDbEntity
  8
3
370
    25
  6
CENTER
100
AcDbLine
 10
46.989215
 20
90.051606
 30
0.0
 11
46.989215
 21
53.654606
 31
0.0
  0
LINE
  5
19D
100
AcDbEntity
  8
3
370
    25
  6
CENTER
100
AcDbLine
 10
-37.808358
 20
72.137606
 30
0.0
 11
111.109215
 21
72.137606
 31
0.0
  0
LINE
  5
19E
100
AcDbEntity
  8
3
370
    25
  6
CENTER
100
AcDbLine
 10
-133.53811
 20
-26.985616
 30
0.0
 11
-103.33011
 21
-26.985616
 31
0.0
  0
LINE
  5
19F
100
AcDbEntity
  8
3
370
    25
  6
CENTER
100
AcDbLine
 10
-118.53411
 20
37.820384
 30
0.0
 11
-118.53411
 21
-71.273616
 31
0.0
  0
DIMENSION
  5
1A0
100
AcDbEntity
  8
3
370
    25
100
AcDbDimension
  2
*D0
 10
46.989215
 20
-83.711609
 30
0.0
 11
10.489245
 21
-81.461609
 31
0.0
 70
     1
 71
     0
 72
     0
 41
0.0
 42
0.0
  3
Standard
100
AcDbAlignedDimension
 13
-26.010724
 23
-66.985627
 33
0.0
 14
46.989215
 24
-44.532616
 34
0.0
 50
180.0
  0
DIMENSION
  5
1A1
100
AcDbEntity
  8
3
370
    25
100
AcDbDimension
  2
*D1
 10
91.989215
 20
-83.711609
 30
0.0
 11
69.489215
 21
-81.461609
 31
0.0
 70
     1
 71
     0
 72
     0
 41
0.0
 42
0.0
  3
Standard
100
AcDbAlignedDimension
 13
46.989215
 23
-44.532616
 33
0.0
 14
91.989215
 24
-49.985616
 34
0.0
 50
180.0
  0
DIMENSION
  5
1A2
100
AcDbEntity
  8
3
370
    25
100
AcDbDimension
  2
*D2
 10
105.989215
 20
-83.711609
 30
0.0
 11
98.989215
 21
-81.461609
 31
0.0
 70
     1
 71
     0
 72
     0
 41
0.0
 42
0.0
  3
Standard
100
AcDbAlignedDimension
 13
91.989215
 23
-49.985616
 33
0.0
 14
105.989215
 24
-36.300616
 34
0.0
 50
180.0
  0
TEXT
  5
1A3
100
AcDbEntity
  8
3
370
    50
100
AcDbText
 10
106.831421
 20
-4.19462
 30
0.0
 40
3.5
  1
ＰＪ１／２
 41
0.83
 72
     5
 11
120.775421
 21
-4.19462
 31
0.0
100
AcDbText
  0
DIMENSION
  5
1A4
100
AcDbEntity
  8
3
370
    25
100
AcDbDimension
  2
*D3
 10
-58.98317
 20
-66.985627
 30
0.0
 11
-59.48317
 21
-48.735622
 31
0.0
 71
     0
 72
     0
 41
0.0
 42
0.0
  3
Standard
100
AcDbAlignedDimension
 13
-29.229174
 23
-26.985616
 33
0.0
 14
-26.010724
 24
-66.985627
 34
0.0
 50
90.0
100
AcDbRotatedDimension
  0
DIMENSION
  5
1A5
100
AcDbEntity
  8
3
370
    25
100
AcDbDimension
  2
*D4
 10
124.477066
 20
49.137606
 30
0.0
 11
123.977066
 21
68.637606
 31
0.0
 71
     0
 72
     0
 41
0.0
 42
0.0
  3
Standard
100
AcDbAlignedDimension
 13
91.989215
 23
95.137606
 33
0.0
 14
91.989215
 24
49.137606
 34
0.0
 50
90.0
100
AcDbRotatedDimension
  0
DIMENSION
  5
1A6
100
AcDbEntity
  8
3
370
    25
100
AcDbDimension
  2
*D5
 10
-58.98317
 20
-26.985616
 30
0.0
 11
-59.48317
 21
-15.909116
 31
0.0
 71
     0
 72
     0
 41
0.0
 42
0.0
  3
Standard
100
AcDbAlignedDimension
 13
46.989215
 23
30.167384
 33
0.0
 14
-29.229174
 24
-26.985616
 34
0.0
 50
90.0
100
AcDbRotatedDimension
  0
LWPOLYLINE
  5
1A7
100
AcDbEntity
  8
3
370
    25
100
AcDbPolyline
 90
        3
 70
     0
 10
99.137596
 20
-16.429585
 10
105.768593
 20
-4.913643
 10
122.111717
 20
-4.913643
  0
LINE
  5
1AC
100
AcDbEntity
  8
3
370
    25
100
AcDbLine
 10
100.101588
 20
-14.755437
 30
0.0
 11
99.653001
 21
-14.497136
 31
0.0
  0
LINE
  5
1AD
100
AcDbEntity
  8
3
370
    25
100
AcDbLine
 10
99.653001
 20
-14.497136
 30
0.0
 11
99.137596
 21
-16.429585
 31
0.0
  0
LINE
  5
1AE
100
AcDbEntity
  8
3
370
    25
100
AcDbLine
 10
99.137596
 20
-16.429585
 30
0.0
 11
100.550174
 21
-15.013737
 31
0.0
  0
LINE
  5
1AF
100
AcDbEntity
  8
3
370
    25
100
AcDbLine
 10
100.550174
 20
-15.013737
 30
0.0
 11
100.101588
 21
-14.755437
 31
0.0
  0
TEXT
  5
1B0
100
AcDbEntity
  8
3
370
    50
100
AcDbText
 10
115.936745
 20
-136.128235
 30
0.0
 40
3.0
  1
外観寸法図
 72
     5
 11
130.336745
 21
-136.128235
 31
0.0
100
AcDbText
  0
LINE
  5
1B1
100
AcDbEntity
  8
3
370
    50
100
AcDbLine
 10
-92.42338
 20
-124.985941
 30
0.0
 11
20.491193
 21
-124.985941
 31
0.0
  0
LINE
  5
1B2
100
AcDbEntity
  8
3
370
    50
100
AcDbLine
 10
-67.42338
 20
-117.985941
 30
0.0
 11
-67.42338
 21
-138.985941
 31
0.0
  0
TEXT
  5
1B3
100
AcDbEntity
  8
3
370
    50
100
AcDbText
 10
-88.891573
 20
-122.993364
 30
0.0
 40
3.5
  1
コードＮｏ
 72
     5
 11
-72.091573
 21
-122.993364
 31
0.0
100
AcDbText
  0
LINE
  5
1B4
100
AcDbEntity
  8
3
370
    50
100
AcDbLine
 10
-92.42338
 20
-117.985941
 30
0.0
 11
20.491193
 21
-117.985941
 31
0.0
  0
LINE
  5
1B5
100
AcDbEntity
  8
3
370
    50
100
AcDbLine
 10
-92.42338
 20
-131.985941
 30
0.0
 11
20.491193
 21
-131.985941
 31
0.0
  0
LINE
  5
1B6
100
AcDbEntity
  8
3
370
    50
100
AcDbLine
 10
-92.42338
 20
-117.985941
 30
0.0
 11
-92.42338
 21
-138.985941
 31
0.0
  0
LINE
  5
1B7
100
AcDbEntity
  8
3
370
    50
100
AcDbLine
 10
-92.42338
 20
-117.985941
 30
0.0
 11
-92.42338
 21
-138.907455
 31
0.0
  0
LINE
  5
1B8
100
AcDbEntity
  8
3
370
    50
100
AcDbLine
 10
-35.948692
 20
-117.985941
 30
0.0
 11
-35.948692
 21
-138.985941
 31
0.0
  0
TEXT
  5
1B9
100
AcDbEntity
  8
3
370
    50
100
AcDbText
 10
-15.717429
 20
-123.267006
 30
0.0
 40
3.5
  1
 品 　 名
 72
     5
 11
-0.667429
 21
-123.267006
 31
0.0
100
AcDbText
  0
TEXT
  5
1BA
100
AcDbEntity
  8
3
370
    50
100
AcDbText
 10
-59.391573
 20
-122.993364
 30
0.0
 40
3.5
  1
品　　番
 72
     5
 11
-46.091573
 21
-122.993364
 31
0.0
100
AcDbText
  0
POINT
  5
1BB
100
AcDbEntity
  8
3
370
    50
100
AcDbPoint
 10
17.905766
 20
-138.985941
 30
0.0
  0
POINT
  5
1BC
100
AcDbEntity
  8
3
370
    50
100
AcDbPoint
 10
20.491193
 20
-138.985941
 30
0.0
  0
TEXT
  5
1BD
100
AcDbEntity
  8
3
370
    50
100
AcDbText
 10
-90.333442
 20
-130.490067
 30
0.0
 40
3.5
  1
５０３６０２
 72
     5
 11
-70.033442
 21
-130.490067
 31
0.0
100
AcDbText
  0
TEXT
  5
1BE
100
AcDbEntity
  8
3
370
    50
100
AcDbText
 10
-90.229911
 20
-136.909927
 30
0.0
 40
3.5
  1
５０３６０３
 72
     5
 11
-69.929911
 21
-136.909927
 31
0.0
100
AcDbText
  0
TEXT
  5
1BF
100
AcDbEntity
  8
3
370
    50
100
AcDbText
 10
-65.95481
 20
-130.666779
 30
0.0
 40
3.5
  1
ＣＫ１３－１０
 72
     5
 11
-42.15481
 21
-130.666779
 31
0.0
100
AcDbText
  0
TEXT
  5
1C0
100
AcDbEntity
  8
3
370
    50
100
AcDbText
 10
-65.95481
 20
-137.166779
 30
0.0
 40
3.5
  1
ＣＫ１３－１０Ａ
 72
     5
 11
-38.65481
 21
-137.166779
 31
0.0
100
AcDbText
  0
TEXT
  5
1C1
100
AcDbEntity
  8
3
370
    50
100
AcDbText
 10
-34.45481
 20
-130.666779
 30
0.0
 40
3.5
  1
吐水口回転形横水栓
 72
     5
 11
-3.65481
 21
-130.666779
 31
0.0
100
AcDbText
  0
TEXT
  5
1C2
100
AcDbEntity
  8
3
370
    50
100
AcDbText
 10
-34.45481
 20
-137.166779
 30
0.0
 40
3.5
  1
吐水口回転形横水栓　固定コマ式
 72
     5
 11
17.34519
 21
-137.166779
 31
0.0
100
AcDbText
  0
ENDSEC
  0
SECTION
  2
OBJECTS
  0
DICTIONARY
  5
20B
100
AcDbDictionary
280
     0
281
     1
  3
ACAD_GROUP
350
20C
  3
ACAD_MLINESTYLE
350
20D
  0
DICTIONARY
  5
20C
102
{ACAD_REACTORS
330
20B
102
}
100
AcDbDictionary
280
     0
281
     1
  0
DICTIONARY
  5
20D
102
{ACAD_REACTORS
330
20B
102
}
100
AcDbDictionary
280
     0
281
     1
  3
Standard
350
20E
  0
MLINESTYLE
  5
20E
102
{ACAD_REACTORS
330
20D
102
}
100
AcDbMlineStyle
  2
Standard
 70
     0
  3

 62
     0
 51
90.0
 52
90.0
 71
     2
 49
0.5
 62
   256
  6
ByLayer
 49
-0.5
 62
   256
  6
ByLayer
  0
ENDSEC
  0
EOF
