  0
SECTION
  2
HEADER
  9
$ACADVER
  1
AC1015
  9
$ACADMAINTVER
 70
     6
  9
$DWGCODEPAGE
  3
ANSI_932
  9
$INSBASE
 10
0.0
 20
0.0
 30
0.0
  9
$EXTMIN
 10
-420.5
 20
-297.0
 30
1.000000E+20
  9
$EXTMAX
 10
420.5
 20
297.0
 30
-1.000000E+20
  9
$LIMMIN
 10
-420.5
 20
-297.0
  9
$LIMMAX
 10
420.5
 20
297.0
  9
$ORTHOMODE
 70
     0
  9
$REGENMODE
 70
     1
  9
$FILLMODE
 70
     1
  9
$QTEXTMODE
 70
     0
  9
$MIRRTEXT
 70
     1
  9
$LTSCALE
 40
1.0
  9
$ATTMODE
 70
     1
  9
$TEXTSIZE
 40
0.2
  9
$TRACEWID
 40
0.05
  9
$TEXTSTYLE
  7
STANDARD
  9
$CLAYER
  8
0
  9
$CELTYPE
  6
CONTINUOUS
  9
$CECOLOR
 62
   256
  9
$CELTSCALE
 40
1.0
  9
$DISPSILH
 70
     0
  9
$DIMSCALE
 40
1.0
  9
$DIMASZ
 40
2.0
  9
$DIMEXO
 40
1.0
  9
$DIMDLI
 40
0.38
  9
$DIMRND
 40
0.0
  9
$DIMDLE
 40
0.0
  9
$DIMEXE
 40
2.0
  9
$DIMTP
 40
0.0
  9
$DIMTM
 40
0.0
  9
$DIMTXT
 40
3.5
  9
$DIMCEN
 40
0.09
  9
$DIMTSZ
 40
0.0
  9
$DIMTOL
 70
     0
  9
$DIMLIM
 70
     0
  9
$DIMTIH
 70
     0
  9
$DIMTOH
 70
     0
  9
$DIMSE1
 70
     0
  9
$DIMSE2
 70
     0
  9
$DIMTAD
 70
     1
  9
$DIMZIN
 70
     0
  9
$DIMBLK
  1

  9
$DIMASO
 70
     1
  9
$DIMSHO
 70
     1
  9
$DIMPOST
  1

  9
$DIMAPOST
  1

  9
$DIMALT
 70
     0
  9
$DIMALTD
 70
     2
  9
$DIMALTF
 40
25.4
  9
$DIMLFAC
 40
1.0
  9
$DIMTOFL
 70
     0
  9
$DIMTVP
 40
0.0
  9
$DIMTIX
 70
     0
  9
$DIMSOXD
 70
     0
  9
$DIMSAH
 70
     0
  9
$DIMBLK1
  1

  9
$DIMBLK2
  1

  9
$DIMSTYLE
  2
Standard
  9
$DIMCLRD
 70
     0
  9
$DIMCLRE
 70
     0
  9
$DIMCLRT
 70
     0
  9
$DIMTFAC
 40
1.0
  9
$DIMGAP
 40
0.5
  9
$DIMJUST
 70
     0
  9
$DIMSD1
 70
     0
  9
$DIMSD2
 70
     0
  9
$DIMTOLJ
 70
     1
  9
$DIMTZIN
 70
     0
  9
$DIMALTZ
 70
     0
  9
$DIMALTTZ
 70
     0
  9
$DIMUPT
 70
     0
  9
$DIMDEC
 70
     3
  9
$DIMTDEC
 70
     4
  9
$DIMALTU
 70
     2
  9
$DIMALTTD
 70
     2
  9
$DIMTXSTY
  7
STANDARD
  9
$DIMAUNIT
 70
     0
  9
$DIMADEC
 70
     0
  9
$DIMALTRND
 40
0.0
  9
$DIMAZIN
 70
     0
  9
$DIMDSEP
 70
     0
  9
$DIMATFIT
 70
     3
  9
$DIMFRAC
 70
     0
  9
$DIMLDRBLK
  1

  9
$DIMLUNIT
 70
     2
  9
$DIMLWD
 70
     0
  9
$DIMLWE
 70
     0
  9
$DIMTMOVE
 70
     0
  9
$LUNITS
 70
     2
  9
$LUPREC
 70
     4
  9
$SKETCHINC
 40
0.1
  9
$FILLETRAD
 40
0.0
  9
$AUNITS
 70
     0
  9
$AUPREC
 70
     0
  9
$MENU
  1
acad
  9
$ELEVATION
 40
0.0
  9
$PELEVATION
 40
0.0
  9
$THICKNESS
 40
0.0
  9
$LIMCHECK
 70
     0
  9
$CHAMFERA
 40
0.0
  9
$CHAMFERB
 40
0.0
  9
$CHAMFERC
 40
0.0
  9
$CHAMFERD
 40
0.0
  9
$SKPOLY
 70
     0
  9
$TDCREATE
 40
2453383.000000000
  9
$TDUCREATE
 40
0.000000000
  9
$TDUPDATE
 40
0.000000000
  9
$TDUUPDATE
 40
2447892.625000000
  9
$TDINDWG
 40
0.0000000000
  9
$TDUSRTIMER
 40
0.0000000000
  9
$USRTIMER
 70
     1
  9
$ANGBASE
 50
0.0
  9
$ANGDIR
 70
     0
  9
$PDMODE
 70
     0
  9
$PDSIZE
 40
0.0
  9
$PLINEWID
 40
0.0
  9
$SPLFRAME
 70
     0
  9
$SPLINETYPE
 70
     6
  9
$SPLINESEGS
 70
     8
  9
$HANDSEED
  5
212
  9
$SURFTAB1
 70
     6
  9
$SURFTAB2
 70
     6
  9
$SURFTYPE
 70
     6
  9
$SURFU
 70
     6
  9
$SURFV
 70
     6
  9
$UCSBASE
  2

  9
$UCSNAME
  2

  9
$UCSORG
 10
0.0
 20
0.0
 30
0.0
  9
$UCSXDIR
 10
1.0
 20
0.0
 30
0.0
  9
$UCSYDIR
 10
0.0
 20
1.0
 30
0.0
  9
$UCSORTHOREF
  2

  9
$UCSORTHOVIEW
 70
     0
  9
$UCSORGTOP
 10
0.0
 20
0.0
 30
0.0
  9
$UCSORGBOTTOM
 10
0.0
 20
0.0
 30
0.0
  9
$UCSORGLEFT
 10
0.0
 20
0.0
 30
0.0
  9
$UCSORGRIGHT
 10
0.0
 20
0.0
 30
0.0
  9
$UCSORGFRONT
 10
0.0
 20
0.0
 30
0.0
  9
$UCSORGBACK
 10
0.0
 20
0.0
 30
0.0
  9
$PUCSBASE
  2

  9
$PUCSNAME
  2

  9
$PUCSORG
 10
0.0
 20
0.0
 30
0.0
  9
$PUCSXDIR
 10
1.0
 20
0.0
 30
0.0
  9
$PUCSYDIR
 10
0.0
 20
1.0
 30
0.0
  9
$PUCSORTHOREF
  2

  9
$PUCSORTHOVIEW
 70
     0
  9
$PUCSORGTOP
 10
0.0
 20
0.0
 30
0.0
  9
$PUCSORGBOTTOM
 10
0.0
 20
0.0
 30
0.0
  9
$PUCSORGLEFT
 10
0.0
 20
0.0
 30
0.0
  9
$PUCSORGRIGHT
 10
0.0
 20
0.0
 30
0.0
  9
$PUCSORGFRONT
 10
0.0
 20
0.0
 30
0.0
  9
$PUCSORGBACK
 10
0.0
 20
0.0
 30
0.0
  9
$USERI1
 70
     0
  9
$USERI2
 70
     0
  9
$USERI3
 70
     0
  9
$USERI4
 70
     0
  9
$USERI5
 70
     0
  9
$USERR1
 40
0.0
  9
$USERR2
 40
0.0
  9
$USERR3
 40
0.0
  9
$USERR4
 40
0.0
  9
$USERR5
 40
0.0
  9
$WORLDVIEW
 70
     1
  9
$SHADEDGE
 70
     3
  9
$SHADEDIF
 70
    70
  9
$TILEMODE
 70
     1
  9
$MAXACTVP
 70
    16
  9
$PINSBASE
 10
0.0
 20
0.0
 30
0.0
  9
$PLIMCHECK
 70
     0
  9
$PEXTMIN
 10
1.000000E+20
 20
1.000000E+20
 30
1.000000E+20
  9
$PEXTMAX
 10
-1.000000E+20
 20
-1.000000E+20
 30
-1.000000E+20
  9
$PLIMMIN
 10
0.0
 20
0.0
  9
$PLIMMAX
 10
12.0
 20
9.0
  9
$UNITMODE
 70
     0
  9
$VISRETAIN
 70
     0
  9
$PLINEGEN
 70
     1
  9
$PSLTSCALE
 70
     0
  9
$TREEDEPTH
 70
  3020
  9
$CMLSTYLE
  2
Standard
  9
$CMLJUST
 70
     0
  9
$CMLSCALE
 40
1.0
  9
$PROXYGRAPHICS
 70
     0
  9
$MEASUREMENT
 70
     0
  9
$CELWEIGHT
370
     0
  9
$ENDCAPS
280
     0
  9
$JOINSTYLE
280
     0
  9
$LWDISPLAY
290
     0
  9
$INSUNITS
 70
     0
  9
$HYPERLINKBASE
  1

  9
$STYLESHEET
  1

  9
$XEDIT
290
     1
  9
$CEPSNTYPE
380
     0
  9
$PSTYLEMODE
290
     1
  9
$FINGERPRINTGUID
  2

  9
$VERSIONGUID
  2

  9
$EXTNAMES
290
     1
  9
$PSVPSCALE
 40
0.0
  0
ENDSEC
  0
SECTION
  2
CLASSES
  0
CLASS
  1
LWPOLYLINE
  2
AcDbPolyline
  3
AutoCAD 2000
 90
        0
280
     0
281
     1
  0
CLASS
  1
IMAGE
  2
AcDbRasterImage
  3
ISM
 90
      127
280
     0
281
     1
  0
CLASS
  1
OLE2FRAME
  2
AcDbOle2Frame
  3
AutoCAD 2000
 90
        0
280
     0
281
     1
  0
CLASS
  1
HATCH
  2
AcDbHatch
  3
AutoCAD 2000
 90
        0
280
     0
281
     1
  0
CLASS
  1
DICTIONARYVAR
  2
AcDbDictionaryVar
  3
AutoCAD 2000
 90
        0
280
     0
281
     0
  0
CLASS
  1
RASTERVARIABLES
  2
AcDbRasterVariables
  3
ISM
 90
        0
280
     0
281
     0
  0
CLASS
  1
IMAGEDEF
  2
AcDbRasterImageDef
  3
ISM
 90
        0
280
     0
281
     0
  0
CLASS
  1
IMAGEDEF_REACTOR
  2
AcDbRasterImageDefReactor
  3
ISM
 90
        1
280
     0
281
     0
  0
CLASS
  1
IDBUFFER
  2
AcDbIdBuffer
  3
AutoCAD 2000
 90
        0
280
     0
281
     0
  0
CLASS
  1
SPATIAL_FILTER
  2
AcDbSpatialFilter
  3
AutoCAD 2000
 90
        0
280
     0
281
     0
  0
CLASS
  1
XRECORD
  2
AcDbXrecord
  3
AutoCAD 2000
 90
        0
280
     0
281
     0
  0
CLASS
  1
SORTENTSTABLE
  2
AcDbSortentsTable
  3
AutoCAD 2000
 90
        0
280
     0
281
     0
  0
CLASS
  1
LAYER_INDEX
  2
AcDbLayerIndex
  3
AutoCAD 2000
 90
        0
280
     0
281
     0
  0
CLASS
  1
SPATIAL_INDEX
  2
AcDbSpatialIndex
  3
AutoCAD 2000
 90
        0
280
     0
281
     0
  0
CLASS
  1
OBJECT_PTR
  2
CAseDLPNTableRecord
  3
"ASE-LPNTableRecord"
 90
        1
280
     0
281
     0
  0
CLASS
  1
LAYOUT
  2
AcDbLayout
  3
AutoCAD 2000
 90
        0
280
     0
281
     0
  0
CLASS
  1
PLOTSETTINGS
  2
AcDbPlotSettings
  3
AutoCAD 2000
 90
        0
280
     0
281
     0
  0
CLASS
  1
ACDBDICTIONARYWDFLT
  2
AcDbDictionaryWithDefault
  3
AutoCAD 2000
 90
        0
280
     0
281
     0
  0
CLASS
  1
ACDBPLACEHOLDER
  2
AcDbPlaceHolder
  3
AutoCAD 2000
 90
        0
280
     0
281
     0
  0
CLASS
  1
VBA_PROJECT
  2
AcDbVbaProject
  3
acadvba
 90
        0
280
     0
281
     0
  0
CLASS
  1
WIPEOUT
  2
AcDbWipeout
  3
WipeOut|AutoCAD Express Tool|expresstools@autodesk.com
 90
      127
280
     0
281
     1
  0
CLASS
  1
WIPEOUTVARIABLES
  2
AcDbWipeoutVariables
  3
WipeOut|AutoCAD Express Tool|expresstools@autodesk.com
 90
        0
280
     0
281
     0
  0
CLASS
  1
RTEXT
  2
RText
  3
RText|AutoCAD Express Tool|expresstools@autodesk.com
 90
        0
280
     0
281
     1
  0
CLASS
  1
ARCALIGNEDTEXT
  2
AcDbArcAlignedText
  3
ATEXT|AutoCAD Express Tool|expresstools@autodesk.com
 90
        0
280
     0
281
     1
  0
ENDSEC
  0
SECTION
  2
TABLES
  0
TABLE
  2
VPORT
  5
6
100
AcDbSymbolTable
 70
     1
  0
VPORT
  5
19
100
AcDbSymbolTableRecord
100
AcDbViewportTableRecord
  2
*ACTIVE
 70
     0
 10
0.0
 20
0.0
 11
1.0
 21
1.0
 12
0.0
 22
0.0
 13
0.0
 23
0.0
 14
1.0
 24
1.0
 15
0.0
 25
0.0
 16
0.0
 26
0.0
 36
1.0
 17
0.0
 27
0.0
 37
0.0
 40
594.0
 41
1.415825
 42
50.0
 43
0.0
 44
0.0
 50
0.0
 51
0.0
 71
     0
 72
   500
 73
     1
 74
     1
 75
     0
 76
     0
 77
     0
 78
     0
281
     0
 65
     0
110
0.0
120
0.0
130
0.0
111
1.0
121
0.0
131
0.0
112
0.0
122
1.0
132
0.0
345
0
346
0
 79
     0
146
0.0
  0
ENDTAB
  0
TABLE
  2
LTYPE
  5
3
100
AcDbSymbolTable
 70
     9
  0
LTYPE
  5
C
100
AcDbSymbolTableRecord
100
AcDbLinetypeTableRecord
  2
ByBlock
 70
    64
  3

 72
    65
 73
     0
 40
0.0
  0
LTYPE
  5
D
100
AcDbSymbolTableRecord
100
AcDbLinetypeTableRecord
  2
ByLayer
 70
    64
  3

 72
    65
 73
     0
 40
0.0
  0
LTYPE
  5
E
100
AcDbSymbolTableRecord
100
AcDbLinetypeTableRecord
  2
CONTINUOUS
 70
     0
  3
Solid line
 72
    65
 73
     0
 40
0.0
  0
LTYPE
  5
F
100
AcDbSymbolTableRecord
100
AcDbLinetypeTableRecord
  2
DASHED
 70
     0
  3
__ __ __ __ __ __ __ __ __ __ __ __ __ __ __
 72
    65
 73
     2
 40
2.0
 49
1.2
 74
     0
 49
-0.8
 74
     0
  0
LTYPE
  5
10
100
AcDbSymbolTableRecord
100
AcDbLinetypeTableRecord
  2
CENTER
 70
     0
  3
____ _ ____ _ ____ _ ____ _ ____ _ ____ _ ____
 72
    65
 73
     4
 40
12.0
 49
9.0
 74
     0
 49
-1.0
 74
     0
 49
1.0
 74
     0
 49
-1.0
 74
     0
  0
LTYPE
  5
11
100
AcDbSymbolTableRecord
100
AcDbLinetypeTableRecord
  2
HIDDEN
 70
     0
  3
_ _ _ _ _ _ _ _ _ _ _ _ _ _ _ _ _ _ _ _ _ _ _
 72
    65
 73
     2
 40
3.2
 49
2.4
 74
     0
 49
-0.8
 74
     0
  0
LTYPE
  5
12
100
AcDbSymbolTableRecord
100
AcDbLinetypeTableRecord
  2
PHANTOM
 70
     0
  3
_____ _ _ _____ _ _ _____ _ _ _____ _ _ _____
 72
    65
 73
     6
 40
13.5
 49
9.0
 74
     0
 49
-1.0
 74
     0
 49
1.0
 74
     0
 49
-0.5
 74
     0
 49
1.0
 74
     0
 49
-1.0
 74
     0
  0
LTYPE
  5
13
100
AcDbSymbolTableRecord
100
AcDbLinetypeTableRecord
  2
DOT
 70
     0
  3
...............................................
 72
    65
 73
     2
 40
1.0
 49
0.5
 74
     0
 49
-0.5
 74
     0
  0
LTYPE
  5
14
100
AcDbSymbolTableRecord
100
AcDbLinetypeTableRecord
  2
DASHDOT
 70
     0
  3
__ . __ . __ . __ . __ . __ . __ . __ . __ . __
 72
    65
 73
     4
 40
8.0
 49
5.0
 74
     0
 49
-1.0
 74
     0
 49
1.0
 74
     0
 49
-1.0
 74
     0
  0
ENDTAB
  0
TABLE
  2
LAYER
  5
1
100
AcDbSymbolTable
 70
     4
  0
LAYER
  5
15
100
AcDbSymbolTableRecord
100
AcDbLayerTableRecord
  2
0
 70
     0
 62
     7
  6
CONTINUOUS
290
     1
370
    -3
390
0
  0
LAYER
  5
16
100
AcDbSymbolTableRecord
100
AcDbLayerTableRecord
  2
1
 70
     0
 62
     7
  6
CONTINUOUS
290
     1
370
    -3
390
0
  0
LAYER
  5
17
100
AcDbSymbolTableRecord
100
AcDbLayerTableRecord
  2
2
 70
     0
 62
     7
  6
CONTINUOUS
290
     1
370
    -3
390
0
  0
LAYER
  5
18
100
AcDbSymbolTableRecord
100
AcDbLayerTableRecord
  2
3
 70
     0
 62
     7
  6
CONTINUOUS
290
     1
370
    -3
390
0
  0
ENDTAB
  0
TABLE
  2
STYLE
  5
2
100
AcDbSymbolTable
 70
     1
  0
STYLE
  5
1B
100
AcDbSymbolTableRecord
100
AcDbTextStyleTableRecord
  2
STANDARD
 70
    64
 40
0.0
 41
1.0
 50
0.0
 71
     0
 42
1.0
  3
txt
  4
BIGFONT
  0
ENDTAB
  0
TABLE
  2
VIEW
  5
4
100
AcDbSymbolTable
 70
     0
  0
ENDTAB
  0
TABLE
  2
UCS
  5
5
100
AcDbSymbolTable
 70
     0
  0
ENDTAB
  0
TABLE
  2
APPID
  5
7
100
AcDbSymbolTable
 70
     1
  0
APPID
  5
1A
100
AcDbSymbolTableRecord
100
AcDbRegAppTableRecord
  2
ACAD
 70
     0
  0
ENDTAB
  0
TABLE
  2
DIMSTYLE
  5
8
100
AcDbSymbolTable
 70
     1
100
AcDbDimStyleTable
 71
     0
  0
DIMSTYLE
105
29
100
AcDbSymbolTableRecord
100
AcDbDimStyleTableRecord
  2
Standard
 70
     0
  3

  4

 40
1.0
 41
2.0
 42
1.0
 43
0.38
 44
2.0
 45
0.0
 46
0.0
 47
0.0
 48
0.0
 71
     0
 72
     0
 73
     0
 74
     0
 75
     0
 76
     0
 77
     1
 78
     0
 79
     0
140
3.5
141
0.09
142
0.0
143
25.4
144
1.0
145
0.0
146
1.0
147
0.5
148
0.0
170
     0
171
     2
172
     0
173
     0
174
     0
175
     0
176
     0
177
     0
178
     0
179
     0
271
     3
272
     4
273
     2
274
     2
275
     0
276
     0
277
     2
278
    46
279
     0
280
     0
281
     0
282
     0
283
     1
284
     0
285
     0
286
     0
288
     0
289
     3
340
1B
341
0
342
0
343
0
344
0
371
    -2
372
    -2
  0
ENDTAB
  0
TABLE
  2
BLOCK_RECORD
  5
24
100
AcDbSymbolTable
 70
     6
  0
BLOCK_RECORD
  5
22
100
AcDbSymbolTableRecord
100
AcDbBlockTableRecord
  2
*Model_Space
340
0
  0
BLOCK_RECORD
  5
23
100
AcDbSymbolTableRecord
100
AcDbBlockTableRecord
  2
*Paper_Space
340
0
  0
BLOCK_RECORD
  5
1C
100
AcDbSymbolTableRecord
100
AcDbBlockTableRecord
  2
*D0
340
0
  0
BLOCK_RECORD
  5
1D
100
AcDbSymbolTableRecord
100
AcDbBlockTableRecord
  2
*D1
340
0
  0
BLOCK_RECORD
  5
1E
100
AcDbSymbolTableRecord
100
AcDbBlockTableRecord
  2
*D2
340
0
  0
BLOCK_RECORD
  5
1F
100
AcDbSymbolTableRecord
100
AcDbBlockTableRecord
  2
*D3
340
0
  0
BLOCK_RECORD
  5
20
100
AcDbSymbolTableRecord
100
AcDbBlockTableRecord
  2
*D4
340
0
  0
BLOCK_RECORD
  5
21
100
AcDbSymbolTableRecord
100
AcDbBlockTableRecord
  2
*D5
340
0
  0
ENDTAB
  0
ENDSEC
  0
SECTION
  2
BLOCKS
  0
BLOCK
  5
25
100
AcDbEntity
  8
0
390
0
100
AcDbBlockBegin
  2
*Model_Space
 70
     0
 10
0.0
 20
0.0
 30
0.0
  3
*Model_Space
  1

  0
ENDBLK
  5
26
100
AcDbEntity
  8
0
390
0
100
AcDbBlockEnd
  0
BLOCK
  5
27
100
AcDbEntity
 67
     1
  8
0
390
0
100
AcDbBlockBegin
  2
*Paper_Space
 70
     0
 10
0.0
 20
0.0
 30
0.0
  3
*Paper_Space
  1

  0
ENDBLK
  5
28
100
AcDbEntity
 67
     1
  8
0
390
0
100
AcDbBlockEnd
  0
BLOCK
  5
1C5
100
AcDbEntity
  8
3
100
AcDbBlockBegin
  2
*D0
 70
     1
 10
0.0
 20
0.0
 30
0.0
  3
*D0
  1

  0
TEXT
  5
1C6
100
AcDbEntity
  8
3
370
    18
100
AcDbText
 10
-39.033596
 20
-75.962639
 30
0.0
 40
3.5
  1
４８（リフト３ｍｉｎ）
 72
     5
 11
-1.233596
 21
-75.962639
 31
0.0
100
AcDbText
  0
LINE
  5
1C7
100
AcDbEntity
  8
3
370
    25
100
AcDbLine
 10
-43.613096
 20
-30.480596
 30
0.0
 11
-43.613096
 21
-77.462639
 31
0.0
  0
LINE
  5
1C8
100
AcDbEntity
  8
3
370
    25
100
AcDbLine
 10
-43.613096
 20
-76.462639
 30
0.0
 11
-41.681245
 21
-76.980277
 31
0.0
  0
LINE
  5
1C9
100
AcDbEntity
  8
3
370
    25
100
AcDbLine
 10
-43.613096
 20
-76.462639
 30
0.0
 11
-41.681245
 21
-75.945001
 31
0.0
  0
LINE
  5
1CA
100
AcDbEntity
  8
3
370
    25
100
AcDbLine
 10
-41.681245
 20
-76.980277
 30
0.0
 11
-41.681245
 21
-75.945001
 31
0.0
  0
LINE
  5
1CB
100
AcDbEntity
  8
3
370
    25
100
AcDbLine
 10
-43.613096
 20
-76.462639
 30
0.0
 11
4.045904
 21
-76.462639
 31
0.0
  0
LINE
  5
1CC
100
AcDbEntity
  8
3
370
    25
100
AcDbLine
 10
4.045904
 20
-76.462639
 30
0.0
 11
2.114052
 21
-75.945001
 31
0.0
  0
LINE
  5
1CD
100
AcDbEntity
  8
3
370
    25
100
AcDbLine
 10
4.045904
 20
-76.462639
 30
0.0
 11
2.114052
 21
-76.980277
 31
0.0
  0
LINE
  5
1CE
100
AcDbEntity
  8
3
370
    25
100
AcDbLine
 10
2.114052
 20
-75.945001
 30
0.0
 11
2.114052
 21
-76.980277
 31
0.0
  0
LINE
  5
1CF
100
AcDbEntity
  8
3
370
    25
100
AcDbLine
 10
4.045904
 20
-45.795596
 30
0.0
 11
4.045904
 21
-77.462639
 31
0.0
  0
ENDBLK
  5
1D0
100
AcDbEntity
  8
3
100
AcDbBlockEnd
  0
BLOCK
  5
1D1
100
AcDbEntity
  8
3
100
AcDbBlockBegin
  2
*D1
 70
     1
 10
0.0
 20
0.0
 30
0.0
  3
*D1
  1

  0
TEXT
  5
1D2
100
AcDbEntity
  8
3
370
    18
100
AcDbText
 10
48.045904
 20
-75.962639
 30
0.0
 40
3.5
  1
９５
 72
     5
 11
54.345904
 21
-75.962639
 31
0.0
100
AcDbText
  0
LINE
  5
1D3
100
AcDbEntity
  8
3
370
    25
100
AcDbLine
 10
4.045904
 20
-45.795596
 30
0.0
 11
4.045904
 21
-77.462639
 31
0.0
  0
LINE
  5
1D4
100
AcDbEntity
  8
3
370
    25
100
AcDbLine
 10
4.045904
 20
-76.462639
 30
0.0
 11
5.977755
 21
-76.980277
 31
0.0
  0
LINE
  5
1D5
100
AcDbEntity
  8
3
370
    25
100
AcDbLine
 10
4.045904
 20
-76.462639
 30
0.0
 11
5.977755
 21
-75.945001
 31
0.0
  0
LINE
  5
1D6
100
AcDbEntity
  8
3
370
    25
100
AcDbLine
 10
5.977755
 20
-76.980277
 30
0.0
 11
5.977755
 21
-75.945001
 31
0.0
  0
LINE
  5
1D7
100
AcDbEntity
  8
3
370
    25
100
AcDbLine
 10
4.045904
 20
-76.462639
 30
0.0
 11
99.045904
 21
-76.462639
 31
0.0
  0
LINE
  5
1D8
100
AcDbEntity
  8
3
370
    25
100
AcDbLine
 10
99.045904
 20
-76.462639
 30
0.0
 11
97.114052
 21
-75.945001
 31
0.0
  0
LINE
  5
1D9
100
AcDbEntity
  8
3
370
    25
100
AcDbLine
 10
99.045904
 20
-76.462639
 30
0.0
 11
97.114052
 21
-76.980277
 31
0.0
  0
LINE
  5
1DA
100
AcDbEntity
  8
3
370
    25
100
AcDbLine
 10
97.114052
 20
-75.945001
 30
0.0
 11
97.114052
 21
-76.980277
 31
0.0
  0
LINE
  5
1DB
100
AcDbEntity
  8
3
370
    25
100
AcDbLine
 10
99.045904
 20
-39.540596
 30
0.0
 11
99.045904
 21
-77.462639
 31
0.0
  0
ENDBLK
  5
1DC
100
AcDbEntity
  8
3
100
AcDbBlockEnd
  0
BLOCK
  5
1DD
100
AcDbEntity
  8
3
100
AcDbBlockBegin
  2
*D2
 70
     1
 10
0.0
 20
0.0
 30
0.0
  3
*D2
  1

  0
TEXT
  5
1DE
100
AcDbEntity
  8
3
370
    18
100
AcDbText
 10
-59.338375
 20
-17.980596
 30
0.0
 40
3.5
  1
３０
 50
90.0
 72
     5
 11
-59.338375
 21
-11.680596
 31
0.0
100
AcDbText
  0
LINE
  5
1DF
100
AcDbEntity
  8
3
370
    25
100
AcDbLine
 10
-46.066096
 20
-29.480596
 30
0.0
 11
-59.838375
 21
-29.480596
 31
0.0
  0
LINE
  5
1E0
100
AcDbEntity
  8
3
370
    25
100
AcDbLine
 10
-58.838375
 20
-29.480596
 30
0.0
 11
-58.320737
 21
-27.548744
 31
0.0
  0
LINE
  5
1E1
100
AcDbEntity
  8
3
370
    25
100
AcDbLine
 10
-58.838375
 20
-29.480596
 30
0.0
 11
-59.356013
 21
-27.548744
 31
0.0
  0
LINE
  5
1E2
100
AcDbEntity
  8
3
370
    25
100
AcDbLine
 10
-58.320737
 20
-27.548744
 30
0.0
 11
-59.356013
 21
-27.548744
 31
0.0
  0
LINE
  5
1E3
100
AcDbEntity
  8
3
370
    25
100
AcDbLine
 10
-58.838375
 20
-29.480596
 30
0.0
 11
-58.838375
 21
0.519404
 31
0.0
  0
LINE
  5
1E4
100
AcDbEntity
  8
3
370
    25
100
AcDbLine
 10
-58.838375
 20
0.519404
 30
0.0
 11
-59.356013
 21
-1.412448
 31
0.0
  0
LINE
  5
1E5
100
AcDbEntity
  8
3
370
    25
100
AcDbLine
 10
-58.838375
 20
0.519404
 30
0.0
 11
-58.320737
 21
-1.412448
 31
0.0
  0
LINE
  5
1E6
100
AcDbEntity
  8
3
370
    25
100
AcDbLine
 10
-59.356013
 20
-1.412448
 30
0.0
 11
-58.320737
 21
-1.412448
 31
0.0
  0
LINE
  5
1E7
100
AcDbEntity
  8
3
370
    25
100
AcDbLine
 10
-6.270096
 20
0.519404
 30
0.0
 11
-59.838375
 21
0.519404
 31
0.0
  0
ENDBLK
  5
1E8
100
AcDbEntity
  8
3
100
AcDbBlockEnd
  0
BLOCK
  5
1E9
100
AcDbEntity
  8
3
100
AcDbBlockBegin
  2
*D3
 70
     1
 10
0.0
 20
0.0
 30
0.0
  3
*D3
  1

  0
TEXT
  5
1EA
100
AcDbEntity
  8
3
370
    18
100
AcDbText
 10
138.663528
 20
-34.730596
 30
0.0
 40
3.5
  1
φ６０
 50
90.0
 72
     5
 11
138.663528
 21
-24.930596
 31
0.0
100
AcDbText
  0
LINE
  5
1EB
100
AcDbEntity
  8
3
370
    25
100
AcDbLine
 10
82.839708
 20
0.519404
 30
0.0
 11
140.163528
 21
0.519404
 31
0.0
  0
LINE
  5
1EC
100
AcDbEntity
  8
3
370
    25
100
AcDbLine
 10
139.163528
 20
0.519404
 30
0.0
 11
138.64589
 21
-1.412448
 31
0.0
  0
LINE
  5
1ED
100
AcDbEntity
  8
3
370
    25
100
AcDbLine
 10
139.163528
 20
0.519404
 30
0.0
 11
139.681167
 21
-1.412448
 31
0.0
  0
LINE
  5
1EE
100
AcDbEntity
  8
3
370
    25
100
AcDbLine
 10
138.64589
 20
-1.412448
 30
0.0
 11
139.681167
 21
-1.412448
 31
0.0
  0
LINE
  5
1EF
100
AcDbEntity
  8
3
370
    25
100
AcDbLine
 10
139.163528
 20
0.519404
 30
0.0
 11
139.163528
 21
-59.480596
 31
0.0
  0
LINE
  5
1F0
100
AcDbEntity
  8
3
370
    25
100
AcDbLine
 10
139.163528
 20
-59.480596
 30
0.0
 11
139.681167
 21
-57.548744
 31
0.0
  0
LINE
  5
1F1
100
AcDbEntity
  8
3
370
    25
100
AcDbLine
 10
139.163528
 20
-59.480596
 30
0.0
 11
138.64589
 21
-57.548744
 31
0.0
  0
LINE
  5
1F2
100
AcDbEntity
  8
3
370
    25
100
AcDbLine
 10
139.681167
 20
-57.548744
 30
0.0
 11
138.64589
 21
-57.548744
 31
0.0
  0
LINE
  5
1F3
100
AcDbEntity
  8
3
370
    25
100
AcDbLine
 10
82.839708
 20
-59.480596
 30
0.0
 11
140.163528
 21
-59.480596
 31
0.0
  0
ENDBLK
  5
1F4
100
AcDbEntity
  8
3
100
AcDbBlockEnd
  0
BLOCK
  5
1F5
100
AcDbEntity
  8
3
100
AcDbBlockBegin
  2
*D4
 70
     1
 10
0.0
 20
0.0
 30
0.0
  3
*D4
  1

  0
TEXT
  5
1F6
100
AcDbEntity
  8
3
370
    25
100
AcDbText
 10
58.045708
 20
9.290955
 30
0.0
 40
3.5
  1
５１
 72
     5
 11
64.345708
 21
9.290955
 31
0.0
100
AcDbText
  0
LINE
  5
1F7
100
AcDbEntity
  8
3
370
    25
100
AcDbLine
 10
36.045708
 20
-28.480596
 30
0.0
 11
36.045708
 21
9.790955
 31
0.0
  0
LINE
  5
1F8
100
AcDbEntity
  8
3
370
    25
100
AcDbLine
 10
36.045708
 20
8.790955
 30
0.0
 11
37.97756
 21
8.273317
 31
0.0
  0
LINE
  5
1F9
100
AcDbEntity
  8
3
370
    25
100
AcDbLine
 10
36.045708
 20
8.790955
 30
0.0
 11
37.97756
 21
9.308593
 31
0.0
  0
LINE
  5
1FA
100
AcDbEntity
  8
3
370
    25
100
AcDbLine
 10
37.97756
 20
8.273317
 30
0.0
 11
37.97756
 21
9.308593
 31
0.0
  0
LINE
  5
1FB
100
AcDbEntity
  8
3
370
    25
100
AcDbLine
 10
36.045708
 20
8.790955
 30
0.0
 11
87.045708
 21
8.790955
 31
0.0
  0
LINE
  5
1FC
100
AcDbEntity
  8
3
370
    25
100
AcDbLine
 10
87.045708
 20
8.790955
 30
0.0
 11
85.113857
 21
9.308593
 31
0.0
  0
LINE
  5
1FD
100
AcDbEntity
  8
3
370
    25
100
AcDbLine
 10
87.045708
 20
8.790955
 30
0.0
 11
85.113857
 21
8.273317
 31
0.0
  0
LINE
  5
1FE
100
AcDbEntity
  8
3
370
    25
100
AcDbLine
 10
85.113857
 20
9.308593
 30
0.0
 11
85.113857
 21
8.273317
 31
0.0
  0
LINE
  5
1FF
100
AcDbEntity
  8
3
370
    25
100
AcDbLine
 10
87.045708
 20
-28.480596
 30
0.0
 11
87.045708
 21
9.790955
 31
0.0
  0
ENDBLK
  5
200
100
AcDbEntity
  8
3
100
AcDbBlockEnd
  0
BLOCK
  5
201
100
AcDbEntity
  8
3
100
AcDbBlockBegin
  2
*D5
 70
     1
 10
0.0
 20
0.0
 30
0.0
  3
*D5
  1

  0
TEXT
  5
202
100
AcDbEntity
  8
3
370
    25
100
AcDbText
 10
89.545708
 20
9.716785
 30
0.0
 40
3.5
  1
１２
 72
     5
 11
95.845708
 21
9.716785
 31
0.0
100
AcDbText
  0
LINE
  5
203
100
AcDbEntity
  8
3
370
    25
100
AcDbLine
 10
87.045708
 20
-28.480596
 30
0.0
 11
87.045708
 21
10.216785
 31
0.0
  0
LINE
  5
204
100
AcDbEntity
  8
3
370
    25
100
AcDbLine
 10
87.045708
 20
9.216785
 30
0.0
 11
88.97756
 21
8.699147
 31
0.0
  0
LINE
  5
205
100
AcDbEntity
  8
3
370
    25
100
AcDbLine
 10
87.045708
 20
9.216785
 30
0.0
 11
88.97756
 21
9.734424
 31
0.0
  0
LINE
  5
206
100
AcDbEntity
  8
3
370
    25
100
AcDbLine
 10
88.97756
 20
8.699147
 30
0.0
 11
88.97756
 21
9.734424
 31
0.0
  0
LINE
  5
207
100
AcDbEntity
  8
3
370
    25
100
AcDbLine
 10
87.045708
 20
9.216785
 30
0.0
 11
99.045708
 21
9.216785
 31
0.0
  0
LINE
  5
208
100
AcDbEntity
  8
3
370
    25
100
AcDbLine
 10
99.045708
 20
9.216785
 30
0.0
 11
97.113857
 21
9.734424
 31
0.0
  0
LINE
  5
209
100
AcDbEntity
  8
3
370
    25
100
AcDbLine
 10
99.045708
 20
9.216785
 30
0.0
 11
97.113857
 21
8.699147
 31
0.0
  0
LINE
  5
20A
100
AcDbEntity
  8
3
370
    25
100
AcDbLine
 10
97.113857
 20
9.734424
 30
0.0
 11
97.113857
 21
8.699147
 31
0.0
  0
LINE
  5
20B
100
AcDbEntity
  8
3
370
    25
100
AcDbLine
 10
99.045708
 20
-28.480596
 30
0.0
 11
99.045708
 21
10.216785
 31
0.0
  0
ENDBLK
  5
20C
100
AcDbEntity
  8
3
100
AcDbBlockEnd
  0
ENDSEC
  0
SECTION
  2
ENTITIES
  0
LINE
  5
2A
100
AcDbEntity
  8
1
370
   100
100
AcDbLine
 10
-186.510785
 20
137.514384
 30
0.0
 11
197.491193
 21
137.514384
 31
0.0
  0
LINE
  5
2B
100
AcDbEntity
  8
1
370
   100
100
AcDbLine
 10
-186.510785
 20
137.514384
 30
0.0
 11
-186.510785
 21
-138.985941
 31
0.0
  0
LINE
  5
2C
100
AcDbEntity
  8
1
370
   100
100
AcDbLine
 10
-186.510785
 20
-138.985941
 30
0.0
 11
197.491193
 21
-138.985941
 31
0.0
  0
LINE
  5
2D
100
AcDbEntity
  8
1
370
   100
100
AcDbLine
 10
197.491193
 20
-138.985941
 30
0.0
 11
197.491193
 21
137.514384
 31
0.0
  0
TEXT
  5
2E
100
AcDbEntity
  8
1
370
    50
100
AcDbText
 10
179.814221
 20
-113.126428
 30
0.0
 40
3.0
  1
設計
 72
     5
 11
185.214221
 21
-113.126428
 31
0.0
100
AcDbText
  0
TEXT
  5
2F
100
AcDbEntity
  8
1
370
    50
100
AcDbText
 10
189.563739
 20
-113.049829
 30
0.0
 40
3.0
  1
製図
 72
     5
 11
194.963739
 21
-113.049829
 31
0.0
100
AcDbText
  0
TEXT
  5
30
100
AcDbEntity
  8
1
370
    50
100
AcDbText
 10
159.502872
 20
-113.126428
 30
0.0
 40
3.0
  1
承認
 72
     5
 11
164.902872
 21
-113.126428
 31
0.0
100
AcDbText
  0
TEXT
  5
31
100
AcDbEntity
  8
1
370
    50
100
AcDbText
 10
169.494839
 20
-113.09901
 30
0.0
 40
3.0
  1
検図
 72
     5
 11
174.894839
 21
-113.09901
 31
0.0
100
AcDbText
  0
LINE
  5
32
100
AcDbEntity
  8
1
370
    25
100
AcDbLine
 10
142.491193
 20
-113.985941
 30
0.0
 11
197.491193
 21
-113.985941
 31
0.0
  0
LINE
  5
33
100
AcDbEntity
  8
1
370
    25
100
AcDbLine
 10
171.241193
 20
-122.985941
 30
0.0
 11
171.241193
 21
-129.985941
 31
0.0
  0
TEXT
  5
34
100
AcDbEntity
  8
1
370
    50
100
AcDbText
 10
159.775795
 20
-128.006264
 30
0.0
 40
3.0
  1
日　付
 72
     5
 11
168.175795
 21
-128.006264
 31
0.0
100
AcDbText
  0
LINE
  5
35
100
AcDbEntity
  8
1
370
    50
100
AcDbLine
 10
20.491193
 20
-129.985941
 30
0.0
 11
197.491193
 21
-129.985941
 31
0.0
  0
TEXT
  5
36
100
AcDbEntity
  8
1
370
    50
100
AcDbText
 10
143.887505
 20
-128.161203
 30
0.0
 40
3.0
  1
第三角法
 72
     5
 11
155.287505
 21
-128.161203
 31
0.0
100
AcDbText
  0
TEXT
  5
37
100
AcDbEntity
  8
1
370
    50
100
AcDbText
 10
145.54371
 20
-112.99901
 30
0.0
 40
3.0
  1
尺　度
 72
     5
 11
153.94371
 21
-112.99901
 31
0.0
100
AcDbText
  0
LINE
  5
38
100
AcDbEntity
  8
1
370
   100
100
AcDbLine
 10
20.491193
 20
-108.985941
 30
0.0
 11
197.491193
 21
-108.985941
 31
0.0
  0
LINE
  5
39
100
AcDbEntity
  8
1
370
    50
100
AcDbLine
 10
105.991193
 20
-108.985941
 30
0.0
 11
105.991193
 21
-138.985941
 31
0.0
  0
LINE
  5
3A
100
AcDbEntity
  8
1
370
    25
100
AcDbLine
 10
187.491193
 20
-122.985941
 30
0.0
 11
187.491193
 21
-108.985941
 31
0.0
  0
LINE
  5
3B
100
AcDbEntity
  8
1
370
    25
100
AcDbLine
 10
177.491193
 20
-122.985941
 30
0.0
 11
177.491193
 21
-108.985941
 31
0.0
  0
LINE
  5
3C
100
AcDbEntity
  8
1
370
    25
100
AcDbLine
 10
167.491193
 20
-122.985941
 30
0.0
 11
167.491193
 21
-108.985941
 31
0.0
  0
LINE
  5
3D
100
AcDbEntity
  8
1
370
    50
100
AcDbLine
 10
142.491193
 20
-138.985941
 30
0.0
 11
142.491193
 21
-108.985941
 31
0.0
  0
LINE
  5
3E
100
AcDbEntity
  8
1
370
    50
100
AcDbLine
 10
94.991193
 20
-108.985941
 30
0.0
 11
94.991193
 21
-138.985941
 31
0.0
  0
LINE
  5
3F
100
AcDbEntity
  8
1
370
    50
100
AcDbLine
 10
31.491193
 20
-108.985941
 30
0.0
 11
31.491193
 21
-129.985941
 31
0.0
  0
LINE
  5
40
100
AcDbEntity
  8
1
370
    50
100
AcDbLine
 10
142.491193
 20
-122.985941
 30
0.0
 11
197.491193
 21
-122.985941
 31
0.0
  0
TEXT
  5
41
100
AcDbEntity
  8
1
370
    50
100
AcDbText
 10
143.550565
 20
-135.940469
 30
0.0
 40
3.0
  1
コードＮｏ
 41
0.9
 72
     5
 11
156.510565
 21
-135.940469
 31
0.0
100
AcDbText
  0
TEXT
  5
42
100
AcDbEntity
  8
1
370
   100
100
AcDbText
 10
26.443387
 20
-136.43783
 30
0.0
 40
4.0
  1
ミズタニバルブ工業株式会社
 41
1.2
 72
     5
 11
87.883387
 21
-136.43783
 31
0.0
100
AcDbText
  0
LINE
  5
43
100
AcDbEntity
  8
1
370
    50
100
AcDbLine
 10
20.491193
 20
-119.485941
 30
0.0
 11
142.491193
 21
-119.485941
 31
0.0
  0
LINE
  5
44
100
AcDbEntity
  8
1
370
    50
100
AcDbLine
 10
57.741193
 20
-119.485941
 30
0.0
 11
57.741193
 21
-129.985941
 31
0.0
  0
LINE
  5
45
100
AcDbEntity
  8
1
370
    50
100
AcDbLine
 10
68.741193
 20
-119.485941
 30
0.0
 11
68.741193
 21
-129.985941
 31
0.0
  0
LINE
  5
46
100
AcDbEntity
  8
1
370
    50
100
AcDbLine
 10
157.491193
 20
-138.985941
 30
0.0
 11
157.491193
 21
-108.985941
 31
0.0
  0
TEXT
  5
47
100
AcDbEntity
  8
1
370
    50
100
AcDbText
 10
172.549065
 20
-128.050147
 30
0.0
 40
3.0
  1
　　・　　・
 72
     5
 11
189.949065
 21
-128.050147
 31
0.0
100
AcDbText
  0
LINE
  5
48
100
AcDbEntity
  8
1
370
   100
100
AcDbLine
 10
20.491193
 20
-108.985941
 30
0.0
 11
20.491193
 21
-138.985941
 31
0.0
  0
TEXT
  5
49
100
AcDbEntity
  8
1
370
    50
100
AcDbText
 10
145.416291
 20
-120.006746
 30
0.0
 40
3.0
  1
　／ 
 72
     5
 11
150.816291
 21
-120.006746
 31
0.0
100
AcDbText
  0
TEXT
  5
4A
100
AcDbEntity
  8
1
370
    50
100
AcDbText
 10
96.952061
 20
-136.012454
 30
0.0
 40
3.0
  1
備 考 
 72
     5
 11
103.852061
 21
-136.012454
 31
0.0
100
AcDbText
  0
TEXT
  5
4B
100
AcDbEntity
  8
1
370
    50
100
AcDbText
 10
96.756267
 20
-115.44592
 30
0.0
 40
3.0
  1
仕 上
 72
     5
 11
103.656267
 21
-115.44592
 31
0.0
100
AcDbText
  0
TEXT
  5
4C
100
AcDbEntity
  8
1
370
    50
100
AcDbText
 10
96.723588
 20
-124.445833
 30
0.0
 40
3.0
  1
表 面
 72
     5
 11
103.623588
 21
-124.445833
 31
0.0
100
AcDbText
  0
TEXT
  5
4D
100
AcDbEntity
  8
1
370
    50
100
AcDbText
 10
96.723588
 20
-127.945833
 30
0.0
 40
3.0
  1
処 理
 72
     5
 11
103.623588
 21
-127.945833
 31
0.0
100
AcDbText
  0
TEXT
  5
4E
100
AcDbEntity
  8
1
370
    50
100
AcDbText
 10
22.396675
 20
-115.8467
 30
0.0
 40
3.0
  1
品 名
 72
     5
 11
29.296675
 21
-115.8467
 31
0.0
100
AcDbText
  0
TEXT
  5
4F
100
AcDbEntity
  8
1
370
    50
100
AcDbText
 10
22.198883
 20
-126.231267
 30
0.0
 40
3.0
  1
材 質
 72
     5
 11
29.098883
 21
-126.231267
 31
0.0
100
AcDbText
  0
TEXT
  5
50
100
AcDbEntity
  8
1
370
    50
100
AcDbText
 10
59.448883
 20
-126.231267
 30
0.0
 40
3.0
  1
規 格
 72
     5
 11
66.348883
 21
-126.231267
 31
0.0
100
AcDbText
  0
POINT
  5
51
100
AcDbEntity
  8
2
370
    50
100
AcDbPoint
 10
-1.510785
 20
-0.985616
 30
0.0
  0
TEXT
  5
52
100
AcDbEntity
  8
2
370
    50
100
AcDbText
 10
-172.010785
 20
36.707384
 30
0.0
 40
1.0
  1
　
 72
     5
 11
-172.210785
 21
36.707384
 31
0.0
100
AcDbText
  0
LINE
  5
53
100
AcDbEntity
  8
2
370
    50
100
AcDbLine
 10
-6.431096
 20
-12.480596
 30
0.0
 11
-6.431096
 21
-6.780596
 31
0.0
  0
LINE
  5
54
100
AcDbEntity
  8
2
370
    50
100
AcDbLine
 10
-11.431096
 20
-17.480596
 30
0.0
 11
-12.926099
 21
-17.480596
 31
0.0
  0
ARC
  5
55
100
AcDbEntity
  8
2
370
    50
100
AcDbCircle
 10
-11.431096
 20
-12.480596
 30
0.0
 40
5.0
100
AcDbArc
 50
270.0
 51
360.0
  0
LINE
  5
56
100
AcDbEntity
  8
2
370
    50
100
AcDbLine
 10
-10.546096
 20
-41.480596
 30
0.0
 11
-12.926099
 21
-41.480596
 31
0.0
  0
LINE
  5
57
100
AcDbEntity
  8
2
370
    50
100
AcDbLine
 10
-12.362096
 20
-29.480596
 30
0.0
 11
-12.362096
 21
-17.480596
 31
0.0
  0
LINE
  5
58
100
AcDbEntity
  8
2
370
    50
100
AcDbLine
 10
-12.362096
 20
-18.293596
 30
0.0
 11
-10.954096
 21
-17.480596
 31
0.0
  0
LINE
  5
59
100
AcDbEntity
  8
2
370
    50
100
AcDbLine
 10
-12.926099
 20
-18.293596
 30
0.0
 11
-12.362096
 21
-18.293596
 31
0.0
  0
LINE
  5
5A
100
AcDbEntity
  8
2
370
    50
100
AcDbLine
 10
-12.362096
 20
-40.667596
 30
0.0
 11
-10.954096
 21
-41.480596
 31
0.0
  0
LINE
  5
5B
100
AcDbEntity
  8
2
370
    50
100
AcDbLine
 10
-12.926099
 20
-40.667596
 30
0.0
 11
-12.362096
 21
-40.667596
 31
0.0
  0
LINE
  5
5C
100
AcDbEntity
  8
2
370
    50
100
AcDbLine
 10
-12.362096
 20
-41.480596
 30
0.0
 11
-12.362096
 21
-29.480596
 31
0.0
  0
ARC
  5
5D
100
AcDbEntity
  8
2
370
    50
100
AcDbCircle
 10
19.284904
 20
-11.409596
 30
0.0
 40
5.821
100
AcDbArc
 50
245.283
 51
324.882
  0
LINE
  5
5E
100
AcDbEntity
  8
2
370
    50
100
AcDbLine
 10
14.522904
 20
-13.063596
 30
0.0
 11
14.522904
 21
-6.780596
 31
0.0
  0
ARC
  5
5F
100
AcDbEntity
  8
2
370
    50
100
AcDbCircle
 10
18.522904
 20
-13.063596
 30
0.0
 40
4.0
100
AcDbArc
 50
180.0
 51
245.283
  0
LINE
  5
60
100
AcDbEntity
  8
2
370
    25
100
AcDbLine
 10
-6.431096
 20
-9.480596
 30
0.0
 11
4.045904
 21
-9.480596
 31
0.0
  0
LINE
  5
61
100
AcDbEntity
  8
2
370
    50
100
AcDbLine
 10
-5.269096
 20
-9.480596
 30
0.0
 11
-6.431096
 21
-11.493596
 31
0.0
  0
LINE
  5
62
100
AcDbEntity
  8
2
370
    50
100
AcDbLine
 10
13.361904
 20
-9.480596
 30
0.0
 11
14.523904
 21
-11.493596
 31
0.0
  0
LINE
  5
63
100
AcDbEntity
  8
2
370
    25
100
AcDbLine
 10
4.045904
 20
-9.480596
 30
0.0
 11
14.523904
 21
-9.480596
 31
0.0
  0
LINE
  5
64
100
AcDbEntity
  8
2
370
    50
100
AcDbLine
 10
32.045904
 20
-16.730596
 30
0.0
 11
32.045904
 21
-42.230596
 31
0.0
  0
LINE
  5
65
100
AcDbEntity
  8
2
370
    50
100
AcDbLine
 10
32.045904
 20
-42.230596
 30
0.0
 11
30.906904
 21
-44.202596
 31
0.0
  0
LINE
  5
66
100
AcDbEntity
  8
2
370
    50
100
AcDbLine
 10
32.045904
 20
-16.730596
 30
0.0
 11
30.906904
 21
-14.758596
 31
0.0
  0
LINE
  5
67
100
AcDbEntity
  8
2
370
    50
100
AcDbLine
 10
24.045904
 20
-44.202596
 30
0.0
 11
30.906904
 21
-44.202596
 31
0.0
  0
ARC
  5
68
100
AcDbEntity
  8
2
370
    50
100
AcDbCircle
 10
-8.704096
 20
-71.423596
 30
0.0
 40
30.0
100
AcDbArc
 50
86.481
 51
93.519
  0
LINE
  5
69
100
AcDbEntity
  8
2
370
    50
100
AcDbLine
 10
24.045904
 20
-14.758596
 30
0.0
 11
30.906904
 21
-14.758596
 31
0.0
  0
ARC
  5
6A
100
AcDbEntity
  8
2
370
    50
100
AcDbCircle
 10
19.548904
 20
-45.362596
 30
0.0
 40
4.0
100
AcDbArc
 50
45.0
 51
79.468
  0
ARC
  5
6B
100
AcDbEntity
  8
2
370
    50
100
AcDbCircle
 10
17.537904
 20
-56.177596
 30
0.0
 40
15.0
100
AcDbArc
 50
79.468
 51
105.606
  0
ARC
  5
6C
100
AcDbEntity
  8
2
370
    50
100
AcDbCircle
 10
4.045904
 20
17.519404
 30
0.0
 40
60.0
100
AcDbArc
 50
259.525
 51
279.069
  0
LINE
  5
6D
100
AcDbEntity
  8
2
370
    50
100
AcDbLine
 10
24.045904
 20
-44.202596
 30
0.0
 11
22.376904
 21
-42.534596
 31
0.0
  0
LINE
  5
6E
100
AcDbEntity
  8
2
370
    50
100
AcDbLine
 10
-126.892644
 20
-13.234615
 30
0.0
 11
-126.892644
 21
-6.690615
 31
0.0
  0
LINE
  5
6F
100
AcDbEntity
  8
2
370
    50
100
AcDbLine
 10
-105.937644
 20
-13.234615
 30
0.0
 11
-105.937644
 21
-6.690615
 31
0.0
  0
LINE
  5
70
100
AcDbEntity
  8
2
370
    50
100
AcDbLine
 10
-103.665644
 20
-36.751615
 30
0.0
 11
-104.855402
 21
-37.438501
 31
0.0
  0
LINE
  5
71
100
AcDbEntity
  8
2
370
    50
100
AcDbLine
 10
-103.665644
 20
-36.751615
 30
0.0
 11
-103.665644
 21
-35.377826
 31
0.0
  0
LINE
  5
72
100
AcDbEntity
  8
2
370
    50
100
AcDbLine
 10
-129.165644
 20
-36.751615
 30
0.0
 11
-127.975887
 21
-37.438501
 31
0.0
  0
LINE
  5
73
100
AcDbEntity
  8
2
370
    50
100
AcDbLine
 10
-129.165644
 20
-35.377826
 30
0.0
 11
-129.165644
 21
-36.751615
 31
0.0
  0
LINE
  5
74
100
AcDbEntity
  8
2
370
    25
100
AcDbLine
 10
-116.415644
 20
-9.390615
 30
0.0
 11
-105.937644
 21
-9.390615
 31
0.0
  0
LINE
  5
75
100
AcDbEntity
  8
2
370
    50
100
AcDbLine
 10
-125.730644
 20
-6.690615
 30
0.0
 11
-125.730644
 21
-9.390615
 31
0.0
  0
LINE
  5
76
100
AcDbEntity
  8
2
370
    50
100
AcDbLine
 10
-125.730644
 20
-9.390615
 30
0.0
 11
-126.892644
 21
-11.403615
 31
0.0
  0
LINE
  5
77
100
AcDbEntity
  8
2
370
    50
100
AcDbLine
 10
-107.099644
 20
-6.690615
 30
0.0
 11
-107.099644
 21
-9.390615
 31
0.0
  0
LINE
  5
78
100
AcDbEntity
  8
2
370
    50
100
AcDbLine
 10
-107.099644
 20
-9.390615
 30
0.0
 11
-105.937644
 21
-11.403615
 31
0.0
  0
LINE
  5
79
100
AcDbEntity
  8
2
370
    25
100
AcDbLine
 10
-116.415644
 20
-9.390615
 30
0.0
 11
-126.892644
 21
-9.390615
 31
0.0
  0
ARC
  5
7A
100
AcDbEntity
  8
2
370
    50
100
AcDbCircle
 10
17.874913
 20
96.369328
 30
0.0
 40
15.0
100
AcDbArc
 50
253.33
 51
286.671
  0
ARC
  5
7B
100
AcDbEntity
  8
2
370
    50
100
AcDbCircle
 10
22.177913
 20
85.999328
 30
0.0
 40
4.0
100
AcDbArc
 50
269.496
 51
298.96
  0
ARC
  5
7C
100
AcDbEntity
  8
2
370
    50
100
AcDbCircle
 10
4.114913
 20
22.749328
 30
0.0
 40
60.0
100
AcDbArc
 50
80.932
 51
100.475
  0
ARC
  5
7D
100
AcDbEntity
  8
2
370
    50
100
AcDbCircle
 10
4.114913
 20
116.749328
 30
0.0
 40
60.0
100
AcDbArc
 50
259.525
 51
279.069
  0
ARC
  5
7E
100
AcDbEntity
  8
2
370
    50
100
AcDbCircle
 10
17.874913
 20
43.129328
 30
0.0
 40
15.0
100
AcDbArc
 50
73.33
 51
106.671
  0
ARC
  5
7F
100
AcDbEntity
  8
2
370
    50
100
AcDbCircle
 10
22.177913
 20
53.499328
 30
0.0
 40
4.0
100
AcDbArc
 50
61.041
 51
90.505
  0
LINE
  5
80
100
AcDbEntity
  8
2
370
    50
100
AcDbLine
 10
32.114913
 20
56.999328
 30
0.0
 11
32.114913
 21
82.499328
 31
0.0
  0
LINE
  5
81
100
AcDbEntity
  8
2
370
    50
100
AcDbLine
 10
24.114913
 20
56.999328
 30
0.0
 11
32.114913
 21
56.999328
 31
0.0
  0
LINE
  5
82
100
AcDbEntity
  8
2
370
    50
100
AcDbLine
 10
24.114913
 20
82.499328
 30
0.0
 11
32.114913
 21
82.499328
 31
0.0
  0
LINE
  5
83
100
AcDbEntity
  8
2
370
    50
100
AcDbLine
 10
30.142913
 20
69.749328
 30
0.0
 11
24.114913
 21
69.749328
 31
0.0
  0
ARC
  5
84
100
AcDbEntity
  8
2
370
    50
100
AcDbCircle
 10
20.824913
 20
76.124328
 30
0.0
 40
11.29
100
AcDbArc
 50
325.623
 51
34.377
  0
ARC
  5
85
100
AcDbEntity
  8
2
370
    50
100
AcDbCircle
 10
20.824913
 20
63.374328
 30
0.0
 40
11.29
100
AcDbArc
 50
325.623
 51
34.377
  0
LINE
  5
86
100
AcDbEntity
  8
2
370
    50
100
AcDbLine
 10
30.142913
 20
69.749328
 30
0.0
 11
25.464913
 21
69.749328
 31
0.0
  0
LINE
  5
87
100
AcDbEntity
  8
2
370
    50
100
AcDbLine
 10
-10.477087
 20
81.749328
 30
0.0
 11
-12.85709
 21
81.749328
 31
0.0
  0
ARC
  5
88
100
AcDbEntity
  8
2
370
    50
100
AcDbCircle
 10
-8.635087
 20
111.692328
 30
0.0
 40
30.0
100
AcDbArc
 50
266.481
 51
273.52
  0
LINE
  5
89
100
AcDbEntity
  8
2
370
    50
100
AcDbLine
 10
-10.477087
 20
57.749328
 30
0.0
 11
-12.85709
 21
57.749328
 31
0.0
  0
ARC
  5
8A
100
AcDbEntity
  8
2
370
    50
100
AcDbCircle
 10
-8.635087
 20
27.806328
 30
0.0
 40
30.0
100
AcDbArc
 50
86.481
 51
93.519
  0
LINE
  5
8B
100
AcDbEntity
  8
2
370
    50
100
AcDbLine
 10
-11.885087
 20
69.749328
 30
0.0
 11
-11.885087
 21
57.749328
 31
0.0
  0
LINE
  5
8C
100
AcDbEntity
  8
2
370
    50
100
AcDbLine
 10
-11.885087
 20
80.936328
 30
0.0
 11
-10.477087
 21
81.749328
 31
0.0
  0
LINE
  5
8D
100
AcDbEntity
  8
2
370
    50
100
AcDbLine
 10
-12.85709
 20
80.936328
 30
0.0
 11
-11.885087
 21
80.936328
 31
0.0
  0
LINE
  5
8E
100
AcDbEntity
  8
2
370
    50
100
AcDbLine
 10
-11.885087
 20
58.562328
 30
0.0
 11
-10.477087
 21
57.749328
 31
0.0
  0
LINE
  5
8F
100
AcDbEntity
  8
2
370
    50
100
AcDbLine
 10
-12.85709
 20
58.562328
 30
0.0
 11
-11.885087
 21
58.562328
 31
0.0
  0
LINE
  5
90
100
AcDbEntity
  8
2
370
    50
100
AcDbLine
 10
-11.885087
 20
69.749328
 30
0.0
 11
-11.885087
 21
81.749328
 31
0.0
  0
LINE
  5
91
100
AcDbEntity
  8
2
370
    50
100
AcDbLine
 10
24.045924
 20
-22.119596
 30
0.0
 11
30.073904
 21
-22.119596
 31
0.0
  0
LINE
  5
92
100
AcDbEntity
  8
2
370
    50
100
AcDbLine
 10
24.045924
 20
-36.841596
 30
0.0
 11
30.073904
 21
-36.841596
 31
0.0
  0
ARC
  5
93
100
AcDbEntity
  8
2
370
    50
100
AcDbCircle
 10
36.798192
 20
-29.480596
 30
0.0
 40
14.724288
100
AcDbArc
 50
150.00514
 51
209.99486
  0
ARC
  5
94
100
AcDbEntity
  8
2
370
    50
100
AcDbCircle
 10
17.321486
 20
-29.480596
 30
0.0
 40
14.724418
100
AcDbArc
 50
330.005432
 51
29.994568
  0
ARC
  5
95
100
AcDbEntity
  8
2
370
    50
100
AcDbCircle
 10
27.625299
 20
-18.439096
 30
0.0
 40
4.420605
100
AcDbArc
 50
303.635476
 51
360.0
  0
ARC
  5
96
100
AcDbEntity
  8
2
370
    50
100
AcDbCircle
 10
26.494354
 20
-18.439165
 30
0.0
 40
4.42045
100
AcDbArc
 50
147.813463
 51
236.365908
  0
ARC
  5
97
100
AcDbEntity
  8
2
370
    50
100
AcDbCircle
 10
27.625299
 20
-40.522096
 30
0.0
 40
4.420605
100
AcDbArc
 50
0.0
 51
56.364524
  0
ARC
  5
98
100
AcDbEntity
  8
2
370
    50
100
AcDbCircle
 10
26.494354
 20
-40.522027
 30
0.0
 40
4.42045
100
AcDbArc
 50
123.634092
 51
212.186537
  0
ARC
  5
99
100
AcDbEntity
  8
2
370
    50
100
AcDbCircle
 10
-166.892644
 20
-13.234615
 30
0.0
 40
40.0
100
AcDbArc
 50
359.722565
 51
360.0
  0
ARC
  5
9A
100
AcDbEntity
  8
2
370
    50
100
AcDbCircle
 10
-65.937644
 20
-13.234615
 30
0.0
 40
40.0
100
AcDbArc
 50
180.001
 51
180.282446
  0
LINE
  5
9B
100
AcDbEntity
  8
2
370
    50
100
AcDbLine
 10
-6.431096
 20
-12.480596
 30
0.0
 11
-6.431096
 21
-0.642596
 31
0.0
  0
LINE
  5
9C
100
AcDbEntity
  8
2
370
    50
100
AcDbLine
 10
14.522904
 20
-13.063596
 30
0.0
 11
14.522904
 21
-0.641596
 31
0.0
  0
LINE
  5
9D
100
AcDbEntity
  8
2
370
    50
100
AcDbLine
 10
-6.431096
 20
-0.642596
 30
0.0
 11
-5.270096
 21
0.519404
 31
0.0
  0
LINE
  5
9E
100
AcDbEntity
  8
2
370
    50
100
AcDbLine
 10
-5.270096
 20
0.519404
 30
0.0
 11
4.045904
 21
0.519404
 31
0.0
  0
LINE
  5
9F
100
AcDbEntity
  8
2
370
    50
100
AcDbLine
 10
4.045904
 20
0.519404
 30
0.0
 11
13.361904
 21
0.519404
 31
0.0
  0
LINE
  5
A0
100
AcDbEntity
  8
2
370
    50
100
AcDbLine
 10
13.361904
 20
0.519404
 30
0.0
 11
14.522904
 21
-0.642596
 31
0.0
  0
LINE
  5
A1
100
AcDbEntity
  8
2
370
    50
100
AcDbLine
 10
-6.431096
 20
-9.480596
 30
0.0
 11
-5.269096
 21
-9.480596
 31
0.0
  0
LINE
  5
A2
100
AcDbEntity
  8
2
370
    25
100
AcDbLine
 10
-5.270096
 20
0.519404
 30
0.0
 11
-5.269096
 21
-9.480596
 31
0.0
  0
LINE
  5
A3
100
AcDbEntity
  8
2
370
    25
100
AcDbLine
 10
13.361904
 20
0.519404
 30
0.0
 11
13.361904
 21
-9.480596
 31
0.0
  0
LINE
  5
A4
100
AcDbEntity
  8
2
370
    50
100
AcDbLine
 10
13.361904
 20
-9.480596
 30
0.0
 11
14.523904
 21
-9.480596
 31
0.0
  0
LINE
  5
A5
100
AcDbEntity
  8
2
370
    50
100
AcDbLine
 10
-126.892644
 20
-0.552615
 30
0.0
 11
-125.730644
 21
0.609385
 31
0.0
  0
LINE
  5
A6
100
AcDbEntity
  8
2
370
    50
100
AcDbLine
 10
-125.730644
 20
0.609385
 30
0.0
 11
-116.415644
 21
0.609385
 31
0.0
  0
LINE
  5
A7
100
AcDbEntity
  8
2
370
    50
100
AcDbLine
 10
-116.415644
 20
0.609385
 30
0.0
 11
-107.099644
 21
0.609385
 31
0.0
  0
LINE
  5
A8
100
AcDbEntity
  8
2
370
    50
100
AcDbLine
 10
-107.099644
 20
0.609385
 30
0.0
 11
-105.937644
 21
-0.552615
 31
0.0
  0
LINE
  5
A9
100
AcDbEntity
  8
2
370
    50
100
AcDbLine
 10
-126.892644
 20
-9.390615
 30
0.0
 11
-125.730644
 21
-9.390615
 31
0.0
  0
LINE
  5
AA
100
AcDbEntity
  8
2
370
    25
100
AcDbLine
 10
-125.730644
 20
0.609385
 30
0.0
 11
-125.730644
 21
-9.390615
 31
0.0
  0
LINE
  5
AB
100
AcDbEntity
  8
2
370
    50
100
AcDbLine
 10
-125.730644
 20
-9.390615
 30
0.0
 11
-126.892644
 21
-11.403615
 31
0.0
  0
LINE
  5
AC
100
AcDbEntity
  8
2
370
    25
100
AcDbLine
 10
-107.099644
 20
0.609385
 30
0.0
 11
-107.099644
 21
-9.390615
 31
0.0
  0
LINE
  5
AD
100
AcDbEntity
  8
2
370
    50
100
AcDbLine
 10
-107.099644
 20
-9.390615
 30
0.0
 11
-105.937644
 21
-11.403615
 31
0.0
  0
LINE
  5
AE
100
AcDbEntity
  8
2
370
    50
100
AcDbLine
 10
-107.099644
 20
-9.390615
 30
0.0
 11
-105.937644
 21
-9.390615
 31
0.0
  0
LINE
  5
AF
100
AcDbEntity
  8
2
370
    50
100
AcDbLine
 10
-126.892644
 20
-13.234615
 30
0.0
 11
-126.892644
 21
-0.552615
 31
0.0
  0
LINE
  5
B0
100
AcDbEntity
  8
2
370
    50
100
AcDbLine
 10
-105.937644
 20
-13.234615
 30
0.0
 11
-105.937644
 21
-0.552615
 31
0.0
  0
LINE
  5
B1
100
AcDbEntity
  8
2
370
    50
100
AcDbLine
 10
-126.892644
 20
-0.552615
 30
0.0
 11
-105.937644
 21
-0.552615
 31
0.0
  0
LINE
  5
B2
100
AcDbEntity
  8
2
370
    50
100
AcDbLine
 10
-6.431096
 20
-0.642596
 30
0.0
 11
14.522904
 21
-0.642596
 31
0.0
  0
CIRCLE
  5
B3
100
AcDbEntity
  8
2
370
    50
100
AcDbCircle
 10
4.114913
 20
69.749328
 30
0.0
 40
9.315
  0
CIRCLE
  5
B4
100
AcDbEntity
  8
2
370
    50
100
AcDbCircle
 10
4.114913
 20
69.749328
 30
0.0
 40
10.477
  0
CIRCLE
  5
B5
100
AcDbEntity
  8
2
370
    50
100
AcDbCircle
 10
4.114913
 20
69.749328
 30
0.0
 40
6.5
  0
ARC
  5
B6
100
AcDbEntity
  8
2
370
    50
100
AcDbCircle
 10
33.433095
 20
76.124328
 30
0.0
 40
11.29
100
AcDbArc
 50
145.623
 51
214.377
  0
ARC
  5
B7
100
AcDbEntity
  8
2
370
    50
100
AcDbCircle
 10
33.433095
 20
63.374328
 30
0.0
 40
11.29
100
AcDbArc
 50
145.623
 51
214.377
  0
LINE
  5
B8
100
AcDbEntity
  8
2
370
    50
100
AcDbLine
 10
81.839708
 20
-39.880596
 30
0.0
 11
94.362531
 21
-39.880596
 31
0.0
  0
LINE
  5
B9
100
AcDbEntity
  8
2
370
    50
100
AcDbLine
 10
65.839708
 20
-39.880596
 30
0.0
 11
32.045904
 21
-39.880596
 31
0.0
  0
LINE
  5
BA
100
AcDbEntity
  8
2
370
    50
100
AcDbLine
 10
65.839708
 20
-19.080596
 30
0.0
 11
32.045904
 21
-19.080596
 31
0.0
  0
LINE
  5
BB
100
AcDbEntity
  8
2
370
    50
100
AcDbLine
 10
81.839708
 20
-19.080596
 30
0.0
 11
94.375868
 21
-19.080596
 31
0.0
  0
LINE
  5
BC
100
AcDbEntity
  8
2
370
    25
100
AcDbLine
 10
87.045708
 20
-29.480596
 30
0.0
 11
87.045708
 21
-19.080596
 31
0.0
  0
LINE
  5
BD
100
AcDbEntity
  8
2
370
    50
100
AcDbLine
 10
85.460708
 20
-19.080596
 30
0.0
 11
87.045708
 21
-20.044596
 31
0.0
  0
LINE
  5
BE
100
AcDbEntity
  8
2
370
    50
100
AcDbLine
 10
85.460708
 20
-39.880596
 30
0.0
 11
87.045708
 21
-38.915596
 31
0.0
  0
LINE
  5
BF
100
AcDbEntity
  8
2
370
    25
100
AcDbLine
 10
87.045708
 20
-29.480596
 30
0.0
 11
87.045708
 21
-39.880596
 31
0.0
  0
LINE
  5
C0
100
AcDbEntity
  8
2
370
    50
100
AcDbLine
 10
93.362531
 20
-39.880596
 30
0.0
 11
97.883708
 21
-39.739596
 31
0.0
  0
LINE
  5
C1
100
AcDbEntity
  8
2
370
    50
100
AcDbLine
 10
93.375868
 20
-19.080596
 30
0.0
 11
97.883708
 21
-19.221596
 31
0.0
  0
LINE
  5
C2
100
AcDbEntity
  8
2
370
    25
100
AcDbLine
 10
99.045708
 20
-20.419596
 30
0.0
 11
87.045708
 21
-20.044596
 31
0.0
  0
LINE
  5
C3
100
AcDbEntity
  8
2
370
    25
100
AcDbLine
 10
99.045708
 20
-38.540596
 30
0.0
 11
87.045708
 21
-38.915596
 31
0.0
  0
LINE
  5
C4
100
AcDbEntity
  8
2
370
    50
100
AcDbLine
 10
99.045708
 20
-38.540596
 30
0.0
 11
97.883708
 21
-39.739596
 31
0.0
  0
LINE
  5
C5
100
AcDbEntity
  8
2
370
    50
100
AcDbLine
 10
99.045708
 20
-20.419596
 30
0.0
 11
99.045708
 21
-38.540596
 31
0.0
  0
LINE
  5
C6
100
AcDbEntity
  8
2
370
    50
100
AcDbLine
 10
97.883708
 20
-19.221596
 30
0.0
 11
99.045708
 21
-20.419596
 31
0.0
  0
LINE
  5
C7
100
AcDbEntity
  8
2
370
    50
100
AcDbLine
 10
37.630708
 20
-19.080596
 30
0.0
 11
36.045708
 21
-20.044596
 31
0.0
  0
LINE
  5
C8
100
AcDbEntity
  8
2
370
    50
100
AcDbLine
 10
37.630708
 20
-39.880596
 30
0.0
 11
36.045708
 21
-38.915596
 31
0.0
  0
LINE
  5
C9
100
AcDbEntity
  8
2
370
    50
100
AcDbLine
 10
36.045708
 20
-29.480596
 30
0.0
 11
36.045708
 21
-39.880596
 31
0.0
  0
LINE
  5
CA
100
AcDbEntity
  8
2
370
    50
100
AcDbLine
 10
32.045904
 20
-20.16959
 30
0.0
 11
36.045708
 21
-20.044596
 31
0.0
  0
LINE
  5
CB
100
AcDbEntity
  8
2
370
    50
100
AcDbLine
 10
32.045904
 20
-38.790602
 30
0.0
 11
36.045708
 21
-38.915596
 31
0.0
  0
LINE
  5
CC
100
AcDbEntity
  8
2
370
    50
100
AcDbLine
 10
36.045708
 20
-29.480596
 30
0.0
 11
36.045708
 21
-19.080596
 31
0.0
  0
LINE
  5
CD
100
AcDbEntity
  8
2
370
    50
100
AcDbLine
 10
87.114913
 20
59.349328
 30
0.0
 11
81.839708
 21
59.349328
 31
0.0
  0
LINE
  5
CE
100
AcDbEntity
  8
2
370
    50
100
AcDbLine
 10
87.114913
 20
80.149328
 30
0.0
 11
81.839708
 21
80.149328
 31
0.0
  0
LINE
  5
CF
100
AcDbEntity
  8
2
370
    25
100
AcDbLine
 10
87.114913
 20
69.749328
 30
0.0
 11
87.114913
 21
80.149328
 31
0.0
  0
LINE
  5
D0
100
AcDbEntity
  8
2
370
    50
100
AcDbLine
 10
85.529913
 20
80.149328
 30
0.0
 11
87.114913
 21
79.185328
 31
0.0
  0
LINE
  5
D1
100
AcDbEntity
  8
2
370
    50
100
AcDbLine
 10
85.529913
 20
59.349328
 30
0.0
 11
87.114913
 21
60.314328
 31
0.0
  0
LINE
  5
D2
100
AcDbEntity
  8
2
370
    25
100
AcDbLine
 10
87.114913
 20
69.749328
 30
0.0
 11
87.114913
 21
59.349328
 31
0.0
  0
LINE
  5
D3
100
AcDbEntity
  8
2
370
    50
100
AcDbLine
 10
93.431735
 20
59.349328
 30
0.0
 11
97.952913
 21
59.490328
 31
0.0
  0
LINE
  5
D4
100
AcDbEntity
  8
2
370
    50
100
AcDbLine
 10
93.445072
 20
80.149328
 30
0.0
 11
97.952913
 21
80.008328
 31
0.0
  0
LINE
  5
D5
100
AcDbEntity
  8
2
370
    25
100
AcDbLine
 10
99.114913
 20
78.810328
 30
0.0
 11
87.114913
 21
79.185328
 31
0.0
  0
LINE
  5
D6
100
AcDbEntity
  8
2
370
    25
100
AcDbLine
 10
99.114913
 20
60.689328
 30
0.0
 11
87.114913
 21
60.314328
 31
0.0
  0
LINE
  5
D7
100
AcDbEntity
  8
2
370
    50
100
AcDbLine
 10
99.114913
 20
60.689328
 30
0.0
 11
97.952913
 21
59.490328
 31
0.0
  0
LINE
  5
D8
100
AcDbEntity
  8
2
370
    50
100
AcDbLine
 10
99.114913
 20
78.810328
 30
0.0
 11
99.114913
 21
60.689328
 31
0.0
  0
LINE
  5
D9
100
AcDbEntity
  8
2
370
    50
100
AcDbLine
 10
97.952913
 20
80.008328
 30
0.0
 11
99.114913
 21
78.810328
 31
0.0
  0
LINE
  5
DA
100
AcDbEntity
  8
2
370
    50
100
AcDbLine
 10
37.699913
 20
80.149328
 30
0.0
 11
36.114913
 21
79.185328
 31
0.0
  0
LINE
  5
DB
100
AcDbEntity
  8
2
370
    50
100
AcDbLine
 10
37.699913
 20
59.349328
 30
0.0
 11
36.114913
 21
60.314328
 31
0.0
  0
LINE
  5
DC
100
AcDbEntity
  8
2
370
    50
100
AcDbLine
 10
36.114913
 20
69.749328
 30
0.0
 11
36.114913
 21
59.349328
 31
0.0
  0
LINE
  5
DD
100
AcDbEntity
  8
2
370
    50
100
AcDbLine
 10
32.114913
 20
79.060328
 30
0.0
 11
36.114913
 21
79.185328
 31
0.0
  0
LINE
  5
DE
100
AcDbEntity
  8
2
370
    50
100
AcDbLine
 10
32.114913
 20
60.439328
 30
0.0
 11
36.114913
 21
60.314328
 31
0.0
  0
LINE
  5
DF
100
AcDbEntity
  8
2
370
    50
100
AcDbLine
 10
36.114913
 20
69.749328
 30
0.0
 11
36.114913
 21
80.149328
 31
0.0
  0
LINE
  5
E0
100
AcDbEntity
  8
2
370
    50
100
AcDbLine
 10
97.952913
 20
69.749328
 30
0.0
 11
97.952913
 21
80.008328
 31
0.0
  0
LINE
  5
E1
100
AcDbEntity
  8
2
370
    50
100
AcDbLine
 10
97.952913
 20
69.749328
 30
0.0
 11
97.952913
 21
59.490328
 31
0.0
  0
LINE
  5
E2
100
AcDbEntity
  8
2
370
    50
100
AcDbLine
 10
81.839708
 20
59.349328
 30
0.0
 11
93.431735
 21
59.349328
 31
0.0
  0
LINE
  5
E3
100
AcDbEntity
  8
2
370
    50
100
AcDbLine
 10
81.839708
 20
80.149328
 30
0.0
 11
93.445072
 21
80.149328
 31
0.0
  0
LINE
  5
E4
100
AcDbEntity
  8
2
370
    50
100
AcDbLine
 10
65.839708
 20
80.149328
 30
0.0
 11
32.114913
 21
80.149328
 31
0.0
  0
LINE
  5
E5
100
AcDbEntity
  8
2
370
    50
100
AcDbLine
 10
65.839708
 20
59.349328
 30
0.0
 11
32.114913
 21
59.349328
 31
0.0
  0
LINE
  5
E6
100
AcDbEntity
  8
2
370
    50
100
AcDbLine
 10
97.883708
 20
-29.480596
 30
0.0
 11
97.883708
 21
-19.221596
 31
0.0
  0
LINE
  5
E7
100
AcDbEntity
  8
2
370
    50
100
AcDbLine
 10
97.883708
 20
-29.480596
 30
0.0
 11
97.883708
 21
-39.739596
 31
0.0
  0
ARC
  5
E8
100
AcDbEntity
  8
2
370
    50
100
AcDbCircle
 10
90.839708
 20
-41.684596
 30
0.0
 40
25.0
100
AcDbArc
 50
180.0
 51
203.557
  0
ARC
  5
E9
100
AcDbEntity
  8
2
370
    50
100
AcDbCircle
 10
79.839708
 20
-46.480596
 30
0.0
 40
13.0
100
AcDbArc
 50
203.557
 51
270.0
  0
LINE
  5
EA
100
AcDbEntity
  8
2
370
    50
100
AcDbLine
 10
79.839708
 20
-59.480596
 30
0.0
 11
81.839708
 21
-59.480596
 31
0.0
  0
LINE
  5
EB
100
AcDbEntity
  8
2
370
    50
100
AcDbLine
 10
81.839708
 20
-39.880596
 30
0.0
 11
81.839708
 21
-59.480596
 31
0.0
  0
LINE
  5
EC
100
AcDbEntity
  8
2
370
    50
100
AcDbLine
 10
65.839708
 20
-39.880596
 30
0.0
 11
65.839708
 21
-41.684596
 31
0.0
  0
LINE
  5
ED
100
AcDbEntity
  8
2
370
    50
100
AcDbLine
 10
65.839708
 20
-41.684596
 30
0.0
 11
65.839708
 21
-17.276596
 31
0.0
  0
LINE
  5
EE
100
AcDbEntity
  8
2
370
    50
100
AcDbLine
 10
81.839708
 20
-41.668825
 30
0.0
 11
81.839708
 21
0.519404
 31
0.0
  0
LINE
  5
EF
100
AcDbEntity
  8
2
370
    50
100
AcDbLine
 10
79.839708
 20
0.519404
 30
0.0
 11
81.839708
 21
0.519404
 31
0.0
  0
ARC
  5
F0
100
AcDbEntity
  8
2
370
    50
100
AcDbCircle
 10
79.839708
 20
-12.480596
 30
0.0
 40
13.0
100
AcDbArc
 50
90.0
 51
156.444
  0
ARC
  5
F1
100
AcDbEntity
  8
2
370
    50
100
AcDbCircle
 10
90.839708
 20
-17.276596
 30
0.0
 40
25.0
100
AcDbArc
 50
156.444
 51
180.001
  0
ARC
  5
F2
100
AcDbEntity
  8
2
370
    50
100
AcDbCircle
 10
-116.415644
 20
-29.390615
 30
0.0
 40
30.0
100
AcDbArc
 50
110.44043
 51
143.056798
  0
ARC
  5
F3
100
AcDbEntity
  8
2
370
    50
100
AcDbCircle
 10
-116.415644
 20
-29.390615
 30
0.0
 40
30.0
100
AcDbArc
 50
36.94302
 51
69.557532
  0
ARC
  5
F4
100
AcDbEntity
  8
2
370
    50
100
AcDbCircle
 10
-116.415644
 20
-29.390615
 30
0.0
 40
30.0
100
AcDbArc
 50
156.94302
 51
263.056798
  0
ARC
  5
F5
100
AcDbEntity
  8
2
370
    50
100
AcDbCircle
 10
-116.415644
 20
-29.390615
 30
0.0
 40
30.0
100
AcDbArc
 50
276.94302
 51
23.056798
  0
ARC
  5
F6
100
AcDbEntity
  8
2
370
    50
100
AcDbCircle
 10
90.839708
 20
57.545328
 30
0.0
 40
25.0
100
AcDbArc
 50
180.0
 51
203.557
  0
ARC
  5
F7
100
AcDbEntity
  8
2
370
    50
100
AcDbCircle
 10
79.839708
 20
52.749328
 30
0.0
 40
13.0
100
AcDbArc
 50
203.557
 51
270.0
  0
LINE
  5
F8
100
AcDbEntity
  8
2
370
    50
100
AcDbLine
 10
79.839708
 20
39.749328
 30
0.0
 11
81.839708
 21
39.749328
 31
0.0
  0
LINE
  5
F9
100
AcDbEntity
  8
2
370
    50
100
AcDbLine
 10
81.839708
 20
59.349328
 30
0.0
 11
81.839708
 21
39.749328
 31
0.0
  0
LINE
  5
FA
100
AcDbEntity
  8
2
370
    50
100
AcDbLine
 10
65.839708
 20
59.349328
 30
0.0
 11
65.839708
 21
57.545328
 31
0.0
  0
LINE
  5
FB
100
AcDbEntity
  8
2
370
    50
100
AcDbLine
 10
65.839708
 20
57.545328
 30
0.0
 11
65.839708
 21
81.953328
 31
0.0
  0
LINE
  5
FC
100
AcDbEntity
  8
2
370
    50
100
AcDbLine
 10
81.839708
 20
57.561099
 30
0.0
 11
81.839708
 21
99.749328
 31
0.0
  0
LINE
  5
FD
100
AcDbEntity
  8
2
370
    50
100
AcDbLine
 10
79.839708
 20
99.749328
 30
0.0
 11
81.839708
 21
99.749328
 31
0.0
  0
ARC
  5
FE
100
AcDbEntity
  8
2
370
    50
100
AcDbCircle
 10
79.839708
 20
86.749328
 30
0.0
 40
13.0
100
AcDbArc
 50
90.0
 51
156.444
  0
ARC
  5
FF
100
AcDbEntity
  8
2
370
    50
100
AcDbCircle
 10
90.839708
 20
81.953328
 30
0.0
 40
25.0
100
AcDbArc
 50
156.444
 51
180.001
  0
LINE
  5
100
100
AcDbEntity
  8
2
370
    50
100
AcDbLine
 10
-24.926099
 20
-24.730596
 30
0.0
 11
-30.613096
 21
-24.730596
 31
0.0
  0
LINE
  5
101
100
AcDbEntity
  8
2
370
    50
100
AcDbLine
 10
-24.926099
 20
-34.230596
 30
0.0
 11
-30.613096
 21
-34.230596
 31
0.0
  0
ARC
  5
102
100
AcDbEntity
  8
2
370
    50
100
AcDbCircle
 10
-116.415684
 20
-54.390615
 30
0.0
 40
6.0
100
AcDbArc
 50
196.00902
 51
346.88801
  0
ARC
  5
103
100
AcDbEntity
  8
2
370
    50
100
AcDbCircle
 10
-116.415644
 20
4.609385
 30
0.0
 40
20.0
100
AcDbArc
 50
256.357726
 51
283.607133
  0
LINE
  5
104
100
AcDbEntity
  8
2
370
    50
100
AcDbLine
 10
-136.686617
 20
-11.051352
 30
0.0
 11
-121.132828
 21
-14.82636
 31
0.0
  0
LINE
  5
105
100
AcDbEntity
  8
2
370
    50
100
AcDbLine
 10
-96.508001
 20
-11.149403
 30
0.0
 11
-111.710382
 21
-14.829249
 31
0.0
  0
ARC
  5
106
100
AcDbEntity
  8
2
370
    50
100
AcDbCircle
 10
-86.970781
 20
-46.390615
 30
0.0
 40
20.0
100
AcDbArc
 50
136.357726
 51
163.607133
  0
LINE
  5
107
100
AcDbEntity
  8
2
370
    50
100
AcDbLine
 10
-90.397891
 20
-21.005069
 30
0.0
 11
-101.444038
 21
-32.587541
 31
0.0
  0
LINE
  5
108
100
AcDbEntity
  8
2
370
    50
100
AcDbLine
 10
-110.572113
 20
-55.751745
 30
0.0
 11
-106.157763
 21
-40.746174
 31
0.0
  0
LINE
  5
109
100
AcDbEntity
  8
2
370
    50
100
AcDbLine
 10
-122.162425
 20
-56.115423
 30
0.0
 11
-126.670067
 21
-40.757943
 31
0.0
  0
ARC
  5
10A
100
AcDbEntity
  8
2
370
    50
100
AcDbCircle
 10
-94.764989
 20
-16.890649
 30
0.0
 40
6.0
100
AcDbArc
 50
316.00902
 51
106.88801
  0
LINE
  5
10B
100
AcDbEntity
  8
2
370
    50
100
AcDbLine
 10
-142.166819
 20
-21.270696
 30
0.0
 11
-131.378788
 21
-32.596421
 31
0.0
  0
ARC
  5
10C
100
AcDbEntity
  8
2
370
    50
100
AcDbCircle
 10
-138.06626
 20
-16.89058
 30
0.0
 40
6.0
100
AcDbArc
 50
73.086916
 51
226.88801
  0
ARC
  5
10D
100
AcDbEntity
  8
2
370
    50
100
AcDbCircle
 10
-145.860508
 20
-46.390615
 30
0.0
 40
20.0
100
AcDbArc
 50
16.357726
 51
43.607133
  0
LINE
  5
10E
100
AcDbEntity
  8
2
370
    50
100
AcDbLine
 10
-12.926099
 20
-41.980596
 30
0.0
 11
-12.926099
 21
-29.480596
 31
0.0
  0
ARC
  5
10F
100
AcDbEntity
  8
2
370
    50
100
AcDbCircle
 10
-17.426099
 20
-39.801596
 30
0.0
 40
5.0
100
AcDbArc
 50
198.491
 51
223.306
  0
ARC
  5
110
100
AcDbEntity
  8
2
370
    50
100
AcDbCircle
 10
-17.426099
 20
-39.801596
 30
0.0
 40
5.0
100
AcDbArc
 50
316.694
 51
334.158
  0
LINE
  5
111
100
AcDbEntity
  8
2
370
    50
100
AcDbLine
 10
-13.787099
 20
-43.230596
 30
0.0
 11
-21.065099
 21
-43.230596
 31
0.0
  0
LINE
  5
112
100
AcDbEntity
  8
2
370
    50
100
AcDbLine
 10
-13.787099
 20
-15.730596
 30
0.0
 11
-21.065099
 21
-15.730596
 31
0.0
  0
ARC
  5
113
100
AcDbEntity
  8
2
370
    50
100
AcDbCircle
 10
-17.426099
 20
-19.159596
 30
0.0
 40
5.0
100
AcDbArc
 50
25.842
 51
43.306
  0
ARC
  5
114
100
AcDbEntity
  8
2
370
    50
100
AcDbCircle
 10
-17.426099
 20
-19.159596
 30
0.0
 40
5.0
100
AcDbArc
 50
136.695
 51
161.509
  0
LINE
  5
115
100
AcDbEntity
  8
2
370
    50
100
AcDbLine
 10
-12.926099
 20
-16.980596
 30
0.0
 11
-12.926099
 21
-29.480596
 31
0.0
  0
LINE
  5
116
100
AcDbEntity
  8
2
370
    50
100
AcDbLine
 10
-21.065099
 20
-20.461596
 30
0.0
 11
-21.065099
 21
-25.001596
 31
0.0
  0
LINE
  5
117
100
AcDbEntity
  8
2
370
    50
100
AcDbLine
 10
-13.787099
 20
-25.001596
 30
0.0
 11
-13.787099
 21
-20.461596
 31
0.0
  0
LINE
  5
118
100
AcDbEntity
  8
2
370
    50
100
AcDbLine
 10
-21.065099
 20
-20.461596
 30
0.0
 11
-13.787099
 21
-20.461596
 31
0.0
  0
LINE
  5
119
100
AcDbEntity
  8
2
370
    50
100
AcDbLine
 10
-21.065099
 20
-25.001596
 30
0.0
 11
-13.787099
 21
-25.001596
 31
0.0
  0
ARC
  5
11A
100
AcDbEntity
  8
2
370
    50
100
AcDbCircle
 10
-39.767099
 20
-13.794596
 30
0.0
 40
18.0
100
AcDbArc
 50
325.535
 51
347.878
  0
ARC
  5
11B
100
AcDbEntity
  8
2
370
    50
100
AcDbCircle
 10
-39.767099
 20
-45.166596
 30
0.0
 40
18.0
100
AcDbArc
 50
12.122
 51
34.465
  0
LINE
  5
11C
100
AcDbEntity
  8
2
370
    50
100
AcDbLine
 10
-24.926099
 20
-34.980596
 30
0.0
 11
-24.926099
 21
-23.980596
 31
0.0
  0
LINE
  5
11D
100
AcDbEntity
  8
2
370
    50
100
AcDbLine
 10
-21.065099
 20
-33.959596
 30
0.0
 11
-13.787099
 21
-33.959596
 31
0.0
  0
LINE
  5
11E
100
AcDbEntity
  8
2
370
    50
100
AcDbLine
 10
-21.065099
 20
-38.499596
 30
0.0
 11
-13.787099
 21
-38.499596
 31
0.0
  0
LINE
  5
11F
100
AcDbEntity
  8
2
370
    50
100
AcDbLine
 10
-13.787099
 20
-33.959596
 30
0.0
 11
-13.787099
 21
-38.499596
 31
0.0
  0
LINE
  5
120
100
AcDbEntity
  8
2
370
    50
100
AcDbLine
 10
-21.065099
 20
-38.499596
 30
0.0
 11
-21.065099
 21
-33.959596
 31
0.0
  0
ELLIPSE
  5
121
100
AcDbEntity
  8
2
370
    50
100
AcDbEllipse
 10
-21.065099
 20
-29.480596
 30
0.0
 11
0.0
 21
4.4790000000000001
 31
0.0
210
0.0
220
0.0
230
1.0
 40
0.119
 41
0.0
 42
3.1415929999999999
  0
ELLIPSE
  5
122
100
AcDbEntity
  8
2
370
    50
100
AcDbEllipse
 10
-21.065074
 20
-18.096096
 30
0.0
 11
0.000025
 21
2.3654999999999999
 31
0.0
210
0.0
220
0.0
230
1.0
 40
0.225135
 41
0.506074
 42
3.1415929999999999
  0
ELLIPSE
  5
123
100
AcDbEntity
  8
2
370
    50
100
AcDbEllipse
 10
-13.787099
 20
-29.480596
 30
0.0
 11
0.0
 21
4.4790000000000001
 31
0.0
210
0.0
220
0.0
230
1.0
 40
0.19223
 41
3.1415929999999999
 42
0.0
  0
ELLIPSE
  5
124
100
AcDbEntity
  8
2
370
    50
100
AcDbEllipse
 10
-13.787099
 20
-18.096096
 30
0.0
 11
0.0
 21
2.3654999999999999
 31
0.0
210
0.0
220
0.0
230
1.0
 40
0.363982
 41
3.1415929999999999
 42
4.7130210000000003
  0
ELLIPSE
  5
125
100
AcDbEntity
  8
2
370
    50
100
AcDbEllipse
 10
-13.787099
 20
-40.865096
 30
0.0
 11
0.0
 21
-2.3654999999999999
 31
0.0
210
0.0
220
0.0
230
1.0
 40
0.363982
 41
1.5701639999999999
 42
3.1415929999999999
  0
ELLIPSE
  5
126
100
AcDbEntity
  8
2
370
    50
100
AcDbEllipse
 10
-21.065074
 20
-40.865096
 30
0.0
 11
0.000025
 21
-2.3654999999999999
 31
0.0
210
0.0
220
0.0
230
1.0
 40
0.225135
 41
3.1415929999999999
 42
5.7771109999999997
  0
CIRCLE
  5
127
100
AcDbEntity
  8
2
370
    50
100
AcDbCircle
 10
-116.415644
 20
-29.390615
 30
0.0
 40
5.449109
  0
CIRCLE
  5
128
100
AcDbEntity
  8
2
370
    50
100
AcDbCircle
 10
-116.415644
 20
-29.390615
 30
0.0
 40
6.9
  0
LINE
  5
129
100
AcDbEntity
  8
2
370
    50
100
AcDbLine
 10
-13.135378
 20
56.749307
 30
0.0
 11
-21.579237
 21
56.749717
 31
0.0
  0
ARC
  5
12A
100
AcDbEntity
  8
2
370
    50
100
AcDbCircle
 10
-17.35709
 20
59.428328
 30
0.0
 40
5.0
100
AcDbArc
 50
327.601537
 51
334.158
  0
ARC
  5
12B
100
AcDbEntity
  8
2
370
    50
100
AcDbCircle
 10
-17.35709
 20
59.428328
 30
0.0
 40
5.0
100
AcDbArc
 50
198.491
 51
212.398463
  0
LINE
  5
12C
100
AcDbEntity
  8
2
370
    50
100
AcDbLine
 10
-20.99609
 20
59.37034
 30
0.0
 11
-20.99609
 21
56.749307
 31
0.0
  0
LINE
  5
12D
100
AcDbEntity
  8
2
370
    50
100
AcDbLine
 10
-20.99609
 20
59.37034
 30
0.0
 11
-13.71809
 21
59.37034
 31
0.0
  0
LINE
  5
12E
100
AcDbEntity
  8
2
370
    50
100
AcDbLine
 10
-13.71809
 20
56.749307
 30
0.0
 11
-13.71809
 21
59.37034
 31
0.0
  0
ELLIPSE
  5
12F
100
AcDbEntity
  8
2
370
    50
100
AcDbEllipse
 10
-20.99609
 20
63.249318
 30
0.0
 11
0.0
 21
-3.878978
 31
0.0
210
0.0
220
0.0
230
1.0
 40
0.137407
 41
3.1415929999999999
 42
0.0
  0
ELLIPSE
  5
130
100
AcDbEntity
  8
2
370
    50
100
AcDbEllipse
 10
-13.71809
 20
63.249318
 30
0.0
 11
0.0
 21
-3.878978
 31
0.0
210
0.0
220
0.0
230
1.0
 40
0.221966
 41
0.0
 42
3.1415929999999999
  0
ELLIPSE
  5
131
100
AcDbEntity
  8
2
370
    50
100
AcDbEllipse
 10
-13.71809
 20
76.249338
 30
0.0
 11
0.0
 21
3.878978
 31
0.0
210
0.0
220
0.0
230
1.0
 40
0.221966
 41
3.1415929999999999
 42
0.0
  0
ELLIPSE
  5
132
100
AcDbEntity
  8
2
370
    50
100
AcDbEllipse
 10
-20.99609
 20
76.249338
 30
0.0
 11
0.0
 21
3.878978
 31
0.0
210
0.0
220
0.0
230
1.0
 40
0.137407
 41
0.0
 42
3.1415929999999999
  0
LINE
  5
133
100
AcDbEntity
  8
2
370
    50
100
AcDbLine
 10
-13.71809
 20
82.749349
 30
0.0
 11
-13.71809
 21
80.128316
 31
0.0
  0
LINE
  5
134
100
AcDbEntity
  8
2
370
    50
100
AcDbLine
 10
-20.99609
 20
80.128316
 30
0.0
 11
-13.71809
 21
80.128316
 31
0.0
  0
LINE
  5
135
100
AcDbEntity
  8
2
370
    50
100
AcDbLine
 10
-20.99609
 20
80.128316
 30
0.0
 11
-20.99609
 21
82.749349
 31
0.0
  0
LINE
  5
136
100
AcDbEntity
  8
2
370
    50
100
AcDbLine
 10
-20.99609
 20
67.128296
 30
0.0
 11
-20.99609
 21
72.37036
 31
0.0
  0
LINE
  5
137
100
AcDbEntity
  8
2
370
    50
100
AcDbLine
 10
-13.71809
 20
72.37036
 30
0.0
 11
-13.71809
 21
67.128296
 31
0.0
  0
LINE
  5
138
100
AcDbEntity
  8
2
370
    50
100
AcDbLine
 10
-20.99609
 20
67.128296
 30
0.0
 11
-13.71809
 21
67.128296
 31
0.0
  0
LINE
  5
139
100
AcDbEntity
  8
2
370
    50
100
AcDbLine
 10
-20.99609
 20
72.37036
 30
0.0
 11
-13.71809
 21
72.37036
 31
0.0
  0
LINE
  5
13A
100
AcDbEntity
  8
2
370
    50
100
AcDbLine
 10
-24.85709
 20
64.249328
 30
0.0
 11
-24.85709
 21
75.249328
 31
0.0
  0
ARC
  5
13B
100
AcDbEntity
  8
2
370
    50
100
AcDbCircle
 10
-39.69809
 20
54.063328
 30
0.0
 40
18.0
100
AcDbArc
 50
12.122
 51
34.465
  0
ARC
  5
13C
100
AcDbEntity
  8
2
370
    50
100
AcDbCircle
 10
-39.69809
 20
85.435328
 30
0.0
 40
18.0
100
AcDbArc
 50
325.535
 51
347.878
  0
LINE
  5
13D
100
AcDbEntity
  8
2
370
    50
100
AcDbLine
 10
-12.85709
 20
82.249328
 30
0.0
 11
-12.85709
 21
69.749328
 31
0.0
  0
ARC
  5
13E
100
AcDbEntity
  8
2
370
    50
100
AcDbCircle
 10
-17.35709
 20
80.070328
 30
0.0
 40
5.0
100
AcDbArc
 50
147.601537
 51
161.509
  0
ARC
  5
13F
100
AcDbEntity
  8
2
370
    50
100
AcDbCircle
 10
-17.35709
 20
80.070328
 30
0.0
 40
5.0
100
AcDbArc
 50
25.842
 51
32.398463
  0
LINE
  5
140
100
AcDbEntity
  8
2
370
    50
100
AcDbLine
 10
-13.135378
 20
82.749349
 30
0.0
 11
-21.579237
 21
82.748939
 31
0.0
  0
ARC
  5
141
100
AcDbEntity
  8
2
370
    50
100
AcDbCircle
 10
-17.35709
 20
59.428328
 30
0.0
 40
5.0
100
AcDbArc
 50
327.601537
 51
334.158
  0
ARC
  5
142
100
AcDbEntity
  8
2
370
    50
100
AcDbCircle
 10
-17.35709
 20
59.428328
 30
0.0
 40
5.0
100
AcDbArc
 50
198.491
 51
212.392909
  0
LINE
  5
143
100
AcDbEntity
  8
2
370
    50
100
AcDbLine
 10
-12.85709
 20
57.249328
 30
0.0
 11
-12.85709
 21
69.749328
 31
0.0
  0
ARC
  5
144
100
AcDbEntity
  8
2
370
    50
100
AcDbCircle
 10
-31.044087
 20
96.873986
 30
0.0
 40
0.5
100
AcDbArc
 50
0.0
 51
97.708649
  0
LINE
  5
145
100
AcDbEntity
  8
2
370
    50
100
AcDbLine
 10
-30.544087
 20
69.749328
 30
0.0
 11
-30.544087
 21
96.873986
 31
0.0
  0
LINE
  5
146
100
AcDbEntity
  8
2
370
    50
100
AcDbLine
 10
-40.613096
 20
69.749328
 30
0.0
 11
-40.613096
 21
76.899328
 31
0.0
  0
LINE
  5
147
100
AcDbEntity
  8
2
370
    50
100
AcDbLine
 10
-40.241386
 20
91.40575
 30
0.0
 11
-40.613096
 21
76.449328
 31
0.0
  0
ELLIPSE
  5
148
100
AcDbEntity
  8
2
370
    50
100
AcDbEllipse
 10
-34.550103
 20
91.40575
 30
0.0
 11
5.6912830000000003
 21
0.0
 31
0.0
210
0.0
220
0.0
230
1.0
 40
0.956549
 41
1.7111160000000001
 42
3.1415929999999999
  0
LINE
  5
149
100
AcDbEntity
  8
2
370
    50
100
AcDbLine
 10
-35.346082
 20
96.796232
 30
0.0
 11
-31.111155
 21
97.369467
 31
0.0
  0
LINE
  5
14A
100
AcDbEntity
  8
2
370
    50
100
AcDbLine
 10
-35.346082
 20
42.702424
 30
0.0
 11
-31.111155
 21
42.129189
 31
0.0
  0
ELLIPSE
  5
14B
100
AcDbEntity
  8
2
370
    50
100
AcDbEllipse
 10
-34.550103
 20
48.092906
 30
0.0
 11
5.6912830000000003
 21
0.0
 31
0.0
210
0.0
220
0.0
230
1.0
 40
0.956549
 41
3.1415929999999999
 42
4.5720700000000001
  0
LINE
  5
14C
100
AcDbEntity
  8
2
370
    50
100
AcDbLine
 10
-40.241386
 20
48.092906
 30
0.0
 11
-40.613096
 21
63.049328
 31
0.0
  0
LINE
  5
14D
100
AcDbEntity
  8
2
370
    50
100
AcDbLine
 10
-40.613096
 20
69.749328
 30
0.0
 11
-40.613096
 21
62.599328
 31
0.0
  0
LINE
  5
14E
100
AcDbEntity
  8
2
370
    50
100
AcDbLine
 10
-30.544087
 20
69.749328
 30
0.0
 11
-30.544087
 21
42.62467
 31
0.0
  0
ARC
  5
14F
100
AcDbEntity
  8
2
370
    50
100
AcDbCircle
 10
-31.044087
 20
42.62467
 30
0.0
 40
0.5
100
AcDbArc
 50
262.291351
 51
360.0
  0
LINE
  5
150
100
AcDbEntity
  8
2
370
    50
100
AcDbLine
 10
-24.85709
 20
74.499328
 30
0.0
 11
-30.544087
 21
74.499328
 31
0.0
  0
LINE
  5
151
100
AcDbEntity
  8
2
370
    50
100
AcDbLine
 10
-24.85709
 20
64.999328
 30
0.0
 11
-30.544087
 21
64.999328
 31
0.0
  0
LINE
  5
152
100
AcDbEntity
  8
2
370
    50
100
AcDbLine
 10
-43.114096
 20
76.649328
 30
0.0
 11
-43.113096
 21
69.749328
 31
0.0
  0
LINE
  5
153
100
AcDbEntity
  8
2
370
    50
100
AcDbLine
 10
-43.613096
 20
75.199328
 30
0.0
 11
-43.613096
 21
69.749328
 31
0.0
  0
LINE
  5
154
100
AcDbEntity
  8
2
370
    50
100
AcDbLine
 10
-40.613096
 20
76.449328
 30
0.0
 11
-40.813096
 21
76.649328
 31
0.0
  0
LINE
  5
155
100
AcDbEntity
  8
2
370
    50
100
AcDbLine
 10
-40.813096
 20
76.649328
 30
0.0
 11
-43.114096
 21
76.649328
 31
0.0
  0
LINE
  5
156
100
AcDbEntity
  8
2
370
    50
100
AcDbLine
 10
-40.813096
 20
76.176328
 30
0.0
 11
-43.113096
 21
76.176328
 31
0.0
  0
LINE
  5
157
100
AcDbEntity
  8
2
370
    50
100
AcDbLine
 10
-40.813096
 20
76.649328
 30
0.0
 11
-40.813096
 21
62.849328
 31
0.0
  0
LINE
  5
158
100
AcDbEntity
  8
2
370
    50
100
AcDbLine
 10
-40.813096
 20
75.847328
 30
0.0
 11
-43.113096
 21
75.847328
 31
0.0
  0
LINE
  5
159
100
AcDbEntity
  8
2
370
    50
100
AcDbLine
 10
-40.813096
 20
75.410328
 30
0.0
 11
-43.113096
 21
75.410328
 31
0.0
  0
LINE
  5
15A
100
AcDbEntity
  8
2
370
    50
100
AcDbLine
 10
-40.813096
 20
74.874328
 30
0.0
 11
-43.113096
 21
74.874328
 31
0.0
  0
LINE
  5
15B
100
AcDbEntity
  8
2
370
    50
100
AcDbLine
 10
-40.813096
 20
74.248328
 30
0.0
 11
-43.113096
 21
74.248328
 31
0.0
  0
LINE
  5
15C
100
AcDbEntity
  8
2
370
    50
100
AcDbLine
 10
-40.813096
 20
73.543328
 30
0.0
 11
-43.113096
 21
73.543328
 31
0.0
  0
LINE
  5
15D
100
AcDbEntity
  8
2
370
    50
100
AcDbLine
 10
-40.813096
 20
72.771328
 30
0.0
 11
-43.113096
 21
72.771328
 31
0.0
  0
LINE
  5
15E
100
AcDbEntity
  8
2
370
    50
100
AcDbLine
 10
-40.813096
 20
71.947328
 30
0.0
 11
-43.113096
 21
71.947328
 31
0.0
  0
LINE
  5
15F
100
AcDbEntity
  8
2
370
    50
100
AcDbLine
 10
-40.813096
 20
71.083328
 30
0.0
 11
-43.113096
 21
71.083328
 31
0.0
  0
LINE
  5
160
100
AcDbEntity
  8
2
370
    50
100
AcDbLine
 10
-40.813096
 20
70.196328
 30
0.0
 11
-43.113096
 21
70.196328
 31
0.0
  0
ARC
  5
161
100
AcDbEntity
  8
2
370
    50
100
AcDbCircle
 10
-11.066096
 20
69.749328
 30
0.0
 40
33.0
100
AcDbArc
 50
170.494
 51
180.0
  0
LINE
  5
162
100
AcDbEntity
  8
2
370
    50
100
AcDbLine
 10
-43.613096
 20
75.199328
 30
0.0
 11
-43.114096
 21
76.649328
 31
0.0
  0
LINE
  5
163
100
AcDbEntity
  8
2
370
    50
100
AcDbLine
 10
-40.813096
 20
76.505328
 30
0.0
 11
-43.113096
 21
76.505328
 31
0.0
  0
LINE
  5
164
100
AcDbEntity
  8
2
370
    50
100
AcDbLine
 10
-43.114096
 20
62.849328
 30
0.0
 11
-43.113096
 21
69.749328
 31
0.0
  0
LINE
  5
165
100
AcDbEntity
  8
2
370
    50
100
AcDbLine
 10
-43.613096
 20
64.299328
 30
0.0
 11
-43.613096
 21
69.749328
 31
0.0
  0
LINE
  5
166
100
AcDbEntity
  8
2
370
    50
100
AcDbLine
 10
-40.613096
 20
63.049328
 30
0.0
 11
-40.813096
 21
62.849328
 31
0.0
  0
LINE
  5
167
100
AcDbEntity
  8
2
370
    50
100
AcDbLine
 10
-40.813096
 20
62.849328
 30
0.0
 11
-43.114096
 21
62.849328
 31
0.0
  0
LINE
  5
168
100
AcDbEntity
  8
2
370
    50
100
AcDbLine
 10
-40.813096
 20
63.322328
 30
0.0
 11
-43.113096
 21
63.322328
 31
0.0
  0
LINE
  5
169
100
AcDbEntity
  8
2
370
    50
100
AcDbLine
 10
-40.813096
 20
63.651328
 30
0.0
 11
-43.113096
 21
63.651328
 31
0.0
  0
LINE
  5
16A
100
AcDbEntity
  8
2
370
    50
100
AcDbLine
 10
-40.813096
 20
64.088328
 30
0.0
 11
-43.113096
 21
64.088328
 31
0.0
  0
LINE
  5
16B
100
AcDbEntity
  8
2
370
    50
100
AcDbLine
 10
-40.813096
 20
64.624328
 30
0.0
 11
-43.113096
 21
64.624328
 31
0.0
  0
LINE
  5
16C
100
AcDbEntity
  8
2
370
    50
100
AcDbLine
 10
-40.813096
 20
65.250328
 30
0.0
 11
-43.113096
 21
65.250328
 31
0.0
  0
LINE
  5
16D
100
AcDbEntity
  8
2
370
    50
100
AcDbLine
 10
-40.813096
 20
65.955328
 30
0.0
 11
-43.113096
 21
65.955328
 31
0.0
  0
LINE
  5
16E
100
AcDbEntity
  8
2
370
    50
100
AcDbLine
 10
-40.813096
 20
66.727328
 30
0.0
 11
-43.113096
 21
66.727328
 31
0.0
  0
LINE
  5
16F
100
AcDbEntity
  8
2
370
    50
100
AcDbLine
 10
-40.813096
 20
67.551328
 30
0.0
 11
-43.113096
 21
67.551328
 31
0.0
  0
LINE
  5
170
100
AcDbEntity
  8
2
370
    50
100
AcDbLine
 10
-40.813096
 20
68.415328
 30
0.0
 11
-43.113096
 21
68.415328
 31
0.0
  0
LINE
  5
171
100
AcDbEntity
  8
2
370
    50
100
AcDbLine
 10
-40.813096
 20
69.302328
 30
0.0
 11
-43.113096
 21
69.302328
 31
0.0
  0
ARC
  5
172
100
AcDbEntity
  8
2
370
    50
100
AcDbCircle
 10
-11.066096
 20
69.749328
 30
0.0
 40
33.0
100
AcDbArc
 50
180.0
 51
189.506
  0
LINE
  5
173
100
AcDbEntity
  8
2
370
    50
100
AcDbLine
 10
-43.613096
 20
64.299328
 30
0.0
 11
-43.114096
 21
62.849328
 31
0.0
  0
LINE
  5
174
100
AcDbEntity
  8
2
370
    50
100
AcDbLine
 10
-40.813096
 20
62.993328
 30
0.0
 11
-43.113096
 21
62.993328
 31
0.0
  0
LINE
  5
175
100
AcDbEntity
  8
2
370
    50
100
AcDbLine
 10
-33.772983
 20
-60.337106
 30
0.0
 11
-30.613096
 21
-60.480596
 31
0.0
  0
LINE
  5
176
100
AcDbEntity
  8
2
370
    50
100
AcDbLine
 10
-39.488091
 20
-54.73369
 30
0.0
 11
-40.613096
 21
-37.480596
 31
0.0
  0
LINE
  5
177
100
AcDbEntity
  8
2
370
    50
100
AcDbLine
 10
-30.613096
 20
-60.480596
 30
0.0
 11
-30.613096
 21
-29.480596
 31
0.0
  0
LINE
  5
178
100
AcDbEntity
  8
2
370
    50
100
AcDbLine
 10
-40.613096
 20
-29.480596
 30
0.0
 11
-40.613096
 21
-37.480596
 31
0.0
  0
LINE
  5
179
100
AcDbEntity
  8
2
370
    50
100
AcDbLine
 10
-40.613096
 20
-21.480596
 30
0.0
 11
-40.613096
 21
-29.480596
 31
0.0
  0
LINE
  5
17A
100
AcDbEntity
  8
2
370
    50
100
AcDbLine
 10
-34.273303
 20
-11.172419
 30
0.0
 11
-30.613096
 21
-10.980596
 31
0.0
  0
LINE
  5
17B
100
AcDbEntity
  8
2
370
    50
100
AcDbLine
 10
-39.902757
 20
-16.342513
 30
0.0
 11
-40.613096
 21
-21.480596
 31
0.0
  0
LINE
  5
17C
100
AcDbEntity
  8
2
370
    50
100
AcDbLine
 10
-30.613096
 20
-10.980596
 30
0.0
 11
-30.613096
 21
-29.480596
 31
0.0
  0
ARC
  5
17D
100
AcDbEntity
  8
2
370
    50
100
AcDbCircle
 10
-33.500806
 20
-54.343283
 30
0.0
 40
6.0
100
AcDbArc
 50
183.730748
 51
267.4
  0
ARC
  5
17E
100
AcDbEntity
  8
2
370
    50
100
AcDbCircle
 10
-33.959287
 20
-17.164197
 30
0.0
 40
6.0
100
AcDbArc
 50
93.0
 51
172.128767
  0
ARC
  5
17F
100
AcDbEntity
  8
2
370
    50
100
AcDbCircle
 10
-25.113096
 20
-29.480596
 30
0.0
 40
18.5
100
AcDbArc
 50
161.074
 51
179.999
  0
ARC
  5
180
100
AcDbEntity
  8
2
370
    50
100
AcDbCircle
 10
-25.113096
 20
-29.480596
 30
0.0
 40
18.5
100
AcDbArc
 50
179.999
 51
198.924
  0
LINE
  5
181
100
AcDbEntity
  8
2
370
    50
100
AcDbLine
 10
-42.613096
 20
-23.480596
 30
0.0
 11
-42.613096
 21
-29.480596
 31
0.0
  0
LINE
  5
182
100
AcDbEntity
  8
2
370
    50
100
AcDbLine
 10
-42.613096
 20
-35.480596
 30
0.0
 11
-42.613096
 21
-29.480596
 31
0.0
  0
LINE
  5
183
100
AcDbEntity
  8
2
370
    50
100
AcDbLine
 10
-42.613096
 20
-29.480596
 30
0.0
 11
-40.613096
 21
-29.480596
 31
0.0
  0
LINE
  5
184
100
AcDbEntity
  8
2
370
    50
100
AcDbLine
 10
-42.613096
 20
-35.480596
 30
0.0
 11
-40.613096
 21
-35.480596
 31
0.0
  0
LINE
  5
185
100
AcDbEntity
  8
2
370
    50
100
AcDbLine
 10
-42.613096
 20
-30.280596
 30
0.0
 11
-40.613096
 21
-30.280596
 31
0.0
  0
LINE
  5
186
100
AcDbEntity
  8
2
370
    50
100
AcDbLine
 10
-42.613096
 20
-31.065596
 30
0.0
 11
-40.613096
 21
-31.065596
 31
0.0
  0
LINE
  5
187
100
AcDbEntity
  8
2
370
    50
100
AcDbLine
 10
-42.613096
 20
-31.823596
 30
0.0
 11
-40.613096
 21
-31.823596
 31
0.0
  0
LINE
  5
188
100
AcDbEntity
  8
2
370
    50
100
AcDbLine
 10
-42.613096
 20
-32.538596
 30
0.0
 11
-40.613096
 21
-32.538596
 31
0.0
  0
LINE
  5
189
100
AcDbEntity
  8
2
370
    50
100
AcDbLine
 10
-42.613096
 20
-33.199596
 30
0.0
 11
-40.613096
 21
-33.199596
 31
0.0
  0
LINE
  5
18A
100
AcDbEntity
  8
2
370
    50
100
AcDbLine
 10
-42.613096
 20
-33.793596
 30
0.0
 11
-40.613096
 21
-33.793596
 31
0.0
  0
LINE
  5
18B
100
AcDbEntity
  8
2
370
    50
100
AcDbLine
 10
-42.613096
 20
-34.311596
 30
0.0
 11
-40.613096
 21
-34.311596
 31
0.0
  0
LINE
  5
18C
100
AcDbEntity
  8
2
370
    50
100
AcDbLine
 10
-42.613096
 20
-34.742596
 30
0.0
 11
-40.613096
 21
-34.742596
 31
0.0
  0
LINE
  5
18D
100
AcDbEntity
  8
2
370
    50
100
AcDbLine
 10
-42.613096
 20
-35.079596
 30
0.0
 11
-40.613096
 21
-35.079596
 31
0.0
  0
LINE
  5
18E
100
AcDbEntity
  8
2
370
    50
100
AcDbLine
 10
-42.613096
 20
-35.317596
 30
0.0
 11
-40.613096
 21
-35.317596
 31
0.0
  0
LINE
  5
18F
100
AcDbEntity
  8
2
370
    50
100
AcDbLine
 10
-42.613096
 20
-35.450596
 30
0.0
 11
-40.613096
 21
-35.450596
 31
0.0
  0
LINE
  5
190
100
AcDbEntity
  8
2
370
    50
100
AcDbLine
 10
-42.613096
 20
-23.510596
 30
0.0
 11
-40.613096
 21
-23.510596
 31
0.0
  0
LINE
  5
191
100
AcDbEntity
  8
2
370
    50
100
AcDbLine
 10
-42.613096
 20
-23.643596
 30
0.0
 11
-40.613096
 21
-23.643596
 31
0.0
  0
LINE
  5
192
100
AcDbEntity
  8
2
370
    50
100
AcDbLine
 10
-42.613096
 20
-23.881596
 30
0.0
 11
-40.613096
 21
-23.881596
 31
0.0
  0
LINE
  5
193
100
AcDbEntity
  8
2
370
    50
100
AcDbLine
 10
-42.613096
 20
-24.218596
 30
0.0
 11
-40.613096
 21
-24.218596
 31
0.0
  0
LINE
  5
194
100
AcDbEntity
  8
2
370
    50
100
AcDbLine
 10
-42.613096
 20
-24.649596
 30
0.0
 11
-40.613096
 21
-24.649596
 31
0.0
  0
LINE
  5
195
100
AcDbEntity
  8
2
370
    50
100
AcDbLine
 10
-42.613096
 20
-25.167596
 30
0.0
 11
-40.613096
 21
-25.167596
 31
0.0
  0
LINE
  5
196
100
AcDbEntity
  8
2
370
    50
100
AcDbLine
 10
-42.613096
 20
-25.761596
 30
0.0
 11
-40.613096
 21
-25.761596
 31
0.0
  0
LINE
  5
197
100
AcDbEntity
  8
2
370
    50
100
AcDbLine
 10
-42.613096
 20
-26.422596
 30
0.0
 11
-40.613096
 21
-26.422596
 31
0.0
  0
LINE
  5
198
100
AcDbEntity
  8
2
370
    50
100
AcDbLine
 10
-42.613096
 20
-27.138596
 30
0.0
 11
-40.613096
 21
-27.138596
 31
0.0
  0
LINE
  5
199
100
AcDbEntity
  8
2
370
    50
100
AcDbLine
 10
-42.613096
 20
-27.895596
 30
0.0
 11
-40.613096
 21
-27.895596
 31
0.0
  0
LINE
  5
19A
100
AcDbEntity
  8
2
370
    50
100
AcDbLine
 10
-42.613096
 20
-28.680596
 30
0.0
 11
-40.613096
 21
-28.680596
 31
0.0
  0
LINE
  5
19B
100
AcDbEntity
  8
2
370
    50
100
AcDbLine
 10
-42.613096
 20
-23.480596
 30
0.0
 11
-40.613096
 21
-23.480596
 31
0.0
  0
LINE
  5
19C
100
AcDbEntity
  8
2
370
    50
100
AcDbLine
 10
-40.613096
 20
-23.480596
 30
0.0
 11
-40.613096
 21
-29.480596
 31
0.0
  0
LINE
  5
19D
100
AcDbEntity
  8
2
370
    50
100
AcDbLine
 10
-40.613096
 20
-35.480596
 30
0.0
 11
-40.613096
 21
-29.480596
 31
0.0
  0
DIMENSION
  5
19E
100
AcDbEntity
  8
3
370
    25
100
AcDbDimension
  2
*D0
 10
4.045904
 20
-76.462639
 30
0.0
 11
-19.783596
 21
-74.212639
 31
0.0
 70
     1
 71
     0
 72
     0
 41
0.0
 42
0.0
  3
Standard
100
AcDbAlignedDimension
 13
-43.613096
 23
-29.480596
 33
0.0
 14
4.045904
 24
-44.795596
 34
0.0
 50
180.0
  0
DIMENSION
  5
19F
100
AcDbEntity
  8
3
370
    25
100
AcDbDimension
  2
*D1
 10
99.045904
 20
-76.462639
 30
0.0
 11
51.545904
 21
-74.212639
 31
0.0
 70
     1
 71
     0
 72
     0
 41
0.0
 42
0.0
  3
Standard
100
AcDbAlignedDimension
 13
4.045904
 23
-44.795596
 33
0.0
 14
99.045904
 24
-38.540596
 34
0.0
 50
180.0
  0
DIMENSION
  5
1A0
100
AcDbEntity
  8
3
370
    25
100
AcDbDimension
  2
*D2
 10
-58.838375
 20
0.519404
 30
0.0
 11
-59.338375
 21
-16.230596
 31
0.0
 71
     0
 72
     0
 41
0.0
 42
0.0
  3
Standard
100
AcDbAlignedDimension
 13
-45.066096
 23
-29.480596
 33
0.0
 14
-5.270096
 24
0.519404
 34
0.0
 50
90.0
100
AcDbRotatedDimension
  0
DIMENSION
  5
1A1
100
AcDbEntity
  8
3
370
    25
100
AcDbDimension
  2
*D3
 10
139.163528
 20
-59.480596
 30
0.0
 11
138.663528
 21
-32.980596
 31
0.0
 71
     0
 72
     0
 41
0.0
 42
0.0
  3
Standard
100
AcDbAlignedDimension
 13
81.839708
 23
0.519404
 33
0.0
 14
81.839708
 24
-59.480596
 34
0.0
 50
90.0
100
AcDbRotatedDimension
  0
TEXT
  5
1A2
100
AcDbEntity
  8
3
370
    50
100
AcDbText
 10
33.524689
 20
-114.036644
 30
0.0
 40
3.0
  1
アングル止水栓（０－０－７５－１５）
 72
     5
 11
86.924689
 21
-114.036644
 31
0.0
100
AcDbText
  0
TEXT
  5
1A3
100
AcDbEntity
  8
3
370
    50
100
AcDbText
 10
33.235703
 20
-118.086189
 30
0.0
 40
3.0
  1
ＣＫ１３－８ＮＡ
 72
     5
 11
56.635703
 21
-118.086189
 31
0.0
100
AcDbText
  0
TEXT
  5
1A4
100
AcDbEntity
  8
3
370
    50
100
AcDbText
 10
116.890694
 20
-136.087921
 30
0.0
 40
3.0
  1
外観寸法図
 72
     5
 11
131.290694
 21
-136.087921
 31
0.0
100
AcDbText
  0
TEXT
  5
1A5
100
AcDbEntity
  8
3
370
    50
100
AcDbText
 10
169.868713
 20
-135.916931
 30
0.0
 40
3.0
  1
５０３６０１
 72
     5
 11
187.268713
 21
-135.916931
 31
0.0
100
AcDbText
  0
TEXT
  5
1A6
100
AcDbEntity
  8
3
370
    50
100
AcDbText
 10
145.369553
 20
-119.678352
 30
0.0
 40
3.0
  1
１　１
 72
     5
 11
153.769553
 21
-119.678352
 31
0.0
100
AcDbText
  0
TEXT
  5
1A7
100
AcDbEntity
  8
3
370
    50
100
AcDbText
 10
172.026901
 20
-127.740532
 30
0.0
 40
3.0
  1
１０　　５　１０
 72
     5
 11
195.426901
 21
-127.740532
 31
0.0
100
AcDbText
  0
LWPOLYLINE
  5
1A8
100
AcDbEntity
  8
3
370
    25
100
AcDbPolyline
 90
        3
 70
     0
 10
92.255554
 20
-18.918779
 10
96.523636
 20
-12.860562
 10
112.913071
 20
-12.860562
  0
LINE
  5
1AD
100
AcDbEntity
  8
3
370
    25
100
AcDbLine
 10
93.368175
 20
-17.339499
 30
0.0
 11
92.945008
 21
-17.041373
 31
0.0
  0
LINE
  5
1AE
100
AcDbEntity
  8
3
370
    25
100
AcDbLine
 10
92.945008
 20
-17.041373
 30
0.0
 11
92.255554
 21
-18.918779
 31
0.0
  0
LINE
  5
1AF
100
AcDbEntity
  8
3
370
    25
100
AcDbLine
 10
92.255554
 20
-18.918779
 30
0.0
 11
93.791342
 21
-17.637625
 31
0.0
  0
LINE
  5
1B0
100
AcDbEntity
  8
3
370
    25
100
AcDbLine
 10
93.791342
 20
-17.637625
 30
0.0
 11
93.368175
 21
-17.339499
 31
0.0
  0
TEXT
  5
1B1
100
AcDbEntity
  8
3
370
    50
100
AcDbText
 10
97.974808
 20
-12.433921
 30
0.0
 40
3.5
  1
Ｒ１／２
 72
     5
 11
111.274808
 21
-12.433921
 31
0.0
100
AcDbText
  0
LWPOLYLINE
  5
1B2
100
AcDbEntity
  8
3
370
    25
100
AcDbPolyline
 90
        3
 70
     0
 10
14.542985
 20
-5.038048
 10
21.272676
 20
4.712305
 10
39.949436
 20
4.712305
  0
LINE
  5
1B7
100
AcDbEntity
  8
3
370
    25
100
AcDbLine
 10
15.640348
 20
-3.448128
 30
0.0
 11
15.21433
 21
-3.154091
 31
0.0
  0
LINE
  5
1B8
100
AcDbEntity
  8
3
370
    25
100
AcDbLine
 10
15.21433
 20
-3.154091
 30
0.0
 11
14.542985
 21
-5.038048
 31
0.0
  0
LINE
  5
1B9
100
AcDbEntity
  8
3
370
    25
100
AcDbLine
 10
14.542985
 20
-5.038048
 30
0.0
 11
16.066365
 21
-3.742166
 31
0.0
  0
LINE
  5
1BA
100
AcDbEntity
  8
3
370
    25
100
AcDbLine
 10
16.066365
 20
-3.742166
 30
0.0
 11
15.640348
 21
-3.448128
 31
0.0
  0
TEXT
  5
1BB
100
AcDbEntity
  8
3
370
    50
100
AcDbText
 10
21.953196
 20
5.090207
 30
0.0
 40
3.5
  1
ＰＪ１／２
 72
     5
 11
38.753196
 21
5.090207
 31
0.0
100
AcDbText
  0
LINE
  5
1BC
100
AcDbEntity
  8
3
370
    25
  6
CENTER
100
AcDbLine
 10
4.045904
 20
6.604195
 30
0.0
 11
4.045904
 21
-44.795596
 31
0.0
  0
LINE
  5
1BD
100
AcDbEntity
  8
3
370
    25
  6
CENTER
100
AcDbLine
 10
-116.415644
 20
-63.512234
 30
0.0
 11
-116.415644
 21
5.243822
 31
0.0
  0
LINE
  5
1BE
100
AcDbEntity
  8
3
370
    25
  6
CENTER
100
AcDbLine
 10
-88.337673
 20
-29.390615
 30
0.0
 11
-149.113767
 21
-29.390615
 31
0.0
  0
LINE
  5
1BF
100
AcDbEntity
  8
3
370
    25
  6
CENTER
100
AcDbLine
 10
107.752849
 20
69.749328
 30
0.0
 11
-48.811077
 21
69.749328
 31
0.0
  0
LINE
  5
1C0
100
AcDbEntity
  8
3
370
    25
  6
CENTER
100
AcDbLine
 10
4.114913
 20
54.129328
 30
0.0
 11
4.114913
 21
85.337328
 31
0.0
  0
LINE
  5
1C1
100
AcDbEntity
  8
3
370
    25
  6
CENTER
100
AcDbLine
 10
19.114913
 20
79.099328
 30
0.0
 11
19.114913
 21
60.399328
 31
0.0
  0
LINE
  5
1C2
100
AcDbEntity
  8
3
370
    25
  6
CENTER
100
AcDbLine
 10
-45.066096
 20
-29.480596
 30
0.0
 11
112.157999
 21
-29.480596
 31
0.0
  0
DIMENSION
  5
1C3
100
AcDbEntity
  8
3
370
    25
100
AcDbDimension
  2
*D4
 10
87.045708
 20
8.790955
 30
0.0
 11
61.545708
 21
11.040955
 31
0.0
 71
     0
 72
     0
 41
0.0
 42
0.0
  3
Standard
100
AcDbAlignedDimension
 13
36.045708
 23
-29.480596
 33
0.0
 14
87.045708
 24
-29.480596
 34
0.0
100
AcDbRotatedDimension
  0
DIMENSION
  5
1C4
100
AcDbEntity
  8
3
370
    25
100
AcDbDimension
  2
*D5
 10
99.045708
 20
9.216785
 30
0.0
 11
93.045708
 21
11.466785
 31
0.0
 71
     0
 72
     0
 41
0.0
 42
0.0
  3
Standard
100
AcDbAlignedDimension
 13
87.045708
 23
-29.480596
 33
0.0
 14
99.045708
 24
-29.480596
 34
0.0
100
AcDbRotatedDimension
  0
ENDSEC
  0
SECTION
  2
OBJECTS
  0
DICTIONARY
  5
20D
100
AcDbDictionary
280
     0
281
     1
  3
ACAD_GROUP
350
20E
  3
ACAD_MLINESTYLE
350
20F
  0
DICTIONARY
  5
20E
102
{ACAD_REACTORS
330
20D
102
}
100
AcDbDictionary
280
     0
281
     1
  0
DICTIONARY
  5
20F
102
{ACAD_REACTORS
330
20D
102
}
100
AcDbDictionary
280
     0
281
     1
  3
Standard
350
210
  0
MLINESTYLE
  5
210
102
{ACAD_REACTORS
330
20F
102
}
100
AcDbMlineStyle
  2
Standard
 70
     0
  3

 62
     0
 51
90.0
 52
90.0
 71
     2
 49
0.5
 62
   256
  6
ByLayer
 49
-0.5
 62
   256
  6
ByLayer
  0
ENDSEC
  0
EOF
