  0
SECTION
  2
HEADER
  9
$ACADVER
  1
AC1015
  9
$ACADMAINTVER
 70
     6
  9
$DWGCODEPAGE
  3
ANSI_932
  9
$INSBASE
 10
0.0
 20
0.0
 30
0.0
  9
$EXTMIN
 10
-420.5
 20
-297.0
 30
1.000000E+20
  9
$EXTMAX
 10
420.5
 20
297.0
 30
-1.000000E+20
  9
$LIMMIN
 10
-420.5
 20
-297.0
  9
$LIMMAX
 10
420.5
 20
297.0
  9
$ORTHOMODE
 70
     0
  9
$REGENMODE
 70
     1
  9
$FILLMODE
 70
     1
  9
$QTEXTMODE
 70
     0
  9
$MIRRTEXT
 70
     1
  9
$LTSCALE
 40
1.0
  9
$ATTMODE
 70
     1
  9
$TEXTSIZE
 40
0.2
  9
$TRACEWID
 40
0.05
  9
$TEXTSTYLE
  7
STANDARD
  9
$CLAYER
  8
0
  9
$CELTYPE
  6
CONTINUOUS
  9
$CECOLOR
 62
   256
  9
$CELTSCALE
 40
1.0
  9
$DISPSILH
 70
     0
  9
$DIMSCALE
 40
1.0
  9
$DIMASZ
 40
2.0
  9
$DIMEXO
 40
1.0
  9
$DIMDLI
 40
0.38
  9
$DIMRND
 40
0.0
  9
$DIMDLE
 40
0.0
  9
$DIMEXE
 40
2.0
  9
$DIMTP
 40
0.0
  9
$DIMTM
 40
0.0
  9
$DIMTXT
 40
3.5
  9
$DIMCEN
 40
0.09
  9
$DIMTSZ
 40
0.0
  9
$DIMTOL
 70
     0
  9
$DIMLIM
 70
     0
  9
$DIMTIH
 70
     0
  9
$DIMTOH
 70
     0
  9
$DIMSE1
 70
     0
  9
$DIMSE2
 70
     0
  9
$DIMTAD
 70
     1
  9
$DIMZIN
 70
     0
  9
$DIMBLK
  1

  9
$DIMASO
 70
     1
  9
$DIMSHO
 70
     1
  9
$DIMPOST
  1

  9
$DIMAPOST
  1

  9
$DIMALT
 70
     0
  9
$DIMALTD
 70
     2
  9
$DIMALTF
 40
25.4
  9
$DIMLFAC
 40
1.0
  9
$DIMTOFL
 70
     0
  9
$DIMTVP
 40
0.0
  9
$DIMTIX
 70
     0
  9
$DIMSOXD
 70
     0
  9
$DIMSAH
 70
     0
  9
$DIMBLK1
  1

  9
$DIMBLK2
  1

  9
$DIMSTYLE
  2
Standard
  9
$DIMCLRD
 70
     0
  9
$DIMCLRE
 70
     0
  9
$DIMCLRT
 70
     0
  9
$DIMTFAC
 40
1.0
  9
$DIMGAP
 40
0.5
  9
$DIMJUST
 70
     0
  9
$DIMSD1
 70
     0
  9
$DIMSD2
 70
     0
  9
$DIMTOLJ
 70
     1
  9
$DIMTZIN
 70
     0
  9
$DIMALTZ
 70
     0
  9
$DIMALTTZ
 70
     0
  9
$DIMUPT
 70
     0
  9
$DIMDEC
 70
     3
  9
$DIMTDEC
 70
     4
  9
$DIMALTU
 70
     2
  9
$DIMALTTD
 70
     2
  9
$DIMTXSTY
  7
STANDARD
  9
$DIMAUNIT
 70
     0
  9
$DIMADEC
 70
     0
  9
$DIMALTRND
 40
0.0
  9
$DIMAZIN
 70
     0
  9
$DIMDSEP
 70
     0
  9
$DIMATFIT
 70
     3
  9
$DIMFRAC
 70
     0
  9
$DIMLDRBLK
  1

  9
$DIMLUNIT
 70
     2
  9
$DIMLWD
 70
     0
  9
$DIMLWE
 70
     0
  9
$DIMTMOVE
 70
     0
  9
$LUNITS
 70
     2
  9
$LUPREC
 70
     4
  9
$SKETCHINC
 40
0.1
  9
$FILLETRAD
 40
0.0
  9
$AUNITS
 70
     0
  9
$AUPREC
 70
     0
  9
$MENU
  1
acad
  9
$ELEVATION
 40
0.0
  9
$PELEVATION
 40
0.0
  9
$THICKNESS
 40
0.0
  9
$LIMCHECK
 70
     0
  9
$CHAMFERA
 40
0.0
  9
$CHAMFERB
 40
0.0
  9
$CHAMFERC
 40
0.0
  9
$CHAMFERD
 40
0.0
  9
$SKPOLY
 70
     0
  9
$TDCREATE
 40
2453383.000000000
  9
$TDUCREATE
 40
0.000000000
  9
$TDUPDATE
 40
0.000000000
  9
$TDUUPDATE
 40
2447892.625000000
  9
$TDINDWG
 40
0.0000000000
  9
$TDUSRTIMER
 40
0.0000000000
  9
$USRTIMER
 70
     1
  9
$ANGBASE
 50
0.0
  9
$ANGDIR
 70
     0
  9
$PDMODE
 70
     0
  9
$PDSIZE
 40
0.0
  9
$PLINEWID
 40
0.0
  9
$SPLFRAME
 70
     0
  9
$SPLINETYPE
 70
     6
  9
$SPLINESEGS
 70
     8
  9
$HANDSEED
  5
26F
  9
$SURFTAB1
 70
     6
  9
$SURFTAB2
 70
     6
  9
$SURFTYPE
 70
     6
  9
$SURFU
 70
     6
  9
$SURFV
 70
     6
  9
$UCSBASE
  2

  9
$UCSNAME
  2

  9
$UCSORG
 10
0.0
 20
0.0
 30
0.0
  9
$UCSXDIR
 10
1.0
 20
0.0
 30
0.0
  9
$UCSYDIR
 10
0.0
 20
1.0
 30
0.0
  9
$UCSORTHOREF
  2

  9
$UCSORTHOVIEW
 70
     0
  9
$UCSORGTOP
 10
0.0
 20
0.0
 30
0.0
  9
$UCSORGBOTTOM
 10
0.0
 20
0.0
 30
0.0
  9
$UCSORGLEFT
 10
0.0
 20
0.0
 30
0.0
  9
$UCSORGRIGHT
 10
0.0
 20
0.0
 30
0.0
  9
$UCSORGFRONT
 10
0.0
 20
0.0
 30
0.0
  9
$UCSORGBACK
 10
0.0
 20
0.0
 30
0.0
  9
$PUCSBASE
  2

  9
$PUCSNAME
  2

  9
$PUCSORG
 10
0.0
 20
0.0
 30
0.0
  9
$PUCSXDIR
 10
1.0
 20
0.0
 30
0.0
  9
$PUCSYDIR
 10
0.0
 20
1.0
 30
0.0
  9
$PUCSORTHOREF
  2

  9
$PUCSORTHOVIEW
 70
     0
  9
$PUCSORGTOP
 10
0.0
 20
0.0
 30
0.0
  9
$PUCSORGBOTTOM
 10
0.0
 20
0.0
 30
0.0
  9
$PUCSORGLEFT
 10
0.0
 20
0.0
 30
0.0
  9
$PUCSORGRIGHT
 10
0.0
 20
0.0
 30
0.0
  9
$PUCSORGFRONT
 10
0.0
 20
0.0
 30
0.0
  9
$PUCSORGBACK
 10
0.0
 20
0.0
 30
0.0
  9
$USERI1
 70
     0
  9
$USERI2
 70
     0
  9
$USERI3
 70
     0
  9
$USERI4
 70
     0
  9
$USERI5
 70
     0
  9
$USERR1
 40
0.0
  9
$USERR2
 40
0.0
  9
$USERR3
 40
0.0
  9
$USERR4
 40
0.0
  9
$USERR5
 40
0.0
  9
$WORLDVIEW
 70
     1
  9
$SHADEDGE
 70
     3
  9
$SHADEDIF
 70
    70
  9
$TILEMODE
 70
     1
  9
$MAXACTVP
 70
    16
  9
$PINSBASE
 10
0.0
 20
0.0
 30
0.0
  9
$PLIMCHECK
 70
     0
  9
$PEXTMIN
 10
1.000000E+20
 20
1.000000E+20
 30
1.000000E+20
  9
$PEXTMAX
 10
-1.000000E+20
 20
-1.000000E+20
 30
-1.000000E+20
  9
$PLIMMIN
 10
0.0
 20
0.0
  9
$PLIMMAX
 10
12.0
 20
9.0
  9
$UNITMODE
 70
     0
  9
$VISRETAIN
 70
     0
  9
$PLINEGEN
 70
     1
  9
$PSLTSCALE
 70
     0
  9
$TREEDEPTH
 70
  3020
  9
$CMLSTYLE
  2
Standard
  9
$CMLJUST
 70
     0
  9
$CMLSCALE
 40
1.0
  9
$PROXYGRAPHICS
 70
     0
  9
$MEASUREMENT
 70
     0
  9
$CELWEIGHT
370
     0
  9
$ENDCAPS
280
     0
  9
$JOINSTYLE
280
     0
  9
$LWDISPLAY
290
     0
  9
$INSUNITS
 70
     0
  9
$HYPERLINKBASE
  1

  9
$STYLESHEET
  1

  9
$XEDIT
290
     1
  9
$CEPSNTYPE
380
     0
  9
$PSTYLEMODE
290
     1
  9
$FINGERPRINTGUID
  2

  9
$VERSIONGUID
  2

  9
$EXTNAMES
290
     1
  9
$PSVPSCALE
 40
0.0
  0
ENDSEC
  0
SECTION
  2
CLASSES
  0
CLASS
  1
LWPOLYLINE
  2
AcDbPolyline
  3
AutoCAD 2000
 90
        0
280
     0
281
     1
  0
CLASS
  1
IMAGE
  2
AcDbRasterImage
  3
ISM
 90
      127
280
     0
281
     1
  0
CLASS
  1
OLE2FRAME
  2
AcDbOle2Frame
  3
AutoCAD 2000
 90
        0
280
     0
281
     1
  0
CLASS
  1
HATCH
  2
AcDbHatch
  3
AutoCAD 2000
 90
        0
280
     0
281
     1
  0
CLASS
  1
DICTIONARYVAR
  2
AcDbDictionaryVar
  3
AutoCAD 2000
 90
        0
280
     0
281
     0
  0
CLASS
  1
RASTERVARIABLES
  2
AcDbRasterVariables
  3
ISM
 90
        0
280
     0
281
     0
  0
CLASS
  1
IMAGEDEF
  2
AcDbRasterImageDef
  3
ISM
 90
        0
280
     0
281
     0
  0
CLASS
  1
IMAGEDEF_REACTOR
  2
AcDbRasterImageDefReactor
  3
ISM
 90
        1
280
     0
281
     0
  0
CLASS
  1
IDBUFFER
  2
AcDbIdBuffer
  3
AutoCAD 2000
 90
        0
280
     0
281
     0
  0
CLASS
  1
SPATIAL_FILTER
  2
AcDbSpatialFilter
  3
AutoCAD 2000
 90
        0
280
     0
281
     0
  0
CLASS
  1
XRECORD
  2
AcDbXrecord
  3
AutoCAD 2000
 90
        0
280
     0
281
     0
  0
CLASS
  1
SORTENTSTABLE
  2
AcDbSortentsTable
  3
AutoCAD 2000
 90
        0
280
     0
281
     0
  0
CLASS
  1
LAYER_INDEX
  2
AcDbLayerIndex
  3
AutoCAD 2000
 90
        0
280
     0
281
     0
  0
CLASS
  1
SPATIAL_INDEX
  2
AcDbSpatialIndex
  3
AutoCAD 2000
 90
        0
280
     0
281
     0
  0
CLASS
  1
OBJECT_PTR
  2
CAseDLPNTableRecord
  3
"ASE-LPNTableRecord"
 90
        1
280
     0
281
     0
  0
CLASS
  1
LAYOUT
  2
AcDbLayout
  3
AutoCAD 2000
 90
        0
280
     0
281
     0
  0
CLASS
  1
PLOTSETTINGS
  2
AcDbPlotSettings
  3
AutoCAD 2000
 90
        0
280
     0
281
     0
  0
CLASS
  1
ACDBDICTIONARYWDFLT
  2
AcDbDictionaryWithDefault
  3
AutoCAD 2000
 90
        0
280
     0
281
     0
  0
CLASS
  1
ACDBPLACEHOLDER
  2
AcDbPlaceHolder
  3
AutoCAD 2000
 90
        0
280
     0
281
     0
  0
CLASS
  1
VBA_PROJECT
  2
AcDbVbaProject
  3
acadvba
 90
        0
280
     0
281
     0
  0
CLASS
  1
WIPEOUT
  2
AcDbWipeout
  3
WipeOut|AutoCAD Express Tool|expresstools@autodesk.com
 90
      127
280
     0
281
     1
  0
CLASS
  1
WIPEOUTVARIABLES
  2
AcDbWipeoutVariables
  3
WipeOut|AutoCAD Express Tool|expresstools@autodesk.com
 90
        0
280
     0
281
     0
  0
CLASS
  1
RTEXT
  2
RText
  3
RText|AutoCAD Express Tool|expresstools@autodesk.com
 90
        0
280
     0
281
     1
  0
CLASS
  1
ARCALIGNEDTEXT
  2
AcDbArcAlignedText
  3
ATEXT|AutoCAD Express Tool|expresstools@autodesk.com
 90
        0
280
     0
281
     1
  0
ENDSEC
  0
SECTION
  2
TABLES
  0
TABLE
  2
VPORT
  5
6
100
AcDbSymbolTable
 70
     1
  0
VPORT
  5
19
100
AcDbSymbolTableRecord
100
AcDbViewportTableRecord
  2
*ACTIVE
 70
     0
 10
0.0
 20
0.0
 11
1.0
 21
1.0
 12
0.0
 22
0.0
 13
0.0
 23
0.0
 14
1.0
 24
1.0
 15
0.0
 25
0.0
 16
0.0
 26
0.0
 36
1.0
 17
0.0
 27
0.0
 37
0.0
 40
594.0
 41
1.415825
 42
50.0
 43
0.0
 44
0.0
 50
0.0
 51
0.0
 71
     0
 72
   500
 73
     1
 74
     1
 75
     0
 76
     0
 77
     0
 78
     0
281
     0
 65
     0
110
0.0
120
0.0
130
0.0
111
1.0
121
0.0
131
0.0
112
0.0
122
1.0
132
0.0
345
0
346
0
 79
     0
146
0.0
  0
ENDTAB
  0
TABLE
  2
LTYPE
  5
3
100
AcDbSymbolTable
 70
     9
  0
LTYPE
  5
C
100
AcDbSymbolTableRecord
100
AcDbLinetypeTableRecord
  2
ByBlock
 70
    64
  3

 72
    65
 73
     0
 40
0.0
  0
LTYPE
  5
D
100
AcDbSymbolTableRecord
100
AcDbLinetypeTableRecord
  2
ByLayer
 70
    64
  3

 72
    65
 73
     0
 40
0.0
  0
LTYPE
  5
E
100
AcDbSymbolTableRecord
100
AcDbLinetypeTableRecord
  2
CONTINUOUS
 70
     0
  3
Solid line
 72
    65
 73
     0
 40
0.0
  0
LTYPE
  5
F
100
AcDbSymbolTableRecord
100
AcDbLinetypeTableRecord
  2
DASHED
 70
     0
  3
__ __ __ __ __ __ __ __ __ __ __ __ __ __ __
 72
    65
 73
     2
 40
2.0
 49
1.2
 74
     0
 49
-0.8
 74
     0
  0
LTYPE
  5
10
100
AcDbSymbolTableRecord
100
AcDbLinetypeTableRecord
  2
CENTER
 70
     0
  3
____ _ ____ _ ____ _ ____ _ ____ _ ____ _ ____
 72
    65
 73
     4
 40
12.0
 49
9.0
 74
     0
 49
-1.0
 74
     0
 49
1.0
 74
     0
 49
-1.0
 74
     0
  0
LTYPE
  5
11
100
AcDbSymbolTableRecord
100
AcDbLinetypeTableRecord
  2
HIDDEN
 70
     0
  3
_ _ _ _ _ _ _ _ _ _ _ _ _ _ _ _ _ _ _ _ _ _ _
 72
    65
 73
     2
 40
3.2
 49
2.4
 74
     0
 49
-0.8
 74
     0
  0
LTYPE
  5
12
100
AcDbSymbolTableRecord
100
AcDbLinetypeTableRecord
  2
PHANTOM
 70
     0
  3
_____ _ _ _____ _ _ _____ _ _ _____ _ _ _____
 72
    65
 73
     6
 40
13.5
 49
9.0
 74
     0
 49
-1.0
 74
     0
 49
1.0
 74
     0
 49
-0.5
 74
     0
 49
1.0
 74
     0
 49
-1.0
 74
     0
  0
LTYPE
  5
13
100
AcDbSymbolTableRecord
100
AcDbLinetypeTableRecord
  2
DOT
 70
     0
  3
...............................................
 72
    65
 73
     2
 40
1.0
 49
0.5
 74
     0
 49
-0.5
 74
     0
  0
LTYPE
  5
14
100
AcDbSymbolTableRecord
100
AcDbLinetypeTableRecord
  2
DASHDOT
 70
     0
  3
__ . __ . __ . __ . __ . __ . __ . __ . __ . __
 72
    65
 73
     4
 40
8.0
 49
5.0
 74
     0
 49
-1.0
 74
     0
 49
1.0
 74
     0
 49
-1.0
 74
     0
  0
ENDTAB
  0
TABLE
  2
LAYER
  5
1
100
AcDbSymbolTable
 70
     4
  0
LAYER
  5
15
100
AcDbSymbolTableRecord
100
AcDbLayerTableRecord
  2
0
 70
     0
 62
     7
  6
CONTINUOUS
290
     1
370
    -3
390
0
  0
LAYER
  5
16
100
AcDbSymbolTableRecord
100
AcDbLayerTableRecord
  2
1
 70
     0
 62
     7
  6
CONTINUOUS
290
     1
370
    -3
390
0
  0
LAYER
  5
17
100
AcDbSymbolTableRecord
100
AcDbLayerTableRecord
  2
2
 70
     0
 62
     7
  6
CONTINUOUS
290
     1
370
    -3
390
0
  0
LAYER
  5
18
100
AcDbSymbolTableRecord
100
AcDbLayerTableRecord
  2
3
 70
     0
 62
     7
  6
CONTINUOUS
290
     1
370
    -3
390
0
  0
ENDTAB
  0
TABLE
  2
STYLE
  5
2
100
AcDbSymbolTable
 70
     1
  0
STYLE
  5
1B
100
AcDbSymbolTableRecord
100
AcDbTextStyleTableRecord
  2
STANDARD
 70
    64
 40
0.0
 41
1.0
 50
0.0
 71
     0
 42
1.0
  3
txt
  4
BIGFONT
  0
ENDTAB
  0
TABLE
  2
VIEW
  5
4
100
AcDbSymbolTable
 70
     0
  0
ENDTAB
  0
TABLE
  2
UCS
  5
5
100
AcDbSymbolTable
 70
     0
  0
ENDTAB
  0
TABLE
  2
APPID
  5
7
100
AcDbSymbolTable
 70
     1
  0
APPID
  5
1A
100
AcDbSymbolTableRecord
100
AcDbRegAppTableRecord
  2
ACAD
 70
     0
  0
ENDTAB
  0
TABLE
  2
DIMSTYLE
  5
8
100
AcDbSymbolTable
 70
     1
100
AcDbDimStyleTable
 71
     0
  0
DIMSTYLE
105
2A
100
AcDbSymbolTableRecord
100
AcDbDimStyleTableRecord
  2
Standard
 70
     0
  3

  4

 40
1.0
 41
2.0
 42
1.0
 43
0.38
 44
2.0
 45
0.0
 46
0.0
 47
0.0
 48
0.0
 71
     0
 72
     0
 73
     0
 74
     0
 75
     0
 76
     0
 77
     1
 78
     0
 79
     0
140
3.5
141
0.09
142
0.0
143
25.4
144
1.0
145
0.0
146
1.0
147
0.5
148
0.0
170
     0
171
     2
172
     0
173
     0
174
     0
175
     0
176
     0
177
     0
178
     0
179
     0
271
     3
272
     4
273
     2
274
     2
275
     0
276
     0
277
     2
278
    46
279
     0
280
     0
281
     0
282
     0
283
     1
284
     0
285
     0
286
     0
288
     0
289
     3
340
1B
341
0
342
0
343
0
344
0
371
    -2
372
    -2
  0
ENDTAB
  0
TABLE
  2
BLOCK_RECORD
  5
25
100
AcDbSymbolTable
 70
     7
  0
BLOCK_RECORD
  5
23
100
AcDbSymbolTableRecord
100
AcDbBlockTableRecord
  2
*Model_Space
340
0
  0
BLOCK_RECORD
  5
24
100
AcDbSymbolTableRecord
100
AcDbBlockTableRecord
  2
*Paper_Space
340
0
  0
BLOCK_RECORD
  5
1C
100
AcDbSymbolTableRecord
100
AcDbBlockTableRecord
  2
*D0
340
0
  0
BLOCK_RECORD
  5
1D
100
AcDbSymbolTableRecord
100
AcDbBlockTableRecord
  2
*D1
340
0
  0
BLOCK_RECORD
  5
1E
100
AcDbSymbolTableRecord
100
AcDbBlockTableRecord
  2
*D2
340
0
  0
BLOCK_RECORD
  5
1F
100
AcDbSymbolTableRecord
100
AcDbBlockTableRecord
  2
*D3
340
0
  0
BLOCK_RECORD
  5
20
100
AcDbSymbolTableRecord
100
AcDbBlockTableRecord
  2
*D4
340
0
  0
BLOCK_RECORD
  5
21
100
AcDbSymbolTableRecord
100
AcDbBlockTableRecord
  2
*D5
340
0
  0
BLOCK_RECORD
  5
22
100
AcDbSymbolTableRecord
100
AcDbBlockTableRecord
  2
*D6
340
0
  0
ENDTAB
  0
ENDSEC
  0
SECTION
  2
BLOCKS
  0
BLOCK
  5
26
100
AcDbEntity
  8
0
390
0
100
AcDbBlockBegin
  2
*Model_Space
 70
     0
 10
0.0
 20
0.0
 30
0.0
  3
*Model_Space
  1

  0
ENDBLK
  5
27
100
AcDbEntity
  8
0
390
0
100
AcDbBlockEnd
  0
BLOCK
  5
28
100
AcDbEntity
 67
     1
  8
0
390
0
100
AcDbBlockBegin
  2
*Paper_Space
 70
     0
 10
0.0
 20
0.0
 30
0.0
  3
*Paper_Space
  1

  0
ENDBLK
  5
29
100
AcDbEntity
 67
     1
  8
0
390
0
100
AcDbBlockEnd
  0
BLOCK
  5
217
100
AcDbEntity
  8
3
100
AcDbBlockBegin
  2
*D0
 70
     1
 10
0.0
 20
0.0
 30
0.0
  3
*D0
  1

  0
TEXT
  5
218
100
AcDbEntity
  8
3
370
    18
100
AcDbText
 10
-10.778166
 20
52.532231
 30
0.0
 40
3.5
  1
２２７
 72
     5
 11
-0.978166
 21
52.532231
 31
0.0
100
AcDbText
  0
LINE
  5
219
100
AcDbEntity
  8
3
370
    25
100
AcDbLine
 10
-119.028166
 20
45.547379
 30
0.0
 11
-119.028166
 21
53.032231
 31
0.0
  0
LINE
  5
21A
100
AcDbEntity
  8
3
370
    25
100
AcDbLine
 10
-119.028166
 20
52.032231
 30
0.0
 11
-117.096314
 21
51.514592
 31
0.0
  0
LINE
  5
21B
100
AcDbEntity
  8
3
370
    25
100
AcDbLine
 10
-119.028166
 20
52.032231
 30
0.0
 11
-117.096314
 21
52.549869
 31
0.0
  0
LINE
  5
21C
100
AcDbEntity
  8
3
370
    25
100
AcDbLine
 10
-117.096314
 20
51.514592
 30
0.0
 11
-117.096314
 21
52.549869
 31
0.0
  0
LINE
  5
21D
100
AcDbEntity
  8
3
370
    25
100
AcDbLine
 10
-119.028166
 20
52.032231
 30
0.0
 11
107.971834
 21
52.032231
 31
0.0
  0
LINE
  5
21E
100
AcDbEntity
  8
3
370
    25
100
AcDbLine
 10
107.971834
 20
52.032231
 30
0.0
 11
106.039983
 21
52.549869
 31
0.0
  0
LINE
  5
21F
100
AcDbEntity
  8
3
370
    25
100
AcDbLine
 10
107.971834
 20
52.032231
 30
0.0
 11
106.039983
 21
51.514592
 31
0.0
  0
LINE
  5
220
100
AcDbEntity
  8
3
370
    25
100
AcDbLine
 10
106.039983
 20
52.549869
 30
0.0
 11
106.039983
 21
51.514592
 31
0.0
  0
LINE
  5
221
100
AcDbEntity
  8
3
370
    25
100
AcDbLine
 10
107.971834
 20
-16.02861
 30
0.0
 11
107.971834
 21
53.032231
 31
0.0
  0
ENDBLK
  5
222
100
AcDbEntity
  8
3
100
AcDbBlockEnd
  0
BLOCK
  5
223
100
AcDbEntity
  8
3
100
AcDbBlockBegin
  2
*D1
 70
     1
 10
0.0
 20
0.0
 30
0.0
  3
*D1
  1

  0
TEXT
  5
224
100
AcDbEntity
  8
3
370
    18
100
AcDbText
 10
121.178177
 20
-12.37861
 30
0.0
 40
3.5
  1
１５
 50
270.0
 72
     5
 11
121.178177
 21
-18.67861
 31
0.0
100
AcDbText
  0
LINE
  5
225
100
AcDbEntity
  8
3
370
    25
100
AcDbLine
 10
-30.481697
 20
-8.37861
 30
0.0
 11
121.678177
 21
-8.37861
 31
0.0
  0
LINE
  5
226
100
AcDbEntity
  8
3
370
    25
100
AcDbLine
 10
120.678177
 20
-8.37861
 30
0.0
 11
120.160539
 21
-10.310462
 31
0.0
  0
LINE
  5
227
100
AcDbEntity
  8
3
370
    25
100
AcDbLine
 10
120.678177
 20
-8.37861
 30
0.0
 11
121.195815
 21
-10.310462
 31
0.0
  0
LINE
  5
228
100
AcDbEntity
  8
3
370
    25
100
AcDbLine
 10
120.160539
 20
-10.310462
 30
0.0
 11
121.195815
 21
-10.310462
 31
0.0
  0
LINE
  5
229
100
AcDbEntity
  8
3
370
    25
100
AcDbLine
 10
120.678177
 20
-8.37861
 30
0.0
 11
120.678177
 21
-23.37861
 31
0.0
  0
LINE
  5
22A
100
AcDbEntity
  8
3
370
    25
100
AcDbLine
 10
120.678177
 20
-23.37861
 30
0.0
 11
121.195815
 21
-21.446759
 31
0.0
  0
LINE
  5
22B
100
AcDbEntity
  8
3
370
    25
100
AcDbLine
 10
120.678177
 20
-23.37861
 30
0.0
 11
120.160539
 21
-21.446759
 31
0.0
  0
LINE
  5
22C
100
AcDbEntity
  8
3
370
    25
100
AcDbLine
 10
121.195815
 20
-21.446759
 30
0.0
 11
120.160539
 21
-21.446759
 31
0.0
  0
LINE
  5
22D
100
AcDbEntity
  8
3
370
    25
100
AcDbLine
 10
116.311281
 20
-23.37861
 30
0.0
 11
121.678177
 21
-23.37861
 31
0.0
  0
ENDBLK
  5
22E
100
AcDbEntity
  8
3
100
AcDbBlockEnd
  0
BLOCK
  5
22F
100
AcDbEntity
  8
3
100
AcDbBlockBegin
  2
*D2
 70
     1
 10
0.0
 20
0.0
 30
0.0
  3
*D2
  1

  0
TEXT
  5
230
100
AcDbEntity
  8
3
370
    18
100
AcDbText
 10
114.143646
 20
-33.72861
 30
0.0
 40
3.5
  1
φ１２．７
 50
270.0
 72
     5
 11
114.143646
 21
-50.52861
 31
0.0
100
AcDbText
  0
LINE
  5
231
100
AcDbEntity
  8
3
370
    25
100
AcDbLine
 10
108.971834
 20
-17.02861
 30
0.0
 11
114.643646
 21
-17.02861
 31
0.0
  0
LINE
  5
232
100
AcDbEntity
  8
3
370
    25
100
AcDbLine
 10
113.643646
 20
-17.02861
 30
0.0
 11
114.161284
 21
-15.096759
 31
0.0
  0
LINE
  5
233
100
AcDbEntity
  8
3
370
    25
100
AcDbLine
 10
113.643646
 20
-17.02861
 30
0.0
 11
113.126008
 21
-15.096759
 31
0.0
  0
LINE
  5
234
100
AcDbEntity
  8
3
370
    25
100
AcDbLine
 10
114.161284
 20
-15.096759
 30
0.0
 11
113.126008
 21
-15.096759
 31
0.0
  0
LINE
  5
235
100
AcDbEntity
  8
3
370
    25
100
AcDbLine
 10
113.643646
 20
-12.02861
 30
0.0
 11
113.643646
 21
-51.22861
 31
0.0
  0
LINE
  5
236
100
AcDbEntity
  8
3
370
    25
100
AcDbLine
 10
113.643646
 20
-29.72861
 30
0.0
 11
113.126008
 21
-31.660462
 31
0.0
  0
LINE
  5
237
100
AcDbEntity
  8
3
370
    25
100
AcDbLine
 10
113.643646
 20
-29.72861
 30
0.0
 11
114.161284
 21
-31.660462
 31
0.0
  0
LINE
  5
238
100
AcDbEntity
  8
3
370
    25
100
AcDbLine
 10
113.126008
 20
-31.660462
 30
0.0
 11
114.161284
 21
-31.660462
 31
0.0
  0
LINE
  5
239
100
AcDbEntity
  8
3
370
    25
100
AcDbLine
 10
108.971834
 20
-29.72861
 30
0.0
 11
114.643646
 21
-29.72861
 31
0.0
  0
ENDBLK
  5
23A
100
AcDbEntity
  8
3
100
AcDbBlockEnd
  0
BLOCK
  5
23B
100
AcDbEntity
  8
3
100
AcDbBlockBegin
  2
*D3
 70
     1
 10
0.0
 20
0.0
 30
0.0
  3
*D3
  1

  0
TEXT
  5
23C
100
AcDbEntity
  8
3
370
    18
100
AcDbText
 10
-123.528166
 20
-122.006187
 30
0.0
 40
3.5
  1
φ６０
 72
     5
 11
-113.728166
 21
-122.006187
 31
0.0
100
AcDbText
  0
LINE
  5
23D
100
AcDbEntity
  8
3
370
    25
100
AcDbLine
 10
-89.028166
 20
-82.363641
 30
0.0
 11
-89.028166
 21
-123.506187
 31
0.0
  0
LINE
  5
23E
100
AcDbEntity
  8
3
370
    25
100
AcDbLine
 10
-89.028166
 20
-122.506187
 30
0.0
 11
-90.960017
 21
-121.988549
 31
0.0
  0
LINE
  5
23F
100
AcDbEntity
  8
3
370
    25
100
AcDbLine
 10
-89.028166
 20
-122.506187
 30
0.0
 11
-90.960017
 21
-123.023826
 31
0.0
  0
LINE
  5
240
100
AcDbEntity
  8
3
370
    25
100
AcDbLine
 10
-90.960017
 20
-121.988549
 30
0.0
 11
-90.960017
 21
-123.023826
 31
0.0
  0
LINE
  5
241
100
AcDbEntity
  8
3
370
    25
100
AcDbLine
 10
-89.028166
 20
-122.506187
 30
0.0
 11
-149.028166
 21
-122.506187
 31
0.0
  0
LINE
  5
242
100
AcDbEntity
  8
3
370
    25
100
AcDbLine
 10
-149.028166
 20
-122.506187
 30
0.0
 11
-147.096314
 21
-123.023826
 31
0.0
  0
LINE
  5
243
100
AcDbEntity
  8
3
370
    25
100
AcDbLine
 10
-149.028166
 20
-122.506187
 30
0.0
 11
-147.096314
 21
-121.988549
 31
0.0
  0
LINE
  5
244
100
AcDbEntity
  8
3
370
    25
100
AcDbLine
 10
-147.096314
 20
-123.023826
 30
0.0
 11
-147.096314
 21
-121.988549
 31
0.0
  0
LINE
  5
245
100
AcDbEntity
  8
3
370
    25
100
AcDbLine
 10
-149.028166
 20
-82.363641
 30
0.0
 11
-149.028166
 21
-123.506187
 31
0.0
  0
ENDBLK
  5
246
100
AcDbEntity
  8
3
100
AcDbBlockEnd
  0
BLOCK
  5
247
100
AcDbEntity
  8
3
100
AcDbBlockBegin
  2
*D4
 70
     1
 10
0.0
 20
0.0
 30
0.0
  3
*D4
  1

  0
TEXT
  5
248
100
AcDbEntity
  8
3
370
    18
100
AcDbText
 10
5.221834
 20
21.808952
 30
0.0
 40
3.5
  1
１９５
 72
     5
 11
15.021834
 21
21.808952
 31
0.0
100
AcDbText
  0
LINE
  5
249
100
AcDbEntity
  8
3
370
    25
100
AcDbLine
 10
-87.028166
 20
1.82139
 30
0.0
 11
-87.028166
 21
22.308952
 31
0.0
  0
LINE
  5
24A
100
AcDbEntity
  8
3
370
    25
100
AcDbLine
 10
-87.028166
 20
21.308952
 30
0.0
 11
-85.096314
 21
20.791314
 31
0.0
  0
LINE
  5
24B
100
AcDbEntity
  8
3
370
    25
100
AcDbLine
 10
-87.028166
 20
21.308952
 30
0.0
 11
-85.096314
 21
21.82659
 31
0.0
  0
LINE
  5
24C
100
AcDbEntity
  8
3
370
    25
100
AcDbLine
 10
-85.096314
 20
20.791314
 30
0.0
 11
-85.096314
 21
21.82659
 31
0.0
  0
LINE
  5
24D
100
AcDbEntity
  8
3
370
    25
100
AcDbLine
 10
-87.028166
 20
21.308952
 30
0.0
 11
107.971834
 21
21.308952
 31
0.0
  0
LINE
  5
24E
100
AcDbEntity
  8
3
370
    25
100
AcDbLine
 10
107.971834
 20
21.308952
 30
0.0
 11
106.039983
 21
21.82659
 31
0.0
  0
LINE
  5
24F
100
AcDbEntity
  8
3
370
    25
100
AcDbLine
 10
107.971834
 20
21.308952
 30
0.0
 11
106.039983
 21
20.791314
 31
0.0
  0
LINE
  5
250
100
AcDbEntity
  8
3
370
    25
100
AcDbLine
 10
106.039983
 20
21.82659
 30
0.0
 11
106.039983
 21
20.791314
 31
0.0
  0
LINE
  5
251
100
AcDbEntity
  8
3
370
    25
100
AcDbLine
 10
107.971834
 20
-16.02861
 30
0.0
 11
107.971834
 21
22.308952
 31
0.0
  0
ENDBLK
  5
252
100
AcDbEntity
  8
3
100
AcDbBlockEnd
  0
BLOCK
  5
253
100
AcDbEntity
  8
3
100
AcDbBlockBegin
  2
*D5
 70
     1
 10
0.0
 20
0.0
 30
0.0
  3
*D5
  1

  0
TEXT
  5
254
100
AcDbEntity
  8
3
370
    25
100
AcDbText
 10
-162.63649
 20
-59.37861
 30
0.0
 40
3.5
  1
９５
 50
90.0
 72
     5
 11
-162.63649
 21
-53.07861
 31
0.0
100
AcDbText
  0
LINE
  5
255
100
AcDbEntity
  8
3
370
    25
100
AcDbLine
 10
-129.088166
 20
-103.37861
 30
0.0
 11
-163.13649
 21
-103.37861
 31
0.0
  0
LINE
  5
256
100
AcDbEntity
  8
3
370
    25
100
AcDbLine
 10
-162.13649
 20
-103.37861
 30
0.0
 11
-161.618852
 21
-101.446759
 31
0.0
  0
LINE
  5
257
100
AcDbEntity
  8
3
370
    25
100
AcDbLine
 10
-162.13649
 20
-103.37861
 30
0.0
 11
-162.654128
 21
-101.446759
 31
0.0
  0
LINE
  5
258
100
AcDbEntity
  8
3
370
    25
100
AcDbLine
 10
-161.618852
 20
-101.446759
 30
0.0
 11
-162.654128
 21
-101.446759
 31
0.0
  0
LINE
  5
259
100
AcDbEntity
  8
3
370
    25
100
AcDbLine
 10
-162.13649
 20
-103.37861
 30
0.0
 11
-162.13649
 21
-8.37861
 31
0.0
  0
LINE
  5
25A
100
AcDbEntity
  8
3
370
    25
100
AcDbLine
 10
-162.13649
 20
-8.37861
 30
0.0
 11
-162.654128
 21
-10.310462
 31
0.0
  0
LINE
  5
25B
100
AcDbEntity
  8
3
370
    25
100
AcDbLine
 10
-162.13649
 20
-8.37861
 30
0.0
 11
-161.618852
 21
-10.310462
 31
0.0
  0
LINE
  5
25C
100
AcDbEntity
  8
3
370
    25
100
AcDbLine
 10
-162.654128
 20
-10.310462
 30
0.0
 11
-161.618852
 21
-10.310462
 31
0.0
  0
LINE
  5
25D
100
AcDbEntity
  8
3
370
    25
100
AcDbLine
 10
-135.343166
 20
-8.37861
 30
0.0
 11
-163.13649
 21
-8.37861
 31
0.0
  0
ENDBLK
  5
25E
100
AcDbEntity
  8
3
100
AcDbBlockEnd
  0
BLOCK
  5
25F
100
AcDbEntity
  8
3
100
AcDbBlockBegin
  2
*D6
 70
     1
 10
0.0
 20
0.0
 30
0.0
  3
*D6
  1

  0
LINE
  5
260
100
AcDbEntity
  8
3
370
    25
100
AcDbLine
 10
-135.343166
 20
-8.37861
 30
0.0
 11
-163.13649
 21
-8.37861
 31
0.0
  0
LINE
  5
261
100
AcDbEntity
  8
3
370
    25
100
AcDbLine
 10
-162.13649
 20
-8.37861
 30
0.0
 11
-161.618852
 21
-6.446759
 31
0.0
  0
LINE
  5
262
100
AcDbEntity
  8
3
370
    25
100
AcDbLine
 10
-162.13649
 20
-8.37861
 30
0.0
 11
-162.654128
 21
-6.446759
 31
0.0
  0
LINE
  5
263
100
AcDbEntity
  8
3
370
    25
100
AcDbLine
 10
-161.618852
 20
-6.446759
 30
0.0
 11
-162.654128
 21
-6.446759
 31
0.0
  0
LINE
  5
264
100
AcDbEntity
  8
3
370
    25
100
AcDbLine
 10
-162.13649
 20
-8.37861
 30
0.0
 11
-162.13649
 21
40.73339
 31
0.0
  0
LINE
  5
265
100
AcDbEntity
  8
3
370
    25
100
AcDbLine
 10
-162.13649
 20
40.73339
 30
0.0
 11
-162.654128
 21
38.801538
 31
0.0
  0
LINE
  5
266
100
AcDbEntity
  8
3
370
    25
100
AcDbLine
 10
-162.13649
 20
40.73339
 30
0.0
 11
-161.618852
 21
38.801538
 31
0.0
  0
LINE
  5
267
100
AcDbEntity
  8
3
370
    25
100
AcDbLine
 10
-162.654128
 20
38.801538
 30
0.0
 11
-161.618852
 21
38.801538
 31
0.0
  0
LINE
  5
268
100
AcDbEntity
  8
3
370
    25
100
AcDbLine
 10
-120.028166
 20
40.73339
 30
0.0
 11
-163.13649
 21
40.73339
 31
0.0
  0
ENDBLK
  5
269
100
AcDbEntity
  8
3
100
AcDbBlockEnd
  0
ENDSEC
  0
SECTION
  2
ENTITIES
  0
LINE
  5
2B
100
AcDbEntity
  8
1
370
   100
100
AcDbLine
 10
-186.510785
 20
137.514384
 30
0.0
 11
197.491193
 21
137.514384
 31
0.0
  0
LINE
  5
2C
100
AcDbEntity
  8
1
370
   100
100
AcDbLine
 10
-186.510785
 20
137.514384
 30
0.0
 11
-186.510785
 21
-138.985941
 31
0.0
  0
LINE
  5
2D
100
AcDbEntity
  8
1
370
   100
100
AcDbLine
 10
-186.510785
 20
-138.985941
 30
0.0
 11
197.491193
 21
-138.985941
 31
0.0
  0
LINE
  5
2E
100
AcDbEntity
  8
1
370
   100
100
AcDbLine
 10
197.491193
 20
-138.985941
 30
0.0
 11
197.491193
 21
137.514384
 31
0.0
  0
TEXT
  5
2F
100
AcDbEntity
  8
1
370
    50
100
AcDbText
 10
179.814221
 20
-113.126428
 30
0.0
 40
3.0
  1
設計
 72
     5
 11
185.214221
 21
-113.126428
 31
0.0
100
AcDbText
  0
TEXT
  5
30
100
AcDbEntity
  8
1
370
    50
100
AcDbText
 10
189.563739
 20
-113.049829
 30
0.0
 40
3.0
  1
製図
 72
     5
 11
194.963739
 21
-113.049829
 31
0.0
100
AcDbText
  0
TEXT
  5
31
100
AcDbEntity
  8
1
370
    50
100
AcDbText
 10
159.502872
 20
-113.126428
 30
0.0
 40
3.0
  1
承認
 72
     5
 11
164.902872
 21
-113.126428
 31
0.0
100
AcDbText
  0
TEXT
  5
32
100
AcDbEntity
  8
1
370
    50
100
AcDbText
 10
169.494839
 20
-113.09901
 30
0.0
 40
3.0
  1
検図
 72
     5
 11
174.894839
 21
-113.09901
 31
0.0
100
AcDbText
  0
LINE
  5
33
100
AcDbEntity
  8
1
370
    25
100
AcDbLine
 10
142.491193
 20
-113.985941
 30
0.0
 11
197.491193
 21
-113.985941
 31
0.0
  0
LINE
  5
34
100
AcDbEntity
  8
1
370
    25
100
AcDbLine
 10
171.241193
 20
-122.985941
 30
0.0
 11
171.241193
 21
-129.985941
 31
0.0
  0
TEXT
  5
35
100
AcDbEntity
  8
1
370
    50
100
AcDbText
 10
159.775795
 20
-128.006264
 30
0.0
 40
3.0
  1
日　付
 72
     5
 11
168.175795
 21
-128.006264
 31
0.0
100
AcDbText
  0
LINE
  5
36
100
AcDbEntity
  8
1
370
    50
100
AcDbLine
 10
20.491193
 20
-129.985941
 30
0.0
 11
197.491193
 21
-129.985941
 31
0.0
  0
TEXT
  5
37
100
AcDbEntity
  8
1
370
    50
100
AcDbText
 10
143.887505
 20
-128.161203
 30
0.0
 40
3.0
  1
第三角法
 72
     5
 11
155.287505
 21
-128.161203
 31
0.0
100
AcDbText
  0
TEXT
  5
38
100
AcDbEntity
  8
1
370
    50
100
AcDbText
 10
145.54371
 20
-112.99901
 30
0.0
 40
3.0
  1
尺　度
 72
     5
 11
153.94371
 21
-112.99901
 31
0.0
100
AcDbText
  0
LINE
  5
39
100
AcDbEntity
  8
1
370
   100
100
AcDbLine
 10
20.491193
 20
-108.985941
 30
0.0
 11
197.491193
 21
-108.985941
 31
0.0
  0
LINE
  5
3A
100
AcDbEntity
  8
1
370
    50
100
AcDbLine
 10
105.991193
 20
-108.985941
 30
0.0
 11
105.991193
 21
-138.985941
 31
0.0
  0
LINE
  5
3B
100
AcDbEntity
  8
1
370
    25
100
AcDbLine
 10
187.491193
 20
-122.985941
 30
0.0
 11
187.491193
 21
-108.985941
 31
0.0
  0
LINE
  5
3C
100
AcDbEntity
  8
1
370
    25
100
AcDbLine
 10
177.491193
 20
-122.985941
 30
0.0
 11
177.491193
 21
-108.985941
 31
0.0
  0
LINE
  5
3D
100
AcDbEntity
  8
1
370
    25
100
AcDbLine
 10
167.491193
 20
-122.985941
 30
0.0
 11
167.491193
 21
-108.985941
 31
0.0
  0
LINE
  5
3E
100
AcDbEntity
  8
1
370
    50
100
AcDbLine
 10
142.491193
 20
-138.985941
 30
0.0
 11
142.491193
 21
-108.985941
 31
0.0
  0
LINE
  5
3F
100
AcDbEntity
  8
1
370
    50
100
AcDbLine
 10
94.991193
 20
-108.985941
 30
0.0
 11
94.991193
 21
-138.985941
 31
0.0
  0
LINE
  5
40
100
AcDbEntity
  8
1
370
    50
100
AcDbLine
 10
31.491193
 20
-108.985941
 30
0.0
 11
31.491193
 21
-129.985941
 31
0.0
  0
LINE
  5
41
100
AcDbEntity
  8
1
370
    50
100
AcDbLine
 10
142.491193
 20
-122.985941
 30
0.0
 11
197.491193
 21
-122.985941
 31
0.0
  0
TEXT
  5
42
100
AcDbEntity
  8
1
370
    50
100
AcDbText
 10
143.550565
 20
-135.940469
 30
0.0
 40
3.0
  1
コードＮｏ
 41
0.9
 72
     5
 11
156.510565
 21
-135.940469
 31
0.0
100
AcDbText
  0
TEXT
  5
43
100
AcDbEntity
  8
1
370
   100
100
AcDbText
 10
26.443387
 20
-136.43783
 30
0.0
 40
4.0
  1
ミズタニバルブ工業株式会社
 41
1.2
 72
     5
 11
87.883387
 21
-136.43783
 31
0.0
100
AcDbText
  0
LINE
  5
44
100
AcDbEntity
  8
1
370
    50
100
AcDbLine
 10
20.491193
 20
-119.485941
 30
0.0
 11
142.491193
 21
-119.485941
 31
0.0
  0
LINE
  5
45
100
AcDbEntity
  8
1
370
    50
100
AcDbLine
 10
57.741193
 20
-119.485941
 30
0.0
 11
57.741193
 21
-129.985941
 31
0.0
  0
LINE
  5
46
100
AcDbEntity
  8
1
370
    50
100
AcDbLine
 10
68.741193
 20
-119.485941
 30
0.0
 11
68.741193
 21
-129.985941
 31
0.0
  0
LINE
  5
47
100
AcDbEntity
  8
1
370
    50
100
AcDbLine
 10
157.491193
 20
-138.985941
 30
0.0
 11
157.491193
 21
-108.985941
 31
0.0
  0
TEXT
  5
48
100
AcDbEntity
  8
1
370
    50
100
AcDbText
 10
172.549065
 20
-128.050147
 30
0.0
 40
3.0
  1
　　・　　・
 72
     5
 11
189.949065
 21
-128.050147
 31
0.0
100
AcDbText
  0
LINE
  5
49
100
AcDbEntity
  8
1
370
   100
100
AcDbLine
 10
20.491193
 20
-108.985941
 30
0.0
 11
20.491193
 21
-138.985941
 31
0.0
  0
TEXT
  5
4A
100
AcDbEntity
  8
1
370
    50
100
AcDbText
 10
145.416291
 20
-120.006746
 30
0.0
 40
3.0
  1
　／ 
 72
     5
 11
150.816291
 21
-120.006746
 31
0.0
100
AcDbText
  0
TEXT
  5
4B
100
AcDbEntity
  8
1
370
    50
100
AcDbText
 10
96.952061
 20
-136.012454
 30
0.0
 40
3.0
  1
備 考 
 72
     5
 11
103.852061
 21
-136.012454
 31
0.0
100
AcDbText
  0
TEXT
  5
4C
100
AcDbEntity
  8
1
370
    50
100
AcDbText
 10
96.756267
 20
-115.44592
 30
0.0
 40
3.0
  1
仕 上
 72
     5
 11
103.656267
 21
-115.44592
 31
0.0
100
AcDbText
  0
TEXT
  5
4D
100
AcDbEntity
  8
1
370
    50
100
AcDbText
 10
96.723588
 20
-124.445833
 30
0.0
 40
3.0
  1
表 面
 72
     5
 11
103.623588
 21
-124.445833
 31
0.0
100
AcDbText
  0
TEXT
  5
4E
100
AcDbEntity
  8
1
370
    50
100
AcDbText
 10
96.723588
 20
-127.945833
 30
0.0
 40
3.0
  1
処 理
 72
     5
 11
103.623588
 21
-127.945833
 31
0.0
100
AcDbText
  0
TEXT
  5
4F
100
AcDbEntity
  8
1
370
    50
100
AcDbText
 10
22.396675
 20
-115.8467
 30
0.0
 40
3.0
  1
品 名
 72
     5
 11
29.296675
 21
-115.8467
 31
0.0
100
AcDbText
  0
TEXT
  5
50
100
AcDbEntity
  8
1
370
    50
100
AcDbText
 10
22.198883
 20
-126.231267
 30
0.0
 40
3.0
  1
材 質
 72
     5
 11
29.098883
 21
-126.231267
 31
0.0
100
AcDbText
  0
TEXT
  5
51
100
AcDbEntity
  8
1
370
    50
100
AcDbText
 10
59.448883
 20
-126.231267
 30
0.0
 40
3.0
  1
規 格
 72
     5
 11
66.348883
 21
-126.231267
 31
0.0
100
AcDbText
  0
POINT
  5
52
100
AcDbEntity
  8
2
370
    50
100
AcDbPoint
 10
6.819672
 20
-51.74218
 30
0.0
  0
TEXT
  5
53
100
AcDbEntity
  8
2
370
    50
100
AcDbText
 10
-69.430328
 20
-75.17918
 30
0.0
 40
3.125
  1
　　　　　　　　　　　　　
 50
270.0
 41
0.83
 72
     5
 11
-69.430328
 21
-74.66043
 31
0.0
100
AcDbText
  0
TEXT
  5
54
100
AcDbEntity
  8
2
370
    50
100
AcDbText
 10
-78.180328
 20
-75.17918
 30
0.0
 40
3.125
  1
　　　　　　　　　　　　　
 50
270.0
 41
0.83
 72
     5
 11
-78.180328
 21
-74.66043
 31
0.0
100
AcDbText
  0
LINE
  5
55
100
AcDbEntity
  8
2
370
    50
100
AcDbLine
 10
-111.667166
 20
-28.37863
 30
0.0
 11
-111.667166
 21
-34.40661
 31
0.0
  0
LINE
  5
56
100
AcDbEntity
  8
2
370
    50
100
AcDbLine
 10
-126.389166
 20
-28.37863
 30
0.0
 11
-126.389166
 21
-34.40661
 31
0.0
  0
ARC
  5
57
100
AcDbEntity
  8
2
370
    50
100
AcDbCircle
 10
-119.028166
 20
-41.130898
 30
0.0
 40
14.724288
100
AcDbArc
 50
60.00514
 51
119.99486
  0
ARC
  5
58
100
AcDbEntity
  8
2
370
    50
100
AcDbCircle
 10
-119.028166
 20
-21.654192
 30
0.0
 40
14.724418
100
AcDbArc
 50
240.005432
 51
299.994568
  0
ARC
  5
59
100
AcDbEntity
  8
2
370
    50
100
AcDbCircle
 10
-107.986666
 20
-31.958006
 30
0.0
 40
4.420605
100
AcDbArc
 50
213.635476
 51
270.0
  0
ARC
  5
5A
100
AcDbEntity
  8
2
370
    50
100
AcDbCircle
 10
-107.986735
 20
-30.827061
 30
0.0
 40
4.42045
100
AcDbArc
 50
57.813463
 51
146.365908
  0
ARC
  5
5B
100
AcDbEntity
  8
2
370
    50
100
AcDbCircle
 10
-130.069666
 20
-31.958006
 30
0.0
 40
4.420605
100
AcDbArc
 50
270.0
 51
326.364524
  0
ARC
  5
5C
100
AcDbEntity
  8
2
370
    50
100
AcDbCircle
 10
-130.069596
 20
-30.827061
 30
0.0
 40
4.42045
100
AcDbArc
 50
33.634092
 51
122.186537
  0
ARC
  5
5D
100
AcDbEntity
  8
2
370
    50
100
AcDbCircle
 10
149.247522
 20
-8.37861
 30
0.0
 40
10.910706
100
AcDbArc
 50
305.591134
 51
234.408866
  0
ARC
  5
5E
100
AcDbEntity
  8
2
370
    50
100
AcDbCircle
 10
149.247522
 20
-8.37861
 30
0.0
 40
6.65
100
AcDbArc
 50
342.724374
 51
197.275626
  0
CIRCLE
  5
5F
100
AcDbEntity
  8
2
370
    50
100
AcDbCircle
 10
149.247522
 20
-23.37861
 30
0.0
 40
5.65
  0
CIRCLE
  5
60
100
AcDbEntity
  8
2
370
    50
100
AcDbCircle
 10
149.247522
 20
-23.37861
 30
0.0
 40
6.35
  0
ARC
  5
61
100
AcDbEntity
  8
2
370
    50
100
AcDbCircle
 10
149.247522
 20
-8.37861
 30
0.0
 40
6.35
100
AcDbArc
 50
0.0
 51
180.0
  0
LINE
  5
62
100
AcDbEntity
  8
2
370
    50
100
AcDbLine
 10
155.597522
 20
-8.37861
 30
0.0
 11
155.597522
 21
-23.37861
 31
0.0
  0
LINE
  5
63
100
AcDbEntity
  8
2
370
    50
100
AcDbLine
 10
142.897522
 20
-23.37861
 30
0.0
 11
142.897522
 21
-8.37861
 31
0.0
  0
ARC
  5
64
100
AcDbEntity
  8
2
370
    50
100
AcDbCircle
 10
-119.028166
 20
92.892678
 30
0.0
 40
30.0
100
AcDbArc
 50
22.54031
 51
53.056798
  0
ARC
  5
65
100
AcDbEntity
  8
2
370
    50
100
AcDbCircle
 10
-119.028166
 20
92.892678
 30
0.0
 40
30.0
100
AcDbArc
 50
66.94302
 51
173.056798
  0
ARC
  5
66
100
AcDbEntity
  8
2
370
    50
100
AcDbCircle
 10
-119.028166
 20
92.892678
 30
0.0
 40
30.0
100
AcDbArc
 50
186.94302
 51
293.056798
  0
ARC
  5
67
100
AcDbEntity
  8
2
370
    50
100
AcDbCircle
 10
-119.028166
 20
92.892678
 30
0.0
 40
30.0
100
AcDbArc
 50
306.94302
 51
337.45969
  0
ARC
  5
68
100
AcDbEntity
  8
2
370
    50
100
AcDbCircle
 10
-95.637379
 20
2.222566
 30
0.0
 40
1.718056
100
AcDbArc
 50
318.836784
 51
46.042423
  0
ARC
  5
69
100
AcDbEntity
  8
2
370
    50
100
AcDbCircle
 10
-93.050544
 20
-0.039105
 30
0.0
 40
1.718056
100
AcDbArc
 50
138.836784
 51
182.439606
  0
ARC
  5
6A
100
AcDbEntity
  8
2
370
    50
100
AcDbCircle
 10
-93.050544
 20
-0.039105
 30
0.0
 40
1.718056
100
AcDbArc
 50
182.439606
 51
226.042423
  0
ARC
  5
6B
100
AcDbEntity
  8
2
370
    50
100
AcDbCircle
 10
-95.435637
 20
-2.512604
 30
0.0
 40
1.718056
100
AcDbArc
 50
2.439606
 51
46.042423
  0
ARC
  5
6C
100
AcDbEntity
  8
2
370
    50
100
AcDbCircle
 10
-95.435637
 20
-2.512604
 30
0.0
 40
1.718056
100
AcDbArc
 50
318.836784
 51
2.439606
  0
ARC
  5
6D
100
AcDbEntity
  8
2
370
    50
100
AcDbCircle
 10
-92.848802
 20
-4.774275
 30
0.0
 40
1.718056
100
AcDbArc
 50
138.836784
 51
182.439606
  0
ARC
  5
6E
100
AcDbEntity
  8
2
370
    50
100
AcDbCircle
 10
-92.848802
 20
-4.774275
 30
0.0
 40
1.718056
100
AcDbArc
 50
182.439606
 51
226.042423
  0
ARC
  5
6F
100
AcDbEntity
  8
2
370
    50
100
AcDbCircle
 10
-95.233896
 20
-7.247775
 30
0.0
 40
1.718056
100
AcDbArc
 50
2.439606
 51
46.042423
  0
ARC
  5
70
100
AcDbEntity
  8
2
370
    50
100
AcDbCircle
 10
-95.233896
 20
-7.247775
 30
0.0
 40
1.718056
100
AcDbArc
 50
318.836784
 51
2.439606
  0
ARC
  5
71
100
AcDbEntity
  8
2
370
    50
100
AcDbCircle
 10
-82.396297
 20
-2.567652
 30
0.0
 40
0.930237
100
AcDbArc
 50
308.207458
 51
35.413094
  0
ARC
  5
72
100
AcDbEntity
  8
2
370
    50
100
AcDbCircle
 10
-81.245574
 20
-4.029568
 30
0.0
 40
0.930237
100
AcDbArc
 50
128.207458
 51
171.81028
  0
ARC
  5
73
100
AcDbEntity
  8
2
370
    50
100
AcDbCircle
 10
-81.245574
 20
-4.029568
 30
0.0
 40
0.930237
100
AcDbArc
 50
171.81028
 51
215.413094
  0
ARC
  5
74
100
AcDbEntity
  8
2
370
    50
100
AcDbCircle
 10
-82.761851
 20
-5.107652
 30
0.0
 40
0.930237
100
AcDbArc
 50
351.81028
 51
35.413094
  0
ARC
  5
75
100
AcDbEntity
  8
2
370
    50
100
AcDbCircle
 10
-82.761851
 20
-5.107652
 30
0.0
 40
0.930237
100
AcDbArc
 50
308.207458
 51
351.81028
  0
ARC
  5
76
100
AcDbEntity
  8
2
370
    50
100
AcDbCircle
 10
-81.611129
 20
-6.569568
 30
0.0
 40
0.930237
100
AcDbArc
 50
128.207458
 51
171.81028
  0
ARC
  5
77
100
AcDbEntity
  8
2
370
    50
100
AcDbCircle
 10
-81.611129
 20
-6.569568
 30
0.0
 40
0.930237
100
AcDbArc
 50
171.81028
 51
215.413094
  0
ARC
  5
78
100
AcDbEntity
  8
2
370
    50
100
AcDbCircle
 10
-83.127406
 20
-7.647652
 30
0.0
 40
0.930237
100
AcDbArc
 50
351.81028
 51
35.413094
  0
ARC
  5
79
100
AcDbEntity
  8
2
370
    50
100
AcDbCircle
 10
-83.127406
 20
-7.647652
 30
0.0
 40
0.930237
100
AcDbArc
 50
308.207458
 51
351.81028
  0
LINE
  5
7A
100
AcDbEntity
  8
2
370
    50
100
AcDbLine
 10
28.572834
 20
-17.02861
 30
0.0
 11
107.971834
 21
-17.02861
 31
0.0
  0
LINE
  5
7B
100
AcDbEntity
  8
2
370
    50
100
AcDbLine
 10
28.572834
 20
-29.72861
 30
0.0
 11
107.971834
 21
-29.72861
 31
0.0
  0
LINE
  5
7C
100
AcDbEntity
  8
2
370
    50
100
AcDbLine
 10
107.971834
 20
-29.72861
 30
0.0
 11
107.971834
 21
-17.02861
 31
0.0
  0
ARC
  5
7D
100
AcDbEntity
  8
2
370
    50
100
AcDbCircle
 10
-55.028166
 20
-68.37861
 30
0.0
 40
66.35
100
AcDbArc
 50
78.084
 51
90.001
  0
LINE
  5
7E
100
AcDbEntity
  8
2
370
    50
100
AcDbLine
 10
-41.327166
 20
-3.45861
 30
0.0
 11
17.494834
 21
-15.87261
 31
0.0
  0
ARC
  5
7F
100
AcDbEntity
  8
2
370
    50
100
AcDbCircle
 10
28.572834
 20
36.62139
 30
0.0
 40
53.65
100
AcDbArc
 50
258.084
 51
270.0
  0
ARC
  5
80
100
AcDbEntity
  8
2
370
    50
100
AcDbCircle
 10
-55.028166
 20
-68.37861
 30
0.0
 40
53.65
100
AcDbArc
 50
78.084
 51
90.001
  0
LINE
  5
81
100
AcDbEntity
  8
2
370
    50
100
AcDbLine
 10
-43.950166
 20
-15.88461
 30
0.0
 11
14.872834
 21
-28.29861
 31
0.0
  0
ARC
  5
82
100
AcDbEntity
  8
2
370
    50
100
AcDbCircle
 10
28.572834
 20
36.62139
 30
0.0
 40
66.35
100
AcDbArc
 50
258.084
 51
270.0
  0
LINE
  5
83
100
AcDbEntity
  8
2
370
    50
100
AcDbLine
 10
-55.028166
 20
-14.72861
 30
0.0
 11
-84.328166
 21
-14.72861
 31
0.0
  0
LINE
  5
84
100
AcDbEntity
  8
2
370
    50
100
AcDbLine
 10
-55.028166
 20
-2.02861
 30
0.0
 11
-86.328166
 21
-2.02861
 31
0.0
  0
LINE
  5
85
100
AcDbEntity
  8
2
370
    50
100
AcDbLine
 10
-84.328166
 20
99.242678
 30
0.0
 11
107.971834
 21
99.242678
 31
0.0
  0
LINE
  5
86
100
AcDbEntity
  8
2
370
    50
100
AcDbLine
 10
-84.328166
 20
86.542678
 30
0.0
 11
107.971834
 21
86.542678
 31
0.0
  0
LINE
  5
87
100
AcDbEntity
  8
2
370
    50
100
AcDbLine
 10
107.971834
 20
86.542678
 30
0.0
 11
107.971834
 21
99.242678
 31
0.0
  0
LINE
  5
88
100
AcDbEntity
  8
2
370
    50
100
AcDbLine
 10
-81.480091
 20
-2.72861
 30
0.0
 11
-87.028166
 21
-2.72861
 31
0.0
  0
LINE
  5
89
100
AcDbEntity
  8
2
370
    50
100
AcDbLine
 10
-86.328166
 20
0.37139
 30
0.0
 11
-86.328166
 21
-2.02861
 31
0.0
  0
LINE
  5
8A
100
AcDbEntity
  8
2
370
    50
100
AcDbLine
 10
-86.328166
 20
0.37139
 30
0.0
 11
-87.028166
 21
0.37139
 31
0.0
  0
LINE
  5
8B
100
AcDbEntity
  8
2
370
    50
100
AcDbLine
 10
-102.028166
 20
2.09839
 30
0.0
 11
-96.328166
 21
2.09839
 31
0.0
  0
LINE
  5
8C
100
AcDbEntity
  8
2
370
    50
100
AcDbLine
 10
-107.028166
 20
7.09839
 30
0.0
 11
-107.028166
 21
8.593392
 31
0.0
  0
ARC
  5
8D
100
AcDbEntity
  8
2
370
    50
100
AcDbCircle
 10
-102.028166
 20
7.09839
 30
0.0
 40
5.0
100
AcDbArc
 50
180.0
 51
270.0
  0
LINE
  5
8E
100
AcDbEntity
  8
2
370
    50
100
AcDbLine
 10
-131.028166
 20
6.21339
 30
0.0
 11
-131.028166
 21
8.593392
 31
0.0
  0
LINE
  5
8F
100
AcDbEntity
  8
2
370
    50
100
AcDbLine
 10
-119.028166
 20
8.02939
 30
0.0
 11
-107.028166
 21
8.02939
 31
0.0
  0
LINE
  5
90
100
AcDbEntity
  8
2
370
    50
100
AcDbLine
 10
-107.841166
 20
8.02939
 30
0.0
 11
-107.028166
 21
6.62139
 31
0.0
  0
LINE
  5
91
100
AcDbEntity
  8
2
370
    50
100
AcDbLine
 10
-107.841166
 20
8.593392
 30
0.0
 11
-107.841166
 21
8.02939
 31
0.0
  0
LINE
  5
92
100
AcDbEntity
  8
2
370
    50
100
AcDbLine
 10
-130.215166
 20
8.02939
 30
0.0
 11
-131.028166
 21
6.62139
 31
0.0
  0
LINE
  5
93
100
AcDbEntity
  8
2
370
    50
100
AcDbLine
 10
-130.215166
 20
8.593392
 30
0.0
 11
-130.215166
 21
8.02939
 31
0.0
  0
LINE
  5
94
100
AcDbEntity
  8
2
370
    50
100
AcDbLine
 10
-131.028166
 20
8.02939
 30
0.0
 11
-119.028166
 21
8.02939
 31
0.0
  0
ARC
  5
95
100
AcDbEntity
  8
2
370
    50
100
AcDbCircle
 10
-100.957166
 20
-23.61761
 30
0.0
 40
5.821
100
AcDbArc
 50
155.283
 51
234.882
  0
LINE
  5
96
100
AcDbEntity
  8
2
370
    50
100
AcDbLine
 10
-102.611166
 20
-18.85561
 30
0.0
 11
-96.328166
 21
-18.85561
 31
0.0
  0
ARC
  5
97
100
AcDbEntity
  8
2
370
    50
100
AcDbCircle
 10
-102.611166
 20
-22.85561
 30
0.0
 40
4.0
100
AcDbArc
 50
90.0
 51
155.283
  0
LINE
  5
98
100
AcDbEntity
  8
2
370
    50
100
AcDbLine
 10
-99.028166
 20
2.09839
 30
0.0
 11
-99.028166
 21
-8.37861
 31
0.0
  0
LINE
  5
99
100
AcDbEntity
  8
2
370
    50
100
AcDbLine
 10
-96.328166
 20
0.93666
 30
0.0
 11
-99.028166
 21
0.93639
 31
0.0
  0
LINE
  5
9A
100
AcDbEntity
  8
2
370
    50
100
AcDbLine
 10
-99.028166
 20
0.93639
 30
0.0
 11
-101.041166
 21
2.09839
 31
0.0
  0
LINE
  5
9B
100
AcDbEntity
  8
2
370
    50
100
AcDbLine
 10
-96.328166
 20
-17.69461
 30
0.0
 11
-99.028166
 21
-17.69461
 31
0.0
  0
LINE
  5
9C
100
AcDbEntity
  8
2
370
    50
100
AcDbLine
 10
-99.028166
 20
-17.69461
 30
0.0
 11
-101.041166
 21
-18.85661
 31
0.0
  0
LINE
  5
9D
100
AcDbEntity
  8
2
370
    50
100
AcDbLine
 10
-99.028166
 20
-8.37861
 30
0.0
 11
-99.028166
 21
-18.85661
 31
0.0
  0
LINE
  5
9E
100
AcDbEntity
  8
2
370
    50
100
AcDbLine
 10
-106.278166
 20
-36.37861
 30
0.0
 11
-131.778166
 21
-36.37861
 31
0.0
  0
LINE
  5
9F
100
AcDbEntity
  8
2
370
    50
100
AcDbLine
 10
-131.778166
 20
-36.37861
 30
0.0
 11
-133.750166
 21
-35.23961
 31
0.0
  0
LINE
  5
A0
100
AcDbEntity
  8
2
370
    50
100
AcDbLine
 10
-106.278166
 20
-36.37861
 30
0.0
 11
-104.306166
 21
-35.23961
 31
0.0
  0
LINE
  5
A1
100
AcDbEntity
  8
2
370
    50
100
AcDbLine
 10
-133.750166
 20
-28.37861
 30
0.0
 11
-133.750166
 21
-35.23961
 31
0.0
  0
ARC
  5
A2
100
AcDbEntity
  8
2
370
    50
100
AcDbCircle
 10
-160.971166
 20
4.37139
 30
0.0
 40
30.0
100
AcDbArc
 50
356.481
 51
3.519
  0
LINE
  5
A3
100
AcDbEntity
  8
2
370
    50
100
AcDbLine
 10
-104.306166
 20
-28.37861
 30
0.0
 11
-104.306166
 21
-35.23961
 31
0.0
  0
ARC
  5
A4
100
AcDbEntity
  8
2
370
    50
100
AcDbCircle
 10
-134.910166
 20
-23.88161
 30
0.0
 40
4.0
100
AcDbArc
 50
315.0
 51
349.468
  0
ARC
  5
A5
100
AcDbEntity
  8
2
370
    50
100
AcDbCircle
 10
-145.725166
 20
-21.87061
 30
0.0
 40
15.0
100
AcDbArc
 50
349.468
 51
15.606
  0
ARC
  5
A6
100
AcDbEntity
  8
2
370
    50
100
AcDbCircle
 10
-72.028166
 20
-8.37861
 30
0.0
 40
60.0
100
AcDbArc
 50
169.525
 51
189.069
  0
LINE
  5
A7
100
AcDbEntity
  8
2
370
    50
100
AcDbLine
 10
-133.750166
 20
-28.37861
 30
0.0
 11
-132.082166
 21
-26.70961
 31
0.0
  0
LINE
  5
A8
100
AcDbEntity
  8
2
370
    50
100
AcDbLine
 10
-102.872166
 20
103.369678
 30
0.0
 11
-96.328166
 21
103.369678
 31
0.0
  0
LINE
  5
A9
100
AcDbEntity
  8
2
370
    50
100
AcDbLine
 10
-102.872166
 20
82.414678
 30
0.0
 11
-96.328166
 21
82.414678
 31
0.0
  0
LINE
  5
AA
100
AcDbEntity
  8
2
370
    50
100
AcDbLine
 10
-126.389166
 20
80.142678
 30
0.0
 11
-127.076052
 21
81.332435
 31
0.0
  0
LINE
  5
AB
100
AcDbEntity
  8
2
370
    50
100
AcDbLine
 10
-126.389166
 20
80.142678
 30
0.0
 11
-125.015376
 21
80.142678
 31
0.0
  0
LINE
  5
AC
100
AcDbEntity
  8
2
370
    50
100
AcDbLine
 10
-126.389166
 20
105.642678
 30
0.0
 11
-127.076052
 21
104.452921
 31
0.0
  0
LINE
  5
AD
100
AcDbEntity
  8
2
370
    50
100
AcDbLine
 10
-125.015376
 20
105.642678
 30
0.0
 11
-126.389166
 21
105.642678
 31
0.0
  0
LINE
  5
AE
100
AcDbEntity
  8
2
370
    50
100
AcDbLine
 10
-99.028166
 20
92.892678
 30
0.0
 11
-99.028166
 21
82.414678
 31
0.0
  0
LINE
  5
AF
100
AcDbEntity
  8
2
370
    50
100
AcDbLine
 10
-96.328166
 20
102.207678
 30
0.0
 11
-99.028166
 21
102.207678
 31
0.0
  0
LINE
  5
B0
100
AcDbEntity
  8
2
370
    50
100
AcDbLine
 10
-99.028166
 20
102.207678
 30
0.0
 11
-101.041166
 21
103.369678
 31
0.0
  0
LINE
  5
B1
100
AcDbEntity
  8
2
370
    50
100
AcDbLine
 10
-96.328166
 20
83.576678
 30
0.0
 11
-99.028166
 21
83.576678
 31
0.0
  0
LINE
  5
B2
100
AcDbEntity
  8
2
370
    50
100
AcDbLine
 10
-99.028166
 20
83.576678
 30
0.0
 11
-101.041166
 21
82.414678
 31
0.0
  0
LINE
  5
B3
100
AcDbEntity
  8
2
370
    50
100
AcDbLine
 10
-99.028166
 20
92.892678
 30
0.0
 11
-99.028166
 21
103.369678
 31
0.0
  0
ARC
  5
B4
100
AcDbEntity
  8
2
370
    50
100
AcDbCircle
 10
175.867522
 20
-22.13861
 30
0.0
 40
15.0
100
AcDbArc
 50
163.33
 51
196.671
  0
ARC
  5
B5
100
AcDbEntity
  8
2
370
    50
100
AcDbCircle
 10
165.497522
 20
-26.44161
 30
0.0
 40
4.0
100
AcDbArc
 50
179.496
 51
208.96
  0
ARC
  5
B6
100
AcDbEntity
  8
2
370
    50
100
AcDbCircle
 10
102.247522
 20
-8.37861
 30
0.0
 40
60.0
100
AcDbArc
 50
350.932
 51
10.475
  0
ARC
  5
B7
100
AcDbEntity
  8
2
370
    50
100
AcDbCircle
 10
196.247522
 20
-8.37861
 30
0.0
 40
60.0
100
AcDbArc
 50
169.525
 51
189.069
  0
ARC
  5
B8
100
AcDbEntity
  8
2
370
    50
100
AcDbCircle
 10
122.627522
 20
-22.13861
 30
0.0
 40
15.0
100
AcDbArc
 50
343.33
 51
16.671
  0
ARC
  5
B9
100
AcDbEntity
  8
2
370
    50
100
AcDbCircle
 10
132.997522
 20
-26.44161
 30
0.0
 40
4.0
100
AcDbArc
 50
331.041
 51
0.505
  0
LINE
  5
BA
100
AcDbEntity
  8
2
370
    50
100
AcDbLine
 10
136.497522
 20
-36.37861
 30
0.0
 11
161.997522
 21
-36.37861
 31
0.0
  0
LINE
  5
BB
100
AcDbEntity
  8
2
370
    50
100
AcDbLine
 10
136.497522
 20
-28.37861
 30
0.0
 11
136.497522
 21
-36.37861
 31
0.0
  0
LINE
  5
BC
100
AcDbEntity
  8
2
370
    50
100
AcDbLine
 10
161.997522
 20
-28.37861
 30
0.0
 11
161.997522
 21
-36.37861
 31
0.0
  0
LINE
  5
BD
100
AcDbEntity
  8
2
370
    50
100
AcDbLine
 10
149.247522
 20
-34.40661
 30
0.0
 11
149.247522
 21
-28.37861
 31
0.0
  0
ARC
  5
BE
100
AcDbEntity
  8
2
370
    50
100
AcDbCircle
 10
155.622522
 20
-25.08861
 30
0.0
 40
11.29
100
AcDbArc
 50
235.623
 51
304.377
  0
ARC
  5
BF
100
AcDbEntity
  8
2
370
    50
100
AcDbCircle
 10
142.872522
 20
-25.08861
 30
0.0
 40
11.29
100
AcDbArc
 50
235.623
 51
304.377
  0
ARC
  5
C0
100
AcDbEntity
  8
2
370
    50
100
AcDbCircle
 10
155.622522
 20
-37.69661
 30
0.0
 40
11.29
100
AcDbArc
 50
55.623
 51
94.110669
  0
ARC
  5
C1
100
AcDbEntity
  8
2
370
    50
100
AcDbCircle
 10
142.872522
 20
-37.69661
 30
0.0
 40
11.29
100
AcDbArc
 50
85.889331
 51
124.378
  0
LINE
  5
C2
100
AcDbEntity
  8
2
370
    50
100
AcDbLine
 10
149.247522
 20
-34.40661
 30
0.0
 11
149.247522
 21
-29.72861
 31
0.0
  0
LINE
  5
C3
100
AcDbEntity
  8
2
370
    50
100
AcDbLine
 10
161.247522
 20
6.21339
 30
0.0
 11
161.247522
 21
8.593392
 31
0.0
  0
ARC
  5
C4
100
AcDbEntity
  8
2
370
    50
100
AcDbCircle
 10
191.190522
 20
4.37139
 30
0.0
 40
30.0
100
AcDbArc
 50
176.481
 51
183.52
  0
LINE
  5
C5
100
AcDbEntity
  8
2
370
    50
100
AcDbLine
 10
137.247522
 20
6.21339
 30
0.0
 11
137.247522
 21
8.593392
 31
0.0
  0
ARC
  5
C6
100
AcDbEntity
  8
2
370
    50
100
AcDbCircle
 10
107.304522
 20
4.37139
 30
0.0
 40
30.0
100
AcDbArc
 50
356.481
 51
3.519
  0
LINE
  5
C7
100
AcDbEntity
  8
2
370
    50
100
AcDbLine
 10
149.247522
 20
7.62139
 30
0.0
 11
137.247522
 21
7.62139
 31
0.0
  0
LINE
  5
C8
100
AcDbEntity
  8
2
370
    50
100
AcDbLine
 10
160.434522
 20
7.62139
 30
0.0
 11
161.247522
 21
6.21339
 31
0.0
  0
LINE
  5
C9
100
AcDbEntity
  8
2
370
    50
100
AcDbLine
 10
160.434522
 20
8.593392
 30
0.0
 11
160.434522
 21
7.62139
 31
0.0
  0
LINE
  5
CA
100
AcDbEntity
  8
2
370
    50
100
AcDbLine
 10
138.060522
 20
7.62139
 30
0.0
 11
137.247522
 21
6.21339
 31
0.0
  0
LINE
  5
CB
100
AcDbEntity
  8
2
370
    50
100
AcDbLine
 10
138.060522
 20
8.593392
 30
0.0
 11
138.060522
 21
7.62139
 31
0.0
  0
LINE
  5
CC
100
AcDbEntity
  8
2
370
    50
100
AcDbLine
 10
149.247522
 20
7.62139
 30
0.0
 11
161.247522
 21
7.62139
 31
0.0
  0
ARC
  5
CD
100
AcDbEntity
  8
2
370
    50
100
AcDbCircle
 10
-102.872166
 20
143.369678
 30
0.0
 40
40.0
100
AcDbArc
 50
269.722565
 51
270.0
  0
ARC
  5
CE
100
AcDbEntity
  8
2
370
    50
100
AcDbCircle
 10
-102.872166
 20
42.414678
 30
0.0
 40
40.0
100
AcDbArc
 50
90.001
 51
90.282446
  0
LINE
  5
CF
100
AcDbEntity
  8
2
370
    50
100
AcDbLine
 10
-96.328166
 20
-19.28961
 30
0.0
 11
-96.328166
 21
-8.37861
 31
0.0
  0
ARC
  5
D0
100
AcDbEntity
  8
2
370
    50
100
AcDbCircle
 10
-90.328166
 20
-9.47861
 30
0.0
 40
11.5
100
AcDbArc
 50
238.551
 51
301.449
  0
LINE
  5
D1
100
AcDbEntity
  8
2
370
    50
100
AcDbLine
 10
-84.328166
 20
-19.28961
 30
0.0
 11
-84.328166
 21
-8.37861
 31
0.0
  0
LINE
  5
D2
100
AcDbEntity
  8
2
370
    50
100
AcDbLine
 10
-96.328166
 20
2.53239
 30
0.0
 11
-96.328166
 21
-8.37861
 31
0.0
  0
LINE
  5
D3
100
AcDbEntity
  8
2
370
    50
100
AcDbLine
 10
-84.328166
 20
2.53239
 30
0.0
 11
-84.328166
 21
-2.02861
 31
0.0
  0
ARC
  5
D4
100
AcDbEntity
  8
2
370
    50
100
AcDbCircle
 10
-90.328166
 20
-7.27861
 30
0.0
 40
11.5
100
AcDbArc
 50
58.551
 51
121.449
  0
ARC
  5
D5
100
AcDbEntity
  8
2
370
    50
100
AcDbCircle
 10
149.247522
 20
-8.37861
 30
0.0
 40
12.6
100
AcDbArc
 50
204.119
 51
215.881
  0
ARC
  5
D6
100
AcDbEntity
  8
2
370
    50
100
AcDbCircle
 10
149.247522
 20
-8.37861
 30
0.0
 40
12.6
100
AcDbArc
 50
324.119
 51
335.881
  0
LINE
  5
D7
100
AcDbEntity
  8
2
370
    50
100
AcDbLine
 10
142.897522
 20
-17.991687
 30
0.0
 11
139.038522
 21
-15.76361
 31
0.0
  0
LINE
  5
D8
100
AcDbEntity
  8
2
370
    50
100
AcDbLine
 10
159.456522
 20
-15.76361
 30
0.0
 11
155.597522
 21
-17.991687
 31
0.0
  0
LINE
  5
D9
100
AcDbEntity
  8
2
370
    50
100
AcDbLine
 10
160.747522
 20
-8.37861
 30
0.0
 11
160.747522
 21
-13.52761
 31
0.0
  0
LINE
  5
DA
100
AcDbEntity
  8
2
370
    50
100
AcDbLine
 10
137.747522
 20
-8.37861
 30
0.0
 11
137.747522
 21
-13.52761
 31
0.0
  0
LINE
  5
DB
100
AcDbEntity
  8
2
370
    50
100
AcDbLine
 10
137.747522
 20
-8.37861
 30
0.0
 11
137.747522
 21
-3.22961
 31
0.0
  0
LINE
  5
DC
100
AcDbEntity
  8
2
370
    50
100
AcDbLine
 10
160.747522
 20
-8.37861
 30
0.0
 11
160.747522
 21
-3.22961
 31
0.0
  0
LINE
  5
DD
100
AcDbEntity
  8
2
370
    50
100
AcDbLine
 10
159.456522
 20
-0.99361
 30
0.0
 11
150.538522
 21
4.15539
 31
0.0
  0
LINE
  5
DE
100
AcDbEntity
  8
2
370
    50
100
AcDbLine
 10
147.956522
 20
4.15539
 30
0.0
 11
139.038522
 21
-0.99361
 31
0.0
  0
ARC
  5
DF
100
AcDbEntity
  8
2
370
    50
100
AcDbCircle
 10
149.247522
 20
-8.37861
 30
0.0
 40
12.6
100
AcDbArc
 50
24.119
 51
35.881
  0
ARC
  5
E0
100
AcDbEntity
  8
2
370
    50
100
AcDbCircle
 10
149.247522
 20
-8.37861
 30
0.0
 40
12.6
100
AcDbArc
 50
84.119
 51
95.881
  0
ARC
  5
E1
100
AcDbEntity
  8
2
370
    50
100
AcDbCircle
 10
149.247522
 20
-8.37861
 30
0.0
 40
12.6
100
AcDbArc
 50
144.119
 51
155.881
  0
ELLIPSE
  5
E2
100
AcDbEntity
  8
2
370
    50
100
AcDbEllipse
 10
-90.328166
 20
-8.37861
 30
0.0
 11
0.0
 21
5.149
 31
0.0
210
0.0
220
0.0
230
1.0
 40
0.953195
 41
1.5707960000000001
 42
4.7123889999999999
  0
ELLIPSE
  5
E3
100
AcDbEntity
  8
2
370
    50
100
AcDbEllipse
 10
-90.328166
 20
-18.338064
 30
0.0
 11
4.9080000000000004
 21
0.0
 31
0.0
210
0.0
220
0.0
230
1.0
 40
0.524561
 41
0.0
 42
6.2831849999999996
  0
ELLIPSE
  5
E4
100
AcDbEntity
  8
2
370
    50
100
AcDbEllipse
 10
-90.328166
 20
-8.37861
 30
0.0
 11
0.0
 21
-5.149
 31
0.0
210
0.0
220
0.0
230
1.0
 40
0.953195
 41
4.1209360000000004
 42
4.7123889999999999
  0
ELLIPSE
  5
E5
100
AcDbEntity
  8
2
370
    50
100
AcDbEllipse
 10
-90.328166
 20
1.580843
 30
0.0
 11
4.9080000000000004
 21
0.0
 31
0.0
210
0.0
220
0.0
230
1.0
 40
0.524561
 41
2.4796870000000002
 42
3.6103459999999998
  0
LINE
  5
E6
100
AcDbEntity
  8
2
370
    50
100
AcDbLine
 10
-96.328166
 20
81.981678
 30
0.0
 11
-96.328166
 21
92.892678
 31
0.0
  0
ARC
  5
E7
100
AcDbEntity
  8
2
370
    50
100
AcDbCircle
 10
-90.328166
 20
91.792678
 30
0.0
 40
11.5
100
AcDbArc
 50
238.551
 51
244.735589
  0
ARC
  5
E8
100
AcDbEntity
  8
2
370
    50
100
AcDbCircle
 10
-90.328166
 20
91.792678
 30
0.0
 40
11.5
100
AcDbArc
 50
295.264411
 51
301.449
  0
LINE
  5
E9
100
AcDbEntity
  8
2
370
    50
100
AcDbLine
 10
-84.328166
 20
81.981678
 30
0.0
 11
-84.328166
 21
92.892678
 31
0.0
  0
LINE
  5
EA
100
AcDbEntity
  8
2
370
    50
100
AcDbLine
 10
-85.420009
 20
81.392678
 30
0.0
 11
-95.236322
 21
81.392678
 31
0.0
  0
ELLIPSE
  5
EB
100
AcDbEntity
  8
2
370
    50
100
AcDbEllipse
 10
-90.328166
 20
87.142676
 30
0.0
 11
4.9080000000000004
 21
0.0
 31
0.0
210
0.0
220
0.0
230
1.0
 40
0.908511
 41
0.0
 42
6.2831849999999996
  0
LINE
  5
EC
100
AcDbEntity
  8
2
370
    50
100
AcDbLine
 10
-96.328166
 20
103.803678
 30
0.0
 11
-96.328166
 21
92.892678
 31
0.0
  0
ARC
  5
ED
100
AcDbEntity
  8
2
370
    50
100
AcDbCircle
 10
-90.328166
 20
93.992678
 30
0.0
 40
11.5
100
AcDbArc
 50
115.264411
 51
121.449
  0
ARC
  5
EE
100
AcDbEntity
  8
2
370
    50
100
AcDbCircle
 10
-90.328166
 20
93.992678
 30
0.0
 40
11.5
100
AcDbArc
 50
58.551
 51
64.735589
  0
LINE
  5
EF
100
AcDbEntity
  8
2
370
    50
100
AcDbLine
 10
-84.328166
 20
103.803678
 30
0.0
 11
-84.328166
 21
92.892678
 31
0.0
  0
LINE
  5
F0
100
AcDbEntity
  8
2
370
    50
100
AcDbLine
 10
-85.420009
 20
104.392678
 30
0.0
 11
-95.236322
 21
104.392678
 31
0.0
  0
ELLIPSE
  5
F1
100
AcDbEntity
  8
2
370
    50
100
AcDbEllipse
 10
-90.328166
 20
98.64268
 30
0.0
 11
4.9080000000000004
 21
0.0
 31
0.0
210
0.0
220
0.0
230
1.0
 40
0.908511
 41
0.0
 42
6.2831849999999996
  0
LINE
  5
F2
100
AcDbEntity
  8
2
370
    50
100
AcDbLine
 10
-94.464803
 20
0.93639
 30
0.0
 11
-86.628166
 21
0.93639
 31
0.0
  0
ARC
  5
F3
100
AcDbEntity
  8
2
370
    50
100
AcDbCircle
 10
-86.628166
 20
0.63639
 30
0.0
 40
0.3
100
AcDbArc
 50
0.001
 51
90.001
  0
LINE
  5
F4
100
AcDbEntity
  8
2
370
    50
100
AcDbLine
 10
-88.341166
 20
2.09839
 30
0.0
 11
-86.328166
 21
0.93639
 31
0.0
  0
LINE
  5
F5
100
AcDbEntity
  8
2
370
    50
100
AcDbLine
 10
-93.923816
 20
2.09839
 30
0.0
 11
-88.341166
 21
2.09839
 31
0.0
  0
LINE
  5
F6
100
AcDbEntity
  8
2
370
    50
100
AcDbLine
 10
-86.328166
 20
-1.72861
 30
0.0
 11
-84.328166
 21
-1.72861
 31
0.0
  0
LINE
  5
F7
100
AcDbEntity
  8
2
370
    50
100
AcDbLine
 10
-86.328166
 20
0.37139
 30
0.0
 11
-86.328166
 21
0.63639
 31
0.0
  0
LINE
  5
F8
100
AcDbEntity
  8
2
370
    50
100
AcDbLine
 10
-88.341166
 20
0.82139
 30
0.0
 11
-88.341166
 21
2.09839
 31
0.0
  0
LINE
  5
F9
100
AcDbEntity
  8
2
370
    50
100
AcDbLine
 10
-129.428166
 20
-91.37861
 30
0.0
 11
-129.428166
 21
-81.363641
 31
0.0
  0
LINE
  5
FA
100
AcDbEntity
  8
2
370
    50
100
AcDbLine
 10
-108.628166
 20
-91.37861
 30
0.0
 11
-108.628166
 21
-81.363641
 31
0.0
  0
LINE
  5
FB
100
AcDbEntity
  8
2
370
    50
100
AcDbLine
 10
-119.028166
 20
-91.37861
 30
0.0
 11
-108.430166
 21
-91.37861
 31
0.0
  0
LINE
  5
FC
100
AcDbEntity
  8
2
370
    50
100
AcDbLine
 10
-108.628166
 20
-89.79361
 30
0.0
 11
-109.592166
 21
-91.37861
 31
0.0
  0
LINE
  5
FD
100
AcDbEntity
  8
2
370
    50
100
AcDbLine
 10
-129.428166
 20
-89.79361
 30
0.0
 11
-128.463166
 21
-91.37861
 31
0.0
  0
LINE
  5
FE
100
AcDbEntity
  8
2
370
    50
100
AcDbLine
 10
-119.028166
 20
-91.37861
 30
0.0
 11
-129.625166
 21
-91.37861
 31
0.0
  0
LINE
  5
FF
100
AcDbEntity
  8
2
370
    50
100
AcDbLine
 10
-129.625166
 20
-91.37861
 30
0.0
 11
-129.287166
 21
-102.21661
 31
0.0
  0
LINE
  5
100
100
AcDbEntity
  8
2
370
    50
100
AcDbLine
 10
-108.430166
 20
-91.37861
 30
0.0
 11
-108.769166
 21
-102.21661
 31
0.0
  0
LINE
  5
101
100
AcDbEntity
  8
2
370
    25
100
AcDbLine
 10
-109.967166
 20
-103.37861
 30
0.0
 11
-109.592166
 21
-91.37861
 31
0.0
  0
LINE
  5
102
100
AcDbEntity
  8
2
370
    25
100
AcDbLine
 10
-128.088166
 20
-103.37861
 30
0.0
 11
-128.463166
 21
-91.37861
 31
0.0
  0
LINE
  5
103
100
AcDbEntity
  8
2
370
    50
100
AcDbLine
 10
-128.088166
 20
-103.37861
 30
0.0
 11
-129.287166
 21
-102.21661
 31
0.0
  0
LINE
  5
104
100
AcDbEntity
  8
2
370
    50
100
AcDbLine
 10
-109.967166
 20
-103.37861
 30
0.0
 11
-128.088166
 21
-103.37861
 31
0.0
  0
LINE
  5
105
100
AcDbEntity
  8
2
370
    50
100
AcDbLine
 10
-108.769166
 20
-102.21661
 30
0.0
 11
-109.967166
 21
-103.37861
 31
0.0
  0
LINE
  5
106
100
AcDbEntity
  8
2
370
    50
100
AcDbLine
 10
-108.628166
 20
-41.96361
 30
0.0
 11
-109.592166
 21
-40.37861
 31
0.0
  0
LINE
  5
107
100
AcDbEntity
  8
2
370
    50
100
AcDbLine
 10
-129.428166
 20
-41.96361
 30
0.0
 11
-128.463166
 21
-40.37861
 31
0.0
  0
LINE
  5
108
100
AcDbEntity
  8
2
370
    50
100
AcDbLine
 10
-119.028166
 20
-40.37861
 30
0.0
 11
-129.625166
 21
-40.37861
 31
0.0
  0
LINE
  5
109
100
AcDbEntity
  8
2
370
    50
100
AcDbLine
 10
-129.625166
 20
-40.37861
 30
0.0
 11
-129.500419
 21
-36.37861
 31
0.0
  0
LINE
  5
10A
100
AcDbEntity
  8
2
370
    50
100
AcDbLine
 10
-108.430166
 20
-40.37861
 30
0.0
 11
-108.555281
 21
-36.37861
 31
0.0
  0
LINE
  5
10B
100
AcDbEntity
  8
2
370
    50
100
AcDbLine
 10
-109.717166
 20
-36.37861
 30
0.0
 11
-109.592166
 21
-40.37861
 31
0.0
  0
LINE
  5
10C
100
AcDbEntity
  8
2
370
    50
100
AcDbLine
 10
-128.338166
 20
-36.37861
 30
0.0
 11
-128.463166
 21
-40.37861
 31
0.0
  0
LINE
  5
10D
100
AcDbEntity
  8
2
370
    50
100
AcDbLine
 10
-119.028166
 20
-40.37861
 30
0.0
 11
-108.430166
 21
-40.37861
 31
0.0
  0
LINE
  5
10E
100
AcDbEntity
  8
2
370
    50
100
AcDbLine
 10
-119.028166
 20
-102.21661
 30
0.0
 11
-108.769166
 21
-102.21661
 31
0.0
  0
LINE
  5
10F
100
AcDbEntity
  8
2
370
    50
100
AcDbLine
 10
-119.028166
 20
-102.21661
 30
0.0
 11
-129.287166
 21
-102.21661
 31
0.0
  0
LINE
  5
110
100
AcDbEntity
  8
2
370
    50
100
AcDbLine
 10
138.847522
 20
-91.37861
 30
0.0
 11
138.847522
 21
-81.363641
 31
0.0
  0
LINE
  5
111
100
AcDbEntity
  8
2
370
    50
100
AcDbLine
 10
159.647522
 20
-91.37861
 30
0.0
 11
159.647522
 21
-81.363641
 31
0.0
  0
LINE
  5
112
100
AcDbEntity
  8
2
370
    50
100
AcDbLine
 10
149.247522
 20
-91.37861
 30
0.0
 11
159.845522
 21
-91.37861
 31
0.0
  0
LINE
  5
113
100
AcDbEntity
  8
2
370
    50
100
AcDbLine
 10
159.647522
 20
-89.79361
 30
0.0
 11
158.683522
 21
-91.37861
 31
0.0
  0
LINE
  5
114
100
AcDbEntity
  8
2
370
    50
100
AcDbLine
 10
138.847522
 20
-89.79361
 30
0.0
 11
139.812522
 21
-91.37861
 31
0.0
  0
LINE
  5
115
100
AcDbEntity
  8
2
370
    50
100
AcDbLine
 10
149.247522
 20
-91.37861
 30
0.0
 11
138.650522
 21
-91.37861
 31
0.0
  0
LINE
  5
116
100
AcDbEntity
  8
2
370
    50
100
AcDbLine
 10
138.650522
 20
-91.37861
 30
0.0
 11
138.988522
 21
-102.21661
 31
0.0
  0
LINE
  5
117
100
AcDbEntity
  8
2
370
    50
100
AcDbLine
 10
159.845522
 20
-91.37861
 30
0.0
 11
159.506522
 21
-102.21661
 31
0.0
  0
LINE
  5
118
100
AcDbEntity
  8
2
370
    25
100
AcDbLine
 10
158.308522
 20
-103.37861
 30
0.0
 11
158.683522
 21
-91.37861
 31
0.0
  0
LINE
  5
119
100
AcDbEntity
  8
2
370
    25
100
AcDbLine
 10
140.187522
 20
-103.37861
 30
0.0
 11
139.812522
 21
-91.37861
 31
0.0
  0
LINE
  5
11A
100
AcDbEntity
  8
2
370
    50
100
AcDbLine
 10
140.187522
 20
-103.37861
 30
0.0
 11
138.988522
 21
-102.21661
 31
0.0
  0
LINE
  5
11B
100
AcDbEntity
  8
2
370
    50
100
AcDbLine
 10
158.308522
 20
-103.37861
 30
0.0
 11
140.187522
 21
-103.37861
 31
0.0
  0
LINE
  5
11C
100
AcDbEntity
  8
2
370
    50
100
AcDbLine
 10
159.506522
 20
-102.21661
 30
0.0
 11
158.308522
 21
-103.37861
 31
0.0
  0
LINE
  5
11D
100
AcDbEntity
  8
2
370
    50
100
AcDbLine
 10
159.647522
 20
-41.96361
 30
0.0
 11
158.683522
 21
-40.37861
 31
0.0
  0
LINE
  5
11E
100
AcDbEntity
  8
2
370
    50
100
AcDbLine
 10
138.847522
 20
-41.96361
 30
0.0
 11
139.812522
 21
-40.37861
 31
0.0
  0
LINE
  5
11F
100
AcDbEntity
  8
2
370
    50
100
AcDbLine
 10
149.247522
 20
-40.37861
 30
0.0
 11
138.650522
 21
-40.37861
 31
0.0
  0
LINE
  5
120
100
AcDbEntity
  8
2
370
    50
100
AcDbLine
 10
138.650522
 20
-40.37861
 30
0.0
 11
138.775269
 21
-36.37861
 31
0.0
  0
LINE
  5
121
100
AcDbEntity
  8
2
370
    50
100
AcDbLine
 10
159.845522
 20
-40.37861
 30
0.0
 11
159.720407
 21
-36.37861
 31
0.0
  0
LINE
  5
122
100
AcDbEntity
  8
2
370
    50
100
AcDbLine
 10
158.558522
 20
-36.37861
 30
0.0
 11
158.683522
 21
-40.37861
 31
0.0
  0
LINE
  5
123
100
AcDbEntity
  8
2
370
    50
100
AcDbLine
 10
139.937522
 20
-36.37861
 30
0.0
 11
139.812522
 21
-40.37861
 31
0.0
  0
LINE
  5
124
100
AcDbEntity
  8
2
370
    50
100
AcDbLine
 10
149.247522
 20
-40.37861
 30
0.0
 11
159.845522
 21
-40.37861
 31
0.0
  0
LINE
  5
125
100
AcDbEntity
  8
2
370
    50
100
AcDbLine
 10
149.247522
 20
-102.21661
 30
0.0
 11
159.506522
 21
-102.21661
 31
0.0
  0
LINE
  5
126
100
AcDbEntity
  8
2
370
    50
100
AcDbLine
 10
149.247522
 20
-102.21661
 30
0.0
 11
138.988522
 21
-102.21661
 31
0.0
  0
LINE
  5
127
100
AcDbEntity
  8
2
370
    50
100
AcDbLine
 10
-108.628166
 20
-65.363641
 30
0.0
 11
-108.628166
 21
-40.37861
 31
0.0
  0
LINE
  5
128
100
AcDbEntity
  8
2
370
    50
100
AcDbLine
 10
-129.428166
 20
-65.363641
 30
0.0
 11
-129.428166
 21
-40.37861
 31
0.0
  0
LINE
  5
129
100
AcDbEntity
  8
2
370
    50
100
AcDbLine
 10
159.647522
 20
-65.363641
 30
0.0
 11
159.647522
 21
-40.37861
 31
0.0
  0
LINE
  5
12A
100
AcDbEntity
  8
2
370
    50
100
AcDbLine
 10
138.847522
 20
-65.363641
 30
0.0
 11
138.847522
 21
-40.37861
 31
0.0
  0
LINE
  5
12B
100
AcDbEntity
  8
2
370
    50
100
AcDbLine
 10
-125.778166
 20
37.28039
 30
0.0
 11
-119.028166
 21
37.28039
 31
0.0
  0
LINE
  5
12C
100
AcDbEntity
  8
2
370
    50
100
AcDbLine
 10
-112.278166
 20
37.28039
 30
0.0
 11
-119.028166
 21
37.28039
 31
0.0
  0
ARC
  5
12D
100
AcDbEntity
  8
2
370
    50
100
AcDbCircle
 10
-144.028166
 20
92.892717
 30
0.0
 40
6.0
100
AcDbArc
 50
106.00902
 51
256.88801
  0
ARC
  5
12E
100
AcDbEntity
  8
2
370
    50
100
AcDbCircle
 10
-85.028166
 20
92.892678
 30
0.0
 40
20.0
100
AcDbArc
 50
166.357726
 51
193.607133
  0
LINE
  5
12F
100
AcDbEntity
  8
2
370
    50
100
AcDbLine
 10
-100.688903
 20
113.16365
 30
0.0
 11
-104.46391
 21
97.609862
 31
0.0
  0
LINE
  5
130
100
AcDbEntity
  8
2
370
    50
100
AcDbLine
 10
-100.786954
 20
72.985035
 30
0.0
 11
-104.4668
 21
88.187415
 31
0.0
  0
ARC
  5
131
100
AcDbEntity
  8
2
370
    50
100
AcDbCircle
 10
-136.028166
 20
63.447814
 30
0.0
 40
20.0
100
AcDbArc
 50
46.357726
 51
73.607133
  0
LINE
  5
132
100
AcDbEntity
  8
2
370
    50
100
AcDbLine
 10
-110.64262
 20
66.874924
 30
0.0
 11
-122.225092
 21
77.921071
 31
0.0
  0
LINE
  5
133
100
AcDbEntity
  8
2
370
    50
100
AcDbLine
 10
-145.389296
 20
87.049146
 30
0.0
 11
-130.383725
 21
82.634796
 31
0.0
  0
LINE
  5
134
100
AcDbEntity
  8
2
370
    50
100
AcDbLine
 10
-145.752974
 20
98.639459
 30
0.0
 11
-130.395494
 21
103.147101
 31
0.0
  0
ARC
  5
135
100
AcDbEntity
  8
2
370
    50
100
AcDbCircle
 10
-106.5282
 20
71.242023
 30
0.0
 40
6.0
100
AcDbArc
 50
226.00902
 51
16.88801
  0
LINE
  5
136
100
AcDbEntity
  8
2
370
    50
100
AcDbLine
 10
-110.908247
 20
118.643852
 30
0.0
 11
-122.233972
 21
107.855822
 31
0.0
  0
ARC
  5
137
100
AcDbEntity
  8
2
370
    50
100
AcDbCircle
 10
-106.528131
 20
114.543293
 30
0.0
 40
6.0
100
AcDbArc
 50
343.086916
 51
136.88801
  0
ARC
  5
138
100
AcDbEntity
  8
2
370
    50
100
AcDbCircle
 10
-136.028166
 20
122.337542
 30
0.0
 40
20.0
100
AcDbArc
 50
286.357726
 51
313.607133
  0
LINE
  5
139
100
AcDbEntity
  8
2
370
    50
100
AcDbLine
 10
-119.028166
 20
26.28039
 30
0.0
 11
-101.055166
 21
26.28039
 31
0.0
  0
LINE
  5
13A
100
AcDbEntity
  8
2
370
    50
100
AcDbLine
 10
-149.501166
 20
26.28039
 30
0.0
 11
-119.028166
 21
26.28039
 31
0.0
  0
LINE
  5
13B
100
AcDbEntity
  8
2
370
    50
100
AcDbLine
 10
-100.556166
 20
26.80639
 30
0.0
 11
-100.766166
 21
30.82939
 31
0.0
  0
ARC
  5
13C
100
AcDbEntity
  8
2
370
    50
100
AcDbCircle
 10
-101.055166
 20
26.78039
 30
0.0
 40
0.5
100
AcDbArc
 50
270.0
 51
3.002
  0
LINE
  5
13D
100
AcDbEntity
  8
2
370
    50
100
AcDbLine
 10
-150.000166
 20
26.80639
 30
0.0
 11
-149.809166
 21
30.44839
 31
0.0
  0
ARC
  5
13E
100
AcDbEntity
  8
2
370
    50
100
AcDbCircle
 10
-149.501166
 20
26.78039
 30
0.0
 40
0.5
100
AcDbArc
 50
177.0
 51
270.0
  0
LINE
  5
13F
100
AcDbEntity
  8
2
370
    50
100
AcDbLine
 10
-105.937166
 20
36.45939
 30
0.0
 11
-111.878166
 21
37.28039
 31
0.0
  0
ARC
  5
140
100
AcDbEntity
  8
2
370
    50
100
AcDbCircle
 10
-106.758166
 20
30.51539
 30
0.0
 40
6.0
100
AcDbArc
 50
3.002
 51
82.132
  0
LINE
  5
141
100
AcDbEntity
  8
2
370
    50
100
AcDbLine
 10
-111.878166
 20
37.28039
 30
0.0
 11
-126.178166
 21
37.28039
 31
0.0
  0
LINE
  5
142
100
AcDbEntity
  8
2
370
    50
100
AcDbLine
 10
-144.202166
 20
36.12239
 30
0.0
 11
-126.178166
 21
37.28039
 31
0.0
  0
ARC
  5
143
100
AcDbEntity
  8
2
370
    50
100
AcDbCircle
 10
-143.818166
 20
30.13439
 30
0.0
 40
6.0
100
AcDbArc
 50
93.678
 51
177.001
  0
LINE
  5
144
100
AcDbEntity
  8
2
370
    50
100
AcDbLine
 10
-112.328166
 20
37.28039
 30
0.0
 11
-125.728166
 21
37.28039
 31
0.0
  0
ARC
  5
145
100
AcDbEntity
  8
2
370
    50
100
AcDbCircle
 10
176.37218
 20
26.78039
 30
0.0
 40
0.5
100
AcDbArc
 50
270.0
 51
7.708649
  0
LINE
  5
146
100
AcDbEntity
  8
2
370
    50
100
AcDbLine
 10
149.247522
 20
26.28039
 30
0.0
 11
176.37218
 21
26.28039
 31
0.0
  0
LINE
  5
147
100
AcDbEntity
  8
2
370
    50
100
AcDbLine
 10
149.247522
 20
36.58039
 30
0.0
 11
156.397522
 21
36.58039
 31
0.0
  0
LINE
  5
148
100
AcDbEntity
  8
2
370
    50
100
AcDbLine
 10
170.903944
 20
35.977688
 30
0.0
 11
156.397522
 21
36.58039
 31
0.0
  0
ELLIPSE
  5
149
100
AcDbEntity
  8
2
370
    50
100
AcDbEllipse
 10
170.903944
 20
30.286405
 30
0.0
 11
0.0
 21
-5.6912830000000003
 31
0.0
210
0.0
220
0.0
230
1.0
 40
0.956549
 41
1.7111160000000001
 42
3.1415929999999999
  0
LINE
  5
14A
100
AcDbEntity
  8
2
370
    50
100
AcDbLine
 10
176.294426
 20
31.082385
 30
0.0
 11
176.867662
 21
26.847458
 31
0.0
  0
LINE
  5
14B
100
AcDbEntity
  8
2
370
    50
100
AcDbLine
 10
122.200619
 20
31.082385
 30
0.0
 11
121.627383
 21
26.847458
 31
0.0
  0
ELLIPSE
  5
14C
100
AcDbEntity
  8
2
370
    50
100
AcDbEllipse
 10
127.591101
 20
30.286405
 30
0.0
 11
0.0
 21
-5.6912830000000003
 31
0.0
210
0.0
220
0.0
230
1.0
 40
0.956549
 41
3.1415929999999999
 42
4.5720700000000001
  0
LINE
  5
14D
100
AcDbEntity
  8
2
370
    50
100
AcDbLine
 10
127.591101
 20
35.977688
 30
0.0
 11
142.097522
 21
36.58039
 31
0.0
  0
LINE
  5
14E
100
AcDbEntity
  8
2
370
    50
100
AcDbLine
 10
149.247522
 20
26.28039
 30
0.0
 11
122.122865
 21
26.28039
 31
0.0
  0
ARC
  5
14F
100
AcDbEntity
  8
2
370
    50
100
AcDbCircle
 10
122.122865
 20
26.78039
 30
0.0
 40
0.5
100
AcDbArc
 50
172.291351
 51
270.0
  0
LINE
  5
150
100
AcDbEntity
  8
2
370
    50
100
AcDbLine
 10
-112.128166
 20
39.78139
 30
0.0
 11
-119.028166
 21
39.78039
 31
0.0
  0
LINE
  5
151
100
AcDbEntity
  8
2
370
    50
100
AcDbLine
 10
-113.578166
 20
40.28039
 30
0.0
 11
-119.028166
 21
40.28039
 31
0.0
  0
LINE
  5
152
100
AcDbEntity
  8
2
370
    50
100
AcDbLine
 10
-112.328166
 20
37.28039
 30
0.0
 11
-112.128166
 21
37.48039
 31
0.0
  0
LINE
  5
153
100
AcDbEntity
  8
2
370
    50
100
AcDbLine
 10
-112.128166
 20
37.48039
 30
0.0
 11
-112.128166
 21
39.78139
 31
0.0
  0
LINE
  5
154
100
AcDbEntity
  8
2
370
    50
100
AcDbLine
 10
-112.601166
 20
37.48039
 30
0.0
 11
-112.601166
 21
39.78039
 31
0.0
  0
LINE
  5
155
100
AcDbEntity
  8
2
370
    50
100
AcDbLine
 10
-112.128166
 20
37.48039
 30
0.0
 11
-125.928166
 21
37.48039
 31
0.0
  0
LINE
  5
156
100
AcDbEntity
  8
2
370
    50
100
AcDbLine
 10
-112.930166
 20
37.48039
 30
0.0
 11
-112.930166
 21
39.78039
 31
0.0
  0
LINE
  5
157
100
AcDbEntity
  8
2
370
    50
100
AcDbLine
 10
-113.367166
 20
37.48039
 30
0.0
 11
-113.367166
 21
39.78039
 31
0.0
  0
LINE
  5
158
100
AcDbEntity
  8
2
370
    50
100
AcDbLine
 10
-113.903166
 20
37.48039
 30
0.0
 11
-113.903166
 21
39.78039
 31
0.0
  0
LINE
  5
159
100
AcDbEntity
  8
2
370
    50
100
AcDbLine
 10
-114.529166
 20
37.48039
 30
0.0
 11
-114.529166
 21
39.78039
 31
0.0
  0
LINE
  5
15A
100
AcDbEntity
  8
2
370
    50
100
AcDbLine
 10
-115.234166
 20
37.48039
 30
0.0
 11
-115.234166
 21
39.78039
 31
0.0
  0
LINE
  5
15B
100
AcDbEntity
  8
2
370
    50
100
AcDbLine
 10
-116.006166
 20
37.48039
 30
0.0
 11
-116.006166
 21
39.78039
 31
0.0
  0
LINE
  5
15C
100
AcDbEntity
  8
2
370
    50
100
AcDbLine
 10
-116.830166
 20
37.48039
 30
0.0
 11
-116.830166
 21
39.78039
 31
0.0
  0
LINE
  5
15D
100
AcDbEntity
  8
2
370
    50
100
AcDbLine
 10
-117.694166
 20
37.48039
 30
0.0
 11
-117.694166
 21
39.78039
 31
0.0
  0
LINE
  5
15E
100
AcDbEntity
  8
2
370
    50
100
AcDbLine
 10
-118.581166
 20
37.48039
 30
0.0
 11
-118.581166
 21
39.78039
 31
0.0
  0
ARC
  5
15F
100
AcDbEntity
  8
2
370
    50
100
AcDbCircle
 10
-119.028166
 20
7.73339
 30
0.0
 40
33.0
100
AcDbArc
 50
80.494
 51
90.0
  0
LINE
  5
160
100
AcDbEntity
  8
2
370
    50
100
AcDbLine
 10
-113.578166
 20
40.28039
 30
0.0
 11
-112.128166
 21
39.78139
 31
0.0
  0
LINE
  5
161
100
AcDbEntity
  8
2
370
    50
100
AcDbLine
 10
-112.272166
 20
37.48039
 30
0.0
 11
-112.272166
 21
39.78039
 31
0.0
  0
LINE
  5
162
100
AcDbEntity
  8
2
370
    50
100
AcDbLine
 10
-125.928166
 20
39.78139
 30
0.0
 11
-119.028166
 21
39.78039
 31
0.0
  0
LINE
  5
163
100
AcDbEntity
  8
2
370
    50
100
AcDbLine
 10
-124.478166
 20
40.28039
 30
0.0
 11
-119.028166
 21
40.28039
 31
0.0
  0
LINE
  5
164
100
AcDbEntity
  8
2
370
    50
100
AcDbLine
 10
-125.728166
 20
37.28039
 30
0.0
 11
-125.928166
 21
37.48039
 31
0.0
  0
LINE
  5
165
100
AcDbEntity
  8
2
370
    50
100
AcDbLine
 10
-125.928166
 20
37.48039
 30
0.0
 11
-125.928166
 21
39.78139
 31
0.0
  0
LINE
  5
166
100
AcDbEntity
  8
2
370
    50
100
AcDbLine
 10
-125.455166
 20
37.48039
 30
0.0
 11
-125.455166
 21
39.78039
 31
0.0
  0
LINE
  5
167
100
AcDbEntity
  8
2
370
    50
100
AcDbLine
 10
-125.126166
 20
37.48039
 30
0.0
 11
-125.126166
 21
39.78039
 31
0.0
  0
LINE
  5
168
100
AcDbEntity
  8
2
370
    50
100
AcDbLine
 10
-124.689166
 20
37.48039
 30
0.0
 11
-124.689166
 21
39.78039
 31
0.0
  0
LINE
  5
169
100
AcDbEntity
  8
2
370
    50
100
AcDbLine
 10
-124.153166
 20
37.48039
 30
0.0
 11
-124.153166
 21
39.78039
 31
0.0
  0
LINE
  5
16A
100
AcDbEntity
  8
2
370
    50
100
AcDbLine
 10
-123.527166
 20
37.48039
 30
0.0
 11
-123.527166
 21
39.78039
 31
0.0
  0
LINE
  5
16B
100
AcDbEntity
  8
2
370
    50
100
AcDbLine
 10
-122.822166
 20
37.48039
 30
0.0
 11
-122.822166
 21
39.78039
 31
0.0
  0
LINE
  5
16C
100
AcDbEntity
  8
2
370
    50
100
AcDbLine
 10
-122.050166
 20
37.48039
 30
0.0
 11
-122.050166
 21
39.78039
 31
0.0
  0
LINE
  5
16D
100
AcDbEntity
  8
2
370
    50
100
AcDbLine
 10
-121.226166
 20
37.48039
 30
0.0
 11
-121.226166
 21
39.78039
 31
0.0
  0
LINE
  5
16E
100
AcDbEntity
  8
2
370
    50
100
AcDbLine
 10
-120.362166
 20
37.48039
 30
0.0
 11
-120.362166
 21
39.78039
 31
0.0
  0
LINE
  5
16F
100
AcDbEntity
  8
2
370
    50
100
AcDbLine
 10
-119.475166
 20
37.48039
 30
0.0
 11
-119.475166
 21
39.78039
 31
0.0
  0
ARC
  5
170
100
AcDbEntity
  8
2
370
    50
100
AcDbCircle
 10
-119.028166
 20
7.73339
 30
0.0
 40
33.0
100
AcDbArc
 50
90.0
 51
99.506
  0
LINE
  5
171
100
AcDbEntity
  8
2
370
    50
100
AcDbLine
 10
-124.478166
 20
40.28039
 30
0.0
 11
-125.928166
 21
39.78139
 31
0.0
  0
LINE
  5
172
100
AcDbEntity
  8
2
370
    50
100
AcDbLine
 10
-125.784166
 20
37.48039
 30
0.0
 11
-125.784166
 21
39.78039
 31
0.0
  0
CIRCLE
  5
173
100
AcDbEntity
  8
2
370
    50
100
AcDbCircle
 10
-119.028166
 20
92.892678
 30
0.0
 40
5.449109
  0
CIRCLE
  5
174
100
AcDbEntity
  8
2
370
    50
100
AcDbCircle
 10
-119.028166
 20
92.892678
 30
0.0
 40
6.9
  0
LINE
  5
175
100
AcDbEntity
  8
2
370
    50
100
AcDbLine
 10
149.247522
 20
36.58039
 30
0.0
 11
142.097522
 21
36.58039
 31
0.0
  0
LINE
  5
176
100
AcDbEntity
  8
2
370
    50
100
AcDbLine
 10
156.147522
 20
39.08139
 30
0.0
 11
149.247522
 21
39.08039
 31
0.0
  0
LINE
  5
177
100
AcDbEntity
  8
2
370
    50
100
AcDbLine
 10
154.697522
 20
39.58039
 30
0.0
 11
149.247522
 21
39.58039
 31
0.0
  0
LINE
  5
178
100
AcDbEntity
  8
2
370
    50
100
AcDbLine
 10
155.947522
 20
36.58039
 30
0.0
 11
156.147522
 21
36.78039
 31
0.0
  0
LINE
  5
179
100
AcDbEntity
  8
2
370
    50
100
AcDbLine
 10
156.147522
 20
36.78039
 30
0.0
 11
156.147522
 21
39.08139
 31
0.0
  0
LINE
  5
17A
100
AcDbEntity
  8
2
370
    50
100
AcDbLine
 10
155.674522
 20
36.78039
 30
0.0
 11
155.674522
 21
39.08039
 31
0.0
  0
LINE
  5
17B
100
AcDbEntity
  8
2
370
    50
100
AcDbLine
 10
156.147522
 20
36.78039
 30
0.0
 11
142.347522
 21
36.78039
 31
0.0
  0
LINE
  5
17C
100
AcDbEntity
  8
2
370
    50
100
AcDbLine
 10
155.345522
 20
36.78039
 30
0.0
 11
155.345522
 21
39.08039
 31
0.0
  0
LINE
  5
17D
100
AcDbEntity
  8
2
370
    50
100
AcDbLine
 10
154.908522
 20
36.78039
 30
0.0
 11
154.908522
 21
39.08039
 31
0.0
  0
LINE
  5
17E
100
AcDbEntity
  8
2
370
    50
100
AcDbLine
 10
154.372522
 20
36.78039
 30
0.0
 11
154.372522
 21
39.08039
 31
0.0
  0
LINE
  5
17F
100
AcDbEntity
  8
2
370
    50
100
AcDbLine
 10
153.746522
 20
36.78039
 30
0.0
 11
153.746522
 21
39.08039
 31
0.0
  0
LINE
  5
180
100
AcDbEntity
  8
2
370
    50
100
AcDbLine
 10
153.041522
 20
36.78039
 30
0.0
 11
153.041522
 21
39.08039
 31
0.0
  0
LINE
  5
181
100
AcDbEntity
  8
2
370
    50
100
AcDbLine
 10
152.269522
 20
36.78039
 30
0.0
 11
152.269522
 21
39.08039
 31
0.0
  0
LINE
  5
182
100
AcDbEntity
  8
2
370
    50
100
AcDbLine
 10
151.445522
 20
36.78039
 30
0.0
 11
151.445522
 21
39.08039
 31
0.0
  0
LINE
  5
183
100
AcDbEntity
  8
2
370
    50
100
AcDbLine
 10
150.581522
 20
36.78039
 30
0.0
 11
150.581522
 21
39.08039
 31
0.0
  0
LINE
  5
184
100
AcDbEntity
  8
2
370
    50
100
AcDbLine
 10
149.694522
 20
36.78039
 30
0.0
 11
149.694522
 21
39.08039
 31
0.0
  0
ARC
  5
185
100
AcDbEntity
  8
2
370
    50
100
AcDbCircle
 10
149.247522
 20
7.03339
 30
0.0
 40
33.0
100
AcDbArc
 50
80.494
 51
90.0
  0
LINE
  5
186
100
AcDbEntity
  8
2
370
    50
100
AcDbLine
 10
154.697522
 20
39.58039
 30
0.0
 11
156.147522
 21
39.08139
 31
0.0
  0
LINE
  5
187
100
AcDbEntity
  8
2
370
    50
100
AcDbLine
 10
156.003522
 20
36.78039
 30
0.0
 11
156.003522
 21
39.08039
 31
0.0
  0
LINE
  5
188
100
AcDbEntity
  8
2
370
    50
100
AcDbLine
 10
142.347522
 20
39.08139
 30
0.0
 11
149.247522
 21
39.08039
 31
0.0
  0
LINE
  5
189
100
AcDbEntity
  8
2
370
    50
100
AcDbLine
 10
143.797522
 20
39.58039
 30
0.0
 11
149.247522
 21
39.58039
 31
0.0
  0
LINE
  5
18A
100
AcDbEntity
  8
2
370
    50
100
AcDbLine
 10
142.547522
 20
36.58039
 30
0.0
 11
142.347522
 21
36.78039
 31
0.0
  0
LINE
  5
18B
100
AcDbEntity
  8
2
370
    50
100
AcDbLine
 10
142.347522
 20
36.78039
 30
0.0
 11
142.347522
 21
39.08139
 31
0.0
  0
LINE
  5
18C
100
AcDbEntity
  8
2
370
    50
100
AcDbLine
 10
142.820522
 20
36.78039
 30
0.0
 11
142.820522
 21
39.08039
 31
0.0
  0
LINE
  5
18D
100
AcDbEntity
  8
2
370
    50
100
AcDbLine
 10
143.149522
 20
36.78039
 30
0.0
 11
143.149522
 21
39.08039
 31
0.0
  0
LINE
  5
18E
100
AcDbEntity
  8
2
370
    50
100
AcDbLine
 10
143.586522
 20
36.78039
 30
0.0
 11
143.586522
 21
39.08039
 31
0.0
  0
LINE
  5
18F
100
AcDbEntity
  8
2
370
    50
100
AcDbLine
 10
144.122522
 20
36.78039
 30
0.0
 11
144.122522
 21
39.08039
 31
0.0
  0
LINE
  5
190
100
AcDbEntity
  8
2
370
    50
100
AcDbLine
 10
144.748522
 20
36.78039
 30
0.0
 11
144.748522
 21
39.08039
 31
0.0
  0
LINE
  5
191
100
AcDbEntity
  8
2
370
    50
100
AcDbLine
 10
145.453522
 20
36.78039
 30
0.0
 11
145.453522
 21
39.08039
 31
0.0
  0
LINE
  5
192
100
AcDbEntity
  8
2
370
    50
100
AcDbLine
 10
146.225522
 20
36.78039
 30
0.0
 11
146.225522
 21
39.08039
 31
0.0
  0
LINE
  5
193
100
AcDbEntity
  8
2
370
    50
100
AcDbLine
 10
147.049522
 20
36.78039
 30
0.0
 11
147.049522
 21
39.08039
 31
0.0
  0
LINE
  5
194
100
AcDbEntity
  8
2
370
    50
100
AcDbLine
 10
147.913522
 20
36.78039
 30
0.0
 11
147.913522
 21
39.08039
 31
0.0
  0
LINE
  5
195
100
AcDbEntity
  8
2
370
    50
100
AcDbLine
 10
148.800522
 20
36.78039
 30
0.0
 11
148.800522
 21
39.08039
 31
0.0
  0
ARC
  5
196
100
AcDbEntity
  8
2
370
    50
100
AcDbCircle
 10
149.247522
 20
7.03339
 30
0.0
 40
33.0
100
AcDbArc
 50
90.0
 51
99.506
  0
LINE
  5
197
100
AcDbEntity
  8
2
370
    50
100
AcDbLine
 10
143.797522
 20
39.58039
 30
0.0
 11
142.347522
 21
39.08139
 31
0.0
  0
LINE
  5
198
100
AcDbEntity
  8
2
370
    50
100
AcDbLine
 10
142.491522
 20
36.78039
 30
0.0
 11
142.491522
 21
39.08039
 31
0.0
  0
LINE
  5
199
100
AcDbEntity
  8
2
370
    50
100
AcDbLine
 10
-131.528166
 20
8.593392
 30
0.0
 11
-119.028166
 21
8.593392
 31
0.0
  0
ARC
  5
19A
100
AcDbEntity
  8
2
370
    50
100
AcDbCircle
 10
-129.349166
 20
13.093392
 30
0.0
 40
5.0
100
AcDbArc
 50
108.491
 51
133.306
  0
ARC
  5
19B
100
AcDbEntity
  8
2
370
    50
100
AcDbCircle
 10
-129.349166
 20
13.093392
 30
0.0
 40
5.0
100
AcDbArc
 50
226.694
 51
244.158
  0
LINE
  5
19C
100
AcDbEntity
  8
2
370
    50
100
AcDbLine
 10
-132.778166
 20
9.454392
 30
0.0
 11
-132.778166
 21
16.732392
 31
0.0
  0
LINE
  5
19D
100
AcDbEntity
  8
2
370
    50
100
AcDbLine
 10
-105.278166
 20
9.454392
 30
0.0
 11
-105.278166
 21
16.732392
 31
0.0
  0
ARC
  5
19E
100
AcDbEntity
  8
2
370
    50
100
AcDbCircle
 10
-108.707166
 20
13.093392
 30
0.0
 40
5.0
100
AcDbArc
 50
295.842
 51
313.306
  0
ARC
  5
19F
100
AcDbEntity
  8
2
370
    50
100
AcDbCircle
 10
-108.707166
 20
13.093392
 30
0.0
 40
5.0
100
AcDbArc
 50
46.695
 51
71.509
  0
LINE
  5
1A0
100
AcDbEntity
  8
2
370
    50
100
AcDbLine
 10
-106.528166
 20
8.593392
 30
0.0
 11
-119.028166
 21
8.593392
 31
0.0
  0
LINE
  5
1A1
100
AcDbEntity
  8
2
370
    50
100
AcDbLine
 10
-110.009166
 20
16.732392
 30
0.0
 11
-114.549166
 21
16.732392
 31
0.0
  0
LINE
  5
1A2
100
AcDbEntity
  8
2
370
    50
100
AcDbLine
 10
-114.549166
 20
9.454392
 30
0.0
 11
-110.009166
 21
9.454392
 31
0.0
  0
LINE
  5
1A3
100
AcDbEntity
  8
2
370
    50
100
AcDbLine
 10
-110.009166
 20
16.732392
 30
0.0
 11
-110.009166
 21
9.454392
 31
0.0
  0
LINE
  5
1A4
100
AcDbEntity
  8
2
370
    50
100
AcDbLine
 10
-114.549166
 20
16.732392
 30
0.0
 11
-114.549166
 21
9.454392
 31
0.0
  0
ARC
  5
1A5
100
AcDbEntity
  8
2
370
    50
100
AcDbCircle
 10
-103.342166
 20
35.434392
 30
0.0
 40
18.0
100
AcDbArc
 50
235.535
 51
257.878
  0
ARC
  5
1A6
100
AcDbEntity
  8
2
370
    50
100
AcDbCircle
 10
-134.714166
 20
35.434392
 30
0.0
 40
18.0
100
AcDbArc
 50
282.122
 51
304.465
  0
LINE
  5
1A7
100
AcDbEntity
  8
2
370
    50
100
AcDbLine
 10
-124.528166
 20
20.593392
 30
0.0
 11
-113.528166
 21
20.593392
 31
0.0
  0
LINE
  5
1A8
100
AcDbEntity
  8
2
370
    50
100
AcDbLine
 10
-123.507166
 20
16.732392
 30
0.0
 11
-123.507166
 21
9.454392
 31
0.0
  0
LINE
  5
1A9
100
AcDbEntity
  8
2
370
    50
100
AcDbLine
 10
-128.047166
 20
16.732392
 30
0.0
 11
-128.047166
 21
9.454392
 31
0.0
  0
LINE
  5
1AA
100
AcDbEntity
  8
2
370
    50
100
AcDbLine
 10
-123.507166
 20
9.454392
 30
0.0
 11
-128.047166
 21
9.454392
 31
0.0
  0
LINE
  5
1AB
100
AcDbEntity
  8
2
370
    50
100
AcDbLine
 10
-128.047166
 20
16.732392
 30
0.0
 11
-123.507166
 21
16.732392
 31
0.0
  0
ELLIPSE
  5
1AC
100
AcDbEntity
  8
2
370
    50
100
AcDbEllipse
 10
-119.028166
 20
16.732392
 30
0.0
 11
4.4790000000000001
 21
0.0
 31
0.0
210
0.0
220
0.0
230
1.0
 40
0.119
 41
0.0
 42
3.1415929999999999
  0
ELLIPSE
  5
1AD
100
AcDbEntity
  8
2
370
    50
100
AcDbEllipse
 10
-107.643666
 20
16.732367
 30
0.0
 11
2.3654999999999999
 21
-0.000025
 31
0.0
210
0.0
220
0.0
230
1.0
 40
0.225135
 41
0.506074
 42
3.1415929999999999
  0
ELLIPSE
  5
1AE
100
AcDbEntity
  8
2
370
    50
100
AcDbEllipse
 10
-119.028166
 20
9.454392
 30
0.0
 11
4.4790000000000001
 21
0.0
 31
0.0
210
0.0
220
0.0
230
1.0
 40
0.19223
 41
3.1415929999999999
 42
0.0
  0
ELLIPSE
  5
1AF
100
AcDbEntity
  8
2
370
    50
100
AcDbEllipse
 10
-107.643666
 20
9.454392
 30
0.0
 11
2.3654999999999999
 21
0.0
 31
0.0
210
0.0
220
0.0
230
1.0
 40
0.363982
 41
3.1415929999999999
 42
4.7130210000000003
  0
ELLIPSE
  5
1B0
100
AcDbEntity
  8
2
370
    50
100
AcDbEllipse
 10
-130.412666
 20
9.454392
 30
0.0
 11
-2.3654999999999999
 21
0.0
 31
0.0
210
0.0
220
0.0
230
1.0
 40
0.363982
 41
1.5701639999999999
 42
3.1415929999999999
  0
ELLIPSE
  5
1B1
100
AcDbEntity
  8
2
370
    50
100
AcDbEllipse
 10
-130.412666
 20
16.732367
 30
0.0
 11
-2.3654999999999999
 21
-0.000025
 31
0.0
210
0.0
220
0.0
230
1.0
 40
0.225135
 41
3.1415929999999999
 42
5.7771109999999997
  0
LINE
  5
1B2
100
AcDbEntity
  8
2
370
    50
100
AcDbLine
 10
136.247502
 20
8.871681
 30
0.0
 11
136.247911
 21
17.315539
 31
0.0
  0
ARC
  5
1B3
100
AcDbEntity
  8
2
370
    50
100
AcDbCircle
 10
138.926522
 20
13.093392
 30
0.0
 40
5.0
100
AcDbArc
 50
237.601537
 51
244.158
  0
ARC
  5
1B4
100
AcDbEntity
  8
2
370
    50
100
AcDbCircle
 10
138.926522
 20
13.093392
 30
0.0
 40
5.0
100
AcDbArc
 50
108.491
 51
122.398463
  0
LINE
  5
1B5
100
AcDbEntity
  8
2
370
    50
100
AcDbLine
 10
138.868534
 20
16.732392
 30
0.0
 11
136.247502
 21
16.732392
 31
0.0
  0
LINE
  5
1B6
100
AcDbEntity
  8
2
370
    50
100
AcDbLine
 10
138.868534
 20
16.732392
 30
0.0
 11
138.868534
 21
9.454392
 31
0.0
  0
LINE
  5
1B7
100
AcDbEntity
  8
2
370
    50
100
AcDbLine
 10
136.247502
 20
9.454392
 30
0.0
 11
138.868534
 21
9.454392
 31
0.0
  0
ELLIPSE
  5
1B8
100
AcDbEntity
  8
2
370
    50
100
AcDbEllipse
 10
142.747512
 20
16.732392
 30
0.0
 11
-3.878978
 21
0.0
 31
0.0
210
0.0
220
0.0
230
1.0
 40
0.137407
 41
3.1415929999999999
 42
0.0
  0
ELLIPSE
  5
1B9
100
AcDbEntity
  8
2
370
    50
100
AcDbEllipse
 10
142.747512
 20
9.454392
 30
0.0
 11
-3.878978
 21
0.0
 31
0.0
210
0.0
220
0.0
230
1.0
 40
0.221966
 41
0.0
 42
3.1415929999999999
  0
ELLIPSE
  5
1BA
100
AcDbEntity
  8
2
370
    50
100
AcDbEllipse
 10
155.747533
 20
9.454392
 30
0.0
 11
3.878978
 21
0.0
 31
0.0
210
0.0
220
0.0
230
1.0
 40
0.221966
 41
3.1415929999999999
 42
0.0
  0
ELLIPSE
  5
1BB
100
AcDbEntity
  8
2
370
    50
100
AcDbEllipse
 10
155.747533
 20
16.732392
 30
0.0
 11
3.878978
 21
0.0
 31
0.0
210
0.0
220
0.0
230
1.0
 40
0.137407
 41
0.0
 42
3.1415929999999999
  0
LINE
  5
1BC
100
AcDbEntity
  8
2
370
    50
100
AcDbLine
 10
162.247543
 20
9.454392
 30
0.0
 11
159.626511
 21
9.454392
 31
0.0
  0
LINE
  5
1BD
100
AcDbEntity
  8
2
370
    50
100
AcDbLine
 10
159.626511
 20
16.732392
 30
0.0
 11
159.626511
 21
9.454392
 31
0.0
  0
LINE
  5
1BE
100
AcDbEntity
  8
2
370
    50
100
AcDbLine
 10
159.626511
 20
16.732392
 30
0.0
 11
162.247543
 21
16.732392
 31
0.0
  0
LINE
  5
1BF
100
AcDbEntity
  8
2
370
    50
100
AcDbLine
 10
146.62649
 20
16.732392
 30
0.0
 11
151.868555
 21
16.732392
 31
0.0
  0
LINE
  5
1C0
100
AcDbEntity
  8
2
370
    50
100
AcDbLine
 10
151.868555
 20
9.454392
 30
0.0
 11
146.62649
 21
9.454392
 31
0.0
  0
LINE
  5
1C1
100
AcDbEntity
  8
2
370
    50
100
AcDbLine
 10
146.62649
 20
16.732392
 30
0.0
 11
146.62649
 21
9.454392
 31
0.0
  0
LINE
  5
1C2
100
AcDbEntity
  8
2
370
    50
100
AcDbLine
 10
151.868555
 20
16.732392
 30
0.0
 11
151.868555
 21
9.454392
 31
0.0
  0
LINE
  5
1C3
100
AcDbEntity
  8
2
370
    50
100
AcDbLine
 10
143.747522
 20
20.593392
 30
0.0
 11
154.747522
 21
20.593392
 31
0.0
  0
ARC
  5
1C4
100
AcDbEntity
  8
2
370
    50
100
AcDbCircle
 10
133.561522
 20
35.434392
 30
0.0
 40
18.0
100
AcDbArc
 50
282.122
 51
304.465
  0
ARC
  5
1C5
100
AcDbEntity
  8
2
370
    50
100
AcDbCircle
 10
164.933522
 20
35.434392
 30
0.0
 40
18.0
100
AcDbArc
 50
235.535
 51
257.878
  0
LINE
  5
1C6
100
AcDbEntity
  8
2
370
    50
100
AcDbLine
 10
161.747522
 20
8.593392
 30
0.0
 11
149.247522
 21
8.593392
 31
0.0
  0
ARC
  5
1C7
100
AcDbEntity
  8
2
370
    50
100
AcDbCircle
 10
159.568522
 20
13.093392
 30
0.0
 40
5.0
100
AcDbArc
 50
57.601537
 51
71.509
  0
ARC
  5
1C8
100
AcDbEntity
  8
2
370
    50
100
AcDbCircle
 10
159.568522
 20
13.093392
 30
0.0
 40
5.0
100
AcDbArc
 50
295.842
 51
302.398463
  0
LINE
  5
1C9
100
AcDbEntity
  8
2
370
    50
100
AcDbLine
 10
162.247543
 20
8.871681
 30
0.0
 11
162.247134
 21
17.315539
 31
0.0
  0
ARC
  5
1CA
100
AcDbEntity
  8
2
370
    50
100
AcDbCircle
 10
138.926522
 20
13.093392
 30
0.0
 40
5.0
100
AcDbArc
 50
237.601537
 51
244.158
  0
ARC
  5
1CB
100
AcDbEntity
  8
2
370
    50
100
AcDbCircle
 10
138.926522
 20
13.093392
 30
0.0
 40
5.0
100
AcDbArc
 50
108.491
 51
122.392909
  0
LINE
  5
1CC
100
AcDbEntity
  8
2
370
    50
100
AcDbLine
 10
136.747522
 20
8.593392
 30
0.0
 11
149.247522
 21
8.593392
 31
0.0
  0
LINE
  5
1CD
100
AcDbEntity
  8
2
370
    50
100
AcDbLine
 10
-114.278166
 20
20.593392
 30
0.0
 11
-114.278166
 21
26.28039
 31
0.0
  0
LINE
  5
1CE
100
AcDbEntity
  8
2
370
    50
100
AcDbLine
 10
-123.778166
 20
20.593392
 30
0.0
 11
-123.778166
 21
26.28039
 31
0.0
  0
LINE
  5
1CF
100
AcDbEntity
  8
2
370
    50
100
AcDbLine
 10
153.997522
 20
20.593392
 30
0.0
 11
153.997522
 21
26.28039
 31
0.0
  0
LINE
  5
1D0
100
AcDbEntity
  8
2
370
    50
100
AcDbLine
 10
144.497522
 20
20.593392
 30
0.0
 11
144.497522
 21
26.28039
 31
0.0
  0
LINE
  5
1D1
100
AcDbEntity
  8
2
370
    50
100
AcDbLine
 10
-89.028166
 20
-81.363641
 30
0.0
 11
-119.028166
 21
-81.363641
 31
0.0
  0
LINE
  5
1D2
100
AcDbEntity
  8
2
370
    50
100
AcDbLine
 10
-106.823997
 20
-65.363641
 30
0.0
 11
-119.028166
 21
-65.363641
 31
0.0
  0
LINE
  5
1D3
100
AcDbEntity
  8
2
370
    50
100
AcDbLine
 10
-89.028166
 20
-81.363641
 30
0.0
 11
-89.028166
 21
-79.363641
 31
0.0
  0
ARC
  5
1D4
100
AcDbEntity
  8
2
370
    50
100
AcDbCircle
 10
-102.028166
 20
-79.363641
 30
0.0
 40
13.0
100
AcDbArc
 50
0.0
 51
66.443536
  0
ARC
  5
1D5
100
AcDbEntity
  8
2
370
    50
100
AcDbCircle
 10
-106.823997
 20
-90.363641
 30
0.0
 40
25.0
100
AcDbArc
 50
66.443536
 51
90.256579
  0
LINE
  5
1D6
100
AcDbEntity
  8
2
370
    50
100
AcDbLine
 10
-149.028166
 20
-81.363641
 30
0.0
 11
-119.028166
 21
-81.363641
 31
0.0
  0
LINE
  5
1D7
100
AcDbEntity
  8
2
370
    50
100
AcDbLine
 10
-131.232334
 20
-65.363641
 30
0.0
 11
-119.028166
 21
-65.363641
 31
0.0
  0
LINE
  5
1D8
100
AcDbEntity
  8
2
370
    50
100
AcDbLine
 10
-149.028166
 20
-81.363641
 30
0.0
 11
-149.028166
 21
-79.363641
 31
0.0
  0
ARC
  5
1D9
100
AcDbEntity
  8
2
370
    50
100
AcDbCircle
 10
-136.028166
 20
-79.363641
 30
0.0
 40
13.0
100
AcDbArc
 50
113.556464
 51
180.0
  0
ARC
  5
1DA
100
AcDbEntity
  8
2
370
    50
100
AcDbCircle
 10
-131.232334
 20
-90.363641
 30
0.0
 40
25.0
100
AcDbArc
 50
89.743421
 51
113.556464
  0
LINE
  5
1DB
100
AcDbEntity
  8
2
370
    50
100
AcDbLine
 10
179.247522
 20
-81.363641
 30
0.0
 11
149.247522
 21
-81.363641
 31
0.0
  0
LINE
  5
1DC
100
AcDbEntity
  8
2
370
    50
100
AcDbLine
 10
161.451691
 20
-65.363641
 30
0.0
 11
149.247522
 21
-65.363641
 31
0.0
  0
LINE
  5
1DD
100
AcDbEntity
  8
2
370
    50
100
AcDbLine
 10
179.247522
 20
-81.363641
 30
0.0
 11
179.247522
 21
-79.363641
 31
0.0
  0
ARC
  5
1DE
100
AcDbEntity
  8
2
370
    50
100
AcDbCircle
 10
166.247522
 20
-79.363641
 30
0.0
 40
13.0
100
AcDbArc
 50
0.0
 51
66.443536
  0
ARC
  5
1DF
100
AcDbEntity
  8
2
370
    50
100
AcDbCircle
 10
161.451691
 20
-90.363641
 30
0.0
 40
25.0
100
AcDbArc
 50
66.443536
 51
90.256579
  0
LINE
  5
1E0
100
AcDbEntity
  8
2
370
    50
100
AcDbLine
 10
119.247522
 20
-81.363641
 30
0.0
 11
149.247522
 21
-81.363641
 31
0.0
  0
LINE
  5
1E1
100
AcDbEntity
  8
2
370
    50
100
AcDbLine
 10
137.043354
 20
-65.363641
 30
0.0
 11
149.247522
 21
-65.363641
 31
0.0
  0
LINE
  5
1E2
100
AcDbEntity
  8
2
370
    50
100
AcDbLine
 10
119.247522
 20
-81.363641
 30
0.0
 11
119.247522
 21
-79.363641
 31
0.0
  0
ARC
  5
1E3
100
AcDbEntity
  8
2
370
    50
100
AcDbCircle
 10
132.247522
 20
-79.363641
 30
0.0
 40
13.0
100
AcDbArc
 50
113.556464
 51
180.0
  0
ARC
  5
1E4
100
AcDbEntity
  8
2
370
    50
100
AcDbCircle
 10
137.043354
 20
-90.363641
 30
0.0
 40
25.0
100
AcDbArc
 50
89.743421
 51
113.556464
  0
LINE
  5
1E5
100
AcDbEntity
  8
2
370
    50
100
AcDbLine
 10
-93.923816
 20
2.09839
 30
0.0
 11
-90.190166
 21
2.09839
 31
0.0
  0
LINE
  5
1E6
100
AcDbEntity
  8
2
370
    50
100
AcDbLine
 10
-92.028166
 20
-1.87861
 30
0.0
 11
-89.028166
 21
-1.87861
 31
0.0
  0
LINE
  5
1E7
100
AcDbEntity
  8
2
370
    50
100
AcDbLine
 10
-89.028166
 20
0.93639
 30
0.0
 11
-94.464803
 21
0.93639
 31
0.0
  0
LINE
  5
1E8
100
AcDbEntity
  8
2
370
    50
100
AcDbLine
 10
-89.028166
 20
0.93639
 30
0.0
 11
-89.028166
 21
-8.37861
 31
0.0
  0
LINE
  5
1E9
100
AcDbEntity
  8
2
370
    50
100
AcDbLine
 10
-90.190166
 20
2.09839
 30
0.0
 11
-89.028166
 21
0.93639
 31
0.0
  0
ARC
  5
1EA
100
AcDbEntity
  8
2
370
    50
100
AcDbCircle
 10
-93.028166
 20
-2.37861
 30
0.0
 40
1.0
100
AcDbArc
 50
0.0
 51
90.001
  0
LINE
  5
1EB
100
AcDbEntity
  8
2
370
    50
100
AcDbLine
 10
-93.028166
 20
-1.37861
 30
0.0
 11
-94.144988
 21
-1.37861
 31
0.0
  0
LINE
  5
1EC
100
AcDbEntity
  8
2
370
    50
100
AcDbLine
 10
-92.028166
 20
-2.37861
 30
0.0
 11
-92.028166
 21
-8.37861
 31
0.0
  0
LINE
  5
1ED
100
AcDbEntity
  8
2
370
    50
100
AcDbLine
 10
-89.028166
 20
0.82139
 30
0.0
 11
-87.028166
 21
0.82139
 31
0.0
  0
LINE
  5
1EE
100
AcDbEntity
  8
2
370
    50
100
AcDbLine
 10
-89.028166
 20
-2.12861
 30
0.0
 11
-87.028166
 21
-2.12861
 31
0.0
  0
LINE
  5
1EF
100
AcDbEntity
  8
2
370
    50
100
AcDbLine
 10
-87.028166
 20
0.82139
 30
0.0
 11
-87.028166
 21
-8.37861
 31
0.0
  0
LINE
  5
1F0
100
AcDbEntity
  8
2
370
    50
100
AcDbLine
 10
-88.647166
 20
0.82139
 30
0.0
 11
-87.028166
 21
-0.79761
 31
0.0
  0
LINE
  5
1F1
100
AcDbEntity
  8
2
370
    50
100
AcDbLine
 10
-87.697166
 20
-2.12861
 30
0.0
 11
-89.028166
 21
-0.79761
 31
0.0
  0
TEXT
  5
1F2
100
AcDbEntity
  8
3
370
    50
100
AcDbText
 10
32.950211
 20
-117.745651
 30
0.0
 40
3.0
  1
ＣＫ１３－８Ａ
 72
     5
 11
53.350211
 21
-117.745651
 31
0.0
100
AcDbText
  0
TEXT
  5
1F3
100
AcDbEntity
  8
3
370
    50
100
AcDbText
 10
-73.805328
 20
-118.04418
 30
0.0
 40
2.604
  1
　　　　　　　　
 50
270.0
 41
0.83
 72
     5
 11
-73.805328
 21
-117.611916
 31
0.0
100
AcDbText
  0
LINE
  5
1F4
100
AcDbEntity
  8
3
370
    25
  6
CENTER
100
AcDbLine
 10
158.597522
 20
-23.37861
 30
0.0
 11
139.897522
 21
-23.37861
 31
0.0
  0
DIMENSION
  5
1F5
100
AcDbEntity
  8
3
370
    25
100
AcDbDimension
  2
*D0
 10
107.971834
 20
52.032231
 30
0.0
 11
-5.528166
 21
52.532231
 31
0.0
 70
     1
 71
     0
 72
     0
 41
0.0
 42
0.0
  3
Standard
100
AcDbAlignedDimension
 13
-119.028166
 23
44.547379
 33
0.0
 14
107.971834
 24
-17.02861
 34
0.0
  0
DIMENSION
  5
1F6
100
AcDbEntity
  8
3
370
    25
100
AcDbDimension
  2
*D1
 10
120.678177
 20
-23.37861
 30
0.0
 11
124.678177
 21
-15.87861
 31
0.0
 70
     1
 71
     0
 72
     0
 41
0.0
 42
0.0
  3
Standard
100
AcDbAlignedDimension
 13
-31.481697
 23
-8.37861
 33
0.0
 14
115.311281
 24
-23.37861
 34
0.0
 50
270.0
  0
DIMENSION
  5
1F7
100
AcDbEntity
  8
3
370
    25
100
AcDbDimension
  2
*D2
 10
113.643646
 20
-29.72861
 30
0.0
 11
122.893646
 21
-37.22861
 31
0.0
 70
     1
 71
     0
 72
     0
 41
0.0
 42
0.0
  3
Standard
100
AcDbAlignedDimension
 13
107.971834
 23
-17.02861
 33
0.0
 14
107.971834
 24
-29.72861
 34
0.0
 50
270.0
  0
DIMENSION
  5
1F8
100
AcDbEntity
  8
3
370
    25
100
AcDbDimension
  2
*D3
 10
-149.028166
 20
-122.506187
 30
0.0
 11
-118.278166
 21
-122.006187
 31
0.0
 70
     1
 71
     0
 72
     0
 41
0.0
 42
0.0
  3
Standard
100
AcDbAlignedDimension
 13
-89.028166
 23
-81.363641
 33
0.0
 14
-149.028166
 24
-81.363641
 34
0.0
  0
DIMENSION
  5
1F9
100
AcDbEntity
  8
3
370
    25
100
AcDbDimension
  2
*D4
 10
107.971834
 20
21.308952
 30
0.0
 11
10.471834
 21
21.808952
 31
0.0
 70
     1
 71
     0
 72
     0
 41
0.0
 42
0.0
  3
Standard
100
AcDbAlignedDimension
 13
-87.028166
 23
0.82139
 33
0.0
 14
107.971834
 24
-17.02861
 34
0.0
  0
LINE
  5
1FA
100
AcDbEntity
  8
3
370
    25
  6
CENTER
100
AcDbLine
 10
-119.028166
 20
-112.253747
 30
0.0
 11
-119.028166
 21
44.547379
 31
0.0
  0
LINE
  5
1FB
100
AcDbEntity
  8
3
370
    25
  6
CENTER
100
AcDbLine
 10
-31.481697
 20
-8.37861
 30
0.0
 11
-134.343166
 21
-8.37861
 31
0.0
  0
LINE
  5
1FC
100
AcDbEntity
  8
3
370
    25
  6
CENTER
100
AcDbLine
 10
-153.149785
 20
92.892678
 30
0.0
 11
115.311281
 21
92.892678
 31
0.0
  0
LINE
  5
1FD
100
AcDbEntity
  8
3
370
    25
  6
CENTER
100
AcDbLine
 10
-119.028166
 20
64.814706
 30
0.0
 11
-119.028166
 21
125.590801
 31
0.0
  0
LINE
  5
1FE
100
AcDbEntity
  8
3
370
    25
  6
CENTER
100
AcDbLine
 10
149.247522
 20
-105.849197
 30
0.0
 11
149.247522
 21
44.547379
 31
0.0
  0
LINE
  5
1FF
100
AcDbEntity
  8
3
370
    25
  6
CENTER
100
AcDbLine
 10
133.627522
 20
-8.37861
 30
0.0
 11
164.835522
 21
-8.37861
 31
0.0
  0
TEXT
  5
200
100
AcDbEntity
  8
3
370
    50
100
AcDbText
 10
-104.342499
 20
-106.32032
 30
0.0
 40
3.5
  1
Ｒ１／２
 72
     5
 11
-91.042499
 21
-106.32032
 31
0.0
100
AcDbText
  0
DIMENSION
  5
201
100
AcDbEntity
  8
3
370
    25
100
AcDbDimension
  2
*D5
 10
-162.13649
 20
-8.37861
 30
0.0
 11
-166.13649
 21
-55.87861
 31
0.0
 71
     0
 72
     0
 41
0.0
 42
0.0
  3
Standard
100
AcDbAlignedDimension
 13
-128.088166
 23
-103.37861
 33
0.0
 14
-134.343166
 24
-8.37861
 34
0.0
 50
90.0
100
AcDbRotatedDimension
  0
POINT
  5
202
100
AcDbEntity
  8
3
370
    50
100
AcDbPoint
 10
-119.028166
 20
40.73339
 30
0.0
  0
TEXT
  5
203
100
AcDbEntity
  8
3
370
    50
100
AcDbText
 10
-162.63649
 20
-3.07261
 30
0.0
 40
3.5
  1
４９（リフト３ｍｉｎ）
 50
90.0
 72
     5
 11
-162.63649
 21
34.72739
 31
0.0
100
AcDbText
  0
DIMENSION
  5
204
100
AcDbEntity
  8
3
370
    25
100
AcDbDimension
  2
*D6
 10
-162.13649
 20
40.73339
 30
0.0
 11
-164.63649
 21
16.17739
 31
0.0
 71
     0
 72
     0
 41
0.0
 42
0.0
  3
Standard
100
AcDbAlignedDimension
 13
-134.343166
 23
-8.37861
 33
0.0
 14
-119.028166
 24
40.73339
 34
0.0
 50
90.0
100
AcDbRotatedDimension
  0
LWPOLYLINE
  5
205
100
AcDbEntity
  8
3
370
    25
100
AcDbPolyline
 90
        3
 70
     0
 10
-108.538895
 20
-97.34951
 10
-104.513824
 20
-106.59259
 10
-90.262894
 20
-106.59259
  0
LINE
  5
20A
100
AcDbEntity
  8
3
370
    25
100
AcDbLine
 10
-107.767593
 20
-99.120709
 30
0.0
 11
-107.293002
 21
-98.914039
 31
0.0
  0
LINE
  5
20B
100
AcDbEntity
  8
3
370
    25
100
AcDbLine
 10
-107.293002
 20
-98.914039
 30
0.0
 11
-108.538895
 21
-97.34951
 31
0.0
  0
LINE
  5
20C
100
AcDbEntity
  8
3
370
    25
100
AcDbLine
 10
-108.538895
 20
-97.34951
 30
0.0
 11
-108.242185
 21
-99.327379
 31
0.0
  0
LINE
  5
20D
100
AcDbEntity
  8
3
370
    25
100
AcDbLine
 10
-108.242185
 20
-99.327379
 30
0.0
 11
-107.767593
 21
-99.120709
 31
0.0
  0
LINE
  5
20E
100
AcDbEntity
  8
3
370
    25
  6
CENTER
100
AcDbLine
 10
115.311281
 20
-23.37861
 30
0.0
 11
28.572834
 21
-23.37861
 31
0.0
  0
ARC
  5
20F
100
AcDbEntity
  8
3
370
    25
  6
CENTER
100
AcDbCircle
 10
28.572834
 20
36.62139
 30
0.0
 40
60.0
100
AcDbArc
 50
258.084
 51
270.0
  0
LINE
  5
210
100
AcDbEntity
  8
3
370
    25
  6
CENTER
100
AcDbLine
 10
16.183834
 20
-22.08561
 30
0.0
 11
-42.638166
 21
-9.67161
 31
0.0
  0
ARC
  5
211
100
AcDbEntity
  8
3
370
    25
  6
CENTER
100
AcDbCircle
 10
-55.028166
 20
-68.37861
 30
0.0
 40
60.0
100
AcDbArc
 50
78.084
 51
90.001
  0
TEXT
  5
212
100
AcDbEntity
  8
3
370
    50
100
AcDbText
 10
145.488007
 20
-119.720787
 30
0.0
 40
3.0
  1
１　１
 72
     5
 11
153.888007
 21
-119.720787
 31
0.0
100
AcDbText
  0
TEXT
  5
213
100
AcDbEntity
  8
3
370
    50
100
AcDbText
 10
172.549065
 20
-128.050147
 30
0.0
 40
3.0
  1
１０　　５　１０
 72
     5
 11
195.949065
 21
-128.050147
 31
0.0
100
AcDbText
  0
TEXT
  5
214
100
AcDbEntity
  8
3
370
    50
100
AcDbText
 10
168.035138
 20
-135.940469
 30
0.0
 40
3.0
  1
５０３６００
 72
     5
 11
185.435138
 21
-135.940469
 31
0.0
100
AcDbText
  0
TEXT
  5
215
100
AcDbEntity
  8
3
370
    50
100
AcDbText
 10
33.222328
 20
-114.028587
 30
0.0
 40
3.0
  1
アングル止水栓（２００－１－７５－１５）
 72
     5
 11
92.622328
 21
-114.028587
 31
0.0
100
AcDbText
  0
TEXT
  5
216
100
AcDbEntity
  8
3
370
    50
100
AcDbText
 10
116.183731
 20
-136.053726
 30
0.0
 40
3.0
  1
外観寸法図
 72
     5
 11
130.583731
 21
-136.053726
 31
0.0
100
AcDbText
  0
ENDSEC
  0
SECTION
  2
OBJECTS
  0
DICTIONARY
  5
26A
100
AcDbDictionary
280
     0
281
     1
  3
ACAD_GROUP
350
26B
  3
ACAD_MLINESTYLE
350
26C
  0
DICTIONARY
  5
26B
102
{ACAD_REACTORS
330
26A
102
}
100
AcDbDictionary
280
     0
281
     1
  0
DICTIONARY
  5
26C
102
{ACAD_REACTORS
330
26A
102
}
100
AcDbDictionary
280
     0
281
     1
  3
Standard
350
26D
  0
MLINESTYLE
  5
26D
102
{ACAD_REACTORS
330
26C
102
}
100
AcDbMlineStyle
  2
Standard
 70
     0
  3

 62
     0
 51
90.0
 52
90.0
 71
     2
 49
0.5
 62
   256
  6
ByLayer
 49
-0.5
 62
   256
  6
ByLayer
  0
ENDSEC
  0
EOF
