  0
SECTION
  2
HEADER
  9
$ACADVER
  1
AC1015
  9
$ACADMAINTVER
 70
     6
  9
$DWGCODEPAGE
  3
ANSI_932
  9
$INSBASE
 10
0.0
 20
0.0
 30
0.0
  9
$EXTMIN
 10
-420.5
 20
-297.0
 30
1.000000E+20
  9
$EXTMAX
 10
420.5
 20
297.0
 30
-1.000000E+20
  9
$LIMMIN
 10
-420.5
 20
-297.0
  9
$LIMMAX
 10
420.5
 20
297.0
  9
$ORTHOMODE
 70
     0
  9
$REGENMODE
 70
     1
  9
$FILLMODE
 70
     1
  9
$QTEXTMODE
 70
     0
  9
$MIRRTEXT
 70
     1
  9
$LTSCALE
 40
1.0
  9
$ATTMODE
 70
     1
  9
$TEXTSIZE
 40
0.2
  9
$TRACEWID
 40
0.05
  9
$TEXTSTYLE
  7
STANDARD
  9
$CLAYER
  8
0
  9
$CELTYPE
  6
CONTINUOUS
  9
$CECOLOR
 62
   256
  9
$CELTSCALE
 40
1.0
  9
$DISPSILH
 70
     0
  9
$DIMSCALE
 40
1.0
  9
$DIMASZ
 40
2.0
  9
$DIMEXO
 40
1.0
  9
$DIMDLI
 40
0.38
  9
$DIMRND
 40
0.0
  9
$DIMDLE
 40
0.0
  9
$DIMEXE
 40
2.0
  9
$DIMTP
 40
0.0
  9
$DIMTM
 40
0.0
  9
$DIMTXT
 40
3.5
  9
$DIMCEN
 40
0.09
  9
$DIMTSZ
 40
0.0
  9
$DIMTOL
 70
     0
  9
$DIMLIM
 70
     0
  9
$DIMTIH
 70
     0
  9
$DIMTOH
 70
     0
  9
$DIMSE1
 70
     0
  9
$DIMSE2
 70
     0
  9
$DIMTAD
 70
     1
  9
$DIMZIN
 70
     0
  9
$DIMBLK
  1

  9
$DIMASO
 70
     1
  9
$DIMSHO
 70
     1
  9
$DIMPOST
  1

  9
$DIMAPOST
  1

  9
$DIMALT
 70
     0
  9
$DIMALTD
 70
     2
  9
$DIMALTF
 40
25.4
  9
$DIMLFAC
 40
1.0
  9
$DIMTOFL
 70
     0
  9
$DIMTVP
 40
0.0
  9
$DIMTIX
 70
     0
  9
$DIMSOXD
 70
     0
  9
$DIMSAH
 70
     0
  9
$DIMBLK1
  1

  9
$DIMBLK2
  1

  9
$DIMSTYLE
  2
Standard
  9
$DIMCLRD
 70
     0
  9
$DIMCLRE
 70
     0
  9
$DIMCLRT
 70
     0
  9
$DIMTFAC
 40
1.0
  9
$DIMGAP
 40
0.5
  9
$DIMJUST
 70
     0
  9
$DIMSD1
 70
     0
  9
$DIMSD2
 70
     0
  9
$DIMTOLJ
 70
     1
  9
$DIMTZIN
 70
     0
  9
$DIMALTZ
 70
     0
  9
$DIMALTTZ
 70
     0
  9
$DIMUPT
 70
     0
  9
$DIMDEC
 70
     3
  9
$DIMTDEC
 70
     4
  9
$DIMALTU
 70
     2
  9
$DIMALTTD
 70
     2
  9
$DIMTXSTY
  7
STANDARD
  9
$DIMAUNIT
 70
     0
  9
$DIMADEC
 70
     0
  9
$DIMALTRND
 40
0.0
  9
$DIMAZIN
 70
     0
  9
$DIMDSEP
 70
     0
  9
$DIMATFIT
 70
     3
  9
$DIMFRAC
 70
     0
  9
$DIMLDRBLK
  1

  9
$DIMLUNIT
 70
     2
  9
$DIMLWD
 70
     0
  9
$DIMLWE
 70
     0
  9
$DIMTMOVE
 70
     0
  9
$LUNITS
 70
     2
  9
$LUPREC
 70
     4
  9
$SKETCHINC
 40
0.1
  9
$FILLETRAD
 40
0.0
  9
$AUNITS
 70
     0
  9
$AUPREC
 70
     0
  9
$MENU
  1
acad
  9
$ELEVATION
 40
0.0
  9
$PELEVATION
 40
0.0
  9
$THICKNESS
 40
0.0
  9
$LIMCHECK
 70
     0
  9
$CHAMFERA
 40
0.0
  9
$CHAMFERB
 40
0.0
  9
$CHAMFERC
 40
0.0
  9
$CHAMFERD
 40
0.0
  9
$SKPOLY
 70
     0
  9
$TDCREATE
 40
2453580.000000000
  9
$TDUCREATE
 40
0.000000000
  9
$TDUPDATE
 40
0.000000000
  9
$TDUUPDATE
 40
2447892.625000000
  9
$TDINDWG
 40
0.0000000000
  9
$TDUSRTIMER
 40
0.0000000000
  9
$USRTIMER
 70
     1
  9
$ANGBASE
 50
0.0
  9
$ANGDIR
 70
     0
  9
$PDMODE
 70
     0
  9
$PDSIZE
 40
0.0
  9
$PLINEWID
 40
0.0
  9
$SPLFRAME
 70
     0
  9
$SPLINETYPE
 70
     6
  9
$SPLINESEGS
 70
     8
  9
$HANDSEED
  5
193
  9
$SURFTAB1
 70
     6
  9
$SURFTAB2
 70
     6
  9
$SURFTYPE
 70
     6
  9
$SURFU
 70
     6
  9
$SURFV
 70
     6
  9
$UCSBASE
  2

  9
$UCSNAME
  2

  9
$UCSORG
 10
0.0
 20
0.0
 30
0.0
  9
$UCSXDIR
 10
1.0
 20
0.0
 30
0.0
  9
$UCSYDIR
 10
0.0
 20
1.0
 30
0.0
  9
$UCSORTHOREF
  2

  9
$UCSORTHOVIEW
 70
     0
  9
$UCSORGTOP
 10
0.0
 20
0.0
 30
0.0
  9
$UCSORGBOTTOM
 10
0.0
 20
0.0
 30
0.0
  9
$UCSORGLEFT
 10
0.0
 20
0.0
 30
0.0
  9
$UCSORGRIGHT
 10
0.0
 20
0.0
 30
0.0
  9
$UCSORGFRONT
 10
0.0
 20
0.0
 30
0.0
  9
$UCSORGBACK
 10
0.0
 20
0.0
 30
0.0
  9
$PUCSBASE
  2

  9
$PUCSNAME
  2

  9
$PUCSORG
 10
0.0
 20
0.0
 30
0.0
  9
$PUCSXDIR
 10
1.0
 20
0.0
 30
0.0
  9
$PUCSYDIR
 10
0.0
 20
1.0
 30
0.0
  9
$PUCSORTHOREF
  2

  9
$PUCSORTHOVIEW
 70
     0
  9
$PUCSORGTOP
 10
0.0
 20
0.0
 30
0.0
  9
$PUCSORGBOTTOM
 10
0.0
 20
0.0
 30
0.0
  9
$PUCSORGLEFT
 10
0.0
 20
0.0
 30
0.0
  9
$PUCSORGRIGHT
 10
0.0
 20
0.0
 30
0.0
  9
$PUCSORGFRONT
 10
0.0
 20
0.0
 30
0.0
  9
$PUCSORGBACK
 10
0.0
 20
0.0
 30
0.0
  9
$USERI1
 70
     0
  9
$USERI2
 70
     0
  9
$USERI3
 70
     0
  9
$USERI4
 70
     0
  9
$USERI5
 70
     0
  9
$USERR1
 40
0.0
  9
$USERR2
 40
0.0
  9
$USERR3
 40
0.0
  9
$USERR4
 40
0.0
  9
$USERR5
 40
0.0
  9
$WORLDVIEW
 70
     1
  9
$SHADEDGE
 70
     3
  9
$SHADEDIF
 70
    70
  9
$TILEMODE
 70
     1
  9
$MAXACTVP
 70
    16
  9
$PINSBASE
 10
0.0
 20
0.0
 30
0.0
  9
$PLIMCHECK
 70
     0
  9
$PEXTMIN
 10
1.000000E+20
 20
1.000000E+20
 30
1.000000E+20
  9
$PEXTMAX
 10
-1.000000E+20
 20
-1.000000E+20
 30
-1.000000E+20
  9
$PLIMMIN
 10
0.0
 20
0.0
  9
$PLIMMAX
 10
12.0
 20
9.0
  9
$UNITMODE
 70
     0
  9
$VISRETAIN
 70
     0
  9
$PLINEGEN
 70
     1
  9
$PSLTSCALE
 70
     0
  9
$TREEDEPTH
 70
  3020
  9
$CMLSTYLE
  2
Standard
  9
$CMLJUST
 70
     0
  9
$CMLSCALE
 40
1.0
  9
$PROXYGRAPHICS
 70
     0
  9
$MEASUREMENT
 70
     0
  9
$CELWEIGHT
370
     0
  9
$ENDCAPS
280
     0
  9
$JOINSTYLE
280
     0
  9
$LWDISPLAY
290
     0
  9
$INSUNITS
 70
     0
  9
$HYPERLINKBASE
  1

  9
$STYLESHEET
  1

  9
$XEDIT
290
     1
  9
$CEPSNTYPE
380
     0
  9
$PSTYLEMODE
290
     1
  9
$FINGERPRINTGUID
  2

  9
$VERSIONGUID
  2

  9
$EXTNAMES
290
     1
  9
$PSVPSCALE
 40
0.0
  0
ENDSEC
  0
SECTION
  2
CLASSES
  0
CLASS
  1
LWPOLYLINE
  2
AcDbPolyline
  3
AutoCAD 2000
 90
        0
280
     0
281
     1
  0
CLASS
  1
IMAGE
  2
AcDbRasterImage
  3
ISM
 90
      127
280
     0
281
     1
  0
CLASS
  1
OLE2FRAME
  2
AcDbOle2Frame
  3
AutoCAD 2000
 90
        0
280
     0
281
     1
  0
CLASS
  1
HATCH
  2
AcDbHatch
  3
AutoCAD 2000
 90
        0
280
     0
281
     1
  0
CLASS
  1
DICTIONARYVAR
  2
AcDbDictionaryVar
  3
AutoCAD 2000
 90
        0
280
     0
281
     0
  0
CLASS
  1
RASTERVARIABLES
  2
AcDbRasterVariables
  3
ISM
 90
        0
280
     0
281
     0
  0
CLASS
  1
IMAGEDEF
  2
AcDbRasterImageDef
  3
ISM
 90
        0
280
     0
281
     0
  0
CLASS
  1
IMAGEDEF_REACTOR
  2
AcDbRasterImageDefReactor
  3
ISM
 90
        1
280
     0
281
     0
  0
CLASS
  1
IDBUFFER
  2
AcDbIdBuffer
  3
AutoCAD 2000
 90
        0
280
     0
281
     0
  0
CLASS
  1
SPATIAL_FILTER
  2
AcDbSpatialFilter
  3
AutoCAD 2000
 90
        0
280
     0
281
     0
  0
CLASS
  1
XRECORD
  2
AcDbXrecord
  3
AutoCAD 2000
 90
        0
280
     0
281
     0
  0
CLASS
  1
SORTENTSTABLE
  2
AcDbSortentsTable
  3
AutoCAD 2000
 90
        0
280
     0
281
     0
  0
CLASS
  1
LAYER_INDEX
  2
AcDbLayerIndex
  3
AutoCAD 2000
 90
        0
280
     0
281
     0
  0
CLASS
  1
SPATIAL_INDEX
  2
AcDbSpatialIndex
  3
AutoCAD 2000
 90
        0
280
     0
281
     0
  0
CLASS
  1
OBJECT_PTR
  2
CAseDLPNTableRecord
  3
"ASE-LPNTableRecord"
 90
        1
280
     0
281
     0
  0
CLASS
  1
LAYOUT
  2
AcDbLayout
  3
AutoCAD 2000
 90
        0
280
     0
281
     0
  0
CLASS
  1
PLOTSETTINGS
  2
AcDbPlotSettings
  3
AutoCAD 2000
 90
        0
280
     0
281
     0
  0
CLASS
  1
ACDBDICTIONARYWDFLT
  2
AcDbDictionaryWithDefault
  3
AutoCAD 2000
 90
        0
280
     0
281
     0
  0
CLASS
  1
ACDBPLACEHOLDER
  2
AcDbPlaceHolder
  3
AutoCAD 2000
 90
        0
280
     0
281
     0
  0
CLASS
  1
VBA_PROJECT
  2
AcDbVbaProject
  3
acadvba
 90
        0
280
     0
281
     0
  0
CLASS
  1
WIPEOUT
  2
AcDbWipeout
  3
WipeOut|AutoCAD Express Tool|expresstools@autodesk.com
 90
      127
280
     0
281
     1
  0
CLASS
  1
WIPEOUTVARIABLES
  2
AcDbWipeoutVariables
  3
WipeOut|AutoCAD Express Tool|expresstools@autodesk.com
 90
        0
280
     0
281
     0
  0
CLASS
  1
RTEXT
  2
RText
  3
RText|AutoCAD Express Tool|expresstools@autodesk.com
 90
        0
280
     0
281
     1
  0
CLASS
  1
ARCALIGNEDTEXT
  2
AcDbArcAlignedText
  3
ATEXT|AutoCAD Express Tool|expresstools@autodesk.com
 90
        0
280
     0
281
     1
  0
ENDSEC
  0
SECTION
  2
TABLES
  0
TABLE
  2
VPORT
  5
6
100
AcDbSymbolTable
 70
     1
  0
VPORT
  5
19
100
AcDbSymbolTableRecord
100
AcDbViewportTableRecord
  2
*ACTIVE
 70
     0
 10
0.0
 20
0.0
 11
1.0
 21
1.0
 12
0.0
 22
0.0
 13
0.0
 23
0.0
 14
1.0
 24
1.0
 15
0.0
 25
0.0
 16
0.0
 26
0.0
 36
1.0
 17
0.0
 27
0.0
 37
0.0
 40
594.0
 41
1.415825
 42
50.0
 43
0.0
 44
0.0
 50
0.0
 51
0.0
 71
     0
 72
   500
 73
     1
 74
     1
 75
     0
 76
     0
 77
     0
 78
     0
281
     0
 65
     0
110
0.0
120
0.0
130
0.0
111
1.0
121
0.0
131
0.0
112
0.0
122
1.0
132
0.0
345
0
346
0
 79
     0
146
0.0
  0
ENDTAB
  0
TABLE
  2
LTYPE
  5
3
100
AcDbSymbolTable
 70
     9
  0
LTYPE
  5
C
100
AcDbSymbolTableRecord
100
AcDbLinetypeTableRecord
  2
ByBlock
 70
    64
  3

 72
    65
 73
     0
 40
0.0
  0
LTYPE
  5
D
100
AcDbSymbolTableRecord
100
AcDbLinetypeTableRecord
  2
ByLayer
 70
    64
  3

 72
    65
 73
     0
 40
0.0
  0
LTYPE
  5
E
100
AcDbSymbolTableRecord
100
AcDbLinetypeTableRecord
  2
CONTINUOUS
 70
     0
  3
Solid line
 72
    65
 73
     0
 40
0.0
  0
LTYPE
  5
F
100
AcDbSymbolTableRecord
100
AcDbLinetypeTableRecord
  2
DASHED
 70
     0
  3
__ __ __ __ __ __ __ __ __ __ __ __ __ __ __
 72
    65
 73
     2
 40
2.0
 49
1.2
 74
     0
 49
-0.8
 74
     0
  0
LTYPE
  5
10
100
AcDbSymbolTableRecord
100
AcDbLinetypeTableRecord
  2
CENTER
 70
     0
  3
____ _ ____ _ ____ _ ____ _ ____ _ ____ _ ____
 72
    65
 73
     4
 40
12.0
 49
9.0
 74
     0
 49
-1.0
 74
     0
 49
1.0
 74
     0
 49
-1.0
 74
     0
  0
LTYPE
  5
11
100
AcDbSymbolTableRecord
100
AcDbLinetypeTableRecord
  2
HIDDEN
 70
     0
  3
_ _ _ _ _ _ _ _ _ _ _ _ _ _ _ _ _ _ _ _ _ _ _
 72
    65
 73
     2
 40
3.2
 49
2.4
 74
     0
 49
-0.8
 74
     0
  0
LTYPE
  5
12
100
AcDbSymbolTableRecord
100
AcDbLinetypeTableRecord
  2
PHANTOM
 70
     0
  3
_____ _ _ _____ _ _ _____ _ _ _____ _ _ _____
 72
    65
 73
     6
 40
13.5
 49
9.0
 74
     0
 49
-1.0
 74
     0
 49
1.0
 74
     0
 49
-0.5
 74
     0
 49
1.0
 74
     0
 49
-1.0
 74
     0
  0
LTYPE
  5
13
100
AcDbSymbolTableRecord
100
AcDbLinetypeTableRecord
  2
DOT
 70
     0
  3
...............................................
 72
    65
 73
     2
 40
1.0
 49
0.5
 74
     0
 49
-0.5
 74
     0
  0
LTYPE
  5
14
100
AcDbSymbolTableRecord
100
AcDbLinetypeTableRecord
  2
DASHDOT
 70
     0
  3
__ . __ . __ . __ . __ . __ . __ . __ . __ . __
 72
    65
 73
     4
 40
8.0
 49
5.0
 74
     0
 49
-1.0
 74
     0
 49
1.0
 74
     0
 49
-1.0
 74
     0
  0
ENDTAB
  0
TABLE
  2
LAYER
  5
1
100
AcDbSymbolTable
 70
     4
  0
LAYER
  5
15
100
AcDbSymbolTableRecord
100
AcDbLayerTableRecord
  2
0
 70
     0
 62
     7
  6
CONTINUOUS
290
     1
370
    -3
390
0
  0
LAYER
  5
16
100
AcDbSymbolTableRecord
100
AcDbLayerTableRecord
  2
1
 70
     0
 62
     7
  6
CONTINUOUS
290
     1
370
    -3
390
0
  0
LAYER
  5
17
100
AcDbSymbolTableRecord
100
AcDbLayerTableRecord
  2
2
 70
     0
 62
     7
  6
CONTINUOUS
290
     1
370
    -3
390
0
  0
LAYER
  5
18
100
AcDbSymbolTableRecord
100
AcDbLayerTableRecord
  2
3
 70
     0
 62
     7
  6
CONTINUOUS
290
     1
370
    -3
390
0
  0
ENDTAB
  0
TABLE
  2
STYLE
  5
2
100
AcDbSymbolTable
 70
     1
  0
STYLE
  5
1B
100
AcDbSymbolTableRecord
100
AcDbTextStyleTableRecord
  2
STANDARD
 70
    64
 40
0.0
 41
1.0
 50
0.0
 71
     0
 42
1.0
  3
txt
  4
BIGFONT
  0
ENDTAB
  0
TABLE
  2
VIEW
  5
4
100
AcDbSymbolTable
 70
     0
  0
ENDTAB
  0
TABLE
  2
UCS
  5
5
100
AcDbSymbolTable
 70
     0
  0
ENDTAB
  0
TABLE
  2
APPID
  5
7
100
AcDbSymbolTable
 70
     1
  0
APPID
  5
1A
100
AcDbSymbolTableRecord
100
AcDbRegAppTableRecord
  2
ACAD
 70
     0
  0
ENDTAB
  0
TABLE
  2
DIMSTYLE
  5
8
100
AcDbSymbolTable
 70
     1
100
AcDbDimStyleTable
 71
     0
  0
DIMSTYLE
105
27
100
AcDbSymbolTableRecord
100
AcDbDimStyleTableRecord
  2
Standard
 70
     0
  3

  4

 40
1.0
 41
2.0
 42
1.0
 43
0.38
 44
2.0
 45
0.0
 46
0.0
 47
0.0
 48
0.0
 71
     0
 72
     0
 73
     0
 74
     0
 75
     0
 76
     0
 77
     1
 78
     0
 79
     0
140
3.5
141
0.09
142
0.0
143
25.4
144
1.0
145
0.0
146
1.0
147
0.5
148
0.0
170
     0
171
     2
172
     0
173
     0
174
     0
175
     0
176
     0
177
     0
178
     0
179
     0
271
     3
272
     4
273
     2
274
     2
275
     0
276
     0
277
     2
278
    46
279
     0
280
     0
281
     0
282
     0
283
     1
284
     0
285
     0
286
     0
288
     0
289
     3
340
1B
341
0
342
0
343
0
344
0
371
    -2
372
    -2
  0
ENDTAB
  0
TABLE
  2
BLOCK_RECORD
  5
22
100
AcDbSymbolTable
 70
     4
  0
BLOCK_RECORD
  5
20
100
AcDbSymbolTableRecord
100
AcDbBlockTableRecord
  2
*Model_Space
340
0
  0
BLOCK_RECORD
  5
21
100
AcDbSymbolTableRecord
100
AcDbBlockTableRecord
  2
*Paper_Space
340
0
  0
BLOCK_RECORD
  5
1C
100
AcDbSymbolTableRecord
100
AcDbBlockTableRecord
  2
*D0
340
0
  0
BLOCK_RECORD
  5
1D
100
AcDbSymbolTableRecord
100
AcDbBlockTableRecord
  2
*D1
340
0
  0
BLOCK_RECORD
  5
1E
100
AcDbSymbolTableRecord
100
AcDbBlockTableRecord
  2
*D2
340
0
  0
BLOCK_RECORD
  5
1F
100
AcDbSymbolTableRecord
100
AcDbBlockTableRecord
  2
*D3
340
0
  0
ENDTAB
  0
ENDSEC
  0
SECTION
  2
BLOCKS
  0
BLOCK
  5
23
100
AcDbEntity
  8
0
390
0
100
AcDbBlockBegin
  2
*Model_Space
 70
     0
 10
0.0
 20
0.0
 30
0.0
  3
*Model_Space
  1

  0
ENDBLK
  5
24
100
AcDbEntity
  8
0
390
0
100
AcDbBlockEnd
  0
BLOCK
  5
25
100
AcDbEntity
 67
     1
  8
0
390
0
100
AcDbBlockBegin
  2
*Paper_Space
 70
     0
 10
0.0
 20
0.0
 30
0.0
  3
*Paper_Space
  1

  0
ENDBLK
  5
26
100
AcDbEntity
 67
     1
  8
0
390
0
100
AcDbBlockEnd
  0
BLOCK
  5
15E
100
AcDbEntity
  8
3
100
AcDbBlockBegin
  2
*D0
 70
     1
 10
0.0
 20
0.0
 30
0.0
  3
*D0
  1

  0
TEXT
  5
15F
100
AcDbEntity
  8
3
370
    25
100
AcDbText
 10
-132.543884
 20
-78.26314
 30
0.0
 40
3.5
  1
１４
 50
90.0
 72
     5
 11
-132.543884
 21
-71.96314
 31
0.0
100
AcDbText
  0
LINE
  5
160
100
AcDbEntity
  8
3
370
    25
100
AcDbLine
 10
-97.891829
 20
-81.76314
 30
0.0
 11
-133.043884
 21
-81.76314
 31
0.0
  0
LINE
  5
161
100
AcDbEntity
  8
3
370
    25
100
AcDbLine
 10
-132.043884
 20
-81.76314
 30
0.0
 11
-131.526246
 21
-79.831289
 31
0.0
  0
LINE
  5
162
100
AcDbEntity
  8
3
370
    25
100
AcDbLine
 10
-132.043884
 20
-81.76314
 30
0.0
 11
-132.561522
 21
-79.831289
 31
0.0
  0
LINE
  5
163
100
AcDbEntity
  8
3
370
    25
100
AcDbLine
 10
-131.526246
 20
-79.831289
 30
0.0
 11
-132.561522
 21
-79.831289
 31
0.0
  0
LINE
  5
164
100
AcDbEntity
  8
3
370
    25
100
AcDbLine
 10
-132.043884
 20
-81.76314
 30
0.0
 11
-132.043884
 21
-67.76314
 31
0.0
  0
LINE
  5
165
100
AcDbEntity
  8
3
370
    25
100
AcDbLine
 10
-132.043884
 20
-67.76314
 30
0.0
 11
-132.561522
 21
-69.694992
 31
0.0
  0
LINE
  5
166
100
AcDbEntity
  8
3
370
    25
100
AcDbLine
 10
-132.043884
 20
-67.76314
 30
0.0
 11
-131.526246
 21
-69.694992
 31
0.0
  0
LINE
  5
167
100
AcDbEntity
  8
3
370
    25
100
AcDbLine
 10
-132.561522
 20
-69.694992
 30
0.0
 11
-131.526246
 21
-69.694992
 31
0.0
  0
LINE
  5
168
100
AcDbEntity
  8
3
370
    25
100
AcDbLine
 10
-111.291829
 20
-67.76314
 30
0.0
 11
-133.043884
 21
-67.76314
 31
0.0
  0
ENDBLK
  5
169
100
AcDbEntity
  8
3
100
AcDbBlockEnd
  0
BLOCK
  5
16A
100
AcDbEntity
  8
3
100
AcDbBlockBegin
  2
*D1
 70
     1
 10
0.0
 20
0.0
 30
0.0
  3
*D1
  1

  0
TEXT
  5
16B
100
AcDbEntity
  8
3
370
    25
100
AcDbText
 10
-33.296443
 20
-67.104429
 30
0.0
 40
3.5
  1
８５
 50
45.0
 72
     5
 11
-28.841671
 21
-62.649657
 31
0.0
100
AcDbText
  0
LINE
  5
16C
100
AcDbEntity
  8
3
370
    25
100
AcDbLine
 10
-87.084722
 20
-68.470247
 30
0.0
 11
-59.812831
 21
-95.742138
 31
0.0
  0
LINE
  5
16D
100
AcDbEntity
  8
3
370
    25
100
AcDbLine
 10
-60.519938
 20
-95.035031
 30
0.0
 11
-58.787887
 21
-94.035031
 31
0.0
  0
LINE
  5
16E
100
AcDbEntity
  8
3
370
    25
100
AcDbLine
 10
-60.519938
 20
-95.035031
 30
0.0
 11
-59.519938
 21
-93.30298
 31
0.0
  0
LINE
  5
16F
100
AcDbEntity
  8
3
370
    25
100
AcDbLine
 10
-58.787887
 20
-94.035031
 30
0.0
 11
-59.519938
 21
-93.30298
 31
0.0
  0
LINE
  5
170
100
AcDbEntity
  8
3
370
    25
100
AcDbLine
 10
-60.519938
 20
-95.035031
 30
0.0
 11
-0.416094
 21
-34.931187
 31
0.0
  0
LINE
  5
171
100
AcDbEntity
  8
3
370
    25
100
AcDbLine
 10
-0.416094
 20
-34.931187
 30
0.0
 11
-2.148145
 21
-35.931187
 31
0.0
  0
LINE
  5
172
100
AcDbEntity
  8
3
370
    25
100
AcDbLine
 10
-0.416094
 20
-34.931187
 30
0.0
 11
-1.416094
 21
-36.663238
 31
0.0
  0
LINE
  5
173
100
AcDbEntity
  8
3
370
    25
100
AcDbLine
 10
-2.148145
 20
-35.931187
 30
0.0
 11
-1.416094
 21
-36.663238
 31
0.0
  0
LINE
  5
174
100
AcDbEntity
  8
3
370
    25
100
AcDbLine
 10
-18.495597
 20
-16.851684
 30
0.0
 11
0.291013
 21
-35.638294
 31
0.0
  0
ENDBLK
  5
175
100
AcDbEntity
  8
3
100
AcDbBlockEnd
  0
BLOCK
  5
176
100
AcDbEntity
  8
3
100
AcDbBlockBegin
  2
*D2
 70
     1
 10
0.0
 20
0.0
 30
0.0
  3
*D2
  1

  0
TEXT
  5
177
100
AcDbEntity
  8
3
370
    25
100
AcDbText
 10
-14.727276
 20
-70.470801
 30
0.0
 40
3.5
  1
１１０
 50
45.0
 72
     5
 11
-7.79763
 21
-63.541154
 31
0.0
100
AcDbText
  0
LINE
  5
178
100
AcDbEntity
  8
3
370
    25
100
AcDbLine
 10
-87.084722
 20
-68.470247
 30
0.0
 11
-48.845062
 21
-106.709907
 31
0.0
  0
LINE
  5
179
100
AcDbEntity
  8
3
370
    25
100
AcDbLine
 10
-49.552169
 20
-106.0028
 30
0.0
 11
-47.820118
 21
-105.0028
 31
0.0
  0
LINE
  5
17A
100
AcDbEntity
  8
3
370
    25
100
AcDbLine
 10
-49.552169
 20
-106.0028
 30
0.0
 11
-48.552169
 21
-104.270749
 31
0.0
  0
LINE
  5
17B
100
AcDbEntity
  8
3
370
    25
100
AcDbLine
 10
-47.820118
 20
-105.0028
 30
0.0
 11
-48.552169
 21
-104.270749
 31
0.0
  0
LINE
  5
17C
100
AcDbEntity
  8
3
370
    25
100
AcDbLine
 10
-49.552169
 20
-106.0028
 30
0.0
 11
28.229345
 21
-28.221287
 31
0.0
  0
LINE
  5
17D
100
AcDbEntity
  8
3
370
    25
100
AcDbLine
 10
28.229345
 20
-28.221287
 30
0.0
 11
26.497294
 21
-29.221287
 31
0.0
  0
LINE
  5
17E
100
AcDbEntity
  8
3
370
    25
100
AcDbLine
 10
28.229345
 20
-28.221287
 30
0.0
 11
27.229345
 21
-29.953337
 31
0.0
  0
LINE
  5
17F
100
AcDbEntity
  8
3
370
    25
100
AcDbLine
 10
26.497294
 20
-29.221287
 30
0.0
 11
27.229345
 21
-29.953337
 31
0.0
  0
LINE
  5
180
100
AcDbEntity
  8
3
370
    25
100
AcDbLine
 10
-5.060568
 20
5.068626
 30
0.0
 11
28.936451
 21
-28.928393
 31
0.0
  0
ENDBLK
  5
181
100
AcDbEntity
  8
3
100
AcDbBlockEnd
  0
BLOCK
  5
182
100
AcDbEntity
  8
3
100
AcDbBlockBegin
  2
*D3
 70
     1
 10
0.0
 20
0.0
 30
0.0
  3
*D3
  1

  0
TEXT
  5
183
100
AcDbEntity
  8
3
370
    25
100
AcDbText
 10
-93.041829
 20
-102.308777
 30
0.0
 40
3.5
  1
φ４６
 72
     5
 11
-83.241829
 21
-102.308777
 31
0.0
100
AcDbText
  0
LINE
  5
184
100
AcDbEntity
  8
3
370
    25
100
AcDbLine
 10
-110.791829
 20
-68.26314
 30
0.0
 11
-110.791829
 21
-103.808777
 31
0.0
  0
LINE
  5
185
100
AcDbEntity
  8
3
370
    25
100
AcDbLine
 10
-110.791829
 20
-102.808777
 30
0.0
 11
-108.859977
 21
-103.326415
 31
0.0
  0
LINE
  5
186
100
AcDbEntity
  8
3
370
    25
100
AcDbLine
 10
-110.791829
 20
-102.808777
 30
0.0
 11
-108.859977
 21
-102.291139
 31
0.0
  0
LINE
  5
187
100
AcDbEntity
  8
3
370
    25
100
AcDbLine
 10
-108.859977
 20
-103.326415
 30
0.0
 11
-108.859977
 21
-102.291139
 31
0.0
  0
LINE
  5
188
100
AcDbEntity
  8
3
370
    25
100
AcDbLine
 10
-110.791829
 20
-102.808777
 30
0.0
 11
-64.791829
 21
-102.808777
 31
0.0
  0
LINE
  5
189
100
AcDbEntity
  8
3
370
    25
100
AcDbLine
 10
-64.791829
 20
-102.808777
 30
0.0
 11
-66.723681
 21
-102.291139
 31
0.0
  0
LINE
  5
18A
100
AcDbEntity
  8
3
370
    25
100
AcDbLine
 10
-64.791829
 20
-102.808777
 30
0.0
 11
-66.723681
 21
-103.326415
 31
0.0
  0
LINE
  5
18B
100
AcDbEntity
  8
3
370
    25
100
AcDbLine
 10
-66.723681
 20
-102.291139
 30
0.0
 11
-66.723681
 21
-103.326415
 31
0.0
  0
LINE
  5
18C
100
AcDbEntity
  8
3
370
    25
100
AcDbLine
 10
-64.791829
 20
-68.26314
 30
0.0
 11
-64.791829
 21
-103.808777
 31
0.0
  0
ENDBLK
  5
18D
100
AcDbEntity
  8
3
100
AcDbBlockEnd
  0
ENDSEC
  0
SECTION
  2
ENTITIES
  0
LINE
  5
28
100
AcDbEntity
  8
1
370
   100
100
AcDbLine
 10
-186.510785
 20
137.514384
 30
0.0
 11
197.491193
 21
137.514384
 31
0.0
  0
LINE
  5
29
100
AcDbEntity
  8
1
370
   100
100
AcDbLine
 10
-186.510785
 20
137.514384
 30
0.0
 11
-186.510785
 21
-138.985941
 31
0.0
  0
LINE
  5
2A
100
AcDbEntity
  8
1
370
   100
100
AcDbLine
 10
-186.510785
 20
-138.985941
 30
0.0
 11
197.491193
 21
-138.985941
 31
0.0
  0
LINE
  5
2B
100
AcDbEntity
  8
1
370
   100
100
AcDbLine
 10
197.491193
 20
-138.985941
 30
0.0
 11
197.491193
 21
137.514384
 31
0.0
  0
TEXT
  5
2C
100
AcDbEntity
  8
1
370
    50
100
AcDbText
 10
179.814221
 20
-113.126428
 30
0.0
 40
3.0
  1
設計
 72
     5
 11
185.214221
 21
-113.126428
 31
0.0
100
AcDbText
  0
TEXT
  5
2D
100
AcDbEntity
  8
1
370
    50
100
AcDbText
 10
189.563739
 20
-113.049829
 30
0.0
 40
3.0
  1
製図
 72
     5
 11
194.963739
 21
-113.049829
 31
0.0
100
AcDbText
  0
TEXT
  5
2E
100
AcDbEntity
  8
1
370
    50
100
AcDbText
 10
159.502872
 20
-113.126428
 30
0.0
 40
3.0
  1
承認
 72
     5
 11
164.902872
 21
-113.126428
 31
0.0
100
AcDbText
  0
TEXT
  5
2F
100
AcDbEntity
  8
1
370
    50
100
AcDbText
 10
169.494839
 20
-113.09901
 30
0.0
 40
3.0
  1
検図
 72
     5
 11
174.894839
 21
-113.09901
 31
0.0
100
AcDbText
  0
LINE
  5
30
100
AcDbEntity
  8
1
370
    25
100
AcDbLine
 10
142.491193
 20
-113.985941
 30
0.0
 11
197.491193
 21
-113.985941
 31
0.0
  0
LINE
  5
31
100
AcDbEntity
  8
1
370
    25
100
AcDbLine
 10
171.241193
 20
-122.985941
 30
0.0
 11
171.241193
 21
-129.985941
 31
0.0
  0
TEXT
  5
32
100
AcDbEntity
  8
1
370
    50
100
AcDbText
 10
159.775795
 20
-128.006264
 30
0.0
 40
3.0
  1
日　付
 72
     5
 11
168.175795
 21
-128.006264
 31
0.0
100
AcDbText
  0
LINE
  5
33
100
AcDbEntity
  8
1
370
    50
100
AcDbLine
 10
20.491193
 20
-129.985941
 30
0.0
 11
197.491193
 21
-129.985941
 31
0.0
  0
TEXT
  5
34
100
AcDbEntity
  8
1
370
    50
100
AcDbText
 10
143.887505
 20
-128.161203
 30
0.0
 40
3.0
  1
第三角法
 72
     5
 11
155.287505
 21
-128.161203
 31
0.0
100
AcDbText
  0
TEXT
  5
35
100
AcDbEntity
  8
1
370
    50
100
AcDbText
 10
145.54371
 20
-112.99901
 30
0.0
 40
3.0
  1
尺　度
 72
     5
 11
153.94371
 21
-112.99901
 31
0.0
100
AcDbText
  0
LINE
  5
36
100
AcDbEntity
  8
1
370
   100
100
AcDbLine
 10
20.491193
 20
-108.985941
 30
0.0
 11
197.491193
 21
-108.985941
 31
0.0
  0
LINE
  5
37
100
AcDbEntity
  8
1
370
    50
100
AcDbLine
 10
105.991193
 20
-108.985941
 30
0.0
 11
105.991193
 21
-138.985941
 31
0.0
  0
LINE
  5
38
100
AcDbEntity
  8
1
370
    25
100
AcDbLine
 10
187.491193
 20
-122.985941
 30
0.0
 11
187.491193
 21
-108.985941
 31
0.0
  0
LINE
  5
39
100
AcDbEntity
  8
1
370
    25
100
AcDbLine
 10
177.491193
 20
-122.985941
 30
0.0
 11
177.491193
 21
-108.985941
 31
0.0
  0
LINE
  5
3A
100
AcDbEntity
  8
1
370
    25
100
AcDbLine
 10
167.491193
 20
-122.985941
 30
0.0
 11
167.491193
 21
-108.985941
 31
0.0
  0
LINE
  5
3B
100
AcDbEntity
  8
1
370
    50
100
AcDbLine
 10
142.491193
 20
-138.985941
 30
0.0
 11
142.491193
 21
-108.985941
 31
0.0
  0
LINE
  5
3C
100
AcDbEntity
  8
1
370
    50
100
AcDbLine
 10
94.991193
 20
-108.985941
 30
0.0
 11
94.991193
 21
-138.985941
 31
0.0
  0
LINE
  5
3D
100
AcDbEntity
  8
1
370
    50
100
AcDbLine
 10
31.491193
 20
-108.985941
 30
0.0
 11
31.491193
 21
-129.985941
 31
0.0
  0
LINE
  5
3E
100
AcDbEntity
  8
1
370
    50
100
AcDbLine
 10
142.491193
 20
-122.985941
 30
0.0
 11
197.491193
 21
-122.985941
 31
0.0
  0
TEXT
  5
3F
100
AcDbEntity
  8
1
370
    50
100
AcDbText
 10
143.550565
 20
-135.940469
 30
0.0
 40
3.0
  1
コードＮｏ
 41
0.9
 72
     5
 11
156.510565
 21
-135.940469
 31
0.0
100
AcDbText
  0
TEXT
  5
40
100
AcDbEntity
  8
1
370
   100
100
AcDbText
 10
26.443387
 20
-136.43783
 30
0.0
 40
4.0
  1
ミズタニバルブ工業株式会社
 41
1.2
 72
     5
 11
87.883387
 21
-136.43783
 31
0.0
100
AcDbText
  0
LINE
  5
41
100
AcDbEntity
  8
1
370
    50
100
AcDbLine
 10
20.491193
 20
-119.485941
 30
0.0
 11
142.491193
 21
-119.485941
 31
0.0
  0
LINE
  5
42
100
AcDbEntity
  8
1
370
    50
100
AcDbLine
 10
57.741193
 20
-119.485941
 30
0.0
 11
57.741193
 21
-129.985941
 31
0.0
  0
LINE
  5
43
100
AcDbEntity
  8
1
370
    50
100
AcDbLine
 10
68.741193
 20
-119.485941
 30
0.0
 11
68.741193
 21
-129.985941
 31
0.0
  0
LINE
  5
44
100
AcDbEntity
  8
1
370
    50
100
AcDbLine
 10
157.491193
 20
-138.985941
 30
0.0
 11
157.491193
 21
-108.985941
 31
0.0
  0
TEXT
  5
45
100
AcDbEntity
  8
1
370
    50
100
AcDbText
 10
172.549065
 20
-128.050147
 30
0.0
 40
3.0
  1
　　・　　・
 72
     5
 11
189.949065
 21
-128.050147
 31
0.0
100
AcDbText
  0
LINE
  5
46
100
AcDbEntity
  8
1
370
   100
100
AcDbLine
 10
20.491193
 20
-108.985941
 30
0.0
 11
20.491193
 21
-138.985941
 31
0.0
  0
TEXT
  5
47
100
AcDbEntity
  8
1
370
    50
100
AcDbText
 10
145.416291
 20
-120.006746
 30
0.0
 40
3.0
  1
　／ 
 72
     5
 11
150.816291
 21
-120.006746
 31
0.0
100
AcDbText
  0
TEXT
  5
48
100
AcDbEntity
  8
1
370
    50
100
AcDbText
 10
96.952061
 20
-136.012454
 30
0.0
 40
3.0
  1
備 考 
 72
     5
 11
103.852061
 21
-136.012454
 31
0.0
100
AcDbText
  0
TEXT
  5
49
100
AcDbEntity
  8
1
370
    50
100
AcDbText
 10
96.756267
 20
-115.44592
 30
0.0
 40
3.0
  1
仕 上
 72
     5
 11
103.656267
 21
-115.44592
 31
0.0
100
AcDbText
  0
TEXT
  5
4A
100
AcDbEntity
  8
1
370
    50
100
AcDbText
 10
96.723588
 20
-124.445833
 30
0.0
 40
3.0
  1
表 面
 72
     5
 11
103.623588
 21
-124.445833
 31
0.0
100
AcDbText
  0
TEXT
  5
4B
100
AcDbEntity
  8
1
370
    50
100
AcDbText
 10
96.723588
 20
-127.945833
 30
0.0
 40
3.0
  1
処 理
 72
     5
 11
103.623588
 21
-127.945833
 31
0.0
100
AcDbText
  0
TEXT
  5
4C
100
AcDbEntity
  8
1
370
    50
100
AcDbText
 10
22.396675
 20
-115.8467
 30
0.0
 40
3.0
  1
品 名
 72
     5
 11
29.296675
 21
-115.8467
 31
0.0
100
AcDbText
  0
TEXT
  5
4D
100
AcDbEntity
  8
1
370
    50
100
AcDbText
 10
22.198883
 20
-126.231267
 30
0.0
 40
3.0
  1
材 質
 72
     5
 11
29.098883
 21
-126.231267
 31
0.0
100
AcDbText
  0
TEXT
  5
4E
100
AcDbEntity
  8
1
370
    50
100
AcDbText
 10
59.448883
 20
-126.231267
 30
0.0
 40
3.0
  1
規 格
 72
     5
 11
66.348883
 21
-126.231267
 31
0.0
100
AcDbText
  0
TEXT
  5
4F
100
AcDbEntity
  8
2
370
    50
100
AcDbText
 10
145.32756
 20
-119.249886
 30
0.0
 40
3.0
  1
１　１
 72
     5
 11
153.72756
 21
-119.249886
 31
0.0
100
AcDbText
  0
TEXT
  5
50
100
AcDbEntity
  8
2
370
    50
100
AcDbText
 10
114.487244
 20
-136.272888
 30
0.0
 40
3.5
  1
外観寸法図
 72
     5
 11
131.287244
 21
-136.272888
 31
0.0
100
AcDbText
  0
TEXT
  5
51
100
AcDbEntity
  8
2
370
    50
100
AcDbText
 10
169.279343
 20
-136.092743
 30
0.0
 40
3.0
  1
５００７００
 72
     5
 11
186.679343
 21
-136.092743
 31
0.0
100
AcDbText
  0
TEXT
  5
52
100
AcDbEntity
  8
2
370
    50
100
AcDbText
 10
172.579391
 20
-127.937538
 30
0.0
 40
3.0
  1
１７　１１　１７
 72
     5
 11
195.979391
 21
-127.937538
 31
0.0
100
AcDbText
  0
TEXT
  5
53
100
AcDbEntity
  8
2
370
    50
100
AcDbText
 10
34.474487
 20
-114.493759
 30
0.0
 40
3.0
  1
立水栓　（ホース接続形）
 72
     5
 11
69.874487
 21
-114.493759
 31
0.0
100
AcDbText
  0
LINE
  5
54
100
AcDbEntity
  8
2
370
    50
100
AcDbLine
 10
-99.791583
 20
-28.362894
 30
0.0
 11
-99.791583
 21
-27.26314
 31
0.0
  0
LINE
  5
55
100
AcDbEntity
  8
2
370
    50
100
AcDbLine
 10
-75.791583
 20
-28.363387
 30
0.0
 11
-75.791583
 21
-27.26314
 31
0.0
  0
LINE
  5
56
100
AcDbEntity
  8
2
370
    25
100
AcDbLine
 10
-76.391583
 20
-27.762762
 30
0.0
 11
-76.391583
 21
-27.26314
 31
0.0
  0
LINE
  5
57
100
AcDbEntity
  8
2
370
    50
100
AcDbLine
 10
-87.791829
 20
-27.26314
 30
0.0
 11
-75.791636
 21
-27.26314
 31
0.0
  0
LINE
  5
58
100
AcDbEntity
  8
2
370
    25
100
AcDbLine
 10
-99.191675
 20
-27.76314
 30
0.0
 11
-99.191675
 21
-27.26314
 31
0.0
  0
POINT
  5
59
100
AcDbEntity
  8
2
370
    50
100
AcDbPoint
 10
-87.791583
 20
-14.762762
 30
0.0
  0
LINE
  5
5A
100
AcDbEntity
  8
2
370
    25
  6
CENTER
100
AcDbLine
 10
-87.791829
 20
-83.153761
 30
0.0
 11
-87.791829
 21
8.169157
 31
0.0
  0
LINE
  5
5B
100
AcDbEntity
  8
2
370
    50
100
AcDbLine
 10
-96.891829
 20
-81.76314
 30
0.0
 11
-78.691829
 21
-81.76314
 31
0.0
  0
LINE
  5
5C
100
AcDbEntity
  8
2
370
    50
100
AcDbLine
 10
-98.091829
 20
-67.76314
 30
0.0
 11
-98.091829
 21
-80.56314
 31
0.0
  0
LINE
  5
5D
100
AcDbEntity
  8
2
370
    50
100
AcDbLine
 10
-77.491829
 20
-67.76314
 30
0.0
 11
-77.491829
 21
-80.56314
 31
0.0
  0
LINE
  5
5E
100
AcDbEntity
  8
2
370
    50
100
AcDbLine
 10
-110.791829
 20
-66.26314
 30
0.0
 11
-110.791829
 21
-67.26314
 31
0.0
  0
LINE
  5
5F
100
AcDbEntity
  8
2
370
    50
100
AcDbLine
 10
-64.791829
 20
-66.26314
 30
0.0
 11
-64.791829
 21
-67.26314
 31
0.0
  0
LINE
  5
60
100
AcDbEntity
  8
2
370
    50
100
AcDbLine
 10
-74.791829
 20
-29.36314
 30
0.0
 11
-74.791829
 21
-29.464151
 31
0.0
  0
LINE
  5
61
100
AcDbEntity
  8
2
370
    50
100
AcDbLine
 10
-76.391829
 20
-27.76314
 30
0.0
 11
-74.791829
 21
-29.36314
 31
0.0
  0
LINE
  5
62
100
AcDbEntity
  8
2
370
    50
100
AcDbLine
 10
-99.191829
 20
-27.76314
 30
0.0
 11
-100.791829
 21
-29.36314
 31
0.0
  0
LINE
  5
63
100
AcDbEntity
  8
2
370
    50
100
AcDbLine
 10
-99.791829
 20
-59.912405
 30
0.0
 11
-99.791829
 21
-61.26314
 31
0.0
  0
ARC
  5
64
100
AcDbEntity
  8
2
370
    50
100
AcDbCircle
 10
-85.791829
 20
-42.591897
 30
0.0
 40
20.0
100
AcDbArc
 50
138.590378
 51
218.213211
  0
LINE
  5
65
100
AcDbEntity
  8
2
370
    50
100
AcDbLine
 10
-110.291829
 20
-67.76314
 30
0.0
 11
-87.791829
 21
-67.76314
 31
0.0
  0
LINE
  5
66
100
AcDbEntity
  8
2
370
    50
100
AcDbLine
 10
-87.791829
 20
-67.76314
 30
0.0
 11
-65.291829
 21
-67.76314
 31
0.0
  0
LINE
  5
67
100
AcDbEntity
  8
2
370
    50
100
AcDbLine
 10
-109.791829
 20
-65.26314
 30
0.0
 11
-87.791829
 21
-65.26314
 31
0.0
  0
LINE
  5
68
100
AcDbEntity
  8
2
370
    50
100
AcDbLine
 10
-87.791829
 20
-65.26314
 30
0.0
 11
-65.791829
 21
-65.26314
 31
0.0
  0
LINE
  5
69
100
AcDbEntity
  8
2
370
    25
  6
CENTER
100
AcDbLine
 10
-8.142895
 20
11.885794
 30
0.0
 11
-87.791829
 21
-67.76314
 31
0.0
  0
LINE
  5
6A
100
AcDbEntity
  8
2
370
    50
100
AcDbLine
 10
-60.427029
 20
-25.831941
 30
0.0
 11
-63.820782
 21
-29.225694
 31
0.0
  0
LINE
  5
6B
100
AcDbEntity
  8
2
370
    50
100
AcDbLine
 10
-45.860629
 20
-40.39834
 30
0.0
 11
-49.254382
 21
-43.792093
 31
0.0
  0
LINE
  5
6C
100
AcDbEntity
  8
2
370
    50
100
AcDbLine
 10
-64.406468
 20
-32.356965
 30
0.0
 11
-65.402742
 21
-33.353238
 31
0.0
  0
ARC
  5
6D
100
AcDbEntity
  8
2
370
    50
100
AcDbCircle
 10
-71.791829
 20
-61.26314
 30
0.0
 40
4.0
100
AcDbArc
 50
180.0
 51
270.0
  0
ARC
  5
6E
100
AcDbEntity
  8
2
370
    50
100
AcDbCircle
 10
-103.791829
 20
-61.26314
 30
0.0
 40
4.0
100
AcDbArc
 50
270.0
 51
360.0
  0
ARC
  5
6F
100
AcDbEntity
  8
2
370
    50
100
AcDbCircle
 10
-107.791829
 20
-59.912405
 30
0.0
 40
8.0
100
AcDbArc
 50
0.0
 51
38.213211
  0
ARC
  5
70
100
AcDbEntity
  8
2
370
    50
100
AcDbCircle
 10
-109.791829
 20
-66.26314
 30
0.0
 40
1.0
100
AcDbArc
 50
90.0
 51
180.0
  0
ARC
  5
71
100
AcDbEntity
  8
2
370
    50
100
AcDbCircle
 10
-65.791829
 20
-66.26314
 30
0.0
 40
1.0
100
AcDbArc
 50
0.0
 51
90.0
  0
LINE
  5
72
100
AcDbEntity
  8
2
370
    50
100
AcDbLine
 10
-65.291829
 20
-67.76314
 30
0.0
 11
-64.791829
 21
-67.26314
 31
0.0
  0
LINE
  5
73
100
AcDbEntity
  8
2
370
    25
100
AcDbLine
 10
-96.891829
 20
-70.76314
 30
0.0
 11
-96.891829
 21
-81.76314
 31
0.0
  0
LINE
  5
74
100
AcDbEntity
  8
2
370
    25
100
AcDbLine
 10
-78.691829
 20
-70.76314
 30
0.0
 11
-78.691829
 21
-81.76314
 31
0.0
  0
LINE
  5
75
100
AcDbEntity
  8
2
370
    25
100
AcDbLine
 10
-59.578501
 20
-26.680469
 30
0.0
 11
-63.820782
 21
-30.92275
 31
0.0
  0
LINE
  5
76
100
AcDbEntity
  8
2
370
    25
100
AcDbLine
 10
-46.709157
 20
-39.549812
 30
0.0
 11
-50.951439
 21
-43.792093
 31
0.0
  0
LINE
  5
77
100
AcDbEntity
  8
2
370
    50
100
AcDbLine
 10
-50.951439
 20
-43.792093
 30
0.0
 11
-49.254382
 21
-43.792093
 31
0.0
  0
LINE
  5
78
100
AcDbEntity
  8
2
370
    50
100
AcDbLine
 10
-63.820782
 20
-30.92275
 30
0.0
 11
-63.820782
 21
-29.225694
 31
0.0
  0
ARC
  5
79
100
AcDbEntity
  8
2
370
    50
100
AcDbCircle
 10
-65.820682
 20
-30.942751
 30
0.0
 40
2.0
100
AcDbArc
 50
315.0
 51
0.572996
  0
ARC
  5
7A
100
AcDbEntity
  8
2
370
    50
100
AcDbCircle
 10
-51.005081
 20
-45.791374
 30
0.0
 40
2.0
100
AcDbArc
 50
88.463089
 51
128.122092
  0
LINE
  5
7B
100
AcDbEntity
  8
2
370
    50
100
AcDbLine
 10
-96.891829
 20
-81.76314
 30
0.0
 11
-98.091829
 21
-80.56314
 31
0.0
  0
LINE
  5
7C
100
AcDbEntity
  8
2
370
    50
100
AcDbLine
 10
-78.691829
 20
-81.76314
 30
0.0
 11
-77.491829
 21
-80.56314
 31
0.0
  0
LINE
  5
7D
100
AcDbEntity
  8
2
370
    50
100
AcDbLine
 10
-78.691829
 20
-70.76314
 30
0.0
 11
-77.491829
 21
-69.56314
 31
0.0
  0
LINE
  5
7E
100
AcDbEntity
  8
2
370
    50
100
AcDbLine
 10
-96.891829
 20
-70.76314
 30
0.0
 11
-98.091829
 21
-69.56314
 31
0.0
  0
ARC
  5
7F
100
AcDbEntity
  8
2
370
    50
100
AcDbCircle
 10
-69.291829
 20
-29.464151
 30
0.0
 40
5.5
100
AcDbArc
 50
180.0
 51
315.0
  0
ARC
  5
80
100
AcDbEntity
  8
2
370
    50
100
AcDbCircle
 10
-79.714094
 20
-17.966106
 30
0.0
 40
38.0
100
AcDbArc
 50
283.032636
 51
316.389992
  0
ARC
  5
81
100
AcDbEntity
  8
2
370
    50
100
AcDbCircle
 10
-69.791829
 20
-60.832744
 30
0.0
 40
6.0
100
AcDbArc
 50
103.032636
 51
180.0
  0
LINE
  5
82
100
AcDbEntity
  8
2
370
    50
100
AcDbLine
 10
-110.791829
 20
-67.26314
 30
0.0
 11
-110.291829
 21
-67.76314
 31
0.0
  0
POINT
  5
83
100
AcDbEntity
  8
2
370
    50
100
AcDbPoint
 10
-87.791829
 20
-67.76314
 30
0.0
  0
ARC
  5
84
100
AcDbEntity
  8
2
370
    50
100
AcDbCircle
 10
-70.946592
 20
56.776789
 30
0.0
 40
6.0
100
AcDbArc
 50
229.129151
 51
10.870849
  0
ARC
  5
85
100
AcDbEntity
  8
2
370
    50
100
AcDbCircle
 10
-108.446592
 20
78.427425
 30
0.0
 40
6.0
100
AcDbArc
 50
109.129151
 51
250.870849
  0
ARC
  5
86
100
AcDbEntity
  8
2
370
    50
100
AcDbCircle
 10
-70.946592
 20
100.07806
 30
0.0
 40
6.0
100
AcDbArc
 50
349.129151
 51
130.870849
  0
LINE
  5
87
100
AcDbEntity
  8
2
370
    50
100
AcDbLine
 10
-65.054264
 20
98.946485
 30
0.0
 11
-67.908236
 21
84.085299
 31
0.0
  0
ARC
  5
88
100
AcDbEntity
  8
2
370
    50
100
AcDbCircle
 10
-38.446592
 20
78.427425
 30
0.0
 40
30.0
100
AcDbArc
 50
169.129151
 51
190.870849
  0
LINE
  5
89
100
AcDbEntity
  8
2
370
    50
100
AcDbLine
 10
-65.054264
 20
57.908364
 30
0.0
 11
-67.908236
 21
72.76955
 31
0.0
  0
LINE
  5
8A
100
AcDbEntity
  8
2
370
    50
100
AcDbLine
 10
-74.872729
 20
104.615179
 30
0.0
 11
-86.315907
 21
94.712973
 31
0.0
  0
LINE
  5
8B
100
AcDbEntity
  8
2
370
    50
100
AcDbLine
 10
-110.412784
 20
84.096118
 30
0.0
 11
-96.115634
 21
89.055098
 31
0.0
  0
ARC
  5
8C
100
AcDbEntity
  8
2
370
    50
100
AcDbCircle
 10
-105.946592
 20
117.398568
 30
0.0
 40
30.0
100
AcDbArc
 50
289.129151
 51
310.870849
  0
LINE
  5
8D
100
AcDbEntity
  8
2
370
    50
100
AcDbLine
 10
-74.872729
 20
52.23967
 30
0.0
 11
-86.315907
 21
62.141876
 31
0.0
  0
LINE
  5
8E
100
AcDbEntity
  8
2
370
    50
100
AcDbLine
 10
-110.412784
 20
72.758731
 30
0.0
 11
-96.115634
 21
67.799751
 31
0.0
  0
ARC
  5
8F
100
AcDbEntity
  8
2
370
    50
100
AcDbCircle
 10
-105.946592
 20
39.456281
 30
0.0
 40
30.0
100
AcDbArc
 50
49.129151
 51
70.870849
  0
CIRCLE
  5
90
100
AcDbEntity
  8
2
370
    50
100
AcDbCircle
 10
-83.446592
 20
78.427425
 30
0.0
 40
7.0
  0
CIRCLE
  5
91
100
AcDbEntity
  8
2
370
    50
100
AcDbCircle
 10
-83.446592
 20
78.427425
 30
0.0
 40
5.5
  0
LINE
  5
92
100
AcDbEntity
  8
2
370
    25
  6
CENTER
100
AcDbLine
 10
-119.916192
 20
78.427425
 30
0.0
 11
-4.328291
 21
78.427425
 31
0.0
  0
CIRCLE
  5
93
100
AcDbEntity
  8
2
370
    25
100
AcDbCircle
 10
-83.446592
 20
78.427425
 30
0.0
 40
5.5
  0
ARC
  5
94
100
AcDbEntity
  8
2
370
    50
100
AcDbCircle
 10
-59.472648
 20
52.927425
 30
0.0
 40
17.0
100
AcDbArc
 50
94.354654
 51
116.367405
  0
ARC
  5
95
100
AcDbEntity
  8
2
370
    50
100
AcDbCircle
 10
-59.472648
 20
103.927425
 30
0.0
 40
17.0
100
AcDbArc
 50
243.632595
 51
265.828677
  0
LINE
  5
96
100
AcDbEntity
  8
2
370
    25
  6
CENTER
100
AcDbLine
 10
-83.446592
 20
42.293365
 30
0.0
 11
-83.446592
 21
111.553841
 31
0.0
  0
ARC
  5
97
100
AcDbEntity
  8
2
370
    50
100
AcDbCircle
 10
-83.446592
 20
78.427425
 30
0.0
 40
18.0
100
AcDbArc
 50
92.913638
 51
147.086362
  0
ARC
  5
98
100
AcDbEntity
  8
2
370
    50
100
AcDbCircle
 10
-83.446592
 20
78.427425
 30
0.0
 40
18.0
100
AcDbArc
 50
212.913638
 51
267.086362
  0
ARC
  5
99
100
AcDbEntity
  8
2
370
    50
100
AcDbCircle
 10
-83.446592
 20
78.427425
 30
0.0
 40
23.0
100
AcDbArc
 50
22.263535
 51
41.027123
  0
ARC
  5
9A
100
AcDbEntity
  8
2
370
    50
100
AcDbCircle
 10
-83.446592
 20
78.427425
 30
0.0
 40
23.0
100
AcDbArc
 50
78.972877
 51
161.027123
  0
ARC
  5
9B
100
AcDbEntity
  8
2
370
    50
100
AcDbCircle
 10
-83.446592
 20
78.427425
 30
0.0
 40
23.0
100
AcDbArc
 50
198.972877
 51
281.027123
  0
ARC
  5
9C
100
AcDbEntity
  8
2
370
    50
100
AcDbCircle
 10
-83.446592
 20
78.427425
 30
0.0
 40
23.0
100
AcDbArc
 50
318.972877
 51
337.736465
  0
LINE
  5
9D
100
AcDbEntity
  8
2
370
    50
100
AcDbLine
 10
-30.870188
 20
70.577425
 30
0.0
 11
-21.6778
 21
70.577425
 31
0.0
  0
ELLIPSE
  5
9E
100
AcDbEntity
  8
2
370
    50
100
AcDbEllipse
 10
-10.364092
 20
78.427425
 30
0.0
 11
0.0
 21
5.0
 31
0.0
210
0.0
220
0.0
230
1.0
 40
0.707107
 41
0.0
 42
6.2831849999999996
  0
ELLIPSE
  5
9F
100
AcDbEntity
  8
2
370
    50
100
AcDbEllipse
 10
-10.364092
 20
78.427425
 30
0.0
 11
0.0
 21
7.0
 31
0.0
210
0.0
220
0.0
230
1.0
 40
0.656599
 41
0.0
 42
6.2831849999999996
  0
LINE
  5
A0
100
AcDbEntity
  8
2
370
    50
100
AcDbLine
 10
-30.870188
 20
86.277425
 30
0.0
 11
-21.6778
 21
86.277425
 31
0.0
  0
ELLIPSE
  5
A1
100
AcDbEntity
  8
2
370
    50
100
AcDbEllipse
 10
-15.954205
 20
78.427425
 30
0.0
 11
0.0
 21
7.8499999999999996
 31
0.0
210
0.0
220
0.0
230
1.0
 40
0.708635
 41
5.9986069999999998
 42
3.3746779999999998
  0
ELLIPSE
  5
A2
100
AcDbEntity
  8
2
370
    50
100
AcDbEllipse
 10
-18.782632
 20
78.427425
 30
0.0
 11
0.0
 21
7.8499999999999996
 31
0.0
210
0.0
220
0.0
230
1.0
 40
0.708635
 41
6.0276230000000002
 42
3.4200599999999999
  0
ELLIPSE
  5
A3
100
AcDbEntity
  8
2
370
    50
100
AcDbEllipse
 10
-13.125778
 20
78.427425
 30
0.0
 11
0.0
 21
7.8499999999999996
 31
0.0
210
0.0
220
0.0
230
1.0
 40
0.708635
 41
0.0
 42
3.1415929999999999
  0
ELLIPSE
  5
A4
100
AcDbEntity
  8
2
370
    50
100
AcDbEllipse
 10
-21.6778
 20
78.427425
 30
0.0
 11
0.0
 21
7.8499999999999996
 31
0.0
210
0.0
220
0.0
230
1.0
 40
0.711611
 41
5.9890569999999999
 42
3.3979349999999999
  0
ELLIPSE
  5
A5
100
AcDbEntity
  8
2
370
    50
100
AcDbEllipse
 10
-30.870188
 20
78.427425
 30
0.0
 11
0.0
 21
12.0
 31
0.0
210
0.0
220
0.0
230
1.0
 40
0.707107
 41
5.4254689999999997
 42
3.9993089999999998
  0
ELLIPSE
  5
A6
100
AcDbEntity
  8
2
370
    50
100
AcDbEllipse
 10
-30.870188
 20
78.427425
 30
0.0
 11
0.0
 21
7.8499999999999996
 31
0.0
210
0.0
220
0.0
230
1.0
 40
0.711611
 41
0.0
 42
3.1415929999999999
  0
LINE
  5
A7
100
AcDbEntity
  8
2
370
    50
100
AcDbLine
 10
-13.125778
 20
70.577425
 30
0.0
 11
-10.291655
 21
71.341227
 31
0.0
  0
LINE
  5
A8
100
AcDbEntity
  8
2
370
    50
100
AcDbLine
 10
-13.125778
 20
86.277425
 30
0.0
 11
-10.343298
 21
85.445002
 31
0.0
  0
LINE
  5
A9
100
AcDbEntity
  8
2
370
    50
100
AcDbLine
 10
-39.35547
 20
90.427425
 30
0.0
 11
-30.870188
 21
90.427425
 31
0.0
  0
LINE
  5
AA
100
AcDbEntity
  8
2
370
    50
100
AcDbLine
 10
-39.35547
 20
66.427425
 30
0.0
 11
-30.870188
 21
66.427425
 31
0.0
  0
LINE
  5
AB
100
AcDbEntity
  8
2
370
    50
100
AcDbLine
 10
-48.562071
 20
80.827425
 30
0.0
 11
-39.184032
 21
80.827425
 31
0.0
  0
LINE
  5
AC
100
AcDbEntity
  8
2
370
    50
100
AcDbLine
 10
-48.562071
 20
76.027425
 30
0.0
 11
-39.184032
 21
76.027425
 31
0.0
  0
ELLIPSE
  5
AD
100
AcDbEntity
  8
2
370
    50
100
AcDbEllipse
 10
-39.35547
 20
78.427425
 30
0.0
 11
0.0
 21
12.0
 31
0.0
210
0.0
220
0.0
230
1.0
 40
0.707107
 41
0.0
 42
1.3694379999999999
  0
ELLIPSE
  5
AE
100
AcDbEntity
  8
2
370
    50
100
AcDbEllipse
 10
-39.35547
 20
78.427425
 30
0.0
 11
0.0
 21
12.0
 31
0.0
210
0.0
220
0.0
230
1.0
 40
0.707107
 41
1.772154
 42
3.1415929999999999
  0
ARC
  5
AF
100
AcDbEntity
  8
2
370
    50
100
AcDbCircle
 10
-41.19811
 20
78.427425
 30
0.0
 40
2.4
100
AcDbArc
 50
90.0
 51
270.0
  0
ARC
  5
B0
100
AcDbEntity
  8
2
370
    50
100
AcDbCircle
 10
-48.562071
 20
78.427425
 30
0.0
 40
2.4
100
AcDbArc
 50
90.0
 51
270.0
  0
POINT
  5
B1
100
AcDbEntity
  8
2
370
    50
100
AcDbPoint
 10
-28.465759
 20
-8.437158
 30
0.0
  0
LINE
  5
B2
100
AcDbEntity
  8
2
370
    50
100
AcDbLine
 10
-60.39163
 20
-25.86734
 30
0.0
 11
-44.658548
 21
-41.600422
 31
0.0
  0
LINE
  5
B3
100
AcDbEntity
  8
2
370
    50
100
AcDbLine
 10
-60.39163
 20
-25.86734
 30
0.0
 11
-61.629067
 21
-24.629903
 31
0.0
  0
LINE
  5
B4
100
AcDbEntity
  8
2
370
    50
100
AcDbLine
 10
-60.92196
 20
83.427425
 30
0.0
 11
-54.557999
 21
83.427425
 31
0.0
  0
LINE
  5
B5
100
AcDbEntity
  8
2
370
    50
100
AcDbLine
 10
-52.436678
 20
91.427425
 30
0.0
 11
-45.365611
 21
91.427425
 31
0.0
  0
ELLIPSE
  5
B6
100
AcDbEntity
  8
2
370
    50
100
AcDbEllipse
 10
-52.436678
 20
78.427425
 30
0.0
 11
0.0
 21
13.0
 31
0.0
210
0.0
220
0.0
230
1.0
 40
0.707107
 41
0.0
 42
3.1415929999999999
  0
LINE
  5
B7
100
AcDbEntity
  8
2
370
    50
100
AcDbLine
 10
-52.436678
 20
65.427425
 30
0.0
 11
-45.365611
 21
65.427425
 31
0.0
  0
ELLIPSE
  5
B8
100
AcDbEntity
  8
2
370
    50
100
AcDbEllipse
 10
-45.365611
 20
78.427425
 30
0.0
 11
0.0
 21
13.0
 31
0.0
210
0.0
220
0.0
230
1.0
 40
0.652714
 41
5.8145150000000001
 42
3.5980270000000001
  0
LINE
  5
B9
100
AcDbEntity
  8
2
370
    50
100
AcDbLine
 10
-45.365611
 20
88.677425
 30
0.0
 11
-43.76781
 21
88.677425
 31
0.0
  0
LINE
  5
BA
100
AcDbEntity
  8
2
370
    50
100
AcDbLine
 10
-45.365611
 20
68.177425
 30
0.0
 11
-43.76781
 21
68.177425
 31
0.0
  0
ELLIPSE
  5
BB
100
AcDbEntity
  8
2
370
    50
100
AcDbEllipse
 10
-45.365611
 20
78.427425
 30
0.0
 11
0.0
 21
10.25
 31
0.0
210
0.0
220
0.0
230
1.0
 40
0.707107
 41
0.0
 42
3.1415929999999999
  0
ELLIPSE
  5
BC
100
AcDbEntity
  8
2
370
    50
100
AcDbEllipse
 10
-46.072717
 20
78.427425
 30
0.0
 11
0.0
 21
13.0
 31
0.0
210
0.0
220
0.0
230
1.0
 40
0.707107
 41
0.0
 42
0.18618
  0
LINE
  5
BD
100
AcDbEntity
  8
2
370
    50
100
AcDbLine
 10
-60.92196
 20
73.427425
 30
0.0
 11
-54.557999
 21
73.427425
 31
0.0
  0
ARC
  5
BE
100
AcDbEntity
  8
2
370
    50
100
AcDbCircle
 10
-71.882115
 20
78.427425
 30
0.0
 40
18.031223
100
AcDbArc
 50
343.901066
 51
16.098934
  0
ELLIPSE
  5
BF
100
AcDbEntity
  8
2
370
    50
100
AcDbEllipse
 10
-46.072717
 20
78.427425
 30
0.0
 11
0.0
 21
13.0
 31
0.0
210
0.0
220
0.0
230
1.0
 40
0.707107
 41
0.9183710000000001
 42
1.176005
  0
LINE
  5
C0
100
AcDbEntity
  8
2
370
    50
100
AcDbLine
 10
-59.741076
 20
86.319925
 30
0.0
 11
-53.377115
 21
86.319925
 31
0.0
  0
LINE
  5
C1
100
AcDbEntity
  8
2
370
    50
100
AcDbLine
 10
-59.741076
 20
70.534925
 30
0.0
 11
-53.377115
 21
70.534925
 31
0.0
  0
LINE
  5
C2
100
AcDbEntity
  8
2
370
    50
100
AcDbLine
 10
-53.61912
 20
91.319425
 30
0.0
 11
-47.640427
 21
91.319425
 31
0.0
  0
LINE
  5
C3
100
AcDbEntity
  8
2
370
    50
100
AcDbLine
 10
-53.377115
 20
86.319925
 30
0.0
 11
-47.640427
 21
91.319425
 31
0.0
  0
ELLIPSE
  5
C4
100
AcDbEntity
  8
2
370
    50
100
AcDbEllipse
 10
-46.072717
 20
78.427425
 30
0.0
 11
0.0
 21
13.0
 31
0.0
210
0.0
220
0.0
230
1.0
 40
0.707107
 41
2.9554119999999999
 42
3.1415929999999999
  0
ELLIPSE
  5
C5
100
AcDbEntity
  8
2
370
    50
100
AcDbEllipse
 10
-46.072717
 20
78.427425
 30
0.0
 11
0.0
 21
13.0
 31
0.0
210
0.0
220
0.0
230
1.0
 40
0.707107
 41
1.965587
 42
2.2232219999999998
  0
LINE
  5
C6
100
AcDbEntity
  8
2
370
    50
100
AcDbLine
 10
-53.075951
 20
65.535425
 30
0.0
 11
-47.640427
 21
65.535425
 31
0.0
  0
LINE
  5
C7
100
AcDbEntity
  8
2
370
    50
100
AcDbLine
 10
-53.377115
 20
70.534925
 30
0.0
 11
-47.640427
 21
65.535425
 31
0.0
  0
ELLIPSE
  5
C8
100
AcDbEntity
  8
2
370
    50
100
AcDbEllipse
 10
-56.537582
 20
78.427425
 30
0.0
 11
0.0
 21
10.300000000000001
 31
0.0
210
0.0
220
0.0
230
1.0
 40
0.707107
 41
0.25603
 42
2.8837679999999999
  0
ELLIPSE
  5
C9
100
AcDbEntity
  8
2
370
    50
100
AcDbEllipse
 10
-57.38611
 20
78.427425
 30
0.0
 11
0.0
 21
10.300000000000001
 31
0.0
210
0.0
220
0.0
230
1.0
 40
0.624725
 41
0.081762
 42
3.0182890000000002
  0
LINE
  5
CA
100
AcDbEntity
  8
2
370
    25
  6
CENTER
100
AcDbLine
 10
-87.791829
 20
-85.020375
 30
0.0
 11
-87.791829
 21
8.217149
 31
0.0
  0
LINE
  5
CB
100
AcDbEntity
  8
2
370
    50
100
AcDbLine
 10
-77.491829
 20
-70.76314
 30
0.0
 11
-98.091829
 21
-70.76314
 31
0.0
  0
LINE
  5
CC
100
AcDbEntity
  8
2
370
    50
100
AcDbLine
 10
-77.491829
 20
-80.56314
 30
0.0
 11
-98.091829
 21
-80.56314
 31
0.0
  0
LINE
  5
CD
100
AcDbEntity
  8
2
370
    25
100
AcDbLine
 10
-87.791829
 20
3.23686
 30
0.0
 11
-87.791829
 21
6.23686
 31
0.0
  0
LINE
  5
CE
100
AcDbEntity
  8
2
370
    50
100
AcDbLine
 10
-81.791829
 20
-15.26314
 30
0.0
 11
-93.791829
 21
-15.26314
 31
0.0
  0
LINE
  5
CF
100
AcDbEntity
  8
2
370
    50
100
AcDbLine
 10
-75.291829
 20
-20.26314
 30
0.0
 11
-100.291829
 21
-20.26314
 31
0.0
  0
ARC
  5
D0
100
AcDbEntity
  8
2
370
    50
100
AcDbCircle
 10
-78.862543
 20
-23.76314
 30
0.0
 40
5.0
100
AcDbArc
 50
315.572996
 51
44.427004
  0
ARC
  5
D1
100
AcDbEntity
  8
2
370
    50
100
AcDbCircle
 10
-96.721115
 20
-23.76314
 30
0.0
 40
5.0
100
AcDbArc
 50
135.572996
 51
224.427004
  0
LINE
  5
D2
100
AcDbEntity
  8
2
370
    50
100
AcDbLine
 10
-93.791829
 20
-15.26314
 30
0.0
 11
-100.291829
 21
-20.26314
 31
0.0
  0
LINE
  5
D3
100
AcDbEntity
  8
2
370
    50
100
AcDbLine
 10
-81.791829
 20
-15.26314
 30
0.0
 11
-75.291829
 21
-20.26314
 31
0.0
  0
ELLIPSE
  5
D4
100
AcDbEntity
  8
2
370
    50
100
AcDbEllipse
 10
-87.791829
 20
-23.76314
 30
0.0
 11
5.0
 21
0.0
 31
0.0
210
0.0
220
0.0
230
1.0
 40
0.6
 41
0.0
 42
6.2831849999999996
  0
ELLIPSE
  5
D5
100
AcDbEntity
  8
2
370
    50
100
AcDbEllipse
 10
-76.362543
 20
-23.76314
 30
0.0
 11
0.0
 21
3.0
 31
0.0
210
0.0
220
0.0
230
1.0
 40
0.833333
 41
0.0
 42
6.2831849999999996
  0
ELLIPSE
  5
D6
100
AcDbEntity
  8
2
370
    50
100
AcDbEllipse
 10
-99.221115
 20
-23.76314
 30
0.0
 11
0.0
 21
-3.0
 31
0.0
210
0.0
220
0.0
230
1.0
 40
0.833333
 41
0.0
 42
6.2831849999999996
  0
LINE
  5
D7
100
AcDbEntity
  8
2
370
    50
100
AcDbLine
 10
-83.041829
 20
-15.26314
 30
0.0
 11
-83.041829
 21
-7.76314
 31
0.0
  0
LINE
  5
D8
100
AcDbEntity
  8
2
370
    50
100
AcDbLine
 10
-92.541829
 20
-15.26314
 30
0.0
 11
-92.541829
 21
-7.76314
 31
0.0
  0
LINE
  5
D9
100
AcDbEntity
  8
2
370
    50
100
AcDbLine
 10
-116.185378
 20
-7.76314
 30
0.0
 11
-69.791829
 21
-7.76314
 31
0.0
  0
LINE
  5
DA
100
AcDbEntity
  8
2
370
    50
100
AcDbLine
 10
-118.11723
 20
-5.245502
 30
0.0
 11
-117.306216
 21
-2.218756
 31
0.0
  0
ARC
  5
DB
100
AcDbEntity
  8
2
370
    50
100
AcDbCircle
 10
-116.185378
 20
-5.76314
 30
0.0
 40
2.0
100
AcDbArc
 50
165.0
 51
270.0
  0
ARC
  5
DC
100
AcDbEntity
  8
2
370
    50
100
AcDbCircle
 10
-87.791829
 20
-176.76314
 30
0.0
 40
180.0
100
AcDbArc
 50
85.411434
 51
98.108943
  0
ARC
  5
DD
100
AcDbEntity
  8
2
370
    50
100
AcDbCircle
 10
-112.476586
 20
-3.512851
 30
0.0
 40
5.0
100
AcDbArc
 50
98.108943
 51
165.0
  0
LINE
  5
DE
100
AcDbEntity
  8
2
370
    50
100
AcDbLine
 10
-68.791829
 20
-6.76314
 30
0.0
 11
-68.791829
 21
-2.324039
 31
0.0
  0
ARC
  5
DF
100
AcDbEntity
  8
2
370
    50
100
AcDbCircle
 10
-69.791829
 20
-6.76314
 30
0.0
 40
1.0
100
AcDbArc
 50
270.0
 51
360.0
  0
ARC
  5
E0
100
AcDbEntity
  8
2
370
    50
100
AcDbCircle
 10
-73.791829
 20
-2.324039
 30
0.0
 40
5.0
100
AcDbArc
 50
0.0
 51
85.411434
  0
LINE
  5
E1
100
AcDbEntity
  8
2
370
    50
100
AcDbLine
 10
-79.791829
 20
-6.76314
 30
0.0
 11
-79.791829
 21
-1.788857
 31
0.0
  0
ARC
  5
E2
100
AcDbEntity
  8
2
370
    50
100
AcDbCircle
 10
-84.791829
 20
-1.788857
 30
0.0
 40
5.0
100
AcDbArc
 50
0.0
 51
89.017739
  0
ARC
  5
E3
100
AcDbEntity
  8
2
370
    50
100
AcDbCircle
 10
-80.791829
 20
-6.76314
 30
0.0
 40
1.0
100
AcDbArc
 50
270.0
 51
360.0
  0
LINE
  5
E4
100
AcDbEntity
  8
2
370
    50
100
AcDbLine
 10
-94.791829
 20
6.23686
 30
0.0
 11
-80.791829
 21
6.23686
 31
0.0
  0
LINE
  5
E5
100
AcDbEntity
  8
2
370
    50
100
AcDbLine
 10
-94.791829
 20
3.100697
 30
0.0
 11
-94.791829
 21
6.23686
 31
0.0
  0
LINE
  5
E6
100
AcDbEntity
  8
2
370
    50
100
AcDbLine
 10
-80.791829
 20
3.100697
 30
0.0
 11
-80.791829
 21
6.23686
 31
0.0
  0
LINE
  5
E7
100
AcDbEntity
  8
2
370
    25
100
AcDbLine
 10
-87.291829
 20
3.236165
 30
0.0
 11
-87.291829
 21
6.23686
 31
0.0
  0
LINE
  5
E8
100
AcDbEntity
  8
2
370
    25
100
AcDbLine
 10
-86.791829
 20
3.236165
 30
0.0
 11
-86.791829
 21
6.23686
 31
0.0
  0
LINE
  5
E9
100
AcDbEntity
  8
2
370
    25
100
AcDbLine
 10
-86.291829
 20
3.236165
 30
0.0
 11
-86.291829
 21
6.23686
 31
0.0
  0
LINE
  5
EA
100
AcDbEntity
  8
2
370
    25
100
AcDbLine
 10
-85.791829
 20
3.236165
 30
0.0
 11
-85.791829
 21
6.23686
 31
0.0
  0
LINE
  5
EB
100
AcDbEntity
  8
2
370
    25
100
AcDbLine
 10
-85.291829
 20
3.236165
 30
0.0
 11
-85.291829
 21
6.23686
 31
0.0
  0
LINE
  5
EC
100
AcDbEntity
  8
2
370
    25
100
AcDbLine
 10
-84.791829
 20
3.211858
 30
0.0
 11
-84.791829
 21
6.23686
 31
0.0
  0
LINE
  5
ED
100
AcDbEntity
  8
2
370
    25
100
AcDbLine
 10
-84.291829
 20
3.202829
 30
0.0
 11
-84.291829
 21
6.23686
 31
0.0
  0
LINE
  5
EE
100
AcDbEntity
  8
2
370
    25
100
AcDbLine
 10
-83.791829
 20
3.19241
 30
0.0
 11
-83.791829
 21
6.23686
 31
0.0
  0
LINE
  5
EF
100
AcDbEntity
  8
2
370
    25
100
AcDbLine
 10
-83.291829
 20
3.180601
 30
0.0
 11
-83.291829
 21
6.23686
 31
0.0
  0
LINE
  5
F0
100
AcDbEntity
  8
2
370
    25
100
AcDbLine
 10
-82.791829
 20
3.167402
 30
0.0
 11
-82.791829
 21
6.23686
 31
0.0
  0
LINE
  5
F1
100
AcDbEntity
  8
2
370
    25
100
AcDbLine
 10
-82.291829
 20
3.152812
 30
0.0
 11
-82.291829
 21
6.23686
 31
0.0
  0
LINE
  5
F2
100
AcDbEntity
  8
2
370
    25
100
AcDbLine
 10
-81.791829
 20
3.136832
 30
0.0
 11
-81.791829
 21
6.23686
 31
0.0
  0
LINE
  5
F3
100
AcDbEntity
  8
2
370
    25
100
AcDbLine
 10
-81.291829
 20
3.11946
 30
0.0
 11
-81.291829
 21
6.23686
 31
0.0
  0
LINE
  5
F4
100
AcDbEntity
  8
2
370
    25
100
AcDbLine
 10
-88.291829
 20
3.236165
 30
0.0
 11
-88.291829
 21
6.23686
 31
0.0
  0
LINE
  5
F5
100
AcDbEntity
  8
2
370
    25
100
AcDbLine
 10
-88.791829
 20
3.236165
 30
0.0
 11
-88.791829
 21
6.23686
 31
0.0
  0
LINE
  5
F6
100
AcDbEntity
  8
2
370
    25
100
AcDbLine
 10
-89.291829
 20
3.236165
 30
0.0
 11
-89.291829
 21
6.23686
 31
0.0
  0
LINE
  5
F7
100
AcDbEntity
  8
2
370
    25
100
AcDbLine
 10
-89.791829
 20
3.236165
 30
0.0
 11
-89.791829
 21
6.23686
 31
0.0
  0
LINE
  5
F8
100
AcDbEntity
  8
2
370
    25
100
AcDbLine
 10
-90.291829
 20
3.236165
 30
0.0
 11
-90.291829
 21
6.23686
 31
0.0
  0
LINE
  5
F9
100
AcDbEntity
  8
2
370
    25
100
AcDbLine
 10
-90.791829
 20
3.211858
 30
0.0
 11
-90.791829
 21
6.23686
 31
0.0
  0
LINE
  5
FA
100
AcDbEntity
  8
2
370
    25
100
AcDbLine
 10
-91.291829
 20
3.202829
 30
0.0
 11
-91.291829
 21
6.23686
 31
0.0
  0
LINE
  5
FB
100
AcDbEntity
  8
2
370
    25
100
AcDbLine
 10
-91.791829
 20
3.19241
 30
0.0
 11
-91.791829
 21
6.23686
 31
0.0
  0
LINE
  5
FC
100
AcDbEntity
  8
2
370
    25
100
AcDbLine
 10
-92.291829
 20
3.180601
 30
0.0
 11
-92.291829
 21
6.23686
 31
0.0
  0
LINE
  5
FD
100
AcDbEntity
  8
2
370
    25
100
AcDbLine
 10
-92.791829
 20
3.167402
 30
0.0
 11
-92.791829
 21
6.23686
 31
0.0
  0
LINE
  5
FE
100
AcDbEntity
  8
2
370
    25
100
AcDbLine
 10
-93.291829
 20
3.152812
 30
0.0
 11
-93.291829
 21
6.23686
 31
0.0
  0
LINE
  5
FF
100
AcDbEntity
  8
2
370
    25
100
AcDbLine
 10
-93.791829
 20
3.136832
 30
0.0
 11
-93.791829
 21
6.23686
 31
0.0
  0
LINE
  5
100
100
AcDbEntity
  8
2
370
    25
100
AcDbLine
 10
-94.291829
 20
3.11946
 30
0.0
 11
-94.291829
 21
6.23686
 31
0.0
  0
LINE
  5
101
100
AcDbEntity
  8
2
370
    50
100
AcDbLine
 10
-75.291829
 20
-27.26314
 30
0.0
 11
-100.291829
 21
-27.26314
 31
0.0
  0
LINE
  5
102
100
AcDbEntity
  8
2
370
    50
100
AcDbLine
 10
-57.032916
 20
-27.81184
 30
0.0
 11
-57.38647
 21
-27.458286
 31
0.0
  0
LINE
  5
103
100
AcDbEntity
  8
2
370
    50
100
AcDbLine
 10
-32.991286
 20
-2.355995
 30
0.0
 11
-26.627325
 21
4.007966
 31
0.0
  0
LINE
  5
104
100
AcDbEntity
  8
2
370
    50
100
AcDbLine
 10
-5.767675
 20
5.775733
 30
0.0
 11
-14.252956
 21
14.261014
 31
0.0
  0
LINE
  5
105
100
AcDbEntity
  8
2
370
    50
100
AcDbLine
 10
-12.838742
 20
7.189946
 30
0.0
 11
-18.142043
 21
12.493247
 31
0.0
  0
LINE
  5
106
100
AcDbEntity
  8
2
370
    50
100
AcDbLine
 10
-15.66717
 20
4.361519
 30
0.0
 11
-20.97047
 21
9.66482
 31
0.0
  0
LINE
  5
107
100
AcDbEntity
  8
2
370
    50
100
AcDbLine
 10
-18.495597
 20
1.533092
 30
0.0
 11
-23.798898
 21
6.836393
 31
0.0
  0
LINE
  5
108
100
AcDbEntity
  8
2
370
    50
100
AcDbLine
 10
-15.035256
 20
14.357319
 30
0.0
 11
-18.142043
 21
12.493247
 31
0.0
  0
LINE
  5
109
100
AcDbEntity
  8
2
370
    50
100
AcDbLine
 10
-17.434937
 20
11.78614
 30
0.0
 11
-20.97047
 21
9.66482
 31
0.0
  0
LINE
  5
10A
100
AcDbEntity
  8
2
370
    50
100
AcDbLine
 10
-20.263364
 20
8.957713
 30
0.0
 11
-23.798898
 21
6.836393
 31
0.0
  0
LINE
  5
10B
100
AcDbEntity
  8
2
370
    50
100
AcDbLine
 10
-23.091791
 20
6.129286
 30
0.0
 11
-26.627325
 21
4.007966
 31
0.0
  0
LINE
  5
10C
100
AcDbEntity
  8
2
370
    50
100
AcDbLine
 10
-5.671369
 20
4.993433
 30
0.0
 11
-7.535442
 21
1.886645
 31
0.0
  0
LINE
  5
10D
100
AcDbEntity
  8
2
370
    50
100
AcDbLine
 10
-12.838742
 20
7.189946
 30
0.0
 11
-7.535442
 21
1.886645
 31
0.0
  0
LINE
  5
10E
100
AcDbEntity
  8
2
370
    50
100
AcDbLine
 10
-8.242548
 20
2.593752
 30
0.0
 11
-10.363869
 21
-0.941782
 31
0.0
  0
LINE
  5
10F
100
AcDbEntity
  8
2
370
    50
100
AcDbLine
 10
-15.66717
 20
4.361519
 30
0.0
 11
-10.363869
 21
-0.941782
 31
0.0
  0
LINE
  5
110
100
AcDbEntity
  8
2
370
    50
100
AcDbLine
 10
-11.070976
 20
-0.234675
 30
0.0
 11
-13.192296
 21
-3.770209
 31
0.0
  0
LINE
  5
111
100
AcDbEntity
  8
2
370
    50
100
AcDbLine
 10
-18.495597
 20
1.533092
 30
0.0
 11
-13.192296
 21
-3.770209
 31
0.0
  0
LINE
  5
112
100
AcDbEntity
  8
2
370
    50
100
AcDbLine
 10
-13.899403
 20
-3.063102
 30
0.0
 11
-16.020723
 21
-6.598636
 31
0.0
  0
LINE
  5
113
100
AcDbEntity
  8
2
370
    50
100
AcDbLine
 10
-22.384684
 20
-12.962597
 30
0.0
 11
-16.020723
 21
-6.598636
 31
0.0
  0
LINE
  5
114
100
AcDbEntity
  8
2
370
    50
100
AcDbLine
 10
-15.035256
 20
14.357319
 30
0.0
 11
-14.252956
 21
14.261014
 31
0.0
  0
LINE
  5
115
100
AcDbEntity
  8
2
370
    50
100
AcDbLine
 10
-5.767675
 20
5.775733
 30
0.0
 11
-5.671369
 21
4.993433
 31
0.0
  0
POINT
  5
116
100
AcDbEntity
  8
2
370
    50
100
AcDbPoint
 10
-28.465802
 20
-8.437114
 30
0.0
  0
LINE
  5
117
100
AcDbEntity
  8
2
370
    50
100
AcDbLine
 10
-48.194082
 20
-2.709549
 30
0.0
 11
-44.658548
 21
-6.245083
 31
0.0
  0
LINE
  5
118
100
AcDbEntity
  8
2
370
    50
100
AcDbLine
 10
-41.123014
 20
4.361519
 30
0.0
 11
-37.58748
 21
0.825985
 31
0.0
  0
LINE
  5
119
100
AcDbEntity
  8
2
370
    50
100
AcDbLine
 10
-41.123014
 20
4.361519
 30
0.0
 11
-48.194082
 21
-2.709549
 31
0.0
  0
ARC
  5
11A
100
AcDbEntity
  8
2
370
    50
100
AcDbCircle
 10
-36.880373
 20
1.533092
 30
0.0
 40
1.0
100
AcDbArc
 50
225.0
 51
315.0
  0
ARC
  5
11B
100
AcDbEntity
  8
2
370
    50
100
AcDbCircle
 10
-45.365654
 20
-6.95219
 30
0.0
 40
1.0
100
AcDbArc
 50
315.0
 51
45.0
  0
ARC
  5
11C
100
AcDbEntity
  8
2
370
    50
100
AcDbCircle
 10
-18.495597
 20
-16.851684
 30
0.0
 40
1.0
100
AcDbArc
 50
135.0
 51
225.0
  0
ARC
  5
11D
100
AcDbEntity
  8
2
370
    50
100
AcDbCircle
 10
-26.980878
 20
-25.336966
 30
0.0
 40
1.0
100
AcDbArc
 50
45.0
 51
135.0
  0
LINE
  5
11E
100
AcDbEntity
  8
2
370
    50
100
AcDbLine
 10
-22.738237
 20
-28.165393
 30
0.0
 11
-26.273771
 21
-24.629859
 31
0.0
  0
LINE
  5
11F
100
AcDbEntity
  8
2
370
    50
100
AcDbLine
 10
-15.66717
 20
-21.094325
 30
0.0
 11
-22.738237
 21
-28.165393
 31
0.0
  0
LINE
  5
120
100
AcDbEntity
  8
2
370
    50
100
AcDbLine
 10
-15.66717
 20
-21.094325
 30
0.0
 11
-19.202703
 21
-17.558791
 31
0.0
  0
LINE
  5
121
100
AcDbEntity
  8
2
370
    50
100
AcDbLine
 10
-19.202703
 20
-16.144578
 30
0.0
 11
-27.687985
 21
-7.659296
 31
0.0
  0
LINE
  5
122
100
AcDbEntity
  8
2
370
    50
100
AcDbLine
 10
-27.687985
 20
-7.659296
 30
0.0
 11
-36.173266
 21
0.825985
 31
0.0
  0
LINE
  5
123
100
AcDbEntity
  8
2
370
    50
100
AcDbLine
 10
-27.687985
 20
-24.629859
 30
0.0
 11
-36.173266
 21
-16.144578
 31
0.0
  0
LINE
  5
124
100
AcDbEntity
  8
2
370
    50
100
AcDbLine
 10
-36.173266
 20
-16.144578
 30
0.0
 11
-44.658548
 21
-7.659296
 31
0.0
  0
LINE
  5
125
100
AcDbEntity
  8
2
370
    50
100
AcDbLine
 10
-40.734105
 20
-11.583739
 30
0.0
 11
-40.398229
 21
-11.919615
 31
0.0
  0
LINE
  5
126
100
AcDbEntity
  8
2
370
    50
100
AcDbLine
 10
-31.948303
 20
-20.369541
 30
0.0
 11
-31.612428
 21
-20.705416
 31
0.0
  0
LINE
  5
127
100
AcDbEntity
  8
2
370
    50
100
AcDbLine
 10
-44.658548
 20
-7.659296
 30
0.0
 11
-36.173266
 21
0.825985
 31
0.0
  0
LINE
  5
128
100
AcDbEntity
  8
2
370
    50
100
AcDbLine
 10
-27.687985
 20
-24.629859
 30
0.0
 11
-19.202703
 21
-16.144578
 31
0.0
  0
LINE
  5
129
100
AcDbEntity
  8
2
370
    25
100
AcDbLine
 10
-15.035256
 20
14.357319
 30
0.0
 11
-5.671369
 21
4.993433
 31
0.0
  0
LINE
  5
12A
100
AcDbEntity
  8
2
370
    25
100
AcDbLine
 10
-26.627325
 20
4.007966
 30
0.0
 11
-16.020723
 21
-6.598636
 31
0.0
  0
LINE
  5
12B
100
AcDbEntity
  8
2
370
    50
100
AcDbLine
 10
-28.925422
 20
-23.392422
 30
0.0
 11
-38.11781
 21
-32.58481
 31
0.0
  0
LINE
  5
12C
100
AcDbEntity
  8
2
370
    50
100
AcDbLine
 10
-43.421111
 20
-8.896733
 30
0.0
 11
-52.613499
 21
-18.089121
 31
0.0
  0
LINE
  5
12D
100
AcDbEntity
  8
2
370
    50
100
AcDbLine
 10
-53.850936
 20
-16.851684
 30
0.0
 11
-52.613499
 21
-18.089121
 31
0.0
  0
LINE
  5
12E
100
AcDbEntity
  8
2
370
    50
100
AcDbLine
 10
-53.850936
 20
-16.851684
 30
0.0
 11
-55.265149
 21
-16.851684
 31
0.0
  0
LINE
  5
12F
100
AcDbEntity
  8
2
370
    50
100
AcDbLine
 10
-45.365654
 20
-25.336966
 30
0.0
 11
-36.880373
 21
-33.822247
 31
0.0
  0
ARC
  5
130
100
AcDbEntity
  8
2
370
    50
100
AcDbCircle
 10
-54.558043
 20
-34.529354
 30
0.0
 40
13.0
100
AcDbArc
 50
22.380135
 51
45.0
  0
LINE
  5
131
100
AcDbEntity
  8
2
370
    50
100
AcDbLine
 10
-40.492059
 20
-31.624775
 30
0.0
 11
-42.537227
 21
-29.579607
 31
0.0
  0
LINE
  5
132
100
AcDbEntity
  8
2
370
    50
100
AcDbLine
 10
-46.85602
 20
-37.988736
 30
0.0
 11
-48.901188
 21
-35.943568
 31
0.0
  0
ARC
  5
133
100
AcDbEntity
  8
2
370
    50
100
AcDbCircle
 10
-43.951441
 20
-23.922752
 30
0.0
 40
13.0
100
AcDbArc
 50
225.0
 51
247.619865
  0
ARC
  5
134
100
AcDbEntity
  8
2
370
    50
100
AcDbCircle
 10
-43.232098
 20
-37.900348
 30
0.0
 40
3.625
100
AcDbArc
 50
181.397181
 51
268.602819
  0
ARC
  5
135
100
AcDbEntity
  8
2
370
    50
100
AcDbCircle
 10
-40.580447
 20
-35.248697
 30
0.0
 40
3.625
100
AcDbArc
 50
1.397181
 51
88.602819
  0
LINE
  5
136
100
AcDbEntity
  8
2
370
    50
100
AcDbLine
 10
-36.956525
 20
-35.160309
 30
0.0
 11
-43.320486
 21
-41.52427
 31
0.0
  0
LINE
  5
137
100
AcDbEntity
  8
2
370
    50
100
AcDbLine
 10
-36.880373
 20
-35.236461
 30
0.0
 11
-43.244334
 21
-41.600422
 31
0.0
  0
LINE
  5
138
100
AcDbEntity
  8
2
370
    50
100
AcDbLine
 10
-43.244334
 20
-41.600422
 30
0.0
 11
-44.658548
 21
-41.600422
 31
0.0
  0
LINE
  5
139
100
AcDbEntity
  8
2
370
    50
100
AcDbLine
 10
-36.880373
 20
-35.236461
 30
0.0
 11
-36.880373
 21
-33.822247
 31
0.0
  0
LINE
  5
13A
100
AcDbEntity
  8
2
370
    50
100
AcDbLine
 10
-55.265149
 20
-16.851684
 30
0.0
 11
-61.62911
 21
-23.215645
 31
0.0
  0
LINE
  5
13B
100
AcDbEntity
  8
2
370
    50
100
AcDbLine
 10
-61.62911
 20
-24.629859
 30
0.0
 11
-61.62911
 21
-23.215645
 31
0.0
  0
LINE
  5
13C
100
AcDbEntity
  8
2
370
    50
100
AcDbLine
 10
-45.365654
 20
-25.336966
 30
0.0
 11
-53.850936
 21
-16.851684
 31
0.0
  0
ARC
  5
13D
100
AcDbEntity
  8
2
370
    50
100
AcDbCircle
 10
-54.558043
 20
-34.529354
 30
0.0
 40
13.0
100
AcDbArc
 50
45.0
 51
67.619865
  0
LINE
  5
13E
100
AcDbEntity
  8
2
370
    50
100
AcDbLine
 10
-49.608295
 20
-22.508539
 30
0.0
 11
-55.972256
 21
-28.8725
 31
0.0
  0
LINE
  5
13F
100
AcDbEntity
  8
2
370
    50
100
AcDbLine
 10
-51.653463
 20
-20.46337
 30
0.0
 11
-49.608295
 21
-22.508539
 31
0.0
  0
LINE
  5
140
100
AcDbEntity
  8
2
370
    50
100
AcDbLine
 10
-51.653463
 20
-20.46337
 30
0.0
 11
-58.017424
 21
-26.827331
 31
0.0
  0
ARC
  5
141
100
AcDbEntity
  8
2
370
    50
100
AcDbCircle
 10
-55.277386
 20
-20.551759
 30
0.0
 40
3.625
100
AcDbArc
 50
1.397181
 51
88.602819
  0
ARC
  5
142
100
AcDbEntity
  8
2
370
    50
100
AcDbCircle
 10
-43.951441
 20
-23.922752
 30
0.0
 40
13.0
100
AcDbArc
 50
202.380135
 51
225.0
  0
LINE
  5
143
100
AcDbEntity
  8
2
370
    50
100
AcDbLine
 10
-58.017424
 20
-26.827331
 30
0.0
 11
-55.972256
 21
-28.8725
 31
0.0
  0
ARC
  5
144
100
AcDbEntity
  8
2
370
    50
100
AcDbCircle
 10
-57.929036
 20
-23.203409
 30
0.0
 40
3.625
100
AcDbArc
 50
181.397181
 51
268.602819
  0
LINE
  5
145
100
AcDbEntity
  8
2
370
    50
100
AcDbLine
 10
-48.901188
 20
-35.943568
 30
0.0
 11
-42.537227
 21
-29.579607
 31
0.0
  0
LINE
  5
146
100
AcDbEntity
  8
2
370
    50
100
AcDbLine
 10
-40.492059
 20
-31.624775
 30
0.0
 11
-46.85602
 21
-37.988736
 31
0.0
  0
LINE
  5
147
100
AcDbEntity
  8
2
370
    25
100
AcDbLine
 10
-29.632529
 20
-22.685315
 30
0.0
 11
-29.986082
 21
-23.038869
 31
0.0
  0
LINE
  5
148
100
AcDbEntity
  8
2
370
    50
100
AcDbLine
 10
-29.986082
 20
-23.038869
 30
0.0
 11
-29.986082
 21
-24.453082
 31
0.0
  0
LINE
  5
149
100
AcDbEntity
  8
2
370
    25
100
AcDbLine
 10
-29.986082
 20
-23.038869
 30
0.0
 11
-36.52682
 21
-16.498131
 31
0.0
  0
LINE
  5
14A
100
AcDbEntity
  8
2
370
    25
100
AcDbLine
 10
-42.714004
 20
-9.60384
 30
0.0
 11
-43.067557
 21
-9.957393
 31
0.0
  0
LINE
  5
14B
100
AcDbEntity
  8
2
370
    50
100
AcDbLine
 10
-43.067557
 20
-9.957393
 30
0.0
 11
-44.481771
 21
-9.957393
 31
0.0
  0
LINE
  5
14C
100
AcDbEntity
  8
2
370
    50
100
AcDbLine
 10
-43.067557
 20
-9.957393
 30
0.0
 11
-36.52682
 21
-16.498131
 31
0.0
  0
LINE
  5
14D
100
AcDbEntity
  8
2
370
    50
100
AcDbLine
 10
-75.791829
 20
-60.832744
 30
0.0
 11
-75.791829
 21
-61.26314
 31
0.0
  0
TEXT
  5
14E
100
AcDbEntity
  8
2
370
    50
100
AcDbText
 10
33.767723
 20
-118.379379
 30
0.0
 40
3.0
  1
Ｋ１３－７
 72
     5
 11
48.167723
 21
-118.379379
 31
0.0
100
AcDbText
  0
TEXT
  5
14F
100
AcDbEntity
  8
3
370
    50
100
AcDbText
 10
-141.187327
 20
-89.573368
 30
0.0
 40
3.5
  1
ＰＪ１／２
 72
     5
 11
-124.387327
 21
-89.573368
 31
0.0
100
AcDbText
  0
TEXT
  5
150
100
AcDbEntity
  8
3
370
    50
100
AcDbText
 10
-144.048977
 20
-94.756037
 30
0.0
 40
3.5
  1
（給水栓ネジ）
 72
     5
 11
-120.248977
 21
-94.756037
 31
0.0
100
AcDbText
  0
DIMENSION
  5
151
100
AcDbEntity
  8
3
370
    25
100
AcDbDimension
  2
*D0
 10
-132.043884
 20
-67.76314
 30
0.0
 11
-136.043884
 21
-74.76314
 31
0.0
 71
     0
 72
     0
 41
0.0
 42
0.0
  3
Standard
100
AcDbAlignedDimension
 13
-96.891829
 23
-81.76314
 33
0.0
 14
-110.291829
 24
-67.76314
 34
0.0
 50
90.0
100
AcDbRotatedDimension
  0
DIMENSION
  5
152
100
AcDbEntity
  8
3
370
    25
100
AcDbDimension
  2
*D1
 10
-0.416094
 20
-34.931187
 30
0.0
 11
-30.82157
 21
-65.866993
 31
0.0
 70
     1
 71
     0
 72
     0
 41
0.0
 42
0.0
  3
Standard
100
AcDbAlignedDimension
 13
-87.791829
 23
-67.76314
 33
0.0
 14
-19.202703
 24
-16.144578
 34
0.0
 50
45.0
  0
DIMENSION
  5
153
100
AcDbEntity
  8
3
370
    25
100
AcDbDimension
  2
*D2
 10
28.229345
 20
-28.221287
 30
0.0
 11
-11.014966
 21
-69.233364
 31
0.0
 70
     1
 71
     0
 72
     0
 41
0.0
 42
0.0
  3
Standard
100
AcDbAlignedDimension
 13
-87.791829
 23
-67.76314
 33
0.0
 14
-5.767675
 24
5.775733
 34
0.0
 50
45.0
  0
LWPOLYLINE
  5
154
100
AcDbEntity
  8
3
370
    25
100
AcDbPolyline
 90
        3
 70
     0
 10
-98.124107
 20
-74.793541
 10
-120.582352
 20
-89.920326
 10
-145.332214
 20
-89.920326
  0
LINE
  5
159
100
AcDbEntity
  8
3
370
    25
100
AcDbLine
 10
-99.726395
 20
-75.872765
 30
0.0
 11
-99.437218
 21
-76.302096
 31
0.0
  0
LINE
  5
15A
100
AcDbEntity
  8
3
370
    25
100
AcDbLine
 10
-99.437218
 20
-76.302096
 30
0.0
 11
-98.124107
 21
-74.793541
 31
0.0
  0
LINE
  5
15B
100
AcDbEntity
  8
3
370
    25
100
AcDbLine
 10
-98.124107
 20
-74.793541
 30
0.0
 11
-100.015573
 21
-75.443433
 31
0.0
  0
LINE
  5
15C
100
AcDbEntity
  8
3
370
    25
100
AcDbLine
 10
-100.015573
 20
-75.443433
 30
0.0
 11
-99.726395
 21
-75.872765
 31
0.0
  0
DIMENSION
  5
15D
100
AcDbEntity
  8
3
370
    25
100
AcDbDimension
  2
*D3
 10
-64.791829
 20
-102.808777
 30
0.0
 11
-87.791829
 21
-100.558777
 31
0.0
 70
     1
 71
     0
 72
     0
 41
0.0
 42
0.0
  3
Standard
100
AcDbAlignedDimension
 13
-110.791829
 23
-67.26314
 33
0.0
 14
-64.791829
 24
-67.26314
 34
0.0
  0
ENDSEC
  0
SECTION
  2
OBJECTS
  0
DICTIONARY
  5
18E
100
AcDbDictionary
280
     0
281
     1
  3
ACAD_GROUP
350
18F
  3
ACAD_MLINESTYLE
350
190
  0
DICTIONARY
  5
18F
102
{ACAD_REACTORS
330
18E
102
}
100
AcDbDictionary
280
     0
281
     1
  0
DICTIONARY
  5
190
102
{ACAD_REACTORS
330
18E
102
}
100
AcDbDictionary
280
     0
281
     1
  3
Standard
350
191
  0
MLINESTYLE
  5
191
102
{ACAD_REACTORS
330
190
102
}
100
AcDbMlineStyle
  2
Standard
 70
     0
  3

 62
     0
 51
90.0
 52
90.0
 71
     2
 49
0.5
 62
   256
  6
ByLayer
 49
-0.5
 62
   256
  6
ByLayer
  0
ENDSEC
  0
EOF
