  0
SECTION
  2
HEADER
  9
$ACADVER
  1
AC1015
  9
$ACADMAINTVER
 70
     6
  9
$DWGCODEPAGE
  3
ANSI_932
  9
$INSBASE
 10
0.0
 20
0.0
 30
0.0
  9
$EXTMIN
 10
-420.5
 20
-297.0
 30
1.000000E+20
  9
$EXTMAX
 10
420.5
 20
297.0
 30
-1.000000E+20
  9
$LIMMIN
 10
-420.5
 20
-297.0
  9
$LIMMAX
 10
420.5
 20
297.0
  9
$ORTHOMODE
 70
     0
  9
$REGENMODE
 70
     1
  9
$FILLMODE
 70
     1
  9
$QTEXTMODE
 70
     0
  9
$MIRRTEXT
 70
     1
  9
$LTSCALE
 40
1.0
  9
$ATTMODE
 70
     1
  9
$TEXTSIZE
 40
0.2
  9
$TRACEWID
 40
0.05
  9
$TEXTSTYLE
  7
STANDARD
  9
$CLAYER
  8
0
  9
$CELTYPE
  6
CONTINUOUS
  9
$CECOLOR
 62
   256
  9
$CELTSCALE
 40
1.0
  9
$DISPSILH
 70
     0
  9
$DIMSCALE
 40
1.0
  9
$DIMASZ
 40
2.0
  9
$DIMEXO
 40
1.0
  9
$DIMDLI
 40
0.38
  9
$DIMRND
 40
0.0
  9
$DIMDLE
 40
0.0
  9
$DIMEXE
 40
2.0
  9
$DIMTP
 40
0.0
  9
$DIMTM
 40
0.0
  9
$DIMTXT
 40
3.5
  9
$DIMCEN
 40
0.09
  9
$DIMTSZ
 40
0.0
  9
$DIMTOL
 70
     0
  9
$DIMLIM
 70
     0
  9
$DIMTIH
 70
     0
  9
$DIMTOH
 70
     0
  9
$DIMSE1
 70
     0
  9
$DIMSE2
 70
     0
  9
$DIMTAD
 70
     1
  9
$DIMZIN
 70
     0
  9
$DIMBLK
  1

  9
$DIMASO
 70
     1
  9
$DIMSHO
 70
     1
  9
$DIMPOST
  1

  9
$DIMAPOST
  1

  9
$DIMALT
 70
     0
  9
$DIMALTD
 70
     2
  9
$DIMALTF
 40
25.4
  9
$DIMLFAC
 40
1.0
  9
$DIMTOFL
 70
     0
  9
$DIMTVP
 40
0.0
  9
$DIMTIX
 70
     0
  9
$DIMSOXD
 70
     0
  9
$DIMSAH
 70
     0
  9
$DIMBLK1
  1

  9
$DIMBLK2
  1

  9
$DIMSTYLE
  2
Standard
  9
$DIMCLRD
 70
     0
  9
$DIMCLRE
 70
     0
  9
$DIMCLRT
 70
     0
  9
$DIMTFAC
 40
1.0
  9
$DIMGAP
 40
0.5
  9
$DIMJUST
 70
     0
  9
$DIMSD1
 70
     0
  9
$DIMSD2
 70
     0
  9
$DIMTOLJ
 70
     1
  9
$DIMTZIN
 70
     0
  9
$DIMALTZ
 70
     0
  9
$DIMALTTZ
 70
     0
  9
$DIMUPT
 70
     0
  9
$DIMDEC
 70
     3
  9
$DIMTDEC
 70
     4
  9
$DIMALTU
 70
     2
  9
$DIMALTTD
 70
     2
  9
$DIMTXSTY
  7
STANDARD
  9
$DIMAUNIT
 70
     0
  9
$DIMADEC
 70
     0
  9
$DIMALTRND
 40
0.0
  9
$DIMAZIN
 70
     0
  9
$DIMDSEP
 70
     0
  9
$DIMATFIT
 70
     3
  9
$DIMFRAC
 70
     0
  9
$DIMLDRBLK
  1

  9
$DIMLUNIT
 70
     2
  9
$DIMLWD
 70
     0
  9
$DIMLWE
 70
     0
  9
$DIMTMOVE
 70
     0
  9
$LUNITS
 70
     2
  9
$LUPREC
 70
     4
  9
$SKETCHINC
 40
0.1
  9
$FILLETRAD
 40
0.0
  9
$AUNITS
 70
     0
  9
$AUPREC
 70
     0
  9
$MENU
  1
acad
  9
$ELEVATION
 40
0.0
  9
$PELEVATION
 40
0.0
  9
$THICKNESS
 40
0.0
  9
$LIMCHECK
 70
     0
  9
$CHAMFERA
 40
0.0
  9
$CHAMFERB
 40
0.0
  9
$CHAMFERC
 40
0.0
  9
$CHAMFERD
 40
0.0
  9
$SKPOLY
 70
     0
  9
$TDCREATE
 40
2453580.000000000
  9
$TDUCREATE
 40
0.000000000
  9
$TDUPDATE
 40
0.000000000
  9
$TDUUPDATE
 40
2447892.625000000
  9
$TDINDWG
 40
0.0000000000
  9
$TDUSRTIMER
 40
0.0000000000
  9
$USRTIMER
 70
     1
  9
$ANGBASE
 50
0.0
  9
$ANGDIR
 70
     0
  9
$PDMODE
 70
     0
  9
$PDSIZE
 40
0.0
  9
$PLINEWID
 40
0.0
  9
$SPLFRAME
 70
     0
  9
$SPLINETYPE
 70
     6
  9
$SPLINESEGS
 70
     8
  9
$HANDSEED
  5
189
  9
$SURFTAB1
 70
     6
  9
$SURFTAB2
 70
     6
  9
$SURFTYPE
 70
     6
  9
$SURFU
 70
     6
  9
$SURFV
 70
     6
  9
$UCSBASE
  2

  9
$UCSNAME
  2

  9
$UCSORG
 10
0.0
 20
0.0
 30
0.0
  9
$UCSXDIR
 10
1.0
 20
0.0
 30
0.0
  9
$UCSYDIR
 10
0.0
 20
1.0
 30
0.0
  9
$UCSORTHOREF
  2

  9
$UCSORTHOVIEW
 70
     0
  9
$UCSORGTOP
 10
0.0
 20
0.0
 30
0.0
  9
$UCSORGBOTTOM
 10
0.0
 20
0.0
 30
0.0
  9
$UCSORGLEFT
 10
0.0
 20
0.0
 30
0.0
  9
$UCSORGRIGHT
 10
0.0
 20
0.0
 30
0.0
  9
$UCSORGFRONT
 10
0.0
 20
0.0
 30
0.0
  9
$UCSORGBACK
 10
0.0
 20
0.0
 30
0.0
  9
$PUCSBASE
  2

  9
$PUCSNAME
  2

  9
$PUCSORG
 10
0.0
 20
0.0
 30
0.0
  9
$PUCSXDIR
 10
1.0
 20
0.0
 30
0.0
  9
$PUCSYDIR
 10
0.0
 20
1.0
 30
0.0
  9
$PUCSORTHOREF
  2

  9
$PUCSORTHOVIEW
 70
     0
  9
$PUCSORGTOP
 10
0.0
 20
0.0
 30
0.0
  9
$PUCSORGBOTTOM
 10
0.0
 20
0.0
 30
0.0
  9
$PUCSORGLEFT
 10
0.0
 20
0.0
 30
0.0
  9
$PUCSORGRIGHT
 10
0.0
 20
0.0
 30
0.0
  9
$PUCSORGFRONT
 10
0.0
 20
0.0
 30
0.0
  9
$PUCSORGBACK
 10
0.0
 20
0.0
 30
0.0
  9
$USERI1
 70
     0
  9
$USERI2
 70
     0
  9
$USERI3
 70
     0
  9
$USERI4
 70
     0
  9
$USERI5
 70
     0
  9
$USERR1
 40
0.0
  9
$USERR2
 40
0.0
  9
$USERR3
 40
0.0
  9
$USERR4
 40
0.0
  9
$USERR5
 40
0.0
  9
$WORLDVIEW
 70
     1
  9
$SHADEDGE
 70
     3
  9
$SHADEDIF
 70
    70
  9
$TILEMODE
 70
     1
  9
$MAXACTVP
 70
    16
  9
$PINSBASE
 10
0.0
 20
0.0
 30
0.0
  9
$PLIMCHECK
 70
     0
  9
$PEXTMIN
 10
1.000000E+20
 20
1.000000E+20
 30
1.000000E+20
  9
$PEXTMAX
 10
-1.000000E+20
 20
-1.000000E+20
 30
-1.000000E+20
  9
$PLIMMIN
 10
0.0
 20
0.0
  9
$PLIMMAX
 10
12.0
 20
9.0
  9
$UNITMODE
 70
     0
  9
$VISRETAIN
 70
     0
  9
$PLINEGEN
 70
     1
  9
$PSLTSCALE
 70
     0
  9
$TREEDEPTH
 70
  3020
  9
$CMLSTYLE
  2
Standard
  9
$CMLJUST
 70
     0
  9
$CMLSCALE
 40
1.0
  9
$PROXYGRAPHICS
 70
     0
  9
$MEASUREMENT
 70
     0
  9
$CELWEIGHT
370
     0
  9
$ENDCAPS
280
     0
  9
$JOINSTYLE
280
     0
  9
$LWDISPLAY
290
     0
  9
$INSUNITS
 70
     0
  9
$HYPERLINKBASE
  1

  9
$STYLESHEET
  1

  9
$XEDIT
290
     1
  9
$CEPSNTYPE
380
     0
  9
$PSTYLEMODE
290
     1
  9
$FINGERPRINTGUID
  2

  9
$VERSIONGUID
  2

  9
$EXTNAMES
290
     1
  9
$PSVPSCALE
 40
0.0
  0
ENDSEC
  0
SECTION
  2
CLASSES
  0
CLASS
  1
LWPOLYLINE
  2
AcDbPolyline
  3
AutoCAD 2000
 90
        0
280
     0
281
     1
  0
CLASS
  1
IMAGE
  2
AcDbRasterImage
  3
ISM
 90
      127
280
     0
281
     1
  0
CLASS
  1
OLE2FRAME
  2
AcDbOle2Frame
  3
AutoCAD 2000
 90
        0
280
     0
281
     1
  0
CLASS
  1
HATCH
  2
AcDbHatch
  3
AutoCAD 2000
 90
        0
280
     0
281
     1
  0
CLASS
  1
DICTIONARYVAR
  2
AcDbDictionaryVar
  3
AutoCAD 2000
 90
        0
280
     0
281
     0
  0
CLASS
  1
RASTERVARIABLES
  2
AcDbRasterVariables
  3
ISM
 90
        0
280
     0
281
     0
  0
CLASS
  1
IMAGEDEF
  2
AcDbRasterImageDef
  3
ISM
 90
        0
280
     0
281
     0
  0
CLASS
  1
IMAGEDEF_REACTOR
  2
AcDbRasterImageDefReactor
  3
ISM
 90
        1
280
     0
281
     0
  0
CLASS
  1
IDBUFFER
  2
AcDbIdBuffer
  3
AutoCAD 2000
 90
        0
280
     0
281
     0
  0
CLASS
  1
SPATIAL_FILTER
  2
AcDbSpatialFilter
  3
AutoCAD 2000
 90
        0
280
     0
281
     0
  0
CLASS
  1
XRECORD
  2
AcDbXrecord
  3
AutoCAD 2000
 90
        0
280
     0
281
     0
  0
CLASS
  1
SORTENTSTABLE
  2
AcDbSortentsTable
  3
AutoCAD 2000
 90
        0
280
     0
281
     0
  0
CLASS
  1
LAYER_INDEX
  2
AcDbLayerIndex
  3
AutoCAD 2000
 90
        0
280
     0
281
     0
  0
CLASS
  1
SPATIAL_INDEX
  2
AcDbSpatialIndex
  3
AutoCAD 2000
 90
        0
280
     0
281
     0
  0
CLASS
  1
OBJECT_PTR
  2
CAseDLPNTableRecord
  3
"ASE-LPNTableRecord"
 90
        1
280
     0
281
     0
  0
CLASS
  1
LAYOUT
  2
AcDbLayout
  3
AutoCAD 2000
 90
        0
280
     0
281
     0
  0
CLASS
  1
PLOTSETTINGS
  2
AcDbPlotSettings
  3
AutoCAD 2000
 90
        0
280
     0
281
     0
  0
CLASS
  1
ACDBDICTIONARYWDFLT
  2
AcDbDictionaryWithDefault
  3
AutoCAD 2000
 90
        0
280
     0
281
     0
  0
CLASS
  1
ACDBPLACEHOLDER
  2
AcDbPlaceHolder
  3
AutoCAD 2000
 90
        0
280
     0
281
     0
  0
CLASS
  1
VBA_PROJECT
  2
AcDbVbaProject
  3
acadvba
 90
        0
280
     0
281
     0
  0
CLASS
  1
WIPEOUT
  2
AcDbWipeout
  3
WipeOut|AutoCAD Express Tool|expresstools@autodesk.com
 90
      127
280
     0
281
     1
  0
CLASS
  1
WIPEOUTVARIABLES
  2
AcDbWipeoutVariables
  3
WipeOut|AutoCAD Express Tool|expresstools@autodesk.com
 90
        0
280
     0
281
     0
  0
CLASS
  1
RTEXT
  2
RText
  3
RText|AutoCAD Express Tool|expresstools@autodesk.com
 90
        0
280
     0
281
     1
  0
CLASS
  1
ARCALIGNEDTEXT
  2
AcDbArcAlignedText
  3
ATEXT|AutoCAD Express Tool|expresstools@autodesk.com
 90
        0
280
     0
281
     1
  0
ENDSEC
  0
SECTION
  2
TABLES
  0
TABLE
  2
VPORT
  5
6
100
AcDbSymbolTable
 70
     1
  0
VPORT
  5
19
100
AcDbSymbolTableRecord
100
AcDbViewportTableRecord
  2
*ACTIVE
 70
     0
 10
0.0
 20
0.0
 11
1.0
 21
1.0
 12
0.0
 22
0.0
 13
0.0
 23
0.0
 14
1.0
 24
1.0
 15
0.0
 25
0.0
 16
0.0
 26
0.0
 36
1.0
 17
0.0
 27
0.0
 37
0.0
 40
594.0
 41
1.415825
 42
50.0
 43
0.0
 44
0.0
 50
0.0
 51
0.0
 71
     0
 72
   500
 73
     1
 74
     1
 75
     0
 76
     0
 77
     0
 78
     0
281
     0
 65
     0
110
0.0
120
0.0
130
0.0
111
1.0
121
0.0
131
0.0
112
0.0
122
1.0
132
0.0
345
0
346
0
 79
     0
146
0.0
  0
ENDTAB
  0
TABLE
  2
LTYPE
  5
3
100
AcDbSymbolTable
 70
     9
  0
LTYPE
  5
C
100
AcDbSymbolTableRecord
100
AcDbLinetypeTableRecord
  2
ByBlock
 70
    64
  3

 72
    65
 73
     0
 40
0.0
  0
LTYPE
  5
D
100
AcDbSymbolTableRecord
100
AcDbLinetypeTableRecord
  2
ByLayer
 70
    64
  3

 72
    65
 73
     0
 40
0.0
  0
LTYPE
  5
E
100
AcDbSymbolTableRecord
100
AcDbLinetypeTableRecord
  2
CONTINUOUS
 70
     0
  3
Solid line
 72
    65
 73
     0
 40
0.0
  0
LTYPE
  5
F
100
AcDbSymbolTableRecord
100
AcDbLinetypeTableRecord
  2
DASHED
 70
     0
  3
__ __ __ __ __ __ __ __ __ __ __ __ __ __ __
 72
    65
 73
     2
 40
2.0
 49
1.2
 74
     0
 49
-0.8
 74
     0
  0
LTYPE
  5
10
100
AcDbSymbolTableRecord
100
AcDbLinetypeTableRecord
  2
CENTER
 70
     0
  3
____ _ ____ _ ____ _ ____ _ ____ _ ____ _ ____
 72
    65
 73
     4
 40
12.0
 49
9.0
 74
     0
 49
-1.0
 74
     0
 49
1.0
 74
     0
 49
-1.0
 74
     0
  0
LTYPE
  5
11
100
AcDbSymbolTableRecord
100
AcDbLinetypeTableRecord
  2
HIDDEN
 70
     0
  3
_ _ _ _ _ _ _ _ _ _ _ _ _ _ _ _ _ _ _ _ _ _ _
 72
    65
 73
     2
 40
3.2
 49
2.4
 74
     0
 49
-0.8
 74
     0
  0
LTYPE
  5
12
100
AcDbSymbolTableRecord
100
AcDbLinetypeTableRecord
  2
PHANTOM
 70
     0
  3
_____ _ _ _____ _ _ _____ _ _ _____ _ _ _____
 72
    65
 73
     6
 40
13.5
 49
9.0
 74
     0
 49
-1.0
 74
     0
 49
1.0
 74
     0
 49
-0.5
 74
     0
 49
1.0
 74
     0
 49
-1.0
 74
     0
  0
LTYPE
  5
13
100
AcDbSymbolTableRecord
100
AcDbLinetypeTableRecord
  2
DOT
 70
     0
  3
...............................................
 72
    65
 73
     2
 40
1.0
 49
0.5
 74
     0
 49
-0.5
 74
     0
  0
LTYPE
  5
14
100
AcDbSymbolTableRecord
100
AcDbLinetypeTableRecord
  2
DASHDOT
 70
     0
  3
__ . __ . __ . __ . __ . __ . __ . __ . __ . __
 72
    65
 73
     4
 40
8.0
 49
5.0
 74
     0
 49
-1.0
 74
     0
 49
1.0
 74
     0
 49
-1.0
 74
     0
  0
ENDTAB
  0
TABLE
  2
LAYER
  5
1
100
AcDbSymbolTable
 70
     4
  0
LAYER
  5
15
100
AcDbSymbolTableRecord
100
AcDbLayerTableRecord
  2
0
 70
     0
 62
     7
  6
CONTINUOUS
290
     1
370
    -3
390
0
  0
LAYER
  5
16
100
AcDbSymbolTableRecord
100
AcDbLayerTableRecord
  2
1
 70
     0
 62
     7
  6
CONTINUOUS
290
     1
370
    -3
390
0
  0
LAYER
  5
17
100
AcDbSymbolTableRecord
100
AcDbLayerTableRecord
  2
2
 70
     0
 62
     7
  6
CONTINUOUS
290
     1
370
    -3
390
0
  0
LAYER
  5
18
100
AcDbSymbolTableRecord
100
AcDbLayerTableRecord
  2
3
 70
     0
 62
     7
  6
CONTINUOUS
290
     1
370
    -3
390
0
  0
ENDTAB
  0
TABLE
  2
STYLE
  5
2
100
AcDbSymbolTable
 70
     1
  0
STYLE
  5
1B
100
AcDbSymbolTableRecord
100
AcDbTextStyleTableRecord
  2
STANDARD
 70
    64
 40
0.0
 41
1.0
 50
0.0
 71
     0
 42
1.0
  3
txt
  4
BIGFONT
  0
ENDTAB
  0
TABLE
  2
VIEW
  5
4
100
AcDbSymbolTable
 70
     0
  0
ENDTAB
  0
TABLE
  2
UCS
  5
5
100
AcDbSymbolTable
 70
     0
  0
ENDTAB
  0
TABLE
  2
APPID
  5
7
100
AcDbSymbolTable
 70
     1
  0
APPID
  5
1A
100
AcDbSymbolTableRecord
100
AcDbRegAppTableRecord
  2
ACAD
 70
     0
  0
ENDTAB
  0
TABLE
  2
DIMSTYLE
  5
8
100
AcDbSymbolTable
 70
     1
100
AcDbDimStyleTable
 71
     0
  0
DIMSTYLE
105
28
100
AcDbSymbolTableRecord
100
AcDbDimStyleTableRecord
  2
Standard
 70
     0
  3

  4

 40
1.0
 41
2.0
 42
1.0
 43
0.38
 44
2.0
 45
0.0
 46
0.0
 47
0.0
 48
0.0
 71
     0
 72
     0
 73
     0
 74
     0
 75
     0
 76
     0
 77
     1
 78
     0
 79
     0
140
3.5
141
0.09
142
0.0
143
25.4
144
1.0
145
0.0
146
1.0
147
0.5
148
0.0
170
     0
171
     2
172
     0
173
     0
174
     0
175
     0
176
     0
177
     0
178
     0
179
     0
271
     3
272
     4
273
     2
274
     2
275
     0
276
     0
277
     2
278
    46
279
     0
280
     0
281
     0
282
     0
283
     1
284
     0
285
     0
286
     0
288
     0
289
     3
340
1B
341
0
342
0
343
0
344
0
371
    -2
372
    -2
  0
ENDTAB
  0
TABLE
  2
BLOCK_RECORD
  5
23
100
AcDbSymbolTable
 70
     5
  0
BLOCK_RECORD
  5
21
100
AcDbSymbolTableRecord
100
AcDbBlockTableRecord
  2
*Model_Space
340
0
  0
BLOCK_RECORD
  5
22
100
AcDbSymbolTableRecord
100
AcDbBlockTableRecord
  2
*Paper_Space
340
0
  0
BLOCK_RECORD
  5
1C
100
AcDbSymbolTableRecord
100
AcDbBlockTableRecord
  2
*D0
340
0
  0
BLOCK_RECORD
  5
1D
100
AcDbSymbolTableRecord
100
AcDbBlockTableRecord
  2
*D1
340
0
  0
BLOCK_RECORD
  5
1E
100
AcDbSymbolTableRecord
100
AcDbBlockTableRecord
  2
*D2
340
0
  0
BLOCK_RECORD
  5
1F
100
AcDbSymbolTableRecord
100
AcDbBlockTableRecord
  2
*D3
340
0
  0
BLOCK_RECORD
  5
20
100
AcDbSymbolTableRecord
100
AcDbBlockTableRecord
  2
*D4
340
0
  0
ENDTAB
  0
ENDSEC
  0
SECTION
  2
BLOCKS
  0
BLOCK
  5
24
100
AcDbEntity
  8
0
390
0
100
AcDbBlockBegin
  2
*Model_Space
 70
     0
 10
0.0
 20
0.0
 30
0.0
  3
*Model_Space
  1

  0
ENDBLK
  5
25
100
AcDbEntity
  8
0
390
0
100
AcDbBlockEnd
  0
BLOCK
  5
26
100
AcDbEntity
 67
     1
  8
0
390
0
100
AcDbBlockBegin
  2
*Paper_Space
 70
     0
 10
0.0
 20
0.0
 30
0.0
  3
*Paper_Space
  1

  0
ENDBLK
  5
27
100
AcDbEntity
 67
     1
  8
0
390
0
100
AcDbBlockEnd
  0
BLOCK
  5
14E
100
AcDbEntity
  8
2
100
AcDbBlockBegin
  2
*D0
 70
     1
 10
0.0
 20
0.0
 30
0.0
  3
*D0
  1

  0
TEXT
  5
14F
100
AcDbEntity
  8
2
370
    25
100
AcDbText
 10
-131.097382
 20
-73.996335
 30
0.0
 40
3.5
  1
51
 50
90.0
 41
2.0
 72
     5
 11
-131.097382
 21
-68.396335
 31
0.0
100
AcDbText
  0
LINE
  5
150
100
AcDbEntity
  8
2
370
    25
100
AcDbLine
 10
-26.93921
 20
-95.996357
 30
0.0
 11
-131.597382
 21
-95.996357
 31
0.0
  0
LINE
  5
151
100
AcDbEntity
  8
2
370
    25
100
AcDbLine
 10
-130.597382
 20
-95.996357
 30
0.0
 11
-130.079744
 21
-94.064505
 31
0.0
  0
LINE
  5
152
100
AcDbEntity
  8
2
370
    25
100
AcDbLine
 10
-130.597382
 20
-95.996357
 30
0.0
 11
-131.11502
 21
-94.064505
 31
0.0
  0
LINE
  5
153
100
AcDbEntity
  8
2
370
    25
100
AcDbLine
 10
-130.079744
 20
-94.064505
 30
0.0
 11
-131.11502
 21
-94.064505
 31
0.0
  0
LINE
  5
154
100
AcDbEntity
  8
2
370
    25
100
AcDbLine
 10
-130.597382
 20
-95.996357
 30
0.0
 11
-130.597382
 21
-44.996312
 31
0.0
  0
LINE
  5
155
100
AcDbEntity
  8
2
370
    25
100
AcDbLine
 10
-130.597382
 20
-44.996312
 30
0.0
 11
-131.11502
 21
-46.928164
 31
0.0
  0
LINE
  5
156
100
AcDbEntity
  8
2
370
    25
100
AcDbLine
 10
-130.597382
 20
-44.996312
 30
0.0
 11
-130.079744
 21
-46.928164
 31
0.0
  0
LINE
  5
157
100
AcDbEntity
  8
2
370
    25
100
AcDbLine
 10
-131.11502
 20
-46.928164
 30
0.0
 11
-130.079744
 21
-46.928164
 31
0.0
  0
LINE
  5
158
100
AcDbEntity
  8
2
370
    25
100
AcDbLine
 10
-46.93921
 20
-44.996312
 30
0.0
 11
-131.597382
 21
-44.996312
 31
0.0
  0
ENDBLK
  5
159
100
AcDbEntity
  8
2
100
AcDbBlockEnd
  0
BLOCK
  5
15A
100
AcDbEntity
  8
2
100
AcDbBlockBegin
  2
*D1
 70
     1
 10
0.0
 20
0.0
 30
0.0
  3
*D1
  1

  0
LINE
  5
15B
100
AcDbEntity
  8
2
370
    25
100
AcDbLine
 10
-5.24614
 20
-45.996312
 30
0.0
 11
-5.24614
 21
-57.351078
 31
0.0
  0
LINE
  5
15C
100
AcDbEntity
  8
2
370
    25
100
AcDbLine
 10
-5.24614
 20
-56.351078
 30
0.0
 11
-7.177992
 21
-55.83344
 31
0.0
  0
LINE
  5
15D
100
AcDbEntity
  8
2
370
    25
100
AcDbLine
 10
-5.24614
 20
-56.351078
 30
0.0
 11
-7.177992
 21
-56.868716
 31
0.0
  0
LINE
  5
15E
100
AcDbEntity
  8
2
370
    25
100
AcDbLine
 10
-7.177992
 20
-55.83344
 30
0.0
 11
-7.177992
 21
-56.868716
 31
0.0
  0
LINE
  5
15F
100
AcDbEntity
  8
2
370
    25
100
AcDbLine
 10
-5.24614
 20
-56.351078
 30
0.0
 11
-31.18921
 21
-56.351078
 31
0.0
  0
ENDBLK
  5
160
100
AcDbEntity
  8
2
100
AcDbBlockEnd
  0
BLOCK
  5
161
100
AcDbEntity
  8
2
100
AcDbBlockBegin
  2
*D2
 70
     1
 10
0.0
 20
0.0
 30
0.0
  3
*D2
  1

  0
TEXT
  5
162
100
AcDbEntity
  8
2
370
    25
100
AcDbText
 10
-131.097382
 20
-33.496312
 30
0.0
 40
3.5
  1
３０
 50
90.0
 72
     5
 11
-131.097382
 21
-27.196312
 31
0.0
100
AcDbText
  0
LINE
  5
163
100
AcDbEntity
  8
2
370
    25
100
AcDbLine
 10
-43.702043
 20
-44.996312
 30
0.0
 11
-131.597382
 21
-44.996312
 31
0.0
  0
LINE
  5
164
100
AcDbEntity
  8
2
370
    25
100
AcDbLine
 10
-130.597382
 20
-44.996312
 30
0.0
 11
-130.079744
 21
-43.06446
 31
0.0
  0
LINE
  5
165
100
AcDbEntity
  8
2
370
    25
100
AcDbLine
 10
-130.597382
 20
-44.996312
 30
0.0
 11
-131.11502
 21
-43.06446
 31
0.0
  0
LINE
  5
166
100
AcDbEntity
  8
2
370
    25
100
AcDbLine
 10
-130.079744
 20
-43.06446
 30
0.0
 11
-131.11502
 21
-43.06446
 31
0.0
  0
LINE
  5
167
100
AcDbEntity
  8
2
370
    25
100
AcDbLine
 10
-130.597382
 20
-44.996312
 30
0.0
 11
-130.597382
 21
-14.996312
 31
0.0
  0
LINE
  5
168
100
AcDbEntity
  8
2
370
    25
100
AcDbLine
 10
-130.597382
 20
-14.996312
 30
0.0
 11
-131.11502
 21
-16.928164
 31
0.0
  0
LINE
  5
169
100
AcDbEntity
  8
2
370
    25
100
AcDbLine
 10
-130.597382
 20
-14.996312
 30
0.0
 11
-130.079744
 21
-16.928164
 31
0.0
  0
LINE
  5
16A
100
AcDbEntity
  8
2
370
    25
100
AcDbLine
 10
-131.11502
 20
-16.928164
 30
0.0
 11
-130.079744
 21
-16.928164
 31
0.0
  0
LINE
  5
16B
100
AcDbEntity
  8
2
370
    25
100
AcDbLine
 10
-101.93921
 20
-14.996312
 30
0.0
 11
-131.597382
 21
-14.996312
 31
0.0
  0
ENDBLK
  5
16C
100
AcDbEntity
  8
2
100
AcDbBlockEnd
  0
BLOCK
  5
16D
100
AcDbEntity
  8
2
100
AcDbBlockBegin
  2
*D3
 70
     1
 10
0.0
 20
0.0
 30
0.0
  3
*D3
  1

  0
TEXT
  5
16E
100
AcDbEntity
  8
2
370
    25
100
AcDbText
 10
-110.672172
 20
-31.03578
 30
0.0
 40
3.5
  1
３０゜
 50
345.0
 72
     5
 11
-101.206099
 21
-33.572206
 31
0.0
100
AcDbText
  0
LINE
  5
16F
100
AcDbEntity
  8
2
370
    25
100
AcDbLine
 10
-102.116122
 20
-17.034783
 30
0.0
 11
-110.695216
 21
-31.89421
 31
0.0
  0
LINE
  5
170
100
AcDbEntity
  8
2
370
    25
100
AcDbLine
 10
-100.93921
 20
-15.996312
 30
0.0
 11
-100.93921
 21
-34.508324
 31
0.0
  0
LINE
  5
171
100
AcDbEntity
  8
2
370
    25
100
AcDbLine
 10
-110.195216
 20
-31.028185
 30
0.0
 11
-108.709137
 21
-32.366681
 31
0.0
  0
LINE
  5
172
100
AcDbEntity
  8
2
370
    25
100
AcDbLine
 10
-110.195216
 20
-31.028185
 30
0.0
 11
-108.238986
 21
-31.444317
 31
0.0
  0
LINE
  5
173
100
AcDbEntity
  8
2
370
    25
100
AcDbLine
 10
-108.709137
 20
-32.366681
 30
0.0
 11
-108.238986
 21
-31.444317
 31
0.0
  0
LINE
  5
174
100
AcDbEntity
  8
2
370
    25
100
AcDbLine
 10
-100.93921
 20
-33.508324
 30
0.0
 11
-102.84142
 21
-32.89059
 31
0.0
  0
LINE
  5
175
100
AcDbEntity
  8
2
370
    25
100
AcDbLine
 10
-100.93921
 20
-33.508324
 30
0.0
 11
-102.895439
 21
-33.924456
 31
0.0
  0
LINE
  5
176
100
AcDbEntity
  8
2
370
    25
100
AcDbLine
 10
-102.84142
 20
-32.89059
 30
0.0
 11
-102.895439
 21
-33.924456
 31
0.0
  0
ARC
  5
177
100
AcDbEntity
  8
2
370
    25
100
AcDbCircle
 10
-100.93921
 20
-14.996312
 30
0.0
 40
18.512012
100
AcDbArc
 50
240.0
 51
270.0
  0
ENDBLK
  5
178
100
AcDbEntity
  8
2
100
AcDbBlockEnd
  0
BLOCK
  5
179
100
AcDbEntity
  8
2
100
AcDbBlockBegin
  2
*D4
 70
     1
 10
0.0
 20
0.0
 30
0.0
  3
*D4
  1

  0
LINE
  5
17A
100
AcDbEntity
  8
2
370
    25
100
AcDbLine
 10
-4.24614
 20
-44.996312
 30
0.0
 11
42.586845
 21
-44.996312
 31
0.0
  0
LINE
  5
17B
100
AcDbEntity
  8
2
370
    25
100
AcDbLine
 10
41.586845
 20
-44.996312
 30
0.0
 11
42.104483
 21
-43.06446
 31
0.0
  0
LINE
  5
17C
100
AcDbEntity
  8
2
370
    25
100
AcDbLine
 10
41.586845
 20
-44.996312
 30
0.0
 11
41.069207
 21
-43.06446
 31
0.0
  0
LINE
  5
17D
100
AcDbEntity
  8
2
370
    25
100
AcDbLine
 10
42.104483
 20
-43.06446
 30
0.0
 11
41.069207
 21
-43.06446
 31
0.0
  0
LINE
  5
17E
100
AcDbEntity
  8
2
370
    25
100
AcDbLine
 10
41.586845
 20
-44.996312
 30
0.0
 11
41.586845
 21
49.253688
 31
0.0
  0
LINE
  5
17F
100
AcDbEntity
  8
2
370
    25
100
AcDbLine
 10
41.586845
 20
49.253688
 30
0.0
 11
41.069207
 21
47.321836
 31
0.0
  0
LINE
  5
180
100
AcDbEntity
  8
2
370
    25
100
AcDbLine
 10
41.586845
 20
49.253688
 30
0.0
 11
42.104483
 21
47.321836
 31
0.0
  0
LINE
  5
181
100
AcDbEntity
  8
2
370
    25
100
AcDbLine
 10
41.069207
 20
47.321836
 30
0.0
 11
42.104483
 21
47.321836
 31
0.0
  0
LINE
  5
182
100
AcDbEntity
  8
2
370
    25
100
AcDbLine
 10
-24.926487
 20
49.253688
 30
0.0
 11
42.586845
 21
49.253688
 31
0.0
  0
ENDBLK
  5
183
100
AcDbEntity
  8
2
100
AcDbBlockEnd
  0
ENDSEC
  0
SECTION
  2
ENTITIES
  0
LINE
  5
29
100
AcDbEntity
  8
2
370
    25
  6
CENTER
100
AcDbLine
 10
-115.196598
 20
95.003688
 30
0.0
 11
6.447078
 21
95.003688
 31
0.0
  0
LINE
  5
2A
100
AcDbEntity
  8
2
370
    50
100
AcDbLine
 10
-42.702043
 20
-44.996312
 30
0.0
 11
-5.24614
 21
-44.996312
 31
0.0
  0
ARC
  5
2B
100
AcDbEntity
  8
2
370
    50
100
AcDbCircle
 10
-8.300426
 20
95.003688
 30
0.0
 40
100.0
100
AcDbArc
 50
175.622286
 51
184.356872
  0
ARC
  5
2C
100
AcDbEntity
  8
2
370
    50
100
AcDbCircle
 10
-139.161049
 20
602.52789
 30
0.0
 40
500.0
100
AcDbArc
 50
273.679231
 51
281.294821
  0
ARC
  5
2D
100
AcDbEntity
  8
2
370
    50
100
AcDbCircle
 10
-118.923929
 20
603.382994
 30
0.0
 40
500.0
100
AcDbArc
 50
271.362143
 51
278.86172
  0
ARC
  5
2E
100
AcDbEntity
  8
2
370
    50
100
AcDbCircle
 10
-118.923929
 20
-413.375618
 30
0.0
 40
500.0
100
AcDbArc
 50
81.13828
 51
88.637857
  0
ARC
  5
2F
100
AcDbEntity
  8
2
370
    50
100
AcDbCircle
 10
-139.161049
 20
-412.520514
 30
0.0
 40
500.0
100
AcDbArc
 50
78.705179
 51
86.320769
  0
ARC
  5
30
100
AcDbEntity
  8
2
370
    50
100
AcDbCircle
 10
-107.014337
 20
102.52457
 30
0.0
 40
1.0
100
AcDbArc
 50
91.362143
 51
175.643128
  0
ARC
  5
31
100
AcDbEntity
  8
2
370
    50
100
AcDbCircle
 10
-107.011595
 20
102.560478
 30
0.0
 40
1.0
100
AcDbArc
 50
93.679231
 51
175.622286
  0
ARC
  5
32
100
AcDbEntity
  8
2
370
    50
100
AcDbCircle
 10
-107.011595
 20
87.446898
 30
0.0
 40
1.0
100
AcDbArc
 50
184.377714
 51
266.320769
  0
ARC
  5
33
100
AcDbEntity
  8
2
370
    50
100
AcDbCircle
 10
-107.014337
 20
87.482807
 30
0.0
 40
1.0
100
AcDbArc
 50
184.356872
 51
268.637857
  0
POINT
  5
34
100
AcDbEntity
  8
2
370
    50
100
AcDbPoint
 10
-25.93921
 20
95.003688
 30
0.0
  0
ARC
  5
35
100
AcDbEntity
  8
2
370
    50
100
AcDbCircle
 10
-61.186444
 20
115.353688
 30
0.0
 40
20.2
100
AcDbArc
 50
301.491681
 51
358.509074
  0
ARC
  5
36
100
AcDbEntity
  8
2
370
    50
100
AcDbCircle
 10
-57.895547
 20
113.453688
 30
0.0
 40
17.9
100
AcDbArc
 50
294.062563
 51
5.938271
  0
ARC
  5
37
100
AcDbEntity
  8
2
370
    50
100
AcDbCircle
 10
-57.895547
 20
76.553688
 30
0.0
 40
17.9
100
AcDbArc
 50
354.061729
 51
65.937437
  0
ARC
  5
38
100
AcDbEntity
  8
2
370
    50
100
AcDbCircle
 10
-61.186444
 20
74.653688
 30
0.0
 40
20.2
100
AcDbArc
 50
1.490926
 51
58.508319
  0
ARC
  5
39
100
AcDbEntity
  8
2
370
    50
100
AcDbCircle
 10
-25.93921
 20
58.103688
 30
0.0
 40
17.9
100
AcDbArc
 50
54.059907
 51
125.938426
  0
ARC
  5
3A
100
AcDbEntity
  8
2
370
    50
100
AcDbCircle
 10
-25.93921
 20
54.303688
 30
0.0
 40
20.2
100
AcDbArc
 50
61.489121
 51
118.509368
  0
ARC
  5
3B
100
AcDbEntity
  8
2
370
    50
100
AcDbCircle
 10
6.017128
 20
76.553688
 30
0.0
 40
17.9
100
AcDbArc
 50
114.058919
 51
185.940248
  0
ARC
  5
3C
100
AcDbEntity
  8
2
370
    50
100
AcDbCircle
 10
6.017128
 20
113.453688
 30
0.0
 40
17.9
100
AcDbArc
 50
174.059752
 51
245.941081
  0
ARC
  5
3D
100
AcDbEntity
  8
2
370
    50
100
AcDbCircle
 10
9.308024
 20
115.353688
 30
0.0
 40
20.2
100
AcDbArc
 50
181.488827
 51
238.511929
  0
ARC
  5
3E
100
AcDbEntity
  8
2
370
    50
100
AcDbCircle
 10
-25.93921
 20
131.903688
 30
0.0
 40
17.9
100
AcDbArc
 50
234.061574
 51
305.940093
  0
ARC
  5
3F
100
AcDbEntity
  8
2
370
    50
100
AcDbCircle
 10
-25.93921
 20
135.703688
 30
0.0
 40
20.2
100
AcDbArc
 50
241.490632
 51
298.510879
  0
ARC
  5
40
100
AcDbEntity
  8
2
370
    50
100
AcDbCircle
 10
9.308024
 20
74.653688
 30
0.0
 40
20.2
100
AcDbArc
 50
121.488071
 51
178.511173
  0
ARC
  5
41
100
AcDbEntity
  8
2
370
    50
100
AcDbCircle
 10
-25.938673
 20
95.003688
 30
0.0
 40
25.28
100
AcDbArc
 50
114.63128
 51
125.371058
  0
ARC
  5
42
100
AcDbEntity
  8
2
370
    50
100
AcDbCircle
 10
-25.938673
 20
95.003688
 30
0.0
 40
25.28
100
AcDbArc
 50
174.629698
 51
185.370302
  0
ARC
  5
43
100
AcDbEntity
  8
2
370
    50
100
AcDbCircle
 10
-25.938673
 20
95.003688
 30
0.0
 40
25.28
100
AcDbArc
 50
234.628942
 51
245.36872
  0
ARC
  5
44
100
AcDbEntity
  8
2
370
    50
100
AcDbCircle
 10
-25.938673
 20
95.003688
 30
0.0
 40
25.28
100
AcDbArc
 50
294.629769
 51
305.367893
  0
ARC
  5
45
100
AcDbEntity
  8
2
370
    50
100
AcDbCircle
 10
-25.938673
 20
95.003688
 30
0.0
 40
25.28
100
AcDbArc
 50
354.631352
 51
5.368648
  0
ARC
  5
46
100
AcDbEntity
  8
2
370
    50
100
AcDbCircle
 10
-25.938673
 20
95.003688
 30
0.0
 40
25.28
100
AcDbArc
 50
54.632107
 51
65.370231
  0
CIRCLE
  5
47
100
AcDbEntity
  8
2
370
    50
100
AcDbCircle
 10
-25.93921
 20
95.003688
 30
0.0
 40
8.0
  0
POINT
  5
48
100
AcDbEntity
  8
2
370
    50
100
AcDbPoint
 10
-25.93921
 20
95.003688
 30
0.0
  0
POINT
  5
49
100
AcDbEntity
  8
2
370
    50
100
AcDbPoint
 10
-25.93921
 20
95.003688
 30
0.0
  0
ARC
  5
4A
100
AcDbEntity
  8
2
370
    50
100
AcDbCircle
 10
-39.993621
 20
75.205283
 30
0.0
 40
1.0
100
AcDbArc
 50
181.490926
 51
234.628942
  0
ARC
  5
4B
100
AcDbEntity
  8
2
370
    50
100
AcDbCircle
 10
-36.058022
 20
72.932957
 30
0.0
 40
1.0
100
AcDbArc
 50
245.36872
 51
298.509368
  0
ARC
  5
4C
100
AcDbEntity
  8
2
370
    50
100
AcDbCircle
 10
-15.819907
 20
72.93269
 30
0.0
 40
1.0
100
AcDbArc
 50
241.489121
 51
294.629769
  0
ARC
  5
4D
100
AcDbEntity
  8
2
370
    50
100
AcDbCircle
 10
-11.884819
 20
75.204507
 30
0.0
 40
1.0
100
AcDbArc
 50
305.367893
 51
358.511173
  0
ARC
  5
4E
100
AcDbEntity
  8
2
370
    50
100
AcDbCircle
 10
-1.765182
 20
92.731965
 30
0.0
 40
1.0
100
AcDbArc
 50
301.488071
 51
354.631352
  0
ARC
  5
4F
100
AcDbEntity
  8
2
370
    50
100
AcDbCircle
 10
-1.765182
 20
97.275411
 30
0.0
 40
1.0
100
AcDbArc
 50
5.368648
 51
58.511929
  0
ARC
  5
50
100
AcDbEntity
  8
2
370
    50
100
AcDbCircle
 10
-11.884819
 20
114.802869
 30
0.0
 40
1.0
100
AcDbArc
 50
1.488827
 51
54.632107
  0
ARC
  5
51
100
AcDbEntity
  8
2
370
    50
100
AcDbCircle
 10
-15.819907
 20
117.074686
 30
0.0
 40
1.0
100
AcDbArc
 50
65.370231
 51
118.510879
  0
ARC
  5
52
100
AcDbEntity
  8
2
370
    50
100
AcDbCircle
 10
-36.058022
 20
117.074419
 30
0.0
 40
1.0
100
AcDbArc
 50
61.490632
 51
114.63128
  0
ARC
  5
53
100
AcDbEntity
  8
2
370
    50
100
AcDbCircle
 10
-39.993621
 20
114.802093
 30
0.0
 40
1.0
100
AcDbArc
 50
125.371058
 51
178.509074
  0
ARC
  5
54
100
AcDbEntity
  8
2
370
    50
100
AcDbCircle
 10
-50.112099
 20
97.276109
 30
0.0
 40
1.0
100
AcDbArc
 50
121.491681
 51
174.629698
  0
ARC
  5
55
100
AcDbEntity
  8
2
370
    50
100
AcDbCircle
 10
-50.112099
 20
92.731268
 30
0.0
 40
1.0
100
AcDbArc
 50
185.370302
 51
238.508319
  0
ARC
  5
56
100
AcDbEntity
  8
2
370
    50
100
AcDbCircle
 10
-39.096966
 20
115.409024
 30
0.0
 40
1.0
100
AcDbArc
 50
122.815772
 51
185.938271
  0
ARC
  5
57
100
AcDbEntity
  8
2
370
    50
100
AcDbCircle
 10
-37.031912
 20
116.601337
 30
0.0
 40
1.0
100
AcDbArc
 50
54.061574
 51
117.186474
  0
ARC
  5
58
100
AcDbEntity
  8
2
370
    50
100
AcDbCircle
 10
-14.846062
 20
116.60166
 30
0.0
 40
1.0
100
AcDbArc
 50
62.815193
 51
125.940093
  0
ARC
  5
59
100
AcDbEntity
  8
2
370
    50
100
AcDbCircle
 10
-12.781386
 20
115.409673
 30
0.0
 40
1.0
100
AcDbArc
 50
354.059752
 51
57.187053
  0
ARC
  5
5A
100
AcDbEntity
  8
2
370
    50
100
AcDbCircle
 10
-1.687946
 20
96.195593
 30
0.0
 40
1.0
100
AcDbArc
 50
2.81378
 51
65.941081
  0
ARC
  5
5B
100
AcDbEntity
  8
2
370
    50
100
AcDbCircle
 10
-1.687946
 20
93.811783
 30
0.0
 40
1.0
100
AcDbArc
 50
294.058919
 51
357.18622
  0
ARC
  5
5C
100
AcDbEntity
  8
2
370
    50
100
AcDbCircle
 10
-12.781386
 20
74.597704
 30
0.0
 40
1.0
100
AcDbArc
 50
302.812947
 51
5.940248
  0
ARC
  5
5D
100
AcDbEntity
  8
2
370
    50
100
AcDbCircle
 10
-14.846062
 20
73.405716
 30
0.0
 40
1.0
100
AcDbArc
 50
234.059907
 51
297.184807
  0
ARC
  5
5E
100
AcDbEntity
  8
2
370
    50
100
AcDbCircle
 10
-37.031912
 20
73.406039
 30
0.0
 40
1.0
100
AcDbArc
 50
242.813526
 51
305.938426
  0
ARC
  5
5F
100
AcDbEntity
  8
2
370
    50
100
AcDbCircle
 10
-39.096966
 20
74.598352
 30
0.0
 40
1.0
100
AcDbArc
 50
174.061729
 51
237.184228
  0
ARC
  5
60
100
AcDbEntity
  8
2
370
    50
100
AcDbCircle
 10
-50.189376
 20
96.196083
 30
0.0
 40
1.0
100
AcDbArc
 50
114.062563
 51
177.185062
  0
ARC
  5
61
100
AcDbEntity
  8
2
370
    50
100
AcDbCircle
 10
-50.189376
 20
93.811293
 30
0.0
 40
1.0
100
AcDbArc
 50
182.814938
 51
245.937437
  0
POINT
  5
62
100
AcDbEntity
  8
2
370
    50
100
AcDbPoint
 10
-25.93921
 20
-1.746312
 30
0.0
  0
POINT
  5
63
100
AcDbEntity
  8
2
370
    50
100
AcDbPoint
 10
-25.93921
 20
-44.996312
 30
0.0
  0
LINE
  5
64
100
AcDbEntity
  8
2
370
    25
  6
CENTER
100
AcDbLine
 10
-25.93921
 20
12.432632
 30
0.0
 11
-25.93921
 21
-105.858513
 31
0.0
  0
LINE
  5
65
100
AcDbEntity
  8
2
370
    50
100
AcDbLine
 10
-25.939973
 20
-67.496312
 30
0.0
 11
-43.43921
 21
-67.496312
 31
0.0
  0
LINE
  5
66
100
AcDbEntity
  8
2
370
    25
100
AcDbLine
 10
-35.189973
 20
-90.496357
 30
0.0
 11
-35.189973
 21
-76.196312
 31
0.0
  0
LINE
  5
67
100
AcDbEntity
  8
2
370
    50
100
AcDbLine
 10
-36.189973
 20
-90.496357
 30
0.0
 11
-36.189973
 21
-76.196312
 31
0.0
  0
LINE
  5
68
100
AcDbEntity
  8
2
370
    50
100
AcDbLine
 10
-37.939973
 20
-76.196312
 30
0.0
 11
-25.939973
 21
-76.196312
 31
0.0
  0
LINE
  5
69
100
AcDbEntity
  8
2
370
    50
100
AcDbLine
 10
-39.689973
 20
-75.185949
 30
0.0
 11
-39.689973
 21
-69.696312
 31
0.0
  0
LINE
  5
6A
100
AcDbEntity
  8
2
370
    50
100
AcDbLine
 10
-37.939973
 20
-76.196312
 30
0.0
 11
-39.689973
 21
-75.185949
 31
0.0
  0
LINE
  5
6B
100
AcDbEntity
  8
2
370
    50
100
AcDbLine
 10
-45.939973
 20
-69.196312
 30
0.0
 11
-45.939973
 21
-67.996312
 31
0.0
  0
LINE
  5
6C
100
AcDbEntity
  8
2
370
    50
100
AcDbLine
 10
-25.939973
 20
-69.696312
 30
0.0
 11
-40.260523
 21
-69.696312
 31
0.0
  0
LINE
  5
6D
100
AcDbEntity
  8
2
370
    50
100
AcDbLine
 10
-45.939973
 20
-67.996312
 30
0.0
 11
-25.939973
 21
-67.996312
 31
0.0
  0
LINE
  5
6E
100
AcDbEntity
  8
2
370
    50
100
AcDbLine
 10
-45.939973
 20
-69.196312
 30
0.0
 11
-25.939973
 21
-69.196312
 31
0.0
  0
ARC
  5
6F
100
AcDbEntity
  8
2
370
    50
100
AcDbCircle
 10
-40.260523
 20
-64.696312
 30
0.0
 40
5.0
100
AcDbArc
 50
246.443536
 51
270.0
  0
ARC
  5
70
100
AcDbEntity
  8
2
370
    50
100
AcDbCircle
 10
-40.260523
 20
-72.496312
 30
0.0
 40
5.0
100
AcDbArc
 50
90.0
 51
113.556464
  0
ARC
  5
71
100
AcDbEntity
  8
2
370
    50
100
AcDbCircle
 10
-42.658439
 20
-70.196312
 30
0.0
 40
1.0
100
AcDbArc
 50
66.443536
 51
90.0
  0
ARC
  5
72
100
AcDbEntity
  8
2
370
    50
100
AcDbCircle
 10
-42.658439
 20
-66.996312
 30
0.0
 40
1.0
100
AcDbArc
 50
270.0
 51
293.556464
  0
LINE
  5
73
100
AcDbEntity
  8
2
370
    50
100
AcDbLine
 10
-32.939973
 20
-75.185949
 30
0.0
 11
-32.939973
 21
-69.696312
 31
0.0
  0
ARC
  5
74
100
AcDbEntity
  8
2
370
    50
100
AcDbCircle
 10
-25.939973
 20
-51.442419
 30
0.0
 40
24.753893
100
AcDbArc
 50
253.573579
 51
270.0
  0
ARC
  5
75
100
AcDbEntity
  8
2
370
    50
100
AcDbCircle
 10
-36.314973
 20
-70.054233
 30
0.0
 40
6.142079
100
AcDbArc
 50
236.668091
 51
303.331909
  0
ARC
  5
76
100
AcDbEntity
  8
2
370
    50
100
AcDbCircle
 10
-25.939973
 20
-53.446312
 30
0.0
 40
16.25
100
AcDbArc
 50
255.749967
 51
284.250033
  0
ARC
  5
77
100
AcDbEntity
  8
2
370
    50
100
AcDbCircle
 10
-34.189973
 20
-53.446312
 30
0.0
 40
16.25
100
AcDbArc
 50
255.749967
 51
277.069714
  0
ARC
  5
78
100
AcDbEntity
  8
2
370
    50
100
AcDbCircle
 10
-30.189973
 20
-53.446312
 30
0.0
 40
16.25
100
AcDbArc
 50
255.749967
 51
277.514045
  0
ARC
  5
79
100
AcDbEntity
  8
2
370
    50
100
AcDbCircle
 10
-38.189973
 20
-53.446312
 30
0.0
 40
16.25
100
AcDbArc
 50
270.0
 51
277.069714
  0
ARC
  5
7A
100
AcDbEntity
  8
2
370
    50
100
AcDbCircle
 10
-25.939973
 20
-83.746312
 30
0.0
 40
16.25
100
AcDbArc
 50
75.749967
 51
104.250033
  0
ARC
  5
7B
100
AcDbEntity
  8
2
370
    50
100
AcDbCircle
 10
-30.189973
 20
-83.746312
 30
0.0
 40
16.25
100
AcDbArc
 50
82.485955
 51
104.250033
  0
ARC
  5
7C
100
AcDbEntity
  8
2
370
    50
100
AcDbCircle
 10
-34.189973
 20
-83.746312
 30
0.0
 40
16.25
100
AcDbArc
 50
82.930286
 51
104.250033
  0
ARC
  5
7D
100
AcDbEntity
  8
2
370
    50
100
AcDbCircle
 10
-38.189973
 20
-83.746312
 30
0.0
 40
16.25
100
AcDbArc
 50
82.930286
 51
90.0
  0
LINE
  5
7E
100
AcDbEntity
  8
2
370
    50
100
AcDbLine
 10
-37.439526
 20
-102.496357
 30
0.0
 11
-25.939526
 21
-102.496357
 31
0.0
  0
ARC
  5
7F
100
AcDbEntity
  8
2
370
    50
100
AcDbCircle
 10
-23.664526
 20
-96.496357
 30
0.0
 40
15.025
100
AcDbArc
 50
156.463422
 51
203.536578
  0
LINE
  5
80
100
AcDbEntity
  8
2
370
    50
100
AcDbLine
 10
-37.439526
 20
-90.496357
 30
0.0
 11
-25.939526
 21
-90.496357
 31
0.0
  0
ELLIPSE
  5
81
100
AcDbEntity
  8
2
370
    50
100
AcDbEllipse
 10
-35.898818
 20
-96.496357
 30
0.0
 11
0.0
 21
6.0
 31
0.0
210
0.0
220
0.0
230
1.0
 40
0.458833
 41
0.0
 42
6.2831849999999996
  0
ELLIPSE
  5
82
100
AcDbEntity
  8
2
370
    50
100
AcDbEllipse
 10
-25.939526
 20
-96.496357
 30
0.0
 11
0.0
 21
6.0
 31
0.0
210
0.0
220
0.0
230
1.0
 40
0.926667
 41
0.0
 42
3.1415929999999999
  0
LINE
  5
83
100
AcDbEntity
  8
2
370
    50
100
AcDbLine
 10
-25.939078
 20
-67.496312
 30
0.0
 11
-8.43921
 21
-67.496312
 31
0.0
  0
LINE
  5
84
100
AcDbEntity
  8
2
370
    25
100
AcDbLine
 10
-16.689078
 20
-90.496357
 30
0.0
 11
-16.689078
 21
-76.196312
 31
0.0
  0
LINE
  5
85
100
AcDbEntity
  8
2
370
    50
100
AcDbLine
 10
-15.689078
 20
-90.496357
 30
0.0
 11
-15.689078
 21
-76.196312
 31
0.0
  0
LINE
  5
86
100
AcDbEntity
  8
2
370
    50
100
AcDbLine
 10
-13.939078
 20
-76.196312
 30
0.0
 11
-25.939078
 21
-76.196312
 31
0.0
  0
LINE
  5
87
100
AcDbEntity
  8
2
370
    50
100
AcDbLine
 10
-12.189078
 20
-75.185949
 30
0.0
 11
-12.189078
 21
-69.696312
 31
0.0
  0
LINE
  5
88
100
AcDbEntity
  8
2
370
    50
100
AcDbLine
 10
-13.939078
 20
-76.196312
 30
0.0
 11
-12.189078
 21
-75.185949
 31
0.0
  0
LINE
  5
89
100
AcDbEntity
  8
2
370
    50
100
AcDbLine
 10
-5.939078
 20
-69.196312
 30
0.0
 11
-5.939078
 21
-67.996312
 31
0.0
  0
LINE
  5
8A
100
AcDbEntity
  8
2
370
    50
100
AcDbLine
 10
-25.939078
 20
-69.696312
 30
0.0
 11
-11.618528
 21
-69.696312
 31
0.0
  0
LINE
  5
8B
100
AcDbEntity
  8
2
370
    50
100
AcDbLine
 10
-5.939078
 20
-67.996312
 30
0.0
 11
-25.939078
 21
-67.996312
 31
0.0
  0
LINE
  5
8C
100
AcDbEntity
  8
2
370
    50
100
AcDbLine
 10
-5.939078
 20
-69.196312
 30
0.0
 11
-25.939078
 21
-69.196312
 31
0.0
  0
ARC
  5
8D
100
AcDbEntity
  8
2
370
    50
100
AcDbCircle
 10
-11.618528
 20
-64.696312
 30
0.0
 40
5.0
100
AcDbArc
 50
270.0
 51
293.556464
  0
ARC
  5
8E
100
AcDbEntity
  8
2
370
    50
100
AcDbCircle
 10
-11.618528
 20
-72.496312
 30
0.0
 40
5.0
100
AcDbArc
 50
66.443536
 51
90.0
  0
ARC
  5
8F
100
AcDbEntity
  8
2
370
    50
100
AcDbCircle
 10
-9.220612
 20
-70.196312
 30
0.0
 40
1.0
100
AcDbArc
 50
90.0
 51
113.556464
  0
ARC
  5
90
100
AcDbEntity
  8
2
370
    50
100
AcDbCircle
 10
-9.220612
 20
-66.996312
 30
0.0
 40
1.0
100
AcDbArc
 50
246.443536
 51
270.0
  0
LINE
  5
91
100
AcDbEntity
  8
2
370
    50
100
AcDbLine
 10
-18.939078
 20
-75.185949
 30
0.0
 11
-18.939078
 21
-69.696312
 31
0.0
  0
ARC
  5
92
100
AcDbEntity
  8
2
370
    50
100
AcDbCircle
 10
-25.939078
 20
-51.442419
 30
0.0
 40
24.753893
100
AcDbArc
 50
270.0
 51
286.426421
  0
ARC
  5
93
100
AcDbEntity
  8
2
370
    50
100
AcDbCircle
 10
-15.564078
 20
-70.054233
 30
0.0
 40
6.142079
100
AcDbArc
 50
236.668091
 51
303.331909
  0
ARC
  5
94
100
AcDbEntity
  8
2
370
    50
100
AcDbCircle
 10
-17.689078
 20
-53.446312
 30
0.0
 40
16.25
100
AcDbArc
 50
262.930286
 51
284.250033
  0
ARC
  5
95
100
AcDbEntity
  8
2
370
    50
100
AcDbCircle
 10
-21.689078
 20
-53.446312
 30
0.0
 40
16.25
100
AcDbArc
 50
262.485955
 51
284.250033
  0
ARC
  5
96
100
AcDbEntity
  8
2
370
    50
100
AcDbCircle
 10
-13.689078
 20
-53.446312
 30
0.0
 40
16.25
100
AcDbArc
 50
262.930286
 51
270.0
  0
ARC
  5
97
100
AcDbEntity
  8
2
370
    50
100
AcDbCircle
 10
-21.689078
 20
-83.746312
 30
0.0
 40
16.25
100
AcDbArc
 50
75.749967
 51
97.514045
  0
ARC
  5
98
100
AcDbEntity
  8
2
370
    50
100
AcDbCircle
 10
-17.689078
 20
-83.746312
 30
0.0
 40
16.25
100
AcDbArc
 50
75.749967
 51
97.069714
  0
ARC
  5
99
100
AcDbEntity
  8
2
370
    50
100
AcDbCircle
 10
-13.689078
 20
-83.746312
 30
0.0
 40
16.25
100
AcDbArc
 50
90.0
 51
97.069714
  0
LINE
  5
9A
100
AcDbEntity
  8
2
370
    50
100
AcDbLine
 10
-14.439526
 20
-102.496357
 30
0.0
 11
-25.939526
 21
-102.496357
 31
0.0
  0
ARC
  5
9B
100
AcDbEntity
  8
2
370
    50
100
AcDbCircle
 10
-28.214526
 20
-96.496357
 30
0.0
 40
15.025
100
AcDbArc
 50
336.463422
 51
23.536578
  0
LINE
  5
9C
100
AcDbEntity
  8
2
370
    50
100
AcDbLine
 10
-14.439526
 20
-90.496357
 30
0.0
 11
-25.939526
 21
-90.496357
 31
0.0
  0
ELLIPSE
  5
9D
100
AcDbEntity
  8
2
370
    50
100
AcDbEllipse
 10
-15.980233
 20
-96.496357
 30
0.0
 11
0.0
 21
6.0
 31
0.0
210
0.0
220
0.0
230
1.0
 40
0.458833
 41
0.0
 42
6.2831849999999996
  0
ELLIPSE
  5
9E
100
AcDbEntity
  8
2
370
    50
100
AcDbEllipse
 10
-25.939526
 20
-96.496357
 30
0.0
 11
0.0
 21
6.0
 31
0.0
210
0.0
220
0.0
230
1.0
 40
0.926667
 41
3.1415929999999999
 42
0.0
  0
LINE
  5
9F
100
AcDbEntity
  8
2
370
    50
100
AcDbLine
 10
-15.689078
 20
-44.996312
 30
0.0
 11
-15.689078
 21
-65.996312
 31
0.0
  0
LINE
  5
A0
100
AcDbEntity
  8
2
370
    25
100
AcDbLine
 10
-16.689078
 20
-65.996312
 30
0.0
 11
-16.689078
 21
-48.496357
 31
0.0
  0
LINE
  5
A1
100
AcDbEntity
  8
2
370
    25
100
AcDbLine
 10
-35.189973
 20
-65.996312
 30
0.0
 11
-35.189973
 21
-48.496357
 31
0.0
  0
LINE
  5
A2
100
AcDbEntity
  8
2
370
    50
100
AcDbLine
 10
-36.189973
 20
-44.996312
 30
0.0
 11
-36.189973
 21
-65.996312
 31
0.0
  0
TEXT
  5
A3
100
AcDbEntity
  8
2
370
    50
100
AcDbText
 10
4.065706
 20
-86.815559
 30
0.0
 40
3.5
  1
２４六角
 72
     5
 11
17.365706
 21
-86.815559
 31
0.0
100
AcDbText
  0
TEXT
  5
A4
100
AcDbEntity
  8
2
370
    50
100
AcDbText
 10
-1.187883
 20
-108.452644
 30
0.0
 40
3.5
  1
２３六角
 72
     5
 11
12.112117
 21
-108.452644
 31
0.0
100
AcDbText
  0
TEXT
  5
A5
100
AcDbEntity
  8
2
370
    50
100
AcDbText
 10
-0.392313
 20
-98.618629
 30
0.0
 40
3.5
  1
取付穴φ２３±１
 72
     5
 11
26.907687
 21
-98.618629
 31
0.0
100
AcDbText
  0
ARC
  5
A6
100
AcDbEntity
  8
2
370
    50
100
AcDbCircle
 10
48.792312
 20
19.674525
 30
0.0
 40
100.0
100
AcDbArc
 50
168.537652
 51
188.388164
  0
ARC
  5
A7
100
AcDbEntity
  8
2
370
    50
100
AcDbCircle
 10
-40.392739
 20
37.758403
 30
0.0
 40
9.0
100
AcDbArc
 50
96.34007
 51
168.537652
  0
ARC
  5
A8
100
AcDbEntity
  8
2
370
    50
100
AcDbCircle
 10
-25.926487
 20
-92.440397
 30
0.0
 40
140.0
100
AcDbArc
 50
93.788374
 51
96.34007
  0
ARC
  5
A9
100
AcDbEntity
  8
2
370
    50
100
AcDbCircle
 10
-33.676487
 20
47.872627
 30
0.0
 40
1.0
100
AcDbArc
 50
95.629843
 51
180.0
  0
ARC
  5
AA
100
AcDbEntity
  8
2
370
    50
100
AcDbCircle
 10
-25.926487
 20
-30.746312
 30
0.0
 40
80.0
100
AcDbArc
 50
84.370157
 51
95.629843
  0
ARC
  5
AB
100
AcDbEntity
  8
2
370
    50
100
AcDbCircle
 10
-18.176487
 20
47.872627
 30
0.0
 40
1.0
100
AcDbArc
 50
0.0
 51
84.370157
  0
LINE
  5
AC
100
AcDbEntity
  8
2
370
    50
100
AcDbLine
 10
-16.676487
 20
47.253688
 30
0.0
 11
-35.176487
 21
47.253688
 31
0.0
  0
ARC
  5
AD
100
AcDbEntity
  8
2
370
    50
100
AcDbCircle
 10
-25.926487
 20
-92.440397
 30
0.0
 40
140.0
100
AcDbArc
 50
83.65993
 51
86.211626
  0
ARC
  5
AE
100
AcDbEntity
  8
2
370
    50
100
AcDbCircle
 10
-11.460234
 20
37.758403
 30
0.0
 40
9.0
100
AcDbArc
 50
11.462348
 51
83.65993
  0
ARC
  5
AF
100
AcDbEntity
  8
2
370
    50
100
AcDbCircle
 10
-100.645286
 20
19.674525
 30
0.0
 40
100.0
100
AcDbArc
 50
351.611836
 51
11.462348
  0
ARC
  5
B0
100
AcDbEntity
  8
2
370
    50
100
AcDbCircle
 10
-9.629457
 20
6.253688
 30
0.0
 40
8.0
100
AcDbArc
 50
270.0
 51
351.611836
  0
LINE
  5
B1
100
AcDbEntity
  8
2
370
    50
100
AcDbLine
 10
-9.629457
 20
-1.746312
 30
0.0
 11
-37.926487
 21
-1.746312
 31
0.0
  0
LINE
  5
B2
100
AcDbEntity
  8
2
370
    50
100
AcDbLine
 10
-37.926487
 20
-1.746312
 30
0.0
 11
-42.223517
 21
-1.746312
 31
0.0
  0
ARC
  5
B3
100
AcDbEntity
  8
2
370
    50
100
AcDbCircle
 10
-42.223517
 20
6.253688
 30
0.0
 40
8.0
100
AcDbArc
 50
188.388164
 51
270.0
  0
LINE
  5
B4
100
AcDbEntity
  8
2
370
    50
100
AcDbLine
 10
-17.176487
 20
47.872627
 30
0.0
 11
-17.176487
 21
47.253688
 31
0.0
  0
LINE
  5
B5
100
AcDbEntity
  8
2
370
    50
100
AcDbLine
 10
-34.676487
 20
47.872627
 30
0.0
 11
-34.676487
 21
47.253688
 31
0.0
  0
ARC
  5
B6
100
AcDbEntity
  8
2
370
    50
100
AcDbCircle
 10
-135.591427
 20
19.159353
 30
0.0
 40
120.0
100
AcDbArc
 50
355.059572
 51
9.155483
  0
ARC
  5
B7
100
AcDbEntity
  8
2
370
    50
100
AcDbCircle
 10
83.738454
 20
19.159353
 30
0.0
 40
120.0
100
AcDbArc
 50
170.844517
 51
184.940428
  0
ARC
  5
B8
100
AcDbEntity
  8
2
370
    50
100
AcDbCircle
 10
-25.926487
 20
36.833768
 30
0.0
 40
8.91992
100
AcDbArc
 50
9.155483
 51
170.844517
  0
ARC
  5
B9
100
AcDbEntity
  8
2
370
    50
100
AcDbCircle
 10
-25.926487
 20
9.679799
 30
0.0
 40
9.926111
100
AcDbArc
 50
184.940428
 51
355.059572
  0
LINE
  5
BA
100
AcDbEntity
  8
2
370
    50
100
AcDbLine
 10
-11.426487
 20
43.753688
 30
0.0
 11
-11.426487
 21
2.753688
 31
0.0
  0
LINE
  5
BB
100
AcDbEntity
  8
2
370
    50
100
AcDbLine
 10
-40.426487
 20
43.753688
 30
0.0
 11
-40.426487
 21
2.753688
 31
0.0
  0
ARC
  5
BC
100
AcDbEntity
  8
2
370
    50
100
AcDbCircle
 10
-100.645286
 20
19.674525
 30
0.0
 40
99.5
100
AcDbArc
 50
352.362481
 51
11.528523
  0
ARC
  5
BD
100
AcDbEntity
  8
2
370
    50
100
AcDbCircle
 10
48.792312
 20
19.674525
 30
0.0
 40
99.5
100
AcDbArc
 50
168.471477
 51
187.637519
  0
ARC
  5
BE
100
AcDbEntity
  8
2
370
    50
100
AcDbCircle
 10
-40.861706
 20
37.961326
 30
0.0
 40
8.0
100
AcDbArc
 50
105.117347
 51
168.471477
  0
ARC
  5
BF
100
AcDbEntity
  8
2
370
    50
100
AcDbCircle
 10
-42.426487
 20
43.753688
 30
0.0
 40
2.0
100
AcDbArc
 50
0.0
 51
105.117347
  0
ARC
  5
C0
100
AcDbEntity
  8
2
370
    50
100
AcDbCircle
 10
-10.991268
 20
37.961326
 30
0.0
 40
8.0
100
AcDbArc
 50
11.528523
 51
74.882653
  0
ARC
  5
C1
100
AcDbEntity
  8
2
370
    50
100
AcDbCircle
 10
-9.426487
 20
43.753688
 30
0.0
 40
2.0
100
AcDbArc
 50
74.882653
 51
180.0
  0
ARC
  5
C2
100
AcDbEntity
  8
2
370
    50
100
AcDbCircle
 10
-41.895966
 20
7.513678
 30
0.0
 40
8.0
100
AcDbArc
 50
187.637519
 51
252.175397
  0
ARC
  5
C3
100
AcDbEntity
  8
2
370
    50
100
AcDbCircle
 10
-43.426487
 20
2.753688
 30
0.0
 40
3.0
100
AcDbArc
 50
252.175397
 51
360.0
  0
ARC
  5
C4
100
AcDbEntity
  8
2
370
    50
100
AcDbCircle
 10
-8.426487
 20
2.753688
 30
0.0
 40
3.0
100
AcDbArc
 50
180.0
 51
287.824603
  0
ARC
  5
C5
100
AcDbEntity
  8
2
370
    50
100
AcDbCircle
 10
-9.957007
 20
7.513678
 30
0.0
 40
8.0
100
AcDbArc
 50
287.824603
 51
352.362481
  0
LINE
  5
C6
100
AcDbEntity
  8
2
370
    25
  6
CENTER
100
AcDbLine
 10
-25.93921
 20
-8.572713
 30
0.0
 11
-25.93921
 21
124.640396
 31
0.0
  0
POINT
  5
C7
100
AcDbEntity
  8
2
370
    50
100
AcDbPoint
 10
-25.926487
 20
17.133901
 30
0.0
  0
POINT
  5
C8
100
AcDbEntity
  8
2
370
    50
100
AcDbPoint
 10
-25.926487
 20
49.253688
 30
0.0
  0
POINT
  5
C9
100
AcDbEntity
  8
2
370
    50
100
AcDbPoint
 10
-25.93921
 20
-1.746312
 30
0.0
  0
POINT
  5
CA
100
AcDbEntity
  8
2
370
    50
100
AcDbPoint
 10
-25.93921
 20
-1.746312
 30
0.0
  0
POINT
  5
CB
100
AcDbEntity
  8
2
370
    50
100
AcDbPoint
 10
-25.93921
 20
-1.746312
 30
0.0
  0
POINT
  5
CC
100
AcDbEntity
  8
2
370
    50
100
AcDbPoint
 10
-25.93921
 20
-44.996312
 30
0.0
  0
POINT
  5
CD
100
AcDbEntity
  8
2
370
    50
100
AcDbPoint
 10
-25.93921
 20
-44.996312
 30
0.0
  0
LINE
  5
CE
100
AcDbEntity
  8
2
370
    50
100
AcDbLine
 10
-36.189973
 20
-48.496357
 30
0.0
 11
-15.689078
 21
-48.496357
 31
0.0
  0
LINE
  5
CF
100
AcDbEntity
  8
2
370
    50
100
AcDbLine
 10
-16.689078
 20
-48.496357
 30
0.0
 11
-15.689078
 21
-46.764306
 31
0.0
  0
LINE
  5
D0
100
AcDbEntity
  8
2
370
    50
100
AcDbLine
 10
-35.189341
 20
-48.496357
 30
0.0
 11
-36.189341
 21
-46.764306
 31
0.0
  0
ARC
  5
D1
100
AcDbEntity
  8
2
370
    50
100
AcDbCircle
 10
-37.93921
 20
-1.906488
 30
0.0
 40
12.0
100
AcDbArc
 50
247.11712
 51
321.693794
  0
POINT
  5
D2
100
AcDbEntity
  8
2
370
    50
100
AcDbPoint
 10
-25.93921
 20
-95.996357
 30
0.0
  0
LWPOLYLINE
  5
D3
100
AcDbEntity
  8
2
370
    25
100
AcDbPolyline
 90
        3
 70
     0
 10
-12.189078
 20
-72.748199
 10
3.138627
 20
-87.124771
 10
20.474495
 20
-87.124771
  0
LINE
  5
D8
100
AcDbEntity
  8
2
370
    25
100
AcDbLine
 10
-10.780035
 20
-74.069807
 30
0.0
 11
-10.425911
 21
-73.692255
 31
0.0
  0
LINE
  5
D9
100
AcDbEntity
  8
2
370
    25
100
AcDbLine
 10
-10.425911
 20
-73.692255
 30
0.0
 11
-12.189078
 21
-72.748199
 31
0.0
  0
LINE
  5
DA
100
AcDbEntity
  8
2
370
    25
100
AcDbLine
 10
-12.189078
 20
-72.748199
 30
0.0
 11
-11.134159
 21
-74.447359
 31
0.0
  0
LINE
  5
DB
100
AcDbEntity
  8
2
370
    25
100
AcDbLine
 10
-11.134159
 20
-74.447359
 30
0.0
 11
-10.780035
 21
-74.069807
 31
0.0
  0
LWPOLYLINE
  5
DC
100
AcDbEntity
  8
2
370
    25
100
AcDbPolyline
 90
        3
 70
     0
 10
-15.689078
 20
-85.061897
 10
-1.960503
 20
-94.129295
 10
41.257896
 20
-94.129295
  0
LINE
  5
E1
100
AcDbEntity
  8
2
370
    25
100
AcDbLine
 10
-14.07709
 20
-86.126577
 30
0.0
 11
-13.79181
 21
-85.694646
 31
0.0
  0
LINE
  5
E2
100
AcDbEntity
  8
2
370
    25
100
AcDbLine
 10
-13.79181
 20
-85.694646
 30
0.0
 11
-15.689078
 21
-85.061897
 31
0.0
  0
LINE
  5
E3
100
AcDbEntity
  8
2
370
    25
100
AcDbLine
 10
-15.689078
 20
-85.061897
 30
0.0
 11
-14.36237
 21
-86.558508
 31
0.0
  0
LINE
  5
E4
100
AcDbEntity
  8
2
370
    25
100
AcDbLine
 10
-14.36237
 20
-86.558508
 30
0.0
 11
-14.07709
 21
-86.126577
 31
0.0
  0
LWPOLYLINE
  5
E5
100
AcDbEntity
  8
2
370
    25
100
AcDbPolyline
 90
        3
 70
     0
 10
-13.209371
 20
-97.268347
 10
-1.960503
 20
-109.225548
 10
15.964879
 20
-109.225548
  0
LINE
  5
EA
100
AcDbEntity
  8
2
370
    25
100
AcDbLine
 10
-11.885658
 20
-98.675413
 30
0.0
 11
-11.508636
 21
-98.320725
 31
0.0
  0
LINE
  5
EB
100
AcDbEntity
  8
2
370
    25
100
AcDbLine
 10
-11.508636
 20
-98.320725
 30
0.0
 11
-13.209371
 21
-97.268347
 31
0.0
  0
LINE
  5
EC
100
AcDbEntity
  8
2
370
    25
100
AcDbLine
 10
-13.209371
 20
-97.268347
 30
0.0
 11
-12.262681
 21
-99.030101
 31
0.0
  0
LINE
  5
ED
100
AcDbEntity
  8
2
370
    25
100
AcDbLine
 10
-12.262681
 20
-99.030101
 30
0.0
 11
-11.885658
 21
-98.675413
 31
0.0
  0
TEXT
  5
EE
100
AcDbEntity
  8
2
370
    50
100
AcDbText
 10
-0.878857
 20
-93.66552
 30
0.0
 40
3.5
  1
ＰＪ１／２（給水栓ネジ）
 72
     5
 11
40.421143
 21
-93.66552
 31
0.0
100
AcDbText
  0
TEXT
  5
EF
100
AcDbEntity
  8
2
370
    50
100
AcDbText
 10
115.33268
 20
-136.190613
 30
0.0
 40
3.0
  1
外観寸法図
 72
     5
 11
129.73268
 21
-136.190613
 31
0.0
100
AcDbText
  0
LINE
  5
F0
100
AcDbEntity
  8
2
370
    50
100
AcDbLine
 10
-8.43921
 20
-65.996312
 30
0.0
 11
-43.43921
 21
-65.996312
 31
0.0
  0
LINE
  5
F1
100
AcDbEntity
  8
2
370
    50
100
AcDbLine
 10
-43.43921
 20
-65.996312
 30
0.0
 11
-43.43921
 21
-67.496312
 31
0.0
  0
LINE
  5
F2
100
AcDbEntity
  8
2
370
    50
100
AcDbLine
 10
-8.43921
 20
-67.496312
 30
0.0
 11
-8.43921
 21
-65.996312
 31
0.0
  0
TEXT
  5
F3
100
AcDbEntity
  8
2
370
    50
100
AcDbText
 10
171.751495
 20
-127.6502
 30
0.0
 40
3.0
  1
９９　　６　１５
 72
     5
 11
195.151495
 21
-127.6502
 31
0.0
100
AcDbText
  0
TEXT
  5
F4
100
AcDbEntity
  8
2
370
    50
100
AcDbText
 10
145.236115
 20
-119.257057
 30
0.0
 40
3.0
  1
１　１
 72
     5
 11
153.636115
 21
-119.257057
 31
0.0
100
AcDbText
  0
LINE
  5
F5
100
AcDbEntity
  8
2
370
    50
100
AcDbLine
 10
119.669193
 20
-75.371341
 30
0.0
 11
119.669193
 21
-95.540141
 31
0.0
  0
LINE
  5
F6
100
AcDbEntity
  8
2
370
    50
100
AcDbLine
 10
159.481193
 20
-75.371341
 30
0.0
 11
159.481193
 21
-95.540141
 31
0.0
  0
LINE
  5
F7
100
AcDbEntity
  8
2
370
    50
100
AcDbLine
 10
97.173993
 20
-88.817341
 30
0.0
 11
197.491193
 21
-88.817341
 31
0.0
  0
LINE
  5
F8
100
AcDbEntity
  8
2
370
    50
100
AcDbLine
 10
97.173993
 20
-82.094341
 30
0.0
 11
197.491193
 21
-82.094341
 31
0.0
  0
LINE
  5
F9
100
AcDbEntity
  8
2
370
    50
100
AcDbLine
 10
97.173993
 20
-75.371341
 30
0.0
 11
197.491193
 21
-75.371341
 31
0.0
  0
LINE
  5
FA
100
AcDbEntity
  8
2
370
    50
100
AcDbLine
 10
97.173993
 20
-75.371341
 30
0.0
 11
97.173993
 21
-95.540141
 31
0.0
  0
TEXT
  5
FB
100
AcDbEntity
  8
2
370
    50
100
AcDbText
 10
102.882896
 20
-80.386918
 30
0.0
 40
3.0
  1
コード№
 72
     5
 11
114.282896
 21
-80.386918
 31
0.0
100
AcDbText
  0
TEXT
  5
FC
100
AcDbEntity
  8
2
370
    50
100
AcDbText
 10
163.518881
 20
-80.199059
 30
0.0
 40
3.0
  1
ハンドルキャップ・色
 72
     5
 11
192.918881
 21
-80.199059
 31
0.0
100
AcDbText
  0
TEXT
  5
FD
100
AcDbEntity
  8
2
370
    50
100
AcDbText
 10
134.125278
 20
-80.642899
 30
0.0
 40
3.0
  1
品　番
 72
     5
 11
142.525278
 21
-80.642899
 31
0.0
100
AcDbText
  0
TEXT
  5
FE
100
AcDbEntity
  8
2
370
    50
100
AcDbText
 10
99.383057
 20
-86.871781
 30
0.0
 40
3.0
  1
５００６４０
 72
     5
 11
116.783057
 21
-86.871781
 31
0.0
100
AcDbText
  0
TEXT
  5
FF
100
AcDbEntity
  8
2
370
    50
100
AcDbText
 10
99.212349
 20
-93.35669
 30
0.0
 40
3.0
  1
５００６２９
 72
     5
 11
116.612349
 21
-93.35669
 31
0.0
100
AcDbText
  0
TEXT
  5
100
100
AcDbEntity
  8
2
370
    50
100
AcDbText
 10
121.662479
 20
-86.871781
 30
0.0
 40
3.0
  1
Ｋ１３－６ＱＣ－Ｍ－３２
 72
     5
 11
157.062479
 21
-86.871781
 31
0.0
100
AcDbText
  0
TEXT
  5
101
100
AcDbEntity
  8
2
370
    50
100
AcDbText
 10
121.662479
 20
-93.697984
 30
0.0
 40
3.0
  1
Ｋ１３－６ＱＨ－Ｍ３２
 72
     5
 11
154.062479
 21
-93.697984
 31
0.0
100
AcDbText
  0
TEXT
  5
102
100
AcDbEntity
  8
2
370
    50
100
AcDbText
 10
171.515754
 20
-86.851518
 30
0.0
 40
3.0
  1
サックス
 72
     5
 11
182.915754
 21
-86.851518
 31
0.0
100
AcDbText
  0
TEXT
  5
103
100
AcDbEntity
  8
2
370
    50
100
AcDbText
 10
171.978088
 20
-94.014985
 30
0.0
 40
3.0
  1
ピンク
 72
     5
 11
180.378088
 21
-94.014985
 31
0.0
100
AcDbText
  0
LINE
  5
104
100
AcDbEntity
  8
2
370
    50
100
AcDbLine
 10
119.669193
 20
-95.540141
 30
0.0
 11
119.669193
 21
-108.985941
 31
0.0
  0
LINE
  5
105
100
AcDbEntity
  8
2
370
    50
100
AcDbLine
 10
159.481193
 20
-95.540141
 30
0.0
 11
159.481193
 21
-108.985941
 31
0.0
  0
LINE
  5
106
100
AcDbEntity
  8
2
370
    50
100
AcDbLine
 10
97.173993
 20
-102.263141
 30
0.0
 11
197.491193
 21
-102.263141
 31
0.0
  0
LINE
  5
107
100
AcDbEntity
  8
2
370
    50
100
AcDbLine
 10
97.173993
 20
-95.540141
 30
0.0
 11
197.491193
 21
-95.540141
 31
0.0
  0
LINE
  5
108
100
AcDbEntity
  8
2
370
    50
100
AcDbLine
 10
97.173993
 20
-95.540141
 30
0.0
 11
97.173993
 21
-108.985941
 31
0.0
  0
TEXT
  5
109
100
AcDbEntity
  8
2
370
    50
100
AcDbText
 10
171.515754
 20
-100.297318
 30
0.0
 40
3.0
  1
サックス
 72
     5
 11
182.915754
 21
-100.297318
 31
0.0
100
AcDbText
  0
TEXT
  5
10A
100
AcDbEntity
  8
2
370
    50
100
AcDbText
 10
171.978088
 20
-107.460785
 30
0.0
 40
3.0
  1
ピンク
 72
     5
 11
180.378088
 21
-107.460785
 31
0.0
100
AcDbText
  0
TEXT
  5
10B
100
AcDbEntity
  8
2
370
    50
100
AcDbText
 10
99.212349
 20
-106.80249
 30
0.0
 40
3.0
  1
５００６３２
 72
     5
 11
116.612349
 21
-106.80249
 31
0.0
100
AcDbText
  0
TEXT
  5
10C
100
AcDbEntity
  8
2
370
    50
100
AcDbText
 10
121.662479
 20
-107.143784
 30
0.0
 40
3.0
  1
Ｋ１３－６ＱＡＨコテイ
 72
     5
 11
154.062479
 21
-107.143784
 31
0.0
100
AcDbText
  0
TEXT
  5
10D
100
AcDbEntity
  8
2
370
    50
100
AcDbText
 10
33.60384
 20
-113.916405
 30
0.0
 40
2.9
  1
１３ｍｍ　立水栓
 72
     5
 11
56.22384
 21
-113.916405
 31
0.0
100
AcDbText
  0
TEXT
  5
10E
100
AcDbEntity
  8
2
370
    50
100
AcDbText
 10
33.818821
 20
-118.208282
 30
0.0
 40
3.0
  1
Ｋ１３－６Ｑ
 72
     5
 11
51.218821
 21
-118.208282
 31
0.0
100
AcDbText
  0
TEXT
  5
10F
100
AcDbEntity
  8
2
370
    50
100
AcDbText
 10
121.662479
 20
-100.317581
 30
0.0
 40
3.0
  1
Ｋ１３－６ＱＡＣ
 72
     5
 11
145.062479
 21
-100.317581
 31
0.0
100
AcDbText
  0
TEXT
  5
110
100
AcDbEntity
  8
2
370
    50
100
AcDbText
 10
99.212349
 20
-100.07949
 30
0.0
 40
3.0
  1
５００６３３
 72
     5
 11
116.612349
 21
-100.07949
 31
0.0
100
AcDbText
  0
DIMENSION
  5
111
100
AcDbEntity
  8
2
370
    25
100
AcDbDimension
  2
*D0
 10
-130.597382
 20
-44.996312
 30
0.0
 11
-134.597382
 21
-70.496335
 31
0.0
 71
     0
 72
     0
 41
0.0
 42
0.0
  3
Standard
100
AcDbAlignedDimension
 13
-25.93921
 23
-95.996357
 33
0.0
 14
-45.93921
 24
-44.996312
 34
0.0
 50
90.0
100
AcDbRotatedDimension
  0
POINT
  5
112
100
AcDbEntity
  8
2
370
    50
100
AcDbPoint
 10
-100.93921
 20
-14.996312
 30
0.0
  0
LINE
  5
113
100
AcDbEntity
  8
2
370
    50
100
AcDbLine
 10
-12.739952
 20
-1.746312
 30
0.0
 11
-5.24614
 21
-44.996312
 31
0.0
  0
LINE
  5
114
100
AcDbEntity
  8
2
370
    50
100
AcDbLine
 10
-93.577994
 20
-19.246312
 30
0.0
 11
-108.300426
 21
-10.746312
 31
0.0
  0
LINE
  5
115
100
AcDbEntity
  8
2
370
    50
100
AcDbLine
 10
-108.300426
 20
-10.746312
 30
0.0
 11
-104.403311
 21
-3.996312
 31
0.0
  0
LINE
  5
116
100
AcDbEntity
  8
2
370
    50
100
AcDbLine
 10
-93.577994
 20
-19.246312
 30
0.0
 11
-91.262745
 21
-15.236183
 31
0.0
  0
ARC
  5
117
100
AcDbEntity
  8
2
370
    50
100
AcDbCircle
 10
-88.814854
 20
-12.996312
 30
0.0
 40
18.0
100
AcDbArc
 50
67.11712
 51
150.0
  0
LINE
  5
118
100
AcDbEntity
  8
2
370
    50
100
AcDbLine
 10
-81.815578
 20
3.587117
 30
0.0
 11
-42.605394
 21
-12.962108
 31
0.0
  0
ARC
  5
119
100
AcDbEntity
  8
2
370
    50
100
AcDbCircle
 10
-111.428217
 20
-85.944
 30
0.0
 40
80.0
100
AcDbArc
 50
30.786876
 51
67.895252
  0
ARC
  5
11A
100
AcDbEntity
  8
2
370
    50
100
AcDbCircle
 10
-84.334542
 20
-19.236183
 30
0.0
 40
8.0
100
AcDbArc
 50
67.895252
 51
150.0
  0
ARC
  5
11B
100
AcDbEntity
  8
2
370
    50
100
AcDbCircle
 10
-47.349515
 20
-2.276416
 30
0.0
 40
8.0
100
AcDbArc
 50
247.11712
 51
350.170108
  0
LINE
  5
11C
100
AcDbEntity
  8
2
370
    50
100
AcDbLine
 10
-39.138467
 20
-1.746312
 30
0.0
 11
-39.466963
 21
-3.642205
 31
0.0
  0
POINT
  5
11D
100
AcDbEntity
  8
2
370
    50
100
AcDbPoint
 10
-5.24614
 20
-44.996312
 30
0.0
  0
TEXT
  5
11E
100
AcDbEntity
  8
2
370
    50
100
AcDbText
 10
-31.18921
 20
-55.851078
 30
0.0
 40
3.5
  1
φ４０
 72
     5
 11
-21.38921
 21
-55.851078
 31
0.0
100
AcDbText
  0
DIMENSION
  5
11F
100
AcDbEntity
  8
2
370
    25
100
AcDbDimension
  2
*D1
 10
-46.632279
 20
-56.351078
 30
0.0
 11
-25.93921
 21
-54.351078
 31
0.0
 70
     1
 71
     0
 72
     0
 41
0.0
 42
0.0
  3
Standard
100
AcDbAlignedDimension
 13
-5.24614
 23
-44.996312
 33
0.0
 14
-46.632279
 24
-56.351078
 34
0.0
  0
DIMENSION
  5
120
100
AcDbEntity
  8
2
370
    25
100
AcDbDimension
  2
*D2
 10
-130.597382
 20
-14.996312
 30
0.0
 11
-134.597382
 21
-29.996312
 31
0.0
 71
     0
 72
     0
 41
0.0
 42
0.0
  3
Standard
100
AcDbAlignedDimension
 13
-42.702043
 23
-44.996312
 33
0.0
 14
-100.93921
 24
-14.996312
 34
0.0
 50
90.0
100
AcDbRotatedDimension
  0
DIMENSION
  5
121
100
AcDbEntity
  8
2
370
    25
100
AcDbDimension
  2
*D3
 10
-100.93921
 20
-14.998163
 30
0.0
 11
-100.529951
 21
-33.75338
 31
0.0
 70
     2
 71
     0
 72
     0
 41
0.0
 42
0.0
  3
Standard
100
AcDb2LineAngularDimension
 13
-101.616122
 23
-16.168758
 33
0.0
 14
-100.93921
 24
-14.996312
 34
0.0
 15
-100.93921
 25
-14.996312
 35
0.0
 16
-105.730471
 26
-32.877543
 36
0.0
1001
ACAD
1000
DSTYLE
1002
{
1070
   275
1070
     0
1070
   179
1070
     0
1002
}
  0
TEXT
  5
122
100
AcDbEntity
  8
2
370
    50
100
AcDbText
 10
41.086845
 20
-10.121312
 30
0.0
 40
3.5
  1
９４（止水時）
 50
90.0
 72
     5
 11
41.086845
 21
13.678688
 31
0.0
100
AcDbText
  0
DIMENSION
  5
123
100
AcDbEntity
  8
2
370
    25
100
AcDbDimension
  2
*D4
 10
41.586845
 20
49.253688
 30
0.0
 11
39.086845
 21
2.128688
 31
0.0
 71
     0
 72
     0
 41
0.0
 42
0.0
  3
Standard
100
AcDbAlignedDimension
 13
-5.24614
 23
-44.996312
 33
0.0
 14
-25.926487
 24
49.253688
 34
0.0
 50
90.0
100
AcDbRotatedDimension
  0
ARC
  5
124
100
AcDbEntity
  8
2
370
    50
100
AcDbCircle
 10
-104.853695
 20
-88.285695
 30
0.0
 40
80.0
100
AcDbArc
 50
32.75973
 51
72.895252
  0
LINE
  5
125
100
AcDbEntity
  8
2
370
   100
100
AcDbLine
 10
-186.510785
 20
137.514384
 30
0.0
 11
197.491193
 21
137.514384
 31
0.0
  0
LINE
  5
126
100
AcDbEntity
  8
2
370
   100
100
AcDbLine
 10
-186.510785
 20
137.514384
 30
0.0
 11
-186.510785
 21
-138.985941
 31
0.0
  0
LINE
  5
127
100
AcDbEntity
  8
2
370
   100
100
AcDbLine
 10
-186.510785
 20
-138.985941
 30
0.0
 11
197.491193
 21
-138.985941
 31
0.0
  0
LINE
  5
128
100
AcDbEntity
  8
2
370
   100
100
AcDbLine
 10
197.491193
 20
-138.985941
 30
0.0
 11
197.491193
 21
137.514384
 31
0.0
  0
TEXT
  5
129
100
AcDbEntity
  8
2
370
    50
100
AcDbText
 10
179.814221
 20
-113.126428
 30
0.0
 40
3.0
  1
設計
 72
     5
 11
185.214221
 21
-113.126428
 31
0.0
100
AcDbText
  0
TEXT
  5
12A
100
AcDbEntity
  8
2
370
    50
100
AcDbText
 10
189.563739
 20
-113.049829
 30
0.0
 40
3.0
  1
製図
 72
     5
 11
194.963739
 21
-113.049829
 31
0.0
100
AcDbText
  0
TEXT
  5
12B
100
AcDbEntity
  8
2
370
    50
100
AcDbText
 10
159.502872
 20
-113.126428
 30
0.0
 40
3.0
  1
承認
 72
     5
 11
164.902872
 21
-113.126428
 31
0.0
100
AcDbText
  0
TEXT
  5
12C
100
AcDbEntity
  8
2
370
    50
100
AcDbText
 10
169.494839
 20
-113.09901
 30
0.0
 40
3.0
  1
検図
 72
     5
 11
174.894839
 21
-113.09901
 31
0.0
100
AcDbText
  0
LINE
  5
12D
100
AcDbEntity
  8
2
370
    25
100
AcDbLine
 10
142.491193
 20
-113.985941
 30
0.0
 11
197.491193
 21
-113.985941
 31
0.0
  0
LINE
  5
12E
100
AcDbEntity
  8
2
370
    25
100
AcDbLine
 10
171.241193
 20
-122.985941
 30
0.0
 11
171.241193
 21
-129.985941
 31
0.0
  0
TEXT
  5
12F
100
AcDbEntity
  8
2
370
    50
100
AcDbText
 10
159.775795
 20
-128.006264
 30
0.0
 40
3.0
  1
日　付
 72
     5
 11
168.175795
 21
-128.006264
 31
0.0
100
AcDbText
  0
LINE
  5
130
100
AcDbEntity
  8
2
370
    50
100
AcDbLine
 10
20.491193
 20
-129.985941
 30
0.0
 11
197.491193
 21
-129.985941
 31
0.0
  0
TEXT
  5
131
100
AcDbEntity
  8
2
370
    50
100
AcDbText
 10
143.887505
 20
-128.161203
 30
0.0
 40
3.0
  1
第三角法
 72
     5
 11
155.287505
 21
-128.161203
 31
0.0
100
AcDbText
  0
TEXT
  5
132
100
AcDbEntity
  8
2
370
    50
100
AcDbText
 10
145.54371
 20
-112.99901
 30
0.0
 40
3.0
  1
尺　度
 72
     5
 11
153.94371
 21
-112.99901
 31
0.0
100
AcDbText
  0
LINE
  5
133
100
AcDbEntity
  8
2
370
   100
100
AcDbLine
 10
20.491193
 20
-108.985941
 30
0.0
 11
197.491193
 21
-108.985941
 31
0.0
  0
LINE
  5
134
100
AcDbEntity
  8
2
370
    50
100
AcDbLine
 10
105.991193
 20
-108.985941
 30
0.0
 11
105.991193
 21
-138.985941
 31
0.0
  0
LINE
  5
135
100
AcDbEntity
  8
2
370
    25
100
AcDbLine
 10
187.491193
 20
-122.985941
 30
0.0
 11
187.491193
 21
-108.985941
 31
0.0
  0
LINE
  5
136
100
AcDbEntity
  8
2
370
    25
100
AcDbLine
 10
177.491193
 20
-122.985941
 30
0.0
 11
177.491193
 21
-108.985941
 31
0.0
  0
LINE
  5
137
100
AcDbEntity
  8
2
370
    25
100
AcDbLine
 10
167.491193
 20
-122.985941
 30
0.0
 11
167.491193
 21
-108.985941
 31
0.0
  0
LINE
  5
138
100
AcDbEntity
  8
2
370
    50
100
AcDbLine
 10
142.491193
 20
-138.985941
 30
0.0
 11
142.491193
 21
-108.985941
 31
0.0
  0
LINE
  5
139
100
AcDbEntity
  8
2
370
    50
100
AcDbLine
 10
94.991193
 20
-108.985941
 30
0.0
 11
94.991193
 21
-138.985941
 31
0.0
  0
LINE
  5
13A
100
AcDbEntity
  8
2
370
    50
100
AcDbLine
 10
31.491193
 20
-108.985941
 30
0.0
 11
31.491193
 21
-129.985941
 31
0.0
  0
LINE
  5
13B
100
AcDbEntity
  8
2
370
    50
100
AcDbLine
 10
142.491193
 20
-122.985941
 30
0.0
 11
197.491193
 21
-122.985941
 31
0.0
  0
TEXT
  5
13C
100
AcDbEntity
  8
2
370
    50
100
AcDbText
 10
143.550565
 20
-135.940469
 30
0.0
 40
3.0
  1
コードＮｏ
 41
0.9
 72
     5
 11
156.510565
 21
-135.940469
 31
0.0
100
AcDbText
  0
TEXT
  5
13D
100
AcDbEntity
  8
2
370
   100
100
AcDbText
 10
26.443387
 20
-136.43783
 30
0.0
 40
4.0
  1
ミズタニバルブ工業株式会社
 41
1.2
 72
     5
 11
87.883387
 21
-136.43783
 31
0.0
100
AcDbText
  0
LINE
  5
13E
100
AcDbEntity
  8
2
370
    50
100
AcDbLine
 10
20.491193
 20
-119.485941
 30
0.0
 11
142.491193
 21
-119.485941
 31
0.0
  0
LINE
  5
13F
100
AcDbEntity
  8
2
370
    50
100
AcDbLine
 10
57.741193
 20
-119.485941
 30
0.0
 11
57.741193
 21
-129.985941
 31
0.0
  0
LINE
  5
140
100
AcDbEntity
  8
2
370
    50
100
AcDbLine
 10
68.741193
 20
-119.485941
 30
0.0
 11
68.741193
 21
-129.985941
 31
0.0
  0
LINE
  5
141
100
AcDbEntity
  8
2
370
    50
100
AcDbLine
 10
157.491193
 20
-138.985941
 30
0.0
 11
157.491193
 21
-108.985941
 31
0.0
  0
TEXT
  5
142
100
AcDbEntity
  8
2
370
    50
100
AcDbText
 10
172.549065
 20
-128.050147
 30
0.0
 40
3.0
  1
　　・　　・
 72
     5
 11
189.949065
 21
-128.050147
 31
0.0
100
AcDbText
  0
LINE
  5
143
100
AcDbEntity
  8
2
370
   100
100
AcDbLine
 10
20.491193
 20
-108.985941
 30
0.0
 11
20.491193
 21
-138.985941
 31
0.0
  0
TEXT
  5
144
100
AcDbEntity
  8
2
370
    50
100
AcDbText
 10
145.416291
 20
-120.006746
 30
0.0
 40
3.0
  1
　／ 
 72
     5
 11
150.816291
 21
-120.006746
 31
0.0
100
AcDbText
  0
TEXT
  5
145
100
AcDbEntity
  8
2
370
    50
100
AcDbText
 10
96.952061
 20
-136.012454
 30
0.0
 40
3.0
  1
備 考 
 72
     5
 11
103.852061
 21
-136.012454
 31
0.0
100
AcDbText
  0
TEXT
  5
146
100
AcDbEntity
  8
2
370
    50
100
AcDbText
 10
96.756267
 20
-115.44592
 30
0.0
 40
3.0
  1
仕 上
 72
     5
 11
103.656267
 21
-115.44592
 31
0.0
100
AcDbText
  0
TEXT
  5
147
100
AcDbEntity
  8
2
370
    50
100
AcDbText
 10
96.723588
 20
-124.445833
 30
0.0
 40
3.0
  1
表 面
 72
     5
 11
103.623588
 21
-124.445833
 31
0.0
100
AcDbText
  0
TEXT
  5
148
100
AcDbEntity
  8
2
370
    50
100
AcDbText
 10
96.723588
 20
-127.945833
 30
0.0
 40
3.0
  1
処 理
 72
     5
 11
103.623588
 21
-127.945833
 31
0.0
100
AcDbText
  0
TEXT
  5
149
100
AcDbEntity
  8
2
370
    50
100
AcDbText
 10
22.396675
 20
-115.8467
 30
0.0
 40
3.0
  1
品 名
 72
     5
 11
29.296675
 21
-115.8467
 31
0.0
100
AcDbText
  0
TEXT
  5
14A
100
AcDbEntity
  8
2
370
    50
100
AcDbText
 10
22.198883
 20
-126.231267
 30
0.0
 40
3.0
  1
材 質
 72
     5
 11
29.098883
 21
-126.231267
 31
0.0
100
AcDbText
  0
TEXT
  5
14B
100
AcDbEntity
  8
2
370
    50
100
AcDbText
 10
59.448883
 20
-126.231267
 30
0.0
 40
3.0
  1
規 格
 72
     5
 11
66.348883
 21
-126.231267
 31
0.0
100
AcDbText
  0
LINE
  5
14C
100
AcDbEntity
  8
2
370
    50
100
AcDbLine
 10
-12.696635
 20
-1.746312
 30
0.0
 11
-9.642218
 21
-1.746312
 31
0.0
  0
POINT
  5
14D
100
AcDbEntity
  8
3
370
    50
100
AcDbPoint
 10
-186.510785
 20
-138.985941
 30
0.0
  0
ENDSEC
  0
SECTION
  2
OBJECTS
  0
DICTIONARY
  5
184
100
AcDbDictionary
280
     0
281
     1
  3
ACAD_GROUP
350
185
  3
ACAD_MLINESTYLE
350
186
  0
DICTIONARY
  5
185
102
{ACAD_REACTORS
330
184
102
}
100
AcDbDictionary
280
     0
281
     1
  0
DICTIONARY
  5
186
102
{ACAD_REACTORS
330
184
102
}
100
AcDbDictionary
280
     0
281
     1
  3
Standard
350
187
  0
MLINESTYLE
  5
187
102
{ACAD_REACTORS
330
186
102
}
100
AcDbMlineStyle
  2
Standard
 70
     0
  3

 62
     0
 51
90.0
 52
90.0
 71
     2
 49
0.5
 62
   256
  6
ByLayer
 49
-0.5
 62
   256
  6
ByLayer
  0
ENDSEC
  0
EOF
