  0
SECTION
  2
HEADER
  9
$ACADVER
  1
AC1015
  9
$ACADMAINTVER
 70
     6
  9
$DWGCODEPAGE
  3
ANSI_932
  9
$INSBASE
 10
0.0
 20
0.0
 30
0.0
  9
$EXTMIN
 10
-420.5
 20
-297.0
 30
1.000000E+20
  9
$EXTMAX
 10
420.5
 20
297.0
 30
-1.000000E+20
  9
$LIMMIN
 10
-420.5
 20
-297.0
  9
$LIMMAX
 10
420.5
 20
297.0
  9
$ORTHOMODE
 70
     0
  9
$REGENMODE
 70
     1
  9
$FILLMODE
 70
     1
  9
$QTEXTMODE
 70
     0
  9
$MIRRTEXT
 70
     1
  9
$LTSCALE
 40
1.0
  9
$ATTMODE
 70
     1
  9
$TEXTSIZE
 40
0.2
  9
$TRACEWID
 40
0.05
  9
$TEXTSTYLE
  7
STANDARD
  9
$CLAYER
  8
0
  9
$CELTYPE
  6
CONTINUOUS
  9
$CECOLOR
 62
   256
  9
$CELTSCALE
 40
1.0
  9
$DISPSILH
 70
     0
  9
$DIMSCALE
 40
1.0
  9
$DIMASZ
 40
2.0
  9
$DIMEXO
 40
1.0
  9
$DIMDLI
 40
0.38
  9
$DIMRND
 40
0.0
  9
$DIMDLE
 40
0.0
  9
$DIMEXE
 40
2.0
  9
$DIMTP
 40
0.0
  9
$DIMTM
 40
0.0
  9
$DIMTXT
 40
3.5
  9
$DIMCEN
 40
0.09
  9
$DIMTSZ
 40
0.0
  9
$DIMTOL
 70
     0
  9
$DIMLIM
 70
     0
  9
$DIMTIH
 70
     0
  9
$DIMTOH
 70
     0
  9
$DIMSE1
 70
     0
  9
$DIMSE2
 70
     0
  9
$DIMTAD
 70
     1
  9
$DIMZIN
 70
     0
  9
$DIMBLK
  1

  9
$DIMASO
 70
     1
  9
$DIMSHO
 70
     1
  9
$DIMPOST
  1

  9
$DIMAPOST
  1

  9
$DIMALT
 70
     0
  9
$DIMALTD
 70
     2
  9
$DIMALTF
 40
25.4
  9
$DIMLFAC
 40
1.0
  9
$DIMTOFL
 70
     0
  9
$DIMTVP
 40
0.0
  9
$DIMTIX
 70
     0
  9
$DIMSOXD
 70
     0
  9
$DIMSAH
 70
     0
  9
$DIMBLK1
  1

  9
$DIMBLK2
  1

  9
$DIMSTYLE
  2
Standard
  9
$DIMCLRD
 70
     0
  9
$DIMCLRE
 70
     0
  9
$DIMCLRT
 70
     0
  9
$DIMTFAC
 40
1.0
  9
$DIMGAP
 40
0.5
  9
$DIMJUST
 70
     0
  9
$DIMSD1
 70
     0
  9
$DIMSD2
 70
     0
  9
$DIMTOLJ
 70
     1
  9
$DIMTZIN
 70
     0
  9
$DIMALTZ
 70
     0
  9
$DIMALTTZ
 70
     0
  9
$DIMUPT
 70
     0
  9
$DIMDEC
 70
     3
  9
$DIMTDEC
 70
     4
  9
$DIMALTU
 70
     2
  9
$DIMALTTD
 70
     2
  9
$DIMTXSTY
  7
STANDARD
  9
$DIMAUNIT
 70
     0
  9
$DIMADEC
 70
     0
  9
$DIMALTRND
 40
0.0
  9
$DIMAZIN
 70
     0
  9
$DIMDSEP
 70
     0
  9
$DIMATFIT
 70
     3
  9
$DIMFRAC
 70
     0
  9
$DIMLDRBLK
  1

  9
$DIMLUNIT
 70
     2
  9
$DIMLWD
 70
     0
  9
$DIMLWE
 70
     0
  9
$DIMTMOVE
 70
     0
  9
$LUNITS
 70
     2
  9
$LUPREC
 70
     4
  9
$SKETCHINC
 40
0.1
  9
$FILLETRAD
 40
0.0
  9
$AUNITS
 70
     0
  9
$AUPREC
 70
     0
  9
$MENU
  1
acad
  9
$ELEVATION
 40
0.0
  9
$PELEVATION
 40
0.0
  9
$THICKNESS
 40
0.0
  9
$LIMCHECK
 70
     0
  9
$CHAMFERA
 40
0.0
  9
$CHAMFERB
 40
0.0
  9
$CHAMFERC
 40
0.0
  9
$CHAMFERD
 40
0.0
  9
$SKPOLY
 70
     0
  9
$TDCREATE
 40
2453584.000000000
  9
$TDUCREATE
 40
0.000000000
  9
$TDUPDATE
 40
0.000000000
  9
$TDUUPDATE
 40
2447892.625000000
  9
$TDINDWG
 40
0.0000000000
  9
$TDUSRTIMER
 40
0.0000000000
  9
$USRTIMER
 70
     1
  9
$ANGBASE
 50
0.0
  9
$ANGDIR
 70
     0
  9
$PDMODE
 70
     0
  9
$PDSIZE
 40
0.0
  9
$PLINEWID
 40
0.0
  9
$SPLFRAME
 70
     0
  9
$SPLINETYPE
 70
     6
  9
$SPLINESEGS
 70
     8
  9
$HANDSEED
  5
1E8
  9
$SURFTAB1
 70
     6
  9
$SURFTAB2
 70
     6
  9
$SURFTYPE
 70
     6
  9
$SURFU
 70
     6
  9
$SURFV
 70
     6
  9
$UCSBASE
  2

  9
$UCSNAME
  2

  9
$UCSORG
 10
0.0
 20
0.0
 30
0.0
  9
$UCSXDIR
 10
1.0
 20
0.0
 30
0.0
  9
$UCSYDIR
 10
0.0
 20
1.0
 30
0.0
  9
$UCSORTHOREF
  2

  9
$UCSORTHOVIEW
 70
     0
  9
$UCSORGTOP
 10
0.0
 20
0.0
 30
0.0
  9
$UCSORGBOTTOM
 10
0.0
 20
0.0
 30
0.0
  9
$UCSORGLEFT
 10
0.0
 20
0.0
 30
0.0
  9
$UCSORGRIGHT
 10
0.0
 20
0.0
 30
0.0
  9
$UCSORGFRONT
 10
0.0
 20
0.0
 30
0.0
  9
$UCSORGBACK
 10
0.0
 20
0.0
 30
0.0
  9
$PUCSBASE
  2

  9
$PUCSNAME
  2

  9
$PUCSORG
 10
0.0
 20
0.0
 30
0.0
  9
$PUCSXDIR
 10
1.0
 20
0.0
 30
0.0
  9
$PUCSYDIR
 10
0.0
 20
1.0
 30
0.0
  9
$PUCSORTHOREF
  2

  9
$PUCSORTHOVIEW
 70
     0
  9
$PUCSORGTOP
 10
0.0
 20
0.0
 30
0.0
  9
$PUCSORGBOTTOM
 10
0.0
 20
0.0
 30
0.0
  9
$PUCSORGLEFT
 10
0.0
 20
0.0
 30
0.0
  9
$PUCSORGRIGHT
 10
0.0
 20
0.0
 30
0.0
  9
$PUCSORGFRONT
 10
0.0
 20
0.0
 30
0.0
  9
$PUCSORGBACK
 10
0.0
 20
0.0
 30
0.0
  9
$USERI1
 70
     0
  9
$USERI2
 70
     0
  9
$USERI3
 70
     0
  9
$USERI4
 70
     0
  9
$USERI5
 70
     0
  9
$USERR1
 40
0.0
  9
$USERR2
 40
0.0
  9
$USERR3
 40
0.0
  9
$USERR4
 40
0.0
  9
$USERR5
 40
0.0
  9
$WORLDVIEW
 70
     1
  9
$SHADEDGE
 70
     3
  9
$SHADEDIF
 70
    70
  9
$TILEMODE
 70
     1
  9
$MAXACTVP
 70
    16
  9
$PINSBASE
 10
0.0
 20
0.0
 30
0.0
  9
$PLIMCHECK
 70
     0
  9
$PEXTMIN
 10
1.000000E+20
 20
1.000000E+20
 30
1.000000E+20
  9
$PEXTMAX
 10
-1.000000E+20
 20
-1.000000E+20
 30
-1.000000E+20
  9
$PLIMMIN
 10
0.0
 20
0.0
  9
$PLIMMAX
 10
12.0
 20
9.0
  9
$UNITMODE
 70
     0
  9
$VISRETAIN
 70
     0
  9
$PLINEGEN
 70
     1
  9
$PSLTSCALE
 70
     0
  9
$TREEDEPTH
 70
  3020
  9
$CMLSTYLE
  2
Standard
  9
$CMLJUST
 70
     0
  9
$CMLSCALE
 40
1.0
  9
$PROXYGRAPHICS
 70
     0
  9
$MEASUREMENT
 70
     0
  9
$CELWEIGHT
370
     0
  9
$ENDCAPS
280
     0
  9
$JOINSTYLE
280
     0
  9
$LWDISPLAY
290
     0
  9
$INSUNITS
 70
     0
  9
$HYPERLINKBASE
  1

  9
$STYLESHEET
  1

  9
$XEDIT
290
     1
  9
$CEPSNTYPE
380
     0
  9
$PSTYLEMODE
290
     1
  9
$FINGERPRINTGUID
  2

  9
$VERSIONGUID
  2

  9
$EXTNAMES
290
     1
  9
$PSVPSCALE
 40
0.0
  0
ENDSEC
  0
SECTION
  2
CLASSES
  0
CLASS
  1
LWPOLYLINE
  2
AcDbPolyline
  3
AutoCAD 2000
 90
        0
280
     0
281
     1
  0
CLASS
  1
IMAGE
  2
AcDbRasterImage
  3
ISM
 90
      127
280
     0
281
     1
  0
CLASS
  1
OLE2FRAME
  2
AcDbOle2Frame
  3
AutoCAD 2000
 90
        0
280
     0
281
     1
  0
CLASS
  1
HATCH
  2
AcDbHatch
  3
AutoCAD 2000
 90
        0
280
     0
281
     1
  0
CLASS
  1
DICTIONARYVAR
  2
AcDbDictionaryVar
  3
AutoCAD 2000
 90
        0
280
     0
281
     0
  0
CLASS
  1
RASTERVARIABLES
  2
AcDbRasterVariables
  3
ISM
 90
        0
280
     0
281
     0
  0
CLASS
  1
IMAGEDEF
  2
AcDbRasterImageDef
  3
ISM
 90
        0
280
     0
281
     0
  0
CLASS
  1
IMAGEDEF_REACTOR
  2
AcDbRasterImageDefReactor
  3
ISM
 90
        1
280
     0
281
     0
  0
CLASS
  1
IDBUFFER
  2
AcDbIdBuffer
  3
AutoCAD 2000
 90
        0
280
     0
281
     0
  0
CLASS
  1
SPATIAL_FILTER
  2
AcDbSpatialFilter
  3
AutoCAD 2000
 90
        0
280
     0
281
     0
  0
CLASS
  1
XRECORD
  2
AcDbXrecord
  3
AutoCAD 2000
 90
        0
280
     0
281
     0
  0
CLASS
  1
SORTENTSTABLE
  2
AcDbSortentsTable
  3
AutoCAD 2000
 90
        0
280
     0
281
     0
  0
CLASS
  1
LAYER_INDEX
  2
AcDbLayerIndex
  3
AutoCAD 2000
 90
        0
280
     0
281
     0
  0
CLASS
  1
SPATIAL_INDEX
  2
AcDbSpatialIndex
  3
AutoCAD 2000
 90
        0
280
     0
281
     0
  0
CLASS
  1
OBJECT_PTR
  2
CAseDLPNTableRecord
  3
"ASE-LPNTableRecord"
 90
        1
280
     0
281
     0
  0
CLASS
  1
LAYOUT
  2
AcDbLayout
  3
AutoCAD 2000
 90
        0
280
     0
281
     0
  0
CLASS
  1
PLOTSETTINGS
  2
AcDbPlotSettings
  3
AutoCAD 2000
 90
        0
280
     0
281
     0
  0
CLASS
  1
ACDBDICTIONARYWDFLT
  2
AcDbDictionaryWithDefault
  3
AutoCAD 2000
 90
        0
280
     0
281
     0
  0
CLASS
  1
ACDBPLACEHOLDER
  2
AcDbPlaceHolder
  3
AutoCAD 2000
 90
        0
280
     0
281
     0
  0
CLASS
  1
VBA_PROJECT
  2
AcDbVbaProject
  3
acadvba
 90
        0
280
     0
281
     0
  0
CLASS
  1
WIPEOUT
  2
AcDbWipeout
  3
WipeOut|AutoCAD Express Tool|expresstools@autodesk.com
 90
      127
280
     0
281
     1
  0
CLASS
  1
WIPEOUTVARIABLES
  2
AcDbWipeoutVariables
  3
WipeOut|AutoCAD Express Tool|expresstools@autodesk.com
 90
        0
280
     0
281
     0
  0
CLASS
  1
RTEXT
  2
RText
  3
RText|AutoCAD Express Tool|expresstools@autodesk.com
 90
        0
280
     0
281
     1
  0
CLASS
  1
ARCALIGNEDTEXT
  2
AcDbArcAlignedText
  3
ATEXT|AutoCAD Express Tool|expresstools@autodesk.com
 90
        0
280
     0
281
     1
  0
ENDSEC
  0
SECTION
  2
TABLES
  0
TABLE
  2
VPORT
  5
6
100
AcDbSymbolTable
 70
     1
  0
VPORT
  5
19
100
AcDbSymbolTableRecord
100
AcDbViewportTableRecord
  2
*ACTIVE
 70
     0
 10
0.0
 20
0.0
 11
1.0
 21
1.0
 12
0.0
 22
0.0
 13
0.0
 23
0.0
 14
1.0
 24
1.0
 15
0.0
 25
0.0
 16
0.0
 26
0.0
 36
1.0
 17
0.0
 27
0.0
 37
0.0
 40
594.0
 41
1.415825
 42
50.0
 43
0.0
 44
0.0
 50
0.0
 51
0.0
 71
     0
 72
   500
 73
     1
 74
     1
 75
     0
 76
     0
 77
     0
 78
     0
281
     0
 65
     0
110
0.0
120
0.0
130
0.0
111
1.0
121
0.0
131
0.0
112
0.0
122
1.0
132
0.0
345
0
346
0
 79
     0
146
0.0
  0
ENDTAB
  0
TABLE
  2
LTYPE
  5
3
100
AcDbSymbolTable
 70
     9
  0
LTYPE
  5
C
100
AcDbSymbolTableRecord
100
AcDbLinetypeTableRecord
  2
ByBlock
 70
    64
  3

 72
    65
 73
     0
 40
0.0
  0
LTYPE
  5
D
100
AcDbSymbolTableRecord
100
AcDbLinetypeTableRecord
  2
ByLayer
 70
    64
  3

 72
    65
 73
     0
 40
0.0
  0
LTYPE
  5
E
100
AcDbSymbolTableRecord
100
AcDbLinetypeTableRecord
  2
CONTINUOUS
 70
     0
  3
Solid line
 72
    65
 73
     0
 40
0.0
  0
LTYPE
  5
F
100
AcDbSymbolTableRecord
100
AcDbLinetypeTableRecord
  2
DASHED
 70
     0
  3
__ __ __ __ __ __ __ __ __ __ __ __ __ __ __
 72
    65
 73
     2
 40
2.0
 49
1.2
 74
     0
 49
-0.8
 74
     0
  0
LTYPE
  5
10
100
AcDbSymbolTableRecord
100
AcDbLinetypeTableRecord
  2
CENTER
 70
     0
  3
____ _ ____ _ ____ _ ____ _ ____ _ ____ _ ____
 72
    65
 73
     4
 40
12.0
 49
9.0
 74
     0
 49
-1.0
 74
     0
 49
1.0
 74
     0
 49
-1.0
 74
     0
  0
LTYPE
  5
11
100
AcDbSymbolTableRecord
100
AcDbLinetypeTableRecord
  2
HIDDEN
 70
     0
  3
_ _ _ _ _ _ _ _ _ _ _ _ _ _ _ _ _ _ _ _ _ _ _
 72
    65
 73
     2
 40
3.2
 49
2.4
 74
     0
 49
-0.8
 74
     0
  0
LTYPE
  5
12
100
AcDbSymbolTableRecord
100
AcDbLinetypeTableRecord
  2
PHANTOM
 70
     0
  3
_____ _ _ _____ _ _ _____ _ _ _____ _ _ _____
 72
    65
 73
     6
 40
13.5
 49
9.0
 74
     0
 49
-1.0
 74
     0
 49
1.0
 74
     0
 49
-0.5
 74
     0
 49
1.0
 74
     0
 49
-1.0
 74
     0
  0
LTYPE
  5
13
100
AcDbSymbolTableRecord
100
AcDbLinetypeTableRecord
  2
DOT
 70
     0
  3
...............................................
 72
    65
 73
     2
 40
1.0
 49
0.5
 74
     0
 49
-0.5
 74
     0
  0
LTYPE
  5
14
100
AcDbSymbolTableRecord
100
AcDbLinetypeTableRecord
  2
DASHDOT
 70
     0
  3
__ . __ . __ . __ . __ . __ . __ . __ . __ . __
 72
    65
 73
     4
 40
8.0
 49
5.0
 74
     0
 49
-1.0
 74
     0
 49
1.0
 74
     0
 49
-1.0
 74
     0
  0
ENDTAB
  0
TABLE
  2
LAYER
  5
1
100
AcDbSymbolTable
 70
     4
  0
LAYER
  5
15
100
AcDbSymbolTableRecord
100
AcDbLayerTableRecord
  2
0
 70
     0
 62
     7
  6
CONTINUOUS
290
     1
370
    -3
390
0
  0
LAYER
  5
16
100
AcDbSymbolTableRecord
100
AcDbLayerTableRecord
  2
1
 70
     0
 62
     7
  6
CONTINUOUS
290
     1
370
    -3
390
0
  0
LAYER
  5
17
100
AcDbSymbolTableRecord
100
AcDbLayerTableRecord
  2
2
 70
     0
 62
     7
  6
CONTINUOUS
290
     1
370
    -3
390
0
  0
LAYER
  5
18
100
AcDbSymbolTableRecord
100
AcDbLayerTableRecord
  2
3
 70
     0
 62
     7
  6
CONTINUOUS
290
     1
370
    -3
390
0
  0
ENDTAB
  0
TABLE
  2
STYLE
  5
2
100
AcDbSymbolTable
 70
     1
  0
STYLE
  5
1B
100
AcDbSymbolTableRecord
100
AcDbTextStyleTableRecord
  2
STANDARD
 70
    64
 40
0.0
 41
1.0
 50
0.0
 71
     0
 42
1.0
  3
txt
  4
BIGFONT
  0
ENDTAB
  0
TABLE
  2
VIEW
  5
4
100
AcDbSymbolTable
 70
     0
  0
ENDTAB
  0
TABLE
  2
UCS
  5
5
100
AcDbSymbolTable
 70
     0
  0
ENDTAB
  0
TABLE
  2
APPID
  5
7
100
AcDbSymbolTable
 70
     1
  0
APPID
  5
1A
100
AcDbSymbolTableRecord
100
AcDbRegAppTableRecord
  2
ACAD
 70
     0
  0
ENDTAB
  0
TABLE
  2
DIMSTYLE
  5
8
100
AcDbSymbolTable
 70
     1
100
AcDbDimStyleTable
 71
     0
  0
DIMSTYLE
105
2A
100
AcDbSymbolTableRecord
100
AcDbDimStyleTableRecord
  2
Standard
 70
     0
  3

  4

 40
1.0
 41
2.0
 42
1.0
 43
0.38
 44
2.0
 45
0.0
 46
0.0
 47
0.0
 48
0.0
 71
     0
 72
     0
 73
     0
 74
     0
 75
     0
 76
     0
 77
     1
 78
     0
 79
     0
140
3.5
141
0.09
142
0.0
143
25.4
144
1.0
145
0.0
146
1.0
147
0.5
148
0.0
170
     0
171
     2
172
     0
173
     0
174
     0
175
     0
176
     0
177
     0
178
     0
179
     0
271
     3
272
     4
273
     2
274
     2
275
     0
276
     0
277
     2
278
    46
279
     0
280
     0
281
     0
282
     0
283
     1
284
     0
285
     0
286
     0
288
     0
289
     3
340
1B
341
0
342
0
343
0
344
0
371
    -2
372
    -2
  0
ENDTAB
  0
TABLE
  2
BLOCK_RECORD
  5
25
100
AcDbSymbolTable
 70
     7
  0
BLOCK_RECORD
  5
23
100
AcDbSymbolTableRecord
100
AcDbBlockTableRecord
  2
*Model_Space
340
0
  0
BLOCK_RECORD
  5
24
100
AcDbSymbolTableRecord
100
AcDbBlockTableRecord
  2
*Paper_Space
340
0
  0
BLOCK_RECORD
  5
1C
100
AcDbSymbolTableRecord
100
AcDbBlockTableRecord
  2
*D0
340
0
  0
BLOCK_RECORD
  5
1D
100
AcDbSymbolTableRecord
100
AcDbBlockTableRecord
  2
*D1
340
0
  0
BLOCK_RECORD
  5
1E
100
AcDbSymbolTableRecord
100
AcDbBlockTableRecord
  2
*D2
340
0
  0
BLOCK_RECORD
  5
1F
100
AcDbSymbolTableRecord
100
AcDbBlockTableRecord
  2
*D3
340
0
  0
BLOCK_RECORD
  5
20
100
AcDbSymbolTableRecord
100
AcDbBlockTableRecord
  2
*D4
340
0
  0
BLOCK_RECORD
  5
21
100
AcDbSymbolTableRecord
100
AcDbBlockTableRecord
  2
*D5
340
0
  0
BLOCK_RECORD
  5
22
100
AcDbSymbolTableRecord
100
AcDbBlockTableRecord
  2
*D6
340
0
  0
ENDTAB
  0
ENDSEC
  0
SECTION
  2
BLOCKS
  0
BLOCK
  5
26
100
AcDbEntity
  8
0
390
0
100
AcDbBlockBegin
  2
*Model_Space
 70
     0
 10
0.0
 20
0.0
 30
0.0
  3
*Model_Space
  1

  0
ENDBLK
  5
27
100
AcDbEntity
  8
0
390
0
100
AcDbBlockEnd
  0
BLOCK
  5
28
100
AcDbEntity
 67
     1
  8
0
390
0
100
AcDbBlockBegin
  2
*Paper_Space
 70
     0
 10
0.0
 20
0.0
 30
0.0
  3
*Paper_Space
  1

  0
ENDBLK
  5
29
100
AcDbEntity
 67
     1
  8
0
390
0
100
AcDbBlockEnd
  0
BLOCK
  5
193
100
AcDbEntity
  8
3
100
AcDbBlockBegin
  2
*D0
 70
     1
 10
0.0
 20
0.0
 30
0.0
  3
*D0
  1

  0
TEXT
  5
194
100
AcDbEntity
  8
3
370
    25
100
AcDbText
 10
-167.832077
 20
-96.455746
 30
0.0
 40
3.5
  1
３３
 50
90.0
 72
     5
 11
-167.832077
 21
-90.155746
 31
0.0
100
AcDbText
  0
LINE
  5
195
100
AcDbEntity
  8
3
370
    25
100
AcDbLine
 10
-156.777874
 20
-109.455746
 30
0.0
 11
-168.332077
 21
-109.455746
 31
0.0
  0
LINE
  5
196
100
AcDbEntity
  8
3
370
    25
100
AcDbLine
 10
-167.332077
 20
-109.455746
 30
0.0
 11
-166.814439
 21
-107.523895
 31
0.0
  0
LINE
  5
197
100
AcDbEntity
  8
3
370
    25
100
AcDbLine
 10
-167.332077
 20
-109.455746
 30
0.0
 11
-167.849715
 21
-107.523895
 31
0.0
  0
LINE
  5
198
100
AcDbEntity
  8
3
370
    25
100
AcDbLine
 10
-166.814439
 20
-107.523895
 30
0.0
 11
-167.849715
 21
-107.523895
 31
0.0
  0
LINE
  5
199
100
AcDbEntity
  8
3
370
    25
100
AcDbLine
 10
-167.332077
 20
-109.455746
 30
0.0
 11
-167.332077
 21
-76.455746
 31
0.0
  0
LINE
  5
19A
100
AcDbEntity
  8
3
370
    25
100
AcDbLine
 10
-167.332077
 20
-76.455746
 30
0.0
 11
-167.849715
 21
-78.387598
 31
0.0
  0
LINE
  5
19B
100
AcDbEntity
  8
3
370
    25
100
AcDbLine
 10
-167.332077
 20
-76.455746
 30
0.0
 11
-166.814439
 21
-78.387598
 31
0.0
  0
LINE
  5
19C
100
AcDbEntity
  8
3
370
    25
100
AcDbLine
 10
-167.849715
 20
-78.387598
 30
0.0
 11
-166.814439
 21
-78.387598
 31
0.0
  0
LINE
  5
19D
100
AcDbEntity
  8
3
370
    25
100
AcDbLine
 10
-149.327874
 20
-76.455746
 30
0.0
 11
-168.332077
 21
-76.455746
 31
0.0
  0
ENDBLK
  5
19E
100
AcDbEntity
  8
3
100
AcDbBlockEnd
  0
BLOCK
  5
19F
100
AcDbEntity
  8
3
100
AcDbBlockBegin
  2
*D1
 70
     1
 10
0.0
 20
0.0
 30
0.0
  3
*D1
  1

  0
TEXT
  5
1A0
100
AcDbEntity
  8
3
370
    25
100
AcDbText
 10
19.09477
 20
-62.579479
 30
0.0
 40
3.5
  1
１４
 72
     5
 11
25.39477
 21
-62.579479
 31
0.0
100
AcDbText
  0
LINE
  5
1A1
100
AcDbEntity
  8
3
370
    25
100
AcDbLine
 10
15.59477
 20
-41.765864
 30
0.0
 11
15.59477
 21
-64.079479
 31
0.0
  0
LINE
  5
1A2
100
AcDbEntity
  8
3
370
    25
100
AcDbLine
 10
15.59477
 20
-63.079479
 30
0.0
 11
17.526622
 21
-63.597117
 31
0.0
  0
LINE
  5
1A3
100
AcDbEntity
  8
3
370
    25
100
AcDbLine
 10
15.59477
 20
-63.079479
 30
0.0
 11
17.526622
 21
-62.561841
 31
0.0
  0
LINE
  5
1A4
100
AcDbEntity
  8
3
370
    25
100
AcDbLine
 10
17.526622
 20
-63.597117
 30
0.0
 11
17.526622
 21
-62.561841
 31
0.0
  0
LINE
  5
1A5
100
AcDbEntity
  8
3
370
    25
100
AcDbLine
 10
15.59477
 20
-63.079479
 30
0.0
 11
29.59477
 21
-63.079479
 31
0.0
  0
LINE
  5
1A6
100
AcDbEntity
  8
3
370
    25
100
AcDbLine
 10
29.59477
 20
-63.079479
 30
0.0
 11
27.662919
 21
-62.561841
 31
0.0
  0
LINE
  5
1A7
100
AcDbEntity
  8
3
370
    25
100
AcDbLine
 10
29.59477
 20
-63.079479
 30
0.0
 11
27.662919
 21
-63.597117
 31
0.0
  0
LINE
  5
1A8
100
AcDbEntity
  8
3
370
    25
100
AcDbLine
 10
27.662919
 20
-62.561841
 30
0.0
 11
27.662919
 21
-63.597117
 31
0.0
  0
LINE
  5
1A9
100
AcDbEntity
  8
3
370
    25
100
AcDbLine
 10
29.59477
 20
-28.243364
 30
0.0
 11
29.59477
 21
-64.079479
 31
0.0
  0
ENDBLK
  5
1AA
100
AcDbEntity
  8
3
100
AcDbBlockEnd
  0
BLOCK
  5
1AB
100
AcDbEntity
  8
3
100
AcDbBlockBegin
  2
*D2
 70
     1
 10
0.0
 20
0.0
 30
0.0
  3
*D2
  1

  0
TEXT
  5
1AC
100
AcDbEntity
  8
3
370
    25
100
AcDbText
 10
-10.40523
 20
-62.579479
 30
0.0
 40
3.5
  1
４５
 72
     5
 11
-4.10523
 21
-62.579479
 31
0.0
100
AcDbText
  0
LINE
  5
1AD
100
AcDbEntity
  8
3
370
    25
100
AcDbLine
 10
-29.40523
 20
-34.634003
 30
0.0
 11
-29.40523
 21
-64.079479
 31
0.0
  0
LINE
  5
1AE
100
AcDbEntity
  8
3
370
    25
100
AcDbLine
 10
-29.40523
 20
-63.079479
 30
0.0
 11
-27.473378
 21
-63.597117
 31
0.0
  0
LINE
  5
1AF
100
AcDbEntity
  8
3
370
    25
100
AcDbLine
 10
-29.40523
 20
-63.079479
 30
0.0
 11
-27.473378
 21
-62.561841
 31
0.0
  0
LINE
  5
1B0
100
AcDbEntity
  8
3
370
    25
100
AcDbLine
 10
-27.473378
 20
-63.597117
 30
0.0
 11
-27.473378
 21
-62.561841
 31
0.0
  0
LINE
  5
1B1
100
AcDbEntity
  8
3
370
    25
100
AcDbLine
 10
-29.40523
 20
-63.079479
 30
0.0
 11
15.59477
 21
-63.079479
 31
0.0
  0
LINE
  5
1B2
100
AcDbEntity
  8
3
370
    25
100
AcDbLine
 10
15.59477
 20
-63.079479
 30
0.0
 11
13.662919
 21
-62.561841
 31
0.0
  0
LINE
  5
1B3
100
AcDbEntity
  8
3
370
    25
100
AcDbLine
 10
15.59477
 20
-63.079479
 30
0.0
 11
13.662919
 21
-63.597117
 31
0.0
  0
LINE
  5
1B4
100
AcDbEntity
  8
3
370
    25
100
AcDbLine
 10
13.662919
 20
-62.561841
 30
0.0
 11
13.662919
 21
-63.597117
 31
0.0
  0
ENDBLK
  5
1B5
100
AcDbEntity
  8
3
100
AcDbBlockEnd
  0
BLOCK
  5
1B6
100
AcDbEntity
  8
3
100
AcDbBlockBegin
  2
*D3
 70
     1
 10
0.0
 20
0.0
 30
0.0
  3
*D3
  1

  0
LINE
  5
1B7
100
AcDbEntity
  8
3
370
    25
100
AcDbLine
 10
-156.777874
 20
-109.455746
 30
0.0
 11
-177.80542
 21
-109.455746
 31
0.0
  0
LINE
  5
1B8
100
AcDbEntity
  8
3
370
    25
100
AcDbLine
 10
-176.80542
 20
-109.455746
 30
0.0
 11
-176.287782
 21
-107.523895
 31
0.0
  0
LINE
  5
1B9
100
AcDbEntity
  8
3
370
    25
100
AcDbLine
 10
-176.80542
 20
-109.455746
 30
0.0
 11
-177.323058
 21
-107.523895
 31
0.0
  0
LINE
  5
1BA
100
AcDbEntity
  8
3
370
    25
100
AcDbLine
 10
-176.287782
 20
-107.523895
 30
0.0
 11
-177.323058
 21
-107.523895
 31
0.0
  0
LINE
  5
1BB
100
AcDbEntity
  8
3
370
    25
100
AcDbLine
 10
-176.80542
 20
-109.455746
 30
0.0
 11
-176.80542
 21
-17.965864
 31
0.0
  0
LINE
  5
1BC
100
AcDbEntity
  8
3
370
    25
100
AcDbLine
 10
-176.80542
 20
-17.965864
 30
0.0
 11
-177.323058
 21
-19.897715
 31
0.0
  0
LINE
  5
1BD
100
AcDbEntity
  8
3
370
    25
100
AcDbLine
 10
-176.80542
 20
-17.965864
 30
0.0
 11
-176.287782
 21
-19.897715
 31
0.0
  0
LINE
  5
1BE
100
AcDbEntity
  8
3
370
    25
100
AcDbLine
 10
-177.323058
 20
-19.897715
 30
0.0
 11
-176.287782
 21
-19.897715
 31
0.0
  0
LINE
  5
1BF
100
AcDbEntity
  8
3
370
    25
100
AcDbLine
 10
-67.785227
 20
-17.965864
 30
0.0
 11
-177.80542
 21
-17.965864
 31
0.0
  0
ENDBLK
  5
1C0
100
AcDbEntity
  8
3
100
AcDbBlockEnd
  0
BLOCK
  5
1C1
100
AcDbEntity
  8
3
100
AcDbBlockBegin
  2
*D4
 70
     1
 10
0.0
 20
0.0
 30
0.0
  3
*D4
  1

  0
LINE
  5
1C2
100
AcDbEntity
  8
3
370
    25
100
AcDbLine
 10
-148.327874
 20
-113.945267
 30
0.0
 11
-148.327874
 21
-130.947968
 31
0.0
  0
LINE
  5
1C3
100
AcDbEntity
  8
3
370
    25
100
AcDbLine
 10
-148.327874
 20
-129.947968
 30
0.0
 11
-146.396022
 21
-130.465606
 31
0.0
  0
LINE
  5
1C4
100
AcDbEntity
  8
3
370
    25
100
AcDbLine
 10
-148.327874
 20
-129.947968
 30
0.0
 11
-146.396022
 21
-129.430329
 31
0.0
  0
LINE
  5
1C5
100
AcDbEntity
  8
3
370
    25
100
AcDbLine
 10
-146.396022
 20
-130.465606
 30
0.0
 11
-146.396022
 21
-129.430329
 31
0.0
  0
LINE
  5
1C6
100
AcDbEntity
  8
3
370
    25
100
AcDbLine
 10
-148.327874
 20
-129.947968
 30
0.0
 11
15.59477
 21
-129.947968
 31
0.0
  0
LINE
  5
1C7
100
AcDbEntity
  8
3
370
    25
100
AcDbLine
 10
15.59477
 20
-129.947968
 30
0.0
 11
13.662919
 21
-129.430329
 31
0.0
  0
LINE
  5
1C8
100
AcDbEntity
  8
3
370
    25
100
AcDbLine
 10
15.59477
 20
-129.947968
 30
0.0
 11
13.662919
 21
-130.465606
 31
0.0
  0
LINE
  5
1C9
100
AcDbEntity
  8
3
370
    25
100
AcDbLine
 10
13.662919
 20
-129.430329
 30
0.0
 11
13.662919
 21
-130.465606
 31
0.0
  0
LINE
  5
1CA
100
AcDbEntity
  8
3
370
    25
100
AcDbLine
 10
15.59477
 20
-41.765864
 30
0.0
 11
15.59477
 21
-130.947968
 31
0.0
  0
ENDBLK
  5
1CB
100
AcDbEntity
  8
3
100
AcDbBlockEnd
  0
BLOCK
  5
1CC
100
AcDbEntity
  8
3
100
AcDbBlockBegin
  2
*D5
 70
     1
 10
0.0
 20
0.0
 30
0.0
  3
*D5
  1

  0
TEXT
  5
1CD
100
AcDbEntity
  8
3
370
    25
100
AcDbText
 10
49.723528
 20
-23.215864
 30
0.0
 40
3.5
  1
φ４６
 50
90.0
 72
     5
 11
49.723528
 21
-13.415864
 31
0.0
100
AcDbText
  0
LINE
  5
1CE
100
AcDbEntity
  8
3
370
    25
100
AcDbLine
 10
16.39477
 20
-40.965864
 30
0.0
 11
51.223528
 21
-40.965864
 31
0.0
  0
LINE
  5
1CF
100
AcDbEntity
  8
3
370
    25
100
AcDbLine
 10
50.223528
 20
-40.965864
 30
0.0
 11
50.741166
 21
-39.034012
 31
0.0
  0
LINE
  5
1D0
100
AcDbEntity
  8
3
370
    25
100
AcDbLine
 10
50.223528
 20
-40.965864
 30
0.0
 11
49.70589
 21
-39.034012
 31
0.0
  0
LINE
  5
1D1
100
AcDbEntity
  8
3
370
    25
100
AcDbLine
 10
50.741166
 20
-39.034012
 30
0.0
 11
49.70589
 21
-39.034012
 31
0.0
  0
LINE
  5
1D2
100
AcDbEntity
  8
3
370
    25
100
AcDbLine
 10
50.223528
 20
-40.965864
 30
0.0
 11
50.223528
 21
5.034136
 31
0.0
  0
LINE
  5
1D3
100
AcDbEntity
  8
3
370
    25
100
AcDbLine
 10
50.223528
 20
5.034136
 30
0.0
 11
49.70589
 21
3.102285
 31
0.0
  0
LINE
  5
1D4
100
AcDbEntity
  8
3
370
    25
100
AcDbLine
 10
50.223528
 20
5.034136
 30
0.0
 11
50.741166
 21
3.102285
 31
0.0
  0
LINE
  5
1D5
100
AcDbEntity
  8
3
370
    25
100
AcDbLine
 10
49.70589
 20
3.102285
 30
0.0
 11
50.741166
 21
3.102285
 31
0.0
  0
LINE
  5
1D6
100
AcDbEntity
  8
3
370
    25
100
AcDbLine
 10
16.39477
 20
5.034136
 30
0.0
 11
51.223528
 21
5.034136
 31
0.0
  0
ENDBLK
  5
1D7
100
AcDbEntity
  8
3
100
AcDbBlockEnd
  0
BLOCK
  5
1D8
100
AcDbEntity
  8
3
100
AcDbBlockBegin
  2
*D6
 70
     1
 10
0.0
 20
0.0
 30
0.0
  3
*D6
  1

  0
LINE
  5
1D9
100
AcDbEntity
  8
3
370
    25
100
AcDbLine
 10
-64.41853
 20
-80.34999
 30
0.0
 11
-64.41853
 21
-120.876953
 31
0.0
  0
LINE
  5
1DA
100
AcDbEntity
  8
3
370
    25
100
AcDbLine
 10
-64.41853
 20
-119.876953
 30
0.0
 11
-66.350382
 21
-119.359315
 31
0.0
  0
LINE
  5
1DB
100
AcDbEntity
  8
3
370
    25
100
AcDbLine
 10
-64.41853
 20
-119.876953
 30
0.0
 11
-66.350382
 21
-120.394591
 31
0.0
  0
LINE
  5
1DC
100
AcDbEntity
  8
3
370
    25
100
AcDbLine
 10
-66.350382
 20
-119.359315
 30
0.0
 11
-66.350382
 21
-120.394591
 31
0.0
  0
LINE
  5
1DD
100
AcDbEntity
  8
3
370
    25
100
AcDbLine
 10
-64.41853
 20
-119.876953
 30
0.0
 11
-148.327874
 21
-119.876953
 31
0.0
  0
LINE
  5
1DE
100
AcDbEntity
  8
3
370
    25
100
AcDbLine
 10
-148.327874
 20
-119.876953
 30
0.0
 11
-146.396022
 21
-120.394591
 31
0.0
  0
LINE
  5
1DF
100
AcDbEntity
  8
3
370
    25
100
AcDbLine
 10
-148.327874
 20
-119.876953
 30
0.0
 11
-146.396022
 21
-119.359315
 31
0.0
  0
LINE
  5
1E0
100
AcDbEntity
  8
3
370
    25
100
AcDbLine
 10
-146.396022
 20
-120.394591
 30
0.0
 11
-146.396022
 21
-119.359315
 31
0.0
  0
LINE
  5
1E1
100
AcDbEntity
  8
3
370
    25
100
AcDbLine
 10
-148.327874
 20
-113.945267
 30
0.0
 11
-148.327874
 21
-120.876953
 31
0.0
  0
ENDBLK
  5
1E2
100
AcDbEntity
  8
3
100
AcDbBlockEnd
  0
ENDSEC
  0
SECTION
  2
ENTITIES
  0
LINE
  5
2B
100
AcDbEntity
  8
1
370
   100
100
AcDbLine
 10
-186.510785
 20
137.514384
 30
0.0
 11
197.491193
 21
137.514384
 31
0.0
  0
LINE
  5
2C
100
AcDbEntity
  8
1
370
   100
100
AcDbLine
 10
-186.510785
 20
137.514384
 30
0.0
 11
-186.510785
 21
-138.985941
 31
0.0
  0
LINE
  5
2D
100
AcDbEntity
  8
1
370
   100
100
AcDbLine
 10
-186.510785
 20
-138.985941
 30
0.0
 11
197.491193
 21
-138.985941
 31
0.0
  0
LINE
  5
2E
100
AcDbEntity
  8
1
370
   100
100
AcDbLine
 10
197.491193
 20
-138.985941
 30
0.0
 11
197.491193
 21
137.514384
 31
0.0
  0
TEXT
  5
2F
100
AcDbEntity
  8
1
370
    50
100
AcDbText
 10
179.814221
 20
-113.126428
 30
0.0
 40
3.0
  1
設計
 72
     5
 11
185.214221
 21
-113.126428
 31
0.0
100
AcDbText
  0
TEXT
  5
30
100
AcDbEntity
  8
1
370
    50
100
AcDbText
 10
189.563739
 20
-113.049829
 30
0.0
 40
3.0
  1
製図
 72
     5
 11
194.963739
 21
-113.049829
 31
0.0
100
AcDbText
  0
TEXT
  5
31
100
AcDbEntity
  8
1
370
    50
100
AcDbText
 10
159.502872
 20
-113.126428
 30
0.0
 40
3.0
  1
承認
 72
     5
 11
164.902872
 21
-113.126428
 31
0.0
100
AcDbText
  0
TEXT
  5
32
100
AcDbEntity
  8
1
370
    50
100
AcDbText
 10
169.494839
 20
-113.09901
 30
0.0
 40
3.0
  1
検図
 72
     5
 11
174.894839
 21
-113.09901
 31
0.0
100
AcDbText
  0
LINE
  5
33
100
AcDbEntity
  8
1
370
    25
100
AcDbLine
 10
142.491193
 20
-113.985941
 30
0.0
 11
197.491193
 21
-113.985941
 31
0.0
  0
LINE
  5
34
100
AcDbEntity
  8
1
370
    25
100
AcDbLine
 10
171.241193
 20
-122.985941
 30
0.0
 11
171.241193
 21
-129.985941
 31
0.0
  0
TEXT
  5
35
100
AcDbEntity
  8
1
370
    50
100
AcDbText
 10
159.775795
 20
-128.006264
 30
0.0
 40
3.0
  1
日　付
 72
     5
 11
168.175795
 21
-128.006264
 31
0.0
100
AcDbText
  0
LINE
  5
36
100
AcDbEntity
  8
1
370
    50
100
AcDbLine
 10
20.491193
 20
-129.985941
 30
0.0
 11
197.491193
 21
-129.985941
 31
0.0
  0
TEXT
  5
37
100
AcDbEntity
  8
1
370
    50
100
AcDbText
 10
143.887505
 20
-128.161203
 30
0.0
 40
3.0
  1
第三角法
 72
     5
 11
155.287505
 21
-128.161203
 31
0.0
100
AcDbText
  0
TEXT
  5
38
100
AcDbEntity
  8
1
370
    50
100
AcDbText
 10
145.54371
 20
-112.99901
 30
0.0
 40
3.0
  1
尺　度
 72
     5
 11
153.94371
 21
-112.99901
 31
0.0
100
AcDbText
  0
LINE
  5
39
100
AcDbEntity
  8
1
370
   100
100
AcDbLine
 10
20.491193
 20
-108.985941
 30
0.0
 11
197.491193
 21
-108.985941
 31
0.0
  0
LINE
  5
3A
100
AcDbEntity
  8
1
370
    50
100
AcDbLine
 10
105.991193
 20
-108.985941
 30
0.0
 11
105.991193
 21
-138.985941
 31
0.0
  0
LINE
  5
3B
100
AcDbEntity
  8
1
370
    25
100
AcDbLine
 10
187.491193
 20
-122.985941
 30
0.0
 11
187.491193
 21
-108.985941
 31
0.0
  0
LINE
  5
3C
100
AcDbEntity
  8
1
370
    25
100
AcDbLine
 10
177.491193
 20
-122.985941
 30
0.0
 11
177.491193
 21
-108.985941
 31
0.0
  0
LINE
  5
3D
100
AcDbEntity
  8
1
370
    25
100
AcDbLine
 10
167.491193
 20
-122.985941
 30
0.0
 11
167.491193
 21
-108.985941
 31
0.0
  0
LINE
  5
3E
100
AcDbEntity
  8
1
370
    50
100
AcDbLine
 10
142.491193
 20
-138.985941
 30
0.0
 11
142.491193
 21
-108.985941
 31
0.0
  0
LINE
  5
3F
100
AcDbEntity
  8
1
370
    50
100
AcDbLine
 10
94.991193
 20
-108.985941
 30
0.0
 11
94.991193
 21
-138.985941
 31
0.0
  0
LINE
  5
40
100
AcDbEntity
  8
1
370
    50
100
AcDbLine
 10
31.491193
 20
-108.985941
 30
0.0
 11
31.491193
 21
-129.985941
 31
0.0
  0
LINE
  5
41
100
AcDbEntity
  8
1
370
    50
100
AcDbLine
 10
142.491193
 20
-122.985941
 30
0.0
 11
197.491193
 21
-122.985941
 31
0.0
  0
TEXT
  5
42
100
AcDbEntity
  8
1
370
    50
100
AcDbText
 10
143.550565
 20
-135.940469
 30
0.0
 40
3.0
  1
コードＮｏ
 41
0.9
 72
     5
 11
156.510565
 21
-135.940469
 31
0.0
100
AcDbText
  0
TEXT
  5
43
100
AcDbEntity
  8
1
370
   100
100
AcDbText
 10
26.443387
 20
-136.43783
 30
0.0
 40
4.0
  1
ミズタニバルブ工業株式会社
 41
1.2
 72
     5
 11
87.883387
 21
-136.43783
 31
0.0
100
AcDbText
  0
LINE
  5
44
100
AcDbEntity
  8
1
370
    50
100
AcDbLine
 10
20.491193
 20
-119.485941
 30
0.0
 11
142.491193
 21
-119.485941
 31
0.0
  0
LINE
  5
45
100
AcDbEntity
  8
1
370
    50
100
AcDbLine
 10
57.741193
 20
-119.485941
 30
0.0
 11
57.741193
 21
-129.985941
 31
0.0
  0
LINE
  5
46
100
AcDbEntity
  8
1
370
    50
100
AcDbLine
 10
68.741193
 20
-119.485941
 30
0.0
 11
68.741193
 21
-129.985941
 31
0.0
  0
LINE
  5
47
100
AcDbEntity
  8
1
370
    50
100
AcDbLine
 10
157.491193
 20
-138.985941
 30
0.0
 11
157.491193
 21
-108.985941
 31
0.0
  0
TEXT
  5
48
100
AcDbEntity
  8
1
370
    50
100
AcDbText
 10
172.549065
 20
-128.050147
 30
0.0
 40
3.0
  1
　　・　　・
 72
     5
 11
189.949065
 21
-128.050147
 31
0.0
100
AcDbText
  0
LINE
  5
49
100
AcDbEntity
  8
1
370
   100
100
AcDbLine
 10
20.491193
 20
-108.985941
 30
0.0
 11
20.491193
 21
-138.985941
 31
0.0
  0
TEXT
  5
4A
100
AcDbEntity
  8
1
370
    50
100
AcDbText
 10
145.416291
 20
-120.006746
 30
0.0
 40
3.0
  1
　／ 
 72
     5
 11
150.816291
 21
-120.006746
 31
0.0
100
AcDbText
  0
TEXT
  5
4B
100
AcDbEntity
  8
1
370
    50
100
AcDbText
 10
96.952061
 20
-136.012454
 30
0.0
 40
3.0
  1
備 考 
 72
     5
 11
103.852061
 21
-136.012454
 31
0.0
100
AcDbText
  0
TEXT
  5
4C
100
AcDbEntity
  8
1
370
    50
100
AcDbText
 10
96.756267
 20
-115.44592
 30
0.0
 40
3.0
  1
仕 上
 72
     5
 11
103.656267
 21
-115.44592
 31
0.0
100
AcDbText
  0
TEXT
  5
4D
100
AcDbEntity
  8
1
370
    50
100
AcDbText
 10
96.723588
 20
-124.445833
 30
0.0
 40
3.0
  1
表 面
 72
     5
 11
103.623588
 21
-124.445833
 31
0.0
100
AcDbText
  0
TEXT
  5
4E
100
AcDbEntity
  8
1
370
    50
100
AcDbText
 10
96.723588
 20
-127.945833
 30
0.0
 40
3.0
  1
処 理
 72
     5
 11
103.623588
 21
-127.945833
 31
0.0
100
AcDbText
  0
TEXT
  5
4F
100
AcDbEntity
  8
1
370
    50
100
AcDbText
 10
22.396675
 20
-115.8467
 30
0.0
 40
3.0
  1
品 名
 72
     5
 11
29.296675
 21
-115.8467
 31
0.0
100
AcDbText
  0
TEXT
  5
50
100
AcDbEntity
  8
1
370
    50
100
AcDbText
 10
22.198883
 20
-126.231267
 30
0.0
 40
3.0
  1
材 質
 72
     5
 11
29.098883
 21
-126.231267
 31
0.0
100
AcDbText
  0
TEXT
  5
51
100
AcDbEntity
  8
1
370
    50
100
AcDbText
 10
59.448883
 20
-126.231267
 30
0.0
 40
3.0
  1
規 格
 72
     5
 11
66.348883
 21
-126.231267
 31
0.0
100
AcDbText
  0
LINE
  5
52
100
AcDbEntity
  8
2
370
    50
100
AcDbLine
 10
-17.40523
 20
4.534136
 30
0.0
 11
-17.40523
 21
6.533274
 31
0.0
  0
LINE
  5
53
100
AcDbEntity
  8
2
370
    50
100
AcDbLine
 10
14.09477
 20
5.034136
 30
0.0
 11
15.39477
 21
5.034136
 31
0.0
  0
LINE
  5
54
100
AcDbEntity
  8
2
370
    50
100
AcDbLine
 10
14.09477
 20
-40.965864
 30
0.0
 11
15.39477
 21
-40.965864
 31
0.0
  0
LINE
  5
55
100
AcDbEntity
  8
2
370
    50
100
AcDbLine
 10
15.59477
 20
-7.488364
 30
0.0
 11
28.39477
 21
-7.488364
 31
0.0
  0
LINE
  5
56
100
AcDbEntity
  8
2
370
    50
100
AcDbLine
 10
15.59477
 20
-28.443364
 30
0.0
 11
28.39477
 21
-28.443364
 31
0.0
  0
LINE
  5
57
100
AcDbEntity
  8
2
370
    50
100
AcDbLine
 10
-6.90523
 20
-8.715864
 30
0.0
 11
9.09477
 21
-8.715864
 31
0.0
  0
ARC
  5
58
100
AcDbEntity
  8
2
370
    50
100
AcDbCircle
 10
9.09477
 20
-4.715864
 30
0.0
 40
4.0
100
AcDbArc
 50
270.0
 51
360.0
  0
ARC
  5
59
100
AcDbEntity
  8
2
370
    50
100
AcDbCircle
 10
9.09477
 20
-31.215864
 30
0.0
 40
4.0
100
AcDbArc
 50
0.0
 51
90.0
  0
LINE
  5
5A
100
AcDbEntity
  8
2
370
    50
100
AcDbLine
 10
29.59477
 20
-27.243364
 30
0.0
 11
29.59477
 21
-8.688364
 31
0.0
  0
LINE
  5
5B
100
AcDbEntity
  8
2
370
    50
100
AcDbLine
 10
13.09477
 20
-39.965864
 30
0.0
 11
13.09477
 21
-17.965864
 31
0.0
  0
LINE
  5
5C
100
AcDbEntity
  8
2
370
    50
100
AcDbLine
 10
13.09477
 20
-17.965864
 30
0.0
 11
13.09477
 21
4.034136
 31
0.0
  0
LINE
  5
5D
100
AcDbEntity
  8
2
370
    50
100
AcDbLine
 10
15.59477
 20
-40.765864
 30
0.0
 11
15.59477
 21
-17.965864
 31
0.0
  0
LINE
  5
5E
100
AcDbEntity
  8
2
370
    50
100
AcDbLine
 10
15.59477
 20
-17.965864
 30
0.0
 11
15.59477
 21
4.834136
 31
0.0
  0
ARC
  5
5F
100
AcDbEntity
  8
2
370
    50
100
AcDbCircle
 10
14.09477
 20
4.034136
 30
0.0
 40
1.0
100
AcDbArc
 50
90.0
 51
180.0
  0
ARC
  5
60
100
AcDbEntity
  8
2
370
    50
100
AcDbCircle
 10
14.09477
 20
-39.965864
 30
0.0
 40
1.0
100
AcDbArc
 50
180.0
 51
270.0
  0
ARC
  5
61
100
AcDbEntity
  8
2
370
    50
100
AcDbCircle
 10
-29.40523
 20
19.034136
 30
0.0
 40
50.0
100
AcDbArc
 50
251.980736
 51
285.740549
  0
LINE
  5
62
100
AcDbEntity
  8
2
370
    25
100
AcDbLine
 10
-18.00523
 20
6.034136
 30
0.0
 11
-18.00523
 21
6.533274
 31
0.0
  0
LINE
  5
63
100
AcDbEntity
  8
2
370
    50
100
AcDbLine
 10
-40.80523
 20
6.034136
 30
0.0
 11
-41.40523
 21
5.434136
 31
0.0
  0
LINE
  5
64
100
AcDbEntity
  8
2
370
    50
100
AcDbLine
 10
-18.00523
 20
6.034136
 30
0.0
 11
-17.40523
 21
5.434136
 31
0.0
  0
LINE
  5
65
100
AcDbEntity
  8
2
370
    50
100
AcDbLine
 10
13.09477
 20
70.917941
 30
0.0
 11
13.09477
 21
114.917941
 31
0.0
  0
LINE
  5
66
100
AcDbEntity
  8
2
370
    50
100
AcDbLine
 10
29.59477
 20
84.867941
 30
0.0
 11
29.59477
 21
100.967941
 31
0.0
  0
LINE
  5
67
100
AcDbEntity
  8
2
370
    50
100
AcDbLine
 10
14.09477
 20
115.917941
 30
0.0
 11
15.59477
 21
115.917941
 31
0.0
  0
LINE
  5
68
100
AcDbEntity
  8
2
370
    50
100
AcDbLine
 10
14.09477
 20
69.917941
 30
0.0
 11
15.59477
 21
69.917941
 31
0.0
  0
LINE
  5
69
100
AcDbEntity
  8
2
370
    50
100
AcDbLine
 10
15.59477
 20
69.917941
 30
0.0
 11
15.59477
 21
115.917941
 31
0.0
  0
ARC
  5
6A
100
AcDbEntity
  8
2
370
    50
100
AcDbCircle
 10
14.09477
 20
114.917941
 30
0.0
 40
1.0
100
AcDbArc
 50
90.0
 51
180.0
  0
ARC
  5
6B
100
AcDbEntity
  8
2
370
    50
100
AcDbCircle
 10
14.09477
 20
70.917941
 30
0.0
 40
1.0
100
AcDbArc
 50
180.0
 51
270.0
  0
ARC
  5
6C
100
AcDbEntity
  8
2
370
    50
100
AcDbCircle
 10
9.09477
 20
106.167941
 30
0.0
 40
4.0
100
AcDbArc
 50
270.0
 51
360.0
  0
ARC
  5
6D
100
AcDbEntity
  8
2
370
    50
100
AcDbCircle
 10
9.09477
 20
79.667941
 30
0.0
 40
4.0
100
AcDbArc
 50
0.0
 51
90.0
  0
LINE
  5
6E
100
AcDbEntity
  8
2
370
    50
100
AcDbLine
 10
15.59477
 20
102.167941
 30
0.0
 11
28.39477
 21
102.167941
 31
0.0
  0
LINE
  5
6F
100
AcDbEntity
  8
2
370
    50
100
AcDbLine
 10
15.59477
 20
83.667941
 30
0.0
 11
28.39477
 21
83.667941
 31
0.0
  0
LINE
  5
70
100
AcDbEntity
  8
2
370
    50
100
AcDbLine
 10
-11.842841
 20
102.167941
 30
0.0
 11
9.09477
 21
102.167941
 31
0.0
  0
LINE
  5
71
100
AcDbEntity
  8
2
370
    50
100
AcDbLine
 10
-11.842841
 20
83.667941
 30
0.0
 11
9.09477
 21
83.667941
 31
0.0
  0
LINE
  5
72
100
AcDbEntity
  8
2
370
    25
100
AcDbLine
 10
18.59477
 20
-8.688364
 30
0.0
 11
29.59477
 21
-8.688364
 31
0.0
  0
LINE
  5
73
100
AcDbEntity
  8
2
370
    25
100
AcDbLine
 10
18.59477
 20
-27.243364
 30
0.0
 11
29.59477
 21
-27.243364
 31
0.0
  0
LINE
  5
74
100
AcDbEntity
  8
2
370
    50
100
AcDbLine
 10
29.59477
 20
-8.688364
 30
0.0
 11
28.39477
 21
-7.488364
 31
0.0
  0
LINE
  5
75
100
AcDbEntity
  8
2
370
    50
100
AcDbLine
 10
18.59477
 20
-8.688364
 30
0.0
 11
17.39477
 21
-7.488364
 31
0.0
  0
LINE
  5
76
100
AcDbEntity
  8
2
370
    50
100
AcDbLine
 10
29.59477
 20
-27.243364
 30
0.0
 11
28.39477
 21
-28.443364
 31
0.0
  0
LINE
  5
77
100
AcDbEntity
  8
2
370
    50
100
AcDbLine
 10
18.59477
 20
-27.243364
 30
0.0
 11
17.39477
 21
-28.443364
 31
0.0
  0
LINE
  5
78
100
AcDbEntity
  8
2
370
    25
100
AcDbLine
 10
18.59477
 20
100.967941
 30
0.0
 11
29.59477
 21
100.967941
 31
0.0
  0
LINE
  5
79
100
AcDbEntity
  8
2
370
    25
100
AcDbLine
 10
18.59477
 20
84.867941
 30
0.0
 11
29.59477
 21
84.867941
 31
0.0
  0
LINE
  5
7A
100
AcDbEntity
  8
2
370
    50
100
AcDbLine
 10
28.39477
 20
102.167941
 30
0.0
 11
29.59477
 21
100.967941
 31
0.0
  0
LINE
  5
7B
100
AcDbEntity
  8
2
370
    50
100
AcDbLine
 10
29.59477
 20
84.867941
 30
0.0
 11
28.39477
 21
83.667941
 31
0.0
  0
LINE
  5
7C
100
AcDbEntity
  8
2
370
    50
100
AcDbLine
 10
28.39477
 20
83.667941
 30
0.0
 11
28.39477
 21
102.167941
 31
0.0
  0
LINE
  5
7D
100
AcDbEntity
  8
2
370
    50
100
AcDbLine
 10
17.39477
 20
102.167941
 30
0.0
 11
18.59477
 21
100.967941
 31
0.0
  0
LINE
  5
7E
100
AcDbEntity
  8
2
370
    50
100
AcDbLine
 10
17.39477
 20
83.667941
 30
0.0
 11
18.59477
 21
84.867941
 31
0.0
  0
LINE
  5
7F
100
AcDbEntity
  8
2
370
    50
100
AcDbLine
 10
18.59477
 20
83.667941
 30
0.0
 11
18.59477
 21
102.167941
 31
0.0
  0
LINE
  5
80
100
AcDbEntity
  8
2
370
    50
100
AcDbLine
 10
15.59477
 20
-40.765864
 30
0.0
 11
15.39477
 21
-40.965864
 31
0.0
  0
LINE
  5
81
100
AcDbEntity
  8
2
370
    50
100
AcDbLine
 10
15.59477
 20
4.834136
 30
0.0
 11
15.39477
 21
5.034136
 31
0.0
  0
LINE
  5
82
100
AcDbEntity
  8
2
370
    50
100
AcDbLine
 10
9.09477
 20
-27.215864
 30
0.0
 11
-2.277062
 21
-27.215864
 31
0.0
  0
ARC
  5
83
100
AcDbEntity
  8
2
370
    50
100
AcDbCircle
 10
-2.277062
 20
-77.215864
 30
0.0
 40
50.0
100
AcDbArc
 50
90.0
 51
105.740549
  0
ARC
  5
84
100
AcDbEntity
  8
2
370
    50
100
AcDbCircle
 10
-11.842841
 20
132.167941
 30
0.0
 40
30.0
100
AcDbArc
 50
267.461843
 51
270.0
  0
ARC
  5
85
100
AcDbEntity
  8
2
370
    50
100
AcDbCircle
 10
-11.842841
 20
53.667941
 30
0.0
 40
30.0
100
AcDbArc
 50
90.0
 51
92.538157
  0
LINE
  5
86
100
AcDbEntity
  8
2
370
    25
  6
CENTER
100
AcDbLine
 10
-161.526358
 20
92.917941
 30
0.0
 11
34.749275
 21
92.917941
 31
0.0
  0
LINE
  5
87
100
AcDbEntity
  8
2
370
    25
  6
CENTER
100
AcDbLine
 10
-66.785227
 20
-17.965864
 30
0.0
 11
31.161203
 21
-17.965864
 31
0.0
  0
LINE
  5
88
100
AcDbEntity
  8
2
370
    50
100
AcDbLine
 10
-16.90523
 20
1.284136
 30
0.0
 11
-16.90523
 21
4.534136
 31
0.0
  0
ARC
  5
89
100
AcDbEntity
  8
2
370
    50
100
AcDbCircle
 10
-6.90523
 20
1.284136
 30
0.0
 40
10.0
100
AcDbArc
 50
180.0
 51
270.0
  0
LINE
  5
8A
100
AcDbEntity
  8
2
370
    50
100
AcDbLine
 10
-41.90523
 20
0.425133
 30
0.0
 11
-41.90523
 21
4.534136
 31
0.0
  0
LINE
  5
8B
100
AcDbEntity
  8
2
370
    50
100
AcDbLine
 10
-77.41875
 20
-37.455746
 30
0.0
 11
-77.41875
 21
-36.365864
 31
0.0
  0
LINE
  5
8C
100
AcDbEntity
  8
2
370
    50
100
AcDbLine
 10
-51.41875
 20
-37.496199
 30
0.0
 11
-51.41875
 21
-33.268255
 31
0.0
  0
LINE
  5
8D
100
AcDbEntity
  8
2
370
    25
100
AcDbLine
 10
-52.01875
 20
-37.455746
 30
0.0
 11
-52.01875
 21
-36.965864
 31
0.0
  0
LINE
  5
8E
100
AcDbEntity
  8
2
370
    25
100
AcDbLine
 10
-76.81875
 20
-37.455746
 30
0.0
 11
-76.81875
 21
-36.965864
 31
0.0
  0
ARC
  5
8F
100
AcDbEntity
  8
2
370
    25
100
AcDbCircle
 10
-64.41875
 20
92.917941
 30
0.0
 40
12.4
100
AcDbArc
 50
49.98795
 51
310.01205
  0
ARC
  5
90
100
AcDbEntity
  8
2
370
    50
100
AcDbCircle
 10
-54.751819
 20
182.39727
 30
0.0
 40
80.0
100
AcDbArc
 50
265.937957
 51
278.552418
  0
ARC
  5
91
100
AcDbEntity
  8
2
370
    50
100
AcDbCircle
 10
-54.751819
 20
3.438611
 30
0.0
 40
80.0
100
AcDbArc
 50
81.447582
 51
94.062043
  0
LINE
  5
92
100
AcDbEntity
  8
2
370
    25
  6
CENTER
100
AcDbLine
 10
-64.41875
 20
-48.953988
 30
0.0
 11
-64.41875
 21
-9.824849
 31
0.0
  0
LINE
  5
93
100
AcDbEntity
  8
2
370
    25
  6
CENTER
100
AcDbLine
 10
-64.41875
 20
77.080683
 30
0.0
 11
-64.41875
 21
108.443865
 31
0.0
  0
LINE
  5
94
100
AcDbEntity
  8
2
370
    50
100
AcDbLine
 10
-52.01875
 20
-36.965864
 30
0.0
 11
-51.41875
 21
-36.365864
 31
0.0
  0
ARC
  5
95
100
AcDbEntity
  8
2
370
    50
100
AcDbCircle
 10
-46.41875
 20
-33.268255
 30
0.0
 40
5.0
100
AcDbArc
 50
71.980736
 51
180.0
  0
LINE
  5
96
100
AcDbEntity
  8
2
370
    50
100
AcDbLine
 10
-76.81875
 20
-36.965864
 30
0.0
 11
-77.41875
 21
-36.365864
 31
0.0
  0
LINE
  5
97
100
AcDbEntity
  8
2
370
    50
100
AcDbLine
 10
-50.168748
 20
-9.422945
 30
0.0
 11
-61.278783
 21
-11.381944
 31
0.0
  0
ARC
  5
98
100
AcDbEntity
  8
2
370
    50
100
AcDbCircle
 10
-51.90523
 20
0.425133
 30
0.0
 40
10.0
100
AcDbArc
 50
280.0
 51
360.0
  0
LINE
  5
99
100
AcDbEntity
  8
2
370
    50
100
AcDbLine
 10
-77.41875
 20
-36.365864
 30
0.0
 11
-75.960339
 21
-26.481164
 31
0.0
  0
ARC
  5
9A
100
AcDbEntity
  8
2
370
    50
100
AcDbCircle
 10
-58.153116
 20
-29.108483
 30
0.0
 40
18.0
100
AcDbArc
 50
100.0
 51
171.607
  0
LINE
  5
9B
100
AcDbEntity
  8
2
370
    50
100
AcDbLine
 10
-41.90523
 20
4.534136
 30
0.0
 11
-41.40523
 21
4.534136
 31
0.0
  0
LINE
  5
9C
100
AcDbEntity
  8
2
370
    50
100
AcDbLine
 10
-17.40523
 20
4.534136
 30
0.0
 11
-16.90523
 21
4.534136
 31
0.0
  0
LINE
  5
9D
100
AcDbEntity
  8
2
370
    25
  6
CENTER
100
AcDbLine
 10
-29.40523
 20
69.550432
 30
0.0
 11
-29.40523
 21
114.030084
 31
0.0
  0
ARC
  5
9E
100
AcDbEntity
  8
2
370
    50
100
AcDbCircle
 10
-16.90523
 20
71.267306
 30
0.0
 40
6.0
100
AcDbArc
 50
229.129151
 51
10.870849
  0
ARC
  5
9F
100
AcDbEntity
  8
2
370
    50
100
AcDbCircle
 10
-54.40523
 20
92.917941
 30
0.0
 40
6.0
100
AcDbArc
 50
109.129151
 51
250.870849
  0
ARC
  5
A0
100
AcDbEntity
  8
2
370
    50
100
AcDbCircle
 10
-16.90523
 20
114.568576
 30
0.0
 40
6.0
100
AcDbArc
 50
349.129151
 51
130.870849
  0
LINE
  5
A1
100
AcDbEntity
  8
2
370
    50
100
AcDbLine
 10
-11.012901
 20
113.437001
 30
0.0
 11
-13.866873
 21
98.575815
 31
0.0
  0
ARC
  5
A2
100
AcDbEntity
  8
2
370
    50
100
AcDbCircle
 10
15.59477
 20
92.917941
 30
0.0
 40
30.0
100
AcDbArc
 50
169.129151
 51
190.870849
  0
LINE
  5
A3
100
AcDbEntity
  8
2
370
    50
100
AcDbLine
 10
-11.012901
 20
72.398881
 30
0.0
 11
-13.866873
 21
87.260066
 31
0.0
  0
LINE
  5
A4
100
AcDbEntity
  8
2
370
    50
100
AcDbLine
 10
-20.831367
 20
119.105695
 30
0.0
 11
-32.274545
 21
109.203489
 31
0.0
  0
LINE
  5
A5
100
AcDbEntity
  8
2
370
    50
100
AcDbLine
 10
-56.371421
 20
98.586635
 30
0.0
 11
-42.074271
 21
103.545615
 31
0.0
  0
ARC
  5
A6
100
AcDbEntity
  8
2
370
    50
100
AcDbCircle
 10
-51.90523
 20
131.889084
 30
0.0
 40
30.0
100
AcDbArc
 50
289.129151
 51
310.870849
  0
LINE
  5
A7
100
AcDbEntity
  8
2
370
    50
100
AcDbLine
 10
-20.831367
 20
66.730187
 30
0.0
 11
-32.274545
 21
76.632392
 31
0.0
  0
LINE
  5
A8
100
AcDbEntity
  8
2
370
    50
100
AcDbLine
 10
-56.371421
 20
87.249247
 30
0.0
 11
-42.074271
 21
82.290267
 31
0.0
  0
ARC
  5
A9
100
AcDbEntity
  8
2
370
    50
100
AcDbCircle
 10
-51.90523
 20
53.946798
 30
0.0
 40
30.0
100
AcDbArc
 50
49.129151
 51
70.870849
  0
CIRCLE
  5
AA
100
AcDbEntity
  8
2
370
    50
100
AcDbCircle
 10
-29.40523
 20
92.917941
 30
0.0
 40
7.0
  0
CIRCLE
  5
AB
100
AcDbEntity
  8
2
370
    50
100
AcDbCircle
 10
-29.40523
 20
92.917941
 30
0.0
 40
5.5
  0
POINT
  5
AC
100
AcDbEntity
  8
2
370
    50
100
AcDbPoint
 10
-29.40523
 20
92.917941
 30
0.0
  0
ARC
  5
AD
100
AcDbEntity
  8
2
370
    50
100
AcDbCircle
 10
-20.509519
 20
10.033274
 30
0.0
 40
5.0
100
AcDbArc
 50
315.572996
 51
44.427004
  0
ARC
  5
AE
100
AcDbEntity
  8
2
370
    50
100
AcDbCircle
 10
-38.368091
 20
10.033274
 30
0.0
 40
5.0
100
AcDbArc
 50
135.572996
 51
224.427004
  0
LINE
  5
AF
100
AcDbEntity
  8
2
370
    50
100
AcDbLine
 10
-23.34309
 20
18.533274
 30
0.0
 11
-16.938805
 21
13.533274
 31
0.0
  0
LINE
  5
B0
100
AcDbEntity
  8
2
370
    50
100
AcDbLine
 10
-35.34309
 20
18.533274
 30
0.0
 11
-41.938805
 21
13.533274
 31
0.0
  0
LINE
  5
B1
100
AcDbEntity
  8
2
370
    50
100
AcDbLine
 10
-35.34309
 20
18.533274
 30
0.0
 11
-34.155268
 21
18.533274
 31
0.0
  0
LINE
  5
B2
100
AcDbEntity
  8
2
370
    50
100
AcDbLine
 10
-24.655268
 20
18.533274
 30
0.0
 11
-23.34309
 21
18.533274
 31
0.0
  0
LINE
  5
B3
100
AcDbEntity
  8
2
370
    50
100
AcDbLine
 10
-41.938805
 20
6.533274
 30
0.0
 11
-17.40523
 21
6.533274
 31
0.0
  0
LINE
  5
B4
100
AcDbEntity
  8
2
370
    50
100
AcDbLine
 10
-16.938805
 20
6.533274
 30
0.0
 11
-17.405229
 21
6.533274
 31
0.0
  0
LINE
  5
B5
100
AcDbEntity
  8
2
370
    50
100
AcDbLine
 10
-34.155268
 20
18.533274
 30
0.0
 11
-34.155268
 21
25.533274
 31
0.0
  0
LINE
  5
B6
100
AcDbEntity
  8
2
370
    50
100
AcDbLine
 10
-24.655576
 20
18.533274
 30
0.0
 11
-24.655576
 21
25.533274
 31
0.0
  0
LINE
  5
B7
100
AcDbEntity
  8
2
370
    50
100
AcDbLine
 10
-24.655576
 20
25.533274
 30
0.0
 11
-25.155576
 21
26.033274
 31
0.0
  0
LINE
  5
B8
100
AcDbEntity
  8
2
370
    50
100
AcDbLine
 10
-34.155268
 20
25.533274
 30
0.0
 11
-33.655268
 21
26.033274
 31
0.0
  0
LINE
  5
B9
100
AcDbEntity
  8
2
370
    50
100
AcDbLine
 10
-33.655268
 20
26.033274
 30
0.0
 11
-33.555422
 21
26.033274
 31
0.0
  0
LINE
  5
BA
100
AcDbEntity
  8
2
370
    50
100
AcDbLine
 10
-25.255422
 20
26.033274
 30
0.0
 11
-25.155576
 21
26.033274
 31
0.0
  0
POINT
  5
BB
100
AcDbEntity
  8
2
370
    50
100
AcDbPoint
 10
-29.405176
 20
19.033652
 30
0.0
  0
LINE
  5
BC
100
AcDbEntity
  8
2
370
    25
  6
CENTER
100
AcDbLine
 10
-64.41853
 20
-76.455746
 30
0.0
 11
-148.327874
 21
-76.455746
 31
0.0
  0
LINE
  5
BD
100
AcDbEntity
  8
2
370
    25
  6
CENTER
100
AcDbLine
 10
-64.41853
 20
-26.957329
 30
0.0
 11
-64.41853
 21
-76.455746
 31
0.0
  0
LINE
  5
BE
100
AcDbEntity
  8
2
370
    25
  6
CENTER
100
AcDbLine
 10
-148.327874
 20
-76.455746
 30
0.0
 11
-148.327874
 21
-112.945267
 31
0.0
  0
LINE
  5
BF
100
AcDbEntity
  8
2
370
    50
100
AcDbLine
 10
-155.777874
 20
-109.455746
 30
0.0
 11
-156.077874
 21
-109.455746
 31
0.0
  0
ARC
  5
C0
100
AcDbEntity
  8
2
370
    50
100
AcDbCircle
 10
-118.427874
 20
-106.355746
 30
0.0
 40
22.0
100
AcDbArc
 50
90.0
 51
175.045556
  0
ARC
  5
C1
100
AcDbEntity
  8
2
370
    50
100
AcDbCircle
 10
-94.31853
 20
-46.555746
 30
0.0
 40
37.8
100
AcDbArc
 50
270.0
 51
358.635686
  0
ARC
  5
C2
100
AcDbEntity
  8
2
370
    50
100
AcDbCircle
 10
-118.427874
 20
-106.355746
 30
0.0
 40
37.8
100
AcDbArc
 50
90.0
 51
177.118839
  0
ARC
  5
C3
100
AcDbEntity
  8
2
370
    50
100
AcDbCircle
 10
-143.508581
 20
-106.904424
 30
0.0
 40
4.0
100
AcDbArc
 50
320.369767
 51
37.74654
  0
ARC
  5
C4
100
AcDbEntity
  8
2
370
    50
100
AcDbCircle
 10
-153.007555
 20
-106.891933
 30
0.0
 40
4.0
100
AcDbArc
 50
142.479401
 51
219.862948
  0
LINE
  5
C5
100
AcDbEntity
  8
2
370
    50
100
AcDbLine
 10
-155.777874
 20
-109.455746
 30
0.0
 11
-140.427874
 21
-109.455746
 31
0.0
  0
LINE
  5
C6
100
AcDbEntity
  8
2
370
    50
100
AcDbLine
 10
-109.273062
 20
-84.355746
 30
0.0
 11
-118.427874
 21
-84.355746
 31
0.0
  0
LINE
  5
C7
100
AcDbEntity
  8
2
370
    50
100
AcDbLine
 10
-102.144155
 20
-68.555746
 30
0.0
 11
-118.427874
 21
-68.555746
 31
0.0
  0
ARC
  5
C8
100
AcDbEntity
  8
2
370
    25
  6
CENTER
100
AcDbCircle
 10
-118.427874
 20
-106.355746
 30
0.0
 40
29.9
100
AcDbArc
 50
90.0
 51
180.0
  0
ARC
  5
C9
100
AcDbEntity
  8
2
370
    25
  6
CENTER
100
AcDbCircle
 10
-94.31853
 20
-46.555746
 30
0.0
 40
29.9
100
AcDbArc
 50
270.0
 51
360.0
  0
SPLINE
  5
CA
100
AcDbEntity
  8
2
370
    50
100
AcDbSpline
210
0.0
220
0.0
230
1.0
 70
     8
 71
     3
 72
     0
 73
     0
 74
     4
 44
0.0000000001
 11
-110.874161
 21
-59.693618000000001
 31
0.0
 11
-102.21692299999999
 21
-69.874067999999994
 31
0.0
 11
-110.110268
 21
-78.781934000000007
 31
0.0
 11
-103.999341
 21
-90.998501000000005
 31
0.0
  0
LWPOLYLINE
  5
CB
100
AcDbEntity
  8
2
370
    50
100
AcDbPolyline
 90
       23
 70
     0
 10
-109.713059
 20
-58.065171
 10
-108.4997
 20
-58.932647
 10
-107.293928
 20
-59.808893
 10
-106.115121
 20
-60.694767
 10
-102.923492
 20
-63.442969
 10
-100.638145
 20
-66.55192
 10
-100.216326
 20
-67.773775
 10
-100.079795
 20
-69.105786
 10
-100.30852
 20
-70.472397
 10
-100.794113
 20
-71.580954
 10
-101.4364
 20
-72.543454
 10
-102.17596
 20
-73.4094
 10
-104.667328
 20
-75.72723
 10
-106.975101
 20
-77.836483
 10
-107.558753
 20
-78.483469
 10
-107.998823
 20
-79.076062
 10
-108.278544
 20
-79.584921
 10
-108.487598
 20
-80.641575
 10
-108.219239
 20
-81.969744
 10
-107.399122
 20
-83.638791
 10
-106.079428
 20
-85.530658
 10
-104.399839
 20
-87.55321
 10
-102.517305
 20
-89.655531
  0
LINE
  5
E4
100
AcDbEntity
  8
2
370
    50
100
AcDbLine
 10
-94.34919
 20
-84.355746
 30
0.0
 11
-106.860868
 21
-84.355746
 31
0.0
  0
LINE
  5
E5
100
AcDbEntity
  8
2
370
    50
100
AcDbLine
 10
-94.268941
 20
-68.555746
 30
0.0
 11
-100.128462
 21
-68.555746
 31
0.0
  0
LINE
  5
E6
100
AcDbEntity
  8
2
370
    50
100
AcDbLine
 10
-56.500113
 20
-47.455746
 30
0.0
 11
-54.01853
 21
-47.455746
 31
0.0
  0
LINE
  5
E7
100
AcDbEntity
  8
2
370
    50
100
AcDbLine
 10
-71.11875
 20
79.051795
 30
0.0
 11
-57.71875
 21
79.051795
 31
0.0
  0
LINE
  5
E8
100
AcDbEntity
  8
2
370
    50
100
AcDbLine
 10
-55.760316
 20
80.182498
 30
0.0
 11
-53.883121
 21
83.433895
 31
0.0
  0
LINE
  5
E9
100
AcDbEntity
  8
2
370
    50
100
AcDbLine
 10
-53.883121
 20
102.401987
 30
0.0
 11
-55.760316
 21
105.653384
 31
0.0
  0
LINE
  5
EA
100
AcDbEntity
  8
2
370
    50
100
AcDbLine
 10
-57.71875
 20
106.784087
 30
0.0
 11
-71.11875
 21
106.784087
 31
0.0
  0
LINE
  5
EB
100
AcDbEntity
  8
2
370
    50
100
AcDbLine
 10
-73.077185
 20
105.653384
 30
0.0
 11
-79.777185
 21
94.048643
 31
0.0
  0
LINE
  5
EC
100
AcDbEntity
  8
2
370
    50
100
AcDbLine
 10
-79.777185
 20
91.787238
 30
0.0
 11
-73.077185
 21
80.182498
 31
0.0
  0
ARC
  5
ED
100
AcDbEntity
  8
2
370
    50
100
AcDbCircle
 10
-64.41875
 20
92.917941
 30
0.0
 40
15.4
100
AcDbArc
 50
235.789426
 51
244.210574
  0
ARC
  5
EE
100
AcDbEntity
  8
2
370
    50
100
AcDbCircle
 10
-64.41875
 20
92.917941
 30
0.0
 40
15.4
100
AcDbArc
 50
175.789426
 51
184.210574
  0
ARC
  5
EF
100
AcDbEntity
  8
2
370
    50
100
AcDbCircle
 10
-64.41875
 20
92.917941
 30
0.0
 40
15.4
100
AcDbArc
 50
115.789426
 51
124.210574
  0
ARC
  5
F0
100
AcDbEntity
  8
2
370
    50
100
AcDbCircle
 10
-64.41875
 20
92.917941
 30
0.0
 40
15.4
100
AcDbArc
 50
55.789426
 51
64.210574
  0
ARC
  5
F1
100
AcDbEntity
  8
2
370
    50
100
AcDbCircle
 10
-64.41875
 20
92.917941
 30
0.0
 40
15.4
100
AcDbArc
 50
295.789426
 51
304.210574
  0
ARC
  5
F2
100
AcDbEntity
  8
2
370
    50
100
AcDbCircle
 10
-64.41875
 20
92.917941
 30
0.0
 40
13.365
100
AcDbArc
 50
45.177458
 51
314.822542
  0
LINE
  5
F3
100
AcDbEntity
  8
2
370
    25
  6
CENTER
100
AcDbLine
 10
-148.327874
 20
78.572891
 30
0.0
 11
-148.327874
 21
105.294731
 31
0.0
  0
ARC
  5
F4
100
AcDbEntity
  8
2
370
    50
100
AcDbCircle
 10
-148.327874
 20
92.917941
 30
0.0
 40
7.852
100
AcDbArc
 50
90.0
 51
270.0
  0
ARC
  5
F5
100
AcDbEntity
  8
2
370
    50
100
AcDbCircle
 10
-148.327874
 20
92.917941
 30
0.0
 40
8.819
100
AcDbArc
 50
63.610493
 51
296.389507
  0
SPLINE
  5
F6
100
AcDbEntity
  8
2
370
    50
100
AcDbSpline
210
0.0
220
0.0
230
1.0
 70
     8
 71
     3
 72
     0
 73
     0
 74
     4
 44
0.0000000001
 11
-113.682992
 21
107.873848
 31
0.0
 11
-105.02575400000001
 21
97.693398999999999
 31
0.0
 11
-112.919099
 21
88.785532000000003
 31
0.0
 11
-106.808171
 21
76.568965000000006
 31
0.0
  0
LWPOLYLINE
  5
F7
100
AcDbEntity
  8
2
370
    50
100
AcDbPolyline
 90
       23
 70
     0
 10
-112.52189
 20
109.502296
 10
-111.30853
 20
108.634819
 10
-110.102758
 20
107.758574
 10
-108.923951
 20
106.8727
 10
-105.732322
 20
104.124498
 10
-103.446975
 20
101.015546
 10
-103.025156
 20
99.793692
 10
-102.888626
 20
98.461681
 10
-103.117351
 20
97.09507
 10
-103.602943
 20
95.986512
 10
-104.245231
 20
95.024012
 10
-104.984791
 20
94.158067
 10
-107.476158
 20
91.840237
 10
-109.783931
 20
89.730984
 10
-110.367584
 20
89.083998
 10
-110.807653
 20
88.491405
 10
-111.087375
 20
87.982546
 10
-111.296428
 20
86.925892
 10
-111.02807
 20
85.597723
 10
-110.207953
 20
83.928676
 10
-108.888258
 20
82.036809
 10
-107.208669
 20
80.014256
 10
-105.326135
 20
77.911936
  0
LINE
  5
110
100
AcDbEntity
  8
2
370
    50
100
AcDbLine
 10
-148.327874
 20
100.817941
 30
0.0
 11
-105.740583
 21
100.817941
 31
0.0
  0
LINE
  5
111
100
AcDbEntity
  8
2
370
    50
100
AcDbLine
 10
-103.380735
 20
100.817941
 30
0.0
 11
-75.868929
 21
100.817941
 31
0.0
  0
LINE
  5
112
100
AcDbEntity
  8
2
370
    50
100
AcDbLine
 10
-148.327874
 20
85.017941
 30
0.0
 11
-112.935751
 21
85.017941
 31
0.0
  0
LINE
  5
113
100
AcDbEntity
  8
2
370
    50
100
AcDbLine
 10
-110.770407
 20
85.017941
 30
0.0
 11
-75.868929
 21
85.017941
 31
0.0
  0
LINE
  5
114
100
AcDbEntity
  8
2
370
    25
  6
CENTER
100
AcDbLine
 10
-64.418646
 20
-46.188936
 30
0.0
 11
-64.418646
 21
-33.245665
 31
0.0
  0
LINE
  5
115
100
AcDbEntity
  8
2
370
    50
100
AcDbLine
 10
-156.180092
 20
-104.455746
 30
0.0
 11
-140.345675
 21
-104.455746
 31
0.0
  0
ARC
  5
116
100
AcDbEntity
  8
2
370
    50
100
AcDbCircle
 10
-94.268941
 20
-46.555746
 30
0.0
 40
22.0
100
AcDbArc
 50
270.0
 51
357.655428
  0
LINE
  5
117
100
AcDbEntity
  8
2
370
    25
100
AcDbLine
 10
-52.01875
 20
-36.965864
 30
0.0
 11
-76.81875
 21
-36.965864
 31
0.0
  0
LINE
  5
118
100
AcDbEntity
  8
2
370
    50
100
AcDbLine
 10
-17.40523
 20
4.534136
 30
0.0
 11
-41.40523
 21
4.534136
 31
0.0
  0
LINE
  5
119
100
AcDbEntity
  8
2
370
    25
100
AcDbLine
 10
-40.80523
 20
6.034136
 30
0.0
 11
-18.00523
 21
6.034136
 31
0.0
  0
LINE
  5
11A
100
AcDbEntity
  8
2
370
    25
100
AcDbLine
 10
-40.80523
 20
6.034136
 30
0.0
 11
-40.80523
 21
6.539989
 31
0.0
  0
LINE
  5
11B
100
AcDbEntity
  8
2
370
    50
100
AcDbLine
 10
-41.40523
 20
4.534136
 30
0.0
 11
-41.40523
 21
6.539989
 31
0.0
  0
LINE
  5
11C
100
AcDbEntity
  8
2
370
    50
100
AcDbLine
 10
-34.155268
 20
18.533274
 30
0.0
 11
-24.655268
 21
18.533274
 31
0.0
  0
LINE
  5
11D
100
AcDbEntity
  8
2
370
    25
100
AcDbLine
 10
-34.155268
 20
25.533274
 30
0.0
 11
-24.655576
 21
25.533274
 31
0.0
  0
LINE
  5
11E
100
AcDbEntity
  8
2
370
    50
100
AcDbLine
 10
-33.555422
 20
26.033179
 30
0.0
 11
-25.255422
 21
26.033179
 31
0.0
  0
LINE
  5
11F
100
AcDbEntity
  8
2
370
    25
100
AcDbLine
 10
-17.564304
 20
13.533274
 30
0.0
 11
-41.246155
 21
13.533274
 31
0.0
  0
ELLIPSE
  5
120
100
AcDbEntity
  8
2
370
    50
100
AcDbEllipse
 10
-18.146899
 20
10.033274
 30
0.0
 11
0.0
 21
3.0707140000000002
 31
0.0
210
0.0
220
0.0
230
1.0
 40
0.846082
 41
0.0
 42
6.2831849999999996
  0
ELLIPSE
  5
121
100
AcDbEntity
  8
2
370
    50
100
AcDbEllipse
 10
-29.40523
 20
10.033274
 30
0.0
 11
5.1961519999999997
 21
0.0
 31
0.0
210
0.0
220
0.0
230
1.0
 40
0.563741
 41
0.0
 42
6.2831849999999996
  0
ELLIPSE
  5
122
100
AcDbEntity
  8
2
370
    50
100
AcDbEllipse
 10
-40.66356
 20
10.033274
 30
0.0
 11
0.0
 21
-3.0707140000000002
 31
0.0
210
0.0
220
0.0
230
1.0
 40
0.846082
 41
0.0
 42
6.2831849999999996
  0
LINE
  5
123
100
AcDbEntity
  8
2
370
    25
  6
CENTER
100
AcDbLine
 10
-29.40523
 20
-51.224057
 30
0.0
 11
-29.40523
 21
42.013467
 31
0.0
  0
LINE
  5
124
100
AcDbEntity
  8
2
370
    25
100
AcDbLine
 10
-29.40523
 20
37.033179
 30
0.0
 11
-29.40523
 21
40.033179
 31
0.0
  0
LINE
  5
125
100
AcDbEntity
  8
2
370
    50
100
AcDbLine
 10
-57.798779
 20
26.033179
 30
0.0
 11
-11.40523
 21
26.033179
 31
0.0
  0
LINE
  5
126
100
AcDbEntity
  8
2
370
    50
100
AcDbLine
 10
-59.73063
 20
28.550817
 30
0.0
 11
-58.919616
 21
31.577563
 31
0.0
  0
ARC
  5
127
100
AcDbEntity
  8
2
370
    50
100
AcDbCircle
 10
-57.798779
 20
28.033179
 30
0.0
 40
2.0
100
AcDbArc
 50
165.0
 51
270.0
  0
ARC
  5
128
100
AcDbEntity
  8
2
370
    50
100
AcDbCircle
 10
-29.40523
 20
-142.966821
 30
0.0
 40
180.0
100
AcDbArc
 50
85.411434
 51
98.108943
  0
ARC
  5
129
100
AcDbEntity
  8
2
370
    50
100
AcDbCircle
 10
-54.089987
 20
30.283468
 30
0.0
 40
5.0
100
AcDbArc
 50
98.108943
 51
165.0
  0
LINE
  5
12A
100
AcDbEntity
  8
2
370
    50
100
AcDbLine
 10
-10.40523
 20
27.033179
 30
0.0
 11
-10.40523
 21
31.47228
 31
0.0
  0
ARC
  5
12B
100
AcDbEntity
  8
2
370
    50
100
AcDbCircle
 10
-11.40523
 20
27.033179
 30
0.0
 40
1.0
100
AcDbArc
 50
270.0
 51
360.0
  0
ARC
  5
12C
100
AcDbEntity
  8
2
370
    50
100
AcDbCircle
 10
-15.40523
 20
31.47228
 30
0.0
 40
5.0
100
AcDbArc
 50
0.0
 51
85.411434
  0
LINE
  5
12D
100
AcDbEntity
  8
2
370
    50
100
AcDbLine
 10
-36.40523
 20
40.033179
 30
0.0
 11
-22.40523
 21
40.033179
 31
0.0
  0
LINE
  5
12E
100
AcDbEntity
  8
2
370
    50
100
AcDbLine
 10
-36.40523
 20
36.897016
 30
0.0
 11
-36.40523
 21
40.033179
 31
0.0
  0
LINE
  5
12F
100
AcDbEntity
  8
2
370
    50
100
AcDbLine
 10
-22.40523
 20
36.897016
 30
0.0
 11
-22.40523
 21
40.033179
 31
0.0
  0
LINE
  5
130
100
AcDbEntity
  8
2
370
    25
100
AcDbLine
 10
-28.90523
 20
37.032484
 30
0.0
 11
-28.90523
 21
40.033179
 31
0.0
  0
LINE
  5
131
100
AcDbEntity
  8
2
370
    25
100
AcDbLine
 10
-28.40523
 20
37.032484
 30
0.0
 11
-28.40523
 21
40.033179
 31
0.0
  0
LINE
  5
132
100
AcDbEntity
  8
2
370
    25
100
AcDbLine
 10
-27.90523
 20
37.032484
 30
0.0
 11
-27.90523
 21
40.033179
 31
0.0
  0
LINE
  5
133
100
AcDbEntity
  8
2
370
    25
100
AcDbLine
 10
-27.40523
 20
37.032484
 30
0.0
 11
-27.40523
 21
40.033179
 31
0.0
  0
LINE
  5
134
100
AcDbEntity
  8
2
370
    25
100
AcDbLine
 10
-26.90523
 20
37.032484
 30
0.0
 11
-26.90523
 21
40.033179
 31
0.0
  0
LINE
  5
135
100
AcDbEntity
  8
2
370
    25
100
AcDbLine
 10
-26.40523
 20
37.008177
 30
0.0
 11
-26.40523
 21
40.033179
 31
0.0
  0
LINE
  5
136
100
AcDbEntity
  8
2
370
    25
100
AcDbLine
 10
-25.90523
 20
36.999148
 30
0.0
 11
-25.90523
 21
40.033179
 31
0.0
  0
LINE
  5
137
100
AcDbEntity
  8
2
370
    25
100
AcDbLine
 10
-25.40523
 20
36.988729
 30
0.0
 11
-25.40523
 21
40.033179
 31
0.0
  0
LINE
  5
138
100
AcDbEntity
  8
2
370
    25
100
AcDbLine
 10
-24.90523
 20
36.97692
 30
0.0
 11
-24.90523
 21
40.033179
 31
0.0
  0
LINE
  5
139
100
AcDbEntity
  8
2
370
    25
100
AcDbLine
 10
-24.40523
 20
36.963721
 30
0.0
 11
-24.40523
 21
40.033179
 31
0.0
  0
LINE
  5
13A
100
AcDbEntity
  8
2
370
    25
100
AcDbLine
 10
-23.90523
 20
36.949131
 30
0.0
 11
-23.90523
 21
40.033179
 31
0.0
  0
LINE
  5
13B
100
AcDbEntity
  8
2
370
    25
100
AcDbLine
 10
-23.40523
 20
36.933151
 30
0.0
 11
-23.40523
 21
40.033179
 31
0.0
  0
LINE
  5
13C
100
AcDbEntity
  8
2
370
    25
100
AcDbLine
 10
-22.90523
 20
36.915779
 30
0.0
 11
-22.90523
 21
40.033179
 31
0.0
  0
LINE
  5
13D
100
AcDbEntity
  8
2
370
    25
100
AcDbLine
 10
-29.90523
 20
37.032484
 30
0.0
 11
-29.90523
 21
40.033179
 31
0.0
  0
LINE
  5
13E
100
AcDbEntity
  8
2
370
    25
100
AcDbLine
 10
-30.40523
 20
37.032484
 30
0.0
 11
-30.40523
 21
40.033179
 31
0.0
  0
LINE
  5
13F
100
AcDbEntity
  8
2
370
    25
100
AcDbLine
 10
-30.90523
 20
37.032484
 30
0.0
 11
-30.90523
 21
40.033179
 31
0.0
  0
LINE
  5
140
100
AcDbEntity
  8
2
370
    25
100
AcDbLine
 10
-31.40523
 20
37.032484
 30
0.0
 11
-31.40523
 21
40.033179
 31
0.0
  0
LINE
  5
141
100
AcDbEntity
  8
2
370
    25
100
AcDbLine
 10
-31.90523
 20
37.032484
 30
0.0
 11
-31.90523
 21
40.033179
 31
0.0
  0
LINE
  5
142
100
AcDbEntity
  8
2
370
    25
100
AcDbLine
 10
-32.40523
 20
37.008177
 30
0.0
 11
-32.40523
 21
40.033179
 31
0.0
  0
LINE
  5
143
100
AcDbEntity
  8
2
370
    25
100
AcDbLine
 10
-32.90523
 20
36.999148
 30
0.0
 11
-32.90523
 21
40.033179
 31
0.0
  0
LINE
  5
144
100
AcDbEntity
  8
2
370
    25
100
AcDbLine
 10
-33.40523
 20
36.988729
 30
0.0
 11
-33.40523
 21
40.033179
 31
0.0
  0
LINE
  5
145
100
AcDbEntity
  8
2
370
    25
100
AcDbLine
 10
-33.90523
 20
36.97692
 30
0.0
 11
-33.90523
 21
40.033179
 31
0.0
  0
LINE
  5
146
100
AcDbEntity
  8
2
370
    25
100
AcDbLine
 10
-34.40523
 20
36.963721
 30
0.0
 11
-34.40523
 21
40.033179
 31
0.0
  0
LINE
  5
147
100
AcDbEntity
  8
2
370
    25
100
AcDbLine
 10
-34.90523
 20
36.949131
 30
0.0
 11
-34.90523
 21
40.033179
 31
0.0
  0
LINE
  5
148
100
AcDbEntity
  8
2
370
    25
100
AcDbLine
 10
-35.40523
 20
36.933151
 30
0.0
 11
-35.40523
 21
40.033179
 31
0.0
  0
LINE
  5
149
100
AcDbEntity
  8
2
370
    25
100
AcDbLine
 10
-35.90523
 20
36.915779
 30
0.0
 11
-35.90523
 21
40.033179
 31
0.0
  0
LINE
  5
14A
100
AcDbEntity
  8
2
370
    50
100
AcDbLine
 10
18.59477
 20
-7.488364
 30
0.0
 11
18.59477
 21
-28.443364
 31
0.0
  0
LINE
  5
14B
100
AcDbEntity
  8
2
370
    50
100
AcDbLine
 10
28.39477
 20
-7.488364
 30
0.0
 11
28.39477
 21
-28.443364
 31
0.0
  0
POINT
  5
14C
100
AcDbEntity
  8
2
370
    50
100
AcDbPoint
 10
-64.41875
 20
-37.455746
 30
0.0
  0
LINE
  5
14D
100
AcDbEntity
  8
2
370
    50
100
AcDbLine
 10
-54.14375
 20
-47.455746
 30
0.0
 11
-74.69375
 21
-47.455746
 31
0.0
  0
LINE
  5
14E
100
AcDbEntity
  8
2
370
    50
100
AcDbLine
 10
-50.843138
 20
-37.455746
 30
0.0
 11
-77.994363
 21
-37.455746
 31
0.0
  0
POINT
  5
14F
100
AcDbEntity
  8
2
370
    50
100
AcDbPoint
 10
-64.41875
 20
-47.455746
 30
0.0
  0
ARC
  5
150
100
AcDbEntity
  8
2
370
    50
100
AcDbCircle
 10
-74.69375
 20
-42.455746
 30
0.0
 40
5.0
100
AcDbArc
 50
180.0
 51
270.0
  0
ARC
  5
151
100
AcDbEntity
  8
2
370
    50
100
AcDbCircle
 10
-57.349037
 20
-42.455746
 30
0.0
 40
8.205286
100
AcDbArc
 50
0.0
 51
37.543478
  0
ARC
  5
152
100
AcDbEntity
  8
2
370
    50
100
AcDbCircle
 10
-54.14375
 20
-42.455746
 30
0.0
 40
5.0
100
AcDbArc
 50
270.0
 51
360.0
  0
ARC
  5
153
100
AcDbEntity
  8
2
370
    50
100
AcDbCircle
 10
-71.488464
 20
-42.455746
 30
0.0
 40
8.205286
100
AcDbArc
 50
142.456522
 51
180.0
  0
ELLIPSE
  5
154
100
AcDbEntity
  8
2
370
    50
100
AcDbEllipse
 10
-64.41875
 20
-41.926941
 30
0.0
 11
-6.10947
 21
0.0
 31
0.0
210
0.0
220
0.0
230
1.0
 40
0.632482
 41
4.7123889999999999
 42
1.5707960000000001
  0
ELLIPSE
  5
155
100
AcDbEntity
  8
2
370
    50
100
AcDbEllipse
 10
-76.543106
 20
-41.926941
 30
0.0
 11
0.0
 21
-3.8641269999999999
 31
0.0
210
0.0
220
0.0
230
1.0
 40
0.790537
 41
0.0
 42
6.2831849999999996
  0
ELLIPSE
  5
156
100
AcDbEntity
  8
2
370
    50
100
AcDbEllipse
 10
-64.41875
 20
-41.926941
 30
0.0
 11
6.10947
 21
0.0
 31
0.0
210
0.0
220
0.0
230
1.0
 40
0.632482
 41
4.7123889999999999
 42
1.5707960000000001
  0
ELLIPSE
  5
157
100
AcDbEntity
  8
2
370
    50
100
AcDbEllipse
 10
-52.294395
 20
-41.926941
 30
0.0
 11
0.0
 21
3.8641269999999999
 31
0.0
210
0.0
220
0.0
230
1.0
 40
0.790537
 41
0.0
 42
6.2831849999999996
  0
DIMENSION
  5
158
100
AcDbEntity
  8
3
370
    25
100
AcDbDimension
  2
*D0
 10
-167.332077
 20
-76.455746
 30
0.0
 11
-171.332077
 21
-92.955746
 31
0.0
 71
     0
 72
     0
 41
0.0
 42
0.0
  3
Standard
100
AcDbAlignedDimension
 13
-155.777874
 23
-109.455746
 33
0.0
 14
-148.327874
 24
-76.455746
 34
0.0
 50
90.0
100
AcDbRotatedDimension
  0
DIMENSION
  5
159
100
AcDbEntity
  8
3
370
    25
100
AcDbDimension
  2
*D1
 10
29.59477
 20
-63.079479
 30
0.0
 11
22.59477
 21
-60.829479
 31
0.0
 71
     0
 72
     0
 41
0.0
 42
0.0
  3
Standard
100
AcDbAlignedDimension
 13
15.59477
 23
-40.765864
 33
0.0
 14
29.59477
 24
-27.243364
 34
0.0
100
AcDbRotatedDimension
  0
DIMENSION
  5
15A
100
AcDbEntity
  8
3
370
    25
100
AcDbDimension
  2
*D2
 10
15.59477
 20
-63.079479
 30
0.0
 11
-6.90523
 21
-60.829479
 31
0.0
 71
     0
 72
     0
 41
0.0
 42
0.0
  3
Standard
100
AcDbAlignedDimension
 13
-29.40523
 23
-33.634003
 33
0.0
 14
15.59477
 24
-63.079479
 34
0.0
100
AcDbRotatedDimension
  0
TEXT
  5
15B
100
AcDbEntity
  8
3
370
    50
100
AcDbText
 10
41.155925
 20
21.506855
 30
0.0
 40
3.5
  1
ＰＪ　１／２
 72
     5
 11
61.455925
 21
21.506855
 31
0.0
100
AcDbText
  0
TEXT
  5
15C
100
AcDbEntity
  8
3
370
    50
100
AcDbText
 10
39.244023
 20
16.703641
 30
0.0
 40
3.5
  1
（給水栓ネジ）
 72
     5
 11
63.044023
 21
16.703641
 31
0.0
100
AcDbText
  0
LWPOLYLINE
  5
15D
100
AcDbEntity
  8
3
370
    25
100
AcDbPolyline
 90
        3
 70
     0
 10
23.760416
 20
-7.352126
 10
39.978605
 20
20.889656
 10
62.302458
 20
20.889656
  0
LINE
  5
162
100
AcDbEntity
  8
3
370
    25
100
AcDbLine
 10
24.722459
 20
-5.676858
 30
0.0
 11
24.273573
 21
-5.419079
 31
0.0
  0
LINE
  5
163
100
AcDbEntity
  8
3
370
    25
100
AcDbLine
 10
24.273573
 20
-5.419079
 30
0.0
 11
23.760416
 21
-7.352126
 31
0.0
  0
LINE
  5
164
100
AcDbEntity
  8
3
370
    25
100
AcDbLine
 10
23.760416
 20
-7.352126
 30
0.0
 11
25.171346
 21
-5.934636
 31
0.0
  0
LINE
  5
165
100
AcDbEntity
  8
3
370
    25
100
AcDbLine
 10
25.171346
 20
-5.934636
 30
0.0
 11
24.722459
 21
-5.676858
 31
0.0
  0
TEXT
  5
166
100
AcDbEntity
  8
3
370
    50
100
AcDbText
 10
-177.30542
 20
-67.210805
 30
0.0
 40
3.5
  1
９２
 50
90.0
 72
     5
 11
-177.30542
 21
-60.910805
 31
0.0
100
AcDbText
  0
DIMENSION
  5
167
100
AcDbEntity
  8
3
370
    25
100
AcDbDimension
  2
*D3
 10
-176.80542
 20
-17.965864
 30
0.0
 11
-179.30542
 21
-63.710805
 31
0.0
 70
     1
 71
     0
 72
     0
 41
0.0
 42
0.0
  3
Standard
100
AcDbAlignedDimension
 13
-155.777874
 23
-109.455746
 33
0.0
 14
-66.785227
 24
-17.965864
 34
0.0
 50
90.0
  0
TEXT
  5
168
100
AcDbEntity
  8
3
370
    50
100
AcDbText
 10
34.663006
 20
-115.82637
 30
0.0
 40
3.0
  1
横水栓　１３　（自在形）
 72
     5
 11
70.063006
 21
-115.82637
 31
0.0
100
AcDbText
  0
TEXT
  5
169
100
AcDbEntity
  8
3
370
    50
100
AcDbText
 10
145.465408
 20
-119.506348
 30
0.0
 40
3.0
  1
１　１
 72
     5
 11
153.865408
 21
-119.506348
 31
0.0
100
AcDbText
  0
TEXT
  5
16A
100
AcDbEntity
  8
3
370
    50
100
AcDbText
 10
-71.616552
 20
-129.447968
 30
0.0
 40
3.5
  1
２５０
 72
     5
 11
-61.816552
 21
-129.447968
 31
0.0
100
AcDbText
  0
DIMENSION
  5
16B
100
AcDbEntity
  8
3
370
    25
100
AcDbDimension
  2
*D4
 10
15.59477
 20
-129.947968
 30
0.0
 11
-66.366552
 21
-127.947968
 31
0.0
 71
     0
 72
     0
 41
0.0
 42
0.0
  3
Standard
100
AcDbAlignedDimension
 13
-148.327874
 23
-112.945267
 33
0.0
 14
15.59477
 24
-40.765864
 34
0.0
100
AcDbRotatedDimension
  0
LINE
  5
16C
100
AcDbEntity
  8
3
370
    50
100
AcDbLine
 10
101.857193
 20
-68.648141
 30
0.0
 11
101.857193
 21
-108.985941
 31
0.0
  0
LINE
  5
16D
100
AcDbEntity
  8
3
370
    50
100
AcDbLine
 10
130.669193
 20
-68.648141
 30
0.0
 11
130.669193
 21
-108.985941
 31
0.0
  0
LINE
  5
16E
100
AcDbEntity
  8
3
370
    50
100
AcDbLine
 10
79.361993
 20
-88.817141
 30
0.0
 11
197.491193
 21
-88.817141
 31
0.0
  0
LINE
  5
16F
100
AcDbEntity
  8
3
370
    50
100
AcDbLine
 10
79.361993
 20
-75.371141
 30
0.0
 11
197.491193
 21
-75.371141
 31
0.0
  0
LINE
  5
170
100
AcDbEntity
  8
3
370
    50
100
AcDbLine
 10
79.361993
 20
-68.648141
 30
0.0
 11
197.491193
 21
-68.648141
 31
0.0
  0
LINE
  5
171
100
AcDbEntity
  8
3
370
    50
100
AcDbLine
 10
79.361993
 20
-68.648141
 30
0.0
 11
79.361993
 21
-108.985941
 31
0.0
  0
TEXT
  5
172
100
AcDbEntity
  8
3
370
    50
100
AcDbText
 10
85.070896
 20
-73.663718
 30
0.0
 40
3.0
  1
コード№
 72
     5
 11
96.470896
 21
-73.663718
 31
0.0
100
AcDbText
  0
TEXT
  5
173
100
AcDbEntity
  8
3
370
    50
100
AcDbText
 10
111.377072
 20
-73.600798
 30
0.0
 40
3.0
  1
品　番
 72
     5
 11
119.777072
 21
-73.600798
 31
0.0
100
AcDbText
  0
TEXT
  5
174
100
AcDbEntity
  8
3
370
    50
100
AcDbText
 10
81.400349
 20
-93.35649
 30
0.0
 40
3.0
  1
５００３１５
 72
     5
 11
98.800349
 21
-93.35649
 31
0.0
100
AcDbText
  0
TEXT
  5
175
100
AcDbEntity
  8
3
370
    50
100
AcDbText
 10
103.850479
 20
-93.697784
 30
0.0
 40
3.0
  1
Ｋ１３－３Ｈ
 72
     5
 11
121.250479
 21
-93.697784
 31
0.0
100
AcDbText
  0
TEXT
  5
176
100
AcDbEntity
  8
3
370
    50
100
AcDbText
 10
148.372998
 20
-87.015617
 30
0.0
 40
3.0
  1
青
 72
     5
 11
150.772998
 21
-87.015617
 31
0.0
100
AcDbText
  0
TEXT
  5
177
100
AcDbEntity
  8
3
370
    50
100
AcDbText
 10
148.388394
 20
-93.593017
 30
0.0
 40
3.0
  1
赤
 72
     5
 11
150.788394
 21
-93.593017
 31
0.0
100
AcDbText
  0
TEXT
  5
178
100
AcDbEntity
  8
3
370
    50
100
AcDbText
 10
172.512772
 20
-128.056366
 30
0.0
 40
3.0
  1
１６　　８　１９
 72
     5
 11
195.912772
 21
-128.056366
 31
0.0
100
AcDbText
  0
TEXT
  5
179
100
AcDbEntity
  8
3
370
    50
100
AcDbText
 10
115.530769
 20
-136.127792
 30
0.0
 40
3.5
  1
外観寸法図
 72
     5
 11
132.330769
 21
-136.127792
 31
0.0
100
AcDbText
  0
DIMENSION
  5
17A
100
AcDbEntity
  8
3
370
    25
100
AcDbDimension
  2
*D5
 10
50.223528
 20
5.034136
 30
0.0
 11
44.473528
 21
-19.715864
 31
0.0
 71
     0
 72
     0
 41
0.0
 42
0.0
  3
Standard
100
AcDbAlignedDimension
 13
15.39477
 23
-40.965864
 33
0.0
 14
15.39477
 24
5.034136
 34
0.0
 50
90.0
100
AcDbRotatedDimension
  0
TEXT
  5
17B
100
AcDbEntity
  8
3
370
    50
100
AcDbText
 10
137.608874
 20
-73.475859
 30
0.0
 40
3.0
  1
ハンドルビス・色
 72
     5
 11
161.008874
 21
-73.475859
 31
0.0
100
AcDbText
  0
LINE
  5
17C
100
AcDbEntity
  8
3
370
    50
100
AcDbLine
 10
79.361993
 20
-82.094141
 30
0.0
 11
197.491193
 21
-82.094141
 31
0.0
  0
TEXT
  5
17D
100
AcDbEntity
  8
3
370
    50
100
AcDbText
 10
103.850479
 20
-80.148581
 30
0.0
 40
3.0
  1
Ｋ１３－３
 72
     5
 11
118.250479
 21
-80.148581
 31
0.0
100
AcDbText
  0
TEXT
  5
17E
100
AcDbEntity
  8
3
370
    50
100
AcDbText
 10
81.571057
 20
-80.148581
 30
0.0
 40
3.0
  1
５００３００
 72
     5
 11
98.971057
 21
-80.148581
 31
0.0
100
AcDbText
  0
TEXT
  5
17F
100
AcDbEntity
  8
3
370
    50
100
AcDbText
 10
148.372998
 20
-80.292617
 30
0.0
 40
3.0
  1
青
 72
     5
 11
150.772998
 21
-80.292617
 31
0.0
100
AcDbText
  0
TEXT
  5
180
100
AcDbEntity
  8
3
370
    50
100
AcDbText
 10
81.571057
 20
-86.871581
 30
0.0
 40
3.0
  1
５００３０２
 72
     5
 11
98.971057
 21
-86.871581
 31
0.0
100
AcDbText
  0
TEXT
  5
181
100
AcDbEntity
  8
3
370
    50
100
AcDbText
 10
103.850479
 20
-86.871581
 30
0.0
 40
3.0
  1
Ｋ１３－３Ａ
 72
     5
 11
121.250479
 21
-86.871581
 31
0.0
100
AcDbText
  0
TEXT
  5
182
100
AcDbEntity
  8
3
370
    50
100
AcDbText
 10
-108.123202
 20
-119.376953
 30
0.0
 40
3.5
  1
Ａ
 72
     5
 11
-105.323202
 21
-119.376953
 31
0.0
100
AcDbText
  0
DIMENSION
  5
183
100
AcDbEntity
  8
3
370
    25
100
AcDbDimension
  2
*D6
 10
-148.327874
 20
-119.876953
 30
0.0
 11
-106.373202
 21
-117.876953
 31
0.0
 70
     1
 71
     0
 72
     0
 41
0.0
 42
0.0
  3
Standard
100
AcDbAlignedDimension
 13
-64.41853
 23
-79.34999
 33
0.0
 14
-148.327874
 24
-112.945267
 34
0.0
  0
LINE
  5
184
100
AcDbEntity
  8
3
370
    50
100
AcDbLine
 10
168.679193
 20
-68.648141
 30
0.0
 11
168.679193
 21
-108.985941
 31
0.0
  0
TEXT
  5
185
100
AcDbEntity
  8
3
370
    50
100
AcDbText
 10
178.481598
 20
-73.840057
 30
0.0
 40
3.5
  1
Ａ寸法
 72
     5
 11
188.281598
 21
-73.840057
 31
0.0
100
AcDbText
  0
LINE
  5
186
100
AcDbEntity
  8
3
370
    50
100
AcDbLine
 10
79.361993
 20
-95.540141
 30
0.0
 11
197.491193
 21
-95.540141
 31
0.0
  0
LINE
  5
187
100
AcDbEntity
  8
3
370
    50
100
AcDbLine
 10
79.361993
 20
-102.263141
 30
0.0
 11
197.491193
 21
-102.263141
 31
0.0
  0
TEXT
  5
188
100
AcDbEntity
  8
3
370
    50
100
AcDbText
 10
148.372998
 20
-100.461617
 30
0.0
 40
3.0
  1
青
 72
     5
 11
150.772998
 21
-100.461617
 31
0.0
100
AcDbText
  0
TEXT
  5
189
100
AcDbEntity
  8
3
370
    50
100
AcDbText
 10
148.372998
 20
-107.184617
 30
0.0
 40
3.0
  1
青
 72
     5
 11
150.772998
 21
-107.184617
 31
0.0
100
AcDbText
  0
TEXT
  5
18A
100
AcDbEntity
  8
3
370
    50
100
AcDbText
 10
103.850479
 20
-100.420784
 30
0.0
 40
3.0
  1
Ｋ１３－３Ｅ
 72
     5
 11
121.250479
 21
-100.420784
 31
0.0
100
AcDbText
  0
TEXT
  5
18B
100
AcDbEntity
  8
3
370
    50
100
AcDbText
 10
103.850479
 20
-107.143784
 30
0.0
 40
3.0
  1
Ｋ１３－３Ｔ
 72
     5
 11
121.250479
 21
-107.143784
 31
0.0
100
AcDbText
  0
TEXT
  5
18C
100
AcDbEntity
  8
3
370
    50
100
AcDbText
 10
178.779037
 20
-80.31041
 30
0.0
 40
3.5
  1
１７０
 72
     5
 11
188.579037
 21
-80.31041
 31
0.0
100
AcDbText
  0
TEXT
  5
18D
100
AcDbEntity
  8
3
370
    50
100
AcDbText
 10
178.779037
 20
-87.03341
 30
0.0
 40
3.5
  1
１７０
 72
     5
 11
188.579037
 21
-87.03341
 31
0.0
100
AcDbText
  0
TEXT
  5
18E
100
AcDbEntity
  8
3
370
    50
100
AcDbText
 10
178.779037
 20
-93.75641
 30
0.0
 40
3.5
  1
１７０
 72
     5
 11
188.579037
 21
-93.75641
 31
0.0
100
AcDbText
  0
TEXT
  5
18F
100
AcDbEntity
  8
3
370
    50
100
AcDbText
 10
178.779037
 20
-100.47941
 30
0.0
 40
3.5
  1
２４０
 72
     5
 11
188.579037
 21
-100.47941
 31
0.0
100
AcDbText
  0
TEXT
  5
190
100
AcDbEntity
  8
3
370
    50
100
AcDbText
 10
178.779037
 20
-107.20241
 30
0.0
 40
3.5
  1
３００
 72
     5
 11
188.579037
 21
-107.20241
 31
0.0
100
AcDbText
  0
TEXT
  5
191
100
AcDbEntity
  8
3
370
    50
100
AcDbText
 10
81.400349
 20
-100.07949
 30
0.0
 40
3.0
  1
５００３０８
 72
     5
 11
98.800349
 21
-100.07949
 31
0.0
100
AcDbText
  0
TEXT
  5
192
100
AcDbEntity
  8
3
370
    50
100
AcDbText
 10
81.400349
 20
-106.80249
 30
0.0
 40
3.0
  1
５００３０９
 72
     5
 11
98.800349
 21
-106.80249
 31
0.0
100
AcDbText
  0
ENDSEC
  0
SECTION
  2
OBJECTS
  0
DICTIONARY
  5
1E3
100
AcDbDictionary
280
     0
281
     1
  3
ACAD_GROUP
350
1E4
  3
ACAD_MLINESTYLE
350
1E5
  0
DICTIONARY
  5
1E4
102
{ACAD_REACTORS
330
1E3
102
}
100
AcDbDictionary
280
     0
281
     1
  0
DICTIONARY
  5
1E5
102
{ACAD_REACTORS
330
1E3
102
}
100
AcDbDictionary
280
     0
281
     1
  3
Standard
350
1E6
  0
MLINESTYLE
  5
1E6
102
{ACAD_REACTORS
330
1E5
102
}
100
AcDbMlineStyle
  2
Standard
 70
     0
  3

 62
     0
 51
90.0
 52
90.0
 71
     2
 49
0.5
 62
   256
  6
ByLayer
 49
-0.5
 62
   256
  6
ByLayer
  0
ENDSEC
  0
EOF
