  0
SECTION
  2
HEADER
  9
$ACADVER
  1
AC1015
  9
$ACADMAINTVER
 70
     6
  9
$DWGCODEPAGE
  3
ANSI_932
  9
$INSBASE
 10
0.0
 20
0.0
 30
0.0
  9
$EXTMIN
 10
-841.0
 20
-594.0
 30
1.000000E+20
  9
$EXTMAX
 10
841.0
 20
594.0
 30
-1.000000E+20
  9
$LIMMIN
 10
-841.0
 20
-594.0
  9
$LIMMAX
 10
841.0
 20
594.0
  9
$ORTHOMODE
 70
     0
  9
$REGENMODE
 70
     1
  9
$FILLMODE
 70
     1
  9
$QTEXTMODE
 70
     0
  9
$MIRRTEXT
 70
     1
  9
$LTSCALE
 40
1.0
  9
$ATTMODE
 70
     1
  9
$TEXTSIZE
 40
0.2
  9
$TRACEWID
 40
0.05
  9
$TEXTSTYLE
  7
STANDARD
  9
$CLAYER
  8
0
  9
$CELTYPE
  6
CONTINUOUS
  9
$CECOLOR
 62
   256
  9
$CELTSCALE
 40
1.0
  9
$DISPSILH
 70
     0
  9
$DIMSCALE
 40
2.0
  9
$DIMASZ
 40
2.0
  9
$DIMEXO
 40
1.0
  9
$DIMDLI
 40
0.38
  9
$DIMRND
 40
0.0
  9
$DIMDLE
 40
0.0
  9
$DIMEXE
 40
2.0
  9
$DIMTP
 40
0.0
  9
$DIMTM
 40
0.0
  9
$DIMTXT
 40
3.5
  9
$DIMCEN
 40
0.09
  9
$DIMTSZ
 40
0.0
  9
$DIMTOL
 70
     0
  9
$DIMLIM
 70
     0
  9
$DIMTIH
 70
     0
  9
$DIMTOH
 70
     0
  9
$DIMSE1
 70
     0
  9
$DIMSE2
 70
     0
  9
$DIMTAD
 70
     1
  9
$DIMZIN
 70
     0
  9
$DIMBLK
  1

  9
$DIMASO
 70
     1
  9
$DIMSHO
 70
     1
  9
$DIMPOST
  1

  9
$DIMAPOST
  1

  9
$DIMALT
 70
     0
  9
$DIMALTD
 70
     2
  9
$DIMALTF
 40
25.4
  9
$DIMLFAC
 40
1.0
  9
$DIMTOFL
 70
     0
  9
$DIMTVP
 40
0.0
  9
$DIMTIX
 70
     0
  9
$DIMSOXD
 70
     0
  9
$DIMSAH
 70
     0
  9
$DIMBLK1
  1

  9
$DIMBLK2
  1

  9
$DIMSTYLE
  2
Standard
  9
$DIMCLRD
 70
     0
  9
$DIMCLRE
 70
     0
  9
$DIMCLRT
 70
     0
  9
$DIMTFAC
 40
1.0
  9
$DIMGAP
 40
0.5
  9
$DIMJUST
 70
     0
  9
$DIMSD1
 70
     0
  9
$DIMSD2
 70
     0
  9
$DIMTOLJ
 70
     1
  9
$DIMTZIN
 70
     0
  9
$DIMALTZ
 70
     0
  9
$DIMALTTZ
 70
     0
  9
$DIMUPT
 70
     0
  9
$DIMDEC
 70
     3
  9
$DIMTDEC
 70
     4
  9
$DIMALTU
 70
     2
  9
$DIMALTTD
 70
     2
  9
$DIMTXSTY
  7
STANDARD
  9
$DIMAUNIT
 70
     0
  9
$DIMADEC
 70
     0
  9
$DIMALTRND
 40
0.0
  9
$DIMAZIN
 70
     0
  9
$DIMDSEP
 70
     0
  9
$DIMATFIT
 70
     3
  9
$DIMFRAC
 70
     0
  9
$DIMLDRBLK
  1

  9
$DIMLUNIT
 70
     2
  9
$DIMLWD
 70
     0
  9
$DIMLWE
 70
     0
  9
$DIMTMOVE
 70
     0
  9
$LUNITS
 70
     2
  9
$LUPREC
 70
     4
  9
$SKETCHINC
 40
0.1
  9
$FILLETRAD
 40
0.0
  9
$AUNITS
 70
     0
  9
$AUPREC
 70
     0
  9
$MENU
  1
acad
  9
$ELEVATION
 40
0.0
  9
$PELEVATION
 40
0.0
  9
$THICKNESS
 40
0.0
  9
$LIMCHECK
 70
     0
  9
$CHAMFERA
 40
0.0
  9
$CHAMFERB
 40
0.0
  9
$CHAMFERC
 40
0.0
  9
$CHAMFERD
 40
0.0
  9
$SKPOLY
 70
     0
  9
$TDCREATE
 40
2453383.000000000
  9
$TDUCREATE
 40
0.000000000
  9
$TDUPDATE
 40
0.000000000
  9
$TDUUPDATE
 40
2447892.625000000
  9
$TDINDWG
 40
0.0000000000
  9
$TDUSRTIMER
 40
0.0000000000
  9
$USRTIMER
 70
     1
  9
$ANGBASE
 50
0.0
  9
$ANGDIR
 70
     0
  9
$PDMODE
 70
     0
  9
$PDSIZE
 40
0.0
  9
$PLINEWID
 40
0.0
  9
$SPLFRAME
 70
     0
  9
$SPLINETYPE
 70
     6
  9
$SPLINESEGS
 70
     8
  9
$HANDSEED
  5
509
  9
$SURFTAB1
 70
     6
  9
$SURFTAB2
 70
     6
  9
$SURFTYPE
 70
     6
  9
$SURFU
 70
     6
  9
$SURFV
 70
     6
  9
$UCSBASE
  2

  9
$UCSNAME
  2

  9
$UCSORG
 10
0.0
 20
0.0
 30
0.0
  9
$UCSXDIR
 10
1.0
 20
0.0
 30
0.0
  9
$UCSYDIR
 10
0.0
 20
1.0
 30
0.0
  9
$UCSORTHOREF
  2

  9
$UCSORTHOVIEW
 70
     0
  9
$UCSORGTOP
 10
0.0
 20
0.0
 30
0.0
  9
$UCSORGBOTTOM
 10
0.0
 20
0.0
 30
0.0
  9
$UCSORGLEFT
 10
0.0
 20
0.0
 30
0.0
  9
$UCSORGRIGHT
 10
0.0
 20
0.0
 30
0.0
  9
$UCSORGFRONT
 10
0.0
 20
0.0
 30
0.0
  9
$UCSORGBACK
 10
0.0
 20
0.0
 30
0.0
  9
$PUCSBASE
  2

  9
$PUCSNAME
  2

  9
$PUCSORG
 10
0.0
 20
0.0
 30
0.0
  9
$PUCSXDIR
 10
1.0
 20
0.0
 30
0.0
  9
$PUCSYDIR
 10
0.0
 20
1.0
 30
0.0
  9
$PUCSORTHOREF
  2

  9
$PUCSORTHOVIEW
 70
     0
  9
$PUCSORGTOP
 10
0.0
 20
0.0
 30
0.0
  9
$PUCSORGBOTTOM
 10
0.0
 20
0.0
 30
0.0
  9
$PUCSORGLEFT
 10
0.0
 20
0.0
 30
0.0
  9
$PUCSORGRIGHT
 10
0.0
 20
0.0
 30
0.0
  9
$PUCSORGFRONT
 10
0.0
 20
0.0
 30
0.0
  9
$PUCSORGBACK
 10
0.0
 20
0.0
 30
0.0
  9
$USERI1
 70
     0
  9
$USERI2
 70
     0
  9
$USERI3
 70
     0
  9
$USERI4
 70
     0
  9
$USERI5
 70
     0
  9
$USERR1
 40
0.0
  9
$USERR2
 40
0.0
  9
$USERR3
 40
0.0
  9
$USERR4
 40
0.0
  9
$USERR5
 40
0.0
  9
$WORLDVIEW
 70
     1
  9
$SHADEDGE
 70
     3
  9
$SHADEDIF
 70
    70
  9
$TILEMODE
 70
     1
  9
$MAXACTVP
 70
    16
  9
$PINSBASE
 10
0.0
 20
0.0
 30
0.0
  9
$PLIMCHECK
 70
     0
  9
$PEXTMIN
 10
1.000000E+20
 20
1.000000E+20
 30
1.000000E+20
  9
$PEXTMAX
 10
-1.000000E+20
 20
-1.000000E+20
 30
-1.000000E+20
  9
$PLIMMIN
 10
0.0
 20
0.0
  9
$PLIMMAX
 10
12.0
 20
9.0
  9
$UNITMODE
 70
     0
  9
$VISRETAIN
 70
     0
  9
$PLINEGEN
 70
     1
  9
$PSLTSCALE
 70
     0
  9
$TREEDEPTH
 70
  3020
  9
$CMLSTYLE
  2
Standard
  9
$CMLJUST
 70
     0
  9
$CMLSCALE
 40
1.0
  9
$PROXYGRAPHICS
 70
     0
  9
$MEASUREMENT
 70
     0
  9
$CELWEIGHT
370
     0
  9
$ENDCAPS
280
     0
  9
$JOINSTYLE
280
     0
  9
$LWDISPLAY
290
     0
  9
$INSUNITS
 70
     0
  9
$HYPERLINKBASE
  1

  9
$STYLESHEET
  1

  9
$XEDIT
290
     1
  9
$CEPSNTYPE
380
     0
  9
$PSTYLEMODE
290
     1
  9
$FINGERPRINTGUID
  2

  9
$VERSIONGUID
  2

  9
$EXTNAMES
290
     1
  9
$PSVPSCALE
 40
0.0
  0
ENDSEC
  0
SECTION
  2
CLASSES
  0
CLASS
  1
LWPOLYLINE
  2
AcDbPolyline
  3
AutoCAD 2000
 90
        0
280
     0
281
     1
  0
CLASS
  1
IMAGE
  2
AcDbRasterImage
  3
ISM
 90
      127
280
     0
281
     1
  0
CLASS
  1
OLE2FRAME
  2
AcDbOle2Frame
  3
AutoCAD 2000
 90
        0
280
     0
281
     1
  0
CLASS
  1
HATCH
  2
AcDbHatch
  3
AutoCAD 2000
 90
        0
280
     0
281
     1
  0
CLASS
  1
DICTIONARYVAR
  2
AcDbDictionaryVar
  3
AutoCAD 2000
 90
        0
280
     0
281
     0
  0
CLASS
  1
RASTERVARIABLES
  2
AcDbRasterVariables
  3
ISM
 90
        0
280
     0
281
     0
  0
CLASS
  1
IMAGEDEF
  2
AcDbRasterImageDef
  3
ISM
 90
        0
280
     0
281
     0
  0
CLASS
  1
IMAGEDEF_REACTOR
  2
AcDbRasterImageDefReactor
  3
ISM
 90
        1
280
     0
281
     0
  0
CLASS
  1
IDBUFFER
  2
AcDbIdBuffer
  3
AutoCAD 2000
 90
        0
280
     0
281
     0
  0
CLASS
  1
SPATIAL_FILTER
  2
AcDbSpatialFilter
  3
AutoCAD 2000
 90
        0
280
     0
281
     0
  0
CLASS
  1
XRECORD
  2
AcDbXrecord
  3
AutoCAD 2000
 90
        0
280
     0
281
     0
  0
CLASS
  1
SORTENTSTABLE
  2
AcDbSortentsTable
  3
AutoCAD 2000
 90
        0
280
     0
281
     0
  0
CLASS
  1
LAYER_INDEX
  2
AcDbLayerIndex
  3
AutoCAD 2000
 90
        0
280
     0
281
     0
  0
CLASS
  1
SPATIAL_INDEX
  2
AcDbSpatialIndex
  3
AutoCAD 2000
 90
        0
280
     0
281
     0
  0
CLASS
  1
OBJECT_PTR
  2
CAseDLPNTableRecord
  3
"ASE-LPNTableRecord"
 90
        1
280
     0
281
     0
  0
CLASS
  1
LAYOUT
  2
AcDbLayout
  3
AutoCAD 2000
 90
        0
280
     0
281
     0
  0
CLASS
  1
PLOTSETTINGS
  2
AcDbPlotSettings
  3
AutoCAD 2000
 90
        0
280
     0
281
     0
  0
CLASS
  1
ACDBDICTIONARYWDFLT
  2
AcDbDictionaryWithDefault
  3
AutoCAD 2000
 90
        0
280
     0
281
     0
  0
CLASS
  1
ACDBPLACEHOLDER
  2
AcDbPlaceHolder
  3
AutoCAD 2000
 90
        0
280
     0
281
     0
  0
CLASS
  1
VBA_PROJECT
  2
AcDbVbaProject
  3
acadvba
 90
        0
280
     0
281
     0
  0
CLASS
  1
WIPEOUT
  2
AcDbWipeout
  3
WipeOut|AutoCAD Express Tool|expresstools@autodesk.com
 90
      127
280
     0
281
     1
  0
CLASS
  1
WIPEOUTVARIABLES
  2
AcDbWipeoutVariables
  3
WipeOut|AutoCAD Express Tool|expresstools@autodesk.com
 90
        0
280
     0
281
     0
  0
CLASS
  1
RTEXT
  2
RText
  3
RText|AutoCAD Express Tool|expresstools@autodesk.com
 90
        0
280
     0
281
     1
  0
CLASS
  1
ARCALIGNEDTEXT
  2
AcDbArcAlignedText
  3
ATEXT|AutoCAD Express Tool|expresstools@autodesk.com
 90
        0
280
     0
281
     1
  0
ENDSEC
  0
SECTION
  2
TABLES
  0
TABLE
  2
VPORT
  5
6
100
AcDbSymbolTable
 70
     1
  0
VPORT
  5
19
100
AcDbSymbolTableRecord
100
AcDbViewportTableRecord
  2
*ACTIVE
 70
     0
 10
0.0
 20
0.0
 11
1.0
 21
1.0
 12
0.0
 22
0.0
 13
0.0
 23
0.0
 14
1.0
 24
1.0
 15
0.0
 25
0.0
 16
0.0
 26
0.0
 36
1.0
 17
0.0
 27
0.0
 37
0.0
 40
1188.0
 41
1.415825
 42
50.0
 43
0.0
 44
0.0
 50
0.0
 51
0.0
 71
     0
 72
   500
 73
     1
 74
     1
 75
     0
 76
     0
 77
     0
 78
     0
281
     0
 65
     0
110
0.0
120
0.0
130
0.0
111
1.0
121
0.0
131
0.0
112
0.0
122
1.0
132
0.0
345
0
346
0
 79
     0
146
0.0
  0
ENDTAB
  0
TABLE
  2
LTYPE
  5
3
100
AcDbSymbolTable
 70
     9
  0
LTYPE
  5
C
100
AcDbSymbolTableRecord
100
AcDbLinetypeTableRecord
  2
ByBlock
 70
    64
  3

 72
    65
 73
     0
 40
0.0
  0
LTYPE
  5
D
100
AcDbSymbolTableRecord
100
AcDbLinetypeTableRecord
  2
ByLayer
 70
    64
  3

 72
    65
 73
     0
 40
0.0
  0
LTYPE
  5
E
100
AcDbSymbolTableRecord
100
AcDbLinetypeTableRecord
  2
CONTINUOUS
 70
     0
  3
Solid line
 72
    65
 73
     0
 40
0.0
  0
LTYPE
  5
F
100
AcDbSymbolTableRecord
100
AcDbLinetypeTableRecord
  2
DASHED
 70
     0
  3
__ __ __ __ __ __ __ __ __ __ __ __ __ __ __
 72
    65
 73
     2
 40
2.0
 49
1.2
 74
     0
 49
-0.8
 74
     0
  0
LTYPE
  5
10
100
AcDbSymbolTableRecord
100
AcDbLinetypeTableRecord
  2
CENTER
 70
     0
  3
____ _ ____ _ ____ _ ____ _ ____ _ ____ _ ____
 72
    65
 73
     4
 40
12.0
 49
9.0
 74
     0
 49
-1.0
 74
     0
 49
1.0
 74
     0
 49
-1.0
 74
     0
  0
LTYPE
  5
11
100
AcDbSymbolTableRecord
100
AcDbLinetypeTableRecord
  2
HIDDEN
 70
     0
  3
_ _ _ _ _ _ _ _ _ _ _ _ _ _ _ _ _ _ _ _ _ _ _
 72
    65
 73
     2
 40
3.2
 49
2.4
 74
     0
 49
-0.8
 74
     0
  0
LTYPE
  5
12
100
AcDbSymbolTableRecord
100
AcDbLinetypeTableRecord
  2
PHANTOM
 70
     0
  3
_____ _ _ _____ _ _ _____ _ _ _____ _ _ _____
 72
    65
 73
     6
 40
13.5
 49
9.0
 74
     0
 49
-1.0
 74
     0
 49
1.0
 74
     0
 49
-0.5
 74
     0
 49
1.0
 74
     0
 49
-1.0
 74
     0
  0
LTYPE
  5
13
100
AcDbSymbolTableRecord
100
AcDbLinetypeTableRecord
  2
DOT
 70
     0
  3
...............................................
 72
    65
 73
     2
 40
1.0
 49
0.5
 74
     0
 49
-0.5
 74
     0
  0
LTYPE
  5
14
100
AcDbSymbolTableRecord
100
AcDbLinetypeTableRecord
  2
DASHDOT
 70
     0
  3
__ . __ . __ . __ . __ . __ . __ . __ . __ . __
 72
    65
 73
     4
 40
8.0
 49
5.0
 74
     0
 49
-1.0
 74
     0
 49
1.0
 74
     0
 49
-1.0
 74
     0
  0
ENDTAB
  0
TABLE
  2
LAYER
  5
1
100
AcDbSymbolTable
 70
     4
  0
LAYER
  5
15
100
AcDbSymbolTableRecord
100
AcDbLayerTableRecord
  2
0
 70
     0
 62
     7
  6
CONTINUOUS
290
     1
370
    -3
390
0
  0
LAYER
  5
16
100
AcDbSymbolTableRecord
100
AcDbLayerTableRecord
  2
1
 70
     0
 62
     7
  6
CONTINUOUS
290
     1
370
    -3
390
0
  0
LAYER
  5
17
100
AcDbSymbolTableRecord
100
AcDbLayerTableRecord
  2
2
 70
     0
 62
     7
  6
CONTINUOUS
290
     1
370
    -3
390
0
  0
LAYER
  5
18
100
AcDbSymbolTableRecord
100
AcDbLayerTableRecord
  2
3
 70
     0
 62
     7
  6
CONTINUOUS
290
     1
370
    -3
390
0
  0
ENDTAB
  0
TABLE
  2
STYLE
  5
2
100
AcDbSymbolTable
 70
     1
  0
STYLE
  5
1B
100
AcDbSymbolTableRecord
100
AcDbTextStyleTableRecord
  2
STANDARD
 70
    64
 40
0.0
 41
1.0
 50
0.0
 71
     0
 42
1.0
  3
txt
  4
BIGFONT
  0
ENDTAB
  0
TABLE
  2
VIEW
  5
4
100
AcDbSymbolTable
 70
     0
  0
ENDTAB
  0
TABLE
  2
UCS
  5
5
100
AcDbSymbolTable
 70
     0
  0
ENDTAB
  0
TABLE
  2
APPID
  5
7
100
AcDbSymbolTable
 70
     1
  0
APPID
  5
1A
100
AcDbSymbolTableRecord
100
AcDbRegAppTableRecord
  2
ACAD
 70
     0
  0
ENDTAB
  0
TABLE
  2
DIMSTYLE
  5
8
100
AcDbSymbolTable
 70
     1
100
AcDbDimStyleTable
 71
     0
  0
DIMSTYLE
105
31
100
AcDbSymbolTableRecord
100
AcDbDimStyleTableRecord
  2
Standard
 70
     0
  3

  4

 40
2.0
 41
2.0
 42
1.0
 43
0.38
 44
2.0
 45
0.0
 46
0.0
 47
0.0
 48
0.0
 71
     0
 72
     0
 73
     0
 74
     0
 75
     0
 76
     0
 77
     1
 78
     0
 79
     0
140
3.5
141
0.09
142
0.0
143
25.4
144
1.0
145
0.0
146
1.0
147
0.5
148
0.0
170
     0
171
     2
172
     0
173
     0
174
     0
175
     0
176
     0
177
     0
178
     0
179
     0
271
     3
272
     4
273
     2
274
     2
275
     0
276
     0
277
     2
278
    46
279
     0
280
     0
281
     0
282
     0
283
     1
284
     0
285
     0
286
     0
288
     0
289
     3
340
1B
341
0
342
0
343
0
344
0
371
    -2
372
    -2
  0
ENDTAB
  0
TABLE
  2
BLOCK_RECORD
  5
2C
100
AcDbSymbolTable
 70
    14
  0
BLOCK_RECORD
  5
2A
100
AcDbSymbolTableRecord
100
AcDbBlockTableRecord
  2
*Model_Space
340
0
  0
BLOCK_RECORD
  5
2B
100
AcDbSymbolTableRecord
100
AcDbBlockTableRecord
  2
*Paper_Space
340
0
  0
BLOCK_RECORD
  5
1C
100
AcDbSymbolTableRecord
100
AcDbBlockTableRecord
  2
*D0
340
0
  0
BLOCK_RECORD
  5
1D
100
AcDbSymbolTableRecord
100
AcDbBlockTableRecord
  2
*D1
340
0
  0
BLOCK_RECORD
  5
1E
100
AcDbSymbolTableRecord
100
AcDbBlockTableRecord
  2
*D2
340
0
  0
BLOCK_RECORD
  5
1F
100
AcDbSymbolTableRecord
100
AcDbBlockTableRecord
  2
*D3
340
0
  0
BLOCK_RECORD
  5
20
100
AcDbSymbolTableRecord
100
AcDbBlockTableRecord
  2
*D4
340
0
  0
BLOCK_RECORD
  5
21
100
AcDbSymbolTableRecord
100
AcDbBlockTableRecord
  2
*D5
340
0
  0
BLOCK_RECORD
  5
22
100
AcDbSymbolTableRecord
100
AcDbBlockTableRecord
  2
*D6
340
0
  0
BLOCK_RECORD
  5
23
100
AcDbSymbolTableRecord
100
AcDbBlockTableRecord
  2
*D7
340
0
  0
BLOCK_RECORD
  5
24
100
AcDbSymbolTableRecord
100
AcDbBlockTableRecord
  2
*D8
340
0
  0
BLOCK_RECORD
  5
25
100
AcDbSymbolTableRecord
100
AcDbBlockTableRecord
  2
*D9
340
0
  0
BLOCK_RECORD
  5
26
100
AcDbSymbolTableRecord
100
AcDbBlockTableRecord
  2
*D10
340
0
  0
BLOCK_RECORD
  5
27
100
AcDbSymbolTableRecord
100
AcDbBlockTableRecord
  2
*D11
340
0
  0
BLOCK_RECORD
  5
28
100
AcDbSymbolTableRecord
100
AcDbBlockTableRecord
  2
*D12
340
0
  0
BLOCK_RECORD
  5
29
100
AcDbSymbolTableRecord
100
AcDbBlockTableRecord
  2
*D13
340
0
  0
ENDTAB
  0
ENDSEC
  0
SECTION
  2
BLOCKS
  0
BLOCK
  5
2D
100
AcDbEntity
  8
0
390
0
100
AcDbBlockBegin
  2
*Model_Space
 70
     0
 10
0.0
 20
0.0
 30
0.0
  3
*Model_Space
  1

  0
ENDBLK
  5
2E
100
AcDbEntity
  8
0
390
0
100
AcDbBlockEnd
  0
BLOCK
  5
2F
100
AcDbEntity
 67
     1
  8
0
390
0
100
AcDbBlockBegin
  2
*Paper_Space
 70
     0
 10
0.0
 20
0.0
 30
0.0
  3
*Paper_Space
  1

  0
ENDBLK
  5
30
100
AcDbEntity
 67
     1
  8
0
390
0
100
AcDbBlockEnd
  0
BLOCK
  5
461
100
AcDbEntity
  8
3
100
AcDbBlockBegin
  2
*D0
 70
     1
 10
0.0
 20
0.0
 30
0.0
  3
*D0
  1

  0
LINE
  5
462
100
AcDbEntity
  8
3
370
    25
100
AcDbLine
 10
203.093704
 20
1.967566
 30
0.0
 11
20.639064
 21
1.967566
 31
0.0
  0
LINE
  5
463
100
AcDbEntity
  8
3
370
    25
100
AcDbLine
 10
22.639064
 20
1.967566
 30
0.0
 11
23.674341
 21
5.831269
 31
0.0
  0
LINE
  5
464
100
AcDbEntity
  8
3
370
    25
100
AcDbLine
 10
22.639064
 20
1.967566
 30
0.0
 11
21.603788
 21
5.831269
 31
0.0
  0
LINE
  5
465
100
AcDbEntity
  8
3
370
    25
100
AcDbLine
 10
23.674341
 20
5.831269
 30
0.0
 11
21.603788
 21
5.831269
 31
0.0
  0
LINE
  5
466
100
AcDbEntity
  8
3
370
    25
100
AcDbLine
 10
22.639064
 20
1.967566
 30
0.0
 11
22.639064
 21
147.640067
 31
0.0
  0
LINE
  5
467
100
AcDbEntity
  8
3
370
    25
100
AcDbLine
 10
22.639064
 20
147.640067
 30
0.0
 11
21.603788
 21
143.776364
 31
0.0
  0
LINE
  5
468
100
AcDbEntity
  8
3
370
    25
100
AcDbLine
 10
22.639064
 20
147.640067
 30
0.0
 11
23.674341
 21
143.776364
 31
0.0
  0
LINE
  5
469
100
AcDbEntity
  8
3
370
    25
100
AcDbLine
 10
21.603788
 20
143.776364
 30
0.0
 11
23.674341
 21
143.776364
 31
0.0
  0
LINE
  5
46A
100
AcDbEntity
  8
3
370
    25
100
AcDbLine
 10
165.242362
 20
147.640067
 30
0.0
 11
20.639064
 21
147.640067
 31
0.0
  0
ENDBLK
  5
46B
100
AcDbEntity
  8
3
100
AcDbBlockEnd
  0
BLOCK
  5
46C
100
AcDbEntity
  8
3
100
AcDbBlockBegin
  2
*D1
 70
     1
 10
0.0
 20
0.0
 30
0.0
  3
*D1
  1

  0
TEXT
  5
46D
100
AcDbEntity
  8
3
370
    25
100
AcDbText
 10
121.252595
 20
128.106006
 30
0.0
 40
7.0
  1
２５゜
 50
77.5
 72
     5
 11
125.494812
 21
147.241408
 31
0.0
100
AcDbText
  0
LINE
  5
46E
100
AcDbEntity
  8
3
370
    25
100
AcDbLine
 10
163.636634
 20
149.321446
 30
0.0
 11
130.407422
 21
164.816482
 31
0.0
  0
LINE
  5
46F
100
AcDbEntity
  8
3
370
    25
100
AcDbLine
 10
124.780363
 20
111.468235
 30
0.0
 11
118.5804
 21
111.468235
 31
0.0
  0
LINE
  5
470
100
AcDbEntity
  8
3
370
    25
100
AcDbLine
 10
132.220037
 20
163.971246
 30
0.0
 11
129.696847
 21
160.867456
 31
0.0
  0
LINE
  5
471
100
AcDbEntity
  8
3
370
    25
100
AcDbLine
 10
132.220037
 20
163.971246
 30
0.0
 11
131.586785
 21
160.02169
 31
0.0
  0
LINE
  5
472
100
AcDbEntity
  8
3
370
    25
100
AcDbLine
 10
129.696847
 20
160.867456
 30
0.0
 11
131.586785
 21
160.02169
 31
0.0
  0
LINE
  5
473
100
AcDbEntity
  8
3
370
    25
100
AcDbLine
 10
120.5804
 20
111.468235
 30
0.0
 11
121.675633
 21
115.315372
 31
0.0
  0
LINE
  5
474
100
AcDbEntity
  8
3
370
    25
100
AcDbLine
 10
120.5804
 20
111.468235
 30
0.0
 11
119.605331
 21
115.34757
 31
0.0
  0
LINE
  5
475
100
AcDbEntity
  8
3
370
    25
100
AcDbLine
 10
121.675633
 20
115.315372
 30
0.0
 11
119.605331
 21
115.34757
 31
0.0
  0
ARC
  5
476
100
AcDbEntity
  8
3
370
    25
100
AcDbCircle
 10
244.813107
 20
111.468235
 30
0.0
 40
124.232707
100
AcDbArc
 50
155.0
 51
180.0
  0
ENDBLK
  5
477
100
AcDbEntity
  8
3
100
AcDbBlockEnd
  0
BLOCK
  5
478
100
AcDbEntity
  8
3
100
AcDbBlockBegin
  2
*D2
 70
     1
 10
0.0
 20
0.0
 30
0.0
  3
*D2
  1

  0
TEXT
  5
479
100
AcDbEntity
  8
3
370
    25
100
AcDbText
 10
21.639064
 20
-27.131486
 30
0.0
 40
7.0
  1
４４
 50
90.0
 72
     5
 11
21.639064
 21
-14.531486
 31
0.0
100
AcDbText
  0
LINE
  5
47A
100
AcDbEntity
  8
3
370
    25
100
AcDbLine
 10
169.202629
 20
-42.231703
 30
0.0
 11
20.639064
 21
-42.231703
 31
0.0
  0
LINE
  5
47B
100
AcDbEntity
  8
3
370
    25
100
AcDbLine
 10
22.639064
 20
-42.231703
 30
0.0
 11
23.674341
 21
-38.368
 31
0.0
  0
LINE
  5
47C
100
AcDbEntity
  8
3
370
    25
100
AcDbLine
 10
22.639064
 20
-42.231703
 30
0.0
 11
21.603788
 21
-38.368
 31
0.0
  0
LINE
  5
47D
100
AcDbEntity
  8
3
370
    25
100
AcDbLine
 10
23.674341
 20
-38.368
 30
0.0
 11
21.603788
 21
-38.368
 31
0.0
  0
LINE
  5
47E
100
AcDbEntity
  8
3
370
    25
100
AcDbLine
 10
22.639064
 20
-42.231703
 30
0.0
 11
22.639064
 21
1.968732
 31
0.0
  0
LINE
  5
47F
100
AcDbEntity
  8
3
370
    25
100
AcDbLine
 10
22.639064
 20
1.968732
 30
0.0
 11
21.603788
 21
-1.894972
 31
0.0
  0
LINE
  5
480
100
AcDbEntity
  8
3
370
    25
100
AcDbLine
 10
22.639064
 20
1.968732
 30
0.0
 11
23.674341
 21
-1.894972
 31
0.0
  0
LINE
  5
481
100
AcDbEntity
  8
3
370
    25
100
AcDbLine
 10
21.603788
 20
-1.894972
 30
0.0
 11
23.674341
 21
-1.894972
 31
0.0
  0
LINE
  5
482
100
AcDbEntity
  8
3
370
    25
100
AcDbLine
 10
204.051443
 20
1.968732
 30
0.0
 11
20.639064
 21
1.968732
 31
0.0
  0
ENDBLK
  5
483
100
AcDbEntity
  8
3
100
AcDbBlockEnd
  0
BLOCK
  5
484
100
AcDbEntity
  8
3
100
AcDbBlockBegin
  2
*D3
 70
     1
 10
0.0
 20
0.0
 30
0.0
  3
*D3
  1

  0
TEXT
  5
485
100
AcDbEntity
  8
3
370
    25
100
AcDbText
 10
52.383286
 20
46.218483
 30
0.0
 40
7.0
  1
１１０
 50
90.0
 72
     5
 11
52.383286
 21
65.818483
 31
0.0
100
AcDbText
  0
LINE
  5
486
100
AcDbEntity
  8
3
370
    25
100
AcDbLine
 10
203.647019
 20
1.968732
 30
0.0
 11
51.383286
 21
1.968732
 31
0.0
  0
LINE
  5
487
100
AcDbEntity
  8
3
370
    25
100
AcDbLine
 10
53.383286
 20
1.968732
 30
0.0
 11
54.418562
 21
5.832435
 31
0.0
  0
LINE
  5
488
100
AcDbEntity
  8
3
370
    25
100
AcDbLine
 10
53.383286
 20
1.968732
 30
0.0
 11
52.348009
 21
5.832435
 31
0.0
  0
LINE
  5
489
100
AcDbEntity
  8
3
370
    25
100
AcDbLine
 10
54.418562
 20
5.832435
 30
0.0
 11
52.348009
 21
5.832435
 31
0.0
  0
LINE
  5
48A
100
AcDbEntity
  8
3
370
    25
100
AcDbLine
 10
53.383286
 20
1.968732
 30
0.0
 11
53.383286
 21
111.468235
 31
0.0
  0
LINE
  5
48B
100
AcDbEntity
  8
3
370
    25
100
AcDbLine
 10
53.383286
 20
111.468235
 30
0.0
 11
52.348009
 21
107.604532
 31
0.0
  0
LINE
  5
48C
100
AcDbEntity
  8
3
370
    25
100
AcDbLine
 10
53.383286
 20
111.468235
 30
0.0
 11
54.418562
 21
107.604532
 31
0.0
  0
LINE
  5
48D
100
AcDbEntity
  8
3
370
    25
100
AcDbLine
 10
52.348009
 20
107.604532
 30
0.0
 11
54.418562
 21
107.604532
 31
0.0
  0
LINE
  5
48E
100
AcDbEntity
  8
3
370
    25
100
AcDbLine
 10
128.402954
 20
111.468235
 30
0.0
 11
51.383286
 21
111.468235
 31
0.0
  0
ENDBLK
  5
48F
100
AcDbEntity
  8
3
100
AcDbBlockEnd
  0
BLOCK
  5
490
100
AcDbEntity
  8
3
100
AcDbBlockBegin
  2
*D4
 70
     1
 10
0.0
 20
0.0
 30
0.0
  3
*D4
  1

  0
TEXT
  5
491
100
AcDbEntity
  8
3
370
    25
100
AcDbText
 10
-170.758074
 20
257.536966
 30
0.0
 40
7.0
  1
１００
 72
     5
 11
-151.158074
 21
257.536966
 31
0.0
100
AcDbText
  0
LINE
  5
492
100
AcDbEntity
  8
3
370
    25
100
AcDbLine
 10
-210.257667
 20
167.700279
 30
0.0
 11
-210.257667
 21
258.536966
 31
0.0
  0
LINE
  5
493
100
AcDbEntity
  8
3
370
    25
100
AcDbLine
 10
-210.257667
 20
256.536966
 30
0.0
 11
-206.393963
 21
255.50169
 31
0.0
  0
LINE
  5
494
100
AcDbEntity
  8
3
370
    25
100
AcDbLine
 10
-210.257667
 20
256.536966
 30
0.0
 11
-206.393963
 21
257.572242
 31
0.0
  0
LINE
  5
495
100
AcDbEntity
  8
3
370
    25
100
AcDbLine
 10
-206.393963
 20
255.50169
 30
0.0
 11
-206.393963
 21
257.572242
 31
0.0
  0
LINE
  5
496
100
AcDbEntity
  8
3
370
    25
100
AcDbLine
 10
-210.257667
 20
256.536966
 30
0.0
 11
-110.258481
 21
256.536966
 31
0.0
  0
LINE
  5
497
100
AcDbEntity
  8
3
370
    25
100
AcDbLine
 10
-110.258481
 20
256.536966
 30
0.0
 11
-114.122184
 21
257.572242
 31
0.0
  0
LINE
  5
498
100
AcDbEntity
  8
3
370
    25
100
AcDbLine
 10
-110.258481
 20
256.536966
 30
0.0
 11
-114.122184
 21
255.50169
 31
0.0
  0
LINE
  5
499
100
AcDbEntity
  8
3
370
    25
100
AcDbLine
 10
-114.122184
 20
257.572242
 30
0.0
 11
-114.122184
 21
255.50169
 31
0.0
  0
LINE
  5
49A
100
AcDbEntity
  8
3
370
    25
100
AcDbLine
 10
-110.258481
 20
167.700279
 30
0.0
 11
-110.258481
 21
258.536966
 31
0.0
  0
ENDBLK
  5
49B
100
AcDbEntity
  8
3
100
AcDbBlockEnd
  0
BLOCK
  5
49C
100
AcDbEntity
  8
3
100
AcDbBlockBegin
  2
*D5
 70
     1
 10
0.0
 20
0.0
 30
0.0
  3
*D5
  1

  0
TEXT
  5
49D
100
AcDbEntity
  8
3
370
    25
100
AcDbText
 10
248.117154
 20
-126.830055
 30
0.0
 40
7.0
  1
４９
 72
     5
 11
260.717154
 21
-126.830055
 31
0.0
100
AcDbText
  0
LINE
  5
49E
100
AcDbEntity
  8
3
370
    25
100
AcDbLine
 10
230.402954
 20
-78.232193
 30
0.0
 11
230.402954
 21
-129.830055
 31
0.0
  0
LINE
  5
49F
100
AcDbEntity
  8
3
370
    25
100
AcDbLine
 10
230.402954
 20
-127.830055
 30
0.0
 11
234.266657
 21
-128.865331
 31
0.0
  0
LINE
  5
4A0
100
AcDbEntity
  8
3
370
    25
100
AcDbLine
 10
230.402954
 20
-127.830055
 30
0.0
 11
234.266657
 21
-126.794779
 31
0.0
  0
LINE
  5
4A1
100
AcDbEntity
  8
3
370
    25
100
AcDbLine
 10
234.266657
 20
-128.865331
 30
0.0
 11
234.266657
 21
-126.794779
 31
0.0
  0
LINE
  5
4A2
100
AcDbEntity
  8
3
370
    25
100
AcDbLine
 10
230.402954
 20
-127.830055
 30
0.0
 11
279.831353
 21
-127.830055
 31
0.0
  0
LINE
  5
4A3
100
AcDbEntity
  8
3
370
    25
100
AcDbLine
 10
279.831353
 20
-127.830055
 30
0.0
 11
275.96765
 21
-126.794779
 31
0.0
  0
LINE
  5
4A4
100
AcDbEntity
  8
3
370
    25
100
AcDbLine
 10
279.831353
 20
-127.830055
 30
0.0
 11
275.96765
 21
-128.865331
 31
0.0
  0
LINE
  5
4A5
100
AcDbEntity
  8
3
370
    25
100
AcDbLine
 10
275.96765
 20
-126.794779
 30
0.0
 11
275.96765
 21
-128.865331
 31
0.0
  0
LINE
  5
4A6
100
AcDbEntity
  8
3
370
    25
100
AcDbLine
 10
279.831353
 20
-69.231703
 30
0.0
 11
279.831353
 21
-129.830055
 31
0.0
  0
ENDBLK
  5
4A7
100
AcDbEntity
  8
3
100
AcDbBlockEnd
  0
BLOCK
  5
4A8
100
AcDbEntity
  8
3
100
AcDbBlockBegin
  2
*D6
 70
     1
 10
0.0
 20
0.0
 30
0.0
  3
*D6
  1

  0
LINE
  5
4A9
100
AcDbEntity
  8
3
370
    25
100
AcDbLine
 10
230.402954
 20
-78.232193
 30
0.0
 11
230.402954
 21
-167.519012
 31
0.0
  0
LINE
  5
4AA
100
AcDbEntity
  8
3
370
    25
100
AcDbLine
 10
230.402954
 20
-165.519012
 30
0.0
 11
234.266657
 21
-166.554289
 31
0.0
  0
LINE
  5
4AB
100
AcDbEntity
  8
3
370
    25
100
AcDbLine
 10
230.402954
 20
-165.519012
 30
0.0
 11
234.266657
 21
-164.483736
 31
0.0
  0
LINE
  5
4AC
100
AcDbEntity
  8
3
370
    25
100
AcDbLine
 10
234.266657
 20
-166.554289
 30
0.0
 11
234.266657
 21
-164.483736
 31
0.0
  0
LINE
  5
4AD
100
AcDbEntity
  8
3
370
    25
100
AcDbLine
 10
230.402954
 20
-165.519012
 30
0.0
 11
316.003206
 21
-165.519012
 31
0.0
  0
LINE
  5
4AE
100
AcDbEntity
  8
3
370
    25
100
AcDbLine
 10
316.003206
 20
-165.519012
 30
0.0
 11
312.139503
 21
-164.483736
 31
0.0
  0
LINE
  5
4AF
100
AcDbEntity
  8
3
370
    25
100
AcDbLine
 10
316.003206
 20
-165.519012
 30
0.0
 11
312.139503
 21
-166.554289
 31
0.0
  0
LINE
  5
4B0
100
AcDbEntity
  8
3
370
    25
100
AcDbLine
 10
312.139503
 20
-164.483736
 30
0.0
 11
312.139503
 21
-166.554289
 31
0.0
  0
LINE
  5
4B1
100
AcDbEntity
  8
3
370
    25
100
AcDbLine
 10
316.003206
 20
-83.031675
 30
0.0
 11
316.003206
 21
-167.519012
 31
0.0
  0
ENDBLK
  5
4B2
100
AcDbEntity
  8
3
100
AcDbBlockEnd
  0
BLOCK
  5
4B3
100
AcDbEntity
  8
3
100
AcDbBlockBegin
  2
*D7
 70
     1
 10
0.0
 20
0.0
 30
0.0
  3
*D7
  1

  0
LINE
  5
4B4
100
AcDbEntity
  8
3
370
    25
100
AcDbLine
 10
316.003206
 20
-83.031675
 30
0.0
 11
316.003206
 21
-167.519012
 31
0.0
  0
LINE
  5
4B5
100
AcDbEntity
  8
3
370
    25
100
AcDbLine
 10
316.003206
 20
-165.519012
 30
0.0
 11
312.139503
 21
-164.483736
 31
0.0
  0
LINE
  5
4B6
100
AcDbEntity
  8
3
370
    25
100
AcDbLine
 10
316.003206
 20
-165.519012
 30
0.0
 11
312.139503
 21
-166.554289
 31
0.0
  0
LINE
  5
4B7
100
AcDbEntity
  8
3
370
    25
100
AcDbLine
 10
312.139503
 20
-164.483736
 30
0.0
 11
312.139503
 21
-166.554289
 31
0.0
  0
LINE
  5
4B8
100
AcDbEntity
  8
3
370
    25
100
AcDbLine
 10
306.003206
 20
-165.519012
 30
0.0
 11
369.003206
 21
-165.519012
 31
0.0
  0
LINE
  5
4B9
100
AcDbEntity
  8
3
370
    25
100
AcDbLine
 10
333.003206
 20
-165.519012
 30
0.0
 11
336.866909
 21
-166.554289
 31
0.0
  0
LINE
  5
4BA
100
AcDbEntity
  8
3
370
    25
100
AcDbLine
 10
333.003206
 20
-165.519012
 30
0.0
 11
336.866909
 21
-164.483736
 31
0.0
  0
LINE
  5
4BB
100
AcDbEntity
  8
3
370
    25
100
AcDbLine
 10
336.866909
 20
-166.554289
 30
0.0
 11
336.866909
 21
-164.483736
 31
0.0
  0
LINE
  5
4BC
100
AcDbEntity
  8
3
370
    25
100
AcDbLine
 10
333.003206
 20
-69.347175
 30
0.0
 11
333.003206
 21
-167.519012
 31
0.0
  0
ENDBLK
  5
4BD
100
AcDbEntity
  8
3
100
AcDbBlockEnd
  0
BLOCK
  5
4BE
100
AcDbEntity
  8
3
100
AcDbBlockBegin
  2
*D8
 70
     1
 10
0.0
 20
0.0
 30
0.0
  3
*D8
  1

  0
TEXT
  5
4BF
100
AcDbEntity
  8
3
370
    25
100
AcDbText
 10
-87.257721
 20
257.536966
 30
0.0
 40
7.0
  1
６０
 72
     5
 11
-74.657721
 21
257.536966
 31
0.0
100
AcDbText
  0
LINE
  5
4C0
100
AcDbEntity
  8
3
370
    25
100
AcDbLine
 10
-110.257721
 20
167.700279
 30
0.0
 11
-110.257721
 21
258.536966
 31
0.0
  0
LINE
  5
4C1
100
AcDbEntity
  8
3
370
    25
100
AcDbLine
 10
-110.257721
 20
256.536966
 30
0.0
 11
-106.394018
 21
255.50169
 31
0.0
  0
LINE
  5
4C2
100
AcDbEntity
  8
3
370
    25
100
AcDbLine
 10
-110.257721
 20
256.536966
 30
0.0
 11
-106.394018
 21
257.572242
 31
0.0
  0
LINE
  5
4C3
100
AcDbEntity
  8
3
370
    25
100
AcDbLine
 10
-106.394018
 20
255.50169
 30
0.0
 11
-106.394018
 21
257.572242
 31
0.0
  0
LINE
  5
4C4
100
AcDbEntity
  8
3
370
    25
100
AcDbLine
 10
-110.257721
 20
256.536966
 30
0.0
 11
-50.257721
 21
256.536966
 31
0.0
  0
LINE
  5
4C5
100
AcDbEntity
  8
3
370
    25
100
AcDbLine
 10
-50.257721
 20
256.536966
 30
0.0
 11
-54.121425
 21
257.572242
 31
0.0
  0
LINE
  5
4C6
100
AcDbEntity
  8
3
370
    25
100
AcDbLine
 10
-50.257721
 20
256.536966
 30
0.0
 11
-54.121425
 21
255.50169
 31
0.0
  0
LINE
  5
4C7
100
AcDbEntity
  8
3
370
    25
100
AcDbLine
 10
-54.121425
 20
257.572242
 30
0.0
 11
-54.121425
 21
255.50169
 31
0.0
  0
LINE
  5
4C8
100
AcDbEntity
  8
3
370
    25
100
AcDbLine
 10
-50.257721
 20
233.792975
 30
0.0
 11
-50.257721
 21
258.536966
 31
0.0
  0
ENDBLK
  5
4C9
100
AcDbEntity
  8
3
100
AcDbBlockEnd
  0
BLOCK
  5
4CA
100
AcDbEntity
  8
3
100
AcDbBlockBegin
  2
*D9
 70
     1
 10
0.0
 20
0.0
 30
0.0
  3
*D9
  1

  0
TEXT
  5
4CB
100
AcDbEntity
  8
3
370
    25
100
AcDbText
 10
-280.758426
 20
258.045512
 30
0.0
 40
7.0
  1
φ４６
 72
     5
 11
-261.158426
 21
258.045512
 31
0.0
100
AcDbText
  0
LINE
  5
4CC
100
AcDbEntity
  8
3
370
    25
100
AcDbLine
 10
-293.258426
 20
213.90053
 30
0.0
 11
-293.258426
 21
259.045512
 31
0.0
  0
LINE
  5
4CD
100
AcDbEntity
  8
3
370
    25
100
AcDbLine
 10
-293.258426
 20
257.045512
 30
0.0
 11
-289.394723
 21
256.010236
 31
0.0
  0
LINE
  5
4CE
100
AcDbEntity
  8
3
370
    25
100
AcDbLine
 10
-293.258426
 20
257.045512
 30
0.0
 11
-289.394723
 21
258.080788
 31
0.0
  0
LINE
  5
4CF
100
AcDbEntity
  8
3
370
    25
100
AcDbLine
 10
-289.394723
 20
256.010236
 30
0.0
 11
-289.394723
 21
258.080788
 31
0.0
  0
LINE
  5
4D0
100
AcDbEntity
  8
3
370
    25
100
AcDbLine
 10
-293.258426
 20
257.045512
 30
0.0
 11
-247.258426
 21
257.045512
 31
0.0
  0
LINE
  5
4D1
100
AcDbEntity
  8
3
370
    25
100
AcDbLine
 10
-247.258426
 20
257.045512
 30
0.0
 11
-251.122129
 21
258.080788
 31
0.0
  0
LINE
  5
4D2
100
AcDbEntity
  8
3
370
    25
100
AcDbLine
 10
-247.258426
 20
257.045512
 30
0.0
 11
-251.122129
 21
256.010236
 31
0.0
  0
LINE
  5
4D3
100
AcDbEntity
  8
3
370
    25
100
AcDbLine
 10
-251.122129
 20
258.080788
 30
0.0
 11
-251.122129
 21
256.010236
 31
0.0
  0
LINE
  5
4D4
100
AcDbEntity
  8
3
370
    25
100
AcDbLine
 10
-247.258426
 20
213.90053
 30
0.0
 11
-247.258426
 21
259.045512
 31
0.0
  0
ENDBLK
  5
4D5
100
AcDbEntity
  8
3
100
AcDbBlockEnd
  0
BLOCK
  5
4D6
100
AcDbEntity
  8
3
100
AcDbBlockBegin
  2
*D10
 70
     1
 10
0.0
 20
0.0
 30
0.0
  3
*D10
  1

  0
LINE
  5
4D7
100
AcDbEntity
  8
3
370
    25
100
AcDbLine
 10
-252.684481
 20
-175.548478
 30
0.0
 11
-252.684481
 21
-268.59903
 31
0.0
  0
LINE
  5
4D8
100
AcDbEntity
  8
3
370
    25
100
AcDbLine
 10
-252.684481
 20
-266.59903
 30
0.0
 11
-248.820777
 21
-267.634306
 31
0.0
  0
LINE
  5
4D9
100
AcDbEntity
  8
3
370
    25
100
AcDbLine
 10
-252.684481
 20
-266.59903
 30
0.0
 11
-248.820777
 21
-265.563753
 31
0.0
  0
LINE
  5
4DA
100
AcDbEntity
  8
3
370
    25
100
AcDbLine
 10
-248.820777
 20
-267.634306
 30
0.0
 11
-248.820777
 21
-265.563753
 31
0.0
  0
LINE
  5
4DB
100
AcDbEntity
  8
3
370
    25
100
AcDbLine
 10
-252.684481
 20
-266.59903
 30
0.0
 11
-67.831667
 21
-266.59903
 31
0.0
  0
LINE
  5
4DC
100
AcDbEntity
  8
3
370
    25
100
AcDbLine
 10
-67.831667
 20
-266.59903
 30
0.0
 11
-71.69537
 21
-265.563753
 31
0.0
  0
LINE
  5
4DD
100
AcDbEntity
  8
3
370
    25
100
AcDbLine
 10
-67.831667
 20
-266.59903
 30
0.0
 11
-71.69537
 21
-267.634306
 31
0.0
  0
LINE
  5
4DE
100
AcDbEntity
  8
3
370
    25
100
AcDbLine
 10
-71.69537
 20
-265.563753
 30
0.0
 11
-71.69537
 21
-267.634306
 31
0.0
  0
LINE
  5
4DF
100
AcDbEntity
  8
3
370
    25
100
AcDbLine
 10
-67.831667
 20
-175.548478
 30
0.0
 11
-67.831667
 21
-268.59903
 31
0.0
  0
ENDBLK
  5
4E0
100
AcDbEntity
  8
3
100
AcDbBlockEnd
  0
BLOCK
  5
4E1
100
AcDbEntity
  8
3
100
AcDbBlockBegin
  2
*D11
 70
     1
 10
0.0
 20
0.0
 30
0.0
  3
*D11
  1

  0
LINE
  5
4E2
100
AcDbEntity
  8
3
370
    25
100
AcDbLine
 10
-121.150275
 20
-156.821566
 30
0.0
 11
-121.150275
 21
-156.821566
 31
0.0
  0
LINE
  5
4E3
100
AcDbEntity
  8
3
370
    25
100
AcDbLine
 10
-199.589863
 20
-156.821566
 30
0.0
 11
-199.589863
 21
-156.821566
 31
0.0
  0
LINE
  5
4E4
100
AcDbEntity
  8
3
370
    25
100
AcDbLine
 10
-123.150275
 20
-156.821566
 30
0.0
 11
-122.316936
 21
-152.909335
 31
0.0
  0
LINE
  5
4E5
100
AcDbEntity
  8
3
370
    25
100
AcDbLine
 10
-123.150275
 20
-156.821566
 30
0.0
 11
-124.384697
 21
-153.016805
 31
0.0
  0
LINE
  5
4E6
100
AcDbEntity
  8
3
370
    25
100
AcDbLine
 10
-122.316936
 20
-152.909335
 30
0.0
 11
-124.384697
 21
-153.016805
 31
0.0
  0
LINE
  5
4E7
100
AcDbEntity
  8
3
370
    25
100
AcDbLine
 10
-197.589863
 20
-156.821566
 30
0.0
 11
-196.355441
 21
-153.016805
 31
0.0
  0
LINE
  5
4E8
100
AcDbEntity
  8
3
370
    25
100
AcDbLine
 10
-197.589863
 20
-156.821566
 30
0.0
 11
-198.423203
 21
-152.909335
 31
0.0
  0
LINE
  5
4E9
100
AcDbEntity
  8
3
370
    25
100
AcDbLine
 10
-196.355441
 20
-153.016805
 30
0.0
 11
-198.423203
 21
-152.909335
 31
0.0
  0
ARC
  5
4EA
100
AcDbEntity
  8
3
370
    25
100
AcDbCircle
 10
-160.370069
 20
-156.821566
 30
0.0
 40
37.219794
100
AcDbArc
 50
360.0
 51
180.0
  0
ENDBLK
  5
4EB
100
AcDbEntity
  8
3
100
AcDbBlockEnd
  0
BLOCK
  5
4EC
100
AcDbEntity
  8
3
100
AcDbBlockBegin
  2
*D12
 70
     1
 10
0.0
 20
0.0
 30
0.0
  3
*D12
  1

  0
TEXT
  5
4ED
100
AcDbEntity
  8
3
370
    25
100
AcDbText
 10
134.902954
 20
-164.519012
 30
0.0
 40
7.0
  1
１７０
 72
     5
 11
154.502954
 21
-164.519012
 31
0.0
100
AcDbText
  0
LINE
  5
4EE
100
AcDbEntity
  8
3
370
    25
100
AcDbLine
 10
60.402954
 20
-139.332164
 30
0.0
 11
60.402954
 21
-167.519012
 31
0.0
  0
LINE
  5
4EF
100
AcDbEntity
  8
3
370
    25
100
AcDbLine
 10
60.402954
 20
-165.519012
 30
0.0
 11
64.266657
 21
-166.554289
 31
0.0
  0
LINE
  5
4F0
100
AcDbEntity
  8
3
370
    25
100
AcDbLine
 10
60.402954
 20
-165.519012
 30
0.0
 11
64.266657
 21
-164.483736
 31
0.0
  0
LINE
  5
4F1
100
AcDbEntity
  8
3
370
    25
100
AcDbLine
 10
64.266657
 20
-166.554289
 30
0.0
 11
64.266657
 21
-164.483736
 31
0.0
  0
LINE
  5
4F2
100
AcDbEntity
  8
3
370
    25
100
AcDbLine
 10
60.402954
 20
-165.519012
 30
0.0
 11
230.402954
 21
-165.519012
 31
0.0
  0
LINE
  5
4F3
100
AcDbEntity
  8
3
370
    25
100
AcDbLine
 10
230.402954
 20
-165.519012
 30
0.0
 11
226.539251
 21
-164.483736
 31
0.0
  0
LINE
  5
4F4
100
AcDbEntity
  8
3
370
    25
100
AcDbLine
 10
230.402954
 20
-165.519012
 30
0.0
 11
226.539251
 21
-166.554289
 31
0.0
  0
LINE
  5
4F5
100
AcDbEntity
  8
3
370
    25
100
AcDbLine
 10
226.539251
 20
-164.483736
 30
0.0
 11
226.539251
 21
-166.554289
 31
0.0
  0
LINE
  5
4F6
100
AcDbEntity
  8
3
370
    25
100
AcDbLine
 10
230.402954
 20
-68.232748
 30
0.0
 11
230.402954
 21
-167.519012
 31
0.0
  0
ENDBLK
  5
4F7
100
AcDbEntity
  8
3
100
AcDbBlockEnd
  0
BLOCK
  5
4F8
100
AcDbEntity
  8
3
100
AcDbBlockBegin
  2
*D13
 70
     1
 10
0.0
 20
0.0
 30
0.0
  3
*D13
  1

  0
TEXT
  5
4F9
100
AcDbEntity
  8
3
370
    25
100
AcDbText
 10
21.639064
 20
-96.782637
 30
0.0
 40
7.0
  1
９５
 50
90.0
 72
     5
 11
21.639064
 21
-84.182637
 31
0.0
100
AcDbText
  0
LINE
  5
4FA
100
AcDbEntity
  8
3
370
    25
100
AcDbLine
 10
47.77025
 20
-137.333016
 30
0.0
 11
20.639064
 21
-137.333016
 31
0.0
  0
LINE
  5
4FB
100
AcDbEntity
  8
3
370
    25
100
AcDbLine
 10
22.639064
 20
-137.333016
 30
0.0
 11
23.674341
 21
-133.469313
 31
0.0
  0
LINE
  5
4FC
100
AcDbEntity
  8
3
370
    25
100
AcDbLine
 10
22.639064
 20
-137.333016
 30
0.0
 11
21.603788
 21
-133.469313
 31
0.0
  0
LINE
  5
4FD
100
AcDbEntity
  8
3
370
    25
100
AcDbLine
 10
23.674341
 20
-133.469313
 30
0.0
 11
21.603788
 21
-133.469313
 31
0.0
  0
LINE
  5
4FE
100
AcDbEntity
  8
3
370
    25
100
AcDbLine
 10
22.639064
 20
-137.333016
 30
0.0
 11
22.639064
 21
-42.232258
 31
0.0
  0
LINE
  5
4FF
100
AcDbEntity
  8
3
370
    25
100
AcDbLine
 10
22.639064
 20
-42.232258
 30
0.0
 11
21.603788
 21
-46.095962
 31
0.0
  0
LINE
  5
500
100
AcDbEntity
  8
3
370
    25
100
AcDbLine
 10
22.639064
 20
-42.232258
 30
0.0
 11
23.674341
 21
-46.095962
 31
0.0
  0
LINE
  5
501
100
AcDbEntity
  8
3
370
    25
100
AcDbLine
 10
21.603788
 20
-46.095962
 30
0.0
 11
23.674341
 21
-46.095962
 31
0.0
  0
LINE
  5
502
100
AcDbEntity
  8
3
370
    25
100
AcDbLine
 10
164.540708
 20
-42.232258
 30
0.0
 11
20.639064
 21
-42.232258
 31
0.0
  0
ENDBLK
  5
503
100
AcDbEntity
  8
3
100
AcDbBlockEnd
  0
ENDSEC
  0
SECTION
  2
ENTITIES
  0
LINE
  5
32
100
AcDbEntity
  8
1
370
   100
100
AcDbLine
 10
-373.02157
 20
275.028767
 30
0.0
 11
394.982385
 21
275.028767
 31
0.0
  0
LINE
  5
33
100
AcDbEntity
  8
1
370
   100
100
AcDbLine
 10
-373.02157
 20
275.028767
 30
0.0
 11
-373.02157
 21
-277.971881
 31
0.0
  0
LINE
  5
34
100
AcDbEntity
  8
1
370
   100
100
AcDbLine
 10
-373.02157
 20
-277.971881
 30
0.0
 11
394.982385
 21
-277.971881
 31
0.0
  0
LINE
  5
35
100
AcDbEntity
  8
1
370
   100
100
AcDbLine
 10
394.982385
 20
-277.971881
 30
0.0
 11
394.982385
 21
275.028767
 31
0.0
  0
TEXT
  5
36
100
AcDbEntity
  8
1
370
    50
100
AcDbText
 10
359.628442
 20
-226.252857
 30
0.0
 40
6.0
  1
設計
 72
     5
 11
370.428442
 21
-226.252857
 31
0.0
100
AcDbText
  0
TEXT
  5
37
100
AcDbEntity
  8
1
370
    50
100
AcDbText
 10
379.127478
 20
-226.099658
 30
0.0
 40
6.0
  1
製図
 72
     5
 11
389.927478
 21
-226.099658
 31
0.0
100
AcDbText
  0
TEXT
  5
38
100
AcDbEntity
  8
1
370
    50
100
AcDbText
 10
319.005745
 20
-226.252857
 30
0.0
 40
6.0
  1
承認
 72
     5
 11
329.805745
 21
-226.252857
 31
0.0
100
AcDbText
  0
TEXT
  5
39
100
AcDbEntity
  8
1
370
    50
100
AcDbText
 10
338.989679
 20
-226.19802
 30
0.0
 40
6.0
  1
検図
 72
     5
 11
349.789679
 21
-226.19802
 31
0.0
100
AcDbText
  0
LINE
  5
3A
100
AcDbEntity
  8
1
370
    25
100
AcDbLine
 10
284.982385
 20
-227.971881
 30
0.0
 11
394.982385
 21
-227.971881
 31
0.0
  0
LINE
  5
3B
100
AcDbEntity
  8
1
370
    25
100
AcDbLine
 10
342.482385
 20
-245.971881
 30
0.0
 11
342.482385
 21
-259.971881
 31
0.0
  0
TEXT
  5
3C
100
AcDbEntity
  8
1
370
    50
100
AcDbText
 10
319.55159
 20
-256.012528
 30
0.0
 40
6.0
  1
日　付
 72
     5
 11
336.35159
 21
-256.012528
 31
0.0
100
AcDbText
  0
LINE
  5
3D
100
AcDbEntity
  8
1
370
    50
100
AcDbLine
 10
40.982385
 20
-259.971881
 30
0.0
 11
394.982385
 21
-259.971881
 31
0.0
  0
TEXT
  5
3E
100
AcDbEntity
  8
1
370
    50
100
AcDbText
 10
287.775011
 20
-256.322406
 30
0.0
 40
6.0
  1
第三角法
 72
     5
 11
310.575011
 21
-256.322406
 31
0.0
100
AcDbText
  0
TEXT
  5
3F
100
AcDbEntity
  8
1
370
    50
100
AcDbText
 10
291.087419
 20
-225.99802
 30
0.0
 40
6.0
  1
尺　度
 72
     5
 11
307.887419
 21
-225.99802
 31
0.0
100
AcDbText
  0
LINE
  5
40
100
AcDbEntity
  8
1
370
   100
100
AcDbLine
 10
40.982385
 20
-217.971881
 30
0.0
 11
394.982385
 21
-217.971881
 31
0.0
  0
LINE
  5
41
100
AcDbEntity
  8
1
370
    50
100
AcDbLine
 10
211.982385
 20
-217.971881
 30
0.0
 11
211.982385
 21
-277.971881
 31
0.0
  0
LINE
  5
42
100
AcDbEntity
  8
1
370
    25
100
AcDbLine
 10
374.982385
 20
-245.971881
 30
0.0
 11
374.982385
 21
-217.971881
 31
0.0
  0
LINE
  5
43
100
AcDbEntity
  8
1
370
    25
100
AcDbLine
 10
354.982385
 20
-245.971881
 30
0.0
 11
354.982385
 21
-217.971881
 31
0.0
  0
LINE
  5
44
100
AcDbEntity
  8
1
370
    25
100
AcDbLine
 10
334.982385
 20
-245.971881
 30
0.0
 11
334.982385
 21
-217.971881
 31
0.0
  0
LINE
  5
45
100
AcDbEntity
  8
1
370
    50
100
AcDbLine
 10
284.982385
 20
-277.971881
 30
0.0
 11
284.982385
 21
-217.971881
 31
0.0
  0
LINE
  5
46
100
AcDbEntity
  8
1
370
    50
100
AcDbLine
 10
189.982385
 20
-217.971881
 30
0.0
 11
189.982385
 21
-277.971881
 31
0.0
  0
LINE
  5
47
100
AcDbEntity
  8
1
370
    50
100
AcDbLine
 10
62.982385
 20
-217.971881
 30
0.0
 11
62.982385
 21
-259.971881
 31
0.0
  0
LINE
  5
48
100
AcDbEntity
  8
1
370
    50
100
AcDbLine
 10
284.982385
 20
-245.971881
 30
0.0
 11
394.982385
 21
-245.971881
 31
0.0
  0
TEXT
  5
49
100
AcDbEntity
  8
1
370
    50
100
AcDbText
 10
287.101129
 20
-271.880939
 30
0.0
 40
6.0
  1
コードＮｏ
 41
0.9
 72
     5
 11
313.021129
 21
-271.880939
 31
0.0
100
AcDbText
  0
TEXT
  5
4A
100
AcDbEntity
  8
1
370
   100
100
AcDbText
 10
52.886774
 20
-272.875659
 30
0.0
 40
8.0
  1
ミズタニバルブ工業株式会社
 41
1.2
 72
     5
 11
175.766774
 21
-272.875659
 31
0.0
100
AcDbText
  0
LINE
  5
4B
100
AcDbEntity
  8
1
370
    50
100
AcDbLine
 10
40.982385
 20
-238.971881
 30
0.0
 11
284.982385
 21
-238.971881
 31
0.0
  0
LINE
  5
4C
100
AcDbEntity
  8
1
370
    50
100
AcDbLine
 10
115.482385
 20
-238.971881
 30
0.0
 11
115.482385
 21
-259.971881
 31
0.0
  0
LINE
  5
4D
100
AcDbEntity
  8
1
370
    50
100
AcDbLine
 10
137.482385
 20
-238.971881
 30
0.0
 11
137.482385
 21
-259.971881
 31
0.0
  0
LINE
  5
4E
100
AcDbEntity
  8
1
370
    50
100
AcDbLine
 10
314.982385
 20
-277.971881
 30
0.0
 11
314.982385
 21
-217.971881
 31
0.0
  0
TEXT
  5
4F
100
AcDbEntity
  8
1
370
    50
100
AcDbText
 10
345.098131
 20
-256.100293
 30
0.0
 40
6.0
  1
　　・　　・
 72
     5
 11
379.898131
 21
-256.100293
 31
0.0
100
AcDbText
  0
LINE
  5
50
100
AcDbEntity
  8
1
370
   100
100
AcDbLine
 10
40.982385
 20
-217.971881
 30
0.0
 11
40.982385
 21
-277.971881
 31
0.0
  0
TEXT
  5
51
100
AcDbEntity
  8
1
370
    50
100
AcDbText
 10
290.832582
 20
-240.013492
 30
0.0
 40
6.0
  1
　／ 
 72
     5
 11
301.632582
 21
-240.013492
 31
0.0
100
AcDbText
  0
TEXT
  5
52
100
AcDbEntity
  8
1
370
    50
100
AcDbText
 10
193.904123
 20
-272.024909
 30
0.0
 40
6.0
  1
備 考 
 72
     5
 11
207.704123
 21
-272.024909
 31
0.0
100
AcDbText
  0
TEXT
  5
53
100
AcDbEntity
  8
1
370
    50
100
AcDbText
 10
193.512534
 20
-230.89184
 30
0.0
 40
6.0
  1
仕 上
 72
     5
 11
207.312534
 21
-230.89184
 31
0.0
100
AcDbText
  0
TEXT
  5
54
100
AcDbEntity
  8
1
370
    50
100
AcDbText
 10
193.447176
 20
-248.891666
 30
0.0
 40
6.0
  1
表 面
 72
     5
 11
207.247176
 21
-248.891666
 31
0.0
100
AcDbText
  0
TEXT
  5
55
100
AcDbEntity
  8
1
370
    50
100
AcDbText
 10
193.447176
 20
-255.891666
 30
0.0
 40
6.0
  1
処 理
 72
     5
 11
207.247176
 21
-255.891666
 31
0.0
100
AcDbText
  0
TEXT
  5
56
100
AcDbEntity
  8
1
370
    50
100
AcDbText
 10
44.397766
 20
-252.462534
 30
0.0
 40
6.0
  1
材 質
 72
     5
 11
58.197766
 21
-252.462534
 31
0.0
100
AcDbText
  0
TEXT
  5
57
100
AcDbEntity
  8
1
370
    50
100
AcDbText
 10
118.897766
 20
-252.462534
 30
0.0
 40
6.0
  1
規 格
 72
     5
 11
132.697766
 21
-252.462534
 31
0.0
100
AcDbText
  0
TEXT
  5
58
100
AcDbEntity
  8
1
370
    50
100
AcDbText
 10
44.397766
 20
-231.462534
 30
0.0
 40
6.0
  1
品 名
 72
     5
 11
58.197766
 21
-231.462534
 31
0.0
100
AcDbText
  0
LINE
  5
59
100
AcDbEntity
  8
2
370
    50
100
AcDbLine
 10
-181.309109
 20
-70.622071
 30
0.0
 11
-139.207038
 21
-70.622071
 31
0.0
  0
POINT
  5
5A
100
AcDbEntity
  8
2
370
    50
100
AcDbPoint
 10
-142.258074
 20
-130.622071
 30
0.0
  0
POINT
  5
5B
100
AcDbEntity
  8
2
370
    50
100
AcDbPoint
 10
-178.258074
 20
-130.622071
 30
0.0
  0
LINE
  5
5C
100
AcDbEntity
  8
2
370
    50
100
AcDbLine
 10
-147.258074
 20
-130.622071
 30
0.0
 11
-142.258074
 21
-130.622071
 31
0.0
  0
LINE
  5
5D
100
AcDbEntity
  8
2
370
    50
100
AcDbLine
 10
-178.258074
 20
-130.622071
 30
0.0
 11
-173.258074
 21
-130.622071
 31
0.0
  0
POINT
  5
5E
100
AcDbEntity
  8
2
370
    50
100
AcDbPoint
 10
-160.258074
 20
-128.621339
 30
0.0
  0
ARC
  5
5F
100
AcDbEntity
  8
2
370
    50
100
AcDbCircle
 10
-111.258074
 20
-112.622071
 30
0.0
 40
14.5
100
AcDbArc
 50
279.774188
 51
87.0
  0
ARC
  5
60
100
AcDbEntity
  8
2
370
    50
100
AcDbCircle
 10
-209.258074
 20
-112.622071
 30
0.0
 40
14.5
100
AcDbArc
 50
93.0
 51
259.332032
  0
ARC
  5
61
100
AcDbEntity
  8
2
370
    50
100
AcDbCircle
 10
-156.330826
 20
149.024058
 30
0.0
 40
280.0
100
AcDbArc
 50
272.88089
 51
279.774188
  0
ARC
  5
62
100
AcDbEntity
  8
2
370
    50
100
AcDbCircle
 10
-164.185321
 20
149.024058
 30
0.0
 40
280.0
100
AcDbArc
 50
260.225812
 51
267.11911
  0
POINT
  5
63
100
AcDbEntity
  8
2
370
    50
100
AcDbPoint
 10
-211.719674
 20
-126.911596
 30
0.0
  0
POINT
  5
64
100
AcDbEntity
  8
2
370
    50
100
AcDbPoint
 10
-160.258074
 20
-70.622071
 30
0.0
  0
LINE
  5
65
100
AcDbEntity
  8
2
370
    50
100
AcDbLine
 10
-147.858074
 20
-132.622071
 30
0.0
 11
-147.258074
 21
-132.022071
 31
0.0
  0
LINE
  5
66
100
AcDbEntity
  8
2
370
    50
100
AcDbLine
 10
-172.658074
 20
-132.622071
 30
0.0
 11
-173.258074
 21
-132.022071
 31
0.0
  0
POINT
  5
67
100
AcDbEntity
  8
2
370
    50
100
AcDbPoint
 10
-160.258074
 20
-128.621339
 30
0.0
  0
LINE
  5
68
100
AcDbEntity
  8
2
370
    50
100
AcDbLine
 10
-138.208409
 20
-71.569735
 30
0.0
 11
-137.241724
 21
-90.015173
 31
0.0
  0
LINE
  5
69
100
AcDbEntity
  8
2
370
    50
100
AcDbLine
 10
-110.499202
 20
-98.141943
 30
0.0
 11
-130.144522
 21
-97.112375
 31
0.0
  0
ARC
  5
6A
100
AcDbEntity
  8
2
370
    50
100
AcDbCircle
 10
-129.752003
 20
-89.622654
 30
0.0
 40
7.5
100
AcDbArc
 50
183.0
 51
267.0
  0
ARC
  5
6B
100
AcDbEntity
  8
2
370
    50
100
AcDbCircle
 10
-190.764145
 20
-89.622654
 30
0.0
 40
7.5
100
AcDbArc
 50
273.0
 51
357.0
  0
LINE
  5
6C
100
AcDbEntity
  8
2
370
    50
100
AcDbLine
 10
-210.016945
 20
-98.141943
 30
0.0
 11
-190.371625
 21
-97.112375
 31
0.0
  0
LINE
  5
6D
100
AcDbEntity
  8
2
370
    50
100
AcDbLine
 10
-182.307739
 20
-71.569735
 30
0.0
 11
-183.274423
 21
-90.015173
 31
0.0
  0
POINT
  5
6E
100
AcDbEntity
  8
2
370
    50
100
AcDbPoint
 10
-183.627849
 20
-96.758949
 30
0.0
  0
POINT
  5
6F
100
AcDbEntity
  8
2
370
    50
100
AcDbPoint
 10
-160.258074
 20
-70.622071
 30
0.0
  0
ARC
  5
70
100
AcDbEntity
  8
2
370
    50
100
AcDbCircle
 10
-139.207038
 20
-71.622071
 30
0.0
 40
1.0
100
AcDbArc
 50
3.0
 51
90.0
  0
ARC
  5
71
100
AcDbEntity
  8
2
370
    50
100
AcDbCircle
 10
-181.309109
 20
-71.622071
 30
0.0
 40
1.0
100
AcDbArc
 50
90.0
 51
177.0
  0
POINT
  5
72
100
AcDbEntity
  8
2
370
    50
100
AcDbPoint
 10
-135.910154
 20
145.819344
 30
0.0
  0
POINT
  5
73
100
AcDbEntity
  8
2
370
    50
100
AcDbPoint
 10
-135.910154
 20
145.819344
 30
0.0
  0
LINE
  5
74
100
AcDbEntity
  8
2
370
    50
100
AcDbLine
 10
-97.349325
 20
148.800619
 30
0.0
 11
-123.698783
 21
148.800619
 31
0.0
  0
LINE
  5
75
100
AcDbEntity
  8
2
370
    50
100
AcDbLine
 10
-138.758074
 20
-65.122568
 30
0.0
 11
-181.758074
 21
-65.122568
 31
0.0
  0
CIRCLE
  5
76
100
AcDbEntity
  8
2
370
    50
100
AcDbCircle
 10
-160.258074
 20
-52.122568
 30
0.0
 40
5.0
  0
POINT
  5
77
100
AcDbEntity
  8
2
370
    50
100
AcDbPoint
 10
-160.258074
 20
-47.622568
 30
0.0
  0
LINE
  5
78
100
AcDbEntity
  8
2
370
    50
100
AcDbLine
 10
-181.758074
 20
-46.046886
 30
0.0
 11
-181.758074
 21
-65.122568
 31
0.0
  0
LINE
  5
79
100
AcDbEntity
  8
2
370
    50
100
AcDbLine
 10
-138.758074
 20
-46.046886
 30
0.0
 11
-138.758074
 21
-65.122568
 31
0.0
  0
ARC
  5
7A
100
AcDbEntity
  8
2
370
    50
100
AcDbCircle
 10
-160.258074
 20
-41.544127
 30
0.0
 40
38.263071
100
AcDbArc
 50
79.986433
 51
100.013567
  0
LINE
  5
7B
100
AcDbEntity
  8
2
370
    50
100
AcDbLine
 10
-170.918346
 20
-7.683099
 30
0.0
 11
-179.988074
 21
-47.720547
 31
0.0
  0
ARC
  5
7C
100
AcDbEntity
  8
2
370
    50
100
AcDbCircle
 10
-173.280656
 20
-46.046886
 30
0.0
 40
8.477417
100
AcDbArc
 50
149.878537
 51
180.0
  0
ARC
  5
7D
100
AcDbEntity
  8
2
370
    50
100
AcDbCircle
 10
-217.0717
 20
-20.640185
 30
0.0
 40
42.150203
100
AcDbArc
 50
329.878537
 51
347.236145
  0
ARC
  5
7E
100
AcDbEntity
  8
2
370
    50
100
AcDbCircle
 10
-103.444448
 20
-20.640185
 30
0.0
 40
42.150203
100
AcDbArc
 50
192.763855
 51
210.121463
  0
ARC
  5
7F
100
AcDbEntity
  8
2
370
    50
100
AcDbCircle
 10
-147.235491
 20
-46.046886
 30
0.0
 40
8.477417
100
AcDbArc
 50
360.0
 51
30.121463
  0
ARC
  5
80
100
AcDbEntity
  8
2
370
    50
100
AcDbCircle
 10
-166.041902
 20
-8.787765
 30
0.0
 40
5.0
100
AcDbArc
 50
100.013567
 51
167.236145
  0
ARC
  5
81
100
AcDbEntity
  8
2
370
    50
100
AcDbCircle
 10
-154.474246
 20
-8.787765
 30
0.0
 40
5.0
100
AcDbArc
 50
12.763855
 51
79.986433
  0
LINE
  5
82
100
AcDbEntity
  8
2
370
    50
100
AcDbLine
 10
-149.597801
 20
-7.683099
 30
0.0
 11
-140.528074
 21
-47.720547
 31
0.0
  0
LINE
  5
83
100
AcDbEntity
  8
2
370
    50
100
AcDbLine
 10
-169.096941
 20
-9.031259
 30
0.0
 11
-150.534334
 21
-9.031259
 31
0.0
  0
ARC
  5
84
100
AcDbEntity
  8
2
370
    25
100
AcDbCircle
 10
-160.258074
 20
-81.245853
 30
0.0
 40
38.900116
100
AcDbArc
 50
66.010861
 51
113.805803
  0
ARC
  5
85
100
AcDbEntity
  8
2
370
    50
100
AcDbCircle
 10
-180.758074
 20
-69.622507
 30
0.0
 40
1.0
100
AcDbArc
 50
179.975044
 51
270.0
  0
ARC
  5
86
100
AcDbEntity
  8
2
370
    50
100
AcDbCircle
 10
-88.299813
 20
-105.196691
 30
0.0
 40
100.0
100
AcDbArc
 50
156.375476
 51
159.160816
  0
ARC
  5
87
100
AcDbEntity
  8
2
370
    50
100
AcDbCircle
 10
-232.216334
 20
-105.196691
 30
0.0
 40
100.0
100
AcDbArc
 50
20.839184
 51
23.624524
  0
POINT
  5
88
100
AcDbEntity
  8
2
370
    50
100
AcDbPoint
 10
-138.758074
 20
-69.622071
 30
0.0
  0
ARC
  5
89
100
AcDbEntity
  8
2
370
    50
100
AcDbCircle
 10
-139.758074
 20
-69.622507
 30
0.0
 40
1.0
100
AcDbArc
 50
270.0
 51
0.024956
  0
LINE
  5
8A
100
AcDbEntity
  8
2
370
    50
100
AcDbLine
 10
-150.296127
 20
37.929143
 30
0.0
 11
-144.449181
 21
104.760033
 31
0.0
  0
LINE
  5
8B
100
AcDbEntity
  8
2
370
    50
100
AcDbLine
 10
-170.220021
 20
37.929143
 30
0.0
 11
-176.066966
 21
104.760033
 31
0.0
  0
ARC
  5
8C
100
AcDbEntity
  8
2
370
    50
100
AcDbCircle
 10
-94.639446
 20
100.402246
 30
0.0
 40
50.0
100
AcDbArc
 50
156.598328
 51
175.0
  0
ARC
  5
8D
100
AcDbEntity
  8
2
370
    50
100
AcDbCircle
 10
-225.876701
 20
100.402246
 30
0.0
 40
50.0
100
AcDbArc
 50
5.0
 51
23.401672
  0
ARC
  5
8E
100
AcDbEntity
  8
2
370
    50
100
AcDbCircle
 10
-160.258074
 20
38.8007
 30
0.0
 40
10.0
100
AcDbArc
 50
185.0
 51
355.0
  0
ARC
  5
8F
100
AcDbEntity
  8
2
370
    50
100
AcDbCircle
 10
-160.258074
 20
128.800235
 30
0.0
 40
21.5
100
AcDbArc
 50
336.598328
 51
203.401672
  0
POINT
  5
90
100
AcDbEntity
  8
2
370
    50
100
AcDbPoint
 10
-170.220021
 20
37.929143
 30
0.0
  0
POINT
  5
91
100
AcDbEntity
  8
2
370
    50
100
AcDbPoint
 10
-150.296127
 20
37.929143
 30
0.0
  0
POINT
  5
92
100
AcDbEntity
  8
2
370
    50
100
AcDbPoint
 10
-160.258074
 20
28.8007
 30
0.0
  0
ARC
  5
93
100
AcDbEntity
  8
2
370
    50
100
AcDbCircle
 10
-160.258074
 20
128.800235
 30
0.0
 40
22.0
100
AcDbArc
 50
326.395307
 51
213.604693
  0
LINE
  5
94
100
AcDbEntity
  8
2
370
    50
100
AcDbLine
 10
-172.658074
 20
-132.622071
 30
0.0
 11
-147.858074
 21
-132.622071
 31
0.0
  0
LINE
  5
95
100
AcDbEntity
  8
2
370
    50
100
AcDbLine
 10
-173.258074
 20
-130.622071
 30
0.0
 11
-147.258074
 21
-130.622071
 31
0.0
  0
POINT
  5
96
100
AcDbEntity
  8
2
370
    50
100
AcDbPoint
 10
-110.258074
 20
-112.622071
 30
0.0
  0
LINE
  5
97
100
AcDbEntity
  8
2
370
    50
100
AcDbLine
 10
-215.825838
 20
-97.622071
 30
0.0
 11
-204.690309
 21
-97.622071
 31
0.0
  0
LINE
  5
98
100
AcDbEntity
  8
2
370
    50
100
AcDbLine
 10
-226.032337
 20
-109.943897
 30
0.0
 11
-220.464573
 21
-100.300246
 31
0.0
  0
LINE
  5
99
100
AcDbEntity
  8
2
370
    50
100
AcDbLine
 10
-220.464573
 20
-124.943897
 30
0.0
 11
-226.032337
 21
-115.300246
 31
0.0
  0
LINE
  5
9A
100
AcDbEntity
  8
2
370
    50
100
AcDbLine
 10
-207.393181
 20
-127.622071
 30
0.0
 11
-215.825838
 21
-127.622071
 31
0.0
  0
ARC
  5
9B
100
AcDbEntity
  8
2
370
    50
100
AcDbCircle
 10
-210.258074
 20
-112.622071
 30
0.0
 40
16.0
100
AcDbArc
 50
110.364135
 51
129.635865
  0
ARC
  5
9C
100
AcDbEntity
  8
2
370
    50
100
AcDbCircle
 10
-210.258074
 20
-112.622071
 30
0.0
 40
16.0
100
AcDbArc
 50
170.364135
 51
189.635865
  0
ARC
  5
9D
100
AcDbEntity
  8
2
370
    50
100
AcDbCircle
 10
-210.258074
 20
-112.622071
 30
0.0
 40
16.0
100
AcDbArc
 50
230.364135
 51
249.635865
  0
ARC
  5
9E
100
AcDbEntity
  8
2
370
    50
100
AcDbCircle
 10
-210.258074
 20
-112.622071
 30
0.0
 40
16.0
100
AcDbArc
 50
67.552449
 51
69.635865
  0
LINE
  5
9F
100
AcDbEntity
  8
2
370
    50
100
AcDbLine
 10
-115.825838
 20
-97.622071
 30
0.0
 11
-104.690309
 21
-97.622071
 31
0.0
  0
POINT
  5
A0
100
AcDbEntity
  8
2
370
    50
100
AcDbPoint
 10
-110.258074
 20
-112.622071
 30
0.0
  0
LINE
  5
A1
100
AcDbEntity
  8
2
370
    50
100
AcDbLine
 10
-104.690309
 20
-127.622071
 30
0.0
 11
-113.122966
 21
-127.622071
 31
0.0
  0
LINE
  5
A2
100
AcDbEntity
  8
2
370
    50
100
AcDbLine
 10
-94.48381
 20
-115.300246
 30
0.0
 11
-100.051575
 21
-124.943897
 31
0.0
  0
LINE
  5
A3
100
AcDbEntity
  8
2
370
    50
100
AcDbLine
 10
-100.051575
 20
-100.300246
 30
0.0
 11
-94.48381
 21
-109.943897
 31
0.0
  0
ARC
  5
A4
100
AcDbEntity
  8
2
370
    50
100
AcDbCircle
 10
-110.258074
 20
-112.622071
 30
0.0
 40
16.0
100
AcDbArc
 50
110.364135
 51
112.447551
  0
ARC
  5
A5
100
AcDbEntity
  8
2
370
    50
100
AcDbCircle
 10
-110.258074
 20
-112.622071
 30
0.0
 40
16.0
100
AcDbArc
 50
290.364135
 51
309.635865
  0
ARC
  5
A6
100
AcDbEntity
  8
2
370
    50
100
AcDbCircle
 10
-110.258074
 20
-112.622071
 30
0.0
 40
16.0
100
AcDbArc
 50
350.364135
 51
9.635865
  0
ARC
  5
A7
100
AcDbEntity
  8
2
370
    50
100
AcDbCircle
 10
-110.258074
 20
-112.622071
 30
0.0
 40
16.0
100
AcDbArc
 50
50.364135
 51
69.635865
  0
LINE
  5
A8
100
AcDbEntity
  8
2
370
    25
  6
CENTER
100
AcDbLine
 10
-165.801358
 20
-52.122568
 30
0.0
 11
-154.932506
 21
-52.122568
 31
0.0
  0
LINE
  5
A9
100
AcDbEntity
  8
2
370
    50
100
AcDbLine
 10
-161.705466
 20
-50.380792
 30
0.0
 11
-164.298202
 21
-51.862355
 31
0.0
  0
ARC
  5
AA
100
AcDbEntity
  8
2
370
    50
100
AcDbCircle
 10
-161.556774
 20
-50.641005
 30
0.0
 40
0.2997
100
AcDbArc
 50
0.0
 51
119.744881
  0
LINE
  5
AB
100
AcDbEntity
  8
2
370
    50
100
AcDbLine
 10
-161.257074
 20
-50.641005
 30
0.0
 11
-161.257074
 21
-53.604131
 31
0.0
  0
ARC
  5
AC
100
AcDbEntity
  8
2
370
    50
100
AcDbCircle
 10
-161.556774
 20
-53.604131
 30
0.0
 40
0.2997
100
AcDbArc
 50
240.255119
 51
360.0
  0
LINE
  5
AD
100
AcDbEntity
  8
2
370
    50
100
AcDbLine
 10
-161.705466
 20
-53.864343
 30
0.0
 11
-164.298202
 21
-52.38278
 31
0.0
  0
ARC
  5
AE
100
AcDbEntity
  8
2
370
    50
100
AcDbCircle
 10
-164.149509
 20
-52.122568
 30
0.0
 40
0.2997
100
AcDbArc
 50
119.744881
 51
240.255119
  0
ARC
  5
AF
100
AcDbEntity
  8
2
370
    50
100
AcDbCircle
 10
-158.959374
 20
-50.641005
 30
0.0
 40
0.2997
100
AcDbArc
 50
60.255119
 51
180.0
  0
LINE
  5
B0
100
AcDbEntity
  8
2
370
    50
100
AcDbLine
 10
-159.259074
 20
-50.641005
 30
0.0
 11
-159.259074
 21
-53.604131
 31
0.0
  0
LINE
  5
B1
100
AcDbEntity
  8
2
370
    50
100
AcDbLine
 10
-158.810681
 20
-50.380792
 30
0.0
 11
-156.217945
 21
-51.862355
 31
0.0
  0
ARC
  5
B2
100
AcDbEntity
  8
2
370
    50
100
AcDbCircle
 10
-156.366638
 20
-52.122568
 30
0.0
 40
0.2997
100
AcDbArc
 50
299.744881
 51
60.255119
  0
LINE
  5
B3
100
AcDbEntity
  8
2
370
    50
100
AcDbLine
 10
-158.810681
 20
-53.864343
 30
0.0
 11
-156.217945
 21
-52.38278
 31
0.0
  0
ARC
  5
B4
100
AcDbEntity
  8
2
370
    50
100
AcDbCircle
 10
-158.959374
 20
-53.604131
 30
0.0
 40
0.2997
100
AcDbArc
 50
180.0
 51
299.744881
  0
LINE
  5
B5
100
AcDbEntity
  8
2
370
    50
100
AcDbLine
 10
-96.353187
 20
147.713079
 30
0.0
 11
-97.550869
 21
134.023515
 31
0.0
  0
LINE
  5
B6
100
AcDbEntity
  8
2
370
    50
100
AcDbLine
 10
-224.16296
 20
147.713079
 30
0.0
 11
-222.965278
 21
134.023515
 31
0.0
  0
POINT
  5
B7
100
AcDbEntity
  8
2
370
    50
100
AcDbPoint
 10
-96.258074
 20
148.800235
 30
0.0
  0
ARC
  5
B8
100
AcDbEntity
  8
2
370
    50
100
AcDbCircle
 10
-97.349382
 20
147.800235
 30
0.0
 40
1.0
100
AcDbArc
 50
355.0
 51
90.0
  0
LINE
  5
B9
100
AcDbEntity
  8
2
370
    50
100
AcDbLine
 10
-176.569521
 20
108.696944
 30
0.0
 11
-220.17616
 21
129.965323
 31
0.0
  0
LINE
  5
BA
100
AcDbEntity
  8
2
370
    50
100
AcDbLine
 10
-143.946626
 20
108.696944
 30
0.0
 11
-100.339987
 21
129.965323
 31
0.0
  0
LINE
  5
BB
100
AcDbEntity
  8
2
370
    50
100
AcDbLine
 10
-187.59782
 20
143.800235
 30
0.0
 11
-184.069835
 21
143.800235
 31
0.0
  0
ARC
  5
BC
100
AcDbEntity
  8
2
370
    50
100
AcDbCircle
 10
-184.069835
 20
165.800235
 30
0.0
 40
22.0
100
AcDbArc
 50
270.0
 51
302.763758
  0
ARC
  5
BD
100
AcDbEntity
  8
2
370
    50
100
AcDbCircle
 10
-136.446312
 20
165.800235
 30
0.0
 40
22.0
100
AcDbArc
 50
237.236242
 51
270.0
  0
LINE
  5
BE
100
AcDbEntity
  8
2
370
    50
100
AcDbLine
 10
-132.918328
 20
143.800235
 30
0.0
 11
-136.446312
 21
143.800235
 31
0.0
  0
ARC
  5
BF
100
AcDbEntity
  8
2
370
    50
100
AcDbCircle
 10
-187.59782
 20
153.800235
 30
0.0
 40
10.0
100
AcDbArc
 50
213.055731
 51
270.0
  0
ARC
  5
C0
100
AcDbEntity
  8
2
370
    50
100
AcDbCircle
 10
-132.918328
 20
153.800235
 30
0.0
 40
10.0
100
AcDbArc
 50
270.0
 51
326.944269
  0
ARC
  5
C1
100
AcDbEntity
  8
2
370
    50
100
AcDbCircle
 10
-223.166765
 20
147.800235
 30
0.0
 40
1.0
100
AcDbArc
 50
90.0
 51
185.0
  0
POINT
  5
C2
100
AcDbEntity
  8
2
370
    50
100
AcDbPoint
 10
-224.258074
 20
148.800235
 30
0.0
  0
ARC
  5
C3
100
AcDbEntity
  8
2
370
    50
100
AcDbCircle
 10
-196.817364
 20
147.800235
 30
0.0
 40
1.0
100
AcDbArc
 50
33.055731
 51
90.0
  0
ARC
  5
C4
100
AcDbEntity
  8
2
370
    50
100
AcDbCircle
 10
-123.698783
 20
147.800235
 30
0.0
 40
1.0
100
AcDbArc
 50
90.0
 51
146.944269
  0
POINT
  5
C5
100
AcDbEntity
  8
2
370
    50
100
AcDbPoint
 10
-160.258074
 20
150.800235
 30
0.0
  0
ARC
  5
C6
100
AcDbEntity
  8
2
370
    50
100
AcDbCircle
 10
-102.531843
 20
134.459294
 30
0.0
 40
5.0
100
AcDbArc
 50
296.0
 51
355.0
  0
ARC
  5
C7
100
AcDbEntity
  8
2
370
    50
100
AcDbCircle
 10
-217.984305
 20
134.459294
 30
0.0
 40
5.0
100
AcDbArc
 50
185.0
 51
244.0
  0
LINE
  5
C8
100
AcDbEntity
  8
2
370
    50
100
AcDbLine
 10
-100.008481
 20
149.500279
 30
0.0
 11
-100.008481
 21
148.800279
 31
0.0
  0
LINE
  5
C9
100
AcDbEntity
  8
2
370
    50
100
AcDbLine
 10
-120.508481
 20
149.500279
 30
0.0
 11
-120.508481
 21
148.800279
 31
0.0
  0
LINE
  5
CA
100
AcDbEntity
  8
2
370
    50
100
AcDbLine
 10
-147.258074
 20
-130.622439
 30
0.0
 11
-147.258074
 21
-132.622004
 31
0.0
  0
LINE
  5
CB
100
AcDbEntity
  8
2
370
    50
100
AcDbLine
 10
-173.258074
 20
-130.622439
 30
0.0
 11
-173.258074
 21
-132.622004
 31
0.0
  0
LINE
  5
CC
100
AcDbEntity
  8
2
370
    50
100
AcDbLine
 10
-147.858074
 20
-132.622004
 30
0.0
 11
-147.258074
 21
-132.022004
 31
0.0
  0
LINE
  5
CD
100
AcDbEntity
  8
2
370
    50
100
AcDbLine
 10
-172.658074
 20
-132.622004
 30
0.0
 11
-173.258074
 21
-132.022004
 31
0.0
  0
POINT
  5
CE
100
AcDbEntity
  8
2
370
    50
100
AcDbPoint
 10
-160.258074
 20
-132.622439
 30
0.0
  0
POINT
  5
CF
100
AcDbEntity
  8
2
370
    50
100
AcDbPoint
 10
-148.039574
 20
107.637172
 30
0.0
  0
POINT
  5
D0
100
AcDbEntity
  8
2
370
    50
100
AcDbPoint
 10
-147.758074
 20
107.1496
 30
0.0
  0
POINT
  5
D1
100
AcDbEntity
  8
2
370
    50
100
AcDbPoint
 10
-181.907049
 20
115.740109
 30
0.0
  0
POINT
  5
D2
100
AcDbEntity
  8
2
370
    50
100
AcDbPoint
 10
-182.394621
 20
115.458609
 30
0.0
  0
LINE
  5
D3
100
AcDbEntity
  8
2
370
    50
100
AcDbLine
 10
-223.166822
 20
148.800619
 30
0.0
 11
-196.817364
 21
148.800619
 31
0.0
  0
LINE
  5
D4
100
AcDbEntity
  8
2
370
    50
100
AcDbLine
 10
-223.166822
 20
148.800619
 30
0.0
 11
-196.817364
 21
148.800619
 31
0.0
  0
LINE
  5
D5
100
AcDbEntity
  8
2
370
    50
100
AcDbLine
 10
-220.507667
 20
149.500279
 30
0.0
 11
-220.507667
 21
148.800279
 31
0.0
  0
LINE
  5
D6
100
AcDbEntity
  8
2
370
    50
100
AcDbLine
 10
-200.007667
 20
149.500279
 30
0.0
 11
-200.007667
 21
148.800279
 31
0.0
  0
POINT
  5
D7
100
AcDbEntity
  8
2
370
    50
100
AcDbPoint
 10
230.402954
 20
-16.531268
 30
0.0
  0
POINT
  5
D8
100
AcDbEntity
  8
2
370
    50
100
AcDbPoint
 10
252.402954
 20
-3.531704
 30
0.0
  0
LINE
  5
D9
100
AcDbEntity
  8
2
370
    50
100
AcDbLine
 10
250.57839
 20
43.968732
 30
0.0
 11
251.402954
 21
43.968732
 31
0.0
  0
LINE
  5
DA
100
AcDbEntity
  8
2
370
    50
100
AcDbLine
 10
130.402954
 20
106.559543
 30
0.0
 11
130.402954
 21
110.330204
 31
0.0
  0
LINE
  5
DB
100
AcDbEntity
  8
2
370
    50
100
AcDbLine
 10
131.49011
 20
105.563349
 30
0.0
 11
137.711981
 21
106.107692
 31
0.0
  0
ARC
  5
DC
100
AcDbEntity
  8
2
370
    50
100
AcDbCircle
 10
193.90296
 20
72.245066
 30
0.0
 40
15.0
100
AcDbArc
 50
0.000001
 51
64.279919
  0
ARC
  5
DD
100
AcDbEntity
  8
2
370
    50
100
AcDbCircle
 10
131.402954
 20
106.559543
 30
0.0
 40
1.0
100
AcDbArc
 50
180.0
 51
275.0
  0
ARC
  5
DE
100
AcDbEntity
  8
2
370
    50
100
AcDbCircle
 10
138.14776
 20
101.126719
 30
0.0
 40
5.0
100
AcDbArc
 50
79.123693
 51
95.0
  0
LINE
  5
DF
100
AcDbEntity
  8
2
370
    50
100
AcDbLine
 10
208.902954
 20
72.245066
 30
0.0
 11
208.902954
 21
49.468235
 31
0.0
  0
LINE
  5
E0
100
AcDbEntity
  8
2
370
    50
100
AcDbLine
 10
208.902954
 20
49.468235
 30
0.0
 11
230.402954
 21
49.468235
 31
0.0
  0
LINE
  5
E1
100
AcDbEntity
  8
2
370
    50
100
AcDbLine
 10
251.902954
 20
62.956446
 30
0.0
 11
251.902954
 21
57.293595
 31
0.0
  0
ARC
  5
E2
100
AcDbEntity
  8
2
370
    50
100
AcDbCircle
 10
91.918864
 20
-139.472303
 30
0.0
 40
250.0
100
AcDbArc
 50
64.279919
 51
79.123693
  0
ARC
  5
E3
100
AcDbEntity
  8
2
370
    50
100
AcDbCircle
 10
96.946679
 20
-150.991398
 30
0.0
 40
264.583411
100
AcDbArc
 50
54.261314
 51
82.488657
  0
ARC
  5
E4
100
AcDbEntity
  8
2
370
    50
100
AcDbCircle
 10
250.902954
 20
62.956446
 30
0.0
 40
1.0
100
AcDbArc
 50
360.0
 51
54.261314
  0
ARC
  5
E5
100
AcDbEntity
  8
2
370
    50
100
AcDbCircle
 10
131.402954
 20
110.330204
 30
0.0
 40
1.0
100
AcDbArc
 50
82.488657
 51
180.0
  0
LINE
  5
E6
100
AcDbEntity
  8
2
370
    50
100
AcDbLine
 10
230.402954
 20
49.468235
 30
0.0
 11
251.902954
 21
57.293595
 31
0.0
  0
POINT
  5
E7
100
AcDbEntity
  8
2
370
    50
100
AcDbPoint
 10
209.902954
 20
49.468235
 30
0.0
  0
LINE
  5
E8
100
AcDbEntity
  8
2
370
    50
100
AcDbLine
 10
209.189255
 20
43.968732
 30
0.0
 11
214.027954
 21
43.968732
 31
0.0
  0
POINT
  5
E9
100
AcDbEntity
  8
2
370
    50
100
AcDbPoint
 10
230.402954
 20
51.968418
 30
0.0
  0
POINT
  5
EA
100
AcDbEntity
  8
2
370
    50
100
AcDbPoint
 10
208.902954
 20
49.468235
 30
0.0
  0
POINT
  5
EB
100
AcDbEntity
  8
2
370
    50
100
AcDbPoint
 10
260.652954
 20
1.968732
 30
0.0
  0
POINT
  5
EC
100
AcDbEntity
  8
2
370
    50
100
AcDbPoint
 10
254.402954
 20
1.968732
 30
0.0
  0
LINE
  5
ED
100
AcDbEntity
  8
2
370
    50
100
AcDbLine
 10
253.602954
 20
12.468732
 30
0.0
 11
252.387123
 21
12.468732
 31
0.0
  0
LINE
  5
EE
100
AcDbEntity
  8
2
370
    50
100
AcDbLine
 10
253.602954
 20
-8.531268
 30
0.0
 11
252.402954
 21
-8.531268
 31
0.0
  0
POINT
  5
EF
100
AcDbEntity
  8
2
370
    50
100
AcDbPoint
 10
230.402954
 20
-16.531268
 30
0.0
  0
LINE
  5
F0
100
AcDbEntity
  8
2
370
    50
100
AcDbLine
 10
230.402954
 20
-16.031704
 30
0.0
 11
251.402954
 21
-16.031704
 31
0.0
  0
LINE
  5
F1
100
AcDbEntity
  8
2
370
    50
100
AcDbLine
 10
230.402954
 20
43.968296
 30
0.0
 11
209.319285
 21
43.968296
 31
0.0
  0
LINE
  5
F2
100
AcDbEntity
  8
2
370
    50
100
AcDbLine
 10
242.802954
 20
-18.031268
 30
0.0
 11
243.402954
 21
-17.431268
 31
0.0
  0
LINE
  5
F3
100
AcDbEntity
  8
2
370
    50
100
AcDbLine
 10
218.002954
 20
-18.031268
 30
0.0
 11
217.402954
 21
-17.431268
 31
0.0
  0
POINT
  5
F4
100
AcDbEntity
  8
2
370
    50
100
AcDbPoint
 10
230.402954
 20
-16.531268
 30
0.0
  0
LINE
  5
F5
100
AcDbEntity
  8
2
370
    50
100
AcDbLine
 10
213.930704
 20
-16.031704
 30
0.0
 11
230.402954
 21
-16.031704
 31
0.0
  0
LINE
  5
F6
100
AcDbEntity
  8
2
370
    50
100
AcDbLine
 10
252.402954
 20
-15.031704
 30
0.0
 11
252.402954
 21
42.968296
 31
0.0
  0
POINT
  5
F7
100
AcDbEntity
  8
2
370
    50
100
AcDbPoint
 10
252.402954
 20
-3.531704
 30
0.0
  0
POINT
  5
F8
100
AcDbEntity
  8
2
370
    50
100
AcDbPoint
 10
230.402954
 20
43.968296
 30
0.0
  0
POINT
  5
F9
100
AcDbEntity
  8
2
370
    50
100
AcDbPoint
 10
230.402954
 20
43.968296
 30
0.0
  0
ARC
  5
FA
100
AcDbEntity
  8
2
370
    50
100
AcDbCircle
 10
251.402954
 20
42.968296
 30
0.0
 40
1.0
100
AcDbArc
 50
0.0
 51
90.0
  0
ARC
  5
FB
100
AcDbEntity
  8
2
370
    50
100
AcDbCircle
 10
251.402954
 20
-15.031704
 30
0.0
 40
1.0
100
AcDbArc
 50
270.0
 51
360.0
  0
ARC
  5
FC
100
AcDbEntity
  8
2
370
    50
100
AcDbCircle
 10
250.402954
 20
9.580793
 30
0.0
 40
45.0
100
AcDbArc
 50
179.874484
 51
214.012581
  0
LINE
  5
FD
100
AcDbEntity
  8
2
370
    50
100
AcDbLine
 10
208.323091
 20
43.055452
 30
0.0
 11
205.403062
 21
9.679373
 31
0.0
  0
ARC
  5
FE
100
AcDbEntity
  8
2
370
    50
100
AcDbCircle
 10
209.319285
 20
42.968296
 30
0.0
 40
1.0
100
AcDbArc
 50
90.0
 51
175.0
  0
ARC
  5
FF
100
AcDbEntity
  8
2
370
    50
100
AcDbCircle
 10
213.930704
 20
-15.031704
 30
0.0
 40
1.0
100
AcDbArc
 50
214.012581
 51
270.0
  0
POINT
  5
100
100
AcDbEntity
  8
2
370
    50
100
AcDbPoint
 10
230.402954
 20
51.968418
 30
0.0
  0
POINT
  5
101
100
AcDbEntity
  8
2
370
    50
100
AcDbPoint
 10
230.402954
 20
51.968418
 30
0.0
  0
LINE
  5
102
100
AcDbEntity
  8
2
370
    50
100
AcDbLine
 10
268.802954
 20
18.468325
 30
0.0
 11
254.602954
 21
18.468325
 31
0.0
  0
LINE
  5
103
100
AcDbEntity
  8
2
370
    50
100
AcDbLine
 10
268.802954
 20
-14.531675
 30
0.0
 11
254.602954
 21
-14.531675
 31
0.0
  0
LINE
  5
104
100
AcDbEntity
  8
2
370
    50
100
AcDbLine
 10
269.802954
 20
-12.781675
 30
0.0
 11
269.802954
 21
16.719138
 31
0.0
  0
LINE
  5
105
100
AcDbEntity
  8
2
370
    50
100
AcDbLine
 10
253.602954
 20
-12.781675
 30
0.0
 11
253.602954
 21
-10.819838
 31
0.0
  0
LINE
  5
106
100
AcDbEntity
  8
2
370
    50
100
AcDbLine
 10
254.402954
 20
18.118325
 30
0.0
 11
254.602954
 21
18.468325
 31
0.0
  0
LINE
  5
107
100
AcDbEntity
  8
2
370
    50
100
AcDbLine
 10
253.602954
 20
-12.781675
 30
0.0
 11
254.602954
 21
-14.531675
 31
0.0
  0
LINE
  5
108
100
AcDbEntity
  8
2
370
    50
100
AcDbLine
 10
268.802954
 20
-14.531675
 30
0.0
 11
269.802954
 21
-12.781675
 31
0.0
  0
LINE
  5
109
100
AcDbEntity
  8
2
370
    50
100
AcDbLine
 10
254.602954
 20
9.363424
 30
0.0
 11
268.802954
 21
9.363424
 31
0.0
  0
LINE
  5
10A
100
AcDbEntity
  8
2
370
    50
100
AcDbLine
 10
254.602954
 20
11.04465
 30
0.0
 11
268.802954
 21
11.04465
 31
0.0
  0
LINE
  5
10B
100
AcDbEntity
  8
2
370
    50
100
AcDbLine
 10
254.602954
 20
-5.426775
 30
0.0
 11
268.802954
 21
-5.426775
 31
0.0
  0
LINE
  5
10C
100
AcDbEntity
  8
2
370
    50
100
AcDbLine
 10
254.602954
 20
-7.108
 30
0.0
 11
268.802954
 21
-7.108
 31
0.0
  0
ARC
  5
10D
100
AcDbEntity
  8
2
370
    50
100
AcDbCircle
 10
241.959204
 20
1.968325
 30
0.0
 40
27.84375
100
AcDbArc
 50
344.59782
 51
15.40218
  0
LINE
  5
10E
100
AcDbEntity
  8
2
370
    50
100
AcDbLine
 10
268.802954
 20
-7.108
 30
0.0
 11
268.802954
 21
-5.426775
 31
0.0
  0
LINE
  5
10F
100
AcDbEntity
  8
2
370
    50
100
AcDbLine
 10
268.802954
 20
9.363424
 30
0.0
 11
268.802954
 21
11.04465
 31
0.0
  0
ARC
  5
110
100
AcDbEntity
  8
2
370
    50
100
AcDbCircle
 10
262.414085
 20
-10.819838
 30
0.0
 40
7.388869
100
AcDbArc
 50
329.844052
 51
30.155948
  0
ARC
  5
111
100
AcDbEntity
  8
2
370
    50
100
AcDbCircle
 10
262.414085
 20
14.756487
 30
0.0
 40
7.388869
100
AcDbArc
 50
329.844052
 51
30.155948
  0
ARC
  5
112
100
AcDbEntity
  8
2
370
    50
100
AcDbCircle
 10
260.991823
 20
14.756487
 30
0.0
 40
7.388869
100
AcDbArc
 50
206.908673
 51
210.155948
  0
LINE
  5
113
100
AcDbEntity
  8
2
370
    50
100
AcDbLine
 10
254.602954
 20
-7.108
 30
0.0
 11
254.602954
 21
-5.426775
 31
0.0
  0
LINE
  5
114
100
AcDbEntity
  8
2
370
    50
100
AcDbLine
 10
254.602954
 20
9.363424
 30
0.0
 11
254.602954
 21
11.04465
 31
0.0
  0
ARC
  5
115
100
AcDbEntity
  8
2
370
    50
100
AcDbCircle
 10
281.446704
 20
1.968325
 30
0.0
 40
27.84375
100
AcDbArc
 50
164.59782
 51
166.232214
  0
ARC
  5
116
100
AcDbEntity
  8
2
370
    50
100
AcDbCircle
 10
281.446704
 20
1.968325
 30
0.0
 40
27.84375
100
AcDbArc
 50
193.767786
 51
195.40218
  0
ARC
  5
117
100
AcDbEntity
  8
2
370
    50
100
AcDbCircle
 10
260.991823
 20
-10.819838
 30
0.0
 40
7.388869
100
AcDbArc
 50
149.844052
 51
157.786468
  0
ARC
  5
118
100
AcDbEntity
  8
2
370
    50
100
AcDbCircle
 10
260.991823
 20
-10.819838
 30
0.0
 40
7.388869
100
AcDbArc
 50
186.52386
 51
210.155948
  0
LINE
  5
119
100
AcDbEntity
  8
2
370
    50
100
AcDbLine
 10
269.802954
 20
14.756487
 30
0.0
 11
269.802954
 21
15.168325
 31
0.0
  0
ARC
  5
11A
100
AcDbEntity
  8
2
370
    50
100
AcDbCircle
 10
260.991823
 20
14.756487
 30
0.0
 40
7.388869
100
AcDbArc
 50
149.844052
 51
210.155948
  0
ARC
  5
11B
100
AcDbEntity
  8
2
370
    50
100
AcDbCircle
 10
281.446704
 20
1.968325
 30
0.0
 40
27.84375
100
AcDbArc
 50
164.59782
 51
195.40218
  0
ARC
  5
11C
100
AcDbEntity
  8
2
370
    50
100
AcDbCircle
 10
260.991823
 20
-10.819838
 30
0.0
 40
7.388869
100
AcDbArc
 50
149.844052
 51
210.155948
  0
LINE
  5
11D
100
AcDbEntity
  8
2
370
    50
100
AcDbLine
 10
254.602954
 20
-14.531675
 30
0.0
 11
253.602954
 21
-12.781675
 31
0.0
  0
LINE
  5
11E
100
AcDbEntity
  8
2
370
    50
100
AcDbLine
 10
253.602954
 20
-10.819838
 30
0.0
 11
253.602954
 21
16.719138
 31
0.0
  0
LINE
  5
11F
100
AcDbEntity
  8
2
370
    50
100
AcDbLine
 10
250.652954
 20
43.968732
 30
0.0
 11
246.777954
 21
43.968732
 31
0.0
  0
LINE
  5
120
100
AcDbEntity
  8
2
370
    50
100
AcDbLine
 10
230.402954
 20
43.968732
 30
0.0
 11
246.777954
 21
43.968732
 31
0.0
  0
LINE
  5
121
100
AcDbEntity
  8
2
370
    50
100
AcDbLine
 10
214.027954
 20
43.968732
 30
0.0
 11
214.402954
 21
43.968732
 31
0.0
  0
LINE
  5
122
100
AcDbEntity
  8
2
370
    50
100
AcDbLine
 10
210.152954
 20
43.968732
 30
0.0
 11
214.027954
 21
43.968732
 31
0.0
  0
ARC
  5
123
100
AcDbEntity
  8
2
370
    50
100
AcDbCircle
 10
210.152954
 20
44.968732
 30
0.0
 40
1.0
100
AcDbArc
 50
159.772974
 51
270.0
  0
POINT
  5
124
100
AcDbEntity
  8
2
370
    50
100
AcDbPoint
 10
209.152954
 20
44.968732
 30
0.0
  0
POINT
  5
125
100
AcDbEntity
  8
2
370
    50
100
AcDbPoint
 10
209.152954
 20
44.968732
 30
0.0
  0
LINE
  5
126
100
AcDbEntity
  8
2
370
    50
100
AcDbLine
 10
246.777954
 20
43.968732
 30
0.0
 11
246.402954
 21
43.968732
 31
0.0
  0
LINE
  5
127
100
AcDbEntity
  8
2
370
    50
100
AcDbLine
 10
250.652954
 20
43.968732
 30
0.0
 11
246.777954
 21
43.968732
 31
0.0
  0
ARC
  5
128
100
AcDbEntity
  8
2
370
    50
100
AcDbCircle
 10
250.652954
 20
44.968732
 30
0.0
 40
1.0
100
AcDbArc
 50
270.0
 51
22.322634
  0
POINT
  5
129
100
AcDbEntity
  8
2
370
    50
100
AcDbPoint
 10
251.652954
 20
44.968732
 30
0.0
  0
POINT
  5
12A
100
AcDbEntity
  8
2
370
    50
100
AcDbPoint
 10
251.652954
 20
44.968732
 30
0.0
  0
ARC
  5
12B
100
AcDbEntity
  8
2
370
    50
100
AcDbCircle
 10
159.072039
 20
7.36639
 30
0.0
 40
100.0
100
AcDbArc
 50
22.322634
 51
28.723244
  0
ARC
  5
12C
100
AcDbEntity
  8
2
370
    50
100
AcDbCircle
 10
301.733869
 20
7.36639
 30
0.0
 40
100.0
100
AcDbArc
 50
155.101097
 51
157.677366
  0
LINE
  5
12D
100
AcDbEntity
  8
2
370
    50
100
AcDbLine
 10
130.402954
 20
106.559543
 30
0.0
 11
130.402954
 21
110.330204
 31
0.0
  0
LINE
  5
12E
100
AcDbEntity
  8
2
370
    50
100
AcDbLine
 10
131.49011
 20
105.563349
 30
0.0
 11
137.711981
 21
106.107692
 31
0.0
  0
ARC
  5
12F
100
AcDbEntity
  8
2
370
    50
100
AcDbCircle
 10
131.402954
 20
106.559543
 30
0.0
 40
1.0
100
AcDbArc
 50
180.0
 51
275.0
  0
ARC
  5
130
100
AcDbEntity
  8
2
370
    50
100
AcDbCircle
 10
138.14776
 20
101.126719
 30
0.0
 40
5.0
100
AcDbArc
 50
79.123693
 51
95.0
  0
POINT
  5
131
100
AcDbEntity
  8
2
370
    50
100
AcDbPoint
 10
230.402954
 20
49.468235
 30
0.0
  0
POINT
  5
132
100
AcDbEntity
  8
2
370
    50
100
AcDbPoint
 10
230.402954
 20
49.468235
 30
0.0
  0
ARC
  5
133
100
AcDbEntity
  8
2
370
    50
100
AcDbCircle
 10
91.918864
 20
-139.472303
 30
0.0
 40
250.0
100
AcDbArc
 50
64.279919
 51
79.123693
  0
POINT
  5
134
100
AcDbEntity
  8
2
370
    50
100
AcDbPoint
 10
208.902954
 20
81.468238
 30
0.0
  0
POINT
  5
135
100
AcDbEntity
  8
2
370
    50
100
AcDbPoint
 10
230.402954
 20
77.468235
 30
0.0
  0
ARC
  5
136
100
AcDbEntity
  8
2
370
    50
100
AcDbCircle
 10
131.402954
 20
110.330204
 30
0.0
 40
1.0
100
AcDbArc
 50
82.488657
 51
180.0
  0
POINT
  5
137
100
AcDbEntity
  8
2
370
    50
100
AcDbPoint
 10
146.604016
 20
104.473458
 30
0.0
  0
POINT
  5
138
100
AcDbEntity
  8
2
370
    50
100
AcDbPoint
 10
189.691047
 20
90.615941
 30
0.0
  0
POINT
  5
139
100
AcDbEntity
  8
2
370
    50
100
AcDbPoint
 10
147.431574
 20
108.73087
 30
0.0
  0
POINT
  5
13A
100
AcDbEntity
  8
2
370
    50
100
AcDbPoint
 10
191.764893
 20
96.018496
 30
0.0
  0
POINT
  5
13B
100
AcDbEntity
  8
2
370
    50
100
AcDbPoint
 10
138.402954
 20
106.168144
 30
0.0
  0
POINT
  5
13C
100
AcDbEntity
  8
2
370
    50
100
AcDbPoint
 10
130.402954
 20
111.468235
 30
0.0
  0
LINE
  5
13D
100
AcDbEntity
  8
2
370
    25
  6
DASHED
100
AcDbLine
 10
165.16786
 20
143.191282
 30
0.0
 11
166.76141
 21
146.608661
 31
0.0
  0
LINE
  5
13E
100
AcDbEntity
  8
2
370
    25
  6
DASHED
100
AcDbLine
 10
165.732147
 20
141.828971
 30
0.0
 11
171.601127
 21
139.692837
 31
0.0
  0
ARC
  5
13F
100
AcDbEntity
  8
2
370
    25
  6
DASHED
100
AcDbCircle
 10
166.074168
 20
142.768664
 30
0.0
 40
1.0
100
AcDbArc
 50
155.0
 51
250.0
  0
ARC
  5
140
100
AcDbEntity
  8
2
370
    25
  6
DASHED
100
AcDbCircle
 10
169.891027
 20
134.994374
 30
0.0
 40
5.0
100
AcDbArc
 50
54.123693
 51
70.0
  0
ARC
  5
141
100
AcDbEntity
  8
2
370
    25
  6
DASHED
100
AcDbCircle
 10
26.311878
 20
-63.525217
 30
0.0
 40
250.0
100
AcDbArc
 50
39.279919
 51
54.123693
  0
ARC
  5
142
100
AcDbEntity
  8
2
370
    25
  6
DASHED
100
AcDbCircle
 10
26.000445
 20
-76.089909
 30
0.0
 40
264.583411
100
AcDbArc
 50
38.733524
 51
57.488657
  0
ARC
  5
143
100
AcDbEntity
  8
2
370
    25
  6
DASHED
100
AcDbCircle
 10
167.667717
 20
146.186043
 30
0.0
 40
1.0
100
AcDbArc
 50
57.488657
 51
155.0
  0
LINE
  5
144
100
AcDbEntity
  8
2
370
    25
  6
DASHED
100
AcDbLine
 10
165.16786
 20
143.191282
 30
0.0
 11
166.76141
 21
146.608661
 31
0.0
  0
LINE
  5
145
100
AcDbEntity
  8
2
370
    25
  6
DASHED
100
AcDbLine
 10
165.732147
 20
141.828971
 30
0.0
 11
171.601127
 21
139.692837
 31
0.0
  0
ARC
  5
146
100
AcDbEntity
  8
2
370
    25
  6
DASHED
100
AcDbCircle
 10
166.074168
 20
142.768664
 30
0.0
 40
1.0
100
AcDbArc
 50
155.0
 51
250.0
  0
ARC
  5
147
100
AcDbEntity
  8
2
370
    25
  6
DASHED
100
AcDbCircle
 10
169.891027
 20
134.994374
 30
0.0
 40
5.0
100
AcDbArc
 50
54.123693
 51
70.0
  0
ARC
  5
148
100
AcDbEntity
  8
2
370
    25
  6
DASHED
100
AcDbCircle
 10
26.311878
 20
-63.525217
 30
0.0
 40
250.0
100
AcDbArc
 50
39.279919
 51
54.123693
  0
ARC
  5
149
100
AcDbEntity
  8
2
370
    50
100
AcDbCircle
 10
167.667717
 20
146.186043
 30
0.0
 40
1.0
100
AcDbArc
 50
57.488657
 51
155.0
  0
POINT
  5
14A
100
AcDbEntity
  8
2
370
    50
100
AcDbPoint
 10
178.969391
 20
134.453781
 30
0.0
  0
POINT
  5
14B
100
AcDbEntity
  8
2
370
    50
100
AcDbPoint
 10
212.163063
 20
103.68524
 30
0.0
  0
POINT
  5
14C
100
AcDbEntity
  8
2
370
    50
100
AcDbPoint
 10
216.325824
 20
107.705172
 30
0.0
  0
POINT
  5
14D
100
AcDbEntity
  8
2
370
    50
100
AcDbPoint
 10
172.25291
 20
139.455608
 30
0.0
  0
POINT
  5
14E
100
AcDbEntity
  8
2
370
    50
100
AcDbPoint
 10
167.242362
 20
147.640067
 30
0.0
  0
POINT
  5
14F
100
AcDbEntity
  8
2
370
    50
100
AcDbPoint
 10
130.402954
 20
105.468235
 30
0.0
  0
POINT
  5
150
100
AcDbEntity
  8
2
370
    50
100
AcDbPoint
 10
164.706653
 20
142.202221
 30
0.0
  0
LINE
  5
151
100
AcDbEntity
  8
2
370
    50
100
AcDbLine
 10
243.402954
 20
-16.032336
 30
0.0
 11
243.402954
 21
-18.032234
 31
0.0
  0
LINE
  5
152
100
AcDbEntity
  8
2
370
    50
100
AcDbLine
 10
217.402954
 20
-16.032336
 30
0.0
 11
217.402954
 21
-18.032234
 31
0.0
  0
LINE
  5
153
100
AcDbEntity
  8
2
370
    50
100
AcDbLine
 10
242.802954
 20
-18.0319
 30
0.0
 11
243.402954
 21
-17.4319
 31
0.0
  0
LINE
  5
154
100
AcDbEntity
  8
2
370
    50
100
AcDbLine
 10
218.002954
 20
-18.0319
 30
0.0
 11
217.402954
 21
-17.4319
 31
0.0
  0
LINE
  5
155
100
AcDbEntity
  8
2
370
    50
100
AcDbLine
 10
268.802954
 20
18.469138
 30
0.0
 11
269.802954
 21
16.719138
 31
0.0
  0
LINE
  5
156
100
AcDbEntity
  8
2
370
    50
100
AcDbLine
 10
253.602954
 20
16.719138
 30
0.0
 11
254.602954
 21
18.469138
 31
0.0
  0
POINT
  5
157
100
AcDbEntity
  8
2
370
    50
100
AcDbPoint
 10
-110.257721
 20
149.500279
 30
0.0
  0
LINE
  5
158
100
AcDbEntity
  8
2
370
    50
100
AcDbLine
 10
-126.758481
 20
164.700279
 30
0.0
 11
-126.758481
 21
150.500279
 31
0.0
  0
LINE
  5
159
100
AcDbEntity
  8
2
370
    50
100
AcDbLine
 10
-93.758481
 20
164.700279
 30
0.0
 11
-93.758481
 21
150.500279
 31
0.0
  0
LINE
  5
15A
100
AcDbEntity
  8
2
370
    50
100
AcDbLine
 10
-95.508481
 20
165.700279
 30
0.0
 11
-123.046643
 21
165.700279
 31
0.0
  0
LINE
  5
15B
100
AcDbEntity
  8
2
370
    50
100
AcDbLine
 10
-126.408481
 20
150.300279
 30
0.0
 11
-126.758481
 21
150.500279
 31
0.0
  0
LINE
  5
15C
100
AcDbEntity
  8
2
370
    50
100
AcDbLine
 10
-95.508481
 20
149.500279
 30
0.0
 11
-93.758481
 21
150.500279
 31
0.0
  0
LINE
  5
15D
100
AcDbEntity
  8
2
370
    50
100
AcDbLine
 10
-93.758481
 20
164.700279
 30
0.0
 11
-95.508481
 21
165.700279
 31
0.0
  0
LINE
  5
15E
100
AcDbEntity
  8
2
370
    50
100
AcDbLine
 10
-117.65358
 20
150.500279
 30
0.0
 11
-117.65358
 21
164.700279
 31
0.0
  0
LINE
  5
15F
100
AcDbEntity
  8
2
370
    50
100
AcDbLine
 10
-119.334805
 20
150.500279
 30
0.0
 11
-119.334805
 21
164.700279
 31
0.0
  0
LINE
  5
160
100
AcDbEntity
  8
2
370
    50
100
AcDbLine
 10
-102.863381
 20
150.500279
 30
0.0
 11
-102.863381
 21
164.700279
 31
0.0
  0
LINE
  5
161
100
AcDbEntity
  8
2
370
    50
100
AcDbLine
 10
-101.182156
 20
150.500279
 30
0.0
 11
-101.182156
 21
164.700279
 31
0.0
  0
ARC
  5
162
100
AcDbEntity
  8
2
370
    50
100
AcDbCircle
 10
-110.258481
 20
137.856529
 30
0.0
 40
27.84375
100
AcDbArc
 50
74.59782
 51
105.40218
  0
LINE
  5
163
100
AcDbEntity
  8
2
370
    50
100
AcDbLine
 10
-101.182156
 20
164.700279
 30
0.0
 11
-102.863381
 21
164.700279
 31
0.0
  0
LINE
  5
164
100
AcDbEntity
  8
2
370
    50
100
AcDbLine
 10
-117.65358
 20
164.700279
 30
0.0
 11
-119.334805
 21
164.700279
 31
0.0
  0
ARC
  5
165
100
AcDbEntity
  8
2
370
    50
100
AcDbCircle
 10
-97.470318
 20
158.31141
 30
0.0
 40
7.388869
100
AcDbArc
 50
59.844052
 51
120.155948
  0
ARC
  5
166
100
AcDbEntity
  8
2
370
    50
100
AcDbCircle
 10
-123.046643
 20
158.31141
 30
0.0
 40
7.388869
100
AcDbArc
 50
59.844052
 51
120.155948
  0
ARC
  5
167
100
AcDbEntity
  8
2
370
    50
100
AcDbCircle
 10
-123.046643
 20
156.889148
 30
0.0
 40
7.388869
100
AcDbArc
 50
296.908673
 51
300.155948
  0
LINE
  5
168
100
AcDbEntity
  8
2
370
    50
100
AcDbLine
 10
-101.182156
 20
150.500279
 30
0.0
 11
-102.863381
 21
150.500279
 31
0.0
  0
LINE
  5
169
100
AcDbEntity
  8
2
370
    50
100
AcDbLine
 10
-117.65358
 20
150.500279
 30
0.0
 11
-119.334805
 21
150.500279
 31
0.0
  0
ARC
  5
16A
100
AcDbEntity
  8
2
370
    50
100
AcDbCircle
 10
-110.258481
 20
177.344029
 30
0.0
 40
27.84375
100
AcDbArc
 50
254.59782
 51
256.232214
  0
ARC
  5
16B
100
AcDbEntity
  8
2
370
    50
100
AcDbCircle
 10
-110.258481
 20
177.344029
 30
0.0
 40
27.84375
100
AcDbArc
 50
283.767786
 51
285.40218
  0
ARC
  5
16C
100
AcDbEntity
  8
2
370
    50
100
AcDbCircle
 10
-97.470318
 20
156.889148
 30
0.0
 40
7.388869
100
AcDbArc
 50
239.844052
 51
247.786468
  0
ARC
  5
16D
100
AcDbEntity
  8
2
370
    50
100
AcDbCircle
 10
-97.470318
 20
156.889148
 30
0.0
 40
7.388869
100
AcDbArc
 50
276.52386
 51
300.155948
  0
ARC
  5
16E
100
AcDbEntity
  8
2
370
    50
100
AcDbCircle
 10
-123.046643
 20
156.889148
 30
0.0
 40
7.388869
100
AcDbArc
 50
239.844052
 51
300.155948
  0
ARC
  5
16F
100
AcDbEntity
  8
2
370
    50
100
AcDbCircle
 10
-110.258481
 20
177.344029
 30
0.0
 40
27.84375
100
AcDbArc
 50
254.59782
 51
285.40218
  0
ARC
  5
170
100
AcDbEntity
  8
2
370
    50
100
AcDbCircle
 10
-97.470318
 20
156.889148
 30
0.0
 40
7.388869
100
AcDbArc
 50
239.844052
 51
300.155948
  0
LINE
  5
171
100
AcDbEntity
  8
2
370
    50
100
AcDbLine
 10
-93.758481
 20
150.500279
 30
0.0
 11
-95.508481
 21
149.500279
 31
0.0
  0
LINE
  5
172
100
AcDbEntity
  8
2
370
    50
100
AcDbLine
 10
-95.508481
 20
149.500279
 30
0.0
 11
-125.006962
 21
149.500279
 31
0.0
  0
LINE
  5
173
100
AcDbEntity
  8
2
370
    50
100
AcDbLine
 10
-126.758481
 20
164.700279
 30
0.0
 11
-126.758481
 21
150.500279
 31
0.0
  0
LINE
  5
174
100
AcDbEntity
  8
2
370
    50
100
AcDbLine
 10
-93.758481
 20
164.700279
 30
0.0
 11
-93.758481
 21
150.500279
 31
0.0
  0
LINE
  5
175
100
AcDbEntity
  8
2
370
    50
100
AcDbLine
 10
-95.508481
 20
165.700279
 30
0.0
 11
-125.006962
 21
165.700279
 31
0.0
  0
LINE
  5
176
100
AcDbEntity
  8
2
370
    50
100
AcDbLine
 10
-126.408481
 20
150.300279
 30
0.0
 11
-126.758481
 21
150.500279
 31
0.0
  0
LINE
  5
177
100
AcDbEntity
  8
2
370
    50
100
AcDbLine
 10
-95.508481
 20
149.500279
 30
0.0
 11
-93.758481
 21
150.500279
 31
0.0
  0
LINE
  5
178
100
AcDbEntity
  8
2
370
    50
100
AcDbLine
 10
-93.758481
 20
164.700279
 30
0.0
 11
-95.508481
 21
165.700279
 31
0.0
  0
LINE
  5
179
100
AcDbEntity
  8
2
370
    50
100
AcDbLine
 10
-117.65358
 20
150.500279
 30
0.0
 11
-117.65358
 21
164.700279
 31
0.0
  0
LINE
  5
17A
100
AcDbEntity
  8
2
370
    50
100
AcDbLine
 10
-119.334805
 20
150.500279
 30
0.0
 11
-119.334805
 21
164.700279
 31
0.0
  0
LINE
  5
17B
100
AcDbEntity
  8
2
370
    50
100
AcDbLine
 10
-102.863381
 20
150.500279
 30
0.0
 11
-102.863381
 21
164.700279
 31
0.0
  0
LINE
  5
17C
100
AcDbEntity
  8
2
370
    50
100
AcDbLine
 10
-101.182156
 20
150.500279
 30
0.0
 11
-101.182156
 21
164.700279
 31
0.0
  0
ARC
  5
17D
100
AcDbEntity
  8
2
370
    50
100
AcDbCircle
 10
-110.258481
 20
137.856529
 30
0.0
 40
27.84375
100
AcDbArc
 50
74.59782
 51
105.40218
  0
LINE
  5
17E
100
AcDbEntity
  8
2
370
    50
100
AcDbLine
 10
-101.182156
 20
164.700279
 30
0.0
 11
-102.863381
 21
164.700279
 31
0.0
  0
LINE
  5
17F
100
AcDbEntity
  8
2
370
    50
100
AcDbLine
 10
-117.65358
 20
164.700279
 30
0.0
 11
-119.334805
 21
164.700279
 31
0.0
  0
ARC
  5
180
100
AcDbEntity
  8
2
370
    50
100
AcDbCircle
 10
-97.470318
 20
158.31141
 30
0.0
 40
7.388869
100
AcDbArc
 50
59.844052
 51
120.155948
  0
ARC
  5
181
100
AcDbEntity
  8
2
370
    50
100
AcDbCircle
 10
-123.046643
 20
158.31141
 30
0.0
 40
7.388869
100
AcDbArc
 50
59.844052
 51
120.155948
  0
ARC
  5
182
100
AcDbEntity
  8
2
370
    50
100
AcDbCircle
 10
-123.046643
 20
156.889148
 30
0.0
 40
7.388869
100
AcDbArc
 50
296.908673
 51
300.155948
  0
LINE
  5
183
100
AcDbEntity
  8
2
370
    50
100
AcDbLine
 10
-101.182156
 20
150.500279
 30
0.0
 11
-102.863381
 21
150.500279
 31
0.0
  0
LINE
  5
184
100
AcDbEntity
  8
2
370
    50
100
AcDbLine
 10
-117.65358
 20
150.500279
 30
0.0
 11
-119.334805
 21
150.500279
 31
0.0
  0
ARC
  5
185
100
AcDbEntity
  8
2
370
    50
100
AcDbCircle
 10
-110.258481
 20
177.344029
 30
0.0
 40
27.84375
100
AcDbArc
 50
254.59782
 51
256.232214
  0
ARC
  5
186
100
AcDbEntity
  8
2
370
    50
100
AcDbCircle
 10
-110.258481
 20
177.344029
 30
0.0
 40
27.84375
100
AcDbArc
 50
283.767786
 51
285.40218
  0
ARC
  5
187
100
AcDbEntity
  8
2
370
    50
100
AcDbCircle
 10
-97.470318
 20
156.889148
 30
0.0
 40
7.388869
100
AcDbArc
 50
239.844052
 51
247.786468
  0
ARC
  5
188
100
AcDbEntity
  8
2
370
    50
100
AcDbCircle
 10
-97.470318
 20
156.889148
 30
0.0
 40
7.388869
100
AcDbArc
 50
276.52386
 51
300.155948
  0
ARC
  5
189
100
AcDbEntity
  8
2
370
    50
100
AcDbCircle
 10
-123.046643
 20
156.889148
 30
0.0
 40
7.388869
100
AcDbArc
 50
239.844052
 51
300.155948
  0
ARC
  5
18A
100
AcDbEntity
  8
2
370
    50
100
AcDbCircle
 10
-110.258481
 20
177.344029
 30
0.0
 40
27.84375
100
AcDbArc
 50
254.59782
 51
285.40218
  0
ARC
  5
18B
100
AcDbEntity
  8
2
370
    50
100
AcDbCircle
 10
-97.470318
 20
156.889148
 30
0.0
 40
7.388869
100
AcDbArc
 50
239.844052
 51
300.155948
  0
LINE
  5
18C
100
AcDbEntity
  8
2
370
    50
100
AcDbLine
 10
-93.758481
 20
150.500279
 30
0.0
 11
-95.508481
 21
149.500279
 31
0.0
  0
LINE
  5
18D
100
AcDbEntity
  8
2
370
    50
100
AcDbLine
 10
-126.756962
 20
164.700279
 30
0.0
 11
-125.006962
 21
165.700279
 31
0.0
  0
LINE
  5
18E
100
AcDbEntity
  8
2
370
    50
100
AcDbLine
 10
-126.756962
 20
150.500279
 30
0.0
 11
-125.006962
 21
149.500279
 31
0.0
  0
LINE
  5
18F
100
AcDbEntity
  8
2
370
    50
100
AcDbLine
 10
-193.757667
 20
164.700279
 30
0.0
 11
-193.757667
 21
150.500279
 31
0.0
  0
LINE
  5
190
100
AcDbEntity
  8
2
370
    50
100
AcDbLine
 10
-226.757667
 20
164.700279
 30
0.0
 11
-226.757667
 21
150.500279
 31
0.0
  0
LINE
  5
191
100
AcDbEntity
  8
2
370
    50
100
AcDbLine
 10
-225.007667
 20
165.700279
 30
0.0
 11
-197.469504
 21
165.700279
 31
0.0
  0
LINE
  5
192
100
AcDbEntity
  8
2
370
    50
100
AcDbLine
 10
-225.007667
 20
149.500279
 30
0.0
 11
-226.757667
 21
150.500279
 31
0.0
  0
LINE
  5
193
100
AcDbEntity
  8
2
370
    50
100
AcDbLine
 10
-226.757667
 20
164.700279
 30
0.0
 11
-225.007667
 21
165.700279
 31
0.0
  0
LINE
  5
194
100
AcDbEntity
  8
2
370
    50
100
AcDbLine
 10
-202.862567
 20
150.500279
 30
0.0
 11
-202.862567
 21
164.700279
 31
0.0
  0
LINE
  5
195
100
AcDbEntity
  8
2
370
    50
100
AcDbLine
 10
-201.181342
 20
150.500279
 30
0.0
 11
-201.181342
 21
164.700279
 31
0.0
  0
LINE
  5
196
100
AcDbEntity
  8
2
370
    50
100
AcDbLine
 10
-217.652766
 20
150.500279
 30
0.0
 11
-217.652766
 21
164.700279
 31
0.0
  0
LINE
  5
197
100
AcDbEntity
  8
2
370
    50
100
AcDbLine
 10
-219.333992
 20
150.500279
 30
0.0
 11
-219.333992
 21
164.700279
 31
0.0
  0
ARC
  5
198
100
AcDbEntity
  8
2
370
    50
100
AcDbCircle
 10
-210.257667
 20
137.856529
 30
0.0
 40
27.84375
100
AcDbArc
 50
74.59782
 51
105.40218
  0
LINE
  5
199
100
AcDbEntity
  8
2
370
    50
100
AcDbLine
 10
-219.333992
 20
164.700279
 30
0.0
 11
-217.652766
 21
164.700279
 31
0.0
  0
LINE
  5
19A
100
AcDbEntity
  8
2
370
    50
100
AcDbLine
 10
-202.862567
 20
164.700279
 30
0.0
 11
-201.181342
 21
164.700279
 31
0.0
  0
ARC
  5
19B
100
AcDbEntity
  8
2
370
    50
100
AcDbCircle
 10
-223.045829
 20
158.31141
 30
0.0
 40
7.388869
100
AcDbArc
 50
59.844052
 51
120.155948
  0
ARC
  5
19C
100
AcDbEntity
  8
2
370
    50
100
AcDbCircle
 10
-197.469504
 20
158.31141
 30
0.0
 40
7.388869
100
AcDbArc
 50
59.844052
 51
120.155948
  0
ARC
  5
19D
100
AcDbEntity
  8
2
370
    50
100
AcDbCircle
 10
-197.469504
 20
156.889148
 30
0.0
 40
7.388869
100
AcDbArc
 50
239.844052
 51
243.091327
  0
LINE
  5
19E
100
AcDbEntity
  8
2
370
    50
100
AcDbLine
 10
-219.333992
 20
150.500279
 30
0.0
 11
-217.652766
 21
150.500279
 31
0.0
  0
LINE
  5
19F
100
AcDbEntity
  8
2
370
    50
100
AcDbLine
 10
-202.862567
 20
150.500279
 30
0.0
 11
-201.181342
 21
150.500279
 31
0.0
  0
ARC
  5
1A0
100
AcDbEntity
  8
2
370
    50
100
AcDbCircle
 10
-210.257667
 20
177.344029
 30
0.0
 40
27.84375
100
AcDbArc
 50
254.59782
 51
256.232214
  0
ARC
  5
1A1
100
AcDbEntity
  8
2
370
    50
100
AcDbCircle
 10
-223.045829
 20
156.889148
 30
0.0
 40
7.388869
100
AcDbArc
 50
292.213532
 51
300.155948
  0
ARC
  5
1A2
100
AcDbEntity
  8
2
370
    50
100
AcDbCircle
 10
-223.045829
 20
156.889148
 30
0.0
 40
7.388869
100
AcDbArc
 50
239.844052
 51
263.47614
  0
ARC
  5
1A3
100
AcDbEntity
  8
2
370
    50
100
AcDbCircle
 10
-197.469504
 20
156.889148
 30
0.0
 40
7.388869
100
AcDbArc
 50
239.844052
 51
300.155948
  0
ARC
  5
1A4
100
AcDbEntity
  8
2
370
    50
100
AcDbCircle
 10
-210.257667
 20
177.344029
 30
0.0
 40
27.84375
100
AcDbArc
 50
254.59782
 51
285.40218
  0
ARC
  5
1A5
100
AcDbEntity
  8
2
370
    50
100
AcDbCircle
 10
-223.045829
 20
156.889148
 30
0.0
 40
7.388869
100
AcDbArc
 50
239.844052
 51
300.155948
  0
LINE
  5
1A6
100
AcDbEntity
  8
2
370
    50
100
AcDbLine
 10
-226.757667
 20
150.500279
 30
0.0
 11
-225.007667
 21
149.500279
 31
0.0
  0
LINE
  5
1A7
100
AcDbEntity
  8
2
370
    50
100
AcDbLine
 10
-225.007667
 20
149.500279
 30
0.0
 11
-195.509185
 21
149.500279
 31
0.0
  0
LINE
  5
1A8
100
AcDbEntity
  8
2
370
    50
100
AcDbLine
 10
-193.757667
 20
164.700279
 30
0.0
 11
-193.757667
 21
150.500279
 31
0.0
  0
LINE
  5
1A9
100
AcDbEntity
  8
2
370
    50
100
AcDbLine
 10
-226.757667
 20
164.700279
 30
0.0
 11
-226.757667
 21
150.500279
 31
0.0
  0
LINE
  5
1AA
100
AcDbEntity
  8
2
370
    50
100
AcDbLine
 10
-225.007667
 20
165.700279
 30
0.0
 11
-195.509185
 21
165.700279
 31
0.0
  0
LINE
  5
1AB
100
AcDbEntity
  8
2
370
    50
100
AcDbLine
 10
-225.007667
 20
149.500279
 30
0.0
 11
-226.757667
 21
150.500279
 31
0.0
  0
LINE
  5
1AC
100
AcDbEntity
  8
2
370
    50
100
AcDbLine
 10
-226.757667
 20
164.700279
 30
0.0
 11
-225.007667
 21
165.700279
 31
0.0
  0
LINE
  5
1AD
100
AcDbEntity
  8
2
370
    50
100
AcDbLine
 10
-202.862567
 20
150.500279
 30
0.0
 11
-202.862567
 21
164.700279
 31
0.0
  0
LINE
  5
1AE
100
AcDbEntity
  8
2
370
    50
100
AcDbLine
 10
-201.181342
 20
150.500279
 30
0.0
 11
-201.181342
 21
164.700279
 31
0.0
  0
LINE
  5
1AF
100
AcDbEntity
  8
2
370
    50
100
AcDbLine
 10
-217.652766
 20
150.500279
 30
0.0
 11
-217.652766
 21
164.700279
 31
0.0
  0
LINE
  5
1B0
100
AcDbEntity
  8
2
370
    50
100
AcDbLine
 10
-219.333992
 20
150.500279
 30
0.0
 11
-219.333992
 21
164.700279
 31
0.0
  0
ARC
  5
1B1
100
AcDbEntity
  8
2
370
    50
100
AcDbCircle
 10
-210.257667
 20
137.856529
 30
0.0
 40
27.84375
100
AcDbArc
 50
74.59782
 51
105.40218
  0
LINE
  5
1B2
100
AcDbEntity
  8
2
370
    50
100
AcDbLine
 10
-219.333992
 20
164.700279
 30
0.0
 11
-217.652766
 21
164.700279
 31
0.0
  0
LINE
  5
1B3
100
AcDbEntity
  8
2
370
    50
100
AcDbLine
 10
-202.862567
 20
164.700279
 30
0.0
 11
-201.181342
 21
164.700279
 31
0.0
  0
ARC
  5
1B4
100
AcDbEntity
  8
2
370
    50
100
AcDbCircle
 10
-223.045829
 20
158.31141
 30
0.0
 40
7.388869
100
AcDbArc
 50
59.844052
 51
120.155948
  0
ARC
  5
1B5
100
AcDbEntity
  8
2
370
    50
100
AcDbCircle
 10
-197.469504
 20
158.31141
 30
0.0
 40
7.388869
100
AcDbArc
 50
59.844052
 51
120.155948
  0
ARC
  5
1B6
100
AcDbEntity
  8
2
370
    50
100
AcDbCircle
 10
-197.469504
 20
156.889148
 30
0.0
 40
7.388869
100
AcDbArc
 50
239.844052
 51
243.091327
  0
LINE
  5
1B7
100
AcDbEntity
  8
2
370
    50
100
AcDbLine
 10
-219.333992
 20
150.500279
 30
0.0
 11
-217.652766
 21
150.500279
 31
0.0
  0
LINE
  5
1B8
100
AcDbEntity
  8
2
370
    50
100
AcDbLine
 10
-202.862567
 20
150.500279
 30
0.0
 11
-201.181342
 21
150.500279
 31
0.0
  0
ARC
  5
1B9
100
AcDbEntity
  8
2
370
    50
100
AcDbCircle
 10
-210.257667
 20
177.344029
 30
0.0
 40
27.84375
100
AcDbArc
 50
254.59782
 51
256.232214
  0
ARC
  5
1BA
100
AcDbEntity
  8
2
370
    50
100
AcDbCircle
 10
-223.045829
 20
156.889148
 30
0.0
 40
7.388869
100
AcDbArc
 50
292.213532
 51
300.155948
  0
ARC
  5
1BB
100
AcDbEntity
  8
2
370
    50
100
AcDbCircle
 10
-223.045829
 20
156.889148
 30
0.0
 40
7.388869
100
AcDbArc
 50
239.844052
 51
263.47614
  0
ARC
  5
1BC
100
AcDbEntity
  8
2
370
    50
100
AcDbCircle
 10
-210.257667
 20
177.344029
 30
0.0
 40
27.84375
100
AcDbArc
 50
254.59782
 51
285.40218
  0
ARC
  5
1BD
100
AcDbEntity
  8
2
370
    50
100
AcDbCircle
 10
-223.045829
 20
156.889148
 30
0.0
 40
7.388869
100
AcDbArc
 50
239.844052
 51
300.155948
  0
LINE
  5
1BE
100
AcDbEntity
  8
2
370
    50
100
AcDbLine
 10
-226.757667
 20
150.500279
 30
0.0
 11
-225.007667
 21
149.500279
 31
0.0
  0
LINE
  5
1BF
100
AcDbEntity
  8
2
370
    50
100
AcDbLine
 10
-193.759185
 20
164.700279
 30
0.0
 11
-195.509185
 21
165.700279
 31
0.0
  0
LINE
  5
1C0
100
AcDbEntity
  8
2
370
    50
100
AcDbLine
 10
-193.759185
 20
150.500279
 30
0.0
 11
-195.509185
 21
149.500279
 31
0.0
  0
LINE
  5
1C1
100
AcDbEntity
  8
2
370
    50
100
AcDbLine
 10
172.819393
 20
-33.481692
 30
0.0
 11
173.402629
 21
-33.481692
 31
0.0
  0
LINE
  5
1C2
100
AcDbEntity
  8
2
370
    50
100
AcDbLine
 10
173.402629
 20
-50.981692
 30
0.0
 11
172.819393
 21
-50.981692
 31
0.0
  0
ARC
  5
1C3
100
AcDbEntity
  8
2
370
    50
100
AcDbCircle
 10
221.202629
 20
-42.231692
 30
0.0
 40
50.0
100
AcDbArc
 50
170.899698
 51
189.100302
  0
ARC
  5
1C4
100
AcDbEntity
  8
2
370
    50
100
AcDbCircle
 10
172.819393
 20
-49.981692
 30
0.0
 40
1.0
100
AcDbArc
 50
189.100302
 51
270.0
  0
ARC
  5
1C5
100
AcDbEntity
  8
2
370
    50
100
AcDbCircle
 10
172.819393
 20
-34.481692
 30
0.0
 40
1.0
100
AcDbArc
 50
90.0
 51
170.899698
  0
LINE
  5
1C6
100
AcDbEntity
  8
2
370
    50
100
AcDbLine
 10
181.407862
 20
-26.305117
 30
0.0
 11
206.380576
 21
-25.754248
 31
0.0
  0
LINE
  5
1C7
100
AcDbEntity
  8
2
370
    50
100
AcDbLine
 10
181.407862
 20
-58.158289
 30
0.0
 11
206.380576
 21
-58.709158
 31
0.0
  0
ARC
  5
1C8
100
AcDbEntity
  8
2
370
    50
100
AcDbCircle
 10
181.606344
 20
-35.302928
 30
0.0
 40
9.0
100
AcDbArc
 50
91.263673
 51
152.405115
  0
ARC
  5
1C9
100
AcDbEntity
  8
2
370
    50
100
AcDbCircle
 10
181.606344
 20
-49.160478
 30
0.0
 40
9.0
100
AcDbArc
 50
207.594885
 51
268.736327
  0
ARC
  5
1CA
100
AcDbEntity
  8
2
370
    50
100
AcDbCircle
 10
206.402629
 20
-26.754005
 30
0.0
 40
1.0
100
AcDbArc
 50
0.0
 51
91.263673
  0
ARC
  5
1CB
100
AcDbEntity
  8
2
370
    50
100
AcDbCircle
 10
206.402629
 20
-57.709401
 30
0.0
 40
1.0
100
AcDbArc
 50
268.736327
 51
360.0
  0
ARC
  5
1CC
100
AcDbEntity
  8
2
370
    50
100
AcDbCircle
 10
175.402629
 20
-32.06041
 30
0.0
 40
2.0
100
AcDbArc
 50
152.405115
 51
180.0
  0
ARC
  5
1CD
100
AcDbEntity
  8
2
370
    50
100
AcDbCircle
 10
175.402629
 20
-52.402996
 30
0.0
 40
2.0
100
AcDbArc
 50
180.0
 51
207.594885
  0
LINE
  5
1CE
100
AcDbEntity
  8
2
370
    50
100
AcDbLine
 10
207.402629
 20
-57.709401
 30
0.0
 11
207.402629
 21
-26.754005
 31
0.0
  0
LINE
  5
1CF
100
AcDbEntity
  8
2
370
    50
100
AcDbLine
 10
173.402629
 20
-52.402996
 30
0.0
 11
173.402629
 21
-32.06041
 31
0.0
  0
LINE
  5
1D0
100
AcDbEntity
  8
2
370
    50
100
AcDbLine
 10
209.402629
 20
-31.231703
 30
0.0
 11
207.402629
 21
-31.231703
 31
0.0
  0
LINE
  5
1D1
100
AcDbEntity
  8
2
370
    50
100
AcDbLine
 10
209.402629
 20
-53.231703
 30
0.0
 11
207.402629
 21
-53.231703
 31
0.0
  0
LINE
  5
1D2
100
AcDbEntity
  8
2
370
    50
100
AcDbLine
 10
209.402629
 20
-56.231703
 30
0.0
 11
209.402629
 21
-53.231703
 31
0.0
  0
LINE
  5
1D3
100
AcDbEntity
  8
2
370
    50
100
AcDbLine
 10
209.402629
 20
-53.231703
 30
0.0
 11
209.402629
 21
-28.231703
 31
0.0
  0
LINE
  5
1D4
100
AcDbEntity
  8
2
370
    50
100
AcDbLine
 10
209.402629
 20
-28.231703
 30
0.0
 11
209.902629
 21
-27.731703
 31
0.0
  0
LINE
  5
1D5
100
AcDbEntity
  8
2
370
    50
100
AcDbLine
 10
209.402629
 20
-56.231703
 30
0.0
 11
209.902629
 21
-56.731703
 31
0.0
  0
LINE
  5
1D6
100
AcDbEntity
  8
2
370
    50
100
AcDbLine
 10
260.903353
 20
-29.231737
 30
0.0
 11
249.402954
 21
-29.231737
 31
0.0
  0
LINE
  5
1D7
100
AcDbEntity
  8
2
370
    50
100
AcDbLine
 10
247.402954
 20
-55.231737
 30
0.0
 11
260.903353
 21
-55.231737
 31
0.0
  0
LINE
  5
1D8
100
AcDbEntity
  8
2
370
    50
100
AcDbLine
 10
261.403353
 20
-29.731737
 30
0.0
 11
260.903353
 21
-29.231737
 31
0.0
  0
LINE
  5
1D9
100
AcDbEntity
  8
2
370
    50
100
AcDbLine
 10
261.403353
 20
-54.731737
 30
0.0
 11
260.903353
 21
-55.231737
 31
0.0
  0
LINE
  5
1DA
100
AcDbEntity
  8
2
370
    50
100
AcDbLine
 10
247.402954
 20
-18.3319
 30
0.0
 11
247.402954
 21
-27.231737
 31
0.0
  0
LINE
  5
1DB
100
AcDbEntity
  8
2
370
    50
100
AcDbLine
 10
213.402954
 20
-18.3319
 30
0.0
 11
213.402954
 21
-23.231703
 31
0.0
  0
ARC
  5
1DC
100
AcDbEntity
  8
2
370
    50
100
AcDbCircle
 10
249.402954
 20
-27.231737
 30
0.0
 40
2.0
100
AcDbArc
 50
180.0
 51
270.0
  0
LINE
  5
1DD
100
AcDbEntity
  8
2
370
    50
100
AcDbLine
 10
211.402954
 20
-25.231703
 30
0.0
 11
210.402629
 21
-25.231703
 31
0.0
  0
LINE
  5
1DE
100
AcDbEntity
  8
2
370
    50
100
AcDbLine
 10
210.402629
 20
-59.231703
 30
0.0
 11
214.402954
 21
-59.231703
 31
0.0
  0
LINE
  5
1DF
100
AcDbEntity
  8
2
370
    50
100
AcDbLine
 10
209.902629
 20
-25.731703
 30
0.0
 11
210.402629
 21
-25.231703
 31
0.0
  0
LINE
  5
1E0
100
AcDbEntity
  8
2
370
    50
100
AcDbLine
 10
210.402629
 20
-59.231703
 30
0.0
 11
209.902629
 21
-58.731703
 31
0.0
  0
ARC
  5
1E1
100
AcDbEntity
  8
2
370
    50
100
AcDbCircle
 10
211.402954
 20
-23.231703
 30
0.0
 40
2.0
100
AcDbArc
 50
270.0
 51
360.0
  0
LINE
  5
1E2
100
AcDbEntity
  8
2
370
    50
100
AcDbLine
 10
247.402954
 20
-18.3319
 30
0.0
 11
247.102954
 21
-18.0319
 31
0.0
  0
LINE
  5
1E3
100
AcDbEntity
  8
2
370
    50
100
AcDbLine
 10
213.702954
 20
-18.0319
 30
0.0
 11
213.402954
 21
-18.3319
 31
0.0
  0
LINE
  5
1E4
100
AcDbEntity
  8
2
370
    50
100
AcDbLine
 10
244.402954
 20
-58.231737
 30
0.0
 11
244.402954
 21
-64.232193
 31
0.0
  0
LINE
  5
1E5
100
AcDbEntity
  8
2
370
    50
100
AcDbLine
 10
216.402954
 20
-61.231703
 30
0.0
 11
216.402954
 21
-64.232193
 31
0.0
  0
LINE
  5
1E6
100
AcDbEntity
  8
2
370
    50
100
AcDbLine
 10
216.402954
 20
-64.232193
 30
0.0
 11
217.402954
 21
-64.232193
 31
0.0
  0
LINE
  5
1E7
100
AcDbEntity
  8
2
370
    50
100
AcDbLine
 10
217.402954
 20
-64.232193
 30
0.0
 11
244.402954
 21
-64.232193
 31
0.0
  0
ARC
  5
1E8
100
AcDbEntity
  8
2
370
    50
100
AcDbCircle
 10
247.402954
 20
-58.231737
 30
0.0
 40
3.0
100
AcDbArc
 50
90.0
 51
180.0
  0
ARC
  5
1E9
100
AcDbEntity
  8
2
370
    50
100
AcDbCircle
 10
214.402954
 20
-61.231703
 30
0.0
 40
2.0
100
AcDbArc
 50
0.0
 51
90.0
  0
LINE
  5
1EA
100
AcDbEntity
  8
2
370
    50
100
AcDbLine
 10
261.403353
 20
-54.731737
 30
0.0
 11
261.403353
 21
-53.031703
 31
0.0
  0
LINE
  5
1EB
100
AcDbEntity
  8
2
370
    50
100
AcDbLine
 10
261.403353
 20
-53.031703
 30
0.0
 11
261.403353
 21
-29.731737
 31
0.0
  0
LINE
  5
1EC
100
AcDbEntity
  8
2
370
    50
100
AcDbLine
 10
209.902629
 20
-58.731703
 30
0.0
 11
209.902629
 21
-56.731703
 31
0.0
  0
LINE
  5
1ED
100
AcDbEntity
  8
2
370
    50
100
AcDbLine
 10
209.902629
 20
-56.731703
 30
0.0
 11
209.902629
 21
-25.731703
 31
0.0
  0
LINE
  5
1EE
100
AcDbEntity
  8
2
370
    50
100
AcDbLine
 10
213.702954
 20
-18.0319
 30
0.0
 11
247.102954
 21
-18.0319
 31
0.0
  0
LINE
  5
1EF
100
AcDbEntity
  8
2
370
    50
100
AcDbLine
 10
213.402954
 20
-18.3319
 30
0.0
 11
247.402954
 21
-18.3319
 31
0.0
  0
LINE
  5
1F0
100
AcDbEntity
  8
2
370
    50
100
AcDbLine
 10
210.402629
 20
-25.231703
 30
0.0
 11
210.402629
 21
-59.231703
 31
0.0
  0
ARC
  5
1F1
100
AcDbEntity
  8
2
370
    25
100
AcDbCircle
 10
229.901419
 20
-67.238929
 30
0.0
 40
14.269294
100
AcDbArc
 50
90.0
 51
150.365644
  0
ARC
  5
1F2
100
AcDbEntity
  8
2
370
    25
100
AcDbCircle
 10
229.901419
 20
-16.946082
 30
0.0
 40
19.932999
100
AcDbArc
 50
211.51515
 51
253.833313
  0
ARC
  5
1F3
100
AcDbEntity
  8
2
370
    25
100
AcDbCircle
 10
250.318154
 20
-45.354748
 30
0.0
 40
14.410185
100
AcDbArc
 50
110.979845
 51
176.021039
  0
ARC
  5
1F4
100
AcDbEntity
  8
2
370
    25
100
AcDbCircle
 10
253.417172
 20
-44.354823
 30
0.0
 40
17.509203
100
AcDbArc
 50
180.0
 51
212.619224
  0
ARC
  5
1F5
100
AcDbEntity
  8
2
370
    25
100
AcDbCircle
 10
229.901419
 20
-74.432543
 30
0.0
 40
21.462908
100
AcDbArc
 50
51.761573
 51
90.0
  0
POINT
  5
1F6
100
AcDbEntity
  8
2
370
    50
100
AcDbPoint
 10
230.402954
 20
-18.0319
 30
0.0
  0
LINE
  5
1F7
100
AcDbEntity
  8
2
370
    50
100
AcDbLine
 10
-149.983074
 20
-190.822919
 30
0.0
 11
-170.533074
 21
-190.822919
 31
0.0
  0
LINE
  5
1F8
100
AcDbEntity
  8
2
370
    50
100
AcDbLine
 10
-146.682461
 20
-180.822919
 30
0.0
 11
-173.833686
 21
-180.822919
 31
0.0
  0
ARC
  5
1F9
100
AcDbEntity
  8
2
370
    50
100
AcDbCircle
 10
-170.533074
 20
-185.822919
 30
0.0
 40
5.0
100
AcDbArc
 50
180.0
 51
270.0
  0
ARC
  5
1FA
100
AcDbEntity
  8
2
370
    50
100
AcDbCircle
 10
-167.327788
 20
-185.822919
 30
0.0
 40
8.205286
100
AcDbArc
 50
142.456522
 51
180.0
  0
ELLIPSE
  5
1FB
100
AcDbEntity
  8
2
370
    50
100
AcDbEllipse
 10
-160.258074
 20
-185.294114
 30
0.0
 11
-6.10947
 21
0.0
 31
0.0
210
0.0
220
0.0
230
1.0
 40
0.632482
 41
0.0
 42
6.2831849999999996
  0
ELLIPSE
  5
1FC
100
AcDbEntity
  8
2
370
    50
100
AcDbEllipse
 10
-172.382429
 20
-185.294114
 30
0.0
 11
0.0
 21
-3.8641269999999999
 31
0.0
210
0.0
220
0.0
230
1.0
 40
0.790537
 41
0.0
 42
6.2831849999999996
  0
ELLIPSE
  5
1FD
100
AcDbEntity
  8
2
370
    50
100
AcDbEllipse
 10
-148.133718
 20
-185.294114
 30
0.0
 11
0.0
 21
3.8641269999999999
 31
0.0
210
0.0
220
0.0
230
1.0
 40
0.790537
 41
0.0
 42
6.2831849999999996
  0
ARC
  5
1FE
100
AcDbEntity
  8
2
370
    50
100
AcDbCircle
 10
-149.983074
 20
-185.822919
 30
0.0
 40
5.0
100
AcDbArc
 50
270.0
 51
0.0
  0
ARC
  5
1FF
100
AcDbEntity
  8
2
370
    50
100
AcDbCircle
 10
-153.18836
 20
-185.822919
 30
0.0
 40
8.205286
100
AcDbArc
 50
0.0
 51
37.543478
  0
LINE
  5
200
100
AcDbEntity
  8
2
370
    50
100
AcDbLine
 10
-147.258074
 20
-132.322439
 30
0.0
 11
-147.258074
 21
-132.622439
 31
0.0
  0
LINE
  5
201
100
AcDbEntity
  8
2
370
    50
100
AcDbLine
 10
-173.258074
 20
-132.322439
 30
0.0
 11
-173.258074
 21
-132.622439
 31
0.0
  0
LINE
  5
202
100
AcDbEntity
  8
2
370
    50
100
AcDbLine
 10
-143.558074
 20
-132.622439
 30
0.0
 11
-176.958074
 21
-132.622439
 31
0.0
  0
LINE
  5
203
100
AcDbEntity
  8
2
370
    50
100
AcDbLine
 10
-143.258074
 20
-132.922439
 30
0.0
 11
-143.258074
 21
-156.822242
 31
0.0
  0
LINE
  5
204
100
AcDbEntity
  8
2
370
    50
100
AcDbLine
 10
-177.258074
 20
-132.922439
 30
0.0
 11
-177.258074
 21
-151.752053
 31
0.0
  0
LINE
  5
205
100
AcDbEntity
  8
2
370
    50
100
AcDbLine
 10
-143.258074
 20
-132.922439
 30
0.0
 11
-143.558074
 21
-132.622439
 31
0.0
  0
LINE
  5
206
100
AcDbEntity
  8
2
370
    50
100
AcDbLine
 10
-176.958074
 20
-132.622439
 30
0.0
 11
-177.258074
 21
-132.922439
 31
0.0
  0
LINE
  5
207
100
AcDbEntity
  8
2
370
    50
100
AcDbLine
 10
-173.258074
 20
-178.822732
 30
0.0
 11
-173.258074
 21
-180.822919
 31
0.0
  0
LINE
  5
208
100
AcDbEntity
  8
2
370
    50
100
AcDbLine
 10
-147.258074
 20
-178.822732
 30
0.0
 11
-147.258074
 21
-180.822919
 31
0.0
  0
LINE
  5
209
100
AcDbEntity
  8
2
370
    50
100
AcDbLine
 10
-147.858074
 20
-180.823167
 30
0.0
 11
-147.258074
 21
-180.223167
 31
0.0
  0
LINE
  5
20A
100
AcDbEntity
  8
2
370
    50
100
AcDbLine
 10
-172.658074
 20
-180.823167
 30
0.0
 11
-173.258074
 21
-180.223167
 31
0.0
  0
LINE
  5
20B
100
AcDbEntity
  8
2
370
    50
100
AcDbLine
 10
-143.258074
 20
-132.922439
 30
0.0
 11
-177.258074
 21
-132.922439
 31
0.0
  0
LINE
  5
20C
100
AcDbEntity
  8
2
370
    50
100
AcDbLine
 10
-146.258074
 20
-178.822732
 30
0.0
 11
-174.258074
 21
-178.822732
 31
0.0
  0
LINE
  5
20D
100
AcDbEntity
  8
2
370
    50
100
AcDbLine
 10
-146.258074
 20
-178.822732
 30
0.0
 11
-146.258074
 21
-169.667475
 31
0.0
  0
LINE
  5
20E
100
AcDbEntity
  8
2
370
    50
100
AcDbLine
 10
-174.258074
 20
-178.822732
 30
0.0
 11
-174.258074
 21
-169.667475
 31
0.0
  0
ARC
  5
20F
100
AcDbEntity
  8
2
370
    50
100
AcDbCircle
 10
-134.258074
 20
-169.667475
 30
0.0
 40
12.0
100
AcDbArc
 50
153.708445
 51
180.0
  0
ARC
  5
210
100
AcDbEntity
  8
2
370
    50
100
AcDbCircle
 10
-186.258074
 20
-169.667475
 30
0.0
 40
12.0
100
AcDbArc
 50
0.0
 51
26.291555
  0
POINT
  5
211
100
AcDbEntity
  8
2
370
    50
100
AcDbPoint
 10
-160.25823
 20
-156.821739
 30
0.0
  0
ARC
  5
212
100
AcDbEntity
  8
2
370
    50
100
AcDbCircle
 10
-183.350107
 20
-169.821912
 30
0.0
 40
10.0
100
AcDbArc
 50
29.377792
 51
90.0
  0
ARC
  5
213
100
AcDbEntity
  8
2
370
    50
100
AcDbCircle
 10
-183.350107
 20
-143.821912
 30
0.0
 40
10.0
100
AcDbArc
 50
270.0
 51
330.622208
  0
ARC
  5
214
100
AcDbEntity
  8
2
370
    50
100
AcDbCircle
 10
-183.462515
 20
-199.821912
 30
0.0
 40
40.0
100
AcDbArc
 50
90.0
 51
102.603453
  0
ARC
  5
215
100
AcDbEntity
  8
2
370
    50
100
AcDbCircle
 10
-192.5179
 20
-159.321912
 30
0.0
 40
1.5
100
AcDbArc
 50
180.0
 51
282.603453
  0
ARC
  5
216
100
AcDbEntity
  8
2
370
    50
100
AcDbCircle
 10
-192.5179
 20
-154.321912
 30
0.0
 40
1.5
100
AcDbArc
 50
77.396547
 51
180.0
  0
LINE
  5
217
100
AcDbEntity
  8
2
370
    50
100
AcDbLine
 10
-194.0179
 20
-154.321912
 30
0.0
 11
-194.0179
 21
-159.321912
 31
0.0
  0
ARC
  5
218
100
AcDbEntity
  8
2
370
    50
100
AcDbCircle
 10
-183.462515
 20
-113.821912
 30
0.0
 40
40.0
100
AcDbArc
 50
257.396547
 51
270.0
  0
ARC
  5
219
100
AcDbEntity
  8
2
370
    50
100
AcDbCircle
 10
-160.2579
 20
-156.821912
 30
0.0
 40
16.5
100
AcDbArc
 50
209.377791
 51
150.622206
  0
CIRCLE
  5
21A
100
AcDbEntity
  8
2
370
    50
100
AcDbCircle
 10
-160.2579
 20
-156.821912
 30
0.0
 40
8.75
  0
POINT
  5
21B
100
AcDbEntity
  8
2
370
    50
100
AcDbPoint
 10
-160.2579
 20
-156.821912
 30
0.0
  0
ARC
  5
21C
100
AcDbEntity
  8
2
370
    50
100
AcDbCircle
 10
-160.258074
 20
-156.822242
 30
0.0
 40
17.0
100
AcDbArc
 50
200.938081
 51
159.057962
  0
POINT
  5
21D
100
AcDbEntity
  8
2
370
    50
100
AcDbPoint
 10
-160.258074
 20
-181.322732
 30
0.0
  0
ARC
  5
21E
100
AcDbEntity
  8
2
370
    25
  6
DASHED
100
AcDbCircle
 10
-137.053632
 20
-113.821912
 30
0.0
 40
40.0
100
AcDbArc
 50
270.0
 51
282.603453
  0
ARC
  5
21F
100
AcDbEntity
  8
2
370
    25
  6
DASHED
100
AcDbCircle
 10
-127.998247
 20
-154.321912
 30
0.0
 40
1.5
100
AcDbArc
 50
0.0
 51
102.603453
  0
LINE
  5
220
100
AcDbEntity
  8
2
370
    25
  6
DASHED
100
AcDbLine
 10
-126.498247
 20
-154.321912
 30
0.0
 11
-126.498247
 21
-159.321912
 31
0.0
  0
ARC
  5
221
100
AcDbEntity
  8
2
370
    25
  6
DASHED
100
AcDbCircle
 10
-127.998247
 20
-159.321912
 30
0.0
 40
1.5
100
AcDbArc
 50
257.396547
 51
360.0
  0
ARC
  5
222
100
AcDbEntity
  8
2
370
    25
  6
DASHED
100
AcDbCircle
 10
-137.053632
 20
-199.821912
 30
0.0
 40
40.0
100
AcDbArc
 50
77.396547
 51
90.0
  0
ARC
  5
223
100
AcDbEntity
  8
2
370
    25
  6
DASHED
100
AcDbCircle
 10
-137.166041
 20
-143.821912
 30
0.0
 40
10.0
100
AcDbArc
 50
209.377792
 51
270.0
  0
ARC
  5
224
100
AcDbEntity
  8
2
370
    25
  6
DASHED
100
AcDbCircle
 10
-137.166041
 20
-169.821912
 30
0.0
 40
10.0
100
AcDbArc
 50
90.0
 51
150.622208
  0
LINE
  5
225
100
AcDbEntity
  8
2
370
    25
  6
CENTER
100
AcDbLine
 10
-200.402081
 20
-156.821912
 30
0.0
 11
-160.25823
 21
-156.821912
 31
0.0
  0
LINE
  5
226
100
AcDbEntity
  8
2
370
    25
  6
CENTER
100
AcDbLine
 10
-160.2579
 20
-156.821912
 30
0.0
 11
-120.496075
 21
-156.821912
 31
0.0
  0
POINT
  5
227
100
AcDbEntity
  8
2
370
    50
100
AcDbPoint
 10
-160.25823
 20
-156.821739
 30
0.0
  0
POINT
  5
228
100
AcDbEntity
  8
2
370
    50
100
AcDbPoint
 10
-160.2579
 20
-156.821912
 30
0.0
  0
ARC
  5
229
100
AcDbEntity
  8
2
370
    50
100
AcDbCircle
 10
-153.329299
 20
79.803949
 30
0.0
 40
9.0
100
AcDbArc
 50
312.838099
 51
358.736327
  0
LINE
  5
22A
100
AcDbEntity
  8
2
370
    50
100
AcDbLine
 10
-194.018074
 20
79.814243
 30
0.0
 11
-194.018074
 21
77.100235
 31
0.0
  0
ARC
  5
22B
100
AcDbEntity
  8
2
370
    50
100
AcDbCircle
 10
-169.018074
 20
79.814243
 30
0.0
 40
25.0
100
AcDbArc
 50
107.918272
 51
180.0
  0
ARC
  5
22C
100
AcDbEntity
  8
2
370
    50
100
AcDbCircle
 10
-171.685914
 20
65.600235
 30
0.0
 40
6.0
100
AcDbArc
 50
104.12351
 51
135.815615
  0
ARC
  5
22D
100
AcDbEntity
  8
2
370
    50
100
AcDbCircle
 10
-167.186849
 20
79.803949
 30
0.0
 40
9.0
100
AcDbArc
 50
181.263673
 51
223.91652
  0
ARC
  5
22E
100
AcDbEntity
  8
2
370
    50
100
AcDbCircle
 10
-183.518074
 20
77.100235
 30
0.0
 40
10.5
100
AcDbArc
 50
180.0
 51
298.557743
  0
ARC
  5
22F
100
AcDbEntity
  8
2
370
    50
100
AcDbCircle
 10
-183.518074
 20
77.100235
 30
0.0
 40
10.5
100
AcDbArc
 50
298.557743
 51
315.815615
  0
LINE
  5
230
100
AcDbEntity
  8
2
370
    50
100
AcDbLine
 10
-176.18466
 20
79.805468
 30
0.0
 11
-176.735528
 21
104.778181
 31
0.0
  0
LINE
  5
231
100
AcDbEntity
  8
2
370
    50
100
AcDbLine
 10
-144.331488
 20
79.805468
 30
0.0
 11
-143.780619
 21
104.778181
 31
0.0
  0
ARC
  5
232
100
AcDbEntity
  8
2
370
    50
100
AcDbCircle
 10
-175.735772
 20
104.800235
 30
0.0
 40
1.0
100
AcDbArc
 50
115.027869
 51
181.263673
  0
ARC
  5
233
100
AcDbEntity
  8
2
370
    50
100
AcDbCircle
 10
-144.780376
 20
104.800235
 30
0.0
 40
1.0
100
AcDbArc
 50
358.736327
 51
64.972131
  0
LINE
  5
234
100
AcDbEntity
  8
2
370
    50
100
AcDbLine
 10
260.903353
 20
-29.231737
 30
0.0
 11
260.903353
 21
-55.231737
 31
0.0
  0
LINE
  5
235
100
AcDbEntity
  8
2
370
    50
100
AcDbLine
 10
-147.758074
 20
159.800235
 30
0.0
 11
-172.758074
 21
159.800235
 31
0.0
  0
LINE
  5
236
100
AcDbEntity
  8
2
370
    50
100
AcDbLine
 10
-173.258074
 20
150.708738
 30
0.0
 11
-173.258074
 21
159.300235
 31
0.0
  0
LINE
  5
237
100
AcDbEntity
  8
2
370
    50
100
AcDbLine
 10
-147.258074
 20
150.708738
 30
0.0
 11
-147.258074
 21
159.300235
 31
0.0
  0
LINE
  5
238
100
AcDbEntity
  8
2
370
    50
100
AcDbLine
 10
-173.258074
 20
159.300235
 30
0.0
 11
-172.758074
 21
159.800235
 31
0.0
  0
LINE
  5
239
100
AcDbEntity
  8
2
370
    50
100
AcDbLine
 10
-147.758074
 20
159.800235
 30
0.0
 11
-147.258074
 21
159.300235
 31
0.0
  0
LINE
  5
23A
100
AcDbEntity
  8
2
370
    50
100
AcDbLine
 10
-173.258074
 20
159.300235
 30
0.0
 11
-147.258074
 21
159.300235
 31
0.0
  0
ARC
  5
23B
100
AcDbEntity
  8
2
370
    50
100
AcDbCircle
 10
-218.258074
 20
150.708738
 30
0.0
 40
45.0
100
AcDbArc
 50
354.674219
 51
360.0
  0
ARC
  5
23C
100
AcDbEntity
  8
2
370
    50
100
AcDbCircle
 10
-102.258074
 20
150.708738
 30
0.0
 40
45.0
100
AcDbArc
 50
180.0
 51
185.325781
  0
LINE
  5
23D
100
AcDbEntity
  8
2
370
    25
  6
CENTER
100
AcDbLine
 10
-160.258074
 20
-256.61441
 30
0.0
 11
-160.258074
 21
-1.225982
 31
0.0
  0
LINE
  5
23E
100
AcDbEntity
  8
2
370
    50
100
AcDbLine
 10
-168.233074
 20
-190.822919
 30
0.0
 11
-152.283074
 21
-190.822919
 31
0.0
  0
POINT
  5
23F
100
AcDbEntity
  8
2
370
    50
100
AcDbPoint
 10
-160.258074
 20
-190.822919
 30
0.0
  0
POINT
  5
240
100
AcDbEntity
  8
2
370
    50
100
AcDbPoint
 10
-160.258074
 20
-190.822919
 30
0.0
  0
LINE
  5
241
100
AcDbEntity
  8
2
370
    50
100
AcDbLine
 10
250.402954
 20
15.457726
 30
0.0
 11
250.402954
 21
-15.031268
 31
0.0
  0
LINE
  5
242
100
AcDbEntity
  8
2
370
    50
100
AcDbLine
 10
208.089471
 20
16.457726
 30
0.0
 11
249.402954
 21
16.457726
 31
0.0
  0
LINE
  5
243
100
AcDbEntity
  8
2
370
    25
100
AcDbLine
 10
208.471375
 20
16.10967
 30
0.0
 11
229.173317
 21
9.998098
 31
0.0
  0
LINE
  5
244
100
AcDbEntity
  8
2
370
    25
100
AcDbLine
 10
214.178111
 20
-15.40209
 30
0.0
 11
227.806813
 21
-12.242959
 31
0.0
  0
ARC
  5
245
100
AcDbEntity
  8
2
370
    25
100
AcDbCircle
 10
180.402954
 20
1.968732
 30
0.0
 40
50.0
100
AcDbArc
 50
344.326601
 51
8.296257
  0
ARC
  5
246
100
AcDbEntity
  8
2
370
    25
100
AcDbCircle
 10
228.89018
 20
9.039018
 30
0.0
 40
1.0
100
AcDbArc
 50
8.296257
 51
73.552486
  0
ARC
  5
247
100
AcDbEntity
  8
2
370
    25
100
AcDbCircle
 10
227.581001
 20
-11.268788
 30
0.0
 40
1.0
100
AcDbArc
 50
283.05067
 51
344.326601
  0
ARC
  5
248
100
AcDbEntity
  8
2
370
    50
100
AcDbCircle
 10
249.402954
 20
15.457726
 30
0.0
 40
1.0
100
AcDbArc
 50
0.0
 51
90.0
  0
ARC
  5
249
100
AcDbEntity
  8
2
370
    50
100
AcDbCircle
 10
249.402954
 20
-15.031268
 30
0.0
 40
1.0
100
AcDbArc
 50
270.0
 51
360.0
  0
LINE
  5
24A
100
AcDbEntity
  8
2
370
    25
  6
CENTER
100
AcDbLine
 10
205.647019
 20
1.968732
 30
0.0
 11
308.971344
 21
1.968732
 31
0.0
  0
LINE
  5
24B
100
AcDbEntity
  8
2
370
    25
  6
CENTER
100
AcDbLine
 10
-187.758074
 20
128.800235
 30
0.0
 11
-132.758074
 21
128.800235
 31
0.0
  0
LINE
  5
24C
100
AcDbEntity
  8
2
370
    25
  6
CENTER
100
AcDbLine
 10
-160.258074
 20
20.658133
 30
0.0
 11
-160.258074
 21
197.188509
 31
0.0
  0
POINT
  5
24D
100
AcDbEntity
  8
2
370
    50
100
AcDbPoint
 10
-110.257721
 20
165.700279
 30
0.0
  0
LINE
  5
24E
100
AcDbEntity
  8
2
370
    25
100
AcDbLine
 10
333.003206
 20
-48.716175
 30
0.0
 11
316.003206
 21
-48.716175
 31
0.0
  0
LINE
  5
24F
100
AcDbEntity
  8
2
370
    50
100
AcDbLine
 10
304.003206
 20
-47.554175
 30
0.0
 11
306.015849
 21
-48.716175
 31
0.0
  0
LINE
  5
250
100
AcDbEntity
  8
2
370
    50
100
AcDbLine
 10
297.003206
 20
15.968325
 30
0.0
 11
297.003206
 21
-34.371421
 31
0.0
  0
LINE
  5
251
100
AcDbEntity
  8
2
370
    50
100
AcDbLine
 10
304.003206
 20
-68.509175
 30
0.0
 11
306.015849
 21
-67.347175
 31
0.0
  0
LINE
  5
252
100
AcDbEntity
  8
2
370
    25
100
AcDbLine
 10
333.003206
 20
-67.347175
 30
0.0
 11
316.003206
 21
-67.347175
 31
0.0
  0
LINE
  5
253
100
AcDbEntity
  8
2
370
    50
100
AcDbLine
 10
333.003206
 20
-48.716175
 30
0.0
 11
333.003206
 21
-67.347175
 31
0.0
  0
LINE
  5
254
100
AcDbEntity
  8
2
370
    50
100
AcDbLine
 10
333.003206
 20
-48.716175
 30
0.0
 11
331.841206
 21
-47.554175
 31
0.0
  0
LINE
  5
255
100
AcDbEntity
  8
2
370
    50
100
AcDbLine
 10
333.003206
 20
-67.347175
 30
0.0
 11
331.841206
 21
-68.509175
 31
0.0
  0
LINE
  5
256
100
AcDbEntity
  8
2
370
    50
100
AcDbLine
 10
282.303206
 20
-45.431675
 30
0.0
 11
282.303206
 21
-42.031675
 31
0.0
  0
LINE
  5
257
100
AcDbEntity
  8
2
370
    25
  6
CENTER
100
AcDbLine
 10
339.189471
 20
-58.031675
 30
0.0
 11
279.241324
 21
-58.031675
 31
0.0
  0
LINE
  5
258
100
AcDbEntity
  8
2
370
    50
100
AcDbLine
 10
303.003206
 20
-73.031675
 30
0.0
 11
282.303206
 21
-73.031675
 31
0.0
  0
LINE
  5
259
100
AcDbEntity
  8
2
370
    50
100
AcDbLine
 10
282.303206
 20
-42.031675
 30
0.0
 11
281.803206
 21
-42.031675
 31
0.0
  0
LINE
  5
25A
100
AcDbEntity
  8
2
370
    50
100
AcDbLine
 10
303.003206
 20
-73.031675
 30
0.0
 11
304.003206
 21
-72.031675
 31
0.0
  0
LINE
  5
25B
100
AcDbEntity
  8
2
370
    50
100
AcDbLine
 10
281.803206
 20
-42.031675
 30
0.0
 11
281.803206
 21
-33.031675
 31
0.0
  0
LINE
  5
25C
100
AcDbEntity
  8
2
370
    50
100
AcDbLine
 10
281.803206
 20
-33.031675
 30
0.0
 11
281.803206
 21
-11.231675
 31
0.0
  0
LINE
  5
25D
100
AcDbEntity
  8
2
370
    50
100
AcDbLine
 10
303.003206
 20
-43.031675
 30
0.0
 11
304.003206
 21
-44.031675
 31
0.0
  0
LINE
  5
25E
100
AcDbEntity
  8
2
370
    50
100
AcDbLine
 10
304.003206
 20
-47.554175
 30
0.0
 11
304.003206
 21
-44.031675
 31
0.0
  0
LINE
  5
25F
100
AcDbEntity
  8
2
370
    50
100
AcDbLine
 10
304.003206
 20
-68.509175
 30
0.0
 11
304.003206
 21
-72.031675
 31
0.0
  0
ARC
  5
260
100
AcDbEntity
  8
2
370
    50
100
AcDbCircle
 10
307.003206
 20
-33.866524
 30
0.0
 40
10.0
100
AcDbArc
 50
180.0
 51
246.421822
  0
LINE
  5
261
100
AcDbEntity
  8
2
370
    50
100
AcDbLine
 10
277.103206
 20
-58.031675
 30
0.0
 11
277.103206
 21
-45.031675
 31
0.0
  0
LINE
  5
262
100
AcDbEntity
  8
2
370
    50
100
AcDbLine
 10
279.603206
 20
-42.531675
 30
0.0
 11
281.803206
 21
-42.531675
 31
0.0
  0
LINE
  5
263
100
AcDbEntity
  8
2
370
    50
100
AcDbLine
 10
282.303206
 20
-58.031675
 30
0.0
 11
282.303206
 21
-43.031675
 31
0.0
  0
LINE
  5
264
100
AcDbEntity
  8
2
370
    50
100
AcDbLine
 10
277.103206
 20
-45.031675
 30
0.0
 11
279.603206
 21
-42.531675
 31
0.0
  0
LINE
  5
265
100
AcDbEntity
  8
2
370
    50
100
AcDbLine
 10
279.603206
 20
-73.531675
 30
0.0
 11
281.803206
 21
-73.531675
 31
0.0
  0
LINE
  5
266
100
AcDbEntity
  8
2
370
    50
100
AcDbLine
 10
282.303206
 20
-58.031675
 30
0.0
 11
282.303206
 21
-73.031675
 31
0.0
  0
LINE
  5
267
100
AcDbEntity
  8
2
370
    50
100
AcDbLine
 10
281.803206
 20
-73.531675
 30
0.0
 11
282.303206
 21
-73.031675
 31
0.0
  0
LINE
  5
268
100
AcDbEntity
  8
2
370
    50
100
AcDbLine
 10
282.303206
 20
-43.031675
 30
0.0
 11
281.803206
 21
-42.531675
 31
0.0
  0
LINE
  5
269
100
AcDbEntity
  8
2
370
    50
100
AcDbLine
 10
279.603206
 20
-73.531675
 30
0.0
 11
277.103206
 21
-71.031675
 31
0.0
  0
LINE
  5
26A
100
AcDbEntity
  8
2
370
    50
100
AcDbLine
 10
277.103206
 20
-71.031675
 30
0.0
 11
277.103206
 21
-58.031675
 31
0.0
  0
LINE
  5
26B
100
AcDbEntity
  8
2
370
    50
100
AcDbLine
 10
277.403206
 20
-58.781675
 30
0.0
 11
278.603206
 21
-58.781675
 31
0.0
  0
LINE
  5
26C
100
AcDbEntity
  8
2
370
    50
100
AcDbLine
 10
277.103206
 20
-59.081675
 30
0.0
 11
277.403206
 21
-58.781675
 31
0.0
  0
LINE
  5
26D
100
AcDbEntity
  8
2
370
    50
100
AcDbLine
 10
278.603206
 20
-58.781675
 30
0.0
 11
278.603206
 21
-58.031675
 31
0.0
  0
POINT
  5
26E
100
AcDbEntity
  8
2
370
    50
100
AcDbPoint
 10
277.103206
 20
-58.031675
 30
0.0
  0
LINE
  5
26F
100
AcDbEntity
  8
2
370
    50
100
AcDbLine
 10
277.403206
 20
-58.781675
 30
0.0
 11
277.403206
 21
-58.031675
 31
0.0
  0
LINE
  5
270
100
AcDbEntity
  8
2
370
    50
100
AcDbLine
 10
278.603206
 20
-57.281675
 30
0.0
 11
278.603206
 21
-58.031675
 31
0.0
  0
LINE
  5
271
100
AcDbEntity
  8
2
370
    50
100
AcDbLine
 10
277.403206
 20
-57.281675
 30
0.0
 11
278.603206
 21
-57.281675
 31
0.0
  0
LINE
  5
272
100
AcDbEntity
  8
2
370
    50
100
AcDbLine
 10
277.103206
 20
-56.981675
 30
0.0
 11
277.403206
 21
-57.281675
 31
0.0
  0
LINE
  5
273
100
AcDbEntity
  8
2
370
    50
100
AcDbLine
 10
277.403206
 20
-57.281675
 30
0.0
 11
277.403206
 21
-58.031675
 31
0.0
  0
LINE
  5
274
100
AcDbEntity
  8
2
370
    25
100
AcDbLine
 10
279.603206
 20
-42.531675
 30
0.0
 11
279.603206
 21
-73.531675
 31
0.0
  0
LINE
  5
275
100
AcDbEntity
  8
2
370
    25
100
AcDbLine
 10
281.803206
 20
-73.531675
 30
0.0
 11
281.803206
 21
-42.531675
 31
0.0
  0
LINE
  5
276
100
AcDbEntity
  8
2
370
    25
100
AcDbLine
 10
331.841206
 20
-47.554175
 30
0.0
 11
331.841206
 21
-68.509175
 31
0.0
  0
LINE
  5
277
100
AcDbEntity
  8
2
370
    50
100
AcDbLine
 10
306.015849
 20
-67.347175
 30
0.0
 11
306.015849
 21
-48.716175
 31
0.0
  0
LINE
  5
278
100
AcDbEntity
  8
2
370
    50
100
AcDbLine
 10
304.003206
 20
-47.554175
 30
0.0
 11
304.003206
 21
-68.509175
 31
0.0
  0
LINE
  5
279
100
AcDbEntity
  8
2
370
    50
100
AcDbLine
 10
297.003206
 20
15.968325
 30
0.0
 11
297.003206
 21
-34.371421
 31
0.0
  0
LINE
  5
27A
100
AcDbEntity
  8
2
370
    50
100
AcDbLine
 10
281.803206
 20
16.968325
 30
0.0
 11
296.003206
 21
16.968325
 31
0.0
  0
ARC
  5
27B
100
AcDbEntity
  8
2
370
    50
100
AcDbCircle
 10
296.003206
 20
15.968325
 30
0.0
 40
1.0
100
AcDbArc
 50
0.0
 51
90.0
  0
LINE
  5
27C
100
AcDbEntity
  8
2
370
    50
100
AcDbLine
 10
281.803206
 20
-11.231675
 30
0.0
 11
281.803206
 21
15.168325
 31
0.0
  0
LINE
  5
27D
100
AcDbEntity
  8
2
370
    50
100
AcDbLine
 10
269.802954
 20
-11.231675
 30
0.0
 11
281.803206
 21
-11.231675
 31
0.0
  0
LINE
  5
27E
100
AcDbEntity
  8
2
370
    25
100
AcDbLine
 10
269.802954
 20
-10.131675
 30
0.0
 11
272.303206
 21
-10.131675
 31
0.0
  0
LINE
  5
27F
100
AcDbEntity
  8
2
370
    50
100
AcDbLine
 10
272.303206
 20
-10.131675
 30
0.0
 11
274.208462
 21
-11.231675
 31
0.0
  0
LINE
  5
280
100
AcDbEntity
  8
2
370
    50
100
AcDbLine
 10
269.802954
 20
15.168325
 30
0.0
 11
281.803206
 21
15.168325
 31
0.0
  0
LINE
  5
281
100
AcDbEntity
  8
2
370
    50
100
AcDbLine
 10
272.303206
 20
14.068325
 30
0.0
 11
274.208462
 21
15.168325
 31
0.0
  0
LINE
  5
282
100
AcDbEntity
  8
2
370
    25
100
AcDbLine
 10
269.802954
 20
14.068325
 30
0.0
 11
272.303206
 21
14.068325
 31
0.0
  0
LINE
  5
283
100
AcDbEntity
  8
2
370
    50
100
AcDbLine
 10
281.803206
 20
16.968325
 30
0.0
 11
296.003206
 21
16.968325
 31
0.0
  0
LINE
  5
284
100
AcDbEntity
  8
2
370
    50
100
AcDbLine
 10
281.803206
 20
15.168325
 30
0.0
 11
281.803206
 21
16.968325
 31
0.0
  0
LINE
  5
285
100
AcDbEntity
  8
2
370
    50
100
AcDbLine
 10
281.803206
 20
-33.031675
 30
0.0
 11
281.803206
 21
-11.231675
 31
0.0
  0
LINE
  5
286
100
AcDbEntity
  8
2
370
    50
100
AcDbLine
 10
281.803206
 20
-11.231675
 30
0.0
 11
281.803206
 21
15.168325
 31
0.0
  0
LINE
  5
287
100
AcDbEntity
  8
2
370
    25
100
AcDbLine
 10
272.303206
 20
-10.131675
 30
0.0
 11
272.303206
 21
14.068325
 31
0.0
  0
LINE
  5
288
100
AcDbEntity
  8
2
370
    25
100
AcDbLine
 10
274.208462
 20
15.168325
 30
0.0
 11
274.208462
 21
-11.231675
 31
0.0
  0
LINE
  5
289
100
AcDbEntity
  8
2
370
    50
100
AcDbLine
 10
316.003206
 20
-81.031675
 30
0.0
 11
312.644326
 21
-81.031675
 31
0.0
  0
LINE
  5
28A
100
AcDbEntity
  8
2
370
    50
100
AcDbLine
 10
316.003206
 20
-35.031675
 30
0.0
 11
316.003206
 21
-81.031675
 31
0.0
  0
ARC
  5
28B
100
AcDbEntity
  8
2
370
    50
100
AcDbCircle
 10
308.003206
 20
-71.531675
 30
0.0
 40
2.0
100
AcDbArc
 50
180.0
 51
204.670512
  0
LINE
  5
28C
100
AcDbEntity
  8
2
370
    50
100
AcDbLine
 10
311.735603
 20
-80.449075
 30
0.0
 11
306.18576
 21
-72.366474
 31
0.0
  0
LINE
  5
28D
100
AcDbEntity
  8
2
370
    50
100
AcDbLine
 10
311.735603
 20
-35.614276
 30
0.0
 11
306.354461
 21
-43.451186
 31
0.0
  0
ARC
  5
28E
100
AcDbEntity
  8
2
370
    50
100
AcDbCircle
 10
312.644326
 20
-80.031675
 30
0.0
 40
1.0
100
AcDbArc
 50
204.670512
 51
270.0
  0
LINE
  5
28F
100
AcDbEntity
  8
2
370
    50
100
AcDbLine
 10
312.644326
 20
-35.031675
 30
0.0
 11
316.003206
 21
-35.031675
 31
0.0
  0
LINE
  5
290
100
AcDbEntity
  8
2
370
    50
100
AcDbLine
 10
311.735603
 20
-35.614276
 30
0.0
 11
306.18576
 21
-43.696876
 31
0.0
  0
ARC
  5
291
100
AcDbEntity
  8
2
370
    50
100
AcDbCircle
 10
312.644326
 20
-36.031675
 30
0.0
 40
1.0
100
AcDbArc
 50
90.0
 51
155.329488
  0
LINE
  5
292
100
AcDbEntity
  8
2
370
    50
100
AcDbLine
 10
306.003206
 20
-44.583281
 30
0.0
 11
306.003206
 21
-71.531675
 31
0.0
  0
LINE
  5
293
100
AcDbEntity
  8
2
370
    25
100
AcDbLine
 10
312.13564
 20
-35.770957
 30
0.0
 11
312.13564
 21
-80.191565
 31
0.0
  0
ARC
  5
294
100
AcDbEntity
  8
2
370
    50
100
AcDbCircle
 10
308.003206
 20
-44.583281
 30
0.0
 40
2.0
100
AcDbArc
 50
145.52492
 51
180.0
  0
LINE
  5
295
100
AcDbEntity
  8
2
370
    50
100
AcDbLine
 10
304.003206
 20
-47.554175
 30
0.0
 11
306.003206
 21
-47.554175
 31
0.0
  0
LINE
  5
296
100
AcDbEntity
  8
2
370
    50
100
AcDbLine
 10
316.003206
 20
-47.554175
 30
0.0
 11
331.841206
 21
-47.554175
 31
0.0
  0
LINE
  5
297
100
AcDbEntity
  8
2
370
    50
100
AcDbLine
 10
304.003206
 20
-68.509175
 30
0.0
 11
306.015849
 21
-68.509175
 31
0.0
  0
LINE
  5
298
100
AcDbEntity
  8
2
370
    50
100
AcDbLine
 10
316.003206
 20
-68.509175
 30
0.0
 11
331.841206
 21
-68.509175
 31
0.0
  0
LINE
  5
299
100
AcDbEntity
  8
2
370
    50
100
AcDbLine
 10
269.802954
 20
-11.231675
 30
0.0
 11
269.802954
 21
15.168325
 31
0.0
  0
POINT
  5
29A
100
AcDbEntity
  8
2
370
    50
100
AcDbPoint
 10
269.802954
 20
1.968325
 30
0.0
  0
POINT
  5
29B
100
AcDbEntity
  8
2
370
    50
100
AcDbPoint
 10
-110.258074
 20
-112.622071
 30
0.0
  0
POINT
  5
29C
100
AcDbEntity
  8
2
370
    50
100
AcDbPoint
 10
-67.831667
 20
-155.048478
 30
0.0
  0
POINT
  5
29D
100
AcDbEntity
  8
2
370
    50
100
AcDbPoint
 10
-58.285725
 20
-164.59442
 30
0.0
  0
LINE
  5
29E
100
AcDbEntity
  8
2
370
    50
100
AcDbLine
 10
-59.986405
 20
-141.680536
 30
0.0
 11
-61.162069
 21
-140.504872
 31
0.0
  0
LINE
  5
29F
100
AcDbEntity
  8
2
370
    50
100
AcDbLine
 10
-61.162069
 20
-140.504872
 30
0.0
 11
-98.255086
 21
-103.411855
 31
0.0
  0
LINE
  5
2A0
100
AcDbEntity
  8
2
370
    50
100
AcDbLine
 10
-81.199609
 20
-162.89374
 30
0.0
 11
-116.032501
 21
-128.060848
 31
0.0
  0
POINT
  5
2A1
100
AcDbEntity
  8
2
370
    50
100
AcDbPoint
 10
-67.831667
 20
-155.048478
 30
0.0
  0
CIRCLE
  5
2A2
100
AcDbEntity
  8
2
370
    50
100
AcDbCircle
 10
-67.831667
 20
-155.048478
 30
0.0
 40
15.5
  0
CIRCLE
  5
2A3
100
AcDbEntity
  8
2
370
    50
100
AcDbCircle
 10
-67.831667
 20
-155.048478
 30
0.0
 40
4.5
  0
LINE
  5
2A4
100
AcDbEntity
  8
2
370
    25
  6
CENTER
100
AcDbLine
 10
-86.331667
 20
-155.048478
 30
0.0
 11
-49.331667
 21
-155.048478
 31
0.0
  0
LINE
  5
2A5
100
AcDbEntity
  8
2
370
    25
  6
CENTER
100
AcDbLine
 10
-67.831667
 20
-173.548478
 30
0.0
 11
-67.831667
 21
-136.548478
 31
0.0
  0
ARC
  5
2A6
100
AcDbEntity
  8
2
370
    50
100
AcDbCircle
 10
-67.831667
 20
-155.048478
 30
0.0
 40
13.0
100
AcDbArc
 50
94.411726
 51
265.588274
  0
ARC
  5
2A7
100
AcDbEntity
  8
2
370
    50
100
AcDbCircle
 10
-67.831667
 20
-155.048478
 30
0.0
 40
13.0
100
AcDbArc
 50
274.411726
 51
85.588274
  0
ARC
  5
2A8
100
AcDbEntity
  8
2
370
    25
100
AcDbCircle
 10
-67.831667
 20
-155.048478
 30
0.0
 40
5.5
100
AcDbArc
 50
100.475682
 51
259.524318
  0
ARC
  5
2A9
100
AcDbEntity
  8
2
370
    25
100
AcDbCircle
 10
-67.831667
 20
-155.048478
 30
0.0
 40
5.5
100
AcDbArc
 50
280.475682
 51
79.524318
  0
LINE
  5
2AA
100
AcDbEntity
  8
2
370
    50
100
AcDbLine
 10
-68.831667
 20
-149.640151
 30
0.0
 11
-68.831667
 21
-142.086997
 31
0.0
  0
LINE
  5
2AB
100
AcDbEntity
  8
2
370
    50
100
AcDbLine
 10
-66.831667
 20
-149.640151
 30
0.0
 11
-66.831667
 21
-142.086997
 31
0.0
  0
LINE
  5
2AC
100
AcDbEntity
  8
2
370
    25
100
AcDbLine
 10
-69.131667
 20
-149.704322
 30
0.0
 11
-69.131667
 21
-142.113641
 31
0.0
  0
LINE
  5
2AD
100
AcDbEntity
  8
2
370
    25
100
AcDbLine
 10
-66.531667
 20
-149.704322
 30
0.0
 11
-66.531667
 21
-142.113641
 31
0.0
  0
LINE
  5
2AE
100
AcDbEntity
  8
2
370
    25
100
AcDbLine
 10
-66.531667
 20
-160.392634
 30
0.0
 11
-66.531667
 21
-167.983315
 31
0.0
  0
LINE
  5
2AF
100
AcDbEntity
  8
2
370
    50
100
AcDbLine
 10
-66.831667
 20
-160.456805
 30
0.0
 11
-66.831667
 21
-168.009959
 31
0.0
  0
LINE
  5
2B0
100
AcDbEntity
  8
2
370
    50
100
AcDbLine
 10
-68.831667
 20
-160.456805
 30
0.0
 11
-68.831667
 21
-168.009959
 31
0.0
  0
LINE
  5
2B1
100
AcDbEntity
  8
2
370
    25
100
AcDbLine
 10
-69.131667
 20
-160.392634
 30
0.0
 11
-69.131667
 21
-167.983315
 31
0.0
  0
CIRCLE
  5
2B2
100
AcDbEntity
  8
2
370
    50
100
AcDbCircle
 10
-67.831667
 20
-155.048478
 30
0.0
 40
4.4
  0
LINE
  5
2B3
100
AcDbEntity
  8
2
370
    25
100
AcDbLine
 10
-69.131667
 20
-159.252048
 30
0.0
 11
-69.131667
 21
-150.844908
 31
0.0
  0
LINE
  5
2B4
100
AcDbEntity
  8
2
370
    50
100
AcDbLine
 10
-68.831667
 20
-159.333335
 30
0.0
 11
-68.831667
 21
-150.763621
 31
0.0
  0
LINE
  5
2B5
100
AcDbEntity
  8
2
370
    50
100
AcDbLine
 10
-66.831667
 20
-159.333335
 30
0.0
 11
-66.831667
 21
-150.763621
 31
0.0
  0
LINE
  5
2B6
100
AcDbEntity
  8
2
370
    25
100
AcDbLine
 10
-66.531667
 20
-159.252048
 30
0.0
 11
-66.531667
 21
-150.844908
 31
0.0
  0
ARC
  5
2B7
100
AcDbEntity
  8
2
370
    25
100
AcDbCircle
 10
-67.831667
 20
-155.048478
 30
0.0
 40
3.9
100
AcDbArc
 50
289.471221
 51
70.528779
  0
ARC
  5
2B8
100
AcDbEntity
  8
2
370
    25
100
AcDbCircle
 10
-67.831667
 20
-155.048478
 30
0.0
 40
3.9
100
AcDbArc
 50
109.471221
 51
250.528779
  0
POINT
  5
2B9
100
AcDbEntity
  8
2
370
    50
100
AcDbPoint
 10
-110.257721
 20
165.700279
 30
0.0
  0
LINE
  5
2BA
100
AcDbEntity
  8
2
370
    25
100
AcDbLine
 10
-59.573221
 20
228.90053
 30
0.0
 11
-59.573221
 21
211.90053
 31
0.0
  0
LINE
  5
2BB
100
AcDbEntity
  8
2
370
    50
100
AcDbLine
 10
-60.735221
 20
199.90053
 30
0.0
 11
-59.573221
 21
201.913173
 31
0.0
  0
LINE
  5
2BC
100
AcDbEntity
  8
2
370
    50
100
AcDbLine
 10
-124.257721
 20
192.90053
 30
0.0
 11
-73.917976
 21
192.90053
 31
0.0
  0
LINE
  5
2BD
100
AcDbEntity
  8
2
370
    50
100
AcDbLine
 10
-39.780221
 20
199.90053
 30
0.0
 11
-40.942221
 21
201.913173
 31
0.0
  0
LINE
  5
2BE
100
AcDbEntity
  8
2
370
    25
100
AcDbLine
 10
-40.942221
 20
228.90053
 30
0.0
 11
-40.942221
 21
211.90053
 31
0.0
  0
LINE
  5
2BF
100
AcDbEntity
  8
2
370
    50
100
AcDbLine
 10
-59.573221
 20
228.90053
 30
0.0
 11
-40.942221
 21
228.90053
 31
0.0
  0
LINE
  5
2C0
100
AcDbEntity
  8
2
370
    50
100
AcDbLine
 10
-59.573221
 20
228.90053
 30
0.0
 11
-60.735221
 21
227.73853
 31
0.0
  0
LINE
  5
2C1
100
AcDbEntity
  8
2
370
    50
100
AcDbLine
 10
-40.942221
 20
228.90053
 30
0.0
 11
-39.780221
 21
227.73853
 31
0.0
  0
LINE
  5
2C2
100
AcDbEntity
  8
2
370
    50
100
AcDbLine
 10
-62.857721
 20
178.20053
 30
0.0
 11
-66.257721
 21
178.20053
 31
0.0
  0
LINE
  5
2C3
100
AcDbEntity
  8
2
370
    25
  6
CENTER
100
AcDbLine
 10
-50.257721
 20
231.792975
 30
0.0
 11
-50.257721
 21
163.99964
 31
0.0
  0
LINE
  5
2C4
100
AcDbEntity
  8
2
370
    50
100
AcDbLine
 10
-35.257721
 20
198.90053
 30
0.0
 11
-35.257721
 21
178.20053
 31
0.0
  0
LINE
  5
2C5
100
AcDbEntity
  8
2
370
    50
100
AcDbLine
 10
-66.257721
 20
178.20053
 30
0.0
 11
-66.257721
 21
177.70053
 31
0.0
  0
LINE
  5
2C6
100
AcDbEntity
  8
2
370
    50
100
AcDbLine
 10
-35.257721
 20
198.90053
 30
0.0
 11
-36.257721
 21
199.90053
 31
0.0
  0
LINE
  5
2C7
100
AcDbEntity
  8
2
370
    50
100
AcDbLine
 10
-66.257721
 20
177.70053
 30
0.0
 11
-75.257721
 21
177.70053
 31
0.0
  0
LINE
  5
2C8
100
AcDbEntity
  8
2
370
    50
100
AcDbLine
 10
-75.257721
 20
177.70053
 30
0.0
 11
-97.057721
 21
177.70053
 31
0.0
  0
LINE
  5
2C9
100
AcDbEntity
  8
2
370
    50
100
AcDbLine
 10
-65.257721
 20
198.90053
 30
0.0
 11
-64.257721
 21
199.90053
 31
0.0
  0
LINE
  5
2CA
100
AcDbEntity
  8
2
370
    50
100
AcDbLine
 10
-60.735221
 20
199.90053
 30
0.0
 11
-64.257721
 21
199.90053
 31
0.0
  0
LINE
  5
2CB
100
AcDbEntity
  8
2
370
    50
100
AcDbLine
 10
-39.780221
 20
199.90053
 30
0.0
 11
-36.257721
 21
199.90053
 31
0.0
  0
ARC
  5
2CC
100
AcDbEntity
  8
2
370
    50
100
AcDbCircle
 10
-74.422873
 20
202.90053
 30
0.0
 40
10.0
100
AcDbArc
 50
270.0
 51
336.421822
  0
LINE
  5
2CD
100
AcDbEntity
  8
2
370
    50
100
AcDbLine
 10
-51.307721
 20
173.00053
 30
0.0
 11
-63.257721
 21
173.00053
 31
0.0
  0
LINE
  5
2CE
100
AcDbEntity
  8
2
370
    50
100
AcDbLine
 10
-65.757721
 20
175.50053
 30
0.0
 11
-65.757721
 21
177.70053
 31
0.0
  0
LINE
  5
2CF
100
AcDbEntity
  8
2
370
    50
100
AcDbLine
 10
-50.257721
 20
178.20053
 30
0.0
 11
-65.257721
 21
178.20053
 31
0.0
  0
LINE
  5
2D0
100
AcDbEntity
  8
2
370
    50
100
AcDbLine
 10
-63.257721
 20
173.00053
 30
0.0
 11
-65.757721
 21
175.50053
 31
0.0
  0
LINE
  5
2D1
100
AcDbEntity
  8
2
370
    50
100
AcDbLine
 10
-34.757721
 20
175.50053
 30
0.0
 11
-34.757721
 21
177.70053
 31
0.0
  0
LINE
  5
2D2
100
AcDbEntity
  8
2
370
    50
100
AcDbLine
 10
-50.257721
 20
178.20053
 30
0.0
 11
-35.257721
 21
178.20053
 31
0.0
  0
LINE
  5
2D3
100
AcDbEntity
  8
2
370
    50
100
AcDbLine
 10
-34.757721
 20
177.70053
 30
0.0
 11
-35.257721
 21
178.20053
 31
0.0
  0
LINE
  5
2D4
100
AcDbEntity
  8
2
370
    50
100
AcDbLine
 10
-65.257721
 20
178.20053
 30
0.0
 11
-65.757721
 21
177.70053
 31
0.0
  0
LINE
  5
2D5
100
AcDbEntity
  8
2
370
    50
100
AcDbLine
 10
-34.757721
 20
175.50053
 30
0.0
 11
-37.257721
 21
173.00053
 31
0.0
  0
LINE
  5
2D6
100
AcDbEntity
  8
2
370
    50
100
AcDbLine
 10
-37.257721
 20
173.00053
 30
0.0
 11
-49.207721
 21
173.00053
 31
0.0
  0
LINE
  5
2D7
100
AcDbEntity
  8
2
370
    50
100
AcDbLine
 10
-49.507721
 20
173.30053
 30
0.0
 11
-49.507721
 21
174.50053
 31
0.0
  0
LINE
  5
2D8
100
AcDbEntity
  8
2
370
    50
100
AcDbLine
 10
-49.207721
 20
173.00053
 30
0.0
 11
-49.507721
 21
173.30053
 31
0.0
  0
LINE
  5
2D9
100
AcDbEntity
  8
2
370
    50
100
AcDbLine
 10
-49.507721
 20
174.50053
 30
0.0
 11
-50.257721
 21
174.50053
 31
0.0
  0
LINE
  5
2DA
100
AcDbEntity
  8
2
370
    50
100
AcDbLine
 10
-51.007721
 20
174.50053
 30
0.0
 11
-50.257721
 21
174.50053
 31
0.0
  0
LINE
  5
2DB
100
AcDbEntity
  8
2
370
    50
100
AcDbLine
 10
-51.007721
 20
173.30053
 30
0.0
 11
-51.007721
 21
174.50053
 31
0.0
  0
LINE
  5
2DC
100
AcDbEntity
  8
2
370
    50
100
AcDbLine
 10
-51.307721
 20
173.00053
 30
0.0
 11
-51.007721
 21
173.30053
 31
0.0
  0
LINE
  5
2DD
100
AcDbEntity
  8
2
370
    25
100
AcDbLine
 10
-65.757721
 20
175.50053
 30
0.0
 11
-34.757721
 21
175.50053
 31
0.0
  0
LINE
  5
2DE
100
AcDbEntity
  8
2
370
    25
100
AcDbLine
 10
-34.757721
 20
177.70053
 30
0.0
 11
-65.757721
 21
177.70053
 31
0.0
  0
LINE
  5
2DF
100
AcDbEntity
  8
2
370
    25
100
AcDbLine
 10
-60.735221
 20
227.73853
 30
0.0
 11
-39.780221
 21
227.73853
 31
0.0
  0
LINE
  5
2E0
100
AcDbEntity
  8
2
370
    50
100
AcDbLine
 10
-40.942221
 20
201.913173
 30
0.0
 11
-59.573221
 21
201.913173
 31
0.0
  0
LINE
  5
2E1
100
AcDbEntity
  8
2
370
    50
100
AcDbLine
 10
-60.735221
 20
199.90053
 30
0.0
 11
-39.780221
 21
199.90053
 31
0.0
  0
LINE
  5
2E2
100
AcDbEntity
  8
2
370
    50
100
AcDbLine
 10
-124.257721
 20
192.90053
 30
0.0
 11
-73.917976
 21
192.90053
 31
0.0
  0
LINE
  5
2E3
100
AcDbEntity
  8
2
370
    50
100
AcDbLine
 10
-125.257721
 20
177.70053
 30
0.0
 11
-125.257721
 21
191.90053
 31
0.0
  0
ARC
  5
2E4
100
AcDbEntity
  8
2
370
    50
100
AcDbCircle
 10
-124.257721
 20
191.90053
 30
0.0
 40
1.0
100
AcDbArc
 50
90.0
 51
180.0
  0
LINE
  5
2E5
100
AcDbEntity
  8
2
370
    50
100
AcDbLine
 10
-97.057721
 20
177.70053
 30
0.0
 11
-123.457721
 21
177.70053
 31
0.0
  0
LINE
  5
2E6
100
AcDbEntity
  8
2
370
    50
100
AcDbLine
 10
-97.057721
 20
165.700279
 30
0.0
 11
-97.057721
 21
177.70053
 31
0.0
  0
LINE
  5
2E7
100
AcDbEntity
  8
2
370
    25
100
AcDbLine
 10
-98.157721
 20
165.700279
 30
0.0
 11
-98.157721
 21
168.20053
 31
0.0
  0
LINE
  5
2E8
100
AcDbEntity
  8
2
370
    50
100
AcDbLine
 10
-98.157721
 20
168.20053
 30
0.0
 11
-97.057721
 21
170.105786
 31
0.0
  0
LINE
  5
2E9
100
AcDbEntity
  8
2
370
    50
100
AcDbLine
 10
-123.457721
 20
165.700279
 30
0.0
 11
-123.457721
 21
177.70053
 31
0.0
  0
LINE
  5
2EA
100
AcDbEntity
  8
2
370
    50
100
AcDbLine
 10
-122.357721
 20
168.20053
 30
0.0
 11
-123.457721
 21
170.105786
 31
0.0
  0
LINE
  5
2EB
100
AcDbEntity
  8
2
370
    25
100
AcDbLine
 10
-122.357721
 20
165.700279
 30
0.0
 11
-122.357721
 21
168.20053
 31
0.0
  0
LINE
  5
2EC
100
AcDbEntity
  8
2
370
    50
100
AcDbLine
 10
-125.257721
 20
177.70053
 30
0.0
 11
-125.257721
 21
191.90053
 31
0.0
  0
LINE
  5
2ED
100
AcDbEntity
  8
2
370
    50
100
AcDbLine
 10
-123.457721
 20
177.70053
 30
0.0
 11
-125.257721
 21
177.70053
 31
0.0
  0
LINE
  5
2EE
100
AcDbEntity
  8
2
370
    50
100
AcDbLine
 10
-75.257721
 20
177.70053
 30
0.0
 11
-97.057721
 21
177.70053
 31
0.0
  0
LINE
  5
2EF
100
AcDbEntity
  8
2
370
    50
100
AcDbLine
 10
-97.057721
 20
177.70053
 30
0.0
 11
-123.457721
 21
177.70053
 31
0.0
  0
LINE
  5
2F0
100
AcDbEntity
  8
2
370
    25
100
AcDbLine
 10
-98.157721
 20
168.20053
 30
0.0
 11
-122.357721
 21
168.20053
 31
0.0
  0
LINE
  5
2F1
100
AcDbEntity
  8
2
370
    25
100
AcDbLine
 10
-123.457721
 20
170.105786
 30
0.0
 11
-97.057721
 21
170.105786
 31
0.0
  0
LINE
  5
2F2
100
AcDbEntity
  8
2
370
    50
100
AcDbLine
 10
-27.257721
 20
211.90053
 30
0.0
 11
-27.257721
 21
208.54165
 31
0.0
  0
LINE
  5
2F3
100
AcDbEntity
  8
2
370
    50
100
AcDbLine
 10
-73.257721
 20
211.90053
 30
0.0
 11
-27.257721
 21
211.90053
 31
0.0
  0
ARC
  5
2F4
100
AcDbEntity
  8
2
370
    50
100
AcDbCircle
 10
-36.757721
 20
203.90053
 30
0.0
 40
2.0
100
AcDbArc
 50
270.0
 51
294.670512
  0
LINE
  5
2F5
100
AcDbEntity
  8
2
370
    50
100
AcDbLine
 10
-27.840322
 20
207.632927
 30
0.0
 11
-35.922923
 21
202.083084
 31
0.0
  0
LINE
  5
2F6
100
AcDbEntity
  8
2
370
    50
100
AcDbLine
 10
-72.675121
 20
207.632927
 30
0.0
 11
-64.838211
 21
202.251785
 31
0.0
  0
ARC
  5
2F7
100
AcDbEntity
  8
2
370
    50
100
AcDbCircle
 10
-28.257721
 20
208.54165
 30
0.0
 40
1.0
100
AcDbArc
 50
294.670512
 51
360.0
  0
LINE
  5
2F8
100
AcDbEntity
  8
2
370
    50
100
AcDbLine
 10
-73.257721
 20
208.54165
 30
0.0
 11
-73.257721
 21
211.90053
 31
0.0
  0
LINE
  5
2F9
100
AcDbEntity
  8
2
370
    50
100
AcDbLine
 10
-72.675121
 20
207.632927
 30
0.0
 11
-64.59252
 21
202.083084
 31
0.0
  0
ARC
  5
2FA
100
AcDbEntity
  8
2
370
    50
100
AcDbCircle
 10
-72.257721
 20
208.54165
 30
0.0
 40
1.0
100
AcDbArc
 50
180.0
 51
245.329488
  0
LINE
  5
2FB
100
AcDbEntity
  8
2
370
    50
100
AcDbLine
 10
-63.706116
 20
201.90053
 30
0.0
 11
-36.757721
 21
201.90053
 31
0.0
  0
LINE
  5
2FC
100
AcDbEntity
  8
2
370
    25
100
AcDbLine
 10
-72.51844
 20
208.032965
 30
0.0
 11
-28.097831
 21
208.032965
 31
0.0
  0
ARC
  5
2FD
100
AcDbEntity
  8
2
370
    50
100
AcDbCircle
 10
-63.706116
 20
203.90053
 30
0.0
 40
2.0
100
AcDbArc
 50
235.52492
 51
270.0
  0
LINE
  5
2FE
100
AcDbEntity
  8
2
370
    50
100
AcDbLine
 10
-60.735221
 20
199.90053
 30
0.0
 11
-60.735221
 21
201.90053
 31
0.0
  0
LINE
  5
2FF
100
AcDbEntity
  8
2
370
    50
100
AcDbLine
 10
-60.735221
 20
211.90053
 30
0.0
 11
-60.735221
 21
227.73853
 31
0.0
  0
LINE
  5
300
100
AcDbEntity
  8
2
370
    50
100
AcDbLine
 10
-39.780221
 20
199.90053
 30
0.0
 11
-39.780221
 21
201.90053
 31
0.0
  0
LINE
  5
301
100
AcDbEntity
  8
2
370
    50
100
AcDbLine
 10
-39.780221
 20
211.90053
 30
0.0
 11
-39.780221
 21
227.73853
 31
0.0
  0
POINT
  5
302
100
AcDbEntity
  8
2
370
    50
100
AcDbPoint
 10
-210.258074
 20
-112.622071
 30
0.0
  0
POINT
  5
303
100
AcDbEntity
  8
2
370
    50
100
AcDbPoint
 10
-252.684481
 20
-155.048478
 30
0.0
  0
POINT
  5
304
100
AcDbEntity
  8
2
370
    50
100
AcDbPoint
 10
-262.230422
 20
-164.59442
 30
0.0
  0
LINE
  5
305
100
AcDbEntity
  8
2
370
    50
100
AcDbLine
 10
-260.529742
 20
-141.680536
 30
0.0
 11
-259.354078
 21
-140.504872
 31
0.0
  0
LINE
  5
306
100
AcDbEntity
  8
2
370
    50
100
AcDbLine
 10
-259.354078
 20
-140.504872
 30
0.0
 11
-222.261061
 21
-103.411855
 31
0.0
  0
LINE
  5
307
100
AcDbEntity
  8
2
370
    50
100
AcDbLine
 10
-239.316539
 20
-162.89374
 30
0.0
 11
-204.483647
 21
-128.060848
 31
0.0
  0
POINT
  5
308
100
AcDbEntity
  8
2
370
    50
100
AcDbPoint
 10
-252.684481
 20
-155.048478
 30
0.0
  0
CIRCLE
  5
309
100
AcDbEntity
  8
2
370
    50
100
AcDbCircle
 10
-252.684481
 20
-155.048478
 30
0.0
 40
15.5
  0
CIRCLE
  5
30A
100
AcDbEntity
  8
2
370
    50
100
AcDbCircle
 10
-252.684481
 20
-155.048478
 30
0.0
 40
4.5
  0
LINE
  5
30B
100
AcDbEntity
  8
2
370
    25
  6
CENTER
100
AcDbLine
 10
-234.184481
 20
-155.048478
 30
0.0
 11
-271.184481
 21
-155.048478
 31
0.0
  0
LINE
  5
30C
100
AcDbEntity
  8
2
370
    25
  6
CENTER
100
AcDbLine
 10
-252.684481
 20
-173.548478
 30
0.0
 11
-252.684481
 21
-136.548478
 31
0.0
  0
ARC
  5
30D
100
AcDbEntity
  8
2
370
    50
100
AcDbCircle
 10
-252.684481
 20
-155.048478
 30
0.0
 40
13.0
100
AcDbArc
 50
274.411726
 51
85.588274
  0
ARC
  5
30E
100
AcDbEntity
  8
2
370
    50
100
AcDbCircle
 10
-252.684481
 20
-155.048478
 30
0.0
 40
13.0
100
AcDbArc
 50
94.411726
 51
265.588274
  0
ARC
  5
30F
100
AcDbEntity
  8
2
370
    25
100
AcDbCircle
 10
-252.684481
 20
-155.048478
 30
0.0
 40
5.5
100
AcDbArc
 50
280.475682
 51
79.524318
  0
ARC
  5
310
100
AcDbEntity
  8
2
370
    25
100
AcDbCircle
 10
-252.684481
 20
-155.048478
 30
0.0
 40
5.5
100
AcDbArc
 50
100.475682
 51
259.524318
  0
LINE
  5
311
100
AcDbEntity
  8
2
370
    50
100
AcDbLine
 10
-251.684481
 20
-149.640151
 30
0.0
 11
-251.684481
 21
-142.086997
 31
0.0
  0
LINE
  5
312
100
AcDbEntity
  8
2
370
    50
100
AcDbLine
 10
-253.684481
 20
-149.640151
 30
0.0
 11
-253.684481
 21
-142.086997
 31
0.0
  0
LINE
  5
313
100
AcDbEntity
  8
2
370
    25
100
AcDbLine
 10
-251.384481
 20
-149.704322
 30
0.0
 11
-251.384481
 21
-142.113641
 31
0.0
  0
LINE
  5
314
100
AcDbEntity
  8
2
370
    25
100
AcDbLine
 10
-253.984481
 20
-149.704322
 30
0.0
 11
-253.984481
 21
-142.113641
 31
0.0
  0
LINE
  5
315
100
AcDbEntity
  8
2
370
    25
100
AcDbLine
 10
-253.984481
 20
-160.392634
 30
0.0
 11
-253.984481
 21
-167.983315
 31
0.0
  0
LINE
  5
316
100
AcDbEntity
  8
2
370
    50
100
AcDbLine
 10
-253.684481
 20
-160.456805
 30
0.0
 11
-253.684481
 21
-168.009959
 31
0.0
  0
LINE
  5
317
100
AcDbEntity
  8
2
370
    50
100
AcDbLine
 10
-251.684481
 20
-160.456805
 30
0.0
 11
-251.684481
 21
-168.009959
 31
0.0
  0
LINE
  5
318
100
AcDbEntity
  8
2
370
    25
100
AcDbLine
 10
-251.384481
 20
-160.392634
 30
0.0
 11
-251.384481
 21
-167.983315
 31
0.0
  0
CIRCLE
  5
319
100
AcDbEntity
  8
2
370
    50
100
AcDbCircle
 10
-252.684481
 20
-155.048478
 30
0.0
 40
4.4
  0
LINE
  5
31A
100
AcDbEntity
  8
2
370
    25
100
AcDbLine
 10
-251.384481
 20
-159.252048
 30
0.0
 11
-251.384481
 21
-150.844908
 31
0.0
  0
LINE
  5
31B
100
AcDbEntity
  8
2
370
    50
100
AcDbLine
 10
-251.684481
 20
-159.333335
 30
0.0
 11
-251.684481
 21
-150.763621
 31
0.0
  0
LINE
  5
31C
100
AcDbEntity
  8
2
370
    50
100
AcDbLine
 10
-253.684481
 20
-159.333335
 30
0.0
 11
-253.684481
 21
-150.763621
 31
0.0
  0
LINE
  5
31D
100
AcDbEntity
  8
2
370
    25
100
AcDbLine
 10
-253.984481
 20
-159.252048
 30
0.0
 11
-253.984481
 21
-150.844908
 31
0.0
  0
ARC
  5
31E
100
AcDbEntity
  8
2
370
    25
100
AcDbCircle
 10
-252.684481
 20
-155.048478
 30
0.0
 40
3.9
100
AcDbArc
 50
109.471221
 51
250.528779
  0
ARC
  5
31F
100
AcDbEntity
  8
2
370
    25
100
AcDbCircle
 10
-252.684481
 20
-155.048478
 30
0.0
 40
3.9
100
AcDbArc
 50
289.471221
 51
70.528779
  0
POINT
  5
320
100
AcDbEntity
  8
2
370
    50
100
AcDbPoint
 10
-210.258426
 20
165.700279
 30
0.0
  0
LINE
  5
321
100
AcDbEntity
  8
2
370
    25
100
AcDbLine
 10
-260.942926
 20
228.90053
 30
0.0
 11
-260.942926
 21
211.90053
 31
0.0
  0
LINE
  5
322
100
AcDbEntity
  8
2
370
    50
100
AcDbLine
 10
-259.780926
 20
199.90053
 30
0.0
 11
-260.942926
 21
201.913173
 31
0.0
  0
LINE
  5
323
100
AcDbEntity
  8
2
370
    50
100
AcDbLine
 10
-196.258426
 20
192.90053
 30
0.0
 11
-246.598172
 21
192.90053
 31
0.0
  0
LINE
  5
324
100
AcDbEntity
  8
2
370
    50
100
AcDbLine
 10
-280.735926
 20
199.90053
 30
0.0
 11
-279.573926
 21
201.913173
 31
0.0
  0
LINE
  5
325
100
AcDbEntity
  8
2
370
    25
100
AcDbLine
 10
-279.573926
 20
228.90053
 30
0.0
 11
-279.573926
 21
211.90053
 31
0.0
  0
LINE
  5
326
100
AcDbEntity
  8
2
370
    50
100
AcDbLine
 10
-260.942926
 20
228.90053
 30
0.0
 11
-279.573926
 21
228.90053
 31
0.0
  0
LINE
  5
327
100
AcDbEntity
  8
2
370
    50
100
AcDbLine
 10
-260.942926
 20
228.90053
 30
0.0
 11
-259.780926
 21
227.73853
 31
0.0
  0
LINE
  5
328
100
AcDbEntity
  8
2
370
    50
100
AcDbLine
 10
-279.573926
 20
228.90053
 30
0.0
 11
-280.735926
 21
227.73853
 31
0.0
  0
LINE
  5
329
100
AcDbEntity
  8
2
370
    50
100
AcDbLine
 10
-257.658426
 20
178.20053
 30
0.0
 11
-254.258426
 21
178.20053
 31
0.0
  0
LINE
  5
32A
100
AcDbEntity
  8
2
370
    25
  6
CENTER
100
AcDbLine
 10
-270.258426
 20
231.792975
 30
0.0
 11
-270.258426
 21
163.99964
 31
0.0
  0
LINE
  5
32B
100
AcDbEntity
  8
2
370
    50
100
AcDbLine
 10
-285.258426
 20
198.90053
 30
0.0
 11
-285.258426
 21
178.20053
 31
0.0
  0
LINE
  5
32C
100
AcDbEntity
  8
2
370
    50
100
AcDbLine
 10
-254.258426
 20
178.20053
 30
0.0
 11
-254.258426
 21
177.70053
 31
0.0
  0
LINE
  5
32D
100
AcDbEntity
  8
2
370
    50
100
AcDbLine
 10
-285.258426
 20
198.90053
 30
0.0
 11
-284.258426
 21
199.90053
 31
0.0
  0
LINE
  5
32E
100
AcDbEntity
  8
2
370
    50
100
AcDbLine
 10
-254.258426
 20
177.70053
 30
0.0
 11
-245.258426
 21
177.70053
 31
0.0
  0
LINE
  5
32F
100
AcDbEntity
  8
2
370
    50
100
AcDbLine
 10
-245.258426
 20
177.70053
 30
0.0
 11
-223.458426
 21
177.70053
 31
0.0
  0
LINE
  5
330
100
AcDbEntity
  8
2
370
    50
100
AcDbLine
 10
-255.258426
 20
198.90053
 30
0.0
 11
-256.258426
 21
199.90053
 31
0.0
  0
LINE
  5
331
100
AcDbEntity
  8
2
370
    50
100
AcDbLine
 10
-259.780926
 20
199.90053
 30
0.0
 11
-256.258426
 21
199.90053
 31
0.0
  0
LINE
  5
332
100
AcDbEntity
  8
2
370
    50
100
AcDbLine
 10
-280.735926
 20
199.90053
 30
0.0
 11
-284.258426
 21
199.90053
 31
0.0
  0
ARC
  5
333
100
AcDbEntity
  8
2
370
    50
100
AcDbCircle
 10
-246.093274
 20
202.90053
 30
0.0
 40
10.0
100
AcDbArc
 50
203.578178
 51
270.0
  0
LINE
  5
334
100
AcDbEntity
  8
2
370
    50
100
AcDbLine
 10
-269.208426
 20
173.00053
 30
0.0
 11
-257.258426
 21
173.00053
 31
0.0
  0
LINE
  5
335
100
AcDbEntity
  8
2
370
    50
100
AcDbLine
 10
-254.758426
 20
175.50053
 30
0.0
 11
-254.758426
 21
177.70053
 31
0.0
  0
LINE
  5
336
100
AcDbEntity
  8
2
370
    50
100
AcDbLine
 10
-270.258426
 20
178.20053
 30
0.0
 11
-255.258426
 21
178.20053
 31
0.0
  0
LINE
  5
337
100
AcDbEntity
  8
2
370
    50
100
AcDbLine
 10
-257.258426
 20
173.00053
 30
0.0
 11
-254.758426
 21
175.50053
 31
0.0
  0
LINE
  5
338
100
AcDbEntity
  8
2
370
    50
100
AcDbLine
 10
-285.758426
 20
175.50053
 30
0.0
 11
-285.758426
 21
177.70053
 31
0.0
  0
LINE
  5
339
100
AcDbEntity
  8
2
370
    50
100
AcDbLine
 10
-270.258426
 20
178.20053
 30
0.0
 11
-285.258426
 21
178.20053
 31
0.0
  0
LINE
  5
33A
100
AcDbEntity
  8
2
370
    50
100
AcDbLine
 10
-285.758426
 20
177.70053
 30
0.0
 11
-285.258426
 21
178.20053
 31
0.0
  0
LINE
  5
33B
100
AcDbEntity
  8
2
370
    50
100
AcDbLine
 10
-255.258426
 20
178.20053
 30
0.0
 11
-254.758426
 21
177.70053
 31
0.0
  0
LINE
  5
33C
100
AcDbEntity
  8
2
370
    50
100
AcDbLine
 10
-285.758426
 20
175.50053
 30
0.0
 11
-283.258426
 21
173.00053
 31
0.0
  0
LINE
  5
33D
100
AcDbEntity
  8
2
370
    50
100
AcDbLine
 10
-283.258426
 20
173.00053
 30
0.0
 11
-271.308426
 21
173.00053
 31
0.0
  0
LINE
  5
33E
100
AcDbEntity
  8
2
370
    50
100
AcDbLine
 10
-271.008426
 20
173.30053
 30
0.0
 11
-271.008426
 21
174.50053
 31
0.0
  0
LINE
  5
33F
100
AcDbEntity
  8
2
370
    50
100
AcDbLine
 10
-271.308426
 20
173.00053
 30
0.0
 11
-271.008426
 21
173.30053
 31
0.0
  0
LINE
  5
340
100
AcDbEntity
  8
2
370
    50
100
AcDbLine
 10
-271.008426
 20
174.50053
 30
0.0
 11
-270.258426
 21
174.50053
 31
0.0
  0
LINE
  5
341
100
AcDbEntity
  8
2
370
    50
100
AcDbLine
 10
-269.508426
 20
174.50053
 30
0.0
 11
-270.258426
 21
174.50053
 31
0.0
  0
LINE
  5
342
100
AcDbEntity
  8
2
370
    50
100
AcDbLine
 10
-269.508426
 20
173.30053
 30
0.0
 11
-269.508426
 21
174.50053
 31
0.0
  0
LINE
  5
343
100
AcDbEntity
  8
2
370
    50
100
AcDbLine
 10
-269.208426
 20
173.00053
 30
0.0
 11
-269.508426
 21
173.30053
 31
0.0
  0
LINE
  5
344
100
AcDbEntity
  8
2
370
    25
100
AcDbLine
 10
-254.758426
 20
175.50053
 30
0.0
 11
-285.758426
 21
175.50053
 31
0.0
  0
LINE
  5
345
100
AcDbEntity
  8
2
370
    25
100
AcDbLine
 10
-285.758426
 20
177.70053
 30
0.0
 11
-254.758426
 21
177.70053
 31
0.0
  0
LINE
  5
346
100
AcDbEntity
  8
2
370
    25
100
AcDbLine
 10
-259.780926
 20
227.73853
 30
0.0
 11
-280.735926
 21
227.73853
 31
0.0
  0
LINE
  5
347
100
AcDbEntity
  8
2
370
    50
100
AcDbLine
 10
-279.573926
 20
201.913173
 30
0.0
 11
-260.942926
 21
201.913173
 31
0.0
  0
LINE
  5
348
100
AcDbEntity
  8
2
370
    50
100
AcDbLine
 10
-259.780926
 20
199.90053
 30
0.0
 11
-280.735926
 21
199.90053
 31
0.0
  0
LINE
  5
349
100
AcDbEntity
  8
2
370
    50
100
AcDbLine
 10
-196.258426
 20
192.90053
 30
0.0
 11
-246.598172
 21
192.90053
 31
0.0
  0
LINE
  5
34A
100
AcDbEntity
  8
2
370
    50
100
AcDbLine
 10
-195.258426
 20
177.70053
 30
0.0
 11
-195.258426
 21
191.90053
 31
0.0
  0
ARC
  5
34B
100
AcDbEntity
  8
2
370
    50
100
AcDbCircle
 10
-196.258426
 20
191.90053
 30
0.0
 40
1.0
100
AcDbArc
 50
0.0
 51
90.0
  0
LINE
  5
34C
100
AcDbEntity
  8
2
370
    50
100
AcDbLine
 10
-223.458426
 20
177.70053
 30
0.0
 11
-197.058426
 21
177.70053
 31
0.0
  0
LINE
  5
34D
100
AcDbEntity
  8
2
370
    50
100
AcDbLine
 10
-223.458426
 20
165.700279
 30
0.0
 11
-223.458426
 21
177.70053
 31
0.0
  0
LINE
  5
34E
100
AcDbEntity
  8
2
370
    25
100
AcDbLine
 10
-222.358426
 20
165.700279
 30
0.0
 11
-222.358426
 21
168.20053
 31
0.0
  0
LINE
  5
34F
100
AcDbEntity
  8
2
370
    50
100
AcDbLine
 10
-222.358426
 20
168.20053
 30
0.0
 11
-223.458426
 21
170.105786
 31
0.0
  0
LINE
  5
350
100
AcDbEntity
  8
2
370
    50
100
AcDbLine
 10
-197.058426
 20
165.700279
 30
0.0
 11
-197.058426
 21
177.70053
 31
0.0
  0
LINE
  5
351
100
AcDbEntity
  8
2
370
    50
100
AcDbLine
 10
-198.158426
 20
168.20053
 30
0.0
 11
-197.058426
 21
170.105786
 31
0.0
  0
LINE
  5
352
100
AcDbEntity
  8
2
370
    25
100
AcDbLine
 10
-198.158426
 20
165.700279
 30
0.0
 11
-198.158426
 21
168.20053
 31
0.0
  0
LINE
  5
353
100
AcDbEntity
  8
2
370
    50
100
AcDbLine
 10
-195.258426
 20
177.70053
 30
0.0
 11
-195.258426
 21
191.90053
 31
0.0
  0
LINE
  5
354
100
AcDbEntity
  8
2
370
    50
100
AcDbLine
 10
-197.058426
 20
177.70053
 30
0.0
 11
-195.258426
 21
177.70053
 31
0.0
  0
LINE
  5
355
100
AcDbEntity
  8
2
370
    50
100
AcDbLine
 10
-245.258426
 20
177.70053
 30
0.0
 11
-223.458426
 21
177.70053
 31
0.0
  0
LINE
  5
356
100
AcDbEntity
  8
2
370
    50
100
AcDbLine
 10
-223.458426
 20
177.70053
 30
0.0
 11
-197.058426
 21
177.70053
 31
0.0
  0
LINE
  5
357
100
AcDbEntity
  8
2
370
    25
100
AcDbLine
 10
-222.358426
 20
168.20053
 30
0.0
 11
-198.158426
 21
168.20053
 31
0.0
  0
LINE
  5
358
100
AcDbEntity
  8
2
370
    25
100
AcDbLine
 10
-197.058426
 20
170.105786
 30
0.0
 11
-223.458426
 21
170.105786
 31
0.0
  0
LINE
  5
359
100
AcDbEntity
  8
2
370
    50
100
AcDbLine
 10
-293.258426
 20
211.90053
 30
0.0
 11
-293.258426
 21
208.54165
 31
0.0
  0
LINE
  5
35A
100
AcDbEntity
  8
2
370
    50
100
AcDbLine
 10
-247.258426
 20
211.90053
 30
0.0
 11
-293.258426
 21
211.90053
 31
0.0
  0
ARC
  5
35B
100
AcDbEntity
  8
2
370
    50
100
AcDbCircle
 10
-283.758426
 20
203.90053
 30
0.0
 40
2.0
100
AcDbArc
 50
245.329488
 51
270.0
  0
LINE
  5
35C
100
AcDbEntity
  8
2
370
    50
100
AcDbLine
 10
-292.675825
 20
207.632927
 30
0.0
 11
-284.593225
 21
202.083084
 31
0.0
  0
LINE
  5
35D
100
AcDbEntity
  8
2
370
    50
100
AcDbLine
 10
-247.841026
 20
207.632927
 30
0.0
 11
-255.677936
 21
202.251785
 31
0.0
  0
ARC
  5
35E
100
AcDbEntity
  8
2
370
    50
100
AcDbCircle
 10
-292.258426
 20
208.54165
 30
0.0
 40
1.0
100
AcDbArc
 50
180.0
 51
245.329488
  0
LINE
  5
35F
100
AcDbEntity
  8
2
370
    50
100
AcDbLine
 10
-247.258426
 20
208.54165
 30
0.0
 11
-247.258426
 21
211.90053
 31
0.0
  0
LINE
  5
360
100
AcDbEntity
  8
2
370
    50
100
AcDbLine
 10
-247.841026
 20
207.632927
 30
0.0
 11
-255.923627
 21
202.083084
 31
0.0
  0
ARC
  5
361
100
AcDbEntity
  8
2
370
    50
100
AcDbCircle
 10
-248.258426
 20
208.54165
 30
0.0
 40
1.0
100
AcDbArc
 50
294.670512
 51
0.0
  0
LINE
  5
362
100
AcDbEntity
  8
2
370
    50
100
AcDbLine
 10
-256.810032
 20
201.90053
 30
0.0
 11
-283.758426
 21
201.90053
 31
0.0
  0
LINE
  5
363
100
AcDbEntity
  8
2
370
    25
100
AcDbLine
 10
-247.997707
 20
208.032965
 30
0.0
 11
-292.418316
 21
208.032965
 31
0.0
  0
ARC
  5
364
100
AcDbEntity
  8
2
370
    50
100
AcDbCircle
 10
-256.810032
 20
203.90053
 30
0.0
 40
2.0
100
AcDbArc
 50
270.0
 51
304.47508
  0
LINE
  5
365
100
AcDbEntity
  8
2
370
    50
100
AcDbLine
 10
-259.780926
 20
199.90053
 30
0.0
 11
-259.780926
 21
201.90053
 31
0.0
  0
LINE
  5
366
100
AcDbEntity
  8
2
370
    50
100
AcDbLine
 10
-259.780926
 20
211.90053
 30
0.0
 11
-259.780926
 21
227.73853
 31
0.0
  0
LINE
  5
367
100
AcDbEntity
  8
2
370
    50
100
AcDbLine
 10
-280.735926
 20
199.90053
 30
0.0
 11
-280.735926
 21
201.90053
 31
0.0
  0
LINE
  5
368
100
AcDbEntity
  8
2
370
    50
100
AcDbLine
 10
-280.735926
 20
211.90053
 30
0.0
 11
-280.735926
 21
227.73853
 31
0.0
  0
POINT
  5
369
100
AcDbEntity
  8
2
370
    50
100
AcDbPoint
 10
-280.735926
 20
219.81953
 30
0.0
  0
ARC
  5
36A
100
AcDbEntity
  8
2
370
    50
100
AcDbCircle
 10
-67.831667
 20
-155.048478
 30
0.0
 40
23.0
100
AcDbArc
 50
175.705707
 51
94.294293
  0
ARC
  5
36B
100
AcDbEntity
  8
2
370
    50
100
AcDbCircle
 10
-252.684481
 20
-155.048478
 30
0.0
 40
23.0
100
AcDbArc
 50
85.705707
 51
4.294293
  0
LINE
  5
36C
100
AcDbEntity
  8
2
370
    50
100
AcDbLine
 10
-145.258074
 20
167.141631
 30
0.0
 11
-137.258074
 21
167.141631
 31
0.0
  0
LINE
  5
36D
100
AcDbEntity
  8
2
370
    50
100
AcDbLine
 10
-145.258074
 20
188.141631
 30
0.0
 11
-137.258074
 21
188.141631
 31
0.0
  0
LINE
  5
36E
100
AcDbEntity
  8
2
370
    50
100
AcDbLine
 10
-145.258074
 20
166.841631
 30
0.0
 11
-145.258074
 21
167.141631
 31
0.0
  0
LINE
  5
36F
100
AcDbEntity
  8
2
370
    50
100
AcDbLine
 10
-145.258074
 20
188.141631
 30
0.0
 11
-145.258074
 21
188.441631
 31
0.0
  0
LINE
  5
370
100
AcDbEntity
  8
2
370
    25
100
AcDbLine
 10
-143.526023
 20
187.141631
 30
0.0
 11
-136.258074
 21
187.141631
 31
0.0
  0
LINE
  5
371
100
AcDbEntity
  8
2
370
    25
100
AcDbLine
 10
-143.526023
 20
168.141631
 30
0.0
 11
-136.258074
 21
168.141631
 31
0.0
  0
LINE
  5
372
100
AcDbEntity
  8
2
370
    50
100
AcDbLine
 10
-170.858074
 20
159.800235
 30
0.0
 11
-170.858074
 21
173.441631
 31
0.0
  0
LINE
  5
373
100
AcDbEntity
  8
2
370
    50
100
AcDbLine
 10
-149.658074
 20
159.800235
 30
0.0
 11
-149.658074
 21
165.341631
 31
0.0
  0
LINE
  5
374
100
AcDbEntity
  8
2
370
    50
100
AcDbLine
 10
-155.858074
 20
188.441631
 30
0.0
 11
-145.258074
 21
188.441631
 31
0.0
  0
LINE
  5
375
100
AcDbEntity
  8
2
370
    50
100
AcDbLine
 10
-148.158074
 20
166.841631
 30
0.0
 11
-145.258074
 21
166.841631
 31
0.0
  0
LINE
  5
376
100
AcDbEntity
  8
2
370
    50
100
AcDbLine
 10
-136.258074
 20
187.141631
 30
0.0
 11
-137.258074
 21
188.141631
 31
0.0
  0
LINE
  5
377
100
AcDbEntity
  8
2
370
    50
100
AcDbLine
 10
-136.258074
 20
168.141631
 30
0.0
 11
-137.258074
 21
167.141631
 31
0.0
  0
LINE
  5
378
100
AcDbEntity
  8
2
370
    50
100
AcDbLine
 10
-135.258074
 20
168.641631
 30
0.0
 11
-135.258074
 21
186.641631
 31
0.0
  0
ARC
  5
379
100
AcDbEntity
  8
2
370
    50
100
AcDbCircle
 10
-155.858074
 20
173.441631
 30
0.0
 40
15.0
100
AcDbArc
 50
90.0
 51
180.0
  0
ARC
  5
37A
100
AcDbEntity
  8
2
370
    50
100
AcDbCircle
 10
-148.158074
 20
165.341631
 30
0.0
 40
1.5
100
AcDbArc
 50
90.0
 51
180.0
  0
LINE
  5
37B
100
AcDbEntity
  8
2
370
    50
100
AcDbLine
 10
-136.258074
 20
186.641631
 30
0.0
 11
-135.258074
 21
186.641631
 31
0.0
  0
LINE
  5
37C
100
AcDbEntity
  8
2
370
    50
100
AcDbLine
 10
-136.258074
 20
168.641631
 30
0.0
 11
-135.258074
 21
168.641631
 31
0.0
  0
LINE
  5
37D
100
AcDbEntity
  8
2
370
    50
100
AcDbLine
 10
-136.258074
 20
168.141631
 30
0.0
 11
-136.258074
 21
168.641631
 31
0.0
  0
LINE
  5
37E
100
AcDbEntity
  8
2
370
    50
100
AcDbLine
 10
-136.258074
 20
186.641631
 30
0.0
 11
-136.258074
 21
187.141631
 31
0.0
  0
LINE
  5
37F
100
AcDbEntity
  8
2
370
    50
100
AcDbLine
 10
-145.258074
 20
188.141631
 30
0.0
 11
-143.526023
 21
187.141631
 31
0.0
  0
LINE
  5
380
100
AcDbEntity
  8
2
370
    50
100
AcDbLine
 10
-145.258074
 20
167.141631
 30
0.0
 11
-143.526023
 21
168.141631
 31
0.0
  0
LINE
  5
381
100
AcDbEntity
  8
2
370
    25
100
AcDbLine
 10
-137.258074
 20
188.141631
 30
0.0
 11
-137.258074
 21
167.141631
 31
0.0
  0
LINE
  5
382
100
AcDbEntity
  8
2
370
    25
100
AcDbLine
 10
-143.526023
 20
187.141631
 30
0.0
 11
-143.526023
 21
168.141631
 31
0.0
  0
LINE
  5
383
100
AcDbEntity
  8
2
370
    50
100
AcDbLine
 10
-145.258074
 20
188.141631
 30
0.0
 11
-145.258074
 21
167.141631
 31
0.0
  0
LINE
  5
384
100
AcDbEntity
  8
2
370
    50
100
AcDbLine
 10
-136.258074
 20
186.641631
 30
0.0
 11
-136.258074
 21
168.641631
 31
0.0
  0
LINE
  5
385
100
AcDbEntity
  8
2
370
    50
100
AcDbLine
 10
268.74475
 20
-56.38172
 30
0.0
 11
268.74475
 21
-64.38172
 31
0.0
  0
LINE
  5
386
100
AcDbEntity
  8
2
370
    50
100
AcDbLine
 10
268.44475
 20
-56.38172
 30
0.0
 11
268.74475
 21
-56.38172
 31
0.0
  0
LINE
  5
387
100
AcDbEntity
  8
2
370
    25
100
AcDbLine
 10
269.74475
 20
-58.113771
 30
0.0
 11
269.74475
 21
-65.38172
 31
0.0
  0
LINE
  5
388
100
AcDbEntity
  8
2
370
    50
100
AcDbLine
 10
261.403353
 20
-30.78172
 30
0.0
 11
275.04475
 21
-30.78172
 31
0.0
  0
LINE
  5
389
100
AcDbEntity
  8
2
370
    50
100
AcDbLine
 10
261.403353
 20
-51.98172
 30
0.0
 11
266.94475
 21
-51.98172
 31
0.0
  0
LINE
  5
38A
100
AcDbEntity
  8
2
370
    50
100
AcDbLine
 10
268.44475
 20
-53.48172
 30
0.0
 11
268.44475
 21
-56.38172
 31
0.0
  0
LINE
  5
38B
100
AcDbEntity
  8
2
370
    50
100
AcDbLine
 10
269.74475
 20
-65.38172
 30
0.0
 11
268.74475
 21
-64.38172
 31
0.0
  0
LINE
  5
38C
100
AcDbEntity
  8
2
370
    50
100
AcDbLine
 10
270.24475
 20
-66.38172
 30
0.0
 11
277.103206
 21
-66.38172
 31
0.0
  0
ARC
  5
38D
100
AcDbEntity
  8
2
370
    50
100
AcDbCircle
 10
275.04475
 20
-45.78172
 30
0.0
 40
15.0
100
AcDbArc
 50
63.220141
 51
90.0
  0
ARC
  5
38E
100
AcDbEntity
  8
2
370
    50
100
AcDbCircle
 10
266.94475
 20
-53.48172
 30
0.0
 40
1.5
100
AcDbArc
 50
0.0
 51
90.0
  0
LINE
  5
38F
100
AcDbEntity
  8
2
370
    50
100
AcDbLine
 10
270.24475
 20
-65.38172
 30
0.0
 11
270.24475
 21
-66.38172
 31
0.0
  0
LINE
  5
390
100
AcDbEntity
  8
2
370
    50
100
AcDbLine
 10
269.74475
 20
-65.38172
 30
0.0
 11
270.24475
 21
-65.38172
 31
0.0
  0
LINE
  5
391
100
AcDbEntity
  8
2
370
    50
100
AcDbLine
 10
268.74475
 20
-56.38172
 30
0.0
 11
269.74475
 21
-58.113771
 31
0.0
  0
LINE
  5
392
100
AcDbEntity
  8
2
370
    25
100
AcDbLine
 10
277.103206
 20
-64.38172
 30
0.0
 11
268.74475
 21
-64.38172
 31
0.0
  0
LINE
  5
393
100
AcDbEntity
  8
2
370
    25
100
AcDbLine
 10
277.103206
 20
-58.113771
 30
0.0
 11
269.74475
 21
-58.113771
 31
0.0
  0
LINE
  5
394
100
AcDbEntity
  8
2
370
    50
100
AcDbLine
 10
277.103206
 20
-56.38172
 30
0.0
 11
268.74475
 21
-56.38172
 31
0.0
  0
LINE
  5
395
100
AcDbEntity
  8
2
370
    50
100
AcDbLine
 10
277.103206
 20
-65.38172
 30
0.0
 11
270.24475
 21
-65.38172
 31
0.0
  0
POINT
  5
396
100
AcDbEntity
  8
2
370
    50
100
AcDbPoint
 10
261.403353
 20
-41.38172
 30
0.0
  0
LINE
  5
397
100
AcDbEntity
  8
2
370
    25
  6
CENTER
100
AcDbLine
 10
-160.258074
 20
20.658133
 30
0.0
 11
-160.258074
 21
197.188509
 31
0.0
  0
POINT
  5
398
100
AcDbEntity
  8
2
370
    50
100
AcDbPoint
 10
230.402954
 20
-108.732748
 30
0.0
  0
LINE
  5
399
100
AcDbEntity
  8
2
370
    50
100
AcDbLine
 10
243.402954
 20
-64.232748
 30
0.0
 11
243.402954
 21
-65.732935
 31
0.0
  0
LINE
  5
39A
100
AcDbEntity
  8
2
370
    50
100
AcDbLine
 10
217.402954
 20
-64.232748
 30
0.0
 11
217.402954
 21
-65.732935
 31
0.0
  0
POINT
  5
39B
100
AcDbEntity
  8
2
370
    50
100
AcDbPoint
 10
230.402954
 20
-66.232748
 30
0.0
  0
ARC
  5
39C
100
AcDbEntity
  8
2
370
    25
100
AcDbCircle
 10
72.402954
 20
-117.653911
 30
0.0
 40
7.578254
100
AcDbArc
 50
219.737283
 51
252.332056
  0
ARC
  5
39D
100
AcDbEntity
  8
2
370
    25
100
AcDbCircle
 10
48.402954
 20
-117.653911
 30
0.0
 40
7.578254
100
AcDbArc
 50
281.13592
 51
320.262717
  0
LINE
  5
39E
100
AcDbEntity
  8
2
370
    25
100
AcDbLine
 10
54.441954
 20
-122.232164
 30
0.0
 11
66.363954
 21
-122.232164
 31
0.0
  0
ARC
  5
39F
100
AcDbEntity
  8
2
370
    25
100
AcDbCircle
 10
80.402954
 20
-120.732164
 30
0.0
 40
25.961
100
AcDbArc
 50
90.0
 51
180.0
  0
LINE
  5
3A0
100
AcDbEntity
  8
2
370
    25
100
AcDbLine
 10
80.402954
 20
-94.771164
 30
0.0
 11
104.402954
 21
-94.771164
 31
0.0
  0
LINE
  5
3A1
100
AcDbEntity
  8
2
370
    25
100
AcDbLine
 10
104.402954
 20
-106.693606
 30
0.0
 11
80.291628
 21
-106.693606
 31
0.0
  0
ARC
  5
3A2
100
AcDbEntity
  8
2
370
    25
100
AcDbCircle
 10
80.402954
 20
-120.732164
 30
0.0
 40
14.039
100
AcDbArc
 50
90.0
 51
180.0
  0
LINE
  5
3A3
100
AcDbEntity
  8
2
370
    25
100
AcDbLine
 10
54.441954
 20
-120.732164
 30
0.0
 11
54.441954
 21
-122.232164
 31
0.0
  0
LINE
  5
3A4
100
AcDbEntity
  8
2
370
    50
100
AcDbLine
 10
108.402954
 20
-92.782164
 30
0.0
 11
210.402954
 21
-92.782164
 31
0.0
  0
LINE
  5
3A5
100
AcDbEntity
  8
2
370
    50
100
AcDbLine
 10
108.402954
 20
-108.682164
 30
0.0
 11
210.402954
 21
-108.682164
 31
0.0
  0
LINE
  5
3A6
100
AcDbEntity
  8
2
370
    50
100
AcDbLine
 10
72.402954
 20
-120.732164
 30
0.0
 11
72.402954
 21
-124.732164
 31
0.0
  0
ARC
  5
3A7
100
AcDbEntity
  8
2
370
    50
100
AcDbCircle
 10
71.652954
 20
-125.732164
 30
0.0
 40
0.5
100
AcDbArc
 50
90.0
 51
180.0
  0
LINE
  5
3A8
100
AcDbEntity
  8
2
370
    50
100
AcDbLine
 10
108.402954
 20
-89.732164
 30
0.0
 11
108.402954
 21
-111.732164
 31
0.0
  0
LINE
  5
3A9
100
AcDbEntity
  8
2
370
    50
100
AcDbLine
 10
80.402954
 20
-112.732164
 30
0.0
 11
104.402954
 21
-112.732164
 31
0.0
  0
ARC
  5
3AA
100
AcDbEntity
  8
2
370
    50
100
AcDbCircle
 10
80.402954
 20
-120.732164
 30
0.0
 40
8.0
100
AcDbArc
 50
90.0
 51
180.0
  0
ARC
  5
3AB
100
AcDbEntity
  8
2
370
    50
100
AcDbCircle
 10
71.902954
 20
-124.732164
 30
0.0
 40
0.5
100
AcDbArc
 50
270.0
 51
360.0
  0
LINE
  5
3AC
100
AcDbEntity
  8
2
370
    50
100
AcDbLine
 10
71.152954
 20
-125.732164
 30
0.0
 11
71.152954
 21
-125.832164
 31
0.0
  0
ARC
  5
3AD
100
AcDbEntity
  8
2
370
    50
100
AcDbCircle
 10
104.402954
 20
-104.232164
 30
0.0
 40
8.5
100
AcDbArc
 50
270.0
 51
298.072487
  0
LINE
  5
3AE
100
AcDbEntity
  8
2
370
    50
100
AcDbLine
 10
80.402954
 20
-88.732164
 30
0.0
 11
104.402954
 21
-88.732164
 31
0.0
  0
ARC
  5
3AF
100
AcDbEntity
  8
2
370
    50
100
AcDbCircle
 10
80.402954
 20
-120.732164
 30
0.0
 40
32.0
100
AcDbArc
 50
90.0
 51
180.0
  0
LINE
  5
3B0
100
AcDbEntity
  8
2
370
    50
100
AcDbLine
 10
48.402954
 20
-120.732164
 30
0.0
 11
48.402954
 21
-124.732164
 31
0.0
  0
ARC
  5
3B1
100
AcDbEntity
  8
2
370
    50
100
AcDbCircle
 10
48.902954
 20
-124.732164
 30
0.0
 40
0.5
100
AcDbArc
 50
180.0
 51
270.0
  0
LINE
  5
3B2
100
AcDbEntity
  8
2
370
    50
100
AcDbLine
 10
48.902954
 20
-125.232164
 30
0.0
 11
71.902954
 21
-125.232164
 31
0.0
  0
LINE
  5
3B3
100
AcDbEntity
  8
2
370
    50
100
AcDbLine
 10
49.652954
 20
-125.732164
 30
0.0
 11
49.652954
 21
-125.832164
 31
0.0
  0
ARC
  5
3B4
100
AcDbEntity
  8
2
370
    50
100
AcDbCircle
 10
49.152954
 20
-125.732164
 30
0.0
 40
0.5
100
AcDbArc
 50
0.0
 51
90.0
  0
ARC
  5
3B5
100
AcDbEntity
  8
2
370
    50
100
AcDbCircle
 10
104.402954
 20
-97.232164
 30
0.0
 40
8.5
100
AcDbArc
 50
61.927513
 51
90.0
  0
LINE
  5
3B6
100
AcDbEntity
  8
2
370
    50
100
AcDbLine
 10
50.079987
 20
-137.332164
 30
0.0
 11
70.725921
 21
-137.332164
 31
0.0
  0
LINE
  5
3B7
100
AcDbEntity
  8
2
370
    50
100
AcDbLine
 10
48.402954
 20
-126.032164
 30
0.0
 11
48.402954
 21
-134.832164
 31
0.0
  0
LINE
  5
3B8
100
AcDbEntity
  8
2
370
    50
100
AcDbLine
 10
72.402954
 20
-126.032164
 30
0.0
 11
72.402954
 21
-134.832164
 31
0.0
  0
LINE
  5
3B9
100
AcDbEntity
  8
2
370
    50
100
AcDbLine
 10
72.402954
 20
-126.032164
 30
0.0
 11
72.202954
 21
-125.832164
 31
0.0
  0
LINE
  5
3BA
100
AcDbEntity
  8
2
370
    50
100
AcDbLine
 10
48.402954
 20
-126.032164
 30
0.0
 11
48.602954
 21
-125.832164
 31
0.0
  0
LINE
  5
3BB
100
AcDbEntity
  8
2
370
    50
100
AcDbLine
 10
48.602954
 20
-125.832164
 30
0.0
 11
72.202954
 21
-125.832164
 31
0.0
  0
LINE
  5
3BC
100
AcDbEntity
  8
2
370
    50
100
AcDbLine
 10
72.402954
 20
-134.832164
 30
0.0
 11
71.654398
 21
-136.703555
 31
0.0
  0
LINE
  5
3BD
100
AcDbEntity
  8
2
370
    50
100
AcDbLine
 10
48.402954
 20
-134.832164
 30
0.0
 11
49.15151
 21
-136.703555
 31
0.0
  0
ARC
  5
3BE
100
AcDbEntity
  8
2
370
    50
100
AcDbCircle
 10
50.079987
 20
-136.332164
 30
0.0
 40
1.0
100
AcDbArc
 50
201.801409
 51
270.0
  0
ARC
  5
3BF
100
AcDbEntity
  8
2
370
    50
100
AcDbCircle
 10
70.725921
 20
-136.332164
 30
0.0
 40
1.0
100
AcDbArc
 50
270.0
 51
338.198591
  0
POINT
  5
3C0
100
AcDbEntity
  8
2
370
    50
100
AcDbPoint
 10
230.402954
 20
-66.232748
 30
0.0
  0
LINE
  5
3C1
100
AcDbEntity
  8
2
370
    25
100
AcDbLine
 10
71.281512
 20
-134.832164
 30
0.0
 11
49.394471
 21
-134.832164
 31
0.0
  0
POINT
  5
3C2
100
AcDbEntity
  8
2
370
    50
100
AcDbPoint
 10
60.402954
 20
-137.332164
 30
0.0
  0
LINE
  5
3C3
100
AcDbEntity
  8
2
370
    50
100
AcDbLine
 10
222.452954
 20
-80.732164
 30
0.0
 11
222.452954
 21
-75.732935
 31
0.0
  0
LINE
  5
3C4
100
AcDbEntity
  8
2
370
    50
100
AcDbLine
 10
238.352954
 20
-80.732164
 30
0.0
 11
238.352954
 21
-75.732935
 31
0.0
  0
ARC
  5
3C5
100
AcDbEntity
  8
2
370
    50
100
AcDbCircle
 10
210.402954
 20
-80.732164
 30
0.0
 40
12.05
100
AcDbArc
 50
270.0
 51
0.0
  0
ARC
  5
3C6
100
AcDbEntity
  8
2
370
    50
100
AcDbCircle
 10
210.402954
 20
-80.732164
 30
0.0
 40
27.95
100
AcDbArc
 50
270.0
 51
0.0
  0
LINE
  5
3C7
100
AcDbEntity
  8
2
370
    50
100
AcDbLine
 10
240.677954
 20
-75.732935
 30
0.0
 11
220.127954
 21
-75.732935
 31
0.0
  0
LINE
  5
3C8
100
AcDbEntity
  8
2
370
    50
100
AcDbLine
 10
243.978567
 20
-65.732935
 30
0.0
 11
216.827341
 21
-65.732935
 31
0.0
  0
ARC
  5
3C9
100
AcDbEntity
  8
2
370
    50
100
AcDbCircle
 10
220.127954
 20
-70.732935
 30
0.0
 40
5.0
100
AcDbArc
 50
180.0
 51
270.0
  0
ARC
  5
3CA
100
AcDbEntity
  8
2
370
    50
100
AcDbCircle
 10
223.33324
 20
-70.732935
 30
0.0
 40
8.205286
100
AcDbArc
 50
142.456522
 51
180.0
  0
ELLIPSE
  5
3CB
100
AcDbEntity
  8
2
370
    50
100
AcDbEllipse
 10
230.402954
 20
-70.20413
 30
0.0
 11
-6.10947
 21
0.0
 31
0.0
210
0.0
220
0.0
230
1.0
 40
0.632482
 41
0.0
 42
6.2831849999999996
  0
ELLIPSE
  5
3CC
100
AcDbEntity
  8
2
370
    50
100
AcDbEllipse
 10
218.278598
 20
-70.20413
 30
0.0
 11
0.0
 21
-3.8641269999999999
 31
0.0
210
0.0
220
0.0
230
1.0
 40
0.790537
 41
0.0
 42
6.2831849999999996
  0
ELLIPSE
  5
3CD
100
AcDbEntity
  8
2
370
    50
100
AcDbEllipse
 10
242.52731
 20
-70.20413
 30
0.0
 11
0.0
 21
3.8641269999999999
 31
0.0
210
0.0
220
0.0
230
1.0
 40
0.790537
 41
0.0
 42
6.2831849999999996
  0
ARC
  5
3CE
100
AcDbEntity
  8
2
370
    50
100
AcDbCircle
 10
240.677954
 20
-70.732935
 30
0.0
 40
5.0
100
AcDbArc
 50
270.0
 51
0.0
  0
ARC
  5
3CF
100
AcDbEntity
  8
2
370
    50
100
AcDbCircle
 10
237.472668
 20
-70.732935
 30
0.0
 40
8.205286
100
AcDbArc
 50
0.0
 51
37.543478
  0
LINE
  5
3D0
100
AcDbEntity
  8
2
370
    50
100
AcDbLine
 10
-170.890778
 20
-251.922335
 30
0.0
 11
-149.625369
 21
-251.922335
 31
0.0
  0
LINE
  5
3D1
100
AcDbEntity
  8
2
370
    50
100
AcDbLine
 10
-172.258074
 20
-240.622335
 30
0.0
 11
-172.258074
 21
-248.422335
 31
0.0
  0
LINE
  5
3D2
100
AcDbEntity
  8
2
370
    50
100
AcDbLine
 10
-148.258074
 20
-240.622335
 30
0.0
 11
-148.258074
 21
-248.422335
 31
0.0
  0
LINE
  5
3D3
100
AcDbEntity
  8
2
370
    50
100
AcDbLine
 10
-148.258074
 20
-248.422335
 30
0.0
 11
-148.63542
 21
-251.063756
 31
0.0
  0
LINE
  5
3D4
100
AcDbEntity
  8
2
370
    50
100
AcDbLine
 10
-172.258074
 20
-248.422335
 30
0.0
 11
-171.880728
 21
-251.063756
 31
0.0
  0
ARC
  5
3D5
100
AcDbEntity
  8
2
370
    50
100
AcDbCircle
 10
-149.625369
 20
-250.922335
 30
0.0
 40
1.0
100
AcDbArc
 50
270.0
 51
351.869898
  0
ARC
  5
3D6
100
AcDbEntity
  8
2
370
    50
100
AcDbCircle
 10
-170.890778
 20
-250.922335
 30
0.0
 40
1.0
100
AcDbArc
 50
188.130102
 51
270.0
  0
LINE
  5
3D7
100
AcDbEntity
  8
2
370
    25
100
AcDbLine
 10
-171.691789
 20
-248.422335
 30
0.0
 11
-149.089617
 21
-248.422335
 31
0.0
  0
LINE
  5
3D8
100
AcDbEntity
  8
2
370
    50
100
AcDbLine
 10
-152.358074
 20
-190.822919
 30
0.0
 11
-152.358074
 21
-205.571257
 31
0.0
  0
LINE
  5
3D9
100
AcDbEntity
  8
2
370
    50
100
AcDbLine
 10
-168.158074
 20
-190.822919
 30
0.0
 11
-168.158074
 21
-205.571257
 31
0.0
  0
LINE
  5
3DA
100
AcDbEntity
  8
2
370
    50
100
AcDbLine
 10
-172.058074
 20
-240.422335
 30
0.0
 11
-148.458074
 21
-240.422335
 31
0.0
  0
LINE
  5
3DB
100
AcDbEntity
  8
2
370
    50
100
AcDbLine
 10
-148.458074
 20
-240.422335
 30
0.0
 11
-148.258074
 21
-240.622335
 31
0.0
  0
LINE
  5
3DC
100
AcDbEntity
  8
2
370
    50
100
AcDbLine
 10
-172.058074
 20
-240.422335
 30
0.0
 11
-172.258074
 21
-240.622335
 31
0.0
  0
ARC
  5
3DD
100
AcDbEntity
  8
2
370
    50
100
AcDbCircle
 10
-148.008074
 20
-215.322335
 30
0.0
 40
25.0
100
AcDbArc
 50
166.204472
 51
180.0
  0
ARC
  5
3DE
100
AcDbEntity
  8
2
370
    50
100
AcDbCircle
 10
-160.258074
 20
-218.322335
 30
0.0
 40
15.0
100
AcDbArc
 50
36.686015
 51
143.313985
  0
ARC
  5
3DF
100
AcDbEntity
  8
2
370
    50
100
AcDbCircle
 10
-172.508074
 20
-215.322335
 30
0.0
 40
25.0
100
AcDbArc
 50
0.0
 51
13.795528
  0
LINE
  5
3E0
100
AcDbEntity
  8
2
370
    50
100
AcDbLine
 10
-147.508074
 20
-215.322335
 30
0.0
 11
-147.508074
 21
-236.822335
 31
0.0
  0
LINE
  5
3E1
100
AcDbEntity
  8
2
370
    50
100
AcDbLine
 10
-173.008074
 20
-215.322335
 30
0.0
 11
-173.008074
 21
-236.822335
 31
0.0
  0
LINE
  5
3E2
100
AcDbEntity
  8
2
370
    25
100
AcDbLine
 10
-172.258074
 20
-236.822335
 30
0.0
 11
-172.258074
 21
-209.322335
 31
0.0
  0
LINE
  5
3E3
100
AcDbEntity
  8
2
370
    50
100
AcDbLine
 10
-173.008074
 20
-236.822335
 30
0.0
 11
-172.352757
 21
-239.443603
 31
0.0
  0
LINE
  5
3E4
100
AcDbEntity
  8
2
370
    50
100
AcDbLine
 10
-147.508074
 20
-236.822335
 30
0.0
 11
-148.163391
 21
-239.443603
 31
0.0
  0
LINE
  5
3E5
100
AcDbEntity
  8
2
370
    25
100
AcDbLine
 10
-148.258074
 20
-236.822335
 30
0.0
 11
-148.258074
 21
-209.322335
 31
0.0
  0
LINE
  5
3E6
100
AcDbEntity
  8
2
370
    50
100
AcDbLine
 10
-149.508074
 20
-240.422335
 30
0.0
 11
-149.508074
 21
-239.822335
 31
0.0
  0
LINE
  5
3E7
100
AcDbEntity
  8
2
370
    50
100
AcDbLine
 10
-171.008074
 20
-240.422335
 30
0.0
 11
-171.008074
 21
-239.822335
 31
0.0
  0
LINE
  5
3E8
100
AcDbEntity
  8
2
370
    50
100
AcDbLine
 10
-148.648462
 20
-239.822335
 30
0.0
 11
-171.867685
 21
-239.822335
 31
0.0
  0
ARC
  5
3E9
100
AcDbEntity
  8
2
370
    50
100
AcDbCircle
 10
-171.867685
 20
-239.322335
 30
0.0
 40
0.5
100
AcDbArc
 50
194.036243
 51
270.0
  0
ARC
  5
3EA
100
AcDbEntity
  8
2
370
    50
100
AcDbCircle
 10
-148.648462
 20
-239.322335
 30
0.0
 40
0.5
100
AcDbArc
 50
270.0
 51
345.963757
  0
POINT
  5
3EB
100
AcDbEntity
  8
2
370
    50
100
AcDbPoint
 10
-280.466226
 20
8.592082
 30
0.0
  0
LINE
  5
3EC
100
AcDbEntity
  8
2
370
    50
100
AcDbLine
 10
-289.481634
 20
17.607897
 30
0.0
 11
-258.368935
 21
48.720596
 31
0.0
  0
LINE
  5
3ED
100
AcDbEntity
  8
2
370
    50
100
AcDbLine
 10
-271.450411
 20
-0.423325
 30
0.0
 11
-240.337713
 21
30.689373
 31
0.0
  0
LINE
  5
3EE
100
AcDbEntity
  8
2
370
    50
100
AcDbLine
 10
-254.833402
 20
50.841916
 30
0.0
 11
-238.216392
 21
34.224907
 31
0.0
  0
ARC
  5
3EF
100
AcDbEntity
  8
2
370
    50
100
AcDbCircle
 10
-278.344702
 20
10.713606
 30
0.0
 40
15.0
100
AcDbArc
 50
171.686015
 51
278.313985
  0
ARC
  5
3F0
100
AcDbEntity
  8
2
370
    50
100
AcDbCircle
 10
-271.803964
 20
-0.069772
 30
0.0
 40
25.0
100
AcDbArc
 50
135.0
 51
148.795528
  0
ARC
  5
3F1
100
AcDbEntity
  8
2
370
    50
100
AcDbCircle
 10
-289.12808
 20
17.254344
 30
0.0
 40
25.0
100
AcDbArc
 50
301.204472
 51
315.0
  0
LINE
  5
3F2
100
AcDbEntity
  8
2
370
    25
100
AcDbLine
 10
-291.673128
 20
14.355743
 30
0.0
 11
-257.838605
 21
48.190266
 31
0.0
  0
LINE
  5
3F3
100
AcDbEntity
  8
2
370
    25
100
AcDbLine
 10
-274.583483
 20
-2.495738
 30
0.0
 11
-240.868043
 21
31.219703
 31
0.0
  0
ARC
  5
3F4
100
AcDbEntity
  8
2
370
    50
100
AcDbCircle
 10
-252.358528
 20
42.710188
 30
0.0
 40
8.5
100
AcDbArc
 50
106.927513
 51
135.0
  0
ARC
  5
3F5
100
AcDbEntity
  8
2
370
    50
100
AcDbCircle
 10
-246.34812
 20
36.699781
 30
0.0
 40
8.5
100
AcDbArc
 50
315.0
 51
343.072487
  0
LINE
  5
3F6
100
AcDbEntity
  8
2
370
    50
100
AcDbLine
 10
-252.146396
 20
48.15491
 30
0.0
 11
-186.675397
 21
113.625909
 31
0.0
  0
LINE
  5
3F7
100
AcDbEntity
  8
2
370
    50
100
AcDbLine
 10
-240.903398
 20
36.911913
 30
0.0
 11
-193.633627
 21
84.181684
 31
0.0
  0
POINT
  5
3F8
100
AcDbEntity
  8
3
370
    50
100
AcDbPoint
 10
394.982385
 20
48.028119
 30
0.0
  0
TEXT
  5
3F9
100
AcDbEntity
  8
3
370
    50
100
AcDbText
 10
290.832582
 20
-240.013492
 30
0.0
 40
6.0
  1
１　２
 72
     5
 11
307.632582
 21
-240.013492
 31
0.0
100
AcDbText
  0
TEXT
  5
3FA
100
AcDbEntity
  8
3
370
    50
100
AcDbText
 10
136.599862
 20
112.661096
 30
0.0
 40
7.0
  1
止水
 72
     5
 11
149.199862
 21
112.661096
 31
0.0
100
AcDbText
  0
TEXT
  5
3FB
100
AcDbEntity
  8
3
370
    50
100
AcDbText
 10
173.630036
 20
146.179188
 30
0.0
 40
7.0
  1
吐水
 72
     5
 11
186.230036
 21
146.179188
 31
0.0
100
AcDbText
  0
TEXT
  5
3FC
100
AcDbEntity
  8
3
370
    50
100
AcDbText
 10
21.639064
 20
64.303816
 30
0.0
 40
7.0
  1
１４６
 50
90.0
 72
     5
 11
21.639064
 21
83.903816
 31
0.0
100
AcDbText
  0
DIMENSION
  5
3FD
100
AcDbEntity
  8
3
370
    25
100
AcDbDimension
  2
*D0
 10
22.639064
 20
147.640067
 30
0.0
 11
20.139064
 21
74.803816
 31
0.0
 71
     0
 72
     0
 41
0.0
 42
0.0
  3
Standard
100
AcDbAlignedDimension
 13
205.093704
 23
1.967566
 33
0.0
 14
167.242362
 24
147.640067
 34
0.0
 50
90.0
100
AcDbRotatedDimension
  0
DIMENSION
  5
3FE
100
AcDbEntity
  8
3
370
    25
100
AcDbDimension
  2
*D1
 10
132.980325
 20
111.468235
 30
0.0
 11
125.797827
 21
148.608222
 31
0.0
 70
     2
 71
     0
 72
     0
 41
0.0
 42
0.0
  3
Standard
100
AcDb2LineAngularDimension
 13
198.678462
 23
132.981173
 33
0.0
 14
244.813107
 24
111.468235
 34
0.0
 15
244.813107
 25
111.468235
 35
0.0
 16
123.525211
 26
138.357114
 36
0.0
1001
ACAD
1000
DSTYLE
1002
{
1070
   275
1070
     0
1070
   179
1070
     0
1002
}
  0
LINE
  5
3FF
100
AcDbEntity
  8
3
370
    25
  6
CENTER
100
AcDbLine
 10
-227.795739
 20
-23.527102
 30
0.0
 11
-227.795739
 21
-33.479604
 31
0.0
  0
LINE
  5
400
100
AcDbEntity
  8
3
370
    25
  6
CENTER
100
AcDbLine
 10
-233.339023
 20
-29.105997
 30
0.0
 11
-222.470171
 21
-29.105997
 31
0.0
  0
ARC
  5
401
100
AcDbEntity
  8
3
370
    50
100
AcDbCircle
 10
-227.795739
 20
-29.105997
 30
0.0
 40
4.8951
100
AcDbArc
 50
305.281262
 51
234.718738
  0
LINE
  5
402
100
AcDbEntity
  8
3
370
    50
100
AcDbLine
 10
-230.623103
 20
-33.101997
 30
0.0
 11
-224.968375
 21
-33.101997
 31
0.0
  0
LINE
  5
403
100
AcDbEntity
  8
3
370
    50
100
AcDbLine
 10
-229.243132
 20
-27.364221
 30
0.0
 11
-231.835867
 21
-28.845784
 31
0.0
  0
ARC
  5
404
100
AcDbEntity
  8
3
370
    50
100
AcDbCircle
 10
-229.094439
 20
-27.624434
 30
0.0
 40
0.2997
100
AcDbArc
 50
0.0
 51
119.744881
  0
LINE
  5
405
100
AcDbEntity
  8
3
370
    50
100
AcDbLine
 10
-228.794739
 20
-27.624434
 30
0.0
 11
-228.794739
 21
-30.58756
 31
0.0
  0
ARC
  5
406
100
AcDbEntity
  8
3
370
    50
100
AcDbCircle
 10
-229.094439
 20
-30.58756
 30
0.0
 40
0.2997
100
AcDbArc
 50
240.255119
 51
360.0
  0
LINE
  5
407
100
AcDbEntity
  8
3
370
    50
100
AcDbLine
 10
-229.243132
 20
-30.847772
 30
0.0
 11
-231.835867
 21
-29.366209
 31
0.0
  0
ARC
  5
408
100
AcDbEntity
  8
3
370
    50
100
AcDbCircle
 10
-231.687174
 20
-29.105997
 30
0.0
 40
0.2997
100
AcDbArc
 50
119.744881
 51
240.255119
  0
ARC
  5
409
100
AcDbEntity
  8
3
370
    50
100
AcDbCircle
 10
-226.497039
 20
-27.624434
 30
0.0
 40
0.2997
100
AcDbArc
 50
60.255119
 51
180.0
  0
LINE
  5
40A
100
AcDbEntity
  8
3
370
    50
100
AcDbLine
 10
-226.796739
 20
-27.624434
 30
0.0
 11
-226.796739
 21
-30.58756
 31
0.0
  0
LINE
  5
40B
100
AcDbEntity
  8
3
370
    50
100
AcDbLine
 10
-226.348346
 20
-27.364221
 30
0.0
 11
-223.755611
 21
-28.845784
 31
0.0
  0
ARC
  5
40C
100
AcDbEntity
  8
3
370
    50
100
AcDbCircle
 10
-223.904303
 20
-29.105997
 30
0.0
 40
0.2997
100
AcDbArc
 50
299.744881
 51
60.255119
  0
LINE
  5
40D
100
AcDbEntity
  8
3
370
    50
100
AcDbLine
 10
-226.348346
 20
-30.847772
 30
0.0
 11
-223.755611
 21
-29.366209
 31
0.0
  0
ARC
  5
40E
100
AcDbEntity
  8
3
370
    50
100
AcDbCircle
 10
-226.497039
 20
-30.58756
 30
0.0
 40
0.2997
100
AcDbArc
 50
180.0
 51
299.744881
  0
LWPOLYLINE
  5
40F
100
AcDbEntity
  8
3
370
    25
100
AcDbPolyline
 90
        3
 70
     0
 10
-225.83639
 20
-28.49536
 10
-220.352961
 20
-20.060218
 10
-185.743769
 20
-20.060218
  0
LWPOLYLINE
  5
414
100
AcDbEntity
  8
3
370
    25
100
AcDbPolyline
 90
        3
 70
     0
 10
-229.755087
 20
-28.49536
 10
-235.238516
 20
-20.060218
 10
-269.11526
 20
-20.060218
  0
TEXT
  5
419
100
AcDbEntity
  8
3
370
    50
100
AcDbText
 10
-218.703669
 20
-19.355071
 30
0.0
 40
7.0
  1
青色
 72
     5
 11
-206.103669
 21
-19.355071
 31
0.0
100
AcDbText
  0
TEXT
  5
41A
100
AcDbEntity
  8
3
370
    50
100
AcDbText
 10
-218.703669
 20
-27.355071
 30
0.0
 40
7.0
  1
（水表示）
 72
     5
 11
-185.103669
 21
-27.355071
 31
0.0
100
AcDbText
  0
TEXT
  5
41B
100
AcDbEntity
  8
3
370
    50
100
AcDbText
 10
-269.3063
 20
-27.441329
 30
0.0
 40
7.0
  1
（湯表示）
 72
     5
 11
-235.7063
 21
-27.441329
 31
0.0
100
AcDbText
  0
TEXT
  5
41C
100
AcDbEntity
  8
3
370
    50
100
AcDbText
 10
-250.3063
 20
-19.441329
 30
0.0
 40
7.0
  1
赤色
 72
     5
 11
-237.7063
 21
-19.441329
 31
0.0
100
AcDbText
  0
LWPOLYLINE
  5
41D
100
AcDbEntity
  8
3
370
    25
100
AcDbPolyline
 90
        2
 70
     0
 10
-164.176424
 20
-49.785648
 10
-224.890223
 20
-31.768371
  0
POINT
  5
421
100
AcDbEntity
  8
3
370
    50
100
AcDbPoint
 10
-95.25924
 20
191.20053
 30
0.0
  0
TEXT
  5
422
100
AcDbEntity
  8
3
370
    50
100
AcDbText
 10
233.753326
 20
-272.129395
 30
0.0
 40
6.0
  1
外観寸法図
 72
     5
 11
262.553326
 21
-272.129395
 31
0.0
100
AcDbText
  0
TEXT
  5
423
100
AcDbEntity
  8
3
370
    50
100
AcDbText
 10
-142.401952
 20
-170.024758
 30
0.0
 40
7.0
  1
パイプ吐水
 72
     5
 11
-108.801952
 21
-170.024758
 31
0.0
100
AcDbText
  0
TEXT
  5
424
100
AcDbEntity
  8
3
370
    50
100
AcDbText
 10
-220.401952
 20
-170.024758
 30
0.0
 40
7.0
  1
シャワー吐水
 72
     5
 11
-179.801952
 21
-170.024758
 31
0.0
100
AcDbText
  0
POINT
  5
425
100
AcDbEntity
  8
3
370
    50
100
AcDbPoint
 10
207.402629
 20
-42.231703
 30
0.0
  0
POINT
  5
426
100
AcDbEntity
  8
3
370
    50
100
AcDbPoint
 10
171.202629
 20
-42.231703
 30
0.0
  0
DIMENSION
  5
427
100
AcDbEntity
  8
3
370
    25
100
AcDbDimension
  2
*D2
 10
22.639064
 20
1.968732
 30
0.0
 11
14.639064
 21
-20.131486
 31
0.0
 71
     0
 72
     0
 41
0.0
 42
0.0
  3
Standard
100
AcDbAlignedDimension
 13
171.202629
 23
-42.231703
 33
0.0
 14
206.051443
 24
1.968732
 34
0.0
 50
90.0
100
AcDbRotatedDimension
  0
DIMENSION
  5
428
100
AcDbEntity
  8
3
370
    25
100
AcDbDimension
  2
*D3
 10
53.383286
 20
111.468235
 30
0.0
 11
41.883286
 21
53.218483
 31
0.0
 71
     0
 72
     0
 41
0.0
 42
0.0
  3
Standard
100
AcDbAlignedDimension
 13
205.647019
 23
1.968732
 33
0.0
 14
130.402954
 24
111.468235
 34
0.0
 50
90.0
100
AcDbRotatedDimension
  0
DIMENSION
  5
429
100
AcDbEntity
  8
3
370
    25
100
AcDbDimension
  2
*D4
 10
-110.258481
 20
256.536966
 30
0.0
 11
-160.258074
 21
261.036966
 31
0.0
 71
     0
 72
     0
 41
0.0
 42
0.0
  3
Standard
100
AcDbAlignedDimension
 13
-210.257667
 23
165.700279
 33
0.0
 14
-110.258481
 24
165.700279
 34
0.0
100
AcDbRotatedDimension
  0
TEXT
  5
42A
100
AcDbEntity
  8
3
370
    50
100
AcDbText
 10
-342.877428
 20
233.126415
 30
0.0
 40
7.0
  1
ＰＪ１／２
 72
     5
 11
-309.277428
 21
233.126415
 31
0.0
100
AcDbText
  0
LWPOLYLINE
  5
42B
100
AcDbEntity
  8
3
370
    25
100
AcDbPolyline
 90
        3
 70
     0
 10
-280.735926
 20
219.81953
 10
-306.744279
 20
230.750179
 10
-343.828264
 20
230.750179
  0
LINE
  5
430
100
AcDbEntity
  8
3
370
    25
100
AcDbLine
 10
-284.297842
 20
221.316513
 30
0.0
 11
-284.698957
 21
220.3621
 31
0.0
  0
LINE
  5
431
100
AcDbEntity
  8
3
370
    25
100
AcDbLine
 10
-284.698957
 20
220.3621
 30
0.0
 11
-280.735926
 21
219.81953
 31
0.0
  0
LINE
  5
432
100
AcDbEntity
  8
3
370
    25
100
AcDbLine
 10
-280.735926
 20
219.81953
 30
0.0
 11
-283.896727
 21
222.270926
 31
0.0
  0
LINE
  5
433
100
AcDbEntity
  8
3
370
    25
100
AcDbLine
 10
-283.896727
 20
222.270926
 30
0.0
 11
-284.297842
 21
221.316513
 31
0.0
  0
POINT
  5
434
100
AcDbEntity
  8
3
370
    50
100
AcDbPoint
 10
279.831353
 20
-67.231703
 30
0.0
  0
DIMENSION
  5
435
100
AcDbEntity
  8
3
370
    25
100
AcDbDimension
  2
*D5
 10
279.831353
 20
-127.830055
 30
0.0
 11
255.117154
 21
-123.330055
 31
0.0
 71
     0
 72
     0
 41
0.0
 42
0.0
  3
Standard
100
AcDbAlignedDimension
 13
230.402954
 23
-76.232193
 33
0.0
 14
279.831353
 24
-67.231703
 34
0.0
100
AcDbRotatedDimension
  0
TEXT
  5
436
100
AcDbEntity
  8
3
370
    50
100
AcDbText
 10
259.20308
 20
-164.519012
 30
0.0
 40
7.0
  1
（８６）
 72
     5
 11
285.80308
 21
-164.519012
 31
0.0
100
AcDbText
  0
DIMENSION
  5
437
100
AcDbEntity
  8
3
370
    25
100
AcDbDimension
  2
*D6
 10
316.003206
 20
-165.519012
 30
0.0
 11
273.20308
 21
-163.519012
 31
0.0
 71
     0
 72
     0
 41
0.0
 42
0.0
  3
Standard
100
AcDbAlignedDimension
 13
230.402954
 23
-76.232193
 33
0.0
 14
316.003206
 24
-81.031675
 34
0.0
100
AcDbRotatedDimension
  0
TEXT
  5
438
100
AcDbEntity
  8
3
370
    50
100
AcDbText
 10
341.003206
 20
-164.519012
 30
0.0
 40
7.0
  1
（１７）
 72
     5
 11
367.603206
 21
-164.519012
 31
0.0
100
AcDbText
  0
DIMENSION
  5
439
100
AcDbEntity
  8
3
370
    25
100
AcDbDimension
  2
*D7
 10
333.003206
 20
-165.519012
 30
0.0
 11
324.503206
 21
-163.519012
 31
0.0
 71
     0
 72
     0
 41
0.0
 42
0.0
  3
Standard
100
AcDbAlignedDimension
 13
316.003206
 23
-81.031675
 33
0.0
 14
333.003206
 24
-67.347175
 34
0.0
100
AcDbRotatedDimension
  0
DIMENSION
  5
43A
100
AcDbEntity
  8
3
370
    25
100
AcDbDimension
  2
*D8
 10
-50.257721
 20
256.536966
 30
0.0
 11
-80.257721
 21
261.036966
 31
0.0
 71
     0
 72
     0
 41
0.0
 42
0.0
  3
Standard
100
AcDbAlignedDimension
 13
-110.257721
 23
165.700279
 33
0.0
 14
-50.257721
 24
231.792975
 34
0.0
100
AcDbRotatedDimension
  0
DIMENSION
  5
43B
100
AcDbEntity
  8
3
370
    25
100
AcDbDimension
  2
*D9
 10
-247.258426
 20
257.045512
 30
0.0
 11
-270.258426
 21
261.545512
 31
0.0
 70
     1
 71
     0
 72
     0
 41
0.0
 42
0.0
  3
Standard
100
AcDbAlignedDimension
 13
-293.258426
 23
211.90053
 33
0.0
 14
-247.258426
 24
211.90053
 34
0.0
  0
TEXT
  5
43C
100
AcDbEntity
  8
3
370
    50
100
AcDbText
 10
-198.758074
 20
-265.59903
 30
0.0
 40
7.0
  1
１８５（ＭＡＸ２２０）
 72
     5
 11
-123.158074
 21
-265.59903
 31
0.0
100
AcDbText
  0
DIMENSION
  5
43D
100
AcDbEntity
  8
3
370
    25
100
AcDbDimension
  2
*D10
 10
-67.831667
 20
-266.59903
 30
0.0
 11
-160.258074
 21
-264.59903
 31
0.0
 71
     0
 72
     0
 41
0.0
 42
0.0
  3
Standard
100
AcDbAlignedDimension
 13
-252.684481
 23
-173.548478
 33
0.0
 14
-67.831667
 24
-173.548478
 34
0.0
100
AcDbRotatedDimension
  0
TEXT
  5
43E
100
AcDbEntity
  8
3
370
    50
100
AcDbText
 10
336.982385
 20
-272.129395
 30
0.0
 40
6.0
  1
１１０２１４
 72
     5
 11
371.782385
 21
-272.129395
 31
0.0
100
AcDbText
  0
DIMENSION
  5
43F
100
AcDbEntity
  8
3
370
    25
100
AcDbDimension
  2
*D11
 10
-197.589863
 20
-156.821566
 30
0.0
 11
-160.370069
 21
-81.881977
 31
0.0
 70
     2
 71
     0
 72
     0
 41
0.0
 42
0.0
  3
Standard
100
AcDb2LineAngularDimension
 13
-123.150275
 23
-156.821566
 33
0.0
 14
-160.370069
 24
-156.821566
 34
0.0
 15
-160.370069
 25
-156.821566
 35
0.0
 16
-160.370069
 26
-119.601771
 36
0.0
1001
ACAD
1000
DSTYLE
1002
{
1070
   275
1070
     0
1070
   179
1070
     0
1002
}
  0
LWPOLYLINE
  5
440
100
AcDbEntity
  8
3
370
    25
100
AcDbPolyline
 90
        3
 70
     0
 10
268.74475
 20
-60.38172
 10
252.477203
 20
-94.038268
 10
315.16394
 20
-94.038268
  0
LINE
  5
445
100
AcDbEntity
  8
3
370
    25
100
AcDbLine
 10
267.063369
 20
-63.860392
 30
0.0
 11
267.995476
 21
-64.310917
 31
0.0
  0
LINE
  5
446
100
AcDbEntity
  8
3
370
    25
100
AcDbLine
 10
267.995476
 20
-64.310917
 30
0.0
 11
268.74475
 21
-60.38172
 31
0.0
  0
LINE
  5
447
100
AcDbEntity
  8
3
370
    25
100
AcDbLine
 10
268.74475
 20
-60.38172
 30
0.0
 11
266.131261
 21
-63.409868
 31
0.0
  0
LINE
  5
448
100
AcDbEntity
  8
3
370
    25
100
AcDbLine
 10
266.131261
 20
-63.409868
 30
0.0
 11
267.063369
 21
-63.860392
 31
0.0
  0
TEXT
  5
449
100
AcDbEntity
  8
3
370
    50
100
AcDbText
 10
284.679541
 20
-92.978781
 30
0.0
 40
7.0
  1
Ｇ１／２
 72
     5
 11
311.279541
 21
-92.978781
 31
0.0
100
AcDbText
  0
TEXT
  5
44A
100
AcDbEntity
  8
3
370
    50
100
AcDbText
 10
-174.36974
 20
-118.602118
 30
0.0
 40
7.0
  1
１８０゜
 72
     5
 11
-147.76974
 21
-118.602118
 31
0.0
100
AcDbText
  0
TEXT
  5
44B
100
AcDbEntity
  8
3
370
    50
100
AcDbText
 10
64.863625
 20
-236.598251
 30
0.0
 40
7.0
  1
ＭＢ３１７ＭＧ
 72
     5
 11
112.463625
 21
-236.598251
 31
0.0
100
AcDbText
  0
TEXT
  5
44C
100
AcDbEntity
  8
3
370
    50
100
AcDbText
 10
345.098131
 20
-256.100293
 30
0.0
 40
6.0
  1
１９　　９　２５
 72
     5
 11
391.898131
 21
-256.100293
 31
0.0
100
AcDbText
  0
DIMENSION
  5
44D
100
AcDbEntity
  8
3
370
    25
100
AcDbDimension
  2
*D12
 10
230.402954
 20
-165.519012
 30
0.0
 11
145.402954
 21
-161.019012
 31
0.0
 71
     0
 72
     0
 41
0.0
 42
0.0
  3
Standard
100
AcDbAlignedDimension
 13
60.402954
 23
-137.332164
 33
0.0
 14
230.402954
 24
-66.232748
 34
0.0
100
AcDbRotatedDimension
  0
DIMENSION
  5
44E
100
AcDbEntity
  8
3
370
    25
100
AcDbDimension
  2
*D13
 10
22.639064
 20
-42.232258
 30
0.0
 11
14.639064
 21
-89.782637
 31
0.0
 71
     0
 72
     0
 41
0.0
 42
0.0
  3
Standard
100
AcDbAlignedDimension
 13
49.77025
 23
-137.333016
 33
0.0
 14
166.540708
 24
-42.232258
 34
0.0
 50
90.0
100
AcDbRotatedDimension
  0
TEXT
  5
44F
100
AcDbEntity
  8
3
370
    50
100
AcDbText
 10
-177.796463
 20
208.577785
 30
0.0
 40
7.0
  1
逆止弁内蔵
 72
     5
 11
-144.196463
 21
208.577785
 31
0.0
100
AcDbText
  0
LWPOLYLINE
  5
450
100
AcDbEntity
  8
3
370
    25
100
AcDbPolyline
 90
        2
 70
     0
 10
-205.716003
 20
173.949138
 10
-170.358597
 20
207.005244
  0
LINE
  5
454
100
AcDbEntity
  8
3
370
    25
100
AcDbLine
 10
-202.893648
 20
176.587795
 30
0.0
 11
-203.600674
 21
177.344043
 31
0.0
  0
LINE
  5
455
100
AcDbEntity
  8
3
370
    25
100
AcDbLine
 10
-203.600674
 20
177.344043
 30
0.0
 11
-205.716003
 21
173.949138
 31
0.0
  0
LINE
  5
456
100
AcDbEntity
  8
3
370
    25
100
AcDbLine
 10
-205.716003
 20
173.949138
 30
0.0
 11
-202.186622
 21
175.831547
 31
0.0
  0
LINE
  5
457
100
AcDbEntity
  8
3
370
    25
100
AcDbLine
 10
-202.186622
 20
175.831547
 30
0.0
 11
-202.893648
 21
176.587795
 31
0.0
  0
LWPOLYLINE
  5
458
100
AcDbEntity
  8
3
370
    25
100
AcDbPolyline
 90
        2
 70
     0
 10
-114.800144
 20
173.949138
 10
-150.15755
 20
207.005244
  0
LINE
  5
45C
100
AcDbEntity
  8
3
370
    25
100
AcDbLine
 10
-117.622499
 20
176.587795
 30
0.0
 11
-118.329525
 21
175.831547
 31
0.0
  0
LINE
  5
45D
100
AcDbEntity
  8
3
370
    25
100
AcDbLine
 10
-118.329525
 20
175.831547
 30
0.0
 11
-114.800144
 21
173.949138
 31
0.0
  0
LINE
  5
45E
100
AcDbEntity
  8
3
370
    25
100
AcDbLine
 10
-114.800144
 20
173.949138
 30
0.0
 11
-116.915473
 21
177.344043
 31
0.0
  0
LINE
  5
45F
100
AcDbEntity
  8
3
370
    25
100
AcDbLine
 10
-116.915473
 20
177.344043
 30
0.0
 11
-117.622499
 21
176.587795
 31
0.0
  0
TEXT
  5
460
100
AcDbEntity
  8
3
370
    50
100
AcDbText
 10
65.721176
 20
-227.630386
 30
0.0
 40
7.0
  1
壁付シングルレバー湯水混合水栓（シャワバス）
 41
0.8
 72
     5
 11
187.801176
 21
-227.630386
 31
0.0
100
AcDbText
  0
ENDSEC
  0
SECTION
  2
OBJECTS
  0
DICTIONARY
  5
504
100
AcDbDictionary
280
     0
281
     1
  3
ACAD_GROUP
350
505
  3
ACAD_MLINESTYLE
350
506
  0
DICTIONARY
  5
505
102
{ACAD_REACTORS
330
504
102
}
100
AcDbDictionary
280
     0
281
     1
  0
DICTIONARY
  5
506
102
{ACAD_REACTORS
330
504
102
}
100
AcDbDictionary
280
     0
281
     1
  3
Standard
350
507
  0
MLINESTYLE
  5
507
102
{ACAD_REACTORS
330
506
102
}
100
AcDbMlineStyle
  2
Standard
 70
     0
  3

 62
     0
 51
90.0
 52
90.0
 71
     2
 49
0.5
 62
   256
  6
ByLayer
 49
-0.5
 62
   256
  6
ByLayer
  0
ENDSEC
  0
EOF
