  0
SECTION
  2
HEADER
  9
$ACADVER
  1
AC1015
  9
$ACADMAINTVER
 70
     6
  9
$DWGCODEPAGE
  3
ANSI_932
  9
$INSBASE
 10
0.0
 20
0.0
 30
0.0
  9
$EXTMIN
 10
-420.5
 20
-297.0
 30
1.000000E+20
  9
$EXTMAX
 10
420.5
 20
297.0
 30
-1.000000E+20
  9
$LIMMIN
 10
-420.5
 20
-297.0
  9
$LIMMAX
 10
420.5
 20
297.0
  9
$ORTHOMODE
 70
     0
  9
$REGENMODE
 70
     1
  9
$FILLMODE
 70
     1
  9
$QTEXTMODE
 70
     0
  9
$MIRRTEXT
 70
     1
  9
$LTSCALE
 40
1.0
  9
$ATTMODE
 70
     1
  9
$TEXTSIZE
 40
0.2
  9
$TRACEWID
 40
0.05
  9
$TEXTSTYLE
  7
STANDARD
  9
$CLAYER
  8
0
  9
$CELTYPE
  6
CONTINUOUS
  9
$CECOLOR
 62
   256
  9
$CELTSCALE
 40
1.0
  9
$DISPSILH
 70
     0
  9
$DIMSCALE
 40
1.0
  9
$DIMASZ
 40
2.0
  9
$DIMEXO
 40
1.0
  9
$DIMDLI
 40
0.38
  9
$DIMRND
 40
0.0
  9
$DIMDLE
 40
0.0
  9
$DIMEXE
 40
2.0
  9
$DIMTP
 40
0.0
  9
$DIMTM
 40
0.0
  9
$DIMTXT
 40
3.5
  9
$DIMCEN
 40
0.09
  9
$DIMTSZ
 40
0.0
  9
$DIMTOL
 70
     0
  9
$DIMLIM
 70
     0
  9
$DIMTIH
 70
     0
  9
$DIMTOH
 70
     0
  9
$DIMSE1
 70
     0
  9
$DIMSE2
 70
     0
  9
$DIMTAD
 70
     1
  9
$DIMZIN
 70
     0
  9
$DIMBLK
  1

  9
$DIMASO
 70
     1
  9
$DIMSHO
 70
     1
  9
$DIMPOST
  1

  9
$DIMAPOST
  1

  9
$DIMALT
 70
     0
  9
$DIMALTD
 70
     2
  9
$DIMALTF
 40
25.4
  9
$DIMLFAC
 40
1.0
  9
$DIMTOFL
 70
     0
  9
$DIMTVP
 40
0.0
  9
$DIMTIX
 70
     0
  9
$DIMSOXD
 70
     0
  9
$DIMSAH
 70
     0
  9
$DIMBLK1
  1

  9
$DIMBLK2
  1

  9
$DIMSTYLE
  2
Standard
  9
$DIMCLRD
 70
     0
  9
$DIMCLRE
 70
     0
  9
$DIMCLRT
 70
     0
  9
$DIMTFAC
 40
1.0
  9
$DIMGAP
 40
0.5
  9
$DIMJUST
 70
     0
  9
$DIMSD1
 70
     0
  9
$DIMSD2
 70
     0
  9
$DIMTOLJ
 70
     1
  9
$DIMTZIN
 70
     0
  9
$DIMALTZ
 70
     0
  9
$DIMALTTZ
 70
     0
  9
$DIMUPT
 70
     0
  9
$DIMDEC
 70
     3
  9
$DIMTDEC
 70
     4
  9
$DIMALTU
 70
     2
  9
$DIMALTTD
 70
     2
  9
$DIMTXSTY
  7
STANDARD
  9
$DIMAUNIT
 70
     0
  9
$DIMADEC
 70
     0
  9
$DIMALTRND
 40
0.0
  9
$DIMAZIN
 70
     0
  9
$DIMDSEP
 70
     0
  9
$DIMATFIT
 70
     3
  9
$DIMFRAC
 70
     0
  9
$DIMLDRBLK
  1

  9
$DIMLUNIT
 70
     2
  9
$DIMLWD
 70
     0
  9
$DIMLWE
 70
     0
  9
$DIMTMOVE
 70
     0
  9
$LUNITS
 70
     2
  9
$LUPREC
 70
     4
  9
$SKETCHINC
 40
0.1
  9
$FILLETRAD
 40
0.0
  9
$AUNITS
 70
     0
  9
$AUPREC
 70
     0
  9
$MENU
  1
acad
  9
$ELEVATION
 40
0.0
  9
$PELEVATION
 40
0.0
  9
$THICKNESS
 40
0.0
  9
$LIMCHECK
 70
     0
  9
$CHAMFERA
 40
0.0
  9
$CHAMFERB
 40
0.0
  9
$CHAMFERC
 40
0.0
  9
$CHAMFERD
 40
0.0
  9
$SKPOLY
 70
     0
  9
$TDCREATE
 40
2453383.000000000
  9
$TDUCREATE
 40
0.000000000
  9
$TDUPDATE
 40
0.000000000
  9
$TDUUPDATE
 40
2447892.625000000
  9
$TDINDWG
 40
0.0000000000
  9
$TDUSRTIMER
 40
0.0000000000
  9
$USRTIMER
 70
     1
  9
$ANGBASE
 50
0.0
  9
$ANGDIR
 70
     0
  9
$PDMODE
 70
     0
  9
$PDSIZE
 40
0.0
  9
$PLINEWID
 40
0.0
  9
$SPLFRAME
 70
     0
  9
$SPLINETYPE
 70
     6
  9
$SPLINESEGS
 70
     8
  9
$HANDSEED
  5
207
  9
$SURFTAB1
 70
     6
  9
$SURFTAB2
 70
     6
  9
$SURFTYPE
 70
     6
  9
$SURFU
 70
     6
  9
$SURFV
 70
     6
  9
$UCSBASE
  2

  9
$UCSNAME
  2

  9
$UCSORG
 10
0.0
 20
0.0
 30
0.0
  9
$UCSXDIR
 10
1.0
 20
0.0
 30
0.0
  9
$UCSYDIR
 10
0.0
 20
1.0
 30
0.0
  9
$UCSORTHOREF
  2

  9
$UCSORTHOVIEW
 70
     0
  9
$UCSORGTOP
 10
0.0
 20
0.0
 30
0.0
  9
$UCSORGBOTTOM
 10
0.0
 20
0.0
 30
0.0
  9
$UCSORGLEFT
 10
0.0
 20
0.0
 30
0.0
  9
$UCSORGRIGHT
 10
0.0
 20
0.0
 30
0.0
  9
$UCSORGFRONT
 10
0.0
 20
0.0
 30
0.0
  9
$UCSORGBACK
 10
0.0
 20
0.0
 30
0.0
  9
$PUCSBASE
  2

  9
$PUCSNAME
  2

  9
$PUCSORG
 10
0.0
 20
0.0
 30
0.0
  9
$PUCSXDIR
 10
1.0
 20
0.0
 30
0.0
  9
$PUCSYDIR
 10
0.0
 20
1.0
 30
0.0
  9
$PUCSORTHOREF
  2

  9
$PUCSORTHOVIEW
 70
     0
  9
$PUCSORGTOP
 10
0.0
 20
0.0
 30
0.0
  9
$PUCSORGBOTTOM
 10
0.0
 20
0.0
 30
0.0
  9
$PUCSORGLEFT
 10
0.0
 20
0.0
 30
0.0
  9
$PUCSORGRIGHT
 10
0.0
 20
0.0
 30
0.0
  9
$PUCSORGFRONT
 10
0.0
 20
0.0
 30
0.0
  9
$PUCSORGBACK
 10
0.0
 20
0.0
 30
0.0
  9
$USERI1
 70
     0
  9
$USERI2
 70
     0
  9
$USERI3
 70
     0
  9
$USERI4
 70
     0
  9
$USERI5
 70
     0
  9
$USERR1
 40
0.0
  9
$USERR2
 40
0.0
  9
$USERR3
 40
0.0
  9
$USERR4
 40
0.0
  9
$USERR5
 40
0.0
  9
$WORLDVIEW
 70
     1
  9
$SHADEDGE
 70
     3
  9
$SHADEDIF
 70
    70
  9
$TILEMODE
 70
     1
  9
$MAXACTVP
 70
    16
  9
$PINSBASE
 10
0.0
 20
0.0
 30
0.0
  9
$PLIMCHECK
 70
     0
  9
$PEXTMIN
 10
1.000000E+20
 20
1.000000E+20
 30
1.000000E+20
  9
$PEXTMAX
 10
-1.000000E+20
 20
-1.000000E+20
 30
-1.000000E+20
  9
$PLIMMIN
 10
0.0
 20
0.0
  9
$PLIMMAX
 10
12.0
 20
9.0
  9
$UNITMODE
 70
     0
  9
$VISRETAIN
 70
     0
  9
$PLINEGEN
 70
     1
  9
$PSLTSCALE
 70
     0
  9
$TREEDEPTH
 70
  3020
  9
$CMLSTYLE
  2
Standard
  9
$CMLJUST
 70
     0
  9
$CMLSCALE
 40
1.0
  9
$PROXYGRAPHICS
 70
     0
  9
$MEASUREMENT
 70
     0
  9
$CELWEIGHT
370
     0
  9
$ENDCAPS
280
     0
  9
$JOINSTYLE
280
     0
  9
$LWDISPLAY
290
     0
  9
$INSUNITS
 70
     0
  9
$HYPERLINKBASE
  1

  9
$STYLESHEET
  1

  9
$XEDIT
290
     1
  9
$CEPSNTYPE
380
     0
  9
$PSTYLEMODE
290
     1
  9
$FINGERPRINTGUID
  2

  9
$VERSIONGUID
  2

  9
$EXTNAMES
290
     1
  9
$PSVPSCALE
 40
0.0
  0
ENDSEC
  0
SECTION
  2
CLASSES
  0
CLASS
  1
LWPOLYLINE
  2
AcDbPolyline
  3
AutoCAD 2000
 90
        0
280
     0
281
     1
  0
CLASS
  1
IMAGE
  2
AcDbRasterImage
  3
ISM
 90
      127
280
     0
281
     1
  0
CLASS
  1
OLE2FRAME
  2
AcDbOle2Frame
  3
AutoCAD 2000
 90
        0
280
     0
281
     1
  0
CLASS
  1
HATCH
  2
AcDbHatch
  3
AutoCAD 2000
 90
        0
280
     0
281
     1
  0
CLASS
  1
DICTIONARYVAR
  2
AcDbDictionaryVar
  3
AutoCAD 2000
 90
        0
280
     0
281
     0
  0
CLASS
  1
RASTERVARIABLES
  2
AcDbRasterVariables
  3
ISM
 90
        0
280
     0
281
     0
  0
CLASS
  1
IMAGEDEF
  2
AcDbRasterImageDef
  3
ISM
 90
        0
280
     0
281
     0
  0
CLASS
  1
IMAGEDEF_REACTOR
  2
AcDbRasterImageDefReactor
  3
ISM
 90
        1
280
     0
281
     0
  0
CLASS
  1
IDBUFFER
  2
AcDbIdBuffer
  3
AutoCAD 2000
 90
        0
280
     0
281
     0
  0
CLASS
  1
SPATIAL_FILTER
  2
AcDbSpatialFilter
  3
AutoCAD 2000
 90
        0
280
     0
281
     0
  0
CLASS
  1
XRECORD
  2
AcDbXrecord
  3
AutoCAD 2000
 90
        0
280
     0
281
     0
  0
CLASS
  1
SORTENTSTABLE
  2
AcDbSortentsTable
  3
AutoCAD 2000
 90
        0
280
     0
281
     0
  0
CLASS
  1
LAYER_INDEX
  2
AcDbLayerIndex
  3
AutoCAD 2000
 90
        0
280
     0
281
     0
  0
CLASS
  1
SPATIAL_INDEX
  2
AcDbSpatialIndex
  3
AutoCAD 2000
 90
        0
280
     0
281
     0
  0
CLASS
  1
OBJECT_PTR
  2
CAseDLPNTableRecord
  3
"ASE-LPNTableRecord"
 90
        1
280
     0
281
     0
  0
CLASS
  1
LAYOUT
  2
AcDbLayout
  3
AutoCAD 2000
 90
        0
280
     0
281
     0
  0
CLASS
  1
PLOTSETTINGS
  2
AcDbPlotSettings
  3
AutoCAD 2000
 90
        0
280
     0
281
     0
  0
CLASS
  1
ACDBDICTIONARYWDFLT
  2
AcDbDictionaryWithDefault
  3
AutoCAD 2000
 90
        0
280
     0
281
     0
  0
CLASS
  1
ACDBPLACEHOLDER
  2
AcDbPlaceHolder
  3
AutoCAD 2000
 90
        0
280
     0
281
     0
  0
CLASS
  1
VBA_PROJECT
  2
AcDbVbaProject
  3
acadvba
 90
        0
280
     0
281
     0
  0
CLASS
  1
WIPEOUT
  2
AcDbWipeout
  3
WipeOut|AutoCAD Express Tool|expresstools@autodesk.com
 90
      127
280
     0
281
     1
  0
CLASS
  1
WIPEOUTVARIABLES
  2
AcDbWipeoutVariables
  3
WipeOut|AutoCAD Express Tool|expresstools@autodesk.com
 90
        0
280
     0
281
     0
  0
CLASS
  1
RTEXT
  2
RText
  3
RText|AutoCAD Express Tool|expresstools@autodesk.com
 90
        0
280
     0
281
     1
  0
CLASS
  1
ARCALIGNEDTEXT
  2
AcDbArcAlignedText
  3
ATEXT|AutoCAD Express Tool|expresstools@autodesk.com
 90
        0
280
     0
281
     1
  0
ENDSEC
  0
SECTION
  2
TABLES
  0
TABLE
  2
VPORT
  5
6
100
AcDbSymbolTable
 70
     1
  0
VPORT
  5
1A
100
AcDbSymbolTableRecord
100
AcDbViewportTableRecord
  2
*ACTIVE
 70
     0
 10
0.0
 20
0.0
 11
1.0
 21
1.0
 12
0.0
 22
0.0
 13
0.0
 23
0.0
 14
1.0
 24
1.0
 15
0.0
 25
0.0
 16
0.0
 26
0.0
 36
1.0
 17
0.0
 27
0.0
 37
0.0
 40
594.0
 41
1.415825
 42
50.0
 43
0.0
 44
0.0
 50
0.0
 51
0.0
 71
     0
 72
   500
 73
     1
 74
     1
 75
     0
 76
     0
 77
     0
 78
     0
281
     0
 65
     0
110
0.0
120
0.0
130
0.0
111
1.0
121
0.0
131
0.0
112
0.0
122
1.0
132
0.0
345
0
346
0
 79
     0
146
0.0
  0
ENDTAB
  0
TABLE
  2
LTYPE
  5
3
100
AcDbSymbolTable
 70
     9
  0
LTYPE
  5
C
100
AcDbSymbolTableRecord
100
AcDbLinetypeTableRecord
  2
ByBlock
 70
    64
  3

 72
    65
 73
     0
 40
0.0
  0
LTYPE
  5
D
100
AcDbSymbolTableRecord
100
AcDbLinetypeTableRecord
  2
ByLayer
 70
    64
  3

 72
    65
 73
     0
 40
0.0
  0
LTYPE
  5
E
100
AcDbSymbolTableRecord
100
AcDbLinetypeTableRecord
  2
CONTINUOUS
 70
     0
  3
Solid line
 72
    65
 73
     0
 40
0.0
  0
LTYPE
  5
F
100
AcDbSymbolTableRecord
100
AcDbLinetypeTableRecord
  2
DASHED
 70
     0
  3
__ __ __ __ __ __ __ __ __ __ __ __ __ __ __
 72
    65
 73
     2
 40
2.0
 49
1.2
 74
     0
 49
-0.8
 74
     0
  0
LTYPE
  5
10
100
AcDbSymbolTableRecord
100
AcDbLinetypeTableRecord
  2
CENTER
 70
     0
  3
____ _ ____ _ ____ _ ____ _ ____ _ ____ _ ____
 72
    65
 73
     4
 40
12.0
 49
9.0
 74
     0
 49
-1.0
 74
     0
 49
1.0
 74
     0
 49
-1.0
 74
     0
  0
LTYPE
  5
11
100
AcDbSymbolTableRecord
100
AcDbLinetypeTableRecord
  2
HIDDEN
 70
     0
  3
_ _ _ _ _ _ _ _ _ _ _ _ _ _ _ _ _ _ _ _ _ _ _
 72
    65
 73
     2
 40
3.2
 49
2.4
 74
     0
 49
-0.8
 74
     0
  0
LTYPE
  5
12
100
AcDbSymbolTableRecord
100
AcDbLinetypeTableRecord
  2
PHANTOM
 70
     0
  3
_____ _ _ _____ _ _ _____ _ _ _____ _ _ _____
 72
    65
 73
     6
 40
13.5
 49
9.0
 74
     0
 49
-1.0
 74
     0
 49
1.0
 74
     0
 49
-0.5
 74
     0
 49
1.0
 74
     0
 49
-1.0
 74
     0
  0
LTYPE
  5
13
100
AcDbSymbolTableRecord
100
AcDbLinetypeTableRecord
  2
DOT
 70
     0
  3
...............................................
 72
    65
 73
     2
 40
1.0
 49
0.5
 74
     0
 49
-0.5
 74
     0
  0
LTYPE
  5
14
100
AcDbSymbolTableRecord
100
AcDbLinetypeTableRecord
  2
DASHDOT
 70
     0
  3
__ . __ . __ . __ . __ . __ . __ . __ . __ . __
 72
    65
 73
     4
 40
8.0
 49
5.0
 74
     0
 49
-1.0
 74
     0
 49
1.0
 74
     0
 49
-1.0
 74
     0
  0
ENDTAB
  0
TABLE
  2
LAYER
  5
1
100
AcDbSymbolTable
 70
     5
  0
LAYER
  5
15
100
AcDbSymbolTableRecord
100
AcDbLayerTableRecord
  2
0
 70
     0
 62
     7
  6
CONTINUOUS
290
     1
370
    -3
390
0
  0
LAYER
  5
16
100
AcDbSymbolTableRecord
100
AcDbLayerTableRecord
  2
1
 70
     0
 62
     7
  6
CONTINUOUS
290
     1
370
    -3
390
0
  0
LAYER
  5
17
100
AcDbSymbolTableRecord
100
AcDbLayerTableRecord
  2
2
 70
     0
 62
     7
  6
CONTINUOUS
290
     1
370
    -3
390
0
  0
LAYER
  5
18
100
AcDbSymbolTableRecord
100
AcDbLayerTableRecord
  2
3
 70
     0
 62
     7
  6
CONTINUOUS
290
     1
370
    -3
390
0
  0
LAYER
  5
19
100
AcDbSymbolTableRecord
100
AcDbLayerTableRecord
  2
4
 70
     0
 62
     7
  6
CONTINUOUS
290
     1
370
    -3
390
0
  0
ENDTAB
  0
TABLE
  2
STYLE
  5
2
100
AcDbSymbolTable
 70
     1
  0
STYLE
  5
1C
100
AcDbSymbolTableRecord
100
AcDbTextStyleTableRecord
  2
STANDARD
 70
    64
 40
0.0
 41
1.0
 50
0.0
 71
     0
 42
1.0
  3
txt
  4
BIGFONT
  0
ENDTAB
  0
TABLE
  2
VIEW
  5
4
100
AcDbSymbolTable
 70
     0
  0
ENDTAB
  0
TABLE
  2
UCS
  5
5
100
AcDbSymbolTable
 70
     0
  0
ENDTAB
  0
TABLE
  2
APPID
  5
7
100
AcDbSymbolTable
 70
     1
  0
APPID
  5
1B
100
AcDbSymbolTableRecord
100
AcDbRegAppTableRecord
  2
ACAD
 70
     0
  0
ENDTAB
  0
TABLE
  2
DIMSTYLE
  5
8
100
AcDbSymbolTable
 70
     1
100
AcDbDimStyleTable
 71
     0
  0
DIMSTYLE
105
2B
100
AcDbSymbolTableRecord
100
AcDbDimStyleTableRecord
  2
Standard
 70
     0
  3

  4

 40
1.0
 41
2.0
 42
1.0
 43
0.38
 44
2.0
 45
0.0
 46
0.0
 47
0.0
 48
0.0
 71
     0
 72
     0
 73
     0
 74
     0
 75
     0
 76
     0
 77
     1
 78
     0
 79
     0
140
3.5
141
0.09
142
0.0
143
25.4
144
1.0
145
0.0
146
1.0
147
0.5
148
0.0
170
     0
171
     2
172
     0
173
     0
174
     0
175
     0
176
     0
177
     0
178
     0
179
     0
271
     3
272
     4
273
     2
274
     2
275
     0
276
     0
277
     2
278
    46
279
     0
280
     0
281
     0
282
     0
283
     1
284
     0
285
     0
286
     0
288
     0
289
     3
340
1C
341
0
342
0
343
0
344
0
371
    -2
372
    -2
  0
ENDTAB
  0
TABLE
  2
BLOCK_RECORD
  5
26
100
AcDbSymbolTable
 70
     7
  0
BLOCK_RECORD
  5
24
100
AcDbSymbolTableRecord
100
AcDbBlockTableRecord
  2
*Model_Space
340
0
  0
BLOCK_RECORD
  5
25
100
AcDbSymbolTableRecord
100
AcDbBlockTableRecord
  2
*Paper_Space
340
0
  0
BLOCK_RECORD
  5
1D
100
AcDbSymbolTableRecord
100
AcDbBlockTableRecord
  2
*D0
340
0
  0
BLOCK_RECORD
  5
1E
100
AcDbSymbolTableRecord
100
AcDbBlockTableRecord
  2
*D1
340
0
  0
BLOCK_RECORD
  5
1F
100
AcDbSymbolTableRecord
100
AcDbBlockTableRecord
  2
*D2
340
0
  0
BLOCK_RECORD
  5
20
100
AcDbSymbolTableRecord
100
AcDbBlockTableRecord
  2
*D3
340
0
  0
BLOCK_RECORD
  5
21
100
AcDbSymbolTableRecord
100
AcDbBlockTableRecord
  2
*D4
340
0
  0
BLOCK_RECORD
  5
22
100
AcDbSymbolTableRecord
100
AcDbBlockTableRecord
  2
*D5
340
0
  0
BLOCK_RECORD
  5
23
100
AcDbSymbolTableRecord
100
AcDbBlockTableRecord
  2
*D6
340
0
  0
ENDTAB
  0
ENDSEC
  0
SECTION
  2
BLOCKS
  0
BLOCK
  5
27
100
AcDbEntity
  8
0
390
0
100
AcDbBlockBegin
  2
*Model_Space
 70
     0
 10
0.0
 20
0.0
 30
0.0
  3
*Model_Space
  1

  0
ENDBLK
  5
28
100
AcDbEntity
  8
0
390
0
100
AcDbBlockEnd
  0
BLOCK
  5
29
100
AcDbEntity
 67
     1
  8
0
390
0
100
AcDbBlockBegin
  2
*Paper_Space
 70
     0
 10
0.0
 20
0.0
 30
0.0
  3
*Paper_Space
  1

  0
ENDBLK
  5
2A
100
AcDbEntity
 67
     1
  8
0
390
0
100
AcDbBlockEnd
  0
BLOCK
  5
1B0
100
AcDbEntity
  8
3
100
AcDbBlockBegin
  2
*D0
 70
     1
 10
0.0
 20
0.0
 30
0.0
  3
*D0
  1

  0
TEXT
  5
1B1
100
AcDbEntity
  8
3
370
    25
100
AcDbText
 10
77.42744
 20
64.796107
 30
0.0
 40
3.5
  1
%%c46
 50
90.0
 41
2.0
 72
     5
 11
77.42744
 21
73.896107
 31
0.0
100
AcDbText
  0
LINE
  5
1B2
100
AcDbEntity
  8
3
370
    25
100
AcDbLine
 10
47.679419
 20
93.046107
 30
0.0
 11
78.92744
 21
93.046107
 31
0.0
  0
LINE
  5
1B3
100
AcDbEntity
  8
3
370
    25
100
AcDbLine
 10
77.92744
 20
93.046107
 30
0.0
 11
77.409802
 21
91.114256
 31
0.0
  0
LINE
  5
1B4
100
AcDbEntity
  8
3
370
    25
100
AcDbLine
 10
77.92744
 20
93.046107
 30
0.0
 11
78.445078
 21
91.114256
 31
0.0
  0
LINE
  5
1B5
100
AcDbEntity
  8
3
370
    25
100
AcDbLine
 10
77.409802
 20
91.114256
 30
0.0
 11
78.445078
 21
91.114256
 31
0.0
  0
LINE
  5
1B6
100
AcDbEntity
  8
3
370
    25
100
AcDbLine
 10
77.92744
 20
93.046107
 30
0.0
 11
77.92744
 21
47.046107
 31
0.0
  0
LINE
  5
1B7
100
AcDbEntity
  8
3
370
    25
100
AcDbLine
 10
77.92744
 20
47.046107
 30
0.0
 11
78.445078
 21
48.977959
 31
0.0
  0
LINE
  5
1B8
100
AcDbEntity
  8
3
370
    25
100
AcDbLine
 10
77.92744
 20
47.046107
 30
0.0
 11
77.409802
 21
48.977959
 31
0.0
  0
LINE
  5
1B9
100
AcDbEntity
  8
3
370
    25
100
AcDbLine
 10
78.445078
 20
48.977959
 30
0.0
 11
77.409802
 21
48.977959
 31
0.0
  0
LINE
  5
1BA
100
AcDbEntity
  8
3
370
    25
100
AcDbLine
 10
47.679419
 20
47.046107
 30
0.0
 11
78.92744
 21
47.046107
 31
0.0
  0
ENDBLK
  5
1BB
100
AcDbEntity
  8
3
100
AcDbBlockEnd
  0
BLOCK
  5
1BC
100
AcDbEntity
  8
3
100
AcDbBlockBegin
  2
*D1
 70
     1
 10
0.0
 20
0.0
 30
0.0
  3
*D1
  1

  0
TEXT
  5
1BD
100
AcDbEntity
  8
3
370
    25
100
AcDbText
 10
50.179173
 20
-84.411186
 30
0.0
 40
3.5
  1
１４
 72
     5
 11
56.479173
 21
-84.411186
 31
0.0
100
AcDbText
  0
LINE
  5
1BE
100
AcDbEntity
  8
3
370
    25
100
AcDbLine
 10
46.679173
 20
-65.638075
 30
0.0
 11
46.679173
 21
-85.911186
 31
0.0
  0
LINE
  5
1BF
100
AcDbEntity
  8
3
370
    25
100
AcDbLine
 10
46.679173
 20
-84.911186
 30
0.0
 11
48.611024
 21
-85.428824
 31
0.0
  0
LINE
  5
1C0
100
AcDbEntity
  8
3
370
    25
100
AcDbLine
 10
46.679173
 20
-84.911186
 30
0.0
 11
48.611024
 21
-84.393548
 31
0.0
  0
LINE
  5
1C1
100
AcDbEntity
  8
3
370
    25
100
AcDbLine
 10
48.611024
 20
-85.428824
 30
0.0
 11
48.611024
 21
-84.393548
 31
0.0
  0
LINE
  5
1C2
100
AcDbEntity
  8
3
370
    25
100
AcDbLine
 10
46.679173
 20
-84.911186
 30
0.0
 11
60.679173
 21
-84.911186
 31
0.0
  0
LINE
  5
1C3
100
AcDbEntity
  8
3
370
    25
100
AcDbLine
 10
60.679173
 20
-84.911186
 30
0.0
 11
58.747321
 21
-84.393548
 31
0.0
  0
LINE
  5
1C4
100
AcDbEntity
  8
3
370
    25
100
AcDbLine
 10
60.679173
 20
-84.911186
 30
0.0
 11
58.747321
 21
-85.428824
 31
0.0
  0
LINE
  5
1C5
100
AcDbEntity
  8
3
370
    25
100
AcDbLine
 10
58.747321
 20
-84.393548
 30
0.0
 11
58.747321
 21
-85.428824
 31
0.0
  0
LINE
  5
1C6
100
AcDbEntity
  8
3
370
    25
100
AcDbLine
 10
60.679173
 20
-52.115575
 30
0.0
 11
60.679173
 21
-85.911186
 31
0.0
  0
ENDBLK
  5
1C7
100
AcDbEntity
  8
3
100
AcDbBlockEnd
  0
BLOCK
  5
1C8
100
AcDbEntity
  8
3
100
AcDbBlockBegin
  2
*D2
 70
     1
 10
0.0
 20
0.0
 30
0.0
  3
*D2
  1

  0
TEXT
  5
1C9
100
AcDbEntity
  8
3
370
    25
100
AcDbText
 10
20.679173
 20
-84.411186
 30
0.0
 40
3.5
  1
４５
 72
     5
 11
26.979173
 21
-84.411186
 31
0.0
100
AcDbText
  0
LINE
  5
1CA
100
AcDbEntity
  8
3
370
    25
100
AcDbLine
 10
1.679173
 20
-74.510605
 30
0.0
 11
1.679173
 21
-85.911186
 31
0.0
  0
LINE
  5
1CB
100
AcDbEntity
  8
3
370
    25
100
AcDbLine
 10
1.679173
 20
-84.911186
 30
0.0
 11
3.611024
 21
-85.428824
 31
0.0
  0
LINE
  5
1CC
100
AcDbEntity
  8
3
370
    25
100
AcDbLine
 10
1.679173
 20
-84.911186
 30
0.0
 11
3.611024
 21
-84.393548
 31
0.0
  0
LINE
  5
1CD
100
AcDbEntity
  8
3
370
    25
100
AcDbLine
 10
3.611024
 20
-85.428824
 30
0.0
 11
3.611024
 21
-84.393548
 31
0.0
  0
LINE
  5
1CE
100
AcDbEntity
  8
3
370
    25
100
AcDbLine
 10
1.679173
 20
-84.911186
 30
0.0
 11
46.679173
 21
-84.911186
 31
0.0
  0
LINE
  5
1CF
100
AcDbEntity
  8
3
370
    25
100
AcDbLine
 10
46.679173
 20
-84.911186
 30
0.0
 11
44.747321
 21
-84.393548
 31
0.0
  0
LINE
  5
1D0
100
AcDbEntity
  8
3
370
    25
100
AcDbLine
 10
46.679173
 20
-84.911186
 30
0.0
 11
44.747321
 21
-85.428824
 31
0.0
  0
LINE
  5
1D1
100
AcDbEntity
  8
3
370
    25
100
AcDbLine
 10
44.747321
 20
-84.393548
 30
0.0
 11
44.747321
 21
-85.428824
 31
0.0
  0
LINE
  5
1D2
100
AcDbEntity
  8
3
370
    25
100
AcDbLine
 10
46.679173
 20
-65.638075
 30
0.0
 11
46.679173
 21
-85.911186
 31
0.0
  0
ENDBLK
  5
1D3
100
AcDbEntity
  8
3
100
AcDbBlockEnd
  0
BLOCK
  5
1D4
100
AcDbEntity
  8
3
100
AcDbBlockBegin
  2
*D3
 70
     1
 10
0.0
 20
0.0
 30
0.0
  3
*D3
  1

  0
TEXT
  5
1D5
100
AcDbEntity
  8
3
370
    25
100
AcDbText
 10
-70.976868
 20
-57.838075
 30
0.0
 40
3.5
  1
２５
 50
90.0
 72
     5
 11
-70.976868
 21
-51.538075
 31
0.0
100
AcDbText
  0
LINE
  5
1D6
100
AcDbEntity
  8
3
370
    25
100
AcDbLine
 10
-34.3344
 20
-66.838075
 30
0.0
 11
-71.476868
 21
-66.838075
 31
0.0
  0
LINE
  5
1D7
100
AcDbEntity
  8
3
370
    25
100
AcDbLine
 10
-70.476868
 20
-66.838075
 30
0.0
 11
-69.95923
 21
-64.906223
 31
0.0
  0
LINE
  5
1D8
100
AcDbEntity
  8
3
370
    25
100
AcDbLine
 10
-70.476868
 20
-66.838075
 30
0.0
 11
-70.994506
 21
-64.906223
 31
0.0
  0
LINE
  5
1D9
100
AcDbEntity
  8
3
370
    25
100
AcDbLine
 10
-69.95923
 20
-64.906223
 30
0.0
 11
-70.994506
 21
-64.906223
 31
0.0
  0
LINE
  5
1DA
100
AcDbEntity
  8
3
370
    25
100
AcDbLine
 10
-70.476868
 20
-66.838075
 30
0.0
 11
-70.476868
 21
-41.838075
 31
0.0
  0
LINE
  5
1DB
100
AcDbEntity
  8
3
370
    25
100
AcDbLine
 10
-70.476868
 20
-41.838075
 30
0.0
 11
-70.994506
 21
-43.769927
 31
0.0
  0
LINE
  5
1DC
100
AcDbEntity
  8
3
370
    25
100
AcDbLine
 10
-70.476868
 20
-41.838075
 30
0.0
 11
-69.95923
 21
-43.769927
 31
0.0
  0
LINE
  5
1DD
100
AcDbEntity
  8
3
370
    25
100
AcDbLine
 10
-70.994506
 20
-43.769927
 30
0.0
 11
-69.95923
 21
-43.769927
 31
0.0
  0
LINE
  5
1DE
100
AcDbEntity
  8
3
370
    25
100
AcDbLine
 10
-45.725384
 20
-41.838075
 30
0.0
 11
-71.476868
 21
-41.838075
 31
0.0
  0
ENDBLK
  5
1DF
100
AcDbEntity
  8
3
100
AcDbBlockEnd
  0
BLOCK
  5
1E0
100
AcDbEntity
  8
3
100
AcDbBlockBegin
  2
*D4
 70
     1
 10
0.0
 20
0.0
 30
0.0
  3
*D4
  1

  0
LINE
  5
1E1
100
AcDbEntity
  8
3
370
    25
100
AcDbLine
 10
-33.3344
 20
-67.838075
 30
0.0
 11
-33.3344
 21
-85.911186
 31
0.0
  0
LINE
  5
1E2
100
AcDbEntity
  8
3
370
    25
100
AcDbLine
 10
-33.3344
 20
-84.911186
 30
0.0
 11
-31.402548
 21
-85.428824
 31
0.0
  0
LINE
  5
1E3
100
AcDbEntity
  8
3
370
    25
100
AcDbLine
 10
-33.3344
 20
-84.911186
 30
0.0
 11
-31.402548
 21
-84.393548
 31
0.0
  0
LINE
  5
1E4
100
AcDbEntity
  8
3
370
    25
100
AcDbLine
 10
-31.402548
 20
-85.428824
 30
0.0
 11
-31.402548
 21
-84.393548
 31
0.0
  0
LINE
  5
1E5
100
AcDbEntity
  8
3
370
    25
100
AcDbLine
 10
-33.3344
 20
-84.911186
 30
0.0
 11
1.679173
 21
-84.911186
 31
0.0
  0
LINE
  5
1E6
100
AcDbEntity
  8
3
370
    25
100
AcDbLine
 10
1.679173
 20
-84.911186
 30
0.0
 11
-0.252679
 21
-84.393548
 31
0.0
  0
LINE
  5
1E7
100
AcDbEntity
  8
3
370
    25
100
AcDbLine
 10
1.679173
 20
-84.911186
 30
0.0
 11
-0.252679
 21
-85.428824
 31
0.0
  0
LINE
  5
1E8
100
AcDbEntity
  8
3
370
    25
100
AcDbLine
 10
-0.252679
 20
-84.393548
 30
0.0
 11
-0.252679
 21
-85.428824
 31
0.0
  0
LINE
  5
1E9
100
AcDbEntity
  8
3
370
    25
100
AcDbLine
 10
1.679173
 20
-76.095932
 30
0.0
 11
1.679173
 21
-85.911186
 31
0.0
  0
ENDBLK
  5
1EA
100
AcDbEntity
  8
3
100
AcDbBlockEnd
  0
BLOCK
  5
1EB
100
AcDbEntity
  8
3
100
AcDbBlockBegin
  2
*D5
 70
     1
 10
0.0
 20
0.0
 30
0.0
  3
*D5
  1

  0
TEXT
  5
1EC
100
AcDbEntity
  8
3
370
    25
100
AcDbText
 10
-40.295975
 20
-77.247726
 30
0.0
 40
3.5
  1
８゜
 50
356.0
 72
     5
 11
-34.011321
 21
-77.687192
 31
0.0
100
AcDbText
  0
LINE
  5
1ED
100
AcDbEntity
  8
3
370
    25
100
AcDbLine
 10
-35.033591
 20
-78.929974
 30
0.0
 11
-35.15375
 21
-79.784946
 31
0.0
  0
LINE
  5
1EE
100
AcDbEntity
  8
3
370
    25
100
AcDbLine
 10
-33.3344
 20
-76.613464
 30
0.0
 11
-33.3344
 21
-79.912167
 31
0.0
  0
LINE
  5
1EF
100
AcDbEntity
  8
3
370
    25
100
AcDbLine
 10
-35.014577
 20
-78.794678
 30
0.0
 11
-36.78716
 21
-77.868422
 31
0.0
  0
LINE
  5
1F0
100
AcDbEntity
  8
3
370
    25
100
AcDbLine
 10
-35.014577
 20
-78.794678
 30
0.0
 11
-37.012807
 21
-78.878808
 31
0.0
  0
LINE
  5
1F1
100
AcDbEntity
  8
3
370
    25
100
AcDbLine
 10
-36.78716
 20
-77.868422
 30
0.0
 11
-37.012807
 21
-78.878808
 31
0.0
  0
LINE
  5
1F2
100
AcDbEntity
  8
3
370
    25
100
AcDbLine
 10
-33.3344
 20
-78.912167
 30
0.0
 11
-31.367325
 21
-79.273578
 31
0.0
  0
LINE
  5
1F3
100
AcDbEntity
  8
3
370
    25
100
AcDbLine
 10
-33.3344
 20
-78.912167
 30
0.0
 11
-31.450158
 21
-78.241621
 31
0.0
  0
LINE
  5
1F4
100
AcDbEntity
  8
3
370
    25
100
AcDbLine
 10
-31.367325
 20
-79.273578
 30
0.0
 11
-31.450158
 21
-78.241621
 31
0.0
  0
ARC
  5
1F5
100
AcDbEntity
  8
3
370
    25
100
AcDbCircle
 10
-33.3344
 20
-66.839599
 30
0.0
 40
12.072569
100
AcDbArc
 50
239.502519
 51
292.497482
  0
ENDBLK
  5
1F6
100
AcDbEntity
  8
3
100
AcDbBlockEnd
  0
BLOCK
  5
1F7
100
AcDbEntity
  8
3
100
AcDbBlockBegin
  2
*D6
 70
     1
 10
0.0
 20
0.0
 30
0.0
  3
*D6
  1

  0
LINE
  5
1F8
100
AcDbEntity
  8
3
370
    25
100
AcDbLine
 10
-45.725384
 20
-41.838075
 30
0.0
 11
-71.476868
 21
-41.838075
 31
0.0
  0
LINE
  5
1F9
100
AcDbEntity
  8
3
370
    25
100
AcDbLine
 10
-70.476868
 20
-41.838075
 30
0.0
 11
-69.95923
 21
-39.906223
 31
0.0
  0
LINE
  5
1FA
100
AcDbEntity
  8
3
370
    25
100
AcDbLine
 10
-70.476868
 20
-41.838075
 30
0.0
 11
-70.994506
 21
-39.906223
 31
0.0
  0
LINE
  5
1FB
100
AcDbEntity
  8
3
370
    25
100
AcDbLine
 10
-69.95923
 20
-39.906223
 30
0.0
 11
-70.994506
 21
-39.906223
 31
0.0
  0
LINE
  5
1FC
100
AcDbEntity
  8
3
370
    25
100
AcDbLine
 10
-70.476868
 20
-41.838075
 30
0.0
 11
-70.476868
 21
16.161303
 31
0.0
  0
LINE
  5
1FD
100
AcDbEntity
  8
3
370
    25
100
AcDbLine
 10
-70.476868
 20
16.161303
 30
0.0
 11
-70.994506
 21
14.229451
 31
0.0
  0
LINE
  5
1FE
100
AcDbEntity
  8
3
370
    25
100
AcDbLine
 10
-70.476868
 20
16.161303
 30
0.0
 11
-69.95923
 21
14.229451
 31
0.0
  0
LINE
  5
1FF
100
AcDbEntity
  8
3
370
    25
100
AcDbLine
 10
-70.994506
 20
14.229451
 30
0.0
 11
-69.95923
 21
14.229451
 31
0.0
  0
LINE
  5
200
100
AcDbEntity
  8
3
370
    25
100
AcDbLine
 10
-6.320827
 20
16.161303
 30
0.0
 11
-71.476868
 21
16.161303
 31
0.0
  0
ENDBLK
  5
201
100
AcDbEntity
  8
3
100
AcDbBlockEnd
  0
ENDSEC
  0
SECTION
  2
ENTITIES
  0
LINE
  5
2C
100
AcDbEntity
  8
1
370
   100
100
AcDbLine
 10
-186.510785
 20
137.514384
 30
0.0
 11
197.491193
 21
137.514384
 31
0.0
  0
LINE
  5
2D
100
AcDbEntity
  8
1
370
   100
100
AcDbLine
 10
-186.510785
 20
137.514384
 30
0.0
 11
-186.510785
 21
-138.985941
 31
0.0
  0
LINE
  5
2E
100
AcDbEntity
  8
1
370
   100
100
AcDbLine
 10
-186.510785
 20
-138.985941
 30
0.0
 11
197.491193
 21
-138.985941
 31
0.0
  0
LINE
  5
2F
100
AcDbEntity
  8
1
370
   100
100
AcDbLine
 10
197.491193
 20
-138.985941
 30
0.0
 11
197.491193
 21
137.514384
 31
0.0
  0
TEXT
  5
30
100
AcDbEntity
  8
1
370
    50
100
AcDbText
 10
179.814221
 20
-113.126428
 30
0.0
 40
3.0
  1
設計
 72
     5
 11
185.214221
 21
-113.126428
 31
0.0
100
AcDbText
  0
TEXT
  5
31
100
AcDbEntity
  8
1
370
    50
100
AcDbText
 10
189.563739
 20
-113.049829
 30
0.0
 40
3.0
  1
製図
 72
     5
 11
194.963739
 21
-113.049829
 31
0.0
100
AcDbText
  0
TEXT
  5
32
100
AcDbEntity
  8
1
370
    50
100
AcDbText
 10
159.502872
 20
-113.126428
 30
0.0
 40
3.0
  1
承認
 72
     5
 11
164.902872
 21
-113.126428
 31
0.0
100
AcDbText
  0
TEXT
  5
33
100
AcDbEntity
  8
1
370
    50
100
AcDbText
 10
169.494839
 20
-113.09901
 30
0.0
 40
3.0
  1
検図
 72
     5
 11
174.894839
 21
-113.09901
 31
0.0
100
AcDbText
  0
LINE
  5
34
100
AcDbEntity
  8
1
370
    25
100
AcDbLine
 10
142.491193
 20
-113.985941
 30
0.0
 11
197.491193
 21
-113.985941
 31
0.0
  0
LINE
  5
35
100
AcDbEntity
  8
1
370
    25
100
AcDbLine
 10
171.241193
 20
-122.985941
 30
0.0
 11
171.241193
 21
-129.985941
 31
0.0
  0
TEXT
  5
36
100
AcDbEntity
  8
1
370
    50
100
AcDbText
 10
159.775795
 20
-128.006264
 30
0.0
 40
3.0
  1
日　付
 72
     5
 11
168.175795
 21
-128.006264
 31
0.0
100
AcDbText
  0
LINE
  5
37
100
AcDbEntity
  8
1
370
    50
100
AcDbLine
 10
20.491193
 20
-129.985941
 30
0.0
 11
197.491193
 21
-129.985941
 31
0.0
  0
TEXT
  5
38
100
AcDbEntity
  8
1
370
    50
100
AcDbText
 10
143.887505
 20
-128.161203
 30
0.0
 40
3.0
  1
第三角法
 72
     5
 11
155.287505
 21
-128.161203
 31
0.0
100
AcDbText
  0
TEXT
  5
39
100
AcDbEntity
  8
1
370
    50
100
AcDbText
 10
145.54371
 20
-112.99901
 30
0.0
 40
3.0
  1
尺　度
 72
     5
 11
153.94371
 21
-112.99901
 31
0.0
100
AcDbText
  0
LINE
  5
3A
100
AcDbEntity
  8
1
370
   100
100
AcDbLine
 10
20.491193
 20
-108.985941
 30
0.0
 11
197.491193
 21
-108.985941
 31
0.0
  0
LINE
  5
3B
100
AcDbEntity
  8
1
370
    50
100
AcDbLine
 10
105.991193
 20
-108.985941
 30
0.0
 11
105.991193
 21
-138.985941
 31
0.0
  0
LINE
  5
3C
100
AcDbEntity
  8
1
370
    25
100
AcDbLine
 10
187.491193
 20
-122.985941
 30
0.0
 11
187.491193
 21
-108.985941
 31
0.0
  0
LINE
  5
3D
100
AcDbEntity
  8
1
370
    25
100
AcDbLine
 10
177.491193
 20
-122.985941
 30
0.0
 11
177.491193
 21
-108.985941
 31
0.0
  0
LINE
  5
3E
100
AcDbEntity
  8
1
370
    25
100
AcDbLine
 10
167.491193
 20
-122.985941
 30
0.0
 11
167.491193
 21
-108.985941
 31
0.0
  0
LINE
  5
3F
100
AcDbEntity
  8
1
370
    50
100
AcDbLine
 10
142.491193
 20
-138.985941
 30
0.0
 11
142.491193
 21
-108.985941
 31
0.0
  0
LINE
  5
40
100
AcDbEntity
  8
1
370
    50
100
AcDbLine
 10
94.991193
 20
-108.985941
 30
0.0
 11
94.991193
 21
-138.985941
 31
0.0
  0
LINE
  5
41
100
AcDbEntity
  8
1
370
    50
100
AcDbLine
 10
31.491193
 20
-108.985941
 30
0.0
 11
31.491193
 21
-129.985941
 31
0.0
  0
LINE
  5
42
100
AcDbEntity
  8
1
370
    50
100
AcDbLine
 10
142.491193
 20
-122.985941
 30
0.0
 11
197.491193
 21
-122.985941
 31
0.0
  0
TEXT
  5
43
100
AcDbEntity
  8
1
370
    50
100
AcDbText
 10
143.550565
 20
-135.940469
 30
0.0
 40
3.0
  1
コードＮｏ
 41
0.9
 72
     5
 11
156.510565
 21
-135.940469
 31
0.0
100
AcDbText
  0
TEXT
  5
44
100
AcDbEntity
  8
1
370
   100
100
AcDbText
 10
26.443387
 20
-136.43783
 30
0.0
 40
4.0
  1
ミズタニバルブ工業株式会社
 41
1.2
 72
     5
 11
87.883387
 21
-136.43783
 31
0.0
100
AcDbText
  0
LINE
  5
45
100
AcDbEntity
  8
1
370
    50
100
AcDbLine
 10
20.491193
 20
-119.485941
 30
0.0
 11
142.491193
 21
-119.485941
 31
0.0
  0
LINE
  5
46
100
AcDbEntity
  8
1
370
    50
100
AcDbLine
 10
57.741193
 20
-119.485941
 30
0.0
 11
57.741193
 21
-129.985941
 31
0.0
  0
LINE
  5
47
100
AcDbEntity
  8
1
370
    50
100
AcDbLine
 10
68.741193
 20
-119.485941
 30
0.0
 11
68.741193
 21
-129.985941
 31
0.0
  0
LINE
  5
48
100
AcDbEntity
  8
1
370
    50
100
AcDbLine
 10
157.491193
 20
-138.985941
 30
0.0
 11
157.491193
 21
-108.985941
 31
0.0
  0
TEXT
  5
49
100
AcDbEntity
  8
1
370
    50
100
AcDbText
 10
172.549065
 20
-128.050147
 30
0.0
 40
3.0
  1
　　・　　・
 72
     5
 11
189.949065
 21
-128.050147
 31
0.0
100
AcDbText
  0
LINE
  5
4A
100
AcDbEntity
  8
1
370
   100
100
AcDbLine
 10
20.491193
 20
-108.985941
 30
0.0
 11
20.491193
 21
-138.985941
 31
0.0
  0
TEXT
  5
4B
100
AcDbEntity
  8
1
370
    50
100
AcDbText
 10
145.416291
 20
-120.006746
 30
0.0
 40
3.0
  1
　／ 
 72
     5
 11
150.816291
 21
-120.006746
 31
0.0
100
AcDbText
  0
TEXT
  5
4C
100
AcDbEntity
  8
1
370
    50
100
AcDbText
 10
96.952061
 20
-136.012454
 30
0.0
 40
3.0
  1
備 考 
 72
     5
 11
103.852061
 21
-136.012454
 31
0.0
100
AcDbText
  0
TEXT
  5
4D
100
AcDbEntity
  8
1
370
    50
100
AcDbText
 10
96.756267
 20
-115.44592
 30
0.0
 40
3.0
  1
仕 上
 72
     5
 11
103.656267
 21
-115.44592
 31
0.0
100
AcDbText
  0
TEXT
  5
4E
100
AcDbEntity
  8
1
370
    50
100
AcDbText
 10
96.723588
 20
-124.445833
 30
0.0
 40
3.0
  1
表 面
 72
     5
 11
103.623588
 21
-124.445833
 31
0.0
100
AcDbText
  0
TEXT
  5
4F
100
AcDbEntity
  8
1
370
    50
100
AcDbText
 10
96.723588
 20
-127.945833
 30
0.0
 40
3.0
  1
処 理
 72
     5
 11
103.623588
 21
-127.945833
 31
0.0
100
AcDbText
  0
TEXT
  5
50
100
AcDbEntity
  8
1
370
    50
100
AcDbText
 10
22.396675
 20
-115.8467
 30
0.0
 40
3.0
  1
品 名
 72
     5
 11
29.296675
 21
-115.8467
 31
0.0
100
AcDbText
  0
TEXT
  5
51
100
AcDbEntity
  8
1
370
    50
100
AcDbText
 10
22.198883
 20
-126.231267
 30
0.0
 40
3.0
  1
材 質
 72
     5
 11
29.098883
 21
-126.231267
 31
0.0
100
AcDbText
  0
TEXT
  5
52
100
AcDbEntity
  8
1
370
    50
100
AcDbText
 10
59.448883
 20
-126.231267
 30
0.0
 40
3.0
  1
規 格
 72
     5
 11
66.348883
 21
-126.231267
 31
0.0
100
AcDbText
  0
LINE
  5
53
100
AcDbEntity
  8
2
370
    50
100
AcDbLine
 10
14.179419
 20
-22.658276
 30
0.0
 11
14.179419
 21
-19.337697
 31
0.0
  0
LINE
  5
54
100
AcDbEntity
  8
2
370
    50
100
AcDbLine
 10
-10.820581
 20
-25.234169
 30
0.0
 11
-10.820581
 21
-19.337697
 31
0.0
  0
LINE
  5
55
100
AcDbEntity
  8
2
370
    50
100
AcDbLine
 10
-10.820581
 20
-19.337697
 30
0.0
 11
-10.320581
 21
-19.337697
 31
0.0
  0
LINE
  5
56
100
AcDbEntity
  8
2
370
    50
100
AcDbLine
 10
-10.597122
 20
-19.337697
 30
0.0
 11
14.179419
 21
-19.337697
 31
0.0
  0
LINE
  5
57
100
AcDbEntity
  8
2
370
    50
100
AcDbLine
 10
45.179173
 20
-18.838075
 30
0.0
 11
46.479173
 21
-18.838075
 31
0.0
  0
LINE
  5
58
100
AcDbEntity
  8
2
370
    50
100
AcDbLine
 10
45.179173
 20
-64.838075
 30
0.0
 11
46.479173
 21
-64.838075
 31
0.0
  0
LINE
  5
59
100
AcDbEntity
  8
2
370
    50
100
AcDbLine
 10
46.679173
 20
-31.360575
 30
0.0
 11
59.479173
 21
-31.360575
 31
0.0
  0
LINE
  5
5A
100
AcDbEntity
  8
2
370
    50
100
AcDbLine
 10
46.679173
 20
-52.315575
 30
0.0
 11
59.479173
 21
-52.315575
 31
0.0
  0
LINE
  5
5B
100
AcDbEntity
  8
2
370
    50
100
AcDbLine
 10
24.179173
 20
-32.588075
 30
0.0
 11
40.179173
 21
-32.588075
 31
0.0
  0
ARC
  5
5C
100
AcDbEntity
  8
2
370
    50
100
AcDbCircle
 10
40.179173
 20
-28.588075
 30
0.0
 40
4.0
100
AcDbArc
 50
270.0
 51
360.0
  0
ARC
  5
5D
100
AcDbEntity
  8
2
370
    50
100
AcDbCircle
 10
40.179173
 20
-55.088075
 30
0.0
 40
4.0
100
AcDbArc
 50
0.0
 51
90.0
  0
LINE
  5
5E
100
AcDbEntity
  8
2
370
    50
100
AcDbLine
 10
60.679173
 20
-51.115575
 30
0.0
 11
60.679173
 21
-32.560575
 31
0.0
  0
LINE
  5
5F
100
AcDbEntity
  8
2
370
    50
100
AcDbLine
 10
44.179173
 20
-63.838075
 30
0.0
 11
44.179173
 21
-55.088075
 31
0.0
  0
LINE
  5
60
100
AcDbEntity
  8
2
370
    50
100
AcDbLine
 10
44.179173
 20
-56.396019
 30
0.0
 11
44.179173
 21
-19.838075
 31
0.0
  0
LINE
  5
61
100
AcDbEntity
  8
2
370
    50
100
AcDbLine
 10
46.679173
 20
-64.638075
 30
0.0
 11
46.679173
 21
-52.315575
 31
0.0
  0
LINE
  5
62
100
AcDbEntity
  8
2
370
    50
100
AcDbLine
 10
46.679173
 20
-55.090485
 30
0.0
 11
46.679173
 21
-19.038075
 31
0.0
  0
ARC
  5
63
100
AcDbEntity
  8
2
370
    50
100
AcDbCircle
 10
45.179173
 20
-19.838075
 30
0.0
 40
1.0
100
AcDbArc
 50
90.0
 51
180.0
  0
ARC
  5
64
100
AcDbEntity
  8
2
370
    50
100
AcDbCircle
 10
45.179173
 20
-63.838075
 30
0.0
 40
1.0
100
AcDbArc
 50
180.0
 51
270.0
  0
LINE
  5
65
100
AcDbEntity
  8
2
370
    25
100
AcDbLine
 10
49.679173
 20
-32.560575
 30
0.0
 11
60.679173
 21
-32.560575
 31
0.0
  0
LINE
  5
66
100
AcDbEntity
  8
2
370
    25
100
AcDbLine
 10
49.679173
 20
-51.115575
 30
0.0
 11
60.679173
 21
-51.115575
 31
0.0
  0
LINE
  5
67
100
AcDbEntity
  8
2
370
    50
100
AcDbLine
 10
60.679173
 20
-32.560575
 30
0.0
 11
59.479173
 21
-31.360575
 31
0.0
  0
LINE
  5
68
100
AcDbEntity
  8
2
370
    50
100
AcDbLine
 10
49.679173
 20
-32.560575
 30
0.0
 11
48.479173
 21
-31.360575
 31
0.0
  0
LINE
  5
69
100
AcDbEntity
  8
2
370
    50
100
AcDbLine
 10
60.679173
 20
-51.115575
 30
0.0
 11
59.479173
 21
-52.315575
 31
0.0
  0
LINE
  5
6A
100
AcDbEntity
  8
2
370
    50
100
AcDbLine
 10
49.679173
 20
-51.115575
 30
0.0
 11
48.479173
 21
-52.315575
 31
0.0
  0
LINE
  5
6B
100
AcDbEntity
  8
2
370
    50
100
AcDbLine
 10
46.679173
 20
-64.638075
 30
0.0
 11
46.479173
 21
-64.838075
 31
0.0
  0
LINE
  5
6C
100
AcDbEntity
  8
2
370
    50
100
AcDbLine
 10
46.679173
 20
-19.038075
 30
0.0
 11
46.479173
 21
-18.838075
 31
0.0
  0
LINE
  5
6D
100
AcDbEntity
  8
2
370
    50
100
AcDbLine
 10
40.179173
 20
-51.088075
 30
0.0
 11
28.807341
 21
-51.088075
 31
0.0
  0
ARC
  5
6E
100
AcDbEntity
  8
2
370
    50
100
AcDbCircle
 10
28.807341
 20
-101.088075
 30
0.0
 40
50.0
100
AcDbArc
 50
90.0
 51
105.740549
  0
LINE
  5
6F
100
AcDbEntity
  8
2
370
    25
  6
CENTER
100
AcDbLine
 10
-44.725384
 20
-41.838075
 30
0.0
 11
70.554142
 21
-41.838075
 31
0.0
  0
ARC
  5
70
100
AcDbEntity
  8
2
370
    50
100
AcDbCircle
 10
24.179173
 20
-22.588075
 30
0.0
 40
10.0
100
AcDbArc
 50
180.0
 51
270.0
  0
LINE
  5
71
100
AcDbEntity
  8
2
370
    25
  6
CENTER
100
AcDbLine
 10
1.679419
 20
52.968596
 30
0.0
 11
1.679419
 21
87.026274
 31
0.0
  0
LINE
  5
72
100
AcDbEntity
  8
2
370
    50
100
AcDbLine
 10
44.179419
 20
48.046107
 30
0.0
 11
44.179419
 21
92.046107
 31
0.0
  0
LINE
  5
73
100
AcDbEntity
  8
2
370
    50
100
AcDbLine
 10
60.679419
 20
61.996107
 30
0.0
 11
60.679419
 21
78.096107
 31
0.0
  0
LINE
  5
74
100
AcDbEntity
  8
2
370
    50
100
AcDbLine
 10
45.179419
 20
93.046107
 30
0.0
 11
46.479419
 21
93.046107
 31
0.0
  0
LINE
  5
75
100
AcDbEntity
  8
2
370
    50
100
AcDbLine
 10
45.179419
 20
47.046107
 30
0.0
 11
46.479419
 21
47.046107
 31
0.0
  0
LINE
  5
76
100
AcDbEntity
  8
2
370
    50
100
AcDbLine
 10
46.679419
 20
47.246107
 30
0.0
 11
46.679419
 21
92.846107
 31
0.0
  0
ARC
  5
77
100
AcDbEntity
  8
2
370
    50
100
AcDbCircle
 10
45.179419
 20
92.046107
 30
0.0
 40
1.0
100
AcDbArc
 50
90.0
 51
180.0
  0
ARC
  5
78
100
AcDbEntity
  8
2
370
    50
100
AcDbCircle
 10
45.179419
 20
48.046107
 30
0.0
 40
1.0
100
AcDbArc
 50
180.0
 51
270.0
  0
ARC
  5
79
100
AcDbEntity
  8
2
370
    50
100
AcDbCircle
 10
40.179419
 20
83.296107
 30
0.0
 40
4.0
100
AcDbArc
 50
270.0
 51
360.0
  0
ARC
  5
7A
100
AcDbEntity
  8
2
370
    50
100
AcDbCircle
 10
40.179419
 20
56.796107
 30
0.0
 40
4.0
100
AcDbArc
 50
0.0
 51
90.0
  0
LINE
  5
7B
100
AcDbEntity
  8
2
370
    50
100
AcDbLine
 10
46.679419
 20
79.296107
 30
0.0
 11
59.479419
 21
79.296107
 31
0.0
  0
LINE
  5
7C
100
AcDbEntity
  8
2
370
    50
100
AcDbLine
 10
46.679419
 20
60.796107
 30
0.0
 11
59.479419
 21
60.796107
 31
0.0
  0
LINE
  5
7D
100
AcDbEntity
  8
2
370
    50
100
AcDbLine
 10
19.241808
 20
79.296107
 30
0.0
 11
40.179419
 21
79.296107
 31
0.0
  0
LINE
  5
7E
100
AcDbEntity
  8
2
370
    50
100
AcDbLine
 10
19.241808
 20
60.796107
 30
0.0
 11
40.179419
 21
60.796107
 31
0.0
  0
LINE
  5
7F
100
AcDbEntity
  8
2
370
    25
100
AcDbLine
 10
49.679419
 20
78.096107
 30
0.0
 11
60.679419
 21
78.096107
 31
0.0
  0
LINE
  5
80
100
AcDbEntity
  8
2
370
    25
100
AcDbLine
 10
49.679419
 20
61.996107
 30
0.0
 11
60.679419
 21
61.996107
 31
0.0
  0
LINE
  5
81
100
AcDbEntity
  8
2
370
    50
100
AcDbLine
 10
59.479419
 20
79.296107
 30
0.0
 11
60.679419
 21
78.096107
 31
0.0
  0
LINE
  5
82
100
AcDbEntity
  8
2
370
    50
100
AcDbLine
 10
59.479419
 20
60.796107
 30
0.0
 11
59.479419
 21
79.296107
 31
0.0
  0
LINE
  5
83
100
AcDbEntity
  8
2
370
    50
100
AcDbLine
 10
48.479419
 20
79.296107
 30
0.0
 11
49.679419
 21
78.096107
 31
0.0
  0
LINE
  5
84
100
AcDbEntity
  8
2
370
    50
100
AcDbLine
 10
48.479419
 20
60.796107
 30
0.0
 11
49.679419
 21
61.996107
 31
0.0
  0
LINE
  5
85
100
AcDbEntity
  8
2
370
    50
100
AcDbLine
 10
49.679419
 20
60.796107
 30
0.0
 11
49.679419
 21
79.296107
 31
0.0
  0
ARC
  5
86
100
AcDbEntity
  8
2
370
    50
100
AcDbCircle
 10
19.241808
 20
109.296107
 30
0.0
 40
30.0
100
AcDbArc
 50
267.461843
 51
270.0
  0
ARC
  5
87
100
AcDbEntity
  8
2
370
    50
100
AcDbCircle
 10
19.241808
 20
30.796107
 30
0.0
 40
30.0
100
AcDbArc
 50
90.0
 51
92.538157
  0
LINE
  5
88
100
AcDbEntity
  8
2
370
    25
  6
CENTER
100
AcDbLine
 10
-46.071594
 20
70.046107
 30
0.0
 11
66.078013
 21
70.046107
 31
0.0
  0
POINT
  5
89
100
AcDbEntity
  8
2
370
    50
100
AcDbPoint
 10
1.679173
 20
-31.338075
 30
0.0
  0
LINE
  5
8A
100
AcDbEntity
  8
2
370
    25
  6
CENTER
100
AcDbLine
 10
1.679173
 20
-75.095932
 30
0.0
 11
1.679173
 21
18.141592
 31
0.0
  0
LINE
  5
8B
100
AcDbEntity
  8
2
370
    50
100
AcDbLine
 10
59.479419
 20
60.796107
 30
0.0
 11
60.679419
 21
61.996107
 31
0.0
  0
ARC
  5
8C
100
AcDbEntity
  8
2
370
    50
100
AcDbCircle
 10
1.679335
 20
-4.838075
 30
0.0
 40
50.0
100
AcDbArc
 50
249.842024
 51
285.740549
  0
LINE
  5
8D
100
AcDbEntity
  8
2
370
    50
100
AcDbLine
 10
-39.942308
 20
-54.57861
 30
0.0
 11
-41.434311
 21
-65.194763
 31
0.0
  0
LINE
  5
8E
100
AcDbEntity
  8
2
370
    50
100
AcDbLine
 10
-23.56042
 20
-56.572814
 30
0.0
 11
-25.094888
 21
-67.491119
 31
0.0
  0
LINE
  5
8F
100
AcDbEntity
  8
2
370
    50
100
AcDbLine
 10
-39.374821
 20
-65.989119
 30
0.0
 11
-41.008763
 21
-65.759484
 31
0.0
  0
LINE
  5
90
100
AcDbEntity
  8
2
370
    50
100
AcDbLine
 10
-41.008763
 20
-65.759484
 30
0.0
 11
-41.434311
 21
-65.194763
 31
0.0
  0
LINE
  5
91
100
AcDbEntity
  8
2
370
    50
100
AcDbLine
 10
-25.659608
 20
-67.916667
 30
0.0
 11
-25.094888
 21
-67.491119
 31
0.0
  0
LINE
  5
92
100
AcDbEntity
  8
2
370
    50
100
AcDbLine
 10
-39.374821
 20
-65.989119
 30
0.0
 11
-25.659608
 21
-67.916667
 31
0.0
  0
ARC
  5
93
100
AcDbEntity
  8
2
370
    50
100
AcDbCircle
 10
-17.618812
 20
-57.407853
 30
0.0
 40
6.0
100
AcDbArc
 50
69.842024
 51
172.0
  0
LINE
  5
94
100
AcDbEntity
  8
2
370
    50
100
AcDbLine
 10
-23.500315
 20
-36.085805
 30
0.0
 11
-18.232475
 21
-34.674292
 31
0.0
  0
ARC
  5
95
100
AcDbEntity
  8
2
370
    50
100
AcDbCircle
 10
-17.676886
 20
-57.819136
 30
0.0
 40
22.5
100
AcDbArc
 50
105.0
 51
172.28073
  0
ARC
  5
96
100
AcDbEntity
  8
2
370
    50
100
AcDbCircle
 10
-20.820665
 20
-25.015033
 30
0.0
 40
10.0
100
AcDbArc
 50
285.0
 51
360.0
  0
POINT
  5
97
100
AcDbEntity
  8
2
370
    50
100
AcDbPoint
 10
-33.3344
 20
-66.838075
 30
0.0
  0
LINE
  5
98
100
AcDbEntity
  8
2
370
    50
100
AcDbLine
 10
46.479173
 20
-18.838075
 30
0.0
 11
46.479173
 21
-64.838075
 31
0.0
  0
LINE
  5
99
100
AcDbEntity
  8
2
370
    50
100
AcDbLine
 10
49.679173
 20
-31.360575
 30
0.0
 11
49.679173
 21
-52.315575
 31
0.0
  0
LINE
  5
9A
100
AcDbEntity
  8
2
370
    50
100
AcDbLine
 10
59.479173
 20
-31.360575
 30
0.0
 11
59.479173
 21
-52.315575
 31
0.0
  0
LINE
  5
9B
100
AcDbEntity
  8
2
370
    50
100
AcDbLine
 10
-33.320581
 20
78.296107
 30
0.0
 11
-17.965873
 21
78.296107
 31
0.0
  0
LINE
  5
9C
100
AcDbEntity
  8
2
370
    50
100
AcDbLine
 10
-33.320581
 20
61.796107
 30
0.0
 11
-17.965873
 21
61.796107
 31
0.0
  0
ARC
  5
9D
100
AcDbEntity
  8
2
370
    50
100
AcDbCircle
 10
-33.320581
 20
70.046107
 30
0.0
 40
8.25
100
AcDbArc
 50
90.0
 51
270.0
  0
LINE
  5
9E
100
AcDbEntity
  8
2
370
    50
100
AcDbLine
 10
46.479419
 20
93.046107
 30
0.0
 11
46.479419
 21
47.046107
 31
0.0
  0
LINE
  5
9F
100
AcDbEntity
  8
2
370
    50
100
AcDbLine
 10
46.679419
 20
47.246107
 30
0.0
 11
46.479419
 21
47.046107
 31
0.0
  0
LINE
  5
A0
100
AcDbEntity
  8
2
370
    50
100
AcDbLine
 10
46.679419
 20
92.846107
 30
0.0
 11
46.479419
 21
93.046107
 31
0.0
  0
LINE
  5
A1
100
AcDbEntity
  8
2
370
    25
  6
CENTER
100
AcDbLine
 10
-32.555706
 20
-61.2989
 30
0.0
 11
-34.894418
 21
-77.939705
 31
0.0
  0
ARC
  5
A2
100
AcDbEntity
  8
2
370
    50
100
AcDbCircle
 10
14.179419
 20
48.395472
 30
0.0
 40
6.0
100
AcDbArc
 50
229.129151
 51
10.870849
  0
ARC
  5
A3
100
AcDbEntity
  8
2
370
    50
100
AcDbCircle
 10
-23.320581
 20
70.046107
 30
0.0
 40
6.0
100
AcDbArc
 50
109.129151
 51
250.870849
  0
ARC
  5
A4
100
AcDbEntity
  8
2
370
    50
100
AcDbCircle
 10
14.179419
 20
91.696742
 30
0.0
 40
6.0
100
AcDbArc
 50
349.129151
 51
130.870849
  0
LINE
  5
A5
100
AcDbEntity
  8
2
370
    50
100
AcDbLine
 10
20.071748
 20
90.565168
 30
0.0
 11
17.217775
 21
75.703982
 31
0.0
  0
ARC
  5
A6
100
AcDbEntity
  8
2
370
    50
100
AcDbCircle
 10
46.679419
 20
70.046107
 30
0.0
 40
30.0
100
AcDbArc
 50
169.129151
 51
190.870849
  0
LINE
  5
A7
100
AcDbEntity
  8
2
370
    50
100
AcDbLine
 10
20.071748
 20
49.527047
 30
0.0
 11
17.217775
 21
64.388233
 31
0.0
  0
LINE
  5
A8
100
AcDbEntity
  8
2
370
    50
100
AcDbLine
 10
10.253282
 20
96.233861
 30
0.0
 11
-1.189896
 21
86.331656
 31
0.0
  0
LINE
  5
A9
100
AcDbEntity
  8
2
370
    50
100
AcDbLine
 10
-25.286773
 20
75.714801
 30
0.0
 11
-10.989622
 21
80.673781
 31
0.0
  0
ARC
  5
AA
100
AcDbEntity
  8
2
370
    50
100
AcDbCircle
 10
-20.820581
 20
109.017251
 30
0.0
 40
30.0
100
AcDbArc
 50
289.129151
 51
310.870849
  0
LINE
  5
AB
100
AcDbEntity
  8
2
370
    50
100
AcDbLine
 10
10.253282
 20
43.858353
 30
0.0
 11
-1.189896
 21
53.760559
 31
0.0
  0
LINE
  5
AC
100
AcDbEntity
  8
2
370
    50
100
AcDbLine
 10
-25.286773
 20
64.377414
 30
0.0
 11
-10.989622
 21
59.418433
 31
0.0
  0
ARC
  5
AD
100
AcDbEntity
  8
2
370
    50
100
AcDbCircle
 10
-20.820581
 20
31.074964
 30
0.0
 40
30.0
100
AcDbArc
 50
49.129151
 51
70.870849
  0
CIRCLE
  5
AE
100
AcDbEntity
  8
2
370
    50
100
AcDbCircle
 10
1.679419
 20
70.046107
 30
0.0
 40
7.0
  0
CIRCLE
  5
AF
100
AcDbEntity
  8
2
370
    50
100
AcDbCircle
 10
1.679419
 20
70.046107
 30
0.0
 40
5.5
  0
LINE
  5
B0
100
AcDbEntity
  8
2
370
    25
100
AcDbLine
 10
1.679173
 20
13.161303
 30
0.0
 11
1.679173
 21
16.161303
 31
0.0
  0
LINE
  5
B1
100
AcDbEntity
  8
2
370
    50
100
AcDbLine
 10
7.679173
 20
-5.338697
 30
0.0
 11
-4.320827
 21
-5.338697
 31
0.0
  0
LINE
  5
B2
100
AcDbEntity
  8
2
370
    50
100
AcDbLine
 10
14.179173
 20
-10.338697
 30
0.0
 11
-10.820827
 21
-10.338697
 31
0.0
  0
ARC
  5
B3
100
AcDbEntity
  8
2
370
    50
100
AcDbCircle
 10
10.608459
 20
-13.838697
 30
0.0
 40
5.0
100
AcDbArc
 50
315.572996
 51
44.427004
  0
ARC
  5
B4
100
AcDbEntity
  8
2
370
    50
100
AcDbCircle
 10
-7.250113
 20
-13.838697
 30
0.0
 40
5.0
100
AcDbArc
 50
135.572996
 51
224.427004
  0
LINE
  5
B5
100
AcDbEntity
  8
2
370
    50
100
AcDbLine
 10
-4.320827
 20
-5.338697
 30
0.0
 11
-10.820827
 21
-10.338697
 31
0.0
  0
LINE
  5
B6
100
AcDbEntity
  8
2
370
    50
100
AcDbLine
 10
7.679173
 20
-5.338697
 30
0.0
 11
14.179173
 21
-10.338697
 31
0.0
  0
ELLIPSE
  5
B7
100
AcDbEntity
  8
2
370
    50
100
AcDbEllipse
 10
1.679173
 20
-13.838697
 30
0.0
 11
5.0
 21
0.0
 31
0.0
210
0.0
220
0.0
230
1.0
 40
0.6
 41
0.0
 42
6.2831849999999996
  0
ELLIPSE
  5
B8
100
AcDbEntity
  8
2
370
    50
100
AcDbEllipse
 10
13.108459
 20
-13.838697
 30
0.0
 11
0.0
 21
3.0
 31
0.0
210
0.0
220
0.0
230
1.0
 40
0.833333
 41
0.0
 42
6.2831849999999996
  0
ELLIPSE
  5
B9
100
AcDbEntity
  8
2
370
    50
100
AcDbEllipse
 10
-9.750113
 20
-13.838697
 30
0.0
 11
0.0
 21
-3.0
 31
0.0
210
0.0
220
0.0
230
1.0
 40
0.833333
 41
0.0
 42
6.2831849999999996
  0
LINE
  5
BA
100
AcDbEntity
  8
2
370
    50
100
AcDbLine
 10
6.429173
 20
-5.338697
 30
0.0
 11
6.429173
 21
2.161303
 31
0.0
  0
LINE
  5
BB
100
AcDbEntity
  8
2
370
    50
100
AcDbLine
 10
-3.070827
 20
-5.338697
 30
0.0
 11
-3.070827
 21
2.161303
 31
0.0
  0
LINE
  5
BC
100
AcDbEntity
  8
2
370
    50
100
AcDbLine
 10
-26.714377
 20
2.161303
 30
0.0
 11
19.679173
 21
2.161303
 31
0.0
  0
LINE
  5
BD
100
AcDbEntity
  8
2
370
    50
100
AcDbLine
 10
-28.646228
 20
4.678941
 30
0.0
 11
-27.835214
 21
7.705688
 31
0.0
  0
ARC
  5
BE
100
AcDbEntity
  8
2
370
    50
100
AcDbCircle
 10
-26.714377
 20
4.161303
 30
0.0
 40
2.0
100
AcDbArc
 50
165.0
 51
270.0
  0
ARC
  5
BF
100
AcDbEntity
  8
2
370
    50
100
AcDbCircle
 10
1.679173
 20
-166.838697
 30
0.0
 40
180.0
100
AcDbArc
 50
85.411434
 51
98.108943
  0
ARC
  5
C0
100
AcDbEntity
  8
2
370
    50
100
AcDbCircle
 10
-23.005585
 20
6.411592
 30
0.0
 40
5.0
100
AcDbArc
 50
98.108943
 51
165.0
  0
LINE
  5
C1
100
AcDbEntity
  8
2
370
    50
100
AcDbLine
 10
20.679173
 20
3.161303
 30
0.0
 11
20.679173
 21
7.600404
 31
0.0
  0
ARC
  5
C2
100
AcDbEntity
  8
2
370
    50
100
AcDbCircle
 10
19.679173
 20
3.161303
 30
0.0
 40
1.0
100
AcDbArc
 50
270.0
 51
360.0
  0
ARC
  5
C3
100
AcDbEntity
  8
2
370
    50
100
AcDbCircle
 10
15.679173
 20
7.600404
 30
0.0
 40
5.0
100
AcDbArc
 50
0.0
 51
85.411434
  0
LINE
  5
C4
100
AcDbEntity
  8
2
370
    50
100
AcDbLine
 10
9.679173
 20
3.161303
 30
0.0
 11
9.679173
 21
8.135587
 31
0.0
  0
ARC
  5
C5
100
AcDbEntity
  8
2
370
    50
100
AcDbCircle
 10
4.679173
 20
8.135587
 30
0.0
 40
5.0
100
AcDbArc
 50
0.0
 51
89.017739
  0
ARC
  5
C6
100
AcDbEntity
  8
2
370
    50
100
AcDbCircle
 10
8.679173
 20
3.161303
 30
0.0
 40
1.0
100
AcDbArc
 50
270.0
 51
360.0
  0
LINE
  5
C7
100
AcDbEntity
  8
2
370
    50
100
AcDbLine
 10
-5.320827
 20
16.161303
 30
0.0
 11
8.679173
 21
16.161303
 31
0.0
  0
LINE
  5
C8
100
AcDbEntity
  8
2
370
    50
100
AcDbLine
 10
-5.320827
 20
13.02514
 30
0.0
 11
-5.320827
 21
16.161303
 31
0.0
  0
LINE
  5
C9
100
AcDbEntity
  8
2
370
    50
100
AcDbLine
 10
8.679173
 20
13.02514
 30
0.0
 11
8.679173
 21
16.161303
 31
0.0
  0
LINE
  5
CA
100
AcDbEntity
  8
2
370
    25
100
AcDbLine
 10
2.179173
 20
13.160609
 30
0.0
 11
2.179173
 21
16.161303
 31
0.0
  0
LINE
  5
CB
100
AcDbEntity
  8
2
370
    25
100
AcDbLine
 10
2.679173
 20
13.160609
 30
0.0
 11
2.679173
 21
16.161303
 31
0.0
  0
LINE
  5
CC
100
AcDbEntity
  8
2
370
    25
100
AcDbLine
 10
3.179173
 20
13.160609
 30
0.0
 11
3.179173
 21
16.161303
 31
0.0
  0
LINE
  5
CD
100
AcDbEntity
  8
2
370
    25
100
AcDbLine
 10
3.679173
 20
13.160609
 30
0.0
 11
3.679173
 21
16.161303
 31
0.0
  0
LINE
  5
CE
100
AcDbEntity
  8
2
370
    25
100
AcDbLine
 10
4.179173
 20
13.160609
 30
0.0
 11
4.179173
 21
16.161303
 31
0.0
  0
LINE
  5
CF
100
AcDbEntity
  8
2
370
    25
100
AcDbLine
 10
4.679173
 20
13.136301
 30
0.0
 11
4.679173
 21
16.161303
 31
0.0
  0
LINE
  5
D0
100
AcDbEntity
  8
2
370
    25
100
AcDbLine
 10
5.179173
 20
13.127272
 30
0.0
 11
5.179173
 21
16.161303
 31
0.0
  0
LINE
  5
D1
100
AcDbEntity
  8
2
370
    25
100
AcDbLine
 10
5.679173
 20
13.116853
 30
0.0
 11
5.679173
 21
16.161303
 31
0.0
  0
LINE
  5
D2
100
AcDbEntity
  8
2
370
    25
100
AcDbLine
 10
6.179173
 20
13.105044
 30
0.0
 11
6.179173
 21
16.161303
 31
0.0
  0
LINE
  5
D3
100
AcDbEntity
  8
2
370
    25
100
AcDbLine
 10
6.679173
 20
13.091845
 30
0.0
 11
6.679173
 21
16.161303
 31
0.0
  0
LINE
  5
D4
100
AcDbEntity
  8
2
370
    25
100
AcDbLine
 10
7.179173
 20
13.077256
 30
0.0
 11
7.179173
 21
16.161303
 31
0.0
  0
LINE
  5
D5
100
AcDbEntity
  8
2
370
    25
100
AcDbLine
 10
7.679173
 20
13.061275
 30
0.0
 11
7.679173
 21
16.161303
 31
0.0
  0
LINE
  5
D6
100
AcDbEntity
  8
2
370
    25
100
AcDbLine
 10
8.179173
 20
13.043904
 30
0.0
 11
8.179173
 21
16.161303
 31
0.0
  0
LINE
  5
D7
100
AcDbEntity
  8
2
370
    25
100
AcDbLine
 10
1.179173
 20
13.160609
 30
0.0
 11
1.179173
 21
16.161303
 31
0.0
  0
LINE
  5
D8
100
AcDbEntity
  8
2
370
    25
100
AcDbLine
 10
0.679173
 20
13.160609
 30
0.0
 11
0.679173
 21
16.161303
 31
0.0
  0
LINE
  5
D9
100
AcDbEntity
  8
2
370
    25
100
AcDbLine
 10
0.179173
 20
13.160609
 30
0.0
 11
0.179173
 21
16.161303
 31
0.0
  0
LINE
  5
DA
100
AcDbEntity
  8
2
370
    25
100
AcDbLine
 10
-0.320827
 20
13.160609
 30
0.0
 11
-0.320827
 21
16.161303
 31
0.0
  0
LINE
  5
DB
100
AcDbEntity
  8
2
370
    25
100
AcDbLine
 10
-0.820827
 20
13.160609
 30
0.0
 11
-0.820827
 21
16.161303
 31
0.0
  0
LINE
  5
DC
100
AcDbEntity
  8
2
370
    25
100
AcDbLine
 10
-1.320827
 20
13.136301
 30
0.0
 11
-1.320827
 21
16.161303
 31
0.0
  0
LINE
  5
DD
100
AcDbEntity
  8
2
370
    25
100
AcDbLine
 10
-1.820827
 20
13.127272
 30
0.0
 11
-1.820827
 21
16.161303
 31
0.0
  0
LINE
  5
DE
100
AcDbEntity
  8
2
370
    25
100
AcDbLine
 10
-2.320827
 20
13.116853
 30
0.0
 11
-2.320827
 21
16.161303
 31
0.0
  0
LINE
  5
DF
100
AcDbEntity
  8
2
370
    25
100
AcDbLine
 10
-2.820827
 20
13.105044
 30
0.0
 11
-2.820827
 21
16.161303
 31
0.0
  0
LINE
  5
E0
100
AcDbEntity
  8
2
370
    25
100
AcDbLine
 10
-3.320827
 20
13.091845
 30
0.0
 11
-3.320827
 21
16.161303
 31
0.0
  0
LINE
  5
E1
100
AcDbEntity
  8
2
370
    25
100
AcDbLine
 10
-3.820827
 20
13.077256
 30
0.0
 11
-3.820827
 21
16.161303
 31
0.0
  0
LINE
  5
E2
100
AcDbEntity
  8
2
370
    25
100
AcDbLine
 10
-4.320827
 20
13.061275
 30
0.0
 11
-4.320827
 21
16.161303
 31
0.0
  0
LINE
  5
E3
100
AcDbEntity
  8
2
370
    25
100
AcDbLine
 10
-4.820827
 20
13.043904
 30
0.0
 11
-4.820827
 21
16.161303
 31
0.0
  0
LINE
  5
E4
100
AcDbEntity
  8
2
370
    50
100
AcDbLine
 10
14.179173
 20
-17.338697
 30
0.0
 11
-10.820827
 21
-17.338697
 31
0.0
  0
LINE
  5
E5
100
AcDbEntity
  8
2
370
    50
100
AcDbLine
 10
-10.320827
 20
-19.337697
 30
0.0
 11
-10.320827
 21
-17.338697
 31
0.0
  0
LINE
  5
E6
100
AcDbEntity
  8
2
370
    50
100
AcDbLine
 10
13.679173
 20
-19.337697
 30
0.0
 11
13.679173
 21
-17.338697
 31
0.0
  0
LINE
  5
E7
100
AcDbEntity
  8
2
370
    50
100
AcDbLine
 10
13.079173
 20
-17.398466
 30
0.0
 11
13.079173
 21
-17.338697
 31
0.0
  0
LINE
  5
E8
100
AcDbEntity
  8
2
370
    50
100
AcDbLine
 10
-9.720827
 20
-17.398466
 30
0.0
 11
-9.720827
 21
-17.338697
 31
0.0
  0
LINE
  5
E9
100
AcDbEntity
  8
2
370
    50
100
AcDbLine
 10
-10.320827
 20
-18.437697
 30
0.0
 11
-9.720827
 21
-17.398466
 31
0.0
  0
LINE
  5
EA
100
AcDbEntity
  8
2
370
    50
100
AcDbLine
 10
13.679173
 20
-18.437697
 30
0.0
 11
13.079173
 21
-17.398466
 31
0.0
  0
DIMENSION
  5
EB
100
AcDbEntity
  8
3
370
    25
100
AcDbDimension
  2
*D0
 10
77.92744
 20
47.046107
 30
0.0
 11
72.17744
 21
68.296107
 31
0.0
 70
     1
 71
     0
 72
     0
 41
0.0
 42
0.0
  3
Standard
100
AcDbAlignedDimension
 13
46.679419
 23
93.046107
 33
0.0
 14
46.679419
 24
47.046107
 34
0.0
 50
90.0
  0
TEXT
  5
EC
100
AcDbEntity
  8
3
370
    50
100
AcDbText
 10
64.382124
 20
-4.605634
 30
0.0
 40
3.5
  1
ＰＪ１／２
 72
     5
 11
81.182124
 21
-4.605634
 31
0.0
100
AcDbText
  0
TEXT
  5
ED
100
AcDbEntity
  8
3
370
    50
100
AcDbText
 10
61.520474
 20
-9.788302
 30
0.0
 40
3.5
  1
（給水栓ネジ）
 72
     5
 11
85.320474
 21
-9.788302
 31
0.0
100
AcDbText
  0
LWPOLYLINE
  5
EE
100
AcDbEntity
  8
3
370
    25
100
AcDbPolyline
 90
        3
 70
     0
 10
50.66232
 20
-31.267363
 10
60.533351
 20
-5.344347
 10
85.048976
 20
-5.344347
  0
LINE
  5
F3
100
AcDbEntity
  8
3
370
    25
100
AcDbLine
 10
51.349782
 20
-29.461969
 30
0.0
 11
50.866028
 21
-29.277764
 31
0.0
  0
LINE
  5
F4
100
AcDbEntity
  8
3
370
    25
100
AcDbLine
 10
50.866028
 20
-29.277764
 30
0.0
 11
50.66232
 21
-31.267363
 31
0.0
  0
LINE
  5
F5
100
AcDbEntity
  8
3
370
    25
100
AcDbLine
 10
50.66232
 20
-31.267363
 30
0.0
 11
51.833536
 21
-29.646174
 31
0.0
  0
LINE
  5
F6
100
AcDbEntity
  8
3
370
    25
100
AcDbLine
 10
51.833536
 20
-29.646174
 30
0.0
 11
51.349782
 21
-29.461969
 31
0.0
  0
DIMENSION
  5
F7
100
AcDbEntity
  8
3
370
    25
100
AcDbDimension
  2
*D1
 10
60.679173
 20
-84.911186
 30
0.0
 11
53.679173
 21
-82.661186
 31
0.0
 71
     0
 72
     0
 41
0.0
 42
0.0
  3
Standard
100
AcDbAlignedDimension
 13
46.679173
 23
-64.638075
 33
0.0
 14
60.679173
 24
-51.115575
 34
0.0
100
AcDbRotatedDimension
  0
DIMENSION
  5
F8
100
AcDbEntity
  8
3
370
    25
100
AcDbDimension
  2
*D2
 10
46.679173
 20
-84.911186
 30
0.0
 11
24.179173
 21
-82.661186
 31
0.0
 71
     0
 72
     0
 41
0.0
 42
0.0
  3
Standard
100
AcDbAlignedDimension
 13
1.679173
 23
-73.510605
 33
0.0
 14
46.679173
 24
-64.638075
 34
0.0
100
AcDbRotatedDimension
  0
DIMENSION
  5
F9
100
AcDbEntity
  8
3
370
    25
100
AcDbDimension
  2
*D3
 10
-70.476868
 20
-41.838075
 30
0.0
 11
-74.476868
 21
-54.338075
 31
0.0
 71
     0
 72
     0
 41
0.0
 42
0.0
  3
Standard
100
AcDbAlignedDimension
 13
-33.3344
 23
-66.838075
 33
0.0
 14
-44.725384
 24
-41.838075
 34
0.0
 50
90.0
100
AcDbRotatedDimension
  0
TEXT
  5
FA
100
AcDbEntity
  8
3
370
    50
100
AcDbText
 10
-19.327614
 20
-84.411186
 30
0.0
 40
3.5
  1
３５
 72
     5
 11
-13.027614
 21
-84.411186
 31
0.0
100
AcDbText
  0
DIMENSION
  5
FB
100
AcDbEntity
  8
3
370
    25
100
AcDbDimension
  2
*D4
 10
1.679173
 20
-84.911186
 30
0.0
 11
-15.827614
 21
-82.911186
 31
0.0
 71
     0
 72
     0
 41
0.0
 42
0.0
  3
Standard
100
AcDbAlignedDimension
 13
-33.3344
 23
-66.838075
 33
0.0
 14
1.679173
 24
-75.095932
 34
0.0
100
AcDbRotatedDimension
  0
DIMENSION
  5
FC
100
AcDbEntity
  8
3
370
    25
100
AcDbDimension
  2
*D5
 10
-33.3344
 20
-75.613464
 30
0.0
 11
-33.313026
 21
-77.736022
 31
0.0
 70
     2
 71
     0
 72
     0
 41
0.0
 42
0.0
  3
Standard
100
AcDb2LineAngularDimension
 13
-34.894418
 23
-77.939705
 33
0.0
 14
-33.3344
 24
-66.839599
 34
0.0
 15
-33.3344
 25
-66.839599
 35
0.0
 16
-34.17654
 26
-78.882759
 36
0.0
1001
ACAD
1000
DSTYLE
1002
{
1070
   275
1070
     0
1070
   179
1070
     0
1002
}
  0
TEXT
  5
FD
100
AcDbEntity
  8
3
370
    50
100
AcDbText
 10
145.416291
 20
-120.006746
 30
0.0
 40
3.0
  1
１　１
 72
     5
 11
153.816291
 21
-120.006746
 31
0.0
100
AcDbText
  0
TEXT
  5
FE
100
AcDbEntity
  8
3
370
    50
100
AcDbText
 10
116.169899
 20
-135.853119
 30
0.0
 40
3.0
  1
外観寸法図
 72
     5
 11
130.569899
 21
-135.853119
 31
0.0
100
AcDbText
  0
POINT
  5
FF
100
AcDbEntity
  8
3
370
    50
100
AcDbPoint
 10
1.679173
 20
16.161303
 30
0.0
  0
TEXT
  5
100
100
AcDbEntity
  8
3
370
    50
100
AcDbText
 10
-70.976868
 20
-16.338386
 30
0.0
 40
3.5
  1
５８
 50
90.0
 72
     5
 11
-70.976868
 21
-10.038386
 31
0.0
100
AcDbText
  0
DIMENSION
  5
101
100
AcDbEntity
  8
3
370
    25
100
AcDbDimension
  2
*D6
 10
-70.476868
 20
16.161303
 30
0.0
 11
-72.976868
 21
-12.838386
 31
0.0
 71
     0
 72
     0
 41
0.0
 42
0.0
  3
Standard
100
AcDbAlignedDimension
 13
-44.725384
 23
-41.838075
 33
0.0
 14
-5.320827
 24
16.161303
 34
0.0
 50
90.0
100
AcDbRotatedDimension
  0
TEXT
  5
102
100
AcDbEntity
  8
3
370
    50
100
AcDbText
 10
172.549065
 20
-128.050147
 30
0.0
 40
3.0
  1
５２　　１　３１
 72
     5
 11
195.949065
 21
-128.050147
 31
0.0
100
AcDbText
  0
LINE
  5
103
100
AcDbEntity
  8
3
370
    50
100
AcDbLine
 10
-72.858376
 20
-127.485941
 30
0.0
 11
20.491193
 21
-127.485941
 31
0.0
  0
LINE
  5
104
100
AcDbEntity
  8
3
370
    50
100
AcDbLine
 10
-72.858376
 20
-127.985941
 30
0.0
 11
20.491193
 21
-127.985941
 31
0.0
  0
LINE
  5
105
100
AcDbEntity
  8
3
370
    50
100
AcDbLine
 10
-72.858376
 20
-121.985941
 30
0.0
 11
20.491193
 21
-121.985941
 31
0.0
  0
LINE
  5
106
100
AcDbEntity
  8
3
370
    50
100
AcDbLine
 10
-72.858376
 20
-133.485941
 30
0.0
 11
20.491193
 21
-133.485941
 31
0.0
  0
LINE
  5
107
100
AcDbEntity
  8
3
370
    50
100
AcDbLine
 10
-9.508807
 20
-138.985941
 30
0.0
 11
-9.508807
 21
-121.985941
 31
0.0
  0
LINE
  5
108
100
AcDbEntity
  8
3
370
    50
100
AcDbLine
 10
-51.008807
 20
-138.985941
 30
0.0
 11
-51.008807
 21
-121.985941
 31
0.0
  0
LINE
  5
109
100
AcDbEntity
  8
3
370
    50
100
AcDbLine
 10
-72.858376
 20
-138.985941
 30
0.0
 11
-72.858376
 21
-121.985941
 31
0.0
  0
TEXT
  5
10A
100
AcDbEntity
  8
3
370
    50
100
AcDbText
 10
-70.711174
 20
-131.825027
 30
0.0
 40
3.0
  1
５００１００
 72
     5
 11
-53.311174
 21
-131.825027
 31
0.0
100
AcDbText
  0
TEXT
  5
10B
100
AcDbEntity
  8
3
370
    50
100
AcDbText
 10
-47.757683
 20
-131.87587
 30
0.0
 40
3.0
  1
Ｋ１３－１
 72
     5
 11
-33.357683
 21
-131.87587
 31
0.0
100
AcDbText
  0
TEXT
  5
10C
100
AcDbEntity
  8
3
370
    50
100
AcDbText
 10
-6.237247
 20
-131.94575
 30
0.0
 40
3.0
  1
横水栓１３
 72
     5
 11
8.162753
 21
-131.94575
 31
0.0
100
AcDbText
  0
TEXT
  5
10D
100
AcDbEntity
  8
3
370
    50
100
AcDbText
 10
-68.636383
 20
-126.24575
 30
0.0
 40
3.0
  1
コードＮｏ
 72
     5
 11
-54.236383
 21
-126.24575
 31
0.0
100
AcDbText
  0
TEXT
  5
10E
100
AcDbEntity
  8
3
370
    50
100
AcDbText
 10
-36.504513
 20
-126.372086
 30
0.0
 40
3.0
  1
品　　番
 72
     5
 11
-25.104513
 21
-126.372086
 31
0.0
100
AcDbText
  0
TEXT
  5
10F
100
AcDbEntity
  8
3
370
    50
100
AcDbText
 10
0.762753
 20
-126.24575
 30
0.0
 40
3.0
  1
品　　名
 72
     5
 11
12.162753
 21
-126.24575
 31
0.0
100
AcDbText
  0
TEXT
  5
110
100
AcDbEntity
  8
3
370
    50
100
AcDbText
 10
-70.711174
 20
-137.825027
 30
0.0
 40
3.0
  1
５００１０２
 72
     5
 11
-53.311174
 21
-137.825027
 31
0.0
100
AcDbText
  0
TEXT
  5
111
100
AcDbEntity
  8
3
370
    50
100
AcDbText
 10
-47.757683
 20
-137.87587
 30
0.0
 40
3.0
  1
Ｋ１３－１Ａ　コテイシキ
 72
     5
 11
-12.357683
 21
-137.87587
 31
0.0
100
AcDbText
  0
TEXT
  5
112
100
AcDbEntity
  8
3
370
    50
100
AcDbText
 10
-6.237247
 20
-137.94575
 30
0.0
 40
3.0
  1
横水栓１３（寒）
 72
     5
 11
17.162753
 21
-137.94575
 31
0.0
100
AcDbText
  0
LWPOLYLINE
  5
113
100
AcDbEntity
  8
4
370
    25
100
AcDbPolyline
 90
        2
 70
     0
 10
44.179419
 20
87.706194
 10
31.044059
 20
100.431948
  0
LINE
  5
117
100
AcDbEntity
  8
4
370
    25
100
AcDbLine
 10
42.791932
 20
89.050415
 30
0.0
 11
42.431749
 21
88.678639
 31
0.0
  0
LINE
  5
118
100
AcDbEntity
  8
4
370
    25
100
AcDbLine
 10
42.431749
 20
88.678639
 30
0.0
 11
44.179419
 21
87.706194
 31
0.0
  0
LINE
  5
119
100
AcDbEntity
  8
4
370
    25
100
AcDbLine
 10
44.179419
 20
87.706194
 30
0.0
 11
43.152115
 21
89.422191
 31
0.0
  0
LINE
  5
11A
100
AcDbEntity
  8
4
370
    25
100
AcDbLine
 10
43.152115
 20
89.422191
 30
0.0
 11
42.791932
 21
89.050415
 31
0.0
  0
LINE
  5
11B
100
AcDbEntity
  8
4
370
    50
100
AcDbLine
 10
24.683225
 20
106.217969
 30
0.0
 11
26.708123
 21
106.217969
 31
0.0
  0
LINE
  5
11C
100
AcDbEntity
  8
4
370
    50
100
AcDbLine
 10
24.683225
 20
106.757906
 30
0.0
 11
27.083105
 21
106.420625
 31
0.0
  0
LINE
  5
11D
100
AcDbEntity
  8
4
370
    50
100
AcDbLine
 10
26.760311
 20
107.223324
 30
0.0
 11
24.683225
 21
107.515239
 31
0.0
  0
LINE
  5
11E
100
AcDbEntity
  8
4
370
    50
100
AcDbLine
 10
24.683225
 20
107.717894
 30
0.0
 11
27.083105
 21
107.717894
 31
0.0
  0
ARC
  5
11F
100
AcDbEntity
  8
4
370
    50
100
AcDbCircle
 10
26.708123
 20
108.092876
 30
0.0
 40
0.374981
100
AcDbArc
 50
0.0
 51
90.0
  0
ARC
  5
120
100
AcDbEntity
  8
4
370
    50
100
AcDbCircle
 10
26.708123
 20
106.851992
 30
0.0
 40
0.374981
100
AcDbArc
 50
360.0
 51
82.0
  0
ARC
  5
121
100
AcDbEntity
  8
4
370
    50
100
AcDbCircle
 10
26.708123
 20
105.842988
 30
0.0
 40
0.374981
100
AcDbArc
 50
0.0
 51
90.0
  0
LINE
  5
122
100
AcDbEntity
  8
4
370
    50
100
AcDbLine
 10
27.833067
 20
108.467857
 30
0.0
 11
27.833067
 21
107.717894
 31
0.0
  0
LINE
  5
123
100
AcDbEntity
  8
4
370
    50
100
AcDbLine
 10
27.833067
 20
107.717894
 30
0.0
 11
28.883015
 21
107.717894
 31
0.0
  0
LINE
  5
124
100
AcDbEntity
  8
4
370
    50
100
AcDbLine
 10
29.632977
 20
108.092876
 30
0.0
 11
29.632977
 21
107.117924
 31
0.0
  0
LINE
  5
125
100
AcDbEntity
  8
4
370
    50
100
AcDbLine
 10
28.883015
 20
107.717894
 30
0.0
 11
28.883015
 21
107.117924
 31
0.0
  0
LINE
  5
126
100
AcDbEntity
  8
4
370
    50
100
AcDbLine
 10
27.458086
 20
106.217969
 30
0.0
 11
27.98306
 21
106.217969
 31
0.0
  0
ARC
  5
127
100
AcDbEntity
  8
4
370
    50
100
AcDbCircle
 10
27.98306
 20
107.117924
 30
0.0
 40
0.899955
100
AcDbArc
 50
270.0
 51
360.0
  0
ARC
  5
128
100
AcDbEntity
  8
4
370
    50
100
AcDbCircle
 10
30.762519
 20
108.016502
 30
0.0
 40
1.79991
100
AcDbArc
 50
228.524141
 51
272.241513
  0
ARC
  5
129
100
AcDbEntity
  8
4
370
    50
100
AcDbCircle
 10
30.762519
 20
108.016502
 30
0.0
 40
2.549873
100
AcDbArc
 50
232.173442
 51
271.582042
  0
LINE
  5
12A
100
AcDbEntity
  8
4
370
    50
100
AcDbLine
 10
30.515113
 20
107.267917
 30
0.0
 11
31.381095
 21
107.267917
 31
0.0
  0
LINE
  5
12B
100
AcDbEntity
  8
4
370
    50
100
AcDbLine
 10
31.207898
 20
108.467857
 30
0.0
 11
30.515113
 21
107.267917
 31
0.0
  0
LINE
  5
12C
100
AcDbEntity
  8
4
370
    50
100
AcDbLine
 10
31.64089
 20
107.717894
 30
0.0
 11
31.381095
 21
107.267917
 31
0.0
  0
LINE
  5
12D
100
AcDbEntity
  8
4
370
    50
100
AcDbLine
 10
31.64089
 20
107.717894
 30
0.0
 11
32.257846
 21
107.717894
 31
0.0
  0
ARC
  5
12E
100
AcDbEntity
  8
4
370
    50
100
AcDbCircle
 10
32.632827
 20
108.092876
 30
0.0
 40
0.374981
100
AcDbArc
 50
0.0
 51
90.0
  0
LINE
  5
12F
100
AcDbEntity
  8
4
370
    50
100
AcDbLine
 10
31.207898
 20
106.217969
 30
0.0
 11
31.357891
 21
106.217969
 31
0.0
  0
ARC
  5
130
100
AcDbEntity
  8
4
370
    50
100
AcDbCircle
 10
31.357891
 20
107.117924
 30
0.0
 40
1.649918
100
AcDbArc
 50
270.0
 51
360.0
  0
LINE
  5
131
100
AcDbEntity
  8
4
370
    50
100
AcDbLine
 10
31.807868
 20
106.667947
 30
0.0
 11
32.137275
 21
106.667947
 31
0.0
  0
LINE
  5
132
100
AcDbEntity
  8
4
370
    50
100
AcDbLine
 10
31.807868
 20
107.417909
 30
0.0
 11
32.257846
 21
107.417909
 31
0.0
  0
LINE
  5
133
100
AcDbEntity
  8
4
370
    50
100
AcDbLine
 10
31.807868
 20
106.667947
 30
0.0
 11
31.807868
 21
107.417909
 31
0.0
  0
LINE
  5
134
100
AcDbEntity
  8
4
370
    50
100
AcDbLine
 10
32.257846
 20
107.717894
 30
0.0
 11
32.257846
 21
107.417909
 31
0.0
  0
ARC
  5
135
100
AcDbEntity
  8
4
370
    50
100
AcDbCircle
 10
31.357891
 20
107.117924
 30
0.0
 40
0.899955
100
AcDbArc
 50
270.0
 51
330.0
  0
LINE
  5
136
100
AcDbEntity
  8
4
370
    50
100
AcDbLine
 10
33.38279
 20
107.717894
 30
0.0
 11
35.1827
 21
107.717894
 31
0.0
  0
LINE
  5
137
100
AcDbEntity
  8
4
370
    50
100
AcDbLine
 10
33.38279
 20
106.217969
 30
0.0
 11
34.807718
 21
106.217969
 31
0.0
  0
ARC
  5
138
100
AcDbEntity
  8
4
370
    50
100
AcDbCircle
 10
34.807718
 20
108.092876
 30
0.0
 40
0.374981
100
AcDbArc
 50
0.0
 51
90.0
  0
ARC
  5
139
100
AcDbEntity
  8
4
370
    50
100
AcDbCircle
 10
34.807718
 20
105.842988
 30
0.0
 40
0.374981
100
AcDbArc
 50
0.0
 51
90.0
  0
ARC
  5
13A
100
AcDbEntity
  8
4
370
    50
100
AcDbCircle
 10
27.98306
 20
107.117924
 30
0.0
 40
1.649918
100
AcDbArc
 50
270.0
 51
317.461176
  0
ARC
  5
13B
100
AcDbEntity
  8
4
370
    50
100
AcDbCircle
 10
27.98306
 20
107.117924
 30
0.0
 40
1.649918
100
AcDbArc
 50
344.17338
 51
360.0
  0
CIRCLE
  5
13C
100
AcDbEntity
  8
4
370
    50
100
AcDbCircle
 10
30.307943
 20
108.242868
 30
0.0
 40
0.224989
  0
CIRCLE
  5
13D
100
AcDbEntity
  8
4
370
    50
100
AcDbCircle
 10
29.857966
 20
108.242868
 30
0.0
 40
0.224989
  0
LINE
  5
13E
100
AcDbEntity
  8
4
370
    50
100
AcDbLine
 10
27.458086
 20
106.217969
 30
0.0
 11
27.458086
 21
105.468007
 31
0.0
  0
LINE
  5
13F
100
AcDbEntity
  8
4
370
    50
100
AcDbLine
 10
30.832917
 20
106.217969
 30
0.0
 11
30.832917
 21
105.468007
 31
0.0
  0
LINE
  5
140
100
AcDbEntity
  8
4
370
    50
100
AcDbLine
 10
31.207898
 20
106.230557
 30
0.0
 11
31.207898
 21
105.468007
 31
0.0
  0
LINE
  5
141
100
AcDbEntity
  8
4
370
    50
100
AcDbLine
 10
33.007808
 20
108.092876
 30
0.0
 11
33.007808
 21
107.117924
 31
0.0
  0
LINE
  5
142
100
AcDbEntity
  8
4
370
    50
100
AcDbLine
 10
24.683225
 20
108.467857
 30
0.0
 11
26.708123
 21
108.467857
 31
0.0
  0
LINE
  5
143
100
AcDbEntity
  8
4
370
    50
100
AcDbLine
 10
27.833067
 20
108.467857
 30
0.0
 11
29.257996
 21
108.467857
 31
0.0
  0
LINE
  5
144
100
AcDbEntity
  8
4
370
    50
100
AcDbLine
 10
31.207898
 20
108.467857
 30
0.0
 11
32.632827
 21
108.467857
 31
0.0
  0
LINE
  5
145
100
AcDbEntity
  8
4
370
    50
100
AcDbLine
 10
33.38279
 20
108.467857
 30
0.0
 11
34.807718
 21
108.467857
 31
0.0
  0
LINE
  5
146
100
AcDbEntity
  8
4
370
    50
100
AcDbLine
 10
33.38279
 20
105.468007
 30
0.0
 11
35.1827
 21
105.468007
 31
0.0
  0
LINE
  5
147
100
AcDbEntity
  8
4
370
    50
100
AcDbLine
 10
31.207898
 20
105.468007
 30
0.0
 11
31.357891
 21
105.468007
 31
0.0
  0
LINE
  5
148
100
AcDbEntity
  8
4
370
    50
100
AcDbLine
 10
24.683225
 20
105.468007
 30
0.0
 11
27.083105
 21
105.468007
 31
0.0
  0
LINE
  5
149
100
AcDbEntity
  8
4
370
    50
100
AcDbLine
 10
27.083105
 20
107.717894
 30
0.0
 11
27.083105
 21
108.092876
 31
0.0
  0
LINE
  5
14A
100
AcDbEntity
  8
4
370
    50
100
AcDbLine
 10
27.083105
 20
105.468007
 30
0.0
 11
27.083105
 21
105.842988
 31
0.0
  0
LINE
  5
14B
100
AcDbEntity
  8
4
370
    50
100
AcDbLine
 10
27.083105
 20
106.420625
 30
0.0
 11
27.083105
 21
106.851992
 31
0.0
  0
LINE
  5
14C
100
AcDbEntity
  8
4
370
    50
100
AcDbLine
 10
24.683225
 20
105.468007
 30
0.0
 11
24.683225
 21
106.217969
 31
0.0
  0
LINE
  5
14D
100
AcDbEntity
  8
4
370
    50
100
AcDbLine
 10
24.683225
 20
106.757906
 30
0.0
 11
24.683225
 21
107.515239
 31
0.0
  0
LINE
  5
14E
100
AcDbEntity
  8
4
370
    50
100
AcDbLine
 10
24.683225
 20
107.717894
 30
0.0
 11
24.683225
 21
108.467857
 31
0.0
  0
LINE
  5
14F
100
AcDbEntity
  8
4
370
    50
100
AcDbLine
 10
35.1827
 20
107.717894
 30
0.0
 11
35.1827
 21
108.092876
 31
0.0
  0
LINE
  5
150
100
AcDbEntity
  8
4
370
    50
100
AcDbLine
 10
33.38279
 20
105.468007
 30
0.0
 11
33.38279
 21
106.217969
 31
0.0
  0
LINE
  5
151
100
AcDbEntity
  8
4
370
    50
100
AcDbLine
 10
33.38279
 20
107.717894
 30
0.0
 11
33.38279
 21
108.467857
 31
0.0
  0
LINE
  5
152
100
AcDbEntity
  8
4
370
    50
100
AcDbLine
 10
27.458086
 20
105.468007
 30
0.0
 11
27.98306
 21
105.468007
 31
0.0
  0
LINE
  5
153
100
AcDbEntity
  8
4
370
    50
100
AcDbLine
 10
30.678725
 20
105.468007
 30
0.0
 11
30.832917
 21
105.468007
 31
0.0
  0
ARC
  5
154
100
AcDbEntity
  8
4
370
    50
100
AcDbCircle
 10
29.257996
 20
108.092876
 30
0.0
 40
0.374981
100
AcDbArc
 50
0.0
 51
90.0
  0
LINE
  5
155
100
AcDbEntity
  8
4
370
    50
100
AcDbLine
 10
27.132962
 20
110.597023
 30
0.0
 11
27.132962
 21
112.172023
 31
0.0
  0
LINE
  5
156
100
AcDbEntity
  8
4
370
    50
100
AcDbLine
 10
27.482962
 20
112.172023
 30
0.0
 11
27.482962
 21
110.597023
 31
0.0
  0
LINE
  5
157
100
AcDbEntity
  8
4
370
    50
100
AcDbLine
 10
27.482962
 20
112.172023
 30
0.0
 11
27.132962
 21
112.172023
 31
0.0
  0
LINE
  5
158
100
AcDbEntity
  8
4
370
    50
100
AcDbLine
 10
27.482962
 20
110.597023
 30
0.0
 11
27.132962
 21
110.597023
 31
0.0
  0
LINE
  5
159
100
AcDbEntity
  8
4
370
    50
100
AcDbLine
 10
26.243766
 20
110.320327
 30
0.0
 11
26.070525
 21
110.147086
 31
0.0
  0
LINE
  5
15A
100
AcDbEntity
  8
4
370
    50
100
AcDbLine
 10
28.182962
 20
112.172023
 30
0.0
 11
28.392962
 21
112.172023
 31
0.0
  0
LINE
  5
15B
100
AcDbEntity
  8
4
370
    50
100
AcDbLine
 10
27.745462
 20
110.597023
 30
0.0
 11
28.025462
 21
110.597023
 31
0.0
  0
LINE
  5
15C
100
AcDbEntity
  8
4
370
    50
100
AcDbLine
 10
27.745462
 20
110.597023
 30
0.0
 11
27.745462
 21
110.877023
 31
0.0
  0
LINE
  5
15D
100
AcDbEntity
  8
4
370
    50
100
AcDbLine
 10
28.392962
 20
111.892023
 30
0.0
 11
28.392962
 21
112.172023
 31
0.0
  0
LINE
  5
15E
100
AcDbEntity
  8
4
370
    50
100
AcDbLine
 10
28.235462
 20
111.892023
 30
0.0
 11
28.392962
 21
111.892023
 31
0.0
  0
LINE
  5
15F
100
AcDbEntity
  8
4
370
    50
100
AcDbLine
 10
27.885048
 20
111.414127
 30
0.0
 11
28.104045
 21
111.210497
 31
0.0
  0
ARC
  5
160
100
AcDbEntity
  8
4
370
    50
100
AcDbCircle
 10
28.235462
 20
111.717023
 30
0.0
 40
0.175
100
AcDbArc
 50
90.0
 51
227.082289
  0
LINE
  5
161
100
AcDbEntity
  8
4
370
    50
100
AcDbLine
 10
28.116296
 20
111.588865
 30
0.0
 11
28.335293
 21
111.385234
 31
0.0
  0
ARC
  5
162
100
AcDbEntity
  8
4
370
    50
100
AcDbCircle
 10
28.025462
 20
111.052023
 30
0.0
 40
0.455
100
AcDbArc
 50
270.0
 51
47.082289
  0
ARC
  5
163
100
AcDbEntity
  8
4
370
    50
100
AcDbCircle
 10
27.972962
 20
111.069523
 30
0.0
 40
0.1925
100
AcDbArc
 50
270.0
 51
47.082289
  0
ARC
  5
164
100
AcDbEntity
  8
4
370
    50
100
AcDbCircle
 10
28.182962
 20
111.734523
 30
0.0
 40
0.4375
100
AcDbArc
 50
90.0
 51
227.082289
  0
LINE
  5
165
100
AcDbEntity
  8
4
370
    50
100
AcDbLine
 10
27.972962
 20
110.877023
 30
0.0
 11
27.745462
 21
110.877023
 31
0.0
  0
LINE
  5
166
100
AcDbEntity
  8
4
370
    50
100
AcDbLine
 10
26.502962
 20
111.220023
 30
0.0
 11
26.502962
 21
112.172023
 31
0.0
  0
LINE
  5
167
100
AcDbEntity
  8
4
370
    50
100
AcDbLine
 10
26.817962
 20
111.220023
 30
0.0
 11
26.817962
 21
112.172023
 31
0.0
  0
LINE
  5
168
100
AcDbEntity
  8
4
370
    50
100
AcDbLine
 10
26.817962
 20
112.172023
 30
0.0
 11
26.502962
 21
112.172023
 31
0.0
  0
ARC
  5
169
100
AcDbEntity
  8
4
370
    50
100
AcDbCircle
 10
26.194962
 20
111.220023
 30
0.0
 40
0.623
100
AcDbArc
 50
190.22669
 51
360.0
  0
ARC
  5
16A
100
AcDbEntity
  8
4
370
    50
100
AcDbCircle
 10
26.159962
 20
111.220023
 30
0.0
 40
0.343
100
AcDbArc
 50
190.573586
 51
360.0
  0
ARC
  5
16B
100
AcDbEntity
  8
4
370
    50
100
AcDbCircle
 10
27.307962
 20
111.384523
 30
0.0
 40
1.505
100
AcDbArc
 50
225.0
 51
188.720397
  0
ARC
  5
16C
100
AcDbEntity
  8
4
370
    50
100
AcDbCircle
 10
27.307962
 20
111.384523
 30
0.0
 40
1.75
100
AcDbArc
 50
225.0
 51
189.066832
  0
LINE
  5
16D
100
AcDbEntity
  8
4
370
    50
100
AcDbLine
 10
25.82036
 20
111.156346
 30
0.0
 11
25.822786
 21
111.157083
 31
0.0
  0
LINE
  5
16E
100
AcDbEntity
  8
4
370
    50
100
AcDbLine
 10
25.58186
 20
111.109413
 30
0.0
 11
25.579828
 21
111.108747
 31
0.0
  0
HATCH
  5
16F
100
AcDbEntity
  8
4
370
    25
100
AcDbHatch
 10
0.0
 20
0.0
 30
0.0
210
0.0
220
0.0
230
1.0
  2
_U
 70
     0
 71
     1
 91
        1
 92
        1
 93
        4
 72
     1
 10
27.482962000000001
 20
112.172023
 11
27.482962000000001
 21
110.59702299999999
 72
     1
 10
27.482962000000001
 20
110.59702299999999
 11
27.132961999999999
 21
110.59702299999999
 72
     1
 10
27.132961999999999
 20
110.59702299999999
 11
27.132961999999999
 21
112.172023
 72
     1
 10
27.132961999999999
 20
112.172023
 11
27.482962000000001
 21
112.172023
 97
        4
330
0
330
0
330
0
330
0
 75
     0
 76
     0
 52
45.0
 41
1.0
 77
     0
 78
     1
 53
45.0
 43
0.0
 44
0.0
 45
-0.141421
 46
0.141421
 79
     0
 98
        1
 10
0.0
 20
0.0
  0
LINE
  5
170
100
AcDbEntity
  8
4
370
    25
100
AcDbLine
 10
28.191916
 20
110.628563
 30
0.0
 11
28.448922
 21
110.885569
 31
0.0
  0
LINE
  5
171
100
AcDbEntity
  8
4
370
    25
100
AcDbLine
 10
27.877533
 20
110.597023
 30
0.0
 11
28.461733
 21
111.181223
 31
0.0
  0
LINE
  5
172
100
AcDbEntity
  8
4
370
    25
100
AcDbLine
 10
27.745462
 20
110.747795
 30
0.0
 11
27.87469
 21
110.877023
 31
0.0
  0
LINE
  5
173
100
AcDbEntity
  8
4
370
    25
100
AcDbLine
 10
28.147781
 20
111.150113
 30
0.0
 11
28.359082
 21
111.361414
 31
0.0
  0
LINE
  5
174
100
AcDbEntity
  8
4
370
    25
100
AcDbLine
 10
28.011434
 20
111.296609
 30
0.0
 11
28.2134
 21
111.498575
 31
0.0
  0
LINE
  5
175
100
AcDbEntity
  8
4
370
    25
100
AcDbLine
 10
28.392962
 20
111.96098
 30
0.0
 11
28.324005
 21
111.892023
 31
0.0
  0
LINE
  5
176
100
AcDbEntity
  8
4
370
    25
100
AcDbLine
 10
28.076286
 20
111.644304
 30
0.0
 11
27.865484
 21
111.433502
 31
0.0
  0
LINE
  5
177
100
AcDbEntity
  8
4
370
    25
100
AcDbLine
 10
27.762558
 20
111.613418
 30
0.0
 11
28.321162
 21
112.172023
 31
0.0
  0
LINE
  5
178
100
AcDbEntity
  8
4
370
    25
100
AcDbLine
 10
27.787102
 20
111.920806
 30
0.0
 11
27.996679
 21
112.130383
 31
0.0
  0
LINE
  5
179
100
AcDbEntity
  8
4
370
    25
100
AcDbLine
 10
26.51257
 20
109.825725
 30
0.0
 11
26.695127
 21
110.008283
 31
0.0
  0
LINE
  5
17A
100
AcDbEntity
  8
4
370
    25
100
AcDbLine
 10
28.684194
 20
111.997349
 30
0.0
 11
28.86676
 21
112.179915
 31
0.0
  0
LINE
  5
17B
100
AcDbEntity
  8
4
370
    25
100
AcDbLine
 10
26.709662
 20
109.739975
 30
0.0
 11
26.902651
 21
109.932964
 31
0.0
  0
LINE
  5
17C
100
AcDbEntity
  8
4
370
    25
100
AcDbLine
 10
28.759512
 20
111.789825
 30
0.0
 11
28.95251
 21
111.982823
 31
0.0
  0
LINE
  5
17D
100
AcDbEntity
  8
4
370
    25
100
AcDbLine
 10
26.928654
 20
109.676124
 30
0.0
 11
27.138915
 21
109.886385
 31
0.0
  0
LINE
  5
17E
100
AcDbEntity
  8
4
370
    25
100
AcDbLine
 10
28.806092
 20
111.553562
 30
0.0
 11
29.016361
 21
111.763831
 31
0.0
  0
LINE
  5
17F
100
AcDbEntity
  8
4
370
    25
100
AcDbLine
 10
27.174957
 20
109.639584
 30
0.0
 11
27.415529
 21
109.880156
 31
0.0
  0
LINE
  5
180
100
AcDbEntity
  8
4
370
    25
100
AcDbLine
 10
28.81232
 20
111.276947
 30
0.0
 11
29.0529
 21
111.517528
 31
0.0
  0
LINE
  5
181
100
AcDbEntity
  8
4
370
    25
100
AcDbLine
 10
27.459294
 20
109.641078
 30
0.0
 11
27.764792
 21
109.946577
 31
0.0
  0
LINE
  5
182
100
AcDbEntity
  8
4
370
    25
100
AcDbLine
 10
28.7459
 20
110.927684
 30
0.0
 11
29.051407
 21
111.233191
 31
0.0
  0
LINE
  5
183
100
AcDbEntity
  8
4
370
    25
100
AcDbLine
 10
27.808771
 20
109.707713
 30
0.0
 11
28.984772
 21
110.883714
 31
0.0
  0
LINE
  5
184
100
AcDbEntity
  8
4
370
    25
100
AcDbLine
 10
28.404842
 20
110.020941
 30
0.0
 11
28.671543
 21
110.287643
 31
0.0
  0
LINE
  5
185
100
AcDbEntity
  8
4
370
    25
100
AcDbLine
 10
26.334359
 20
109.930357
 30
0.0
 11
26.510834
 21
110.106832
 31
0.0
  0
LINE
  5
186
100
AcDbEntity
  8
4
370
    25
100
AcDbLine
 10
28.585645
 20
112.181643
 30
0.0
 11
28.762128
 21
112.358126
 31
0.0
  0
LINE
  5
187
100
AcDbEntity
  8
4
370
    25
100
AcDbLine
 10
26.173341
 20
110.052181
 30
0.0
 11
26.346948
 21
110.225789
 31
0.0
  0
LINE
  5
188
100
AcDbEntity
  8
4
370
    25
100
AcDbLine
 10
28.466687
 20
112.345528
 30
0.0
 11
28.640304
 21
112.519144
 31
0.0
  0
LINE
  5
189
100
AcDbEntity
  8
4
370
    25
100
AcDbLine
 10
26.503537
 20
110.66522
 30
0.0
 11
26.736404
 21
110.898088
 31
0.0
  0
LINE
  5
18A
100
AcDbEntity
  8
4
370
    25
100
AcDbLine
 10
28.328616
 20
112.4903
 30
0.0
 11
28.502105
 21
112.663789
 31
0.0
  0
LINE
  5
18B
100
AcDbEntity
  8
4
370
    25
100
AcDbLine
 10
26.141316
 20
110.585843
 30
0.0
 11
26.817962
 21
111.262488
 31
0.0
  0
LINE
  5
18C
100
AcDbEntity
  8
4
370
    25
100
AcDbLine
 10
28.171615
 20
112.616142
 30
0.0
 11
28.347662
 21
112.792189
 31
0.0
  0
LINE
  5
18D
100
AcDbEntity
  8
4
370
    25
100
AcDbLine
 10
25.920121
 20
110.64749
 30
0.0
 11
26.149804
 21
110.877173
 31
0.0
  0
LINE
  5
18E
100
AcDbEntity
  8
4
370
    25
100
AcDbLine
 10
26.502962
 20
111.230331
 30
0.0
 11
26.817962
 21
111.545331
 31
0.0
  0
LINE
  5
18F
100
AcDbEntity
  8
4
370
    25
100
AcDbLine
 10
27.99481
 20
112.722179
 30
0.0
 11
28.176443
 21
112.903812
 31
0.0
  0
LINE
  5
190
100
AcDbEntity
  8
4
370
    25
100
AcDbLine
 10
25.755179
 20
110.765391
 30
0.0
 11
25.943633
 21
110.953845
 31
0.0
  0
LINE
  5
191
100
AcDbEntity
  8
4
370
    25
100
AcDbLine
 10
26.502962
 20
111.513174
 30
0.0
 11
26.817962
 21
111.828174
 31
0.0
  0
LINE
  5
192
100
AcDbEntity
  8
4
370
    25
100
AcDbLine
 10
27.796003
 20
112.806214
 30
0.0
 11
27.98714
 21
112.997352
 31
0.0
  0
LINE
  5
193
100
AcDbEntity
  8
4
370
    25
100
AcDbLine
 10
25.636873
 20
110.929927
 30
0.0
 11
25.830738
 21
111.123792
 31
0.0
  0
LINE
  5
194
100
AcDbEntity
  8
4
370
    25
100
AcDbLine
 10
26.502962
 20
111.796017
 30
0.0
 11
26.817962
 21
112.111017
 31
0.0
  0
LINE
  5
195
100
AcDbEntity
  8
4
370
    25
100
AcDbLine
 10
27.570854
 20
112.863909
 30
0.0
 11
27.777345
 21
113.070399
 31
0.0
  0
LINE
  5
196
100
AcDbEntity
  8
4
370
    25
100
AcDbLine
 10
25.57379
 20
111.149687
 30
0.0
 11
25.805958
 21
111.381855
 31
0.0
  0
LINE
  5
197
100
AcDbEntity
  8
4
370
    25
100
AcDbLine
 10
26.502962
 20
112.078859
 30
0.0
 11
26.596126
 21
112.172023
 31
0.0
  0
LINE
  5
198
100
AcDbEntity
  8
4
370
    25
100
AcDbLine
 10
27.310622
 20
112.886519
 30
0.0
 11
27.542798
 21
113.118695
 31
0.0
  0
LINE
  5
199
100
AcDbEntity
  8
4
370
    25
100
AcDbLine
 10
25.558264
 20
111.417003
 30
0.0
 11
25.839705
 21
111.698445
 31
0.0
  0
LINE
  5
19A
100
AcDbEntity
  8
4
370
    25
100
AcDbLine
 10
26.994031
 20
112.852771
 30
0.0
 11
27.275481
 21
113.134221
 31
0.0
  0
LINE
  5
19B
100
AcDbEntity
  8
4
370
    25
100
AcDbLine
 10
25.593417
 20
111.734999
 30
0.0
 11
26.030028
 21
112.17161
 31
0.0
  0
LINE
  5
19C
100
AcDbEntity
  8
4
370
    25
100
AcDbLine
 10
26.520866
 20
112.662449
 30
0.0
 11
26.957486
 21
113.099068
 31
0.0
  0
LINE
  5
19D
100
AcDbEntity
  8
4
370
    25
100
AcDbLine
 10
25.742708
 20
112.167133
 30
0.0
 11
26.525352
 21
112.949777
 31
0.0
  0
LINE
  5
19E
100
AcDbEntity
  8
4
370
    50
100
AcDbLine
 10
35.1827
 20
105.842988
 30
0.0
 11
35.1827
 21
105.468007
 31
0.0
  0
LINE
  5
19F
100
AcDbEntity
  8
4
370
    50
100
AcDbLine
 10
31.157962
 20
111.967856
 30
0.0
 11
30.457962
 21
111.967856
 31
0.0
  0
LINE
  5
1A0
100
AcDbEntity
  8
4
370
    50
100
AcDbLine
 10
30.807962
 20
111.967856
 30
0.0
 11
30.807962
 21
110.334523
 31
0.0
  0
LINE
  5
1A1
100
AcDbEntity
  8
4
370
    50
100
AcDbLine
 10
33.607962
 20
111.967856
 30
0.0
 11
34.307962
 21
111.967856
 31
0.0
  0
LINE
  5
1A2
100
AcDbEntity
  8
4
370
    50
100
AcDbLine
 10
32.207962
 20
111.967856
 30
0.0
 11
31.507962
 21
111.967856
 31
0.0
  0
LINE
  5
1A3
100
AcDbEntity
  8
4
370
    50
100
AcDbLine
 10
31.857962
 20
111.967856
 30
0.0
 11
32.269392
 21
109.634523
 31
0.0
  0
LINE
  5
1A4
100
AcDbEntity
  8
4
370
    50
100
AcDbLine
 10
32.269392
 20
109.634523
 30
0.0
 11
32.907962
 21
111.388981
 31
0.0
  0
LINE
  5
1A5
100
AcDbEntity
  8
4
370
    50
100
AcDbLine
 10
33.546533
 20
109.634523
 30
0.0
 11
32.907962
 21
111.388981
 31
0.0
  0
LINE
  5
1A6
100
AcDbEntity
  8
4
370
    50
100
AcDbLine
 10
33.957962
 20
111.967856
 30
0.0
 11
33.546533
 21
109.634523
 31
0.0
  0
ARC
  5
1A7
100
AcDbEntity
  8
4
370
    50
100
AcDbCircle
 10
30.107962
 20
110.334523
 30
0.0
 40
0.7
100
AcDbArc
 50
180.0
 51
360.0
  0
LINE
  5
1A8
100
AcDbEntity
  8
4
370
    50
100
AcDbLine
 10
30.632962
 20
101.968124
 30
0.0
 11
30.632962
 21
104.301457
 31
0.0
  0
LINE
  5
1A9
100
AcDbEntity
  8
4
370
    50
100
AcDbLine
 10
29.232962
 20
101.968124
 30
0.0
 11
29.232962
 21
104.301457
 31
0.0
  0
LINE
  5
1AA
100
AcDbEntity
  8
4
370
    50
100
AcDbLine
 10
28.882962
 20
101.968124
 30
0.0
 11
29.582962
 21
101.968124
 31
0.0
  0
LINE
  5
1AB
100
AcDbEntity
  8
4
370
    50
100
AcDbLine
 10
30.282962
 20
101.968124
 30
0.0
 11
30.982962
 21
101.968124
 31
0.0
  0
LINE
  5
1AC
100
AcDbEntity
  8
4
370
    50
100
AcDbLine
 10
30.632962
 20
104.301457
 30
0.0
 11
29.932962
 21
103.089021
 31
0.0
  0
LINE
  5
1AD
100
AcDbEntity
  8
4
370
    50
100
AcDbLine
 10
29.232962
 20
104.301457
 30
0.0
 11
29.932962
 21
103.089021
 31
0.0
  0
TEXT
  5
1AE
100
AcDbEntity
  8
4
370
    50
100
AcDbText
 10
179.359802
 20
-119.821381
 30
0.0
 40
3.0
  1
水谷
 72
     5
 11
184.759802
 21
-119.821381
 31
0.0
100
AcDbText
  0
LINE
  5
1AF
100
AcDbEntity
  8
4
370
    50
100
AcDbLine
 10
187.491193
 20
-122.985941
 30
0.0
 11
197.491193
 21
-113.985941
 31
0.0
  0
ENDSEC
  0
SECTION
  2
OBJECTS
  0
DICTIONARY
  5
202
100
AcDbDictionary
280
     0
281
     1
  3
ACAD_GROUP
350
203
  3
ACAD_MLINESTYLE
350
204
  0
DICTIONARY
  5
203
102
{ACAD_REACTORS
330
202
102
}
100
AcDbDictionary
280
     0
281
     1
  0
DICTIONARY
  5
204
102
{ACAD_REACTORS
330
202
102
}
100
AcDbDictionary
280
     0
281
     1
  3
Standard
350
205
  0
MLINESTYLE
  5
205
102
{ACAD_REACTORS
330
204
102
}
100
AcDbMlineStyle
  2
Standard
 70
     0
  3

 62
     0
 51
90.0
 52
90.0
 71
     2
 49
0.5
 62
   256
  6
ByLayer
 49
-0.5
 62
   256
  6
ByLayer
  0
ENDSEC
  0
EOF
