  0
SECTION
  2
HEADER
  9
$ACADVER
  1
AC1015
  9
$ACADMAINTVER
 70
     6
  9
$DWGCODEPAGE
  3
ANSI_932
  9
$INSBASE
 10
0.0
 20
0.0
 30
0.0
  9
$EXTMIN
 10
-420.5
 20
-297.0
 30
1.000000E+20
  9
$EXTMAX
 10
420.5
 20
297.0
 30
-1.000000E+20
  9
$LIMMIN
 10
-420.5
 20
-297.0
  9
$LIMMAX
 10
420.5
 20
297.0
  9
$ORTHOMODE
 70
     0
  9
$REGENMODE
 70
     1
  9
$FILLMODE
 70
     1
  9
$QTEXTMODE
 70
     0
  9
$MIRRTEXT
 70
     1
  9
$LTSCALE
 40
1.0
  9
$ATTMODE
 70
     1
  9
$TEXTSIZE
 40
0.2
  9
$TRACEWID
 40
0.05
  9
$TEXTSTYLE
  7
STANDARD
  9
$CLAYER
  8
0
  9
$CELTYPE
  6
CONTINUOUS
  9
$CECOLOR
 62
   256
  9
$CELTSCALE
 40
1.0
  9
$DISPSILH
 70
     0
  9
$DIMSCALE
 40
1.0
  9
$DIMASZ
 40
2.0
  9
$DIMEXO
 40
1.0
  9
$DIMDLI
 40
0.38
  9
$DIMRND
 40
0.0
  9
$DIMDLE
 40
0.0
  9
$DIMEXE
 40
2.0
  9
$DIMTP
 40
0.0
  9
$DIMTM
 40
0.0
  9
$DIMTXT
 40
3.5
  9
$DIMCEN
 40
0.09
  9
$DIMTSZ
 40
0.0
  9
$DIMTOL
 70
     0
  9
$DIMLIM
 70
     0
  9
$DIMTIH
 70
     0
  9
$DIMTOH
 70
     0
  9
$DIMSE1
 70
     0
  9
$DIMSE2
 70
     0
  9
$DIMTAD
 70
     1
  9
$DIMZIN
 70
     0
  9
$DIMBLK
  1

  9
$DIMASO
 70
     1
  9
$DIMSHO
 70
     1
  9
$DIMPOST
  1

  9
$DIMAPOST
  1

  9
$DIMALT
 70
     0
  9
$DIMALTD
 70
     2
  9
$DIMALTF
 40
25.4
  9
$DIMLFAC
 40
1.0
  9
$DIMTOFL
 70
     0
  9
$DIMTVP
 40
0.0
  9
$DIMTIX
 70
     0
  9
$DIMSOXD
 70
     0
  9
$DIMSAH
 70
     0
  9
$DIMBLK1
  1

  9
$DIMBLK2
  1

  9
$DIMSTYLE
  2
Standard
  9
$DIMCLRD
 70
     0
  9
$DIMCLRE
 70
     0
  9
$DIMCLRT
 70
     0
  9
$DIMTFAC
 40
1.0
  9
$DIMGAP
 40
0.5
  9
$DIMJUST
 70
     0
  9
$DIMSD1
 70
     0
  9
$DIMSD2
 70
     0
  9
$DIMTOLJ
 70
     1
  9
$DIMTZIN
 70
     0
  9
$DIMALTZ
 70
     0
  9
$DIMALTTZ
 70
     0
  9
$DIMUPT
 70
     0
  9
$DIMDEC
 70
     3
  9
$DIMTDEC
 70
     4
  9
$DIMALTU
 70
     2
  9
$DIMALTTD
 70
     2
  9
$DIMTXSTY
  7
STANDARD
  9
$DIMAUNIT
 70
     0
  9
$DIMADEC
 70
     0
  9
$DIMALTRND
 40
0.0
  9
$DIMAZIN
 70
     0
  9
$DIMDSEP
 70
     0
  9
$DIMATFIT
 70
     3
  9
$DIMFRAC
 70
     0
  9
$DIMLDRBLK
  1

  9
$DIMLUNIT
 70
     2
  9
$DIMLWD
 70
     0
  9
$DIMLWE
 70
     0
  9
$DIMTMOVE
 70
     0
  9
$LUNITS
 70
     2
  9
$LUPREC
 70
     4
  9
$SKETCHINC
 40
0.1
  9
$FILLETRAD
 40
0.0
  9
$AUNITS
 70
     0
  9
$AUPREC
 70
     0
  9
$MENU
  1
acad
  9
$ELEVATION
 40
0.0
  9
$PELEVATION
 40
0.0
  9
$THICKNESS
 40
0.0
  9
$LIMCHECK
 70
     0
  9
$CHAMFERA
 40
0.0
  9
$CHAMFERB
 40
0.0
  9
$CHAMFERC
 40
0.0
  9
$CHAMFERD
 40
0.0
  9
$SKPOLY
 70
     0
  9
$TDCREATE
 40
2453383.000000000
  9
$TDUCREATE
 40
0.000000000
  9
$TDUPDATE
 40
0.000000000
  9
$TDUUPDATE
 40
2447892.625000000
  9
$TDINDWG
 40
0.0000000000
  9
$TDUSRTIMER
 40
0.0000000000
  9
$USRTIMER
 70
     1
  9
$ANGBASE
 50
0.0
  9
$ANGDIR
 70
     0
  9
$PDMODE
 70
     0
  9
$PDSIZE
 40
0.0
  9
$PLINEWID
 40
0.0
  9
$SPLFRAME
 70
     0
  9
$SPLINETYPE
 70
     6
  9
$SPLINESEGS
 70
     8
  9
$HANDSEED
  5
1EB
  9
$SURFTAB1
 70
     6
  9
$SURFTAB2
 70
     6
  9
$SURFTYPE
 70
     6
  9
$SURFU
 70
     6
  9
$SURFV
 70
     6
  9
$UCSBASE
  2

  9
$UCSNAME
  2

  9
$UCSORG
 10
0.0
 20
0.0
 30
0.0
  9
$UCSXDIR
 10
1.0
 20
0.0
 30
0.0
  9
$UCSYDIR
 10
0.0
 20
1.0
 30
0.0
  9
$UCSORTHOREF
  2

  9
$UCSORTHOVIEW
 70
     0
  9
$UCSORGTOP
 10
0.0
 20
0.0
 30
0.0
  9
$UCSORGBOTTOM
 10
0.0
 20
0.0
 30
0.0
  9
$UCSORGLEFT
 10
0.0
 20
0.0
 30
0.0
  9
$UCSORGRIGHT
 10
0.0
 20
0.0
 30
0.0
  9
$UCSORGFRONT
 10
0.0
 20
0.0
 30
0.0
  9
$UCSORGBACK
 10
0.0
 20
0.0
 30
0.0
  9
$PUCSBASE
  2

  9
$PUCSNAME
  2

  9
$PUCSORG
 10
0.0
 20
0.0
 30
0.0
  9
$PUCSXDIR
 10
1.0
 20
0.0
 30
0.0
  9
$PUCSYDIR
 10
0.0
 20
1.0
 30
0.0
  9
$PUCSORTHOREF
  2

  9
$PUCSORTHOVIEW
 70
     0
  9
$PUCSORGTOP
 10
0.0
 20
0.0
 30
0.0
  9
$PUCSORGBOTTOM
 10
0.0
 20
0.0
 30
0.0
  9
$PUCSORGLEFT
 10
0.0
 20
0.0
 30
0.0
  9
$PUCSORGRIGHT
 10
0.0
 20
0.0
 30
0.0
  9
$PUCSORGFRONT
 10
0.0
 20
0.0
 30
0.0
  9
$PUCSORGBACK
 10
0.0
 20
0.0
 30
0.0
  9
$USERI1
 70
     0
  9
$USERI2
 70
     0
  9
$USERI3
 70
     0
  9
$USERI4
 70
     0
  9
$USERI5
 70
     0
  9
$USERR1
 40
0.0
  9
$USERR2
 40
0.0
  9
$USERR3
 40
0.0
  9
$USERR4
 40
0.0
  9
$USERR5
 40
0.0
  9
$WORLDVIEW
 70
     1
  9
$SHADEDGE
 70
     3
  9
$SHADEDIF
 70
    70
  9
$TILEMODE
 70
     1
  9
$MAXACTVP
 70
    16
  9
$PINSBASE
 10
0.0
 20
0.0
 30
0.0
  9
$PLIMCHECK
 70
     0
  9
$PEXTMIN
 10
1.000000E+20
 20
1.000000E+20
 30
1.000000E+20
  9
$PEXTMAX
 10
-1.000000E+20
 20
-1.000000E+20
 30
-1.000000E+20
  9
$PLIMMIN
 10
0.0
 20
0.0
  9
$PLIMMAX
 10
12.0
 20
9.0
  9
$UNITMODE
 70
     0
  9
$VISRETAIN
 70
     0
  9
$PLINEGEN
 70
     1
  9
$PSLTSCALE
 70
     0
  9
$TREEDEPTH
 70
  3020
  9
$CMLSTYLE
  2
Standard
  9
$CMLJUST
 70
     0
  9
$CMLSCALE
 40
1.0
  9
$PROXYGRAPHICS
 70
     0
  9
$MEASUREMENT
 70
     0
  9
$CELWEIGHT
370
     0
  9
$ENDCAPS
280
     0
  9
$JOINSTYLE
280
     0
  9
$LWDISPLAY
290
     0
  9
$INSUNITS
 70
     0
  9
$HYPERLINKBASE
  1

  9
$STYLESHEET
  1

  9
$XEDIT
290
     1
  9
$CEPSNTYPE
380
     0
  9
$PSTYLEMODE
290
     1
  9
$FINGERPRINTGUID
  2

  9
$VERSIONGUID
  2

  9
$EXTNAMES
290
     1
  9
$PSVPSCALE
 40
0.0
  0
ENDSEC
  0
SECTION
  2
CLASSES
  0
CLASS
  1
LWPOLYLINE
  2
AcDbPolyline
  3
AutoCAD 2000
 90
        0
280
     0
281
     1
  0
CLASS
  1
IMAGE
  2
AcDbRasterImage
  3
ISM
 90
      127
280
     0
281
     1
  0
CLASS
  1
OLE2FRAME
  2
AcDbOle2Frame
  3
AutoCAD 2000
 90
        0
280
     0
281
     1
  0
CLASS
  1
HATCH
  2
AcDbHatch
  3
AutoCAD 2000
 90
        0
280
     0
281
     1
  0
CLASS
  1
DICTIONARYVAR
  2
AcDbDictionaryVar
  3
AutoCAD 2000
 90
        0
280
     0
281
     0
  0
CLASS
  1
RASTERVARIABLES
  2
AcDbRasterVariables
  3
ISM
 90
        0
280
     0
281
     0
  0
CLASS
  1
IMAGEDEF
  2
AcDbRasterImageDef
  3
ISM
 90
        0
280
     0
281
     0
  0
CLASS
  1
IMAGEDEF_REACTOR
  2
AcDbRasterImageDefReactor
  3
ISM
 90
        1
280
     0
281
     0
  0
CLASS
  1
IDBUFFER
  2
AcDbIdBuffer
  3
AutoCAD 2000
 90
        0
280
     0
281
     0
  0
CLASS
  1
SPATIAL_FILTER
  2
AcDbSpatialFilter
  3
AutoCAD 2000
 90
        0
280
     0
281
     0
  0
CLASS
  1
XRECORD
  2
AcDbXrecord
  3
AutoCAD 2000
 90
        0
280
     0
281
     0
  0
CLASS
  1
SORTENTSTABLE
  2
AcDbSortentsTable
  3
AutoCAD 2000
 90
        0
280
     0
281
     0
  0
CLASS
  1
LAYER_INDEX
  2
AcDbLayerIndex
  3
AutoCAD 2000
 90
        0
280
     0
281
     0
  0
CLASS
  1
SPATIAL_INDEX
  2
AcDbSpatialIndex
  3
AutoCAD 2000
 90
        0
280
     0
281
     0
  0
CLASS
  1
OBJECT_PTR
  2
CAseDLPNTableRecord
  3
"ASE-LPNTableRecord"
 90
        1
280
     0
281
     0
  0
CLASS
  1
LAYOUT
  2
AcDbLayout
  3
AutoCAD 2000
 90
        0
280
     0
281
     0
  0
CLASS
  1
PLOTSETTINGS
  2
AcDbPlotSettings
  3
AutoCAD 2000
 90
        0
280
     0
281
     0
  0
CLASS
  1
ACDBDICTIONARYWDFLT
  2
AcDbDictionaryWithDefault
  3
AutoCAD 2000
 90
        0
280
     0
281
     0
  0
CLASS
  1
ACDBPLACEHOLDER
  2
AcDbPlaceHolder
  3
AutoCAD 2000
 90
        0
280
     0
281
     0
  0
CLASS
  1
VBA_PROJECT
  2
AcDbVbaProject
  3
acadvba
 90
        0
280
     0
281
     0
  0
CLASS
  1
WIPEOUT
  2
AcDbWipeout
  3
WipeOut|AutoCAD Express Tool|expresstools@autodesk.com
 90
      127
280
     0
281
     1
  0
CLASS
  1
WIPEOUTVARIABLES
  2
AcDbWipeoutVariables
  3
WipeOut|AutoCAD Express Tool|expresstools@autodesk.com
 90
        0
280
     0
281
     0
  0
CLASS
  1
RTEXT
  2
RText
  3
RText|AutoCAD Express Tool|expresstools@autodesk.com
 90
        0
280
     0
281
     1
  0
CLASS
  1
ARCALIGNEDTEXT
  2
AcDbArcAlignedText
  3
ATEXT|AutoCAD Express Tool|expresstools@autodesk.com
 90
        0
280
     0
281
     1
  0
ENDSEC
  0
SECTION
  2
TABLES
  0
TABLE
  2
VPORT
  5
6
100
AcDbSymbolTable
 70
     1
  0
VPORT
  5
19
100
AcDbSymbolTableRecord
100
AcDbViewportTableRecord
  2
*ACTIVE
 70
     0
 10
0.0
 20
0.0
 11
1.0
 21
1.0
 12
0.0
 22
0.0
 13
0.0
 23
0.0
 14
1.0
 24
1.0
 15
0.0
 25
0.0
 16
0.0
 26
0.0
 36
1.0
 17
0.0
 27
0.0
 37
0.0
 40
594.0
 41
1.415825
 42
50.0
 43
0.0
 44
0.0
 50
0.0
 51
0.0
 71
     0
 72
   500
 73
     1
 74
     1
 75
     0
 76
     0
 77
     0
 78
     0
281
     0
 65
     0
110
0.0
120
0.0
130
0.0
111
1.0
121
0.0
131
0.0
112
0.0
122
1.0
132
0.0
345
0
346
0
 79
     0
146
0.0
  0
ENDTAB
  0
TABLE
  2
LTYPE
  5
3
100
AcDbSymbolTable
 70
     9
  0
LTYPE
  5
C
100
AcDbSymbolTableRecord
100
AcDbLinetypeTableRecord
  2
ByBlock
 70
    64
  3

 72
    65
 73
     0
 40
0.0
  0
LTYPE
  5
D
100
AcDbSymbolTableRecord
100
AcDbLinetypeTableRecord
  2
ByLayer
 70
    64
  3

 72
    65
 73
     0
 40
0.0
  0
LTYPE
  5
E
100
AcDbSymbolTableRecord
100
AcDbLinetypeTableRecord
  2
CONTINUOUS
 70
     0
  3
Solid line
 72
    65
 73
     0
 40
0.0
  0
LTYPE
  5
F
100
AcDbSymbolTableRecord
100
AcDbLinetypeTableRecord
  2
DASHED
 70
     0
  3
__ __ __ __ __ __ __ __ __ __ __ __ __ __ __
 72
    65
 73
     2
 40
2.0
 49
1.2
 74
     0
 49
-0.8
 74
     0
  0
LTYPE
  5
10
100
AcDbSymbolTableRecord
100
AcDbLinetypeTableRecord
  2
CENTER
 70
     0
  3
____ _ ____ _ ____ _ ____ _ ____ _ ____ _ ____
 72
    65
 73
     4
 40
12.0
 49
9.0
 74
     0
 49
-1.0
 74
     0
 49
1.0
 74
     0
 49
-1.0
 74
     0
  0
LTYPE
  5
11
100
AcDbSymbolTableRecord
100
AcDbLinetypeTableRecord
  2
HIDDEN
 70
     0
  3
_ _ _ _ _ _ _ _ _ _ _ _ _ _ _ _ _ _ _ _ _ _ _
 72
    65
 73
     2
 40
3.2
 49
2.4
 74
     0
 49
-0.8
 74
     0
  0
LTYPE
  5
12
100
AcDbSymbolTableRecord
100
AcDbLinetypeTableRecord
  2
PHANTOM
 70
     0
  3
_____ _ _ _____ _ _ _____ _ _ _____ _ _ _____
 72
    65
 73
     6
 40
13.5
 49
9.0
 74
     0
 49
-1.0
 74
     0
 49
1.0
 74
     0
 49
-0.5
 74
     0
 49
1.0
 74
     0
 49
-1.0
 74
     0
  0
LTYPE
  5
13
100
AcDbSymbolTableRecord
100
AcDbLinetypeTableRecord
  2
DOT
 70
     0
  3
...............................................
 72
    65
 73
     2
 40
1.0
 49
0.5
 74
     0
 49
-0.5
 74
     0
  0
LTYPE
  5
14
100
AcDbSymbolTableRecord
100
AcDbLinetypeTableRecord
  2
DASHDOT
 70
     0
  3
__ . __ . __ . __ . __ . __ . __ . __ . __ . __
 72
    65
 73
     4
 40
8.0
 49
5.0
 74
     0
 49
-1.0
 74
     0
 49
1.0
 74
     0
 49
-1.0
 74
     0
  0
ENDTAB
  0
TABLE
  2
LAYER
  5
1
100
AcDbSymbolTable
 70
     4
  0
LAYER
  5
15
100
AcDbSymbolTableRecord
100
AcDbLayerTableRecord
  2
0
 70
     0
 62
     7
  6
CONTINUOUS
290
     1
370
    -3
390
0
  0
LAYER
  5
16
100
AcDbSymbolTableRecord
100
AcDbLayerTableRecord
  2
1
 70
     0
 62
     7
  6
CONTINUOUS
290
     1
370
    -3
390
0
  0
LAYER
  5
17
100
AcDbSymbolTableRecord
100
AcDbLayerTableRecord
  2
2
 70
     0
 62
     7
  6
CONTINUOUS
290
     1
370
    -3
390
0
  0
LAYER
  5
18
100
AcDbSymbolTableRecord
100
AcDbLayerTableRecord
  2
3
 70
     0
 62
     7
  6
CONTINUOUS
290
     1
370
    -3
390
0
  0
ENDTAB
  0
TABLE
  2
STYLE
  5
2
100
AcDbSymbolTable
 70
     1
  0
STYLE
  5
1B
100
AcDbSymbolTableRecord
100
AcDbTextStyleTableRecord
  2
STANDARD
 70
    64
 40
0.0
 41
1.0
 50
0.0
 71
     0
 42
1.0
  3
txt
  4
BIGFONT
  0
ENDTAB
  0
TABLE
  2
VIEW
  5
4
100
AcDbSymbolTable
 70
     0
  0
ENDTAB
  0
TABLE
  2
UCS
  5
5
100
AcDbSymbolTable
 70
     0
  0
ENDTAB
  0
TABLE
  2
APPID
  5
7
100
AcDbSymbolTable
 70
     1
  0
APPID
  5
1A
100
AcDbSymbolTableRecord
100
AcDbRegAppTableRecord
  2
ACAD
 70
     0
  0
ENDTAB
  0
TABLE
  2
DIMSTYLE
  5
8
100
AcDbSymbolTable
 70
     1
100
AcDbDimStyleTable
 71
     0
  0
DIMSTYLE
105
2B
100
AcDbSymbolTableRecord
100
AcDbDimStyleTableRecord
  2
Standard
 70
     0
  3

  4

 40
1.0
 41
2.0
 42
1.0
 43
0.38
 44
2.0
 45
0.0
 46
0.0
 47
0.0
 48
0.0
 71
     0
 72
     0
 73
     0
 74
     0
 75
     0
 76
     0
 77
     1
 78
     0
 79
     0
140
3.5
141
0.09
142
0.0
143
25.4
144
1.0
145
0.0
146
1.0
147
0.5
148
0.0
170
     0
171
     2
172
     0
173
     0
174
     0
175
     0
176
     0
177
     0
178
     0
179
     0
271
     3
272
     4
273
     2
274
     2
275
     0
276
     0
277
     2
278
    46
279
     0
280
     0
281
     0
282
     0
283
     1
284
     0
285
     0
286
     0
288
     0
289
     3
340
1B
341
0
342
0
343
0
344
0
371
    -2
372
    -2
  0
ENDTAB
  0
TABLE
  2
BLOCK_RECORD
  5
26
100
AcDbSymbolTable
 70
     8
  0
BLOCK_RECORD
  5
24
100
AcDbSymbolTableRecord
100
AcDbBlockTableRecord
  2
*Model_Space
340
0
  0
BLOCK_RECORD
  5
25
100
AcDbSymbolTableRecord
100
AcDbBlockTableRecord
  2
*Paper_Space
340
0
  0
BLOCK_RECORD
  5
1C
100
AcDbSymbolTableRecord
100
AcDbBlockTableRecord
  2
*D0
340
0
  0
BLOCK_RECORD
  5
1D
100
AcDbSymbolTableRecord
100
AcDbBlockTableRecord
  2
*D1
340
0
  0
BLOCK_RECORD
  5
1E
100
AcDbSymbolTableRecord
100
AcDbBlockTableRecord
  2
*D2
340
0
  0
BLOCK_RECORD
  5
1F
100
AcDbSymbolTableRecord
100
AcDbBlockTableRecord
  2
*D3
340
0
  0
BLOCK_RECORD
  5
20
100
AcDbSymbolTableRecord
100
AcDbBlockTableRecord
  2
*D4
340
0
  0
BLOCK_RECORD
  5
21
100
AcDbSymbolTableRecord
100
AcDbBlockTableRecord
  2
*D5
340
0
  0
BLOCK_RECORD
  5
22
100
AcDbSymbolTableRecord
100
AcDbBlockTableRecord
  2
*D6
340
0
  0
BLOCK_RECORD
  5
23
100
AcDbSymbolTableRecord
100
AcDbBlockTableRecord
  2
*D7
340
0
  0
ENDTAB
  0
ENDSEC
  0
SECTION
  2
BLOCKS
  0
BLOCK
  5
27
100
AcDbEntity
  8
0
390
0
100
AcDbBlockBegin
  2
*Model_Space
 70
     0
 10
0.0
 20
0.0
 30
0.0
  3
*Model_Space
  1

  0
ENDBLK
  5
28
100
AcDbEntity
  8
0
390
0
100
AcDbBlockEnd
  0
BLOCK
  5
29
100
AcDbEntity
 67
     1
  8
0
390
0
100
AcDbBlockBegin
  2
*Paper_Space
 70
     0
 10
0.0
 20
0.0
 30
0.0
  3
*Paper_Space
  1

  0
ENDBLK
  5
2A
100
AcDbEntity
 67
     1
  8
0
390
0
100
AcDbBlockEnd
  0
BLOCK
  5
187
100
AcDbEntity
  8
3
100
AcDbBlockBegin
  2
*D0
 70
     1
 10
0.0
 20
0.0
 30
0.0
  3
*D0
  1

  0
TEXT
  5
188
100
AcDbEntity
  8
3
370
    25
100
AcDbText
 10
-0.648862
 20
-109.002686
 30
0.0
 40
3.5
  1
１４
 72
     5
 11
5.651138
 21
-109.002686
 31
0.0
100
AcDbText
  0
LINE
  5
189
100
AcDbEntity
  8
3
370
    25
100
AcDbLine
 10
-4.148862
 20
-48.325929
 30
0.0
 11
-4.148862
 21
-110.502686
 31
0.0
  0
LINE
  5
18A
100
AcDbEntity
  8
3
370
    25
100
AcDbLine
 10
-4.148862
 20
-109.502686
 30
0.0
 11
-2.21701
 21
-110.020324
 31
0.0
  0
LINE
  5
18B
100
AcDbEntity
  8
3
370
    25
100
AcDbLine
 10
-4.148862
 20
-109.502686
 30
0.0
 11
-2.21701
 21
-108.985047
 31
0.0
  0
LINE
  5
18C
100
AcDbEntity
  8
3
370
    25
100
AcDbLine
 10
-2.21701
 20
-110.020324
 30
0.0
 11
-2.21701
 21
-108.985047
 31
0.0
  0
LINE
  5
18D
100
AcDbEntity
  8
3
370
    25
100
AcDbLine
 10
-4.148862
 20
-109.502686
 30
0.0
 11
9.851138
 21
-109.502686
 31
0.0
  0
LINE
  5
18E
100
AcDbEntity
  8
3
370
    25
100
AcDbLine
 10
9.851138
 20
-109.502686
 30
0.0
 11
7.919286
 21
-108.985047
 31
0.0
  0
LINE
  5
18F
100
AcDbEntity
  8
3
370
    25
100
AcDbLine
 10
9.851138
 20
-109.502686
 30
0.0
 11
7.919286
 21
-110.020324
 31
0.0
  0
LINE
  5
190
100
AcDbEntity
  8
3
370
    25
100
AcDbLine
 10
7.919286
 20
-108.985047
 30
0.0
 11
7.919286
 21
-110.020324
 31
0.0
  0
LINE
  5
191
100
AcDbEntity
  8
3
370
    25
100
AcDbLine
 10
9.851138
 20
-34.803429
 30
0.0
 11
9.851138
 21
-110.502686
 31
0.0
  0
ENDBLK
  5
192
100
AcDbEntity
  8
3
100
AcDbBlockEnd
  0
BLOCK
  5
193
100
AcDbEntity
  8
3
100
AcDbBlockBegin
  2
*D1
 70
     1
 10
0.0
 20
0.0
 30
0.0
  3
*D1
  1

  0
TEXT
  5
194
100
AcDbEntity
  8
3
370
    25
100
AcDbText
 10
-30.148862
 20
-109.002686
 30
0.0
 40
3.5
  1
４５
 72
     5
 11
-23.848862
 21
-109.002686
 31
0.0
100
AcDbText
  0
LINE
  5
195
100
AcDbEntity
  8
3
370
    25
100
AcDbLine
 10
-49.148862
 20
-49.636169
 30
0.0
 11
-49.148862
 21
-110.502686
 31
0.0
  0
LINE
  5
196
100
AcDbEntity
  8
3
370
    25
100
AcDbLine
 10
-49.148862
 20
-109.502686
 30
0.0
 11
-47.21701
 21
-110.020324
 31
0.0
  0
LINE
  5
197
100
AcDbEntity
  8
3
370
    25
100
AcDbLine
 10
-49.148862
 20
-109.502686
 30
0.0
 11
-47.21701
 21
-108.985047
 31
0.0
  0
LINE
  5
198
100
AcDbEntity
  8
3
370
    25
100
AcDbLine
 10
-47.21701
 20
-110.020324
 30
0.0
 11
-47.21701
 21
-108.985047
 31
0.0
  0
LINE
  5
199
100
AcDbEntity
  8
3
370
    25
100
AcDbLine
 10
-49.148862
 20
-109.502686
 30
0.0
 11
-4.148862
 21
-109.502686
 31
0.0
  0
LINE
  5
19A
100
AcDbEntity
  8
3
370
    25
100
AcDbLine
 10
-4.148862
 20
-109.502686
 30
0.0
 11
-6.080714
 21
-108.985047
 31
0.0
  0
LINE
  5
19B
100
AcDbEntity
  8
3
370
    25
100
AcDbLine
 10
-4.148862
 20
-109.502686
 30
0.0
 11
-6.080714
 21
-110.020324
 31
0.0
  0
LINE
  5
19C
100
AcDbEntity
  8
3
370
    25
100
AcDbLine
 10
-6.080714
 20
-108.985047
 30
0.0
 11
-6.080714
 21
-110.020324
 31
0.0
  0
LINE
  5
19D
100
AcDbEntity
  8
3
370
    25
100
AcDbLine
 10
-4.148862
 20
-48.325929
 30
0.0
 11
-4.148862
 21
-110.502686
 31
0.0
  0
ENDBLK
  5
19E
100
AcDbEntity
  8
3
100
AcDbBlockEnd
  0
BLOCK
  5
19F
100
AcDbEntity
  8
3
100
AcDbBlockBegin
  2
*D2
 70
     1
 10
0.0
 20
0.0
 30
0.0
  3
*D2
  1

  0
TEXT
  5
1A0
100
AcDbEntity
  8
3
370
    25
100
AcDbText
 10
-70.155866
 20
-109.002686
 30
0.0
 40
3.5
  1
３５
 72
     5
 11
-63.855866
 21
-109.002686
 31
0.0
100
AcDbText
  0
LINE
  5
1A1
100
AcDbEntity
  8
3
370
    25
100
AcDbLine
 10
-84.162869
 20
-104.633865
 30
0.0
 11
-84.162869
 21
-110.502686
 31
0.0
  0
LINE
  5
1A2
100
AcDbEntity
  8
3
370
    25
100
AcDbLine
 10
-84.162869
 20
-109.502686
 30
0.0
 11
-82.231018
 21
-110.020324
 31
0.0
  0
LINE
  5
1A3
100
AcDbEntity
  8
3
370
    25
100
AcDbLine
 10
-84.162869
 20
-109.502686
 30
0.0
 11
-82.231018
 21
-108.985047
 31
0.0
  0
LINE
  5
1A4
100
AcDbEntity
  8
3
370
    25
100
AcDbLine
 10
-82.231018
 20
-110.020324
 30
0.0
 11
-82.231018
 21
-108.985047
 31
0.0
  0
LINE
  5
1A5
100
AcDbEntity
  8
3
370
    25
100
AcDbLine
 10
-84.162869
 20
-109.502686
 30
0.0
 11
-49.148862
 21
-109.502686
 31
0.0
  0
LINE
  5
1A6
100
AcDbEntity
  8
3
370
    25
100
AcDbLine
 10
-49.148862
 20
-109.502686
 30
0.0
 11
-51.080714
 21
-108.985047
 31
0.0
  0
LINE
  5
1A7
100
AcDbEntity
  8
3
370
    25
100
AcDbLine
 10
-49.148862
 20
-109.502686
 30
0.0
 11
-51.080714
 21
-110.020324
 31
0.0
  0
LINE
  5
1A8
100
AcDbEntity
  8
3
370
    25
100
AcDbLine
 10
-51.080714
 20
-108.985047
 30
0.0
 11
-51.080714
 21
-110.020324
 31
0.0
  0
LINE
  5
1A9
100
AcDbEntity
  8
3
370
    25
100
AcDbLine
 10
-49.148862
 20
-49.636169
 30
0.0
 11
-49.148862
 21
-110.502686
 31
0.0
  0
ENDBLK
  5
1AA
100
AcDbEntity
  8
3
100
AcDbBlockEnd
  0
BLOCK
  5
1AB
100
AcDbEntity
  8
3
100
AcDbBlockBegin
  2
*D3
 70
     1
 10
0.0
 20
0.0
 30
0.0
  3
*D3
  1

  0
TEXT
  5
1AC
100
AcDbEntity
  8
3
370
    25
100
AcDbText
 10
-132.270111
 20
-63.525855
 30
0.0
 40
3.5
  1
７１
 50
90.0
 72
     5
 11
-132.270111
 21
-57.225855
 31
0.0
100
AcDbText
  0
LINE
  5
1AD
100
AcDbEntity
  8
3
370
    25
100
AcDbLine
 10
-92.012869
 20
-95.52578
 30
0.0
 11
-132.770111
 21
-95.52578
 31
0.0
  0
LINE
  5
1AE
100
AcDbEntity
  8
3
370
    25
100
AcDbLine
 10
-131.770111
 20
-95.52578
 30
0.0
 11
-131.252473
 21
-93.593929
 31
0.0
  0
LINE
  5
1AF
100
AcDbEntity
  8
3
370
    25
100
AcDbLine
 10
-131.770111
 20
-95.52578
 30
0.0
 11
-132.287749
 21
-93.593929
 31
0.0
  0
LINE
  5
1B0
100
AcDbEntity
  8
3
370
    25
100
AcDbLine
 10
-131.252473
 20
-93.593929
 30
0.0
 11
-132.287749
 21
-93.593929
 31
0.0
  0
LINE
  5
1B1
100
AcDbEntity
  8
3
370
    25
100
AcDbLine
 10
-131.770111
 20
-95.52578
 30
0.0
 11
-131.770111
 21
-24.525929
 31
0.0
  0
LINE
  5
1B2
100
AcDbEntity
  8
3
370
    25
100
AcDbLine
 10
-131.770111
 20
-24.525929
 30
0.0
 11
-132.287749
 21
-26.457781
 31
0.0
  0
LINE
  5
1B3
100
AcDbEntity
  8
3
370
    25
100
AcDbLine
 10
-131.770111
 20
-24.525929
 30
0.0
 11
-131.252473
 21
-26.457781
 31
0.0
  0
LINE
  5
1B4
100
AcDbEntity
  8
3
370
    25
100
AcDbLine
 10
-132.287749
 20
-26.457781
 30
0.0
 11
-131.252473
 21
-26.457781
 31
0.0
  0
LINE
  5
1B5
100
AcDbEntity
  8
3
370
    25
100
AcDbLine
 10
-85.162869
 20
-24.525929
 30
0.0
 11
-132.770111
 21
-24.525929
 31
0.0
  0
ENDBLK
  5
1B6
100
AcDbEntity
  8
3
100
AcDbBlockEnd
  0
BLOCK
  5
1B7
100
AcDbEntity
  8
3
100
AcDbBlockBegin
  2
*D4
 70
     1
 10
0.0
 20
0.0
 30
0.0
  3
*D4
  1

  0
TEXT
  5
1B8
100
AcDbEntity
  8
3
370
    25
100
AcDbText
 10
-119.982788
 20
-89.52578
 30
0.0
 40
3.5
  1
１９
 50
90.0
 72
     5
 11
-119.982788
 21
-83.22578
 31
0.0
100
AcDbText
  0
LINE
  5
1B9
100
AcDbEntity
  8
3
370
    25
100
AcDbLine
 10
-92.012869
 20
-95.52578
 30
0.0
 11
-120.482788
 21
-95.52578
 31
0.0
  0
LINE
  5
1BA
100
AcDbEntity
  8
3
370
    25
100
AcDbLine
 10
-119.482788
 20
-95.52578
 30
0.0
 11
-118.96515
 21
-93.593929
 31
0.0
  0
LINE
  5
1BB
100
AcDbEntity
  8
3
370
    25
100
AcDbLine
 10
-119.482788
 20
-95.52578
 30
0.0
 11
-120.000426
 21
-93.593929
 31
0.0
  0
LINE
  5
1BC
100
AcDbEntity
  8
3
370
    25
100
AcDbLine
 10
-118.96515
 20
-93.593929
 30
0.0
 11
-120.000426
 21
-93.593929
 31
0.0
  0
LINE
  5
1BD
100
AcDbEntity
  8
3
370
    25
100
AcDbLine
 10
-119.482788
 20
-95.52578
 30
0.0
 11
-119.482788
 21
-76.52578
 31
0.0
  0
LINE
  5
1BE
100
AcDbEntity
  8
3
370
    25
100
AcDbLine
 10
-119.482788
 20
-76.52578
 30
0.0
 11
-120.000426
 21
-78.457632
 31
0.0
  0
LINE
  5
1BF
100
AcDbEntity
  8
3
370
    25
100
AcDbLine
 10
-119.482788
 20
-76.52578
 30
0.0
 11
-118.96515
 21
-78.457632
 31
0.0
  0
LINE
  5
1C0
100
AcDbEntity
  8
3
370
    25
100
AcDbLine
 10
-120.000426
 20
-78.457632
 30
0.0
 11
-118.96515
 21
-78.457632
 31
0.0
  0
LINE
  5
1C1
100
AcDbEntity
  8
3
370
    25
100
AcDbLine
 10
-105.30495
 20
-76.52578
 30
0.0
 11
-120.482788
 21
-76.52578
 31
0.0
  0
ENDBLK
  5
1C2
100
AcDbEntity
  8
3
100
AcDbBlockEnd
  0
BLOCK
  5
1C3
100
AcDbEntity
  8
3
100
AcDbBlockBegin
  2
*D5
 70
     1
 10
0.0
 20
0.0
 30
0.0
  3
*D5
  1

  0
TEXT
  5
1C4
100
AcDbEntity
  8
3
370
    25
100
AcDbText
 10
-89.412869
 20
-121.452255
 30
0.0
 40
3.5
  1
φ４４
 72
     5
 11
-79.612869
 21
-121.452255
 31
0.0
100
AcDbText
  0
LINE
  5
1C5
100
AcDbEntity
  8
3
370
    25
100
AcDbLine
 10
-62.162869
 20
-75.82578
 30
0.0
 11
-62.162869
 21
-122.952255
 31
0.0
  0
LINE
  5
1C6
100
AcDbEntity
  8
3
370
    25
100
AcDbLine
 10
-62.162869
 20
-121.952255
 30
0.0
 11
-64.094721
 21
-121.434617
 31
0.0
  0
LINE
  5
1C7
100
AcDbEntity
  8
3
370
    25
100
AcDbLine
 10
-62.162869
 20
-121.952255
 30
0.0
 11
-64.094721
 21
-122.469893
 31
0.0
  0
LINE
  5
1C8
100
AcDbEntity
  8
3
370
    25
100
AcDbLine
 10
-64.094721
 20
-121.434617
 30
0.0
 11
-64.094721
 21
-122.469893
 31
0.0
  0
LINE
  5
1C9
100
AcDbEntity
  8
3
370
    25
100
AcDbLine
 10
-62.162869
 20
-121.952255
 30
0.0
 11
-106.162869
 21
-121.952255
 31
0.0
  0
LINE
  5
1CA
100
AcDbEntity
  8
3
370
    25
100
AcDbLine
 10
-106.162869
 20
-121.952255
 30
0.0
 11
-104.231018
 21
-122.469893
 31
0.0
  0
LINE
  5
1CB
100
AcDbEntity
  8
3
370
    25
100
AcDbLine
 10
-106.162869
 20
-121.952255
 30
0.0
 11
-104.231018
 21
-121.434617
 31
0.0
  0
LINE
  5
1CC
100
AcDbEntity
  8
3
370
    25
100
AcDbLine
 10
-104.231018
 20
-122.469893
 30
0.0
 11
-104.231018
 21
-121.434617
 31
0.0
  0
LINE
  5
1CD
100
AcDbEntity
  8
3
370
    25
100
AcDbLine
 10
-106.162869
 20
-75.52578
 30
0.0
 11
-106.162869
 21
-122.952255
 31
0.0
  0
ENDBLK
  5
1CE
100
AcDbEntity
  8
3
100
AcDbBlockEnd
  0
BLOCK
  5
1CF
100
AcDbEntity
  8
3
100
AcDbBlockBegin
  2
*D6
 70
     1
 10
0.0
 20
0.0
 30
0.0
  3
*D6
  1

  0
TEXT
  5
1D0
100
AcDbEntity
  8
3
370
    25
100
AcDbText
 10
32.123379
 20
-29.775929
 30
0.0
 40
3.5
  1
φ４６
 50
90.0
 72
     5
 11
32.123379
 21
-19.975929
 31
0.0
100
AcDbText
  0
LINE
  5
1D1
100
AcDbEntity
  8
3
370
    25
100
AcDbLine
 10
-3.348862
 20
-1.525929
 30
0.0
 11
33.623379
 21
-1.525929
 31
0.0
  0
LINE
  5
1D2
100
AcDbEntity
  8
3
370
    25
100
AcDbLine
 10
32.623379
 20
-1.525929
 30
0.0
 11
32.105741
 21
-3.457781
 31
0.0
  0
LINE
  5
1D3
100
AcDbEntity
  8
3
370
    25
100
AcDbLine
 10
32.623379
 20
-1.525929
 30
0.0
 11
33.141017
 21
-3.457781
 31
0.0
  0
LINE
  5
1D4
100
AcDbEntity
  8
3
370
    25
100
AcDbLine
 10
32.105741
 20
-3.457781
 30
0.0
 11
33.141017
 21
-3.457781
 31
0.0
  0
LINE
  5
1D5
100
AcDbEntity
  8
3
370
    25
100
AcDbLine
 10
32.623379
 20
-1.525929
 30
0.0
 11
32.623379
 21
-47.525929
 31
0.0
  0
LINE
  5
1D6
100
AcDbEntity
  8
3
370
    25
100
AcDbLine
 10
32.623379
 20
-47.525929
 30
0.0
 11
33.141017
 21
-45.594077
 31
0.0
  0
LINE
  5
1D7
100
AcDbEntity
  8
3
370
    25
100
AcDbLine
 10
32.623379
 20
-47.525929
 30
0.0
 11
32.105741
 21
-45.594077
 31
0.0
  0
LINE
  5
1D8
100
AcDbEntity
  8
3
370
    25
100
AcDbLine
 10
33.141017
 20
-45.594077
 30
0.0
 11
32.105741
 21
-45.594077
 31
0.0
  0
LINE
  5
1D9
100
AcDbEntity
  8
3
370
    25
100
AcDbLine
 10
-3.348862
 20
-47.525929
 30
0.0
 11
33.623379
 21
-47.525929
 31
0.0
  0
ENDBLK
  5
1DA
100
AcDbEntity
  8
3
100
AcDbBlockEnd
  0
BLOCK
  5
1DB
100
AcDbEntity
  8
3
100
AcDbBlockBegin
  2
*D7
 70
     1
 10
0.0
 20
0.0
 30
0.0
  3
*D7
  1

  0
LINE
  5
1DC
100
AcDbEntity
  8
3
370
    25
100
AcDbLine
 10
-85.162869
 20
-24.525929
 30
0.0
 11
-132.770111
 21
-24.525929
 31
0.0
  0
LINE
  5
1DD
100
AcDbEntity
  8
3
370
    25
100
AcDbLine
 10
-131.770111
 20
-24.525929
 30
0.0
 11
-131.252473
 21
-22.594077
 31
0.0
  0
LINE
  5
1DE
100
AcDbEntity
  8
3
370
    25
100
AcDbLine
 10
-131.770111
 20
-24.525929
 30
0.0
 11
-132.287749
 21
-22.594077
 31
0.0
  0
LINE
  5
1DF
100
AcDbEntity
  8
3
370
    25
100
AcDbLine
 10
-131.252473
 20
-22.594077
 30
0.0
 11
-132.287749
 21
-22.594077
 31
0.0
  0
LINE
  5
1E0
100
AcDbEntity
  8
3
370
    25
100
AcDbLine
 10
-131.770111
 20
-24.525929
 30
0.0
 11
-131.770111
 21
47.474072
 31
0.0
  0
LINE
  5
1E1
100
AcDbEntity
  8
3
370
    25
100
AcDbLine
 10
-131.770111
 20
47.474072
 30
0.0
 11
-132.287749
 21
45.542221
 31
0.0
  0
LINE
  5
1E2
100
AcDbEntity
  8
3
370
    25
100
AcDbLine
 10
-131.770111
 20
47.474072
 30
0.0
 11
-131.252473
 21
45.542221
 31
0.0
  0
LINE
  5
1E3
100
AcDbEntity
  8
3
370
    25
100
AcDbLine
 10
-132.287749
 20
45.542221
 30
0.0
 11
-131.252473
 21
45.542221
 31
0.0
  0
LINE
  5
1E4
100
AcDbEntity
  8
3
370
    25
100
AcDbLine
 10
-50.136139
 20
47.474072
 30
0.0
 11
-132.770111
 21
47.474072
 31
0.0
  0
ENDBLK
  5
1E5
100
AcDbEntity
  8
3
100
AcDbBlockEnd
  0
ENDSEC
  0
SECTION
  2
ENTITIES
  0
LINE
  5
2C
100
AcDbEntity
  8
1
370
   100
100
AcDbLine
 10
-186.510785
 20
137.514384
 30
0.0
 11
197.491193
 21
137.514384
 31
0.0
  0
LINE
  5
2D
100
AcDbEntity
  8
1
370
   100
100
AcDbLine
 10
-186.510785
 20
137.514384
 30
0.0
 11
-186.510785
 21
-138.985941
 31
0.0
  0
LINE
  5
2E
100
AcDbEntity
  8
1
370
   100
100
AcDbLine
 10
-186.510785
 20
-138.985941
 30
0.0
 11
197.491193
 21
-138.985941
 31
0.0
  0
LINE
  5
2F
100
AcDbEntity
  8
1
370
   100
100
AcDbLine
 10
197.491193
 20
-138.985941
 30
0.0
 11
197.491193
 21
137.514384
 31
0.0
  0
TEXT
  5
30
100
AcDbEntity
  8
1
370
    50
100
AcDbText
 10
179.814221
 20
-113.126428
 30
0.0
 40
3.0
  1
設計
 72
     5
 11
185.214221
 21
-113.126428
 31
0.0
100
AcDbText
  0
TEXT
  5
31
100
AcDbEntity
  8
1
370
    50
100
AcDbText
 10
189.563739
 20
-113.049829
 30
0.0
 40
3.0
  1
製図
 72
     5
 11
194.963739
 21
-113.049829
 31
0.0
100
AcDbText
  0
TEXT
  5
32
100
AcDbEntity
  8
1
370
    50
100
AcDbText
 10
159.502872
 20
-113.126428
 30
0.0
 40
3.0
  1
承認
 72
     5
 11
164.902872
 21
-113.126428
 31
0.0
100
AcDbText
  0
TEXT
  5
33
100
AcDbEntity
  8
1
370
    50
100
AcDbText
 10
169.494839
 20
-113.09901
 30
0.0
 40
3.0
  1
検図
 72
     5
 11
174.894839
 21
-113.09901
 31
0.0
100
AcDbText
  0
LINE
  5
34
100
AcDbEntity
  8
1
370
    25
100
AcDbLine
 10
142.491193
 20
-113.985941
 30
0.0
 11
197.491193
 21
-113.985941
 31
0.0
  0
LINE
  5
35
100
AcDbEntity
  8
1
370
    25
100
AcDbLine
 10
171.241193
 20
-122.985941
 30
0.0
 11
171.241193
 21
-129.985941
 31
0.0
  0
TEXT
  5
36
100
AcDbEntity
  8
1
370
    50
100
AcDbText
 10
159.775795
 20
-128.006264
 30
0.0
 40
3.0
  1
日　付
 72
     5
 11
168.175795
 21
-128.006264
 31
0.0
100
AcDbText
  0
LINE
  5
37
100
AcDbEntity
  8
1
370
    50
100
AcDbLine
 10
20.491193
 20
-129.985941
 30
0.0
 11
197.491193
 21
-129.985941
 31
0.0
  0
TEXT
  5
38
100
AcDbEntity
  8
1
370
    50
100
AcDbText
 10
143.887505
 20
-128.161203
 30
0.0
 40
3.0
  1
第三角法
 72
     5
 11
155.287505
 21
-128.161203
 31
0.0
100
AcDbText
  0
TEXT
  5
39
100
AcDbEntity
  8
1
370
    50
100
AcDbText
 10
145.54371
 20
-112.99901
 30
0.0
 40
3.0
  1
尺　度
 72
     5
 11
153.94371
 21
-112.99901
 31
0.0
100
AcDbText
  0
LINE
  5
3A
100
AcDbEntity
  8
1
370
   100
100
AcDbLine
 10
20.491193
 20
-108.985941
 30
0.0
 11
197.491193
 21
-108.985941
 31
0.0
  0
LINE
  5
3B
100
AcDbEntity
  8
1
370
    50
100
AcDbLine
 10
105.991193
 20
-108.985941
 30
0.0
 11
105.991193
 21
-138.985941
 31
0.0
  0
LINE
  5
3C
100
AcDbEntity
  8
1
370
    25
100
AcDbLine
 10
187.491193
 20
-122.985941
 30
0.0
 11
187.491193
 21
-108.985941
 31
0.0
  0
LINE
  5
3D
100
AcDbEntity
  8
1
370
    25
100
AcDbLine
 10
177.491193
 20
-122.985941
 30
0.0
 11
177.491193
 21
-108.985941
 31
0.0
  0
LINE
  5
3E
100
AcDbEntity
  8
1
370
    25
100
AcDbLine
 10
167.491193
 20
-122.985941
 30
0.0
 11
167.491193
 21
-108.985941
 31
0.0
  0
LINE
  5
3F
100
AcDbEntity
  8
1
370
    50
100
AcDbLine
 10
142.491193
 20
-138.985941
 30
0.0
 11
142.491193
 21
-108.985941
 31
0.0
  0
LINE
  5
40
100
AcDbEntity
  8
1
370
    50
100
AcDbLine
 10
94.991193
 20
-108.985941
 30
0.0
 11
94.991193
 21
-138.985941
 31
0.0
  0
LINE
  5
41
100
AcDbEntity
  8
1
370
    50
100
AcDbLine
 10
31.491193
 20
-108.985941
 30
0.0
 11
31.491193
 21
-129.985941
 31
0.0
  0
LINE
  5
42
100
AcDbEntity
  8
1
370
    50
100
AcDbLine
 10
142.491193
 20
-122.985941
 30
0.0
 11
197.491193
 21
-122.985941
 31
0.0
  0
TEXT
  5
43
100
AcDbEntity
  8
1
370
    50
100
AcDbText
 10
143.550565
 20
-135.940469
 30
0.0
 40
3.0
  1
コードＮｏ
 41
0.9
 72
     5
 11
156.510565
 21
-135.940469
 31
0.0
100
AcDbText
  0
TEXT
  5
44
100
AcDbEntity
  8
1
370
   100
100
AcDbText
 10
26.443387
 20
-136.43783
 30
0.0
 40
4.0
  1
ミズタニバルブ工業株式会社
 41
1.2
 72
     5
 11
87.883387
 21
-136.43783
 31
0.0
100
AcDbText
  0
LINE
  5
45
100
AcDbEntity
  8
1
370
    50
100
AcDbLine
 10
20.491193
 20
-119.485941
 30
0.0
 11
142.491193
 21
-119.485941
 31
0.0
  0
LINE
  5
46
100
AcDbEntity
  8
1
370
    50
100
AcDbLine
 10
57.741193
 20
-119.485941
 30
0.0
 11
57.741193
 21
-129.985941
 31
0.0
  0
LINE
  5
47
100
AcDbEntity
  8
1
370
    50
100
AcDbLine
 10
68.741193
 20
-119.485941
 30
0.0
 11
68.741193
 21
-129.985941
 31
0.0
  0
LINE
  5
48
100
AcDbEntity
  8
1
370
    50
100
AcDbLine
 10
157.491193
 20
-138.985941
 30
0.0
 11
157.491193
 21
-108.985941
 31
0.0
  0
TEXT
  5
49
100
AcDbEntity
  8
1
370
    50
100
AcDbText
 10
172.549065
 20
-128.050147
 30
0.0
 40
3.0
  1
　　・　　・
 72
     5
 11
189.949065
 21
-128.050147
 31
0.0
100
AcDbText
  0
LINE
  5
4A
100
AcDbEntity
  8
1
370
   100
100
AcDbLine
 10
20.491193
 20
-108.985941
 30
0.0
 11
20.491193
 21
-138.985941
 31
0.0
  0
TEXT
  5
4B
100
AcDbEntity
  8
1
370
    50
100
AcDbText
 10
145.416291
 20
-120.006746
 30
0.0
 40
3.0
  1
　／ 
 72
     5
 11
150.816291
 21
-120.006746
 31
0.0
100
AcDbText
  0
TEXT
  5
4C
100
AcDbEntity
  8
1
370
    50
100
AcDbText
 10
96.952061
 20
-136.012454
 30
0.0
 40
3.0
  1
備 考 
 72
     5
 11
103.852061
 21
-136.012454
 31
0.0
100
AcDbText
  0
TEXT
  5
4D
100
AcDbEntity
  8
1
370
    50
100
AcDbText
 10
96.756267
 20
-115.44592
 30
0.0
 40
3.0
  1
仕 上
 72
     5
 11
103.656267
 21
-115.44592
 31
0.0
100
AcDbText
  0
TEXT
  5
4E
100
AcDbEntity
  8
1
370
    50
100
AcDbText
 10
96.723588
 20
-124.445833
 30
0.0
 40
3.0
  1
表 面
 72
     5
 11
103.623588
 21
-124.445833
 31
0.0
100
AcDbText
  0
TEXT
  5
4F
100
AcDbEntity
  8
1
370
    50
100
AcDbText
 10
96.723588
 20
-127.945833
 30
0.0
 40
3.0
  1
処 理
 72
     5
 11
103.623588
 21
-127.945833
 31
0.0
100
AcDbText
  0
TEXT
  5
50
100
AcDbEntity
  8
1
370
    50
100
AcDbText
 10
22.396675
 20
-115.8467
 30
0.0
 40
3.0
  1
品 名
 72
     5
 11
29.296675
 21
-115.8467
 31
0.0
100
AcDbText
  0
TEXT
  5
51
100
AcDbEntity
  8
1
370
    50
100
AcDbText
 10
22.198883
 20
-126.231267
 30
0.0
 40
3.0
  1
材 質
 72
     5
 11
29.098883
 21
-126.231267
 31
0.0
100
AcDbText
  0
TEXT
  5
52
100
AcDbEntity
  8
1
370
    50
100
AcDbText
 10
59.448883
 20
-126.231267
 30
0.0
 40
3.0
  1
規 格
 72
     5
 11
66.348883
 21
-126.231267
 31
0.0
100
AcDbText
  0
LINE
  5
53
100
AcDbEntity
  8
2
370
    25
  6
CENTER
100
AcDbLine
 10
-84.162869
 20
-24.525929
 30
0.0
 11
14.576017
 21
-24.525929
 31
0.0
  0
LINE
  5
54
100
AcDbEntity
  8
2
370
    50
100
AcDbLine
 10
-5.648862
 20
-1.525929
 30
0.0
 11
-4.348862
 21
-1.525929
 31
0.0
  0
LINE
  5
55
100
AcDbEntity
  8
2
370
    50
100
AcDbLine
 10
-5.648862
 20
-47.525929
 30
0.0
 11
-4.348862
 21
-47.525929
 31
0.0
  0
LINE
  5
56
100
AcDbEntity
  8
2
370
    50
100
AcDbLine
 10
-4.148862
 20
-14.048429
 30
0.0
 11
8.651138
 21
-14.048429
 31
0.0
  0
LINE
  5
57
100
AcDbEntity
  8
2
370
    50
100
AcDbLine
 10
-4.148862
 20
-35.003429
 30
0.0
 11
8.651138
 21
-35.003429
 31
0.0
  0
LINE
  5
58
100
AcDbEntity
  8
2
370
    50
100
AcDbLine
 10
-26.648862
 20
-15.275929
 30
0.0
 11
-10.648862
 21
-15.275929
 31
0.0
  0
ARC
  5
59
100
AcDbEntity
  8
2
370
    50
100
AcDbCircle
 10
-10.648862
 20
-11.275929
 30
0.0
 40
4.0
100
AcDbArc
 50
270.0
 51
360.0
  0
ARC
  5
5A
100
AcDbEntity
  8
2
370
    50
100
AcDbCircle
 10
-10.648862
 20
-37.775929
 30
0.0
 40
4.0
100
AcDbArc
 50
0.0
 51
90.0
  0
LINE
  5
5B
100
AcDbEntity
  8
2
370
    50
100
AcDbLine
 10
9.851138
 20
-33.803429
 30
0.0
 11
9.851138
 21
-15.248429
 31
0.0
  0
LINE
  5
5C
100
AcDbEntity
  8
2
370
    50
100
AcDbLine
 10
-6.648862
 20
-46.525929
 30
0.0
 11
-6.648862
 21
-2.525929
 31
0.0
  0
LINE
  5
5D
100
AcDbEntity
  8
2
370
    50
100
AcDbLine
 10
-4.148862
 20
-47.325929
 30
0.0
 11
-4.148862
 21
-1.725929
 31
0.0
  0
ARC
  5
5E
100
AcDbEntity
  8
2
370
    50
100
AcDbCircle
 10
-5.648862
 20
-2.525929
 30
0.0
 40
1.0
100
AcDbArc
 50
90.0
 51
180.0
  0
ARC
  5
5F
100
AcDbEntity
  8
2
370
    50
100
AcDbCircle
 10
-5.648862
 20
-46.525929
 30
0.0
 40
1.0
100
AcDbArc
 50
180.0
 51
270.0
  0
ARC
  5
60
100
AcDbEntity
  8
2
370
    50
100
AcDbCircle
 10
-49.148862
 20
12.474071
 30
0.0
 40
50.0
100
AcDbArc
 50
251.980736
 51
285.740549
  0
LINE
  5
61
100
AcDbEntity
  8
2
370
    25
100
AcDbLine
 10
-1.148862
 20
-15.248429
 30
0.0
 11
9.851138
 21
-15.248429
 31
0.0
  0
LINE
  5
62
100
AcDbEntity
  8
2
370
    25
100
AcDbLine
 10
-1.148862
 20
-33.803429
 30
0.0
 11
9.851138
 21
-33.803429
 31
0.0
  0
LINE
  5
63
100
AcDbEntity
  8
2
370
    50
100
AcDbLine
 10
9.851138
 20
-15.248429
 30
0.0
 11
8.651138
 21
-14.048429
 31
0.0
  0
LINE
  5
64
100
AcDbEntity
  8
2
370
    50
100
AcDbLine
 10
-1.148862
 20
-15.248429
 30
0.0
 11
-2.348862
 21
-14.048429
 31
0.0
  0
LINE
  5
65
100
AcDbEntity
  8
2
370
    50
100
AcDbLine
 10
9.851138
 20
-33.803429
 30
0.0
 11
8.651138
 21
-35.003429
 31
0.0
  0
LINE
  5
66
100
AcDbEntity
  8
2
370
    50
100
AcDbLine
 10
-1.148862
 20
-33.803429
 30
0.0
 11
-2.348862
 21
-35.003429
 31
0.0
  0
LINE
  5
67
100
AcDbEntity
  8
2
370
    50
100
AcDbLine
 10
-4.148862
 20
-47.325929
 30
0.0
 11
-4.348862
 21
-47.525929
 31
0.0
  0
LINE
  5
68
100
AcDbEntity
  8
2
370
    50
100
AcDbLine
 10
-4.148862
 20
-1.725929
 30
0.0
 11
-4.348862
 21
-1.525929
 31
0.0
  0
LINE
  5
69
100
AcDbEntity
  8
2
370
    50
100
AcDbLine
 10
-10.648862
 20
-33.775929
 30
0.0
 11
-22.020694
 21
-33.775929
 31
0.0
  0
ARC
  5
6A
100
AcDbEntity
  8
2
370
    50
100
AcDbCircle
 10
-22.020694
 20
-83.775929
 30
0.0
 40
50.0
100
AcDbArc
 50
90.0
 51
105.740549
  0
LINE
  5
6B
100
AcDbEntity
  8
2
370
    50
100
AcDbLine
 10
-36.648862
 20
-5.275929
 30
0.0
 11
-36.648862
 21
-3.525928
 31
0.0
  0
ARC
  5
6C
100
AcDbEntity
  8
2
370
    50
100
AcDbCircle
 10
-26.648862
 20
-5.275929
 30
0.0
 40
10.0
100
AcDbArc
 50
180.0
 51
270.0
  0
LINE
  5
6D
100
AcDbEntity
  8
2
370
    50
100
AcDbLine
 10
-61.648862
 20
-6.134933
 30
0.0
 11
-61.648862
 21
-3.525928
 31
0.0
  0
LINE
  5
6E
100
AcDbEntity
  8
2
370
    50
100
AcDbLine
 10
-97.162383
 20
-43.525929
 30
0.0
 11
-97.162383
 21
-42.925929
 31
0.0
  0
LINE
  5
6F
100
AcDbEntity
  8
2
370
    50
100
AcDbLine
 10
-71.162383
 20
-43.525929
 30
0.0
 11
-71.162383
 21
-39.82832
 31
0.0
  0
LINE
  5
70
100
AcDbEntity
  8
2
370
    50
100
AcDbLine
 10
-71.762383
 20
-43.525929
 30
0.0
 11
-71.162383
 21
-42.925929
 31
0.0
  0
ARC
  5
71
100
AcDbEntity
  8
2
370
    50
100
AcDbCircle
 10
-66.162383
 20
-39.82832
 30
0.0
 40
5.0
100
AcDbArc
 50
71.980736
 51
180.0
  0
LINE
  5
72
100
AcDbEntity
  8
2
370
    50
100
AcDbLine
 10
-96.562383
 20
-43.525929
 30
0.0
 11
-97.162383
 21
-42.925929
 31
0.0
  0
LINE
  5
73
100
AcDbEntity
  8
2
370
    50
100
AcDbLine
 10
-69.91238
 20
-15.98301
 30
0.0
 11
-81.022415
 21
-17.942009
 31
0.0
  0
ARC
  5
74
100
AcDbEntity
  8
2
370
    50
100
AcDbCircle
 10
-71.648862
 20
-6.134933
 30
0.0
 40
10.0
100
AcDbArc
 50
280.0
 51
360.0
  0
LINE
  5
75
100
AcDbEntity
  8
2
370
    50
100
AcDbLine
 10
-97.162383
 20
-42.925929
 30
0.0
 11
-95.703971
 21
-33.04123
 31
0.0
  0
ARC
  5
76
100
AcDbEntity
  8
2
370
    50
100
AcDbCircle
 10
-77.896748
 20
-35.668549
 30
0.0
 40
18.0
100
AcDbArc
 50
100.0
 51
171.607
  0
LINE
  5
77
100
AcDbEntity
  8
2
370
    25
  6
CENTER
100
AcDbLine
 10
-49.148862
 20
52.353489
 30
0.0
 11
-49.148862
 21
-48.636169
 31
0.0
  0
ARC
  5
78
100
AcDbEntity
  8
2
370
    50
100
AcDbCircle
 10
25.569898
 20
17.894909
 30
0.0
 40
100.0
100
AcDbArc
 50
168.537652
 51
188.388164
  0
ARC
  5
79
100
AcDbEntity
  8
2
370
    50
100
AcDbCircle
 10
-49.148901
 20
-94.220014
 30
0.0
 40
140.0
100
AcDbArc
 50
93.788374
 51
96.34007
  0
ARC
  5
7A
100
AcDbEntity
  8
2
370
    50
100
AcDbCircle
 10
-63.615153
 20
35.978786
 30
0.0
 40
9.0
100
AcDbArc
 50
96.34007
 51
168.537652
  0
ARC
  5
7B
100
AcDbEntity
  8
2
370
    50
100
AcDbCircle
 10
-65.445931
 20
4.474071
 30
0.0
 40
8.0
100
AcDbArc
 50
188.388164
 51
270.0
  0
LINE
  5
7C
100
AcDbEntity
  8
2
370
    50
100
AcDbLine
 10
-57.898901
 20
46.09301
 30
0.0
 11
-57.898901
 21
45.474071
 31
0.0
  0
ARC
  5
7D
100
AcDbEntity
  8
2
370
    50
100
AcDbCircle
 10
-56.898901
 20
46.09301
 30
0.0
 40
1.0
100
AcDbArc
 50
95.629843
 51
180.0
  0
ARC
  5
7E
100
AcDbEntity
  8
2
370
    50
100
AcDbCircle
 10
-49.148901
 20
-32.525929
 30
0.0
 40
80.0
100
AcDbArc
 50
89.999972
 51
95.629843
  0
ARC
  5
7F
100
AcDbEntity
  8
2
370
    50
100
AcDbCircle
 10
-49.136139
 20
-32.525928
 30
0.0
 40
80.0
100
AcDbArc
 50
84.370157
 51
90.009112
  0
ARC
  5
80
100
AcDbEntity
  8
2
370
    50
100
AcDbCircle
 10
-41.386139
 20
46.093011
 30
0.0
 40
1.0
100
AcDbArc
 50
0.0
 51
84.370157
  0
LINE
  5
81
100
AcDbEntity
  8
2
370
    50
100
AcDbLine
 10
-39.886139
 20
45.474072
 30
0.0
 11
-58.398885
 21
45.474072
 31
0.0
  0
ARC
  5
82
100
AcDbEntity
  8
2
370
    50
100
AcDbCircle
 10
-49.136139
 20
-94.220013
 30
0.0
 40
140.0
100
AcDbArc
 50
83.65993
 51
86.211626
  0
ARC
  5
83
100
AcDbEntity
  8
2
370
    50
100
AcDbCircle
 10
-34.669886
 20
35.978787
 30
0.0
 40
9.0
100
AcDbArc
 50
11.462348
 51
83.65993
  0
ARC
  5
84
100
AcDbEntity
  8
2
370
    50
100
AcDbCircle
 10
-123.854938
 20
17.89491
 30
0.0
 40
100.0
100
AcDbArc
 50
351.611836
 51
11.462348
  0
ARC
  5
85
100
AcDbEntity
  8
2
370
    50
100
AcDbCircle
 10
-32.839109
 20
4.474072
 30
0.0
 40
8.0
100
AcDbArc
 50
270.0
 51
351.611836
  0
LINE
  5
86
100
AcDbEntity
  8
2
370
    50
100
AcDbLine
 10
-32.839109
 20
-3.525928
 30
0.0
 11
-65.445931
 21
-3.525928
 31
0.0
  0
LINE
  5
87
100
AcDbEntity
  8
2
370
    50
100
AcDbLine
 10
-40.386139
 20
46.093011
 30
0.0
 11
-40.386139
 21
45.474072
 31
0.0
  0
ARC
  5
88
100
AcDbEntity
  8
2
370
    50
100
AcDbCircle
 10
-158.80108
 20
17.379737
 30
0.0
 40
120.0
100
AcDbArc
 50
355.059572
 51
9.155483
  0
ARC
  5
89
100
AcDbEntity
  8
2
370
    50
100
AcDbCircle
 10
-49.136139
 20
35.054152
 30
0.0
 40
8.91992
100
AcDbArc
 50
9.155483
 51
170.870451
  0
ARC
  5
8A
100
AcDbEntity
  8
2
370
    50
100
AcDbCircle
 10
-49.136139
 20
7.900183
 30
0.0
 40
9.926111
100
AcDbArc
 50
184.927811
 51
355.059572
  0
LINE
  5
8B
100
AcDbEntity
  8
2
370
    50
100
AcDbLine
 10
-34.636139
 20
41.974072
 30
0.0
 11
-34.636139
 21
0.974072
 31
0.0
  0
ARC
  5
8C
100
AcDbEntity
  8
2
370
    50
100
AcDbCircle
 10
-123.854938
 20
17.89491
 30
0.0
 40
99.5
100
AcDbArc
 50
352.362481
 51
11.528523
  0
ARC
  5
8D
100
AcDbEntity
  8
2
370
    50
100
AcDbCircle
 10
-34.20092
 20
36.18171
 30
0.0
 40
8.0
100
AcDbArc
 50
11.528523
 51
74.882653
  0
ARC
  5
8E
100
AcDbEntity
  8
2
370
    50
100
AcDbCircle
 10
-32.636139
 20
41.974072
 30
0.0
 40
2.0
100
AcDbArc
 50
74.882653
 51
180.0
  0
ARC
  5
8F
100
AcDbEntity
  8
2
370
    50
100
AcDbCircle
 10
-31.636139
 20
0.974072
 30
0.0
 40
3.0
100
AcDbArc
 50
180.0
 51
287.824603
  0
ARC
  5
90
100
AcDbEntity
  8
2
370
    50
100
AcDbCircle
 10
-33.16666
 20
5.734062
 30
0.0
 40
8.0
100
AcDbArc
 50
287.824603
 51
352.362481
  0
POINT
  5
91
100
AcDbEntity
  8
2
370
    50
100
AcDbPoint
 10
-49.136139
 20
47.474072
 30
0.0
  0
LINE
  5
92
100
AcDbEntity
  8
2
370
    50
100
AcDbLine
 10
-6.648421
 20
65.733168
 30
0.0
 11
-6.648421
 21
109.733168
 31
0.0
  0
LINE
  5
93
100
AcDbEntity
  8
2
370
    50
100
AcDbLine
 10
9.851579
 20
79.683168
 30
0.0
 11
9.851579
 21
95.783168
 31
0.0
  0
LINE
  5
94
100
AcDbEntity
  8
2
370
    50
100
AcDbLine
 10
-5.648421
 20
110.733168
 30
0.0
 11
-4.148421
 21
110.733168
 31
0.0
  0
LINE
  5
95
100
AcDbEntity
  8
2
370
    50
100
AcDbLine
 10
-5.648421
 20
64.733168
 30
0.0
 11
-4.148421
 21
64.733168
 31
0.0
  0
LINE
  5
96
100
AcDbEntity
  8
2
370
    50
100
AcDbLine
 10
-4.148421
 20
64.733168
 30
0.0
 11
-4.148421
 21
110.733168
 31
0.0
  0
ARC
  5
97
100
AcDbEntity
  8
2
370
    50
100
AcDbCircle
 10
-5.648421
 20
109.733168
 30
0.0
 40
1.0
100
AcDbArc
 50
90.0
 51
180.0
  0
ARC
  5
98
100
AcDbEntity
  8
2
370
    50
100
AcDbCircle
 10
-5.648421
 20
65.733168
 30
0.0
 40
1.0
100
AcDbArc
 50
180.0
 51
270.0
  0
ARC
  5
99
100
AcDbEntity
  8
2
370
    50
100
AcDbCircle
 10
-10.648421
 20
100.983168
 30
0.0
 40
4.0
100
AcDbArc
 50
270.0
 51
360.0
  0
ARC
  5
9A
100
AcDbEntity
  8
2
370
    50
100
AcDbCircle
 10
-10.648421
 20
74.483168
 30
0.0
 40
4.0
100
AcDbArc
 50
0.0
 51
90.0
  0
LINE
  5
9B
100
AcDbEntity
  8
2
370
    50
100
AcDbLine
 10
-4.148421
 20
96.983168
 30
0.0
 11
8.651579
 21
96.983168
 31
0.0
  0
LINE
  5
9C
100
AcDbEntity
  8
2
370
    50
100
AcDbLine
 10
-4.148421
 20
78.483168
 30
0.0
 11
8.651579
 21
78.483168
 31
0.0
  0
LINE
  5
9D
100
AcDbEntity
  8
2
370
    50
100
AcDbLine
 10
-30.778094
 20
96.983168
 30
0.0
 11
-10.648421
 21
96.983168
 31
0.0
  0
LINE
  5
9E
100
AcDbEntity
  8
2
370
    50
100
AcDbLine
 10
-30.778094
 20
78.483168
 30
0.0
 11
-10.648421
 21
78.483168
 31
0.0
  0
LINE
  5
9F
100
AcDbEntity
  8
2
370
    25
100
AcDbLine
 10
-1.148421
 20
95.783168
 30
0.0
 11
9.851579
 21
95.783168
 31
0.0
  0
LINE
  5
A0
100
AcDbEntity
  8
2
370
    25
100
AcDbLine
 10
-1.148421
 20
79.683168
 30
0.0
 11
9.851579
 21
79.683168
 31
0.0
  0
LINE
  5
A1
100
AcDbEntity
  8
2
370
    50
100
AcDbLine
 10
8.651579
 20
96.983168
 30
0.0
 11
9.851579
 21
95.783168
 31
0.0
  0
LINE
  5
A2
100
AcDbEntity
  8
2
370
    50
100
AcDbLine
 10
9.851579
 20
79.683168
 30
0.0
 11
8.651579
 21
78.483168
 31
0.0
  0
LINE
  5
A3
100
AcDbEntity
  8
2
370
    50
100
AcDbLine
 10
8.651579
 20
78.483168
 30
0.0
 11
8.651579
 21
96.983168
 31
0.0
  0
LINE
  5
A4
100
AcDbEntity
  8
2
370
    50
100
AcDbLine
 10
-2.348421
 20
96.983168
 30
0.0
 11
-1.148421
 21
95.783168
 31
0.0
  0
LINE
  5
A5
100
AcDbEntity
  8
2
370
    50
100
AcDbLine
 10
-2.348421
 20
78.483168
 30
0.0
 11
-1.148421
 21
79.683168
 31
0.0
  0
LINE
  5
A6
100
AcDbEntity
  8
2
370
    50
100
AcDbLine
 10
-1.148421
 20
78.483168
 30
0.0
 11
-1.148421
 21
96.983168
 31
0.0
  0
LINE
  5
A7
100
AcDbEntity
  8
2
370
    25
  6
CENTER
100
AcDbLine
 10
-112.987759
 20
87.733168
 30
0.0
 11
12.581277
 21
87.733168
 31
0.0
  0
ARC
  5
A8
100
AcDbEntity
  8
2
370
    25
100
AcDbCircle
 10
-84.161942
 20
87.733168
 30
0.0
 40
12.4
100
AcDbArc
 50
49.98795
 51
310.01205
  0
ARC
  5
A9
100
AcDbEntity
  8
2
370
    50
100
AcDbCircle
 10
-84.161942
 20
87.733168
 30
0.0
 40
13.0
100
AcDbArc
 50
46.841794
 51
313.158206
  0
ARC
  5
AA
100
AcDbEntity
  8
2
370
    50
100
AcDbCircle
 10
-74.49501
 20
177.212497
 30
0.0
 40
80.0
100
AcDbArc
 50
265.937957
 51
275.261
  0
ARC
  5
AB
100
AcDbEntity
  8
2
370
    50
100
AcDbCircle
 10
-74.49501
 20
-1.746162
 30
0.0
 40
80.0
100
AcDbArc
 50
84.739
 51
94.062043
  0
POINT
  5
AC
100
AcDbEntity
  8
2
370
    50
100
AcDbPoint
 10
-49.148421
 20
109.733168
 30
0.0
  0
LINE
  5
AD
100
AcDbEntity
  8
2
370
    25
  6
CENTER
100
AcDbLine
 10
-49.148421
 20
59.531471
 30
0.0
 11
-49.148421
 21
115.021879
 31
0.0
  0
CIRCLE
  5
AE
100
AcDbEntity
  8
2
370
    50
100
AcDbCircle
 10
-49.148421
 20
87.733168
 30
0.0
 40
8.0
  0
ARC
  5
AF
100
AcDbEntity
  8
2
370
    50
100
AcDbCircle
 10
-84.395655
 20
108.083168
 30
0.0
 40
20.2
100
AcDbArc
 50
300.807097
 51
359.193658
  0
ARC
  5
B0
100
AcDbEntity
  8
2
370
    50
100
AcDbCircle
 10
-81.104758
 20
106.183168
 30
0.0
 40
17.9
100
AcDbArc
 50
292.120687
 51
7.879313
  0
ARC
  5
B1
100
AcDbEntity
  8
2
370
    50
100
AcDbCircle
 10
-81.104758
 20
69.283168
 30
0.0
 40
17.9
100
AcDbArc
 50
352.120687
 51
67.879313
  0
ARC
  5
B2
100
AcDbEntity
  8
2
370
    50
100
AcDbCircle
 10
-84.395655
 20
67.383168
 30
0.0
 40
20.2
100
AcDbArc
 50
0.806342
 51
59.192903
  0
ARC
  5
B3
100
AcDbEntity
  8
2
370
    50
100
AcDbCircle
 10
-49.148421
 20
50.833168
 30
0.0
 40
17.9
100
AcDbArc
 50
52.120687
 51
127.879313
  0
ARC
  5
B4
100
AcDbEntity
  8
2
370
    50
100
AcDbCircle
 10
-49.148421
 20
47.033168
 30
0.0
 40
20.2
100
AcDbArc
 50
60.804497
 51
119.193992
  0
ARC
  5
B5
100
AcDbEntity
  8
2
370
    50
100
AcDbCircle
 10
-17.192084
 20
69.283168
 30
0.0
 40
17.9
100
AcDbArc
 50
112.136637
 51
187.879313
  0
ARC
  5
B6
100
AcDbEntity
  8
2
370
    50
100
AcDbCircle
 10
-17.192084
 20
106.183168
 30
0.0
 40
17.9
100
AcDbArc
 50
172.120687
 51
247.879313
  0
ARC
  5
B7
100
AcDbEntity
  8
2
370
    50
100
AcDbCircle
 10
-13.901187
 20
108.083168
 30
0.0
 40
20.2
100
AcDbArc
 50
180.804164
 51
239.196591
  0
ARC
  5
B8
100
AcDbEntity
  8
2
370
    50
100
AcDbCircle
 10
-49.148421
 20
124.633168
 30
0.0
 40
17.9
100
AcDbArc
 50
232.120687
 51
307.879313
  0
ARC
  5
B9
100
AcDbEntity
  8
2
370
    50
100
AcDbCircle
 10
-49.148421
 20
128.433168
 30
0.0
 40
20.2
100
AcDbArc
 50
240.806008
 51
299.195503
  0
ARC
  5
BA
100
AcDbEntity
  8
2
370
    50
100
AcDbCircle
 10
-13.901187
 20
67.383168
 30
0.0
 40
20.2
100
AcDbArc
 50
120.803409
 51
179.195836
  0
ARC
  5
BB
100
AcDbEntity
  8
2
370
    50
100
AcDbCircle
 10
-49.147884
 20
87.733168
 30
0.0
 40
25.28
100
AcDbArc
 50
114.046586
 51
125.955719
  0
ARC
  5
BC
100
AcDbEntity
  8
2
370
    50
100
AcDbCircle
 10
-49.147884
 20
87.733168
 30
0.0
 40
25.28
100
AcDbArc
 50
174.045037
 51
185.954963
  0
ARC
  5
BD
100
AcDbEntity
  8
2
370
    50
100
AcDbCircle
 10
-49.147884
 20
87.733168
 30
0.0
 40
25.28
100
AcDbArc
 50
234.044281
 51
245.953414
  0
ARC
  5
BE
100
AcDbEntity
  8
2
370
    50
100
AcDbCircle
 10
-49.147884
 20
87.733168
 30
0.0
 40
25.28
100
AcDbArc
 50
294.045074
 51
305.952621
  0
ARC
  5
BF
100
AcDbEntity
  8
2
370
    50
100
AcDbCircle
 10
-49.147884
 20
87.733168
 30
0.0
 40
25.28
100
AcDbArc
 50
354.046623
 51
5.953377
  0
ARC
  5
C0
100
AcDbEntity
  8
2
370
    50
100
AcDbCircle
 10
-49.147884
 20
87.733168
 30
0.0
 40
25.28
100
AcDbArc
 50
54.047379
 51
65.954926
  0
ARC
  5
C1
100
AcDbEntity
  8
2
370
    50
100
AcDbCircle
 10
-59.245221
 20
65.103714
 30
0.0
 40
0.5
100
AcDbArc
 50
245.953414
 51
299.193992
  0
ARC
  5
C2
100
AcDbEntity
  8
2
370
    50
100
AcDbCircle
 10
-63.697705
 20
67.674476
 30
0.0
 40
0.5
100
AcDbArc
 50
180.806342
 51
234.044281
  0
ARC
  5
C3
100
AcDbEntity
  8
2
370
    50
100
AcDbCircle
 10
-73.794165
 20
85.162324
 30
0.0
 40
0.5
100
AcDbArc
 50
185.954963
 51
239.192903
  0
ARC
  5
C4
100
AcDbEntity
  8
2
370
    50
100
AcDbCircle
 10
-73.794165
 20
90.304011
 30
0.0
 40
0.5
100
AcDbArc
 50
120.807097
 51
174.045037
  0
ARC
  5
C5
100
AcDbEntity
  8
2
370
    50
100
AcDbCircle
 10
-63.697705
 20
107.79186
 30
0.0
 40
0.5
100
AcDbArc
 50
125.955719
 51
179.193658
  0
ARC
  5
C6
100
AcDbEntity
  8
2
370
    50
100
AcDbCircle
 10
-59.245221
 20
110.362622
 30
0.0
 40
0.5
100
AcDbArc
 50
60.806008
 51
114.046586
  0
ARC
  5
C7
100
AcDbEntity
  8
2
370
    50
100
AcDbCircle
 10
-39.051145
 20
110.362888
 30
0.0
 40
0.5
100
AcDbArc
 50
65.954926
 51
119.195503
  0
ARC
  5
C8
100
AcDbEntity
  8
2
370
    50
100
AcDbCircle
 10
-34.599148
 20
107.792646
 30
0.0
 40
0.5
100
AcDbArc
 50
0.804164
 51
54.047379
  0
ARC
  5
C9
100
AcDbEntity
  8
2
370
    50
100
AcDbCircle
 10
-24.501532
 20
90.303328
 30
0.0
 40
0.5
100
AcDbArc
 50
5.953377
 51
59.196591
  0
ARC
  5
CA
100
AcDbEntity
  8
2
370
    50
100
AcDbCircle
 10
-24.501532
 20
85.163007
 30
0.0
 40
0.5
100
AcDbArc
 50
300.803409
 51
354.046623
  0
ARC
  5
CB
100
AcDbEntity
  8
2
370
    50
100
AcDbCircle
 10
-34.599148
 20
67.673689
 30
0.0
 40
0.5
100
AcDbArc
 50
305.952621
 51
359.195836
  0
ARC
  5
CC
100
AcDbEntity
  8
2
370
    50
100
AcDbCircle
 10
-39.051145
 20
65.103447
 30
0.0
 40
0.5
100
AcDbArc
 50
240.804497
 51
294.045074
  0
POINT
  5
CD
100
AcDbEntity
  8
2
370
    50
100
AcDbPoint
 10
-49.148421
 20
87.733168
 30
0.0
  0
POINT
  5
CE
100
AcDbEntity
  8
2
370
    50
100
AcDbPoint
 10
-49.148421
 20
87.733168
 30
0.0
  0
LINE
  5
CF
100
AcDbEntity
  8
2
370
    25
  6
CENTER
100
AcDbLine
 10
-84.161942
 20
115.021879
 30
0.0
 11
-84.161942
 21
59.531471
 31
0.0
  0
LINE
  5
D0
100
AcDbEntity
  8
2
370
    50
100
AcDbLine
 10
-78.594178
 20
72.733168
 30
0.0
 11
-89.729706
 21
72.733168
 31
0.0
  0
ARC
  5
D1
100
AcDbEntity
  8
2
370
    50
100
AcDbCircle
 10
-84.161942
 20
87.733168
 30
0.0
 40
16.0
100
AcDbArc
 50
230.364135
 51
249.635865
  0
LINE
  5
D2
100
AcDbEntity
  8
2
370
    50
100
AcDbLine
 10
-72.331225
 20
78.22457
 30
0.0
 11
-73.955443
 21
75.411342
 31
0.0
  0
ARC
  5
D3
100
AcDbEntity
  8
2
370
    50
100
AcDbCircle
 10
-84.161942
 20
87.733168
 30
0.0
 40
16.0
100
AcDbArc
 50
290.364135
 51
309.635865
  0
LINE
  5
D4
100
AcDbEntity
  8
2
370
    50
100
AcDbLine
 10
-89.729706
 20
102.733168
 30
0.0
 11
-78.594178
 21
102.733168
 31
0.0
  0
ARC
  5
D5
100
AcDbEntity
  8
2
370
    50
100
AcDbCircle
 10
-84.161942
 20
87.733168
 30
0.0
 40
16.0
100
AcDbArc
 50
50.364135
 51
69.635865
  0
LINE
  5
D6
100
AcDbEntity
  8
2
370
    50
100
AcDbLine
 10
-99.936205
 20
90.411342
 30
0.0
 11
-94.368441
 21
100.054993
 31
0.0
  0
ARC
  5
D7
100
AcDbEntity
  8
2
370
    50
100
AcDbCircle
 10
-84.161942
 20
87.733168
 30
0.0
 40
16.0
100
AcDbArc
 50
110.364135
 51
129.635865
  0
LINE
  5
D8
100
AcDbEntity
  8
2
370
    50
100
AcDbLine
 10
-94.368441
 20
75.411342
 30
0.0
 11
-99.936205
 21
85.054993
 31
0.0
  0
ARC
  5
D9
100
AcDbEntity
  8
2
370
    50
100
AcDbCircle
 10
-84.161942
 20
87.733168
 30
0.0
 40
16.0
100
AcDbArc
 50
170.364135
 51
189.635865
  0
LINE
  5
DA
100
AcDbEntity
  8
2
370
    50
100
AcDbLine
 10
-72.331225
 20
97.241765
 30
0.0
 11
-73.955443
 21
100.054993
 31
0.0
  0
ARC
  5
DB
100
AcDbEntity
  8
2
370
    50
100
AcDbCircle
 10
-84.161942
 20
87.733168
 30
0.0
 40
14.0
100
AcDbArc
 50
42.630991
 51
317.369009
  0
ARC
  5
DC
100
AcDbEntity
  8
2
370
    50
100
AcDbCircle
 10
-84.161942
 20
87.733168
 30
0.0
 40
22.0
100
AcDbArc
 50
33.843977
 51
326.156023
  0
LINE
  5
DD
100
AcDbEntity
  8
2
370
    50
100
AcDbLine
 10
-101.161942
 20
88.733168
 30
0.0
 11
-100.130661
 21
88.733168
 31
0.0
  0
LINE
  5
DE
100
AcDbEntity
  8
2
370
    50
100
AcDbLine
 10
-101.161942
 20
86.733168
 30
0.0
 11
-100.130661
 21
86.733168
 31
0.0
  0
ELLIPSE
  5
DF
100
AcDbEntity
  8
2
370
    50
100
AcDbEllipse
 10
-101.161942
 20
89.483168
 30
0.0
 11
1.5
 21
0.0
 31
0.0
210
0.0
220
0.0
230
1.0
 40
0.5
 41
3.1415929999999999
 42
4.7123889999999999
  0
ELLIPSE
  5
E0
100
AcDbEntity
  8
2
370
    50
100
AcDbEllipse
 10
-101.161942
 20
85.983168
 30
0.0
 11
1.5
 21
0.0
 31
0.0
210
0.0
220
0.0
230
1.0
 40
0.5
 41
1.5707960000000001
 42
3.1415929999999999
  0
LINE
  5
E1
100
AcDbEntity
  8
2
370
    50
100
AcDbLine
 10
-93.527967
 20
73.510736
 30
0.0
 11
-93.012327
 21
74.403851
 31
0.0
  0
LINE
  5
E2
100
AcDbEntity
  8
2
370
    50
100
AcDbLine
 10
-91.795917
 20
72.510736
 30
0.0
 11
-91.280276
 21
73.403851
 31
0.0
  0
ELLIPSE
  5
E3
100
AcDbEntity
  8
2
370
    50
100
AcDbEllipse
 10
-94.177486
 20
73.885736
 30
0.0
 11
0.75
 21
1.2990379999999999
 31
0.0
210
0.0
220
0.0
230
1.0
 40
0.5
 41
3.1415929999999999
 42
4.7123889999999999
  0
ELLIPSE
  5
E4
100
AcDbEntity
  8
2
370
    50
100
AcDbEllipse
 10
-91.146398
 20
72.135736
 30
0.0
 11
0.75
 21
1.2990379999999999
 31
0.0
210
0.0
220
0.0
230
1.0
 40
0.5
 41
1.5707960000000001
 42
3.1415929999999999
  0
LINE
  5
E5
100
AcDbEntity
  8
2
370
    50
100
AcDbLine
 10
-76.527967
 20
72.510736
 30
0.0
 11
-77.043608
 21
73.403851
 31
0.0
  0
LINE
  5
E6
100
AcDbEntity
  8
2
370
    50
100
AcDbLine
 10
-74.795917
 20
73.510736
 30
0.0
 11
-75.311557
 21
74.403851
 31
0.0
  0
ELLIPSE
  5
E7
100
AcDbEntity
  8
2
370
    50
100
AcDbEllipse
 10
-77.177486
 20
72.135736
 30
0.0
 11
-0.75
 21
1.2990379999999999
 31
0.0
210
0.0
220
0.0
230
1.0
 40
0.5
 41
3.1415929999999999
 42
4.7123889999999999
  0
ELLIPSE
  5
E8
100
AcDbEntity
  8
2
370
    50
100
AcDbEllipse
 10
-74.146398
 20
73.885736
 30
0.0
 11
-0.75
 21
1.2990379999999999
 31
0.0
210
0.0
220
0.0
230
1.0
 40
0.5
 41
1.5707960000000001
 42
3.1415929999999999
  0
LINE
  5
E9
100
AcDbEntity
  8
2
370
    50
100
AcDbLine
 10
-74.795917
 20
101.955599
 30
0.0
 11
-75.311557
 21
101.062484
 31
0.0
  0
LINE
  5
EA
100
AcDbEntity
  8
2
370
    50
100
AcDbLine
 10
-76.527967
 20
102.955599
 30
0.0
 11
-77.043608
 21
102.062484
 31
0.0
  0
ELLIPSE
  5
EB
100
AcDbEntity
  8
2
370
    50
100
AcDbEllipse
 10
-74.146398
 20
101.580599
 30
0.0
 11
-0.75
 21
-1.2990379999999999
 31
0.0
210
0.0
220
0.0
230
1.0
 40
0.5
 41
3.1415929999999999
 42
4.7123889999999999
  0
ELLIPSE
  5
EC
100
AcDbEntity
  8
2
370
    50
100
AcDbEllipse
 10
-77.177486
 20
103.330599
 30
0.0
 11
-0.75
 21
-1.2990379999999999
 31
0.0
210
0.0
220
0.0
230
1.0
 40
0.5
 41
1.5707960000000001
 42
3.1415929999999999
  0
LINE
  5
ED
100
AcDbEntity
  8
2
370
    50
100
AcDbLine
 10
-91.795917
 20
102.955599
 30
0.0
 11
-91.280276
 21
102.062484
 31
0.0
  0
LINE
  5
EE
100
AcDbEntity
  8
2
370
    50
100
AcDbLine
 10
-93.527967
 20
101.955599
 30
0.0
 11
-93.012327
 21
101.062484
 31
0.0
  0
ELLIPSE
  5
EF
100
AcDbEntity
  8
2
370
    50
100
AcDbEllipse
 10
-91.146398
 20
103.330599
 30
0.0
 11
0.75
 21
-1.2990379999999999
 31
0.0
210
0.0
220
0.0
230
1.0
 40
0.5
 41
3.1415929999999999
 42
4.7123889999999999
  0
ELLIPSE
  5
F0
100
AcDbEntity
  8
2
370
    50
100
AcDbEllipse
 10
-94.177486
 20
101.580599
 30
0.0
 11
0.75
 21
-1.2990379999999999
 31
0.0
210
0.0
220
0.0
230
1.0
 40
0.5
 41
1.5707960000000001
 42
3.1415929999999999
  0
LINE
  5
F1
100
AcDbEntity
  8
2
370
    50
100
AcDbLine
 10
-98.162383
 20
-43.525929
 30
0.0
 11
-70.162383
 21
-43.525929
 31
0.0
  0
LINE
  5
F2
100
AcDbEntity
  8
2
370
    50
100
AcDbLine
 10
-70.162383
 20
-55.025929
 30
0.0
 11
-98.162383
 21
-55.025929
 31
0.0
  0
ARC
  5
F3
100
AcDbEntity
  8
2
370
    50
100
AcDbCircle
 10
-77.428008
 20
-49.275929
 30
0.0
 40
9.265625
100
AcDbArc
 50
321.641984
 51
38.358016
  0
ARC
  5
F4
100
AcDbEntity
  8
2
370
    50
100
AcDbCircle
 10
-90.896758
 20
-49.275929
 30
0.0
 40
9.265625
100
AcDbArc
 50
141.641984
 51
218.358016
  0
LINE
  5
F5
100
AcDbEntity
  8
2
370
    50
100
AcDbLine
 10
-72.162869
 20
-55.02578
 30
0.0
 11
-71.162869
 21
-56.02578
 31
0.0
  0
LINE
  5
F6
100
AcDbEntity
  8
2
370
    50
100
AcDbLine
 10
-71.162869
 20
-56.02578
 30
0.0
 11
-71.162869
 21
-65.02578
 31
0.0
  0
LINE
  5
F7
100
AcDbEntity
  8
2
370
    50
100
AcDbLine
 10
-77.312869
 20
-80.52578
 30
0.0
 11
-77.312869
 21
-82.52578
 31
0.0
  0
LINE
  5
F8
100
AcDbEntity
  8
2
370
    50
100
AcDbLine
 10
-75.762869
 20
-85.02578
 30
0.0
 11
-76.312869
 21
-85.57578
 31
0.0
  0
LINE
  5
F9
100
AcDbEntity
  8
2
370
    50
100
AcDbLine
 10
-75.762869
 20
-76.52578
 30
0.0
 11
-75.762869
 21
-78.147353
 31
0.0
  0
ARC
  5
FA
100
AcDbEntity
  8
2
370
    50
100
AcDbCircle
 10
-77.762869
 20
-78.147353
 30
0.0
 40
2.0
100
AcDbArc
 50
315.0
 51
360.0
  0
LINE
  5
FB
100
AcDbEntity
  8
2
370
    50
100
AcDbLine
 10
-76.348656
 20
-79.561567
 30
0.0
 11
-77.312869
 21
-80.52578
 31
0.0
  0
LINE
  5
FC
100
AcDbEntity
  8
2
370
    50
100
AcDbLine
 10
-75.762869
 20
-84.158623
 30
0.0
 11
-75.762869
 21
-85.02578
 31
0.0
  0
ARC
  5
FD
100
AcDbEntity
  8
2
370
    50
100
AcDbCircle
 10
-75.962869
 20
-84.158623
 30
0.0
 40
0.2
100
AcDbArc
 50
0.0
 51
45.0
  0
LINE
  5
FE
100
AcDbEntity
  8
2
370
    50
100
AcDbLine
 10
-77.312869
 20
-82.52578
 30
0.0
 11
-75.821448
 21
-84.017202
 31
0.0
  0
LINE
  5
FF
100
AcDbEntity
  8
2
370
    50
100
AcDbLine
 10
-76.312869
 20
-85.57578
 30
0.0
 11
-76.312869
 21
-94.52578
 31
0.0
  0
ARC
  5
100
100
AcDbEntity
  8
2
370
    50
100
AcDbCircle
 10
-77.312869
 20
-94.52578
 30
0.0
 40
1.0
100
AcDbArc
 50
270.0
 51
360.0
  0
LINE
  5
101
100
AcDbEntity
  8
2
370
    50
100
AcDbLine
 10
-78.812869
 20
-95.52578
 30
0.0
 11
-78.812869
 21
-99.02578
 31
0.0
  0
LINE
  5
102
100
AcDbEntity
  8
2
370
    50
100
AcDbLine
 10
-78.812869
 20
-99.02578
 30
0.0
 11
-77.662869
 21
-100.17578
 31
0.0
  0
LINE
  5
103
100
AcDbEntity
  8
2
370
    50
100
AcDbLine
 10
-77.662869
 20
-100.17578
 30
0.0
 11
-77.662869
 21
-102.02578
 31
0.0
  0
LINE
  5
104
100
AcDbEntity
  8
2
370
    50
100
AcDbLine
 10
-77.662869
 20
-102.02578
 30
0.0
 11
-78.162869
 21
-102.52578
 31
0.0
  0
LINE
  5
105
100
AcDbEntity
  8
2
370
    50
100
AcDbLine
 10
-80.662869
 20
-99.02578
 30
0.0
 11
-80.662869
 21
-102.52578
 31
0.0
  0
LINE
  5
106
100
AcDbEntity
  8
2
370
    50
100
AcDbLine
 10
-70.462869
 20
-66.02578
 30
0.0
 11
-70.162869
 21
-66.32578
 31
0.0
  0
LINE
  5
107
100
AcDbEntity
  8
2
370
    50
100
AcDbLine
 10
-70.162869
 20
-66.32578
 30
0.0
 11
-70.162869
 21
-73.02578
 31
0.0
  0
LINE
  5
108
100
AcDbEntity
  8
2
370
    50
100
AcDbLine
 10
-70.162869
 20
-70.02578
 30
0.0
 11
-66.162869
 21
-74.02578
 31
0.0
  0
ARC
  5
109
100
AcDbEntity
  8
2
370
    50
  6
PHANTOM
100
AcDbCircle
 10
-69.162869
 20
-73.02578
 30
0.0
 40
1.0
100
AcDbArc
 50
180.0
 51
270.0
  0
LINE
  5
10A
100
AcDbEntity
  8
2
370
    50
100
AcDbLine
 10
-62.162869
 20
-74.82578
 30
0.0
 11
-62.727887
 21
-75.78631
 31
0.0
  0
ARC
  5
10B
100
AcDbEntity
  8
2
370
    50
100
AcDbCircle
 10
-64.020788
 20
-75.02578
 30
0.0
 40
1.5
100
AcDbArc
 50
270.0
 51
329.534455
  0
ARC
  5
10C
100
AcDbEntity
  8
2
370
    50
100
AcDbCircle
 10
-62.662869
 20
-74.52578
 30
0.0
 40
0.5
100
AcDbArc
 50
0.0
 51
90.0
  0
LINE
  5
10D
100
AcDbEntity
  8
2
370
    50
100
AcDbLine
 10
-62.162869
 20
-74.52578
 30
0.0
 11
-62.162869
 21
-74.82578
 31
0.0
  0
LINE
  5
10E
100
AcDbEntity
  8
2
370
    25
  6
CENTER
100
AcDbLine
 10
-84.162869
 20
-103.633865
 30
0.0
 11
-84.162869
 21
-24.525929
 31
0.0
  0
LINE
  5
10F
100
AcDbEntity
  8
2
370
    50
100
AcDbLine
 10
-86.912869
 20
-99.02578
 30
0.0
 11
-78.812869
 21
-99.02578
 31
0.0
  0
LINE
  5
110
100
AcDbEntity
  8
2
370
    50
100
AcDbLine
 10
-80.662869
 20
-102.52578
 30
0.0
 11
-79.162869
 21
-104.02578
 31
0.0
  0
LINE
  5
111
100
AcDbEntity
  8
2
370
    50
100
AcDbLine
 10
-79.162869
 20
-104.02578
 30
0.0
 11
-76.662869
 21
-104.02578
 31
0.0
  0
LINE
  5
112
100
AcDbEntity
  8
2
370
    50
100
AcDbLine
 10
-76.662869
 20
-103.02578
 30
0.0
 11
-76.662869
 21
-104.02578
 31
0.0
  0
LINE
  5
113
100
AcDbEntity
  8
2
370
    50
100
AcDbLine
 10
-77.662869
 20
-102.02578
 30
0.0
 11
-76.662869
 21
-103.02578
 31
0.0
  0
LINE
  5
114
100
AcDbEntity
  8
2
370
    50
100
AcDbLine
 10
-84.912869
 20
-102.52578
 30
0.0
 11
-78.162869
 21
-102.52578
 31
0.0
  0
LINE
  5
115
100
AcDbEntity
  8
2
370
    50
100
AcDbLine
 10
-86.912869
 20
-100.52578
 30
0.0
 11
-84.912869
 21
-102.52578
 31
0.0
  0
LINE
  5
116
100
AcDbEntity
  8
2
370
    50
100
AcDbLine
 10
-96.162869
 20
-55.02578
 30
0.0
 11
-97.162869
 21
-56.02578
 31
0.0
  0
LINE
  5
117
100
AcDbEntity
  8
2
370
    50
100
AcDbLine
 10
-97.162869
 20
-56.02578
 30
0.0
 11
-97.162869
 21
-65.02578
 31
0.0
  0
LINE
  5
118
100
AcDbEntity
  8
2
370
    50
100
AcDbLine
 10
-97.162869
 20
-65.02578
 30
0.0
 11
-96.162869
 21
-66.02578
 31
0.0
  0
LINE
  5
119
100
AcDbEntity
  8
2
370
    50
100
AcDbLine
 10
-91.012869
 20
-80.52578
 30
0.0
 11
-91.012869
 21
-82.52578
 31
0.0
  0
LINE
  5
11A
100
AcDbEntity
  8
2
370
    50
100
AcDbLine
 10
-92.562869
 20
-85.02578
 30
0.0
 11
-92.012869
 21
-85.57578
 31
0.0
  0
LINE
  5
11B
100
AcDbEntity
  8
2
370
    50
100
AcDbLine
 10
-92.562869
 20
-76.52578
 30
0.0
 11
-92.562869
 21
-78.147353
 31
0.0
  0
ARC
  5
11C
100
AcDbEntity
  8
2
370
    50
100
AcDbCircle
 10
-90.562869
 20
-78.147353
 30
0.0
 40
2.0
100
AcDbArc
 50
180.0
 51
225.0
  0
LINE
  5
11D
100
AcDbEntity
  8
2
370
    50
100
AcDbLine
 10
-91.977083
 20
-79.561567
 30
0.0
 11
-91.012869
 21
-80.52578
 31
0.0
  0
LINE
  5
11E
100
AcDbEntity
  8
2
370
    50
100
AcDbLine
 10
-92.562869
 20
-84.158623
 30
0.0
 11
-92.562869
 21
-85.02578
 31
0.0
  0
ARC
  5
11F
100
AcDbEntity
  8
2
370
    50
100
AcDbCircle
 10
-92.362869
 20
-84.158623
 30
0.0
 40
0.2
100
AcDbArc
 50
135.0
 51
180.0
  0
LINE
  5
120
100
AcDbEntity
  8
2
370
    50
100
AcDbLine
 10
-91.012869
 20
-82.52578
 30
0.0
 11
-92.504291
 21
-84.017202
 31
0.0
  0
LINE
  5
121
100
AcDbEntity
  8
2
370
    50
100
AcDbLine
 10
-92.012869
 20
-85.57578
 30
0.0
 11
-92.012869
 21
-94.52578
 31
0.0
  0
ARC
  5
122
100
AcDbEntity
  8
2
370
    50
100
AcDbCircle
 10
-91.012869
 20
-94.52578
 30
0.0
 40
1.0
100
AcDbArc
 50
180.0
 51
270.0
  0
LINE
  5
123
100
AcDbEntity
  8
2
370
    50
100
AcDbLine
 10
-64.020788
 20
-76.52578
 30
0.0
 11
-104.30495
 21
-76.52578
 31
0.0
  0
LINE
  5
124
100
AcDbEntity
  8
2
370
    50
100
AcDbLine
 10
-97.862869
 20
-66.02578
 30
0.0
 11
-98.162869
 21
-66.32578
 31
0.0
  0
LINE
  5
125
100
AcDbEntity
  8
2
370
    50
100
AcDbLine
 10
-70.462869
 20
-66.02578
 30
0.0
 11
-97.862869
 21
-66.02578
 31
0.0
  0
LINE
  5
126
100
AcDbEntity
  8
2
370
    50
100
AcDbLine
 10
-98.162869
 20
-66.32578
 30
0.0
 11
-98.162869
 21
-73.02578
 31
0.0
  0
LINE
  5
127
100
AcDbEntity
  8
2
370
    50
100
AcDbLine
 10
-98.162869
 20
-70.02578
 30
0.0
 11
-102.162869
 21
-74.02578
 31
0.0
  0
ARC
  5
128
100
AcDbEntity
  8
2
370
    50
  6
PHANTOM
100
AcDbCircle
 10
-99.162869
 20
-73.02578
 30
0.0
 40
1.0
100
AcDbArc
 50
270.0
 51
360.0
  0
LINE
  5
129
100
AcDbEntity
  8
2
370
    50
100
AcDbLine
 10
-77.312869
 20
-95.52578
 30
0.0
 11
-91.012869
 21
-95.52578
 31
0.0
  0
LINE
  5
12A
100
AcDbEntity
  8
2
370
    50
100
AcDbLine
 10
-106.162869
 20
-74.82578
 30
0.0
 11
-105.597852
 21
-75.78631
 31
0.0
  0
ARC
  5
12B
100
AcDbEntity
  8
2
370
    50
100
AcDbCircle
 10
-104.30495
 20
-75.02578
 30
0.0
 40
1.5
100
AcDbArc
 50
210.465545
 51
270.0
  0
LINE
  5
12C
100
AcDbEntity
  8
2
370
    50
100
AcDbLine
 10
-62.662869
 20
-74.02578
 30
0.0
 11
-105.662869
 21
-74.02578
 31
0.0
  0
ARC
  5
12D
100
AcDbEntity
  8
2
370
    50
100
AcDbCircle
 10
-105.662869
 20
-74.52578
 30
0.0
 40
0.5
100
AcDbArc
 50
90.0
 51
180.0
  0
LINE
  5
12E
100
AcDbEntity
  8
2
370
    50
100
AcDbLine
 10
-106.162869
 20
-74.52578
 30
0.0
 11
-106.162869
 21
-74.82578
 31
0.0
  0
ARC
  5
12F
100
AcDbEntity
  8
2
370
    50
100
AcDbCircle
 10
60.503356
 20
17.379737
 30
0.0
 40
120.0
100
AcDbArc
 50
170.844517
 51
184.940428
  0
LINE
  5
130
100
AcDbEntity
  8
2
370
    50
100
AcDbLine
 10
-63.661585
 20
41.974072
 30
0.0
 11
-63.661585
 21
0.974072
 31
0.0
  0
ARC
  5
131
100
AcDbEntity
  8
2
370
    50
100
AcDbCircle
 10
25.557214
 20
17.89491
 30
0.0
 40
99.5
100
AcDbArc
 50
168.471477
 51
187.637519
  0
ARC
  5
132
100
AcDbEntity
  8
2
370
    50
100
AcDbCircle
 10
-64.096804
 20
36.18171
 30
0.0
 40
8.0
100
AcDbArc
 50
105.117347
 51
168.471477
  0
ARC
  5
133
100
AcDbEntity
  8
2
370
    50
100
AcDbCircle
 10
-65.661585
 20
41.974072
 30
0.0
 40
2.0
100
AcDbArc
 50
0.0
 51
105.117347
  0
ARC
  5
134
100
AcDbEntity
  8
2
370
    50
100
AcDbCircle
 10
-66.661585
 20
0.974072
 30
0.0
 40
3.0
100
AcDbArc
 50
252.175397
 51
360.0
  0
ARC
  5
135
100
AcDbEntity
  8
2
370
    50
100
AcDbCircle
 10
-65.131064
 20
5.734062
 30
0.0
 40
8.0
100
AcDbArc
 50
187.637519
 51
252.175397
  0
LINE
  5
136
100
AcDbEntity
  8
2
370
    50
100
AcDbLine
 10
-71.161896
 20
-65.02578
 30
0.0
 11
-72.161896
 21
-66.02578
 31
0.0
  0
LINE
  5
137
100
AcDbEntity
  8
2
370
    50
100
AcDbLine
 10
-86.912869
 20
-100.52578
 30
0.0
 11
-86.912869
 21
-95.52578
 31
0.0
  0
LINE
  5
138
100
AcDbEntity
  8
2
370
    50
100
AcDbLine
 10
-91.012869
 20
-80.52578
 30
0.0
 11
-77.312869
 21
-80.52578
 31
0.0
  0
LINE
  5
139
100
AcDbEntity
  8
2
370
    50
100
AcDbLine
 10
-91.012869
 20
-82.52578
 30
0.0
 11
-77.312869
 21
-82.52578
 31
0.0
  0
LINE
  5
13A
100
AcDbEntity
  8
2
370
    50
100
AcDbLine
 10
-75.821448
 20
-84.017202
 30
0.0
 11
-92.504291
 21
-84.017202
 31
0.0
  0
LINE
  5
13B
100
AcDbEntity
  8
2
370
    50
100
AcDbLine
 10
-92.012869
 20
-85.57578
 30
0.0
 11
-76.312869
 21
-85.57578
 31
0.0
  0
LINE
  5
13C
100
AcDbEntity
  8
2
370
    50
100
AcDbLine
 10
-75.762869
 20
-85.02578
 30
0.0
 11
-92.562869
 21
-85.02578
 31
0.0
  0
LINE
  5
13D
100
AcDbEntity
  8
2
370
    50
100
AcDbLine
 10
8.651138
 20
-14.048429
 30
0.0
 11
8.651138
 21
-35.003429
 31
0.0
  0
LINE
  5
13E
100
AcDbEntity
  8
2
370
    50
100
AcDbLine
 10
-1.148862
 20
-15.248429
 30
0.0
 11
-1.148862
 21
-33.803429
 31
0.0
  0
ARC
  5
13F
100
AcDbEntity
  8
2
370
    50
100
AcDbCircle
 10
-94.609022
 20
-58.785548
 30
0.0
 40
3.760005
100
AcDbArc
 50
47.21775
 51
132.78225
  0
ARC
  5
140
100
AcDbEntity
  8
2
370
    50
100
AcDbCircle
 10
-84.162869
 20
-68.025929
 30
0.0
 40
13.0
100
AcDbArc
 50
67.380135
 51
112.619865
  0
LINE
  5
141
100
AcDbEntity
  8
2
370
    50
100
AcDbLine
 10
-92.055174
 20
-56.025929
 30
0.0
 11
-89.162869
 21
-56.025929
 31
0.0
  0
ARC
  5
142
100
AcDbEntity
  8
2
370
    50
100
AcDbCircle
 10
-94.609022
 20
-62.26631
 30
0.0
 40
3.760005
100
AcDbArc
 50
227.21775
 51
312.78225
  0
ARC
  5
143
100
AcDbEntity
  8
2
370
    50
100
AcDbCircle
 10
-84.162869
 20
-53.025929
 30
0.0
 40
13.0
100
AcDbArc
 50
247.380135
 51
292.619865
  0
LINE
  5
144
100
AcDbEntity
  8
2
370
    50
100
AcDbLine
 10
-89.162869
 20
-56.025929
 30
0.0
 11
-89.162869
 21
-65.025929
 31
0.0
  0
LINE
  5
145
100
AcDbEntity
  8
2
370
    50
100
AcDbLine
 10
-92.055174
 20
-56.025929
 30
0.0
 11
-92.055174
 21
-65.025929
 31
0.0
  0
LINE
  5
146
100
AcDbEntity
  8
2
370
    50
100
AcDbLine
 10
-92.055174
 20
-65.025929
 30
0.0
 11
-89.162869
 21
-65.025929
 31
0.0
  0
ARC
  5
147
100
AcDbEntity
  8
2
370
    50
100
AcDbCircle
 10
-73.716717
 20
-58.785548
 30
0.0
 40
3.760005
100
AcDbArc
 50
47.21775
 51
132.78225
  0
LINE
  5
148
100
AcDbEntity
  8
2
370
    50
100
AcDbLine
 10
-76.270564
 20
-56.025929
 30
0.0
 11
-76.270564
 21
-65.025929
 31
0.0
  0
LINE
  5
149
100
AcDbEntity
  8
2
370
    50
100
AcDbLine
 10
-76.270564
 20
-56.025929
 30
0.0
 11
-79.162869
 21
-56.025929
 31
0.0
  0
LINE
  5
14A
100
AcDbEntity
  8
2
370
    50
100
AcDbLine
 10
-79.162869
 20
-56.025929
 30
0.0
 11
-79.162869
 21
-65.025929
 31
0.0
  0
LINE
  5
14B
100
AcDbEntity
  8
2
370
    50
100
AcDbLine
 10
-76.270564
 20
-65.025929
 30
0.0
 11
-79.162869
 21
-65.025929
 31
0.0
  0
ARC
  5
14C
100
AcDbEntity
  8
2
370
    50
100
AcDbCircle
 10
-73.716717
 20
-62.26631
 30
0.0
 40
3.760005
100
AcDbArc
 50
227.21775
 51
312.78225
  0
LINE
  5
14D
100
AcDbEntity
  8
2
370
    50
100
AcDbLine
 10
-90.278964
 20
-70.02578
 30
0.0
 11
-92.282944
 21
-74.02578
 31
0.0
  0
LINE
  5
14E
100
AcDbEntity
  8
2
370
    50
100
AcDbLine
 10
-92.011015
 20
-70.02578
 30
0.0
 11
-94.014995
 21
-74.02578
 31
0.0
  0
LINE
  5
14F
100
AcDbEntity
  8
2
370
    50
100
AcDbLine
 10
-92.011015
 20
-70.02578
 30
0.0
 11
-90.278964
 21
-70.02578
 31
0.0
  0
LINE
  5
150
100
AcDbEntity
  8
2
370
    50
100
AcDbLine
 10
-90.278964
 20
-70.02578
 30
0.0
 11
-90.278964
 21
-73.02578
 31
0.0
  0
ARC
  5
151
100
AcDbEntity
  8
2
370
    50
100
AcDbCircle
 10
-91.278964
 20
-73.02578
 30
0.0
 40
1.0
100
AcDbArc
 50
270.0
 51
360.0
  0
LINE
  5
152
100
AcDbEntity
  8
2
370
    50
100
AcDbLine
 10
-62.162869
 20
-74.82578
 30
0.0
 11
-106.162869
 21
-74.82578
 31
0.0
  0
LINE
  5
153
100
AcDbEntity
  8
2
370
    50
100
AcDbLine
 10
-78.046775
 20
-70.02578
 30
0.0
 11
-76.042794
 21
-74.02578
 31
0.0
  0
LINE
  5
154
100
AcDbEntity
  8
2
370
    50
100
AcDbLine
 10
-76.314724
 20
-70.02578
 30
0.0
 11
-74.310744
 21
-74.02578
 31
0.0
  0
LINE
  5
155
100
AcDbEntity
  8
2
370
    50
100
AcDbLine
 10
-76.314724
 20
-70.02578
 30
0.0
 11
-78.046775
 21
-70.02578
 31
0.0
  0
LINE
  5
156
100
AcDbEntity
  8
2
370
    50
100
AcDbLine
 10
-78.046775
 20
-70.02578
 30
0.0
 11
-78.046775
 21
-73.02578
 31
0.0
  0
ARC
  5
157
100
AcDbEntity
  8
2
370
    50
100
AcDbCircle
 10
-77.046775
 20
-73.02578
 30
0.0
 40
1.0
100
AcDbArc
 50
180.0
 51
270.0
  0
LINE
  5
158
100
AcDbEntity
  8
2
370
    50
100
AcDbLine
 10
-70.162869
 20
-66.32578
 30
0.0
 11
-98.162869
 21
-66.32578
 31
0.0
  0
LINE
  5
159
100
AcDbEntity
  8
2
370
    50
100
AcDbLine
 10
-75.762869
 20
-78.147353
 30
0.0
 11
-92.562869
 21
-78.147353
 31
0.0
  0
ELLIPSE
  5
15A
100
AcDbEntity
  8
2
370
    50
100
AcDbEllipse
 10
-97.266119
 20
-49.275929
 30
0.0
 11
0.0
 21
-4.25
 31
0.0
210
0.0
220
0.0
230
1.0
 40
0.681588
 41
0.0
 42
6.2831849999999996
  0
ELLIPSE
  5
15B
100
AcDbEntity
  8
2
370
    50
100
AcDbEllipse
 10
-84.162869
 20
-49.275929
 30
0.0
 11
-5.5677640000000004
 21
0.0
 31
0.0
210
0.0
220
0.0
230
1.0
 40
0.727401
 41
0.0
 42
6.2831849999999996
  0
ELLIPSE
  5
15C
100
AcDbEntity
  8
2
370
    50
100
AcDbEllipse
 10
-71.05962
 20
-49.275929
 30
0.0
 11
0.0
 21
4.25
 31
0.0
210
0.0
220
0.0
230
1.0
 40
0.681588
 41
0.0
 42
6.2831849999999996
  0
TEXT
  5
15D
100
AcDbEntity
  8
3
370
    50
100
AcDbText
 10
145.416291
 20
-120.006746
 30
0.0
 40
3.0
  1
１　１
 72
     5
 11
153.816291
 21
-120.006746
 31
0.0
100
AcDbText
  0
DIMENSION
  5
15E
100
AcDbEntity
  8
3
370
    25
100
AcDbDimension
  2
*D0
 10
9.851138
 20
-109.502686
 30
0.0
 11
2.851138
 21
-107.252686
 31
0.0
 71
     0
 72
     0
 41
0.0
 42
0.0
  3
Standard
100
AcDbAlignedDimension
 13
-4.148862
 23
-47.325929
 33
0.0
 14
9.851138
 24
-33.803429
 34
0.0
100
AcDbRotatedDimension
  0
DIMENSION
  5
15F
100
AcDbEntity
  8
3
370
    25
100
AcDbDimension
  2
*D1
 10
-4.148862
 20
-109.502686
 30
0.0
 11
-26.648862
 21
-107.252686
 31
0.0
 71
     0
 72
     0
 41
0.0
 42
0.0
  3
Standard
100
AcDbAlignedDimension
 13
-49.148862
 23
-48.636169
 33
0.0
 14
-4.148862
 24
-47.325929
 34
0.0
100
AcDbRotatedDimension
  0
DIMENSION
  5
160
100
AcDbEntity
  8
3
370
    25
100
AcDbDimension
  2
*D2
 10
-49.148862
 20
-109.502686
 30
0.0
 11
-66.655866
 21
-107.252686
 31
0.0
 71
     0
 72
     0
 41
0.0
 42
0.0
  3
Standard
100
AcDbAlignedDimension
 13
-84.162869
 23
-103.633865
 33
0.0
 14
-49.148862
 24
-48.636169
 34
0.0
100
AcDbRotatedDimension
  0
TEXT
  5
161
100
AcDbEntity
  8
3
370
    50
100
AcDbText
 10
11.270753
 20
13.095161
 30
0.0
 40
3.5
  1
ＰＪ１／２
 72
     5
 11
28.070753
 21
13.095161
 31
0.0
100
AcDbText
  0
LWPOLYLINE
  5
162
100
AcDbEntity
  8
3
370
    25
100
AcDbPolyline
 90
        3
 70
     0
 10
0.584609
 20
-13.999138
 10
10.45564
 20
11.923877
 10
29.413107
 20
11.923877
  0
LINE
  5
167
100
AcDbEntity
  8
3
370
    25
100
AcDbLine
 10
1.272071
 20
-12.193745
 30
0.0
 11
0.788317
 21
-12.00954
 31
0.0
  0
LINE
  5
168
100
AcDbEntity
  8
3
370
    25
100
AcDbLine
 10
0.788317
 20
-12.00954
 30
0.0
 11
0.584609
 21
-13.999138
 31
0.0
  0
LINE
  5
169
100
AcDbEntity
  8
3
370
    25
100
AcDbLine
 10
0.584609
 20
-13.999138
 30
0.0
 11
1.755825
 21
-12.37795
 31
0.0
  0
LINE
  5
16A
100
AcDbEntity
  8
3
370
    25
100
AcDbLine
 10
1.755825
 20
-12.37795
 30
0.0
 11
1.272071
 21
-12.193745
 31
0.0
  0
DIMENSION
  5
16B
100
AcDbEntity
  8
3
370
    25
100
AcDbDimension
  2
*D3
 10
-131.770111
 20
-24.525929
 30
0.0
 11
-135.770111
 21
-60.025855
 31
0.0
 71
     0
 72
     0
 41
0.0
 42
0.0
  3
Standard
100
AcDbAlignedDimension
 13
-91.012869
 23
-95.52578
 33
0.0
 14
-84.162869
 24
-24.525929
 34
0.0
 50
90.0
100
AcDbRotatedDimension
  0
DIMENSION
  5
16C
100
AcDbEntity
  8
3
370
    25
100
AcDbDimension
  2
*D4
 10
-119.482788
 20
-76.52578
 30
0.0
 11
-123.482788
 21
-86.02578
 31
0.0
 71
     0
 72
     0
 41
0.0
 42
0.0
  3
Standard
100
AcDbAlignedDimension
 13
-91.012869
 23
-95.52578
 33
0.0
 14
-104.30495
 24
-76.52578
 34
0.0
 50
90.0
100
AcDbRotatedDimension
  0
DIMENSION
  5
16D
100
AcDbEntity
  8
3
370
    25
100
AcDbDimension
  2
*D5
 10
-106.162869
 20
-121.952255
 30
0.0
 11
-84.162869
 21
-119.702255
 31
0.0
 70
     1
 71
     0
 72
     0
 41
0.0
 42
0.0
  3
Standard
100
AcDbAlignedDimension
 13
-62.162869
 23
-74.82578
 33
0.0
 14
-106.162869
 24
-74.52578
 34
0.0
  0
DIMENSION
  5
16E
100
AcDbEntity
  8
3
370
    25
100
AcDbDimension
  2
*D6
 10
32.623379
 20
-47.525929
 30
0.0
 11
26.873379
 21
-26.275929
 31
0.0
 70
     1
 71
     0
 72
     0
 41
0.0
 42
0.0
  3
Standard
100
AcDbAlignedDimension
 13
-4.348862
 23
-1.525929
 33
0.0
 14
-4.348862
 24
-47.525929
 34
0.0
 50
90.0
  0
TEXT
  5
16F
100
AcDbEntity
  8
3
370
    50
100
AcDbText
 10
34.1092
 20
-117.906456
 30
0.0
 40
3.5
  1
Ｋ１３－２３
 72
     5
 11
54.4092
 21
-117.906456
 31
0.0
100
AcDbText
  0
TEXT
  5
170
100
AcDbEntity
  8
3
370
    50
100
AcDbText
 10
-127.62233
 20
-47.804577
 30
0.0
 40
3.5
  1
逆止弁内蔵
 72
     5
 11
-110.82233
 21
-47.804577
 31
0.0
100
AcDbText
  0
LWPOLYLINE
  5
171
100
AcDbEntity
  8
3
370
    25
100
AcDbPolyline
 90
        3
 70
     0
 10
-86.214966
 20
-61.645004
 10
-108.73233
 20
-48.328949
 10
-127.838013
 20
-48.328949
  0
TEXT
  5
176
100
AcDbEntity
  8
3
370
    50
100
AcDbText
 10
114.656364
 20
-136.269073
 30
0.0
 40
3.5
  1
外観寸法図
 72
     5
 11
131.456364
 21
-136.269073
 31
0.0
100
AcDbText
  0
TEXT
  5
177
100
AcDbEntity
  8
3
370
    50
100
AcDbText
 10
168.035138
 20
-135.940469
 30
0.0
 40
3.2
  1
５００３１９
 72
     5
 11
186.595138
 21
-135.940469
 31
0.0
100
AcDbText
  0
TEXT
  5
178
100
AcDbEntity
  8
3
370
    50
100
AcDbText
 10
-132.270111
 20
4.474072
 30
0.0
 40
3.5
  1
（７２）
 50
90.0
 72
     5
 11
-132.270111
 21
17.774072
 31
0.0
100
AcDbText
  0
DIMENSION
  5
179
100
AcDbEntity
  8
3
370
    25
100
AcDbDimension
  2
*D7
 10
-131.770111
 20
47.474072
 30
0.0
 11
-134.270111
 21
11.474072
 31
0.0
 71
     0
 72
     0
 41
0.0
 42
0.0
  3
Standard
100
AcDbAlignedDimension
 13
-84.162869
 23
-24.525929
 33
0.0
 14
-49.136139
 24
47.474072
 34
0.0
 50
90.0
100
AcDbRotatedDimension
  0
TEXT
  5
17A
100
AcDbEntity
  8
3
370
    50
100
AcDbText
 10
-142.901413
 20
-109.181671
 30
0.0
 40
3.5
  1
緊急止水機能付
 72
     5
 11
-119.101413
 21
-109.181671
 31
0.0
100
AcDbText
  0
LWPOLYLINE
  5
17B
100
AcDbEntity
  8
3
370
    25
100
AcDbPolyline
 90
        3
 70
     0
 10
-85.782852
 20
-97.386162
 10
-116.306541
 20
-109.937805
 10
-143.656967
 20
-109.937805
  0
TEXT
  5
180
100
AcDbEntity
  8
3
370
    50
100
AcDbText
 10
34.1092
 20
-113.906456
 30
0.0
 40
3.5
  1
横水栓（ホース接続形）
 72
     5
 11
71.9092
 21
-113.906456
 31
0.0
100
AcDbText
  0
TEXT
  5
181
100
AcDbEntity
  8
3
370
    50
100
AcDbText
 10
-38.140024
 20
57.855973
 30
0.0
 40
3.5
  1
サックス
 72
     5
 11
-24.840024
 21
57.855973
 31
0.0
100
AcDbText
  0
TEXT
  5
182
100
AcDbEntity
  8
3
370
    50
100
AcDbText
 10
-38.140024
 20
53.855973
 30
0.0
 40
3.5
  1
（水表示）
 72
     5
 11
-21.340024
 21
53.855973
 31
0.0
100
AcDbText
  0
LWPOLYLINE
  5
183
100
AcDbEntity
  8
3
370
    25
100
AcDbPolyline
 90
        2
 70
     0
 10
-43.528192
 20
47.277273
 10
-38.242466
 20
53.92012
  0
ENDSEC
  0
SECTION
  2
OBJECTS
  0
DICTIONARY
  5
1E6
100
AcDbDictionary
280
     0
281
     1
  3
ACAD_GROUP
350
1E7
  3
ACAD_MLINESTYLE
350
1E8
  0
DICTIONARY
  5
1E7
102
{ACAD_REACTORS
330
1E6
102
}
100
AcDbDictionary
280
     0
281
     1
  0
DICTIONARY
  5
1E8
102
{ACAD_REACTORS
330
1E6
102
}
100
AcDbDictionary
280
     0
281
     1
  3
Standard
350
1E9
  0
MLINESTYLE
  5
1E9
102
{ACAD_REACTORS
330
1E8
102
}
100
AcDbMlineStyle
  2
Standard
 70
     0
  3

 62
     0
 51
90.0
 52
90.0
 71
     2
 49
0.5
 62
   256
  6
ByLayer
 49
-0.5
 62
   256
  6
ByLayer
  0
ENDSEC
  0
EOF
