  0
SECTION
  2
HEADER
  9
$ACADVER
  1
AC1015
  9
$ACADMAINTVER
 70
     6
  9
$DWGCODEPAGE
  3
ANSI_932
  9
$INSBASE
 10
0.0
 20
0.0
 30
0.0
  9
$EXTMIN
 10
-841.0
 20
-594.0
 30
1.000000E+20
  9
$EXTMAX
 10
841.0
 20
594.0
 30
-1.000000E+20
  9
$LIMMIN
 10
-841.0
 20
-594.0
  9
$LIMMAX
 10
841.0
 20
594.0
  9
$ORTHOMODE
 70
     0
  9
$REGENMODE
 70
     1
  9
$FILLMODE
 70
     1
  9
$QTEXTMODE
 70
     0
  9
$MIRRTEXT
 70
     1
  9
$LTSCALE
 40
1.0
  9
$ATTMODE
 70
     1
  9
$TEXTSIZE
 40
0.2
  9
$TRACEWID
 40
0.05
  9
$TEXTSTYLE
  7
STANDARD
  9
$CLAYER
  8
0
  9
$CELTYPE
  6
CONTINUOUS
  9
$CECOLOR
 62
   256
  9
$CELTSCALE
 40
1.0
  9
$DISPSILH
 70
     0
  9
$DIMSCALE
 40
2.0
  9
$DIMASZ
 40
2.0
  9
$DIMEXO
 40
1.0
  9
$DIMDLI
 40
0.38
  9
$DIMRND
 40
0.0
  9
$DIMDLE
 40
0.0
  9
$DIMEXE
 40
2.0
  9
$DIMTP
 40
0.0
  9
$DIMTM
 40
0.0
  9
$DIMTXT
 40
3.5
  9
$DIMCEN
 40
0.09
  9
$DIMTSZ
 40
0.0
  9
$DIMTOL
 70
     0
  9
$DIMLIM
 70
     0
  9
$DIMTIH
 70
     0
  9
$DIMTOH
 70
     0
  9
$DIMSE1
 70
     0
  9
$DIMSE2
 70
     0
  9
$DIMTAD
 70
     1
  9
$DIMZIN
 70
     0
  9
$DIMBLK
  1

  9
$DIMASO
 70
     1
  9
$DIMSHO
 70
     1
  9
$DIMPOST
  1

  9
$DIMAPOST
  1

  9
$DIMALT
 70
     0
  9
$DIMALTD
 70
     2
  9
$DIMALTF
 40
25.4
  9
$DIMLFAC
 40
1.0
  9
$DIMTOFL
 70
     0
  9
$DIMTVP
 40
0.0
  9
$DIMTIX
 70
     0
  9
$DIMSOXD
 70
     0
  9
$DIMSAH
 70
     0
  9
$DIMBLK1
  1

  9
$DIMBLK2
  1

  9
$DIMSTYLE
  2
Standard
  9
$DIMCLRD
 70
     0
  9
$DIMCLRE
 70
     0
  9
$DIMCLRT
 70
     0
  9
$DIMTFAC
 40
1.0
  9
$DIMGAP
 40
0.5
  9
$DIMJUST
 70
     0
  9
$DIMSD1
 70
     0
  9
$DIMSD2
 70
     0
  9
$DIMTOLJ
 70
     1
  9
$DIMTZIN
 70
     0
  9
$DIMALTZ
 70
     0
  9
$DIMALTTZ
 70
     0
  9
$DIMUPT
 70
     0
  9
$DIMDEC
 70
     3
  9
$DIMTDEC
 70
     4
  9
$DIMALTU
 70
     2
  9
$DIMALTTD
 70
     2
  9
$DIMTXSTY
  7
STANDARD
  9
$DIMAUNIT
 70
     0
  9
$DIMADEC
 70
     0
  9
$DIMALTRND
 40
0.0
  9
$DIMAZIN
 70
     0
  9
$DIMDSEP
 70
     0
  9
$DIMATFIT
 70
     3
  9
$DIMFRAC
 70
     0
  9
$DIMLDRBLK
  1

  9
$DIMLUNIT
 70
     2
  9
$DIMLWD
 70
     0
  9
$DIMLWE
 70
     0
  9
$DIMTMOVE
 70
     0
  9
$LUNITS
 70
     2
  9
$LUPREC
 70
     4
  9
$SKETCHINC
 40
0.1
  9
$FILLETRAD
 40
0.0
  9
$AUNITS
 70
     0
  9
$AUPREC
 70
     0
  9
$MENU
  1
acad
  9
$ELEVATION
 40
0.0
  9
$PELEVATION
 40
0.0
  9
$THICKNESS
 40
0.0
  9
$LIMCHECK
 70
     0
  9
$CHAMFERA
 40
0.0
  9
$CHAMFERB
 40
0.0
  9
$CHAMFERC
 40
0.0
  9
$CHAMFERD
 40
0.0
  9
$SKPOLY
 70
     0
  9
$TDCREATE
 40
2453383.000000000
  9
$TDUCREATE
 40
0.000000000
  9
$TDUPDATE
 40
0.000000000
  9
$TDUUPDATE
 40
2447892.625000000
  9
$TDINDWG
 40
0.0000000000
  9
$TDUSRTIMER
 40
0.0000000000
  9
$USRTIMER
 70
     1
  9
$ANGBASE
 50
0.0
  9
$ANGDIR
 70
     0
  9
$PDMODE
 70
     0
  9
$PDSIZE
 40
0.0
  9
$PLINEWID
 40
0.0
  9
$SPLFRAME
 70
     0
  9
$SPLINETYPE
 70
     6
  9
$SPLINESEGS
 70
     8
  9
$HANDSEED
  5
4A1
  9
$SURFTAB1
 70
     6
  9
$SURFTAB2
 70
     6
  9
$SURFTYPE
 70
     6
  9
$SURFU
 70
     6
  9
$SURFV
 70
     6
  9
$UCSBASE
  2

  9
$UCSNAME
  2

  9
$UCSORG
 10
0.0
 20
0.0
 30
0.0
  9
$UCSXDIR
 10
1.0
 20
0.0
 30
0.0
  9
$UCSYDIR
 10
0.0
 20
1.0
 30
0.0
  9
$UCSORTHOREF
  2

  9
$UCSORTHOVIEW
 70
     0
  9
$UCSORGTOP
 10
0.0
 20
0.0
 30
0.0
  9
$UCSORGBOTTOM
 10
0.0
 20
0.0
 30
0.0
  9
$UCSORGLEFT
 10
0.0
 20
0.0
 30
0.0
  9
$UCSORGRIGHT
 10
0.0
 20
0.0
 30
0.0
  9
$UCSORGFRONT
 10
0.0
 20
0.0
 30
0.0
  9
$UCSORGBACK
 10
0.0
 20
0.0
 30
0.0
  9
$PUCSBASE
  2

  9
$PUCSNAME
  2

  9
$PUCSORG
 10
0.0
 20
0.0
 30
0.0
  9
$PUCSXDIR
 10
1.0
 20
0.0
 30
0.0
  9
$PUCSYDIR
 10
0.0
 20
1.0
 30
0.0
  9
$PUCSORTHOREF
  2

  9
$PUCSORTHOVIEW
 70
     0
  9
$PUCSORGTOP
 10
0.0
 20
0.0
 30
0.0
  9
$PUCSORGBOTTOM
 10
0.0
 20
0.0
 30
0.0
  9
$PUCSORGLEFT
 10
0.0
 20
0.0
 30
0.0
  9
$PUCSORGRIGHT
 10
0.0
 20
0.0
 30
0.0
  9
$PUCSORGFRONT
 10
0.0
 20
0.0
 30
0.0
  9
$PUCSORGBACK
 10
0.0
 20
0.0
 30
0.0
  9
$USERI1
 70
     0
  9
$USERI2
 70
     0
  9
$USERI3
 70
     0
  9
$USERI4
 70
     0
  9
$USERI5
 70
     0
  9
$USERR1
 40
0.0
  9
$USERR2
 40
0.0
  9
$USERR3
 40
0.0
  9
$USERR4
 40
0.0
  9
$USERR5
 40
0.0
  9
$WORLDVIEW
 70
     1
  9
$SHADEDGE
 70
     3
  9
$SHADEDIF
 70
    70
  9
$TILEMODE
 70
     1
  9
$MAXACTVP
 70
    16
  9
$PINSBASE
 10
0.0
 20
0.0
 30
0.0
  9
$PLIMCHECK
 70
     0
  9
$PEXTMIN
 10
1.000000E+20
 20
1.000000E+20
 30
1.000000E+20
  9
$PEXTMAX
 10
-1.000000E+20
 20
-1.000000E+20
 30
-1.000000E+20
  9
$PLIMMIN
 10
0.0
 20
0.0
  9
$PLIMMAX
 10
12.0
 20
9.0
  9
$UNITMODE
 70
     0
  9
$VISRETAIN
 70
     0
  9
$PLINEGEN
 70
     1
  9
$PSLTSCALE
 70
     0
  9
$TREEDEPTH
 70
  3020
  9
$CMLSTYLE
  2
Standard
  9
$CMLJUST
 70
     0
  9
$CMLSCALE
 40
1.0
  9
$PROXYGRAPHICS
 70
     0
  9
$MEASUREMENT
 70
     0
  9
$CELWEIGHT
370
     0
  9
$ENDCAPS
280
     0
  9
$JOINSTYLE
280
     0
  9
$LWDISPLAY
290
     0
  9
$INSUNITS
 70
     0
  9
$HYPERLINKBASE
  1

  9
$STYLESHEET
  1

  9
$XEDIT
290
     1
  9
$CEPSNTYPE
380
     0
  9
$PSTYLEMODE
290
     1
  9
$FINGERPRINTGUID
  2

  9
$VERSIONGUID
  2

  9
$EXTNAMES
290
     1
  9
$PSVPSCALE
 40
0.0
  0
ENDSEC
  0
SECTION
  2
CLASSES
  0
CLASS
  1
LWPOLYLINE
  2
AcDbPolyline
  3
AutoCAD 2000
 90
        0
280
     0
281
     1
  0
CLASS
  1
IMAGE
  2
AcDbRasterImage
  3
ISM
 90
      127
280
     0
281
     1
  0
CLASS
  1
OLE2FRAME
  2
AcDbOle2Frame
  3
AutoCAD 2000
 90
        0
280
     0
281
     1
  0
CLASS
  1
HATCH
  2
AcDbHatch
  3
AutoCAD 2000
 90
        0
280
     0
281
     1
  0
CLASS
  1
DICTIONARYVAR
  2
AcDbDictionaryVar
  3
AutoCAD 2000
 90
        0
280
     0
281
     0
  0
CLASS
  1
RASTERVARIABLES
  2
AcDbRasterVariables
  3
ISM
 90
        0
280
     0
281
     0
  0
CLASS
  1
IMAGEDEF
  2
AcDbRasterImageDef
  3
ISM
 90
        0
280
     0
281
     0
  0
CLASS
  1
IMAGEDEF_REACTOR
  2
AcDbRasterImageDefReactor
  3
ISM
 90
        1
280
     0
281
     0
  0
CLASS
  1
IDBUFFER
  2
AcDbIdBuffer
  3
AutoCAD 2000
 90
        0
280
     0
281
     0
  0
CLASS
  1
SPATIAL_FILTER
  2
AcDbSpatialFilter
  3
AutoCAD 2000
 90
        0
280
     0
281
     0
  0
CLASS
  1
XRECORD
  2
AcDbXrecord
  3
AutoCAD 2000
 90
        0
280
     0
281
     0
  0
CLASS
  1
SORTENTSTABLE
  2
AcDbSortentsTable
  3
AutoCAD 2000
 90
        0
280
     0
281
     0
  0
CLASS
  1
LAYER_INDEX
  2
AcDbLayerIndex
  3
AutoCAD 2000
 90
        0
280
     0
281
     0
  0
CLASS
  1
SPATIAL_INDEX
  2
AcDbSpatialIndex
  3
AutoCAD 2000
 90
        0
280
     0
281
     0
  0
CLASS
  1
OBJECT_PTR
  2
CAseDLPNTableRecord
  3
"ASE-LPNTableRecord"
 90
        1
280
     0
281
     0
  0
CLASS
  1
LAYOUT
  2
AcDbLayout
  3
AutoCAD 2000
 90
        0
280
     0
281
     0
  0
CLASS
  1
PLOTSETTINGS
  2
AcDbPlotSettings
  3
AutoCAD 2000
 90
        0
280
     0
281
     0
  0
CLASS
  1
ACDBDICTIONARYWDFLT
  2
AcDbDictionaryWithDefault
  3
AutoCAD 2000
 90
        0
280
     0
281
     0
  0
CLASS
  1
ACDBPLACEHOLDER
  2
AcDbPlaceHolder
  3
AutoCAD 2000
 90
        0
280
     0
281
     0
  0
CLASS
  1
VBA_PROJECT
  2
AcDbVbaProject
  3
acadvba
 90
        0
280
     0
281
     0
  0
CLASS
  1
WIPEOUT
  2
AcDbWipeout
  3
WipeOut|AutoCAD Express Tool|expresstools@autodesk.com
 90
      127
280
     0
281
     1
  0
CLASS
  1
WIPEOUTVARIABLES
  2
AcDbWipeoutVariables
  3
WipeOut|AutoCAD Express Tool|expresstools@autodesk.com
 90
        0
280
     0
281
     0
  0
CLASS
  1
RTEXT
  2
RText
  3
RText|AutoCAD Express Tool|expresstools@autodesk.com
 90
        0
280
     0
281
     1
  0
CLASS
  1
ARCALIGNEDTEXT
  2
AcDbArcAlignedText
  3
ATEXT|AutoCAD Express Tool|expresstools@autodesk.com
 90
        0
280
     0
281
     1
  0
ENDSEC
  0
SECTION
  2
TABLES
  0
TABLE
  2
VPORT
  5
6
100
AcDbSymbolTable
 70
     1
  0
VPORT
  5
19
100
AcDbSymbolTableRecord
100
AcDbViewportTableRecord
  2
*ACTIVE
 70
     0
 10
0.0
 20
0.0
 11
1.0
 21
1.0
 12
0.0
 22
0.0
 13
0.0
 23
0.0
 14
1.0
 24
1.0
 15
0.0
 25
0.0
 16
0.0
 26
0.0
 36
1.0
 17
0.0
 27
0.0
 37
0.0
 40
1188.0
 41
1.415825
 42
50.0
 43
0.0
 44
0.0
 50
0.0
 51
0.0
 71
     0
 72
   500
 73
     1
 74
     1
 75
     0
 76
     0
 77
     0
 78
     0
281
     0
 65
     0
110
0.0
120
0.0
130
0.0
111
1.0
121
0.0
131
0.0
112
0.0
122
1.0
132
0.0
345
0
346
0
 79
     0
146
0.0
  0
ENDTAB
  0
TABLE
  2
LTYPE
  5
3
100
AcDbSymbolTable
 70
     9
  0
LTYPE
  5
C
100
AcDbSymbolTableRecord
100
AcDbLinetypeTableRecord
  2
ByBlock
 70
    64
  3

 72
    65
 73
     0
 40
0.0
  0
LTYPE
  5
D
100
AcDbSymbolTableRecord
100
AcDbLinetypeTableRecord
  2
ByLayer
 70
    64
  3

 72
    65
 73
     0
 40
0.0
  0
LTYPE
  5
E
100
AcDbSymbolTableRecord
100
AcDbLinetypeTableRecord
  2
CONTINUOUS
 70
     0
  3
Solid line
 72
    65
 73
     0
 40
0.0
  0
LTYPE
  5
F
100
AcDbSymbolTableRecord
100
AcDbLinetypeTableRecord
  2
DASHED
 70
     0
  3
__ __ __ __ __ __ __ __ __ __ __ __ __ __ __
 72
    65
 73
     2
 40
2.0
 49
1.2
 74
     0
 49
-0.8
 74
     0
  0
LTYPE
  5
10
100
AcDbSymbolTableRecord
100
AcDbLinetypeTableRecord
  2
CENTER
 70
     0
  3
____ _ ____ _ ____ _ ____ _ ____ _ ____ _ ____
 72
    65
 73
     4
 40
12.0
 49
9.0
 74
     0
 49
-1.0
 74
     0
 49
1.0
 74
     0
 49
-1.0
 74
     0
  0
LTYPE
  5
11
100
AcDbSymbolTableRecord
100
AcDbLinetypeTableRecord
  2
HIDDEN
 70
     0
  3
_ _ _ _ _ _ _ _ _ _ _ _ _ _ _ _ _ _ _ _ _ _ _
 72
    65
 73
     2
 40
3.2
 49
2.4
 74
     0
 49
-0.8
 74
     0
  0
LTYPE
  5
12
100
AcDbSymbolTableRecord
100
AcDbLinetypeTableRecord
  2
PHANTOM
 70
     0
  3
_____ _ _ _____ _ _ _____ _ _ _____ _ _ _____
 72
    65
 73
     6
 40
13.5
 49
9.0
 74
     0
 49
-1.0
 74
     0
 49
1.0
 74
     0
 49
-0.5
 74
     0
 49
1.0
 74
     0
 49
-1.0
 74
     0
  0
LTYPE
  5
13
100
AcDbSymbolTableRecord
100
AcDbLinetypeTableRecord
  2
DOT
 70
     0
  3
...............................................
 72
    65
 73
     2
 40
1.0
 49
0.5
 74
     0
 49
-0.5
 74
     0
  0
LTYPE
  5
14
100
AcDbSymbolTableRecord
100
AcDbLinetypeTableRecord
  2
DASHDOT
 70
     0
  3
__ . __ . __ . __ . __ . __ . __ . __ . __ . __
 72
    65
 73
     4
 40
8.0
 49
5.0
 74
     0
 49
-1.0
 74
     0
 49
1.0
 74
     0
 49
-1.0
 74
     0
  0
ENDTAB
  0
TABLE
  2
LAYER
  5
1
100
AcDbSymbolTable
 70
     4
  0
LAYER
  5
15
100
AcDbSymbolTableRecord
100
AcDbLayerTableRecord
  2
0
 70
     0
 62
     7
  6
CONTINUOUS
290
     1
370
    -3
390
0
  0
LAYER
  5
16
100
AcDbSymbolTableRecord
100
AcDbLayerTableRecord
  2
1
 70
     0
 62
     7
  6
CONTINUOUS
290
     1
370
    -3
390
0
  0
LAYER
  5
17
100
AcDbSymbolTableRecord
100
AcDbLayerTableRecord
  2
2
 70
     0
 62
     7
  6
CONTINUOUS
290
     1
370
    -3
390
0
  0
LAYER
  5
18
100
AcDbSymbolTableRecord
100
AcDbLayerTableRecord
  2
3
 70
     0
 62
     7
  6
CONTINUOUS
290
     1
370
    -3
390
0
  0
ENDTAB
  0
TABLE
  2
STYLE
  5
2
100
AcDbSymbolTable
 70
     1
  0
STYLE
  5
1B
100
AcDbSymbolTableRecord
100
AcDbTextStyleTableRecord
  2
STANDARD
 70
    64
 40
0.0
 41
1.0
 50
0.0
 71
     0
 42
1.0
  3
txt
  4
BIGFONT
  0
ENDTAB
  0
TABLE
  2
VIEW
  5
4
100
AcDbSymbolTable
 70
     0
  0
ENDTAB
  0
TABLE
  2
UCS
  5
5
100
AcDbSymbolTable
 70
     0
  0
ENDTAB
  0
TABLE
  2
APPID
  5
7
100
AcDbSymbolTable
 70
     1
  0
APPID
  5
1A
100
AcDbSymbolTableRecord
100
AcDbRegAppTableRecord
  2
ACAD
 70
     0
  0
ENDTAB
  0
TABLE
  2
DIMSTYLE
  5
8
100
AcDbSymbolTable
 70
     1
100
AcDbDimStyleTable
 71
     0
  0
DIMSTYLE
105
2D
100
AcDbSymbolTableRecord
100
AcDbDimStyleTableRecord
  2
Standard
 70
     0
  3

  4

 40
2.0
 41
2.0
 42
1.0
 43
0.38
 44
2.0
 45
0.0
 46
0.0
 47
0.0
 48
0.0
 71
     0
 72
     0
 73
     0
 74
     0
 75
     0
 76
     0
 77
     1
 78
     0
 79
     0
140
3.5
141
0.09
142
0.0
143
25.4
144
1.0
145
0.0
146
1.0
147
0.5
148
0.0
170
     0
171
     2
172
     0
173
     0
174
     0
175
     0
176
     0
177
     0
178
     0
179
     0
271
     3
272
     4
273
     2
274
     2
275
     0
276
     0
277
     2
278
    46
279
     0
280
     0
281
     0
282
     0
283
     1
284
     0
285
     0
286
     0
288
     0
289
     3
340
1B
341
0
342
0
343
0
344
0
371
    -2
372
    -2
  0
ENDTAB
  0
TABLE
  2
BLOCK_RECORD
  5
28
100
AcDbSymbolTable
 70
    10
  0
BLOCK_RECORD
  5
26
100
AcDbSymbolTableRecord
100
AcDbBlockTableRecord
  2
*Model_Space
340
0
  0
BLOCK_RECORD
  5
27
100
AcDbSymbolTableRecord
100
AcDbBlockTableRecord
  2
*Paper_Space
340
0
  0
BLOCK_RECORD
  5
1C
100
AcDbSymbolTableRecord
100
AcDbBlockTableRecord
  2
*D0
340
0
  0
BLOCK_RECORD
  5
1D
100
AcDbSymbolTableRecord
100
AcDbBlockTableRecord
  2
*D1
340
0
  0
BLOCK_RECORD
  5
1E
100
AcDbSymbolTableRecord
100
AcDbBlockTableRecord
  2
*D2
340
0
  0
BLOCK_RECORD
  5
1F
100
AcDbSymbolTableRecord
100
AcDbBlockTableRecord
  2
*D3
340
0
  0
BLOCK_RECORD
  5
20
100
AcDbSymbolTableRecord
100
AcDbBlockTableRecord
  2
*D4
340
0
  0
BLOCK_RECORD
  5
21
100
AcDbSymbolTableRecord
100
AcDbBlockTableRecord
  2
*D5
340
0
  0
BLOCK_RECORD
  5
22
100
AcDbSymbolTableRecord
100
AcDbBlockTableRecord
  2
*D6
340
0
  0
BLOCK_RECORD
  5
23
100
AcDbSymbolTableRecord
100
AcDbBlockTableRecord
  2
*D7
340
0
  0
BLOCK_RECORD
  5
24
100
AcDbSymbolTableRecord
100
AcDbBlockTableRecord
  2
*D8
340
0
  0
BLOCK_RECORD
  5
25
100
AcDbSymbolTableRecord
100
AcDbBlockTableRecord
  2
*D9
340
0
  0
ENDTAB
  0
ENDSEC
  0
SECTION
  2
BLOCKS
  0
BLOCK
  5
29
100
AcDbEntity
  8
0
390
0
100
AcDbBlockBegin
  2
*Model_Space
 70
     0
 10
0.0
 20
0.0
 30
0.0
  3
*Model_Space
  1

  0
ENDBLK
  5
2A
100
AcDbEntity
  8
0
390
0
100
AcDbBlockEnd
  0
BLOCK
  5
2B
100
AcDbEntity
 67
     1
  8
0
390
0
100
AcDbBlockBegin
  2
*Paper_Space
 70
     0
 10
0.0
 20
0.0
 30
0.0
  3
*Paper_Space
  1

  0
ENDBLK
  5
2C
100
AcDbEntity
 67
     1
  8
0
390
0
100
AcDbBlockEnd
  0
BLOCK
  5
426
100
AcDbEntity
  8
3
100
AcDbBlockBegin
  2
*D0
 70
     1
 10
0.0
 20
0.0
 30
0.0
  3
*D0
  1

  0
TEXT
  5
427
100
AcDbEntity
  8
3
370
    25
100
AcDbText
 10
221.150665
 20
-149.445521
 30
0.0
 40
7.0
  1
φ４６
 50
90.0
 72
     5
 11
221.150665
 21
-129.845521
 31
0.0
100
AcDbText
  0
LINE
  5
428
100
AcDbEntity
  8
3
370
    25
100
AcDbLine
 10
174.865733
 20
-115.945521
 30
0.0
 11
224.150665
 21
-115.945521
 31
0.0
  0
LINE
  5
429
100
AcDbEntity
  8
3
370
    25
100
AcDbLine
 10
222.150665
 20
-115.945521
 30
0.0
 11
221.115389
 21
-119.809225
 31
0.0
  0
LINE
  5
42A
100
AcDbEntity
  8
3
370
    25
100
AcDbLine
 10
222.150665
 20
-115.945521
 30
0.0
 11
223.185941
 21
-119.809225
 31
0.0
  0
LINE
  5
42B
100
AcDbEntity
  8
3
370
    25
100
AcDbLine
 10
221.115389
 20
-119.809225
 30
0.0
 11
223.185941
 21
-119.809225
 31
0.0
  0
LINE
  5
42C
100
AcDbEntity
  8
3
370
    25
100
AcDbLine
 10
222.150665
 20
-115.945521
 30
0.0
 11
222.150665
 21
-161.945521
 31
0.0
  0
LINE
  5
42D
100
AcDbEntity
  8
3
370
    25
100
AcDbLine
 10
222.150665
 20
-161.945521
 30
0.0
 11
223.185941
 21
-158.081818
 31
0.0
  0
LINE
  5
42E
100
AcDbEntity
  8
3
370
    25
100
AcDbLine
 10
222.150665
 20
-161.945521
 30
0.0
 11
221.115389
 21
-158.081818
 31
0.0
  0
LINE
  5
42F
100
AcDbEntity
  8
3
370
    25
100
AcDbLine
 10
223.185941
 20
-158.081818
 30
0.0
 11
221.115389
 21
-158.081818
 31
0.0
  0
LINE
  5
430
100
AcDbEntity
  8
3
370
    25
100
AcDbLine
 10
174.865733
 20
-161.945521
 30
0.0
 11
224.150665
 21
-161.945521
 31
0.0
  0
ENDBLK
  5
431
100
AcDbEntity
  8
3
100
AcDbBlockEnd
  0
BLOCK
  5
432
100
AcDbEntity
  8
3
100
AcDbBlockBegin
  2
*D1
 70
     1
 10
0.0
 20
0.0
 30
0.0
  3
*D1
  1

  0
TEXT
  5
433
100
AcDbEntity
  8
3
370
    25
100
AcDbText
 10
126.365733
 20
-200.940979
 30
0.0
 40
7.0
  1
７９
 72
     5
 11
138.965733
 21
-200.940979
 31
0.0
100
AcDbText
  0
LINE
  5
434
100
AcDbEntity
  8
3
370
    25
100
AcDbLine
 10
93.865733
 20
-181.898727
 30
0.0
 11
93.865733
 21
-203.940979
 31
0.0
  0
LINE
  5
435
100
AcDbEntity
  8
3
370
    25
100
AcDbLine
 10
93.865733
 20
-201.940979
 30
0.0
 11
97.729437
 21
-202.976255
 31
0.0
  0
LINE
  5
436
100
AcDbEntity
  8
3
370
    25
100
AcDbLine
 10
93.865733
 20
-201.940979
 30
0.0
 11
97.729437
 21
-200.905703
 31
0.0
  0
LINE
  5
437
100
AcDbEntity
  8
3
370
    25
100
AcDbLine
 10
97.729437
 20
-202.976255
 30
0.0
 11
97.729437
 21
-200.905703
 31
0.0
  0
LINE
  5
438
100
AcDbEntity
  8
3
370
    25
100
AcDbLine
 10
93.865733
 20
-201.940979
 30
0.0
 11
172.865733
 21
-201.940979
 31
0.0
  0
LINE
  5
439
100
AcDbEntity
  8
3
370
    25
100
AcDbLine
 10
172.865733
 20
-201.940979
 30
0.0
 11
169.00203
 21
-200.905703
 31
0.0
  0
LINE
  5
43A
100
AcDbEntity
  8
3
370
    25
100
AcDbLine
 10
172.865733
 20
-201.940979
 30
0.0
 11
169.00203
 21
-202.976255
 31
0.0
  0
LINE
  5
43B
100
AcDbEntity
  8
3
370
    25
100
AcDbLine
 10
169.00203
 20
-200.905703
 30
0.0
 11
169.00203
 21
-202.976255
 31
0.0
  0
LINE
  5
43C
100
AcDbEntity
  8
3
370
    25
100
AcDbLine
 10
172.865733
 20
-163.945521
 30
0.0
 11
172.865733
 21
-203.940979
 31
0.0
  0
ENDBLK
  5
43D
100
AcDbEntity
  8
3
100
AcDbBlockEnd
  0
BLOCK
  5
43E
100
AcDbEntity
  8
3
100
AcDbBlockBegin
  2
*D2
 70
     1
 10
0.0
 20
0.0
 30
0.0
  3
*D2
  1

  0
LINE
  5
43F
100
AcDbEntity
  8
3
370
    25
100
AcDbLine
 10
172.865733
 20
-163.945521
 30
0.0
 11
172.865733
 21
-203.940979
 31
0.0
  0
LINE
  5
440
100
AcDbEntity
  8
3
370
    25
100
AcDbLine
 10
172.865733
 20
-201.940979
 30
0.0
 11
169.00203
 21
-200.905703
 31
0.0
  0
LINE
  5
441
100
AcDbEntity
  8
3
370
    25
100
AcDbLine
 10
172.865733
 20
-201.940979
 30
0.0
 11
169.00203
 21
-202.976255
 31
0.0
  0
LINE
  5
442
100
AcDbEntity
  8
3
370
    25
100
AcDbLine
 10
169.00203
 20
-200.905703
 30
0.0
 11
169.00203
 21
-202.976255
 31
0.0
  0
LINE
  5
443
100
AcDbEntity
  8
3
370
    25
100
AcDbLine
 10
162.865733
 20
-201.940979
 30
0.0
 11
222.865733
 21
-201.940979
 31
0.0
  0
LINE
  5
444
100
AcDbEntity
  8
3
370
    25
100
AcDbLine
 10
186.865733
 20
-201.940979
 30
0.0
 11
190.729437
 21
-202.976255
 31
0.0
  0
LINE
  5
445
100
AcDbEntity
  8
3
370
    25
100
AcDbLine
 10
186.865733
 20
-201.940979
 30
0.0
 11
190.729437
 21
-200.905703
 31
0.0
  0
LINE
  5
446
100
AcDbEntity
  8
3
370
    25
100
AcDbLine
 10
190.729437
 20
-202.976255
 30
0.0
 11
190.729437
 21
-200.905703
 31
0.0
  0
LINE
  5
447
100
AcDbEntity
  8
3
370
    25
100
AcDbLine
 10
186.865733
 20
-150.245517
 30
0.0
 11
186.865733
 21
-203.940979
 31
0.0
  0
ENDBLK
  5
448
100
AcDbEntity
  8
3
100
AcDbBlockEnd
  0
BLOCK
  5
449
100
AcDbEntity
  8
3
100
AcDbBlockBegin
  2
*D3
 70
     1
 10
0.0
 20
0.0
 30
0.0
  3
*D3
  1

  0
TEXT
  5
44A
100
AcDbEntity
  8
3
370
    25
100
AcDbText
 10
-152.134267
 20
14.581383
 30
0.0
 40
7.0
  1
１３５
 72
     5
 11
-132.534267
 21
14.581383
 31
0.0
100
AcDbText
  0
LINE
  5
44B
100
AcDbEntity
  8
3
370
    25
100
AcDbLine
 10
-209.134267
 20
-15.918743
 30
0.0
 11
-209.134267
 21
15.581383
 31
0.0
  0
LINE
  5
44C
100
AcDbEntity
  8
3
370
    25
100
AcDbLine
 10
-209.134267
 20
13.581383
 30
0.0
 11
-205.270563
 21
12.546107
 31
0.0
  0
LINE
  5
44D
100
AcDbEntity
  8
3
370
    25
100
AcDbLine
 10
-209.134267
 20
13.581383
 30
0.0
 11
-205.270563
 21
14.616659
 31
0.0
  0
LINE
  5
44E
100
AcDbEntity
  8
3
370
    25
100
AcDbLine
 10
-205.270563
 20
12.546107
 30
0.0
 11
-205.270563
 21
14.616659
 31
0.0
  0
LINE
  5
44F
100
AcDbEntity
  8
3
370
    25
100
AcDbLine
 10
-209.134267
 20
13.581383
 30
0.0
 11
-74.134267
 21
13.581383
 31
0.0
  0
LINE
  5
450
100
AcDbEntity
  8
3
370
    25
100
AcDbLine
 10
-74.134267
 20
13.581383
 30
0.0
 11
-77.99797
 21
14.616659
 31
0.0
  0
LINE
  5
451
100
AcDbEntity
  8
3
370
    25
100
AcDbLine
 10
-74.134267
 20
13.581383
 30
0.0
 11
-77.99797
 21
12.546107
 31
0.0
  0
LINE
  5
452
100
AcDbEntity
  8
3
370
    25
100
AcDbLine
 10
-77.99797
 20
14.616659
 30
0.0
 11
-77.99797
 21
12.546107
 31
0.0
  0
LINE
  5
453
100
AcDbEntity
  8
3
370
    25
100
AcDbLine
 10
-74.134267
 20
-15.918743
 30
0.0
 11
-74.134267
 21
15.581383
 31
0.0
  0
ENDBLK
  5
454
100
AcDbEntity
  8
3
100
AcDbBlockEnd
  0
BLOCK
  5
455
100
AcDbEntity
  8
3
100
AcDbBlockBegin
  2
*D4
 70
     1
 10
0.0
 20
0.0
 30
0.0
  3
*D4
  1

  0
TEXT
  5
456
100
AcDbEntity
  8
3
370
    25
100
AcDbText
 10
-272.049407
 20
-69.214142
 30
0.0
 40
7.0
  1
４０
 50
45.0
 72
     5
 11
-263.139862
 21
-60.304597
 31
0.0
100
AcDbText
  0
LINE
  5
457
100
AcDbEntity
  8
3
370
    25
100
AcDbLine
 10
-210.54848
 20
-92.531303
 30
0.0
 11
-253.664631
 21
-49.415153
 31
0.0
  0
LINE
  5
458
100
AcDbEntity
  8
3
370
    25
100
AcDbLine
 10
-252.250417
 20
-50.829366
 30
0.0
 11
-255.714519
 21
-52.829366
 31
0.0
  0
LINE
  5
459
100
AcDbEntity
  8
3
370
    25
100
AcDbLine
 10
-252.250417
 20
-50.829366
 30
0.0
 11
-254.250417
 21
-54.293468
 31
0.0
  0
LINE
  5
45A
100
AcDbEntity
  8
3
370
    25
100
AcDbLine
 10
-255.714519
 20
-52.829366
 30
0.0
 11
-254.250417
 21
-54.293468
 31
0.0
  0
LINE
  5
45B
100
AcDbEntity
  8
3
370
    25
100
AcDbLine
 10
-252.250417
 20
-50.829366
 30
0.0
 11
-280.534688
 21
-79.113637
 31
0.0
  0
LINE
  5
45C
100
AcDbEntity
  8
3
370
    25
100
AcDbLine
 10
-280.534688
 20
-79.113637
 30
0.0
 11
-277.070587
 21
-77.113637
 31
0.0
  0
LINE
  5
45D
100
AcDbEntity
  8
3
370
    25
100
AcDbLine
 10
-280.534688
 20
-79.113637
 30
0.0
 11
-278.534688
 21
-75.649536
 31
0.0
  0
LINE
  5
45E
100
AcDbEntity
  8
3
370
    25
100
AcDbLine
 10
-277.070587
 20
-77.113637
 30
0.0
 11
-278.534688
 21
-75.649536
 31
0.0
  0
LINE
  5
45F
100
AcDbEntity
  8
3
370
    25
100
AcDbLine
 10
-238.832752
 20
-120.815574
 30
0.0
 11
-281.948902
 21
-77.699424
 31
0.0
  0
ENDBLK
  5
460
100
AcDbEntity
  8
3
100
AcDbBlockEnd
  0
BLOCK
  5
461
100
AcDbEntity
  8
3
100
AcDbBlockBegin
  2
*D5
 70
     1
 10
0.0
 20
0.0
 30
0.0
  3
*D5
  1

  0
TEXT
  5
462
100
AcDbEntity
  8
3
370
    25
100
AcDbText
 10
24.137932
 20
-74.445517
 30
0.0
 40
7.0
  1
（７７）
 50
90.0
 72
     5
 11
24.137932
 21
-47.845517
 31
0.0
100
AcDbText
  0
LINE
  5
463
100
AcDbEntity
  8
3
370
    25
100
AcDbLine
 10
91.865733
 20
-98.945517
 30
0.0
 11
23.137932
 21
-98.945517
 31
0.0
  0
LINE
  5
464
100
AcDbEntity
  8
3
370
    25
100
AcDbLine
 10
25.137932
 20
-98.945517
 30
0.0
 11
26.173208
 21
-95.081813
 31
0.0
  0
LINE
  5
465
100
AcDbEntity
  8
3
370
    25
100
AcDbLine
 10
25.137932
 20
-98.945517
 30
0.0
 11
24.102656
 21
-95.081813
 31
0.0
  0
LINE
  5
466
100
AcDbEntity
  8
3
370
    25
100
AcDbLine
 10
26.173208
 20
-95.081813
 30
0.0
 11
24.102656
 21
-95.081813
 31
0.0
  0
LINE
  5
467
100
AcDbEntity
  8
3
370
    25
100
AcDbLine
 10
25.137932
 20
-98.945517
 30
0.0
 11
25.137932
 21
-21.945517
 31
0.0
  0
LINE
  5
468
100
AcDbEntity
  8
3
370
    25
100
AcDbLine
 10
25.137932
 20
-21.945517
 30
0.0
 11
24.102656
 21
-25.80922
 31
0.0
  0
LINE
  5
469
100
AcDbEntity
  8
3
370
    25
100
AcDbLine
 10
25.137932
 20
-21.945517
 30
0.0
 11
26.173208
 21
-25.80922
 31
0.0
  0
LINE
  5
46A
100
AcDbEntity
  8
3
370
    25
100
AcDbLine
 10
24.102656
 20
-25.80922
 30
0.0
 11
26.173208
 21
-25.80922
 31
0.0
  0
LINE
  5
46B
100
AcDbEntity
  8
3
370
    25
100
AcDbLine
 10
91.878456
 20
-21.945517
 30
0.0
 11
23.137932
 21
-21.945517
 31
0.0
  0
ENDBLK
  5
46C
100
AcDbEntity
  8
3
100
AcDbBlockEnd
  0
BLOCK
  5
46D
100
AcDbEntity
  8
3
100
AcDbBlockBegin
  2
*D6
 70
     1
 10
0.0
 20
0.0
 30
0.0
  3
*D6
  1

  0
TEXT
  5
46E
100
AcDbEntity
  8
3
370
    25
100
AcDbText
 10
24.137932
 20
-140.445616
 30
0.0
 40
7.0
  1
６９
 50
90.0
 72
     5
 11
24.137932
 21
-127.845616
 31
0.0
100
AcDbText
  0
LINE
  5
46F
100
AcDbEntity
  8
3
370
    25
100
AcDbLine
 10
85.01468
 20
-167.945716
 30
0.0
 11
23.137932
 21
-167.945716
 31
0.0
  0
LINE
  5
470
100
AcDbEntity
  8
3
370
    25
100
AcDbLine
 10
25.137932
 20
-167.945716
 30
0.0
 11
26.173208
 21
-164.082012
 31
0.0
  0
LINE
  5
471
100
AcDbEntity
  8
3
370
    25
100
AcDbLine
 10
25.137932
 20
-167.945716
 30
0.0
 11
24.102656
 21
-164.082012
 31
0.0
  0
LINE
  5
472
100
AcDbEntity
  8
3
370
    25
100
AcDbLine
 10
26.173208
 20
-164.082012
 30
0.0
 11
24.102656
 21
-164.082012
 31
0.0
  0
LINE
  5
473
100
AcDbEntity
  8
3
370
    25
100
AcDbLine
 10
25.137932
 20
-167.945716
 30
0.0
 11
25.137932
 21
-98.945517
 31
0.0
  0
LINE
  5
474
100
AcDbEntity
  8
3
370
    25
100
AcDbLine
 10
25.137932
 20
-98.945517
 30
0.0
 11
24.102656
 21
-102.80922
 31
0.0
  0
LINE
  5
475
100
AcDbEntity
  8
3
370
    25
100
AcDbLine
 10
25.137932
 20
-98.945517
 30
0.0
 11
26.173208
 21
-102.80922
 31
0.0
  0
LINE
  5
476
100
AcDbEntity
  8
3
370
    25
100
AcDbLine
 10
24.102656
 20
-102.80922
 30
0.0
 11
26.173208
 21
-102.80922
 31
0.0
  0
LINE
  5
477
100
AcDbEntity
  8
3
370
    25
100
AcDbLine
 10
91.865733
 20
-98.945517
 30
0.0
 11
23.137932
 21
-98.945517
 31
0.0
  0
ENDBLK
  5
478
100
AcDbEntity
  8
3
100
AcDbBlockEnd
  0
BLOCK
  5
479
100
AcDbEntity
  8
3
100
AcDbBlockBegin
  2
*D7
 70
     1
 10
0.0
 20
0.0
 30
0.0
  3
*D7
  1

  0
TEXT
  5
47A
100
AcDbEntity
  8
3
370
    25
100
AcDbText
 10
43.260227
 20
-165.445716
 30
0.0
 40
7.0
  1
１９
 50
90.0
 72
     5
 11
43.260227
 21
-152.845716
 31
0.0
100
AcDbText
  0
LINE
  5
47B
100
AcDbEntity
  8
3
370
    25
100
AcDbLine
 10
85.01468
 20
-167.945716
 30
0.0
 11
42.260227
 21
-167.945716
 31
0.0
  0
LINE
  5
47C
100
AcDbEntity
  8
3
370
    25
100
AcDbLine
 10
44.260227
 20
-167.945716
 30
0.0
 11
45.295503
 21
-164.082012
 31
0.0
  0
LINE
  5
47D
100
AcDbEntity
  8
3
370
    25
100
AcDbLine
 10
44.260227
 20
-167.945716
 30
0.0
 11
43.224951
 21
-164.082012
 31
0.0
  0
LINE
  5
47E
100
AcDbEntity
  8
3
370
    25
100
AcDbLine
 10
45.295503
 20
-164.082012
 30
0.0
 11
43.224951
 21
-164.082012
 31
0.0
  0
LINE
  5
47F
100
AcDbEntity
  8
3
370
    25
100
AcDbLine
 10
44.260227
 20
-167.945716
 30
0.0
 11
44.260227
 21
-148.945716
 31
0.0
  0
LINE
  5
480
100
AcDbEntity
  8
3
370
    25
100
AcDbLine
 10
44.260227
 20
-148.945716
 30
0.0
 11
43.224951
 21
-152.809419
 31
0.0
  0
LINE
  5
481
100
AcDbEntity
  8
3
370
    25
100
AcDbLine
 10
44.260227
 20
-148.945716
 30
0.0
 11
45.295503
 21
-152.809419
 31
0.0
  0
LINE
  5
482
100
AcDbEntity
  8
3
370
    25
100
AcDbLine
 10
43.224951
 20
-152.809419
 30
0.0
 11
45.295503
 21
-152.809419
 31
0.0
  0
LINE
  5
483
100
AcDbEntity
  8
3
370
    25
100
AcDbLine
 10
71.722599
 20
-148.945716
 30
0.0
 11
42.260227
 21
-148.945716
 31
0.0
  0
ENDBLK
  5
484
100
AcDbEntity
  8
3
100
AcDbBlockEnd
  0
BLOCK
  5
485
100
AcDbEntity
  8
3
100
AcDbBlockBegin
  2
*D8
 70
     1
 10
0.0
 20
0.0
 30
0.0
  3
*D8
  1

  0
LINE
  5
486
100
AcDbEntity
  8
3
370
    25
100
AcDbLine
 10
-237.418538
 20
-124.229788
 30
0.0
 11
-237.418538
 21
-207.007767
 31
0.0
  0
LINE
  5
487
100
AcDbEntity
  8
3
370
    25
100
AcDbLine
 10
-237.418538
 20
-205.007767
 30
0.0
 11
-233.554835
 21
-206.043043
 31
0.0
  0
LINE
  5
488
100
AcDbEntity
  8
3
370
    25
100
AcDbLine
 10
-237.418538
 20
-205.007767
 30
0.0
 11
-233.554835
 21
-203.972491
 31
0.0
  0
LINE
  5
489
100
AcDbEntity
  8
3
370
    25
100
AcDbLine
 10
-233.554835
 20
-206.043043
 30
0.0
 11
-233.554835
 21
-203.972491
 31
0.0
  0
LINE
  5
48A
100
AcDbEntity
  8
3
370
    25
100
AcDbLine
 10
-237.418538
 20
-205.007767
 30
0.0
 11
-45.849995
 21
-205.007767
 31
0.0
  0
LINE
  5
48B
100
AcDbEntity
  8
3
370
    25
100
AcDbLine
 10
-45.849995
 20
-205.007767
 30
0.0
 11
-49.713699
 21
-203.972491
 31
0.0
  0
LINE
  5
48C
100
AcDbEntity
  8
3
370
    25
100
AcDbLine
 10
-45.849995
 20
-205.007767
 30
0.0
 11
-49.713699
 21
-206.043043
 31
0.0
  0
LINE
  5
48D
100
AcDbEntity
  8
3
370
    25
100
AcDbLine
 10
-49.713699
 20
-203.972491
 30
0.0
 11
-49.713699
 21
-206.043043
 31
0.0
  0
LINE
  5
48E
100
AcDbEntity
  8
3
370
    25
100
AcDbLine
 10
-45.849995
 20
-124.229788
 30
0.0
 11
-45.849995
 21
-207.007767
 31
0.0
  0
ENDBLK
  5
48F
100
AcDbEntity
  8
3
100
AcDbBlockEnd
  0
BLOCK
  5
490
100
AcDbEntity
  8
3
100
AcDbBlockBegin
  2
*D9
 70
     1
 10
0.0
 20
0.0
 30
0.0
  3
*D9
  1

  0
TEXT
  5
491
100
AcDbEntity
  8
3
370
    25
100
AcDbText
 10
83.36468
 20
-190.694199
 30
0.0
 40
7.0
  1
φ４４
 72
     5
 11
102.96468
 21
-190.694199
 31
0.0
100
AcDbText
  0
LINE
  5
492
100
AcDbEntity
  8
3
370
    25
100
AcDbLine
 10
115.86468
 20
-149.245716
 30
0.0
 11
115.86468
 21
-193.694199
 31
0.0
  0
LINE
  5
493
100
AcDbEntity
  8
3
370
    25
100
AcDbLine
 10
115.86468
 20
-191.694199
 30
0.0
 11
112.000976
 21
-190.658922
 31
0.0
  0
LINE
  5
494
100
AcDbEntity
  8
3
370
    25
100
AcDbLine
 10
115.86468
 20
-191.694199
 30
0.0
 11
112.000976
 21
-192.729475
 31
0.0
  0
LINE
  5
495
100
AcDbEntity
  8
3
370
    25
100
AcDbLine
 10
112.000976
 20
-190.658922
 30
0.0
 11
112.000976
 21
-192.729475
 31
0.0
  0
LINE
  5
496
100
AcDbEntity
  8
3
370
    25
100
AcDbLine
 10
115.86468
 20
-191.694199
 30
0.0
 11
71.86468
 21
-191.694199
 31
0.0
  0
LINE
  5
497
100
AcDbEntity
  8
3
370
    25
100
AcDbLine
 10
71.86468
 20
-191.694199
 30
0.0
 11
75.728383
 21
-192.729475
 31
0.0
  0
LINE
  5
498
100
AcDbEntity
  8
3
370
    25
100
AcDbLine
 10
71.86468
 20
-191.694199
 30
0.0
 11
75.728383
 21
-190.658922
 31
0.0
  0
LINE
  5
499
100
AcDbEntity
  8
3
370
    25
100
AcDbLine
 10
75.728383
 20
-192.729475
 30
0.0
 11
75.728383
 21
-190.658922
 31
0.0
  0
LINE
  5
49A
100
AcDbEntity
  8
3
370
    25
100
AcDbLine
 10
71.86468
 20
-149.245716
 30
0.0
 11
71.86468
 21
-193.694199
 31
0.0
  0
ENDBLK
  5
49B
100
AcDbEntity
  8
3
100
AcDbBlockEnd
  0
ENDSEC
  0
SECTION
  2
ENTITIES
  0
LINE
  5
2E
100
AcDbEntity
  8
1
370
   100
100
AcDbLine
 10
-373.02157
 20
275.028767
 30
0.0
 11
394.982385
 21
275.028767
 31
0.0
  0
LINE
  5
2F
100
AcDbEntity
  8
1
370
   100
100
AcDbLine
 10
-373.02157
 20
275.028767
 30
0.0
 11
-373.02157
 21
-277.971881
 31
0.0
  0
LINE
  5
30
100
AcDbEntity
  8
1
370
   100
100
AcDbLine
 10
-373.02157
 20
-277.971881
 30
0.0
 11
394.982385
 21
-277.971881
 31
0.0
  0
LINE
  5
31
100
AcDbEntity
  8
1
370
   100
100
AcDbLine
 10
394.982385
 20
-277.971881
 30
0.0
 11
394.982385
 21
275.028767
 31
0.0
  0
TEXT
  5
32
100
AcDbEntity
  8
1
370
    50
100
AcDbText
 10
359.628442
 20
-226.252857
 30
0.0
 40
6.0
  1
設計
 72
     5
 11
370.428442
 21
-226.252857
 31
0.0
100
AcDbText
  0
TEXT
  5
33
100
AcDbEntity
  8
1
370
    50
100
AcDbText
 10
379.127478
 20
-226.099658
 30
0.0
 40
6.0
  1
製図
 72
     5
 11
389.927478
 21
-226.099658
 31
0.0
100
AcDbText
  0
TEXT
  5
34
100
AcDbEntity
  8
1
370
    50
100
AcDbText
 10
319.005745
 20
-226.252857
 30
0.0
 40
6.0
  1
承認
 72
     5
 11
329.805745
 21
-226.252857
 31
0.0
100
AcDbText
  0
TEXT
  5
35
100
AcDbEntity
  8
1
370
    50
100
AcDbText
 10
338.989679
 20
-226.19802
 30
0.0
 40
6.0
  1
検図
 72
     5
 11
349.789679
 21
-226.19802
 31
0.0
100
AcDbText
  0
LINE
  5
36
100
AcDbEntity
  8
1
370
    25
100
AcDbLine
 10
284.982385
 20
-227.971881
 30
0.0
 11
394.982385
 21
-227.971881
 31
0.0
  0
LINE
  5
37
100
AcDbEntity
  8
1
370
    25
100
AcDbLine
 10
342.482385
 20
-245.971881
 30
0.0
 11
342.482385
 21
-259.971881
 31
0.0
  0
TEXT
  5
38
100
AcDbEntity
  8
1
370
    50
100
AcDbText
 10
319.55159
 20
-256.012528
 30
0.0
 40
6.0
  1
日　付
 72
     5
 11
336.35159
 21
-256.012528
 31
0.0
100
AcDbText
  0
LINE
  5
39
100
AcDbEntity
  8
1
370
    50
100
AcDbLine
 10
40.982385
 20
-259.971881
 30
0.0
 11
394.982385
 21
-259.971881
 31
0.0
  0
TEXT
  5
3A
100
AcDbEntity
  8
1
370
    50
100
AcDbText
 10
287.775011
 20
-256.322406
 30
0.0
 40
6.0
  1
第三角法
 72
     5
 11
310.575011
 21
-256.322406
 31
0.0
100
AcDbText
  0
TEXT
  5
3B
100
AcDbEntity
  8
1
370
    50
100
AcDbText
 10
291.087419
 20
-225.99802
 30
0.0
 40
6.0
  1
尺　度
 72
     5
 11
307.887419
 21
-225.99802
 31
0.0
100
AcDbText
  0
LINE
  5
3C
100
AcDbEntity
  8
1
370
   100
100
AcDbLine
 10
40.982385
 20
-217.971881
 30
0.0
 11
394.982385
 21
-217.971881
 31
0.0
  0
LINE
  5
3D
100
AcDbEntity
  8
1
370
    50
100
AcDbLine
 10
211.982385
 20
-217.971881
 30
0.0
 11
211.982385
 21
-277.971881
 31
0.0
  0
LINE
  5
3E
100
AcDbEntity
  8
1
370
    25
100
AcDbLine
 10
374.982385
 20
-245.971881
 30
0.0
 11
374.982385
 21
-217.971881
 31
0.0
  0
LINE
  5
3F
100
AcDbEntity
  8
1
370
    25
100
AcDbLine
 10
354.982385
 20
-245.971881
 30
0.0
 11
354.982385
 21
-217.971881
 31
0.0
  0
LINE
  5
40
100
AcDbEntity
  8
1
370
    25
100
AcDbLine
 10
334.982385
 20
-245.971881
 30
0.0
 11
334.982385
 21
-217.971881
 31
0.0
  0
LINE
  5
41
100
AcDbEntity
  8
1
370
    50
100
AcDbLine
 10
284.982385
 20
-277.971881
 30
0.0
 11
284.982385
 21
-217.971881
 31
0.0
  0
LINE
  5
42
100
AcDbEntity
  8
1
370
    50
100
AcDbLine
 10
189.982385
 20
-217.971881
 30
0.0
 11
189.982385
 21
-277.971881
 31
0.0
  0
LINE
  5
43
100
AcDbEntity
  8
1
370
    50
100
AcDbLine
 10
62.982385
 20
-217.971881
 30
0.0
 11
62.982385
 21
-259.971881
 31
0.0
  0
LINE
  5
44
100
AcDbEntity
  8
1
370
    50
100
AcDbLine
 10
284.982385
 20
-245.971881
 30
0.0
 11
394.982385
 21
-245.971881
 31
0.0
  0
TEXT
  5
45
100
AcDbEntity
  8
1
370
    50
100
AcDbText
 10
287.101129
 20
-271.880939
 30
0.0
 40
6.0
  1
コードＮｏ
 41
0.9
 72
     5
 11
313.021129
 21
-271.880939
 31
0.0
100
AcDbText
  0
TEXT
  5
46
100
AcDbEntity
  8
1
370
   100
100
AcDbText
 10
52.886774
 20
-272.875659
 30
0.0
 40
8.0
  1
ミズタニバルブ工業株式会社
 41
1.2
 72
     5
 11
175.766774
 21
-272.875659
 31
0.0
100
AcDbText
  0
LINE
  5
47
100
AcDbEntity
  8
1
370
    50
100
AcDbLine
 10
40.982385
 20
-238.971881
 30
0.0
 11
284.982385
 21
-238.971881
 31
0.0
  0
LINE
  5
48
100
AcDbEntity
  8
1
370
    50
100
AcDbLine
 10
115.482385
 20
-238.971881
 30
0.0
 11
115.482385
 21
-259.971881
 31
0.0
  0
LINE
  5
49
100
AcDbEntity
  8
1
370
    50
100
AcDbLine
 10
137.482385
 20
-238.971881
 30
0.0
 11
137.482385
 21
-259.971881
 31
0.0
  0
LINE
  5
4A
100
AcDbEntity
  8
1
370
    50
100
AcDbLine
 10
314.982385
 20
-277.971881
 30
0.0
 11
314.982385
 21
-217.971881
 31
0.0
  0
TEXT
  5
4B
100
AcDbEntity
  8
1
370
    50
100
AcDbText
 10
345.098131
 20
-256.100293
 30
0.0
 40
6.0
  1
　　・　　・
 72
     5
 11
379.898131
 21
-256.100293
 31
0.0
100
AcDbText
  0
LINE
  5
4C
100
AcDbEntity
  8
1
370
   100
100
AcDbLine
 10
40.982385
 20
-217.971881
 30
0.0
 11
40.982385
 21
-277.971881
 31
0.0
  0
TEXT
  5
4D
100
AcDbEntity
  8
1
370
    50
100
AcDbText
 10
290.832582
 20
-240.013492
 30
0.0
 40
6.0
  1
　／ 
 72
     5
 11
301.632582
 21
-240.013492
 31
0.0
100
AcDbText
  0
TEXT
  5
4E
100
AcDbEntity
  8
1
370
    50
100
AcDbText
 10
193.904123
 20
-272.024909
 30
0.0
 40
6.0
  1
備 考 
 72
     5
 11
207.704123
 21
-272.024909
 31
0.0
100
AcDbText
  0
TEXT
  5
4F
100
AcDbEntity
  8
1
370
    50
100
AcDbText
 10
193.512534
 20
-230.89184
 30
0.0
 40
6.0
  1
仕 上
 72
     5
 11
207.312534
 21
-230.89184
 31
0.0
100
AcDbText
  0
TEXT
  5
50
100
AcDbEntity
  8
1
370
    50
100
AcDbText
 10
193.447176
 20
-248.891666
 30
0.0
 40
6.0
  1
表 面
 72
     5
 11
207.247176
 21
-248.891666
 31
0.0
100
AcDbText
  0
TEXT
  5
51
100
AcDbEntity
  8
1
370
    50
100
AcDbText
 10
193.447176
 20
-255.891666
 30
0.0
 40
6.0
  1
処 理
 72
     5
 11
207.247176
 21
-255.891666
 31
0.0
100
AcDbText
  0
TEXT
  5
52
100
AcDbEntity
  8
1
370
    50
100
AcDbText
 10
44.79335
 20
-231.693399
 30
0.0
 40
6.0
  1
品 名
 72
     5
 11
58.59335
 21
-231.693399
 31
0.0
100
AcDbText
  0
TEXT
  5
53
100
AcDbEntity
  8
1
370
    50
100
AcDbText
 10
44.397766
 20
-252.462534
 30
0.0
 40
6.0
  1
材 質
 72
     5
 11
58.197766
 21
-252.462534
 31
0.0
100
AcDbText
  0
TEXT
  5
54
100
AcDbEntity
  8
1
370
    50
100
AcDbText
 10
118.897766
 20
-252.462534
 30
0.0
 40
6.0
  1
規 格
 72
     5
 11
132.697766
 21
-252.462534
 31
0.0
100
AcDbText
  0
ARC
  5
55
100
AcDbEntity
  8
2
370
    50
100
AcDbCircle
 10
-134.415507
 20
-51.524679
 30
0.0
 40
100.0
100
AcDbArc
 50
168.537652
 51
188.388164
  0
ARC
  5
56
100
AcDbEntity
  8
2
370
    50
100
AcDbCircle
 10
-283.853104
 20
-51.524679
 30
0.0
 40
100.0
100
AcDbArc
 50
351.611836
 51
11.462348
  0
ARC
  5
57
100
AcDbEntity
  8
2
370
    50
100
AcDbCircle
 10
-209.134306
 20
-163.639602
 30
0.0
 40
140.0
100
AcDbArc
 50
93.788374
 51
96.34007
  0
ARC
  5
58
100
AcDbEntity
  8
2
370
    50
100
AcDbCircle
 10
-209.134306
 20
-163.639602
 30
0.0
 40
140.0
100
AcDbArc
 50
83.65993
 51
86.211626
  0
ARC
  5
59
100
AcDbEntity
  8
2
370
    50
100
AcDbCircle
 10
-223.600558
 20
-33.440802
 30
0.0
 40
9.0
100
AcDbArc
 50
96.34007
 51
168.537652
  0
ARC
  5
5A
100
AcDbEntity
  8
2
370
    50
100
AcDbCircle
 10
-194.668053
 20
-33.440802
 30
0.0
 40
9.0
100
AcDbArc
 50
11.462348
 51
83.65993
  0
ARC
  5
5B
100
AcDbEntity
  8
2
370
    50
100
AcDbCircle
 10
-225.431336
 20
-64.945517
 30
0.0
 40
8.0
100
AcDbArc
 50
188.388164
 51
270.0
  0
ARC
  5
5C
100
AcDbEntity
  8
2
370
    50
100
AcDbCircle
 10
-192.837275
 20
-64.945517
 30
0.0
 40
8.0
100
AcDbArc
 50
270.0
 51
351.611836
  0
LINE
  5
5D
100
AcDbEntity
  8
2
370
    50
100
AcDbLine
 10
-225.431336
 20
-72.945517
 30
0.0
 11
-192.837275
 21
-72.945517
 31
0.0
  0
LINE
  5
5E
100
AcDbEntity
  8
2
370
    50
100
AcDbLine
 10
-217.884306
 20
-23.326578
 30
0.0
 11
-217.884306
 21
-23.945517
 31
0.0
  0
LINE
  5
5F
100
AcDbEntity
  8
2
370
    50
100
AcDbLine
 10
-200.384306
 20
-23.326578
 30
0.0
 11
-200.384306
 21
-23.945517
 31
0.0
  0
ARC
  5
60
100
AcDbEntity
  8
2
370
    50
100
AcDbCircle
 10
-216.884306
 20
-23.326578
 30
0.0
 40
1.0
100
AcDbArc
 50
95.629843
 51
180.0
  0
ARC
  5
61
100
AcDbEntity
  8
2
370
    50
100
AcDbCircle
 10
-201.384306
 20
-23.326578
 30
0.0
 40
1.0
100
AcDbArc
 50
0.0
 51
84.370157
  0
ARC
  5
62
100
AcDbEntity
  8
2
370
    50
100
AcDbCircle
 10
-209.134306
 20
-101.945517
 30
0.0
 40
80.0
100
AcDbArc
 50
84.370157
 51
95.629843
  0
LINE
  5
63
100
AcDbEntity
  8
2
370
    50
100
AcDbLine
 10
-218.384306
 20
-23.945517
 30
0.0
 11
-199.884306
 21
-23.945517
 31
0.0
  0
ARC
  5
64
100
AcDbEntity
  8
2
370
    50
100
AcDbCircle
 10
0.597255
 20
-51.524679
 30
0.0
 40
100.0
100
AcDbArc
 50
168.537652
 51
188.388164
  0
ARC
  5
65
100
AcDbEntity
  8
2
370
    50
100
AcDbCircle
 10
-88.587796
 20
-33.440802
 30
0.0
 40
9.0
100
AcDbArc
 50
96.34007
 51
168.537652
  0
ARC
  5
66
100
AcDbEntity
  8
2
370
    50
100
AcDbCircle
 10
-74.121544
 20
-163.639602
 30
0.0
 40
140.0
100
AcDbArc
 50
93.788374
 51
96.34007
  0
ARC
  5
67
100
AcDbEntity
  8
2
370
    50
100
AcDbCircle
 10
-81.871544
 20
-23.326578
 30
0.0
 40
1.0
100
AcDbArc
 50
95.629843
 51
180.0
  0
ARC
  5
68
100
AcDbEntity
  8
2
370
    50
100
AcDbCircle
 10
-74.121544
 20
-101.945517
 30
0.0
 40
80.0
100
AcDbArc
 50
84.370157
 51
95.629843
  0
ARC
  5
69
100
AcDbEntity
  8
2
370
    50
100
AcDbCircle
 10
-66.371544
 20
-23.326578
 30
0.0
 40
1.0
100
AcDbArc
 50
0.0
 51
84.370157
  0
LINE
  5
6A
100
AcDbEntity
  8
2
370
    50
100
AcDbLine
 10
-64.871544
 20
-23.945517
 30
0.0
 11
-83.371544
 21
-23.945517
 31
0.0
  0
ARC
  5
6B
100
AcDbEntity
  8
2
370
    50
100
AcDbCircle
 10
-74.121544
 20
-163.639602
 30
0.0
 40
140.0
100
AcDbArc
 50
83.65993
 51
86.211626
  0
ARC
  5
6C
100
AcDbEntity
  8
2
370
    50
100
AcDbCircle
 10
-59.655291
 20
-33.440802
 30
0.0
 40
9.0
100
AcDbArc
 50
11.462348
 51
83.65993
  0
ARC
  5
6D
100
AcDbEntity
  8
2
370
    50
100
AcDbCircle
 10
-148.840343
 20
-51.524679
 30
0.0
 40
100.0
100
AcDbArc
 50
351.611836
 51
11.462348
  0
ARC
  5
6E
100
AcDbEntity
  8
2
370
    50
100
AcDbCircle
 10
-57.824514
 20
-64.945517
 30
0.0
 40
8.0
100
AcDbArc
 50
270.0
 51
351.611836
  0
LINE
  5
6F
100
AcDbEntity
  8
2
370
    50
100
AcDbLine
 10
-57.824514
 20
-72.945517
 30
0.0
 11
-86.121544
 21
-72.945517
 31
0.0
  0
LINE
  5
70
100
AcDbEntity
  8
2
370
    50
100
AcDbLine
 10
-86.121544
 20
-72.945517
 30
0.0
 11
-90.418574
 21
-72.945517
 31
0.0
  0
ARC
  5
71
100
AcDbEntity
  8
2
370
    50
100
AcDbCircle
 10
-90.418574
 20
-64.945517
 30
0.0
 40
8.0
100
AcDbArc
 50
188.388164
 51
270.0
  0
LINE
  5
72
100
AcDbEntity
  8
2
370
    50
100
AcDbLine
 10
-65.371544
 20
-23.326578
 30
0.0
 11
-65.371544
 21
-23.945517
 31
0.0
  0
LINE
  5
73
100
AcDbEntity
  8
2
370
    50
100
AcDbLine
 10
-82.871544
 20
-23.326578
 30
0.0
 11
-82.871544
 21
-23.945517
 31
0.0
  0
ARC
  5
74
100
AcDbEntity
  8
2
370
    50
100
AcDbCircle
 10
-183.786484
 20
-52.039851
 30
0.0
 40
120.0
100
AcDbArc
 50
355.059572
 51
9.155483
  0
ARC
  5
75
100
AcDbEntity
  8
2
370
    50
100
AcDbCircle
 10
35.543397
 20
-52.039851
 30
0.0
 40
120.0
100
AcDbArc
 50
170.844517
 51
184.940428
  0
ARC
  5
76
100
AcDbEntity
  8
2
370
    50
100
AcDbCircle
 10
-74.121544
 20
-34.365437
 30
0.0
 40
8.91992
100
AcDbArc
 50
9.155483
 51
170.844517
  0
ARC
  5
77
100
AcDbEntity
  8
2
370
    50
100
AcDbCircle
 10
-74.121544
 20
-61.519406
 30
0.0
 40
9.926111
100
AcDbArc
 50
184.940428
 51
355.059572
  0
LINE
  5
78
100
AcDbEntity
  8
2
370
    50
100
AcDbLine
 10
-59.621544
 20
-27.445517
 30
0.0
 11
-59.621544
 21
-68.445517
 31
0.0
  0
LINE
  5
79
100
AcDbEntity
  8
2
370
    50
100
AcDbLine
 10
-88.621544
 20
-27.445517
 30
0.0
 11
-88.621544
 21
-68.445517
 31
0.0
  0
ARC
  5
7A
100
AcDbEntity
  8
2
370
    50
100
AcDbCircle
 10
-148.840343
 20
-51.524679
 30
0.0
 40
99.5
100
AcDbArc
 50
352.362481
 51
11.528523
  0
ARC
  5
7B
100
AcDbEntity
  8
2
370
    50
100
AcDbCircle
 10
0.597255
 20
-51.524679
 30
0.0
 40
99.5
100
AcDbArc
 50
168.471477
 51
187.637519
  0
ARC
  5
7C
100
AcDbEntity
  8
2
370
    50
100
AcDbCircle
 10
-89.056763
 20
-33.237879
 30
0.0
 40
8.0
100
AcDbArc
 50
105.117347
 51
168.471477
  0
ARC
  5
7D
100
AcDbEntity
  8
2
370
    50
100
AcDbCircle
 10
-90.621544
 20
-27.445517
 30
0.0
 40
2.0
100
AcDbArc
 50
0.0
 51
105.117347
  0
ARC
  5
7E
100
AcDbEntity
  8
2
370
    50
100
AcDbCircle
 10
-59.186325
 20
-33.237879
 30
0.0
 40
8.0
100
AcDbArc
 50
11.528523
 51
74.882653
  0
ARC
  5
7F
100
AcDbEntity
  8
2
370
    50
100
AcDbCircle
 10
-57.621544
 20
-27.445517
 30
0.0
 40
2.0
100
AcDbArc
 50
74.882653
 51
180.0
  0
ARC
  5
80
100
AcDbEntity
  8
2
370
    50
100
AcDbCircle
 10
-90.091023
 20
-63.685526
 30
0.0
 40
8.0
100
AcDbArc
 50
187.637519
 51
252.175397
  0
ARC
  5
81
100
AcDbEntity
  8
2
370
    50
100
AcDbCircle
 10
-91.621544
 20
-68.445517
 30
0.0
 40
3.0
100
AcDbArc
 50
252.175397
 51
360.0
  0
ARC
  5
82
100
AcDbEntity
  8
2
370
    50
100
AcDbCircle
 10
-56.621544
 20
-68.445517
 30
0.0
 40
3.0
100
AcDbArc
 50
180.0
 51
287.824603
  0
ARC
  5
83
100
AcDbEntity
  8
2
370
    50
100
AcDbCircle
 10
-58.152064
 20
-63.685526
 30
0.0
 40
8.0
100
AcDbArc
 50
287.824603
 51
352.362481
  0
LINE
  5
84
100
AcDbEntity
  8
2
370
    25
  6
CENTER
100
AcDbLine
 10
-209.134267
 20
-111.109476
 30
0.0
 11
-209.134267
 21
-17.918743
 31
0.0
  0
LINE
  5
85
100
AcDbEntity
  8
2
370
    50
100
AcDbLine
 10
-166.634267
 20
-102.695517
 30
0.0
 11
-182.470855
 21
-102.695517
 31
0.0
  0
LINE
  5
86
100
AcDbEntity
  8
2
370
    50
100
AcDbLine
 10
-196.634267
 20
-73.195517
 30
0.0
 11
-196.634267
 21
-72.945517
 31
0.0
  0
LINE
  5
87
100
AcDbEntity
  8
2
370
    50
100
AcDbLine
 10
-154.634267
 20
-114.695517
 30
0.0
 11
-154.634267
 21
-115.946359
 31
0.0
  0
LINE
  5
88
100
AcDbEntity
  8
2
370
    50
100
AcDbLine
 10
-221.634267
 20
-72.945517
 30
0.0
 11
-221.634267
 21
-96.445517
 31
0.0
  0
ARC
  5
89
100
AcDbEntity
  8
2
370
    50
100
AcDbCircle
 10
-166.634267
 20
-114.695517
 30
0.0
 40
12.0
100
AcDbArc
 50
0.0
 51
90.0
  0
LINE
  5
8A
100
AcDbEntity
  8
2
370
    25
  6
CENTER
100
AcDbLine
 10
-230.555054
 20
-93.945517
 30
0.0
 11
-53.950502
 21
-93.945517
 31
0.0
  0
ARC
  5
8B
100
AcDbEntity
  8
2
370
    50
100
AcDbCircle
 10
-209.134267
 20
-96.445517
 30
0.0
 40
12.5
100
AcDbArc
 50
180.0
 51
270.0
  0
LINE
  5
8C
100
AcDbEntity
  8
2
370
    50
100
AcDbLine
 10
-116.634267
 20
-102.695517
 30
0.0
 11
-100.797678
 21
-102.695517
 31
0.0
  0
LINE
  5
8D
100
AcDbEntity
  8
2
370
    50
100
AcDbLine
 10
-86.634267
 20
-73.195517
 30
0.0
 11
-86.634267
 21
-72.945517
 31
0.0
  0
LINE
  5
8E
100
AcDbEntity
  8
2
370
    50
100
AcDbLine
 10
-128.634267
 20
-114.695517
 30
0.0
 11
-128.634267
 21
-115.946359
 31
0.0
  0
LINE
  5
8F
100
AcDbEntity
  8
2
370
    25
  6
CENTER
100
AcDbLine
 10
-74.134267
 20
-111.109476
 30
0.0
 11
-74.134267
 21
-17.918743
 31
0.0
  0
LINE
  5
90
100
AcDbEntity
  8
2
370
    50
100
AcDbLine
 10
-61.634267
 20
-72.945517
 30
0.0
 11
-61.634267
 21
-96.445517
 31
0.0
  0
ARC
  5
91
100
AcDbEntity
  8
2
370
    50
100
AcDbCircle
 10
-116.634267
 20
-114.695517
 30
0.0
 40
12.0
100
AcDbArc
 50
90.0
 51
180.0
  0
ARC
  5
92
100
AcDbEntity
  8
2
370
    50
100
AcDbCircle
 10
-141.634267
 20
-583.386657
 30
0.0
 40
500.0
100
AcDbArc
 50
85.182375
 51
94.817625
  0
ARC
  5
93
100
AcDbEntity
  8
2
370
    50
100
AcDbCircle
 10
-184.634267
 20
-73.195517
 30
0.0
 40
12.0
100
AcDbArc
 50
180.0
 51
274.817625
  0
ARC
  5
94
100
AcDbEntity
  8
2
370
    50
100
AcDbCircle
 10
-98.634267
 20
-73.195517
 30
0.0
 40
12.0
100
AcDbArc
 50
265.182375
 51
360.0
  0
ARC
  5
95
100
AcDbEntity
  8
2
370
    50
100
AcDbCircle
 10
-74.134267
 20
-96.445517
 30
0.0
 40
12.5
100
AcDbArc
 50
270.0
 51
360.0
  0
ARC
  5
96
100
AcDbEntity
  8
2
370
    50
100
AcDbCircle
 10
-100.797678
 20
-132.695517
 30
0.0
 40
30.0
100
AcDbArc
 50
63.61567
 51
90.0
  0
ARC
  5
97
100
AcDbEntity
  8
2
370
    50
100
AcDbCircle
 10
-74.134267
 20
-78.945517
 30
0.0
 40
30.0
100
AcDbArc
 50
243.61567
 51
270.0
  0
ARC
  5
98
100
AcDbEntity
  8
2
370
    50
100
AcDbCircle
 10
-182.470855
 20
-132.695517
 30
0.0
 40
30.0
100
AcDbArc
 50
90.0
 51
116.38433
  0
ARC
  5
99
100
AcDbEntity
  8
2
370
    50
100
AcDbCircle
 10
-209.134267
 20
-78.945517
 30
0.0
 40
30.0
100
AcDbArc
 50
270.0
 51
296.38433
  0
LINE
  5
9A
100
AcDbEntity
  8
2
370
    50
100
AcDbLine
 10
-129.269267
 20
-115.945517
 30
0.0
 11
-128.634267
 21
-115.310517
 31
0.0
  0
LINE
  5
9B
100
AcDbEntity
  8
2
370
    50
100
AcDbLine
 10
-153.999267
 20
-115.945517
 30
0.0
 11
-154.634267
 21
-115.310517
 31
0.0
  0
POINT
  5
9C
100
AcDbEntity
  8
2
370
    50
100
AcDbPoint
 10
-74.121544
 20
-54.065304
 30
0.0
  0
POINT
  5
9D
100
AcDbEntity
  8
2
370
    50
100
AcDbPoint
 10
-74.121544
 20
-21.945517
 30
0.0
  0
POINT
  5
9E
100
AcDbEntity
  8
2
370
    50
100
AcDbPoint
 10
-141.634267
 20
-93.945517
 30
0.0
  0
CIRCLE
  5
9F
100
AcDbEntity
  8
2
370
    50
100
AcDbCircle
 10
-45.849995
 20
-122.229788
 30
0.0
 40
11.25
  0
LINE
  5
A0
100
AcDbEntity
  8
2
370
    50
100
AcDbLine
 10
-61.634267
 20
-87.302769
 30
0.0
 11
-37.895044
 21
-114.274836
 31
0.0
  0
LINE
  5
A1
100
AcDbEntity
  8
2
370
    50
100
AcDbLine
 10
-53.804947
 20
-130.184739
 30
0.0
 11
-78.260507
 21
-108.660397
 31
0.0
  0
POINT
  5
A2
100
AcDbEntity
  8
2
370
    50
100
AcDbPoint
 10
-45.849995
 20
-122.229788
 30
0.0
  0
ARC
  5
A3
100
AcDbEntity
  8
2
370
    50
100
AcDbCircle
 10
-45.849995
 20
-122.229788
 30
0.0
 40
23.0
100
AcDbArc
 50
167.866041
 51
306.247071
  0
LINE
  5
A4
100
AcDbEntity
  8
2
370
    50
100
AcDbLine
 10
-69.235287
 20
-107.945517
 30
0.0
 11
-68.087573
 21
-107.945517
 31
0.0
  0
LINE
  5
A5
100
AcDbEntity
  8
2
370
    50
100
AcDbLine
 10
-65.033258
 20
-106.182107
 30
0.0
 11
-58.986564
 21
-95.708926
 31
0.0
  0
LINE
  5
A6
100
AcDbEntity
  8
2
370
    50
100
AcDbLine
 10
-58.986564
 20
-92.182107
 30
0.0
 11
-61.634267
 21
-87.596152
 31
0.0
  0
ARC
  5
A7
100
AcDbEntity
  8
2
370
    50
100
AcDbCircle
 10
-74.134267
 20
-93.945517
 30
0.0
 40
15.25
100
AcDbArc
 50
353.359838
 51
6.640162
  0
ARC
  5
A8
100
AcDbEntity
  8
2
370
    50
100
AcDbCircle
 10
-74.134267
 20
-93.945517
 30
0.0
 40
15.25
100
AcDbArc
 50
293.359838
 51
306.640162
  0
ARC
  5
A9
100
AcDbEntity
  8
2
370
    50
100
AcDbCircle
 10
-74.134267
 20
-93.945517
 30
0.0
 40
14.0
100
AcDbArc
 50
318.917667
 51
26.765501
  0
CIRCLE
  5
AA
100
AcDbEntity
  8
2
370
    50
100
AcDbCircle
 10
-45.849995
 20
-122.229788
 30
0.0
 40
10.0
  0
LINE
  5
AB
100
AcDbEntity
  8
2
370
    50
100
AcDbLine
 10
-55.849995
 20
-126.812363
 30
0.0
 11
-55.849995
 21
-117.647212
 31
0.0
  0
LINE
  5
AC
100
AcDbEntity
  8
2
370
    50
100
AcDbLine
 10
-35.849995
 20
-126.812363
 30
0.0
 11
-35.849995
 21
-117.647212
 31
0.0
  0
ARC
  5
AD
100
AcDbEntity
  8
2
370
    50
100
AcDbCircle
 10
-45.849995
 20
-122.229788
 30
0.0
 40
11.0
100
AcDbArc
 50
24.619977
 51
155.380023
  0
ARC
  5
AE
100
AcDbEntity
  8
2
370
    50
100
AcDbCircle
 10
-45.849995
 20
-122.229788
 30
0.0
 40
11.0
100
AcDbArc
 50
204.619977
 51
335.380023
  0
CIRCLE
  5
AF
100
AcDbEntity
  8
2
370
    50
100
AcDbCircle
 10
-45.849995
 20
-122.229788
 30
0.0
 40
4.5
  0
LINE
  5
B0
100
AcDbEntity
  8
2
370
    50
100
AcDbLine
 10
-46.849995
 20
-117.842306
 30
0.0
 11
-46.849995
 21
-126.61727
 31
0.0
  0
LINE
  5
B1
100
AcDbEntity
  8
2
370
    50
100
AcDbLine
 10
-44.849995
 20
-117.842306
 30
0.0
 11
-44.849995
 21
-126.61727
 31
0.0
  0
CIRCLE
  5
B2
100
AcDbEntity
  8
2
370
    50
100
AcDbCircle
 10
-237.418538
 20
-122.229788
 30
0.0
 40
11.25
  0
LINE
  5
B3
100
AcDbEntity
  8
2
370
    50
100
AcDbLine
 10
-221.634267
 20
-87.302769
 30
0.0
 11
-245.373489
 21
-114.274836
 31
0.0
  0
LINE
  5
B4
100
AcDbEntity
  8
2
370
    50
100
AcDbLine
 10
-229.463587
 20
-130.184739
 30
0.0
 11
-205.008026
 21
-108.660397
 31
0.0
  0
POINT
  5
B5
100
AcDbEntity
  8
2
370
    50
100
AcDbPoint
 10
-237.418538
 20
-122.229788
 30
0.0
  0
ARC
  5
B6
100
AcDbEntity
  8
2
370
    50
100
AcDbCircle
 10
-237.418538
 20
-122.229788
 30
0.0
 40
23.0
100
AcDbArc
 50
77.866041
 51
216.247071
  0
CIRCLE
  5
B7
100
AcDbEntity
  8
2
370
    50
100
AcDbCircle
 10
-237.418538
 20
-122.229788
 30
0.0
 40
10.0
  0
LINE
  5
B8
100
AcDbEntity
  8
2
370
    50
100
AcDbLine
 10
-227.418538
 20
-126.812363
 30
0.0
 11
-227.418538
 21
-117.647212
 31
0.0
  0
LINE
  5
B9
100
AcDbEntity
  8
2
370
    50
100
AcDbLine
 10
-247.418538
 20
-126.812363
 30
0.0
 11
-247.418538
 21
-117.647212
 31
0.0
  0
ARC
  5
BA
100
AcDbEntity
  8
2
370
    50
100
AcDbCircle
 10
-237.418538
 20
-122.229788
 30
0.0
 40
11.0
100
AcDbArc
 50
24.619977
 51
155.380023
  0
ARC
  5
BB
100
AcDbEntity
  8
2
370
    50
100
AcDbCircle
 10
-237.418538
 20
-122.229788
 30
0.0
 40
11.0
100
AcDbArc
 50
204.619977
 51
335.380023
  0
CIRCLE
  5
BC
100
AcDbEntity
  8
2
370
    50
100
AcDbCircle
 10
-237.418538
 20
-122.229788
 30
0.0
 40
4.5
  0
LINE
  5
BD
100
AcDbEntity
  8
2
370
    50
100
AcDbLine
 10
-236.418538
 20
-117.842306
 30
0.0
 11
-236.418538
 21
-126.61727
 31
0.0
  0
LINE
  5
BE
100
AcDbEntity
  8
2
370
    50
100
AcDbLine
 10
-238.418538
 20
-117.842306
 30
0.0
 11
-238.418538
 21
-126.61727
 31
0.0
  0
LINE
  5
BF
100
AcDbEntity
  8
2
370
    50
100
AcDbLine
 10
-224.281969
 20
-92.182107
 30
0.0
 11
-221.634267
 21
-87.596152
 31
0.0
  0
ARC
  5
C0
100
AcDbEntity
  8
2
370
    50
100
AcDbCircle
 10
-209.134267
 20
-93.945517
 30
0.0
 40
14.0
100
AcDbArc
 50
153.234499
 51
221.082333
  0
LINE
  5
C1
100
AcDbEntity
  8
2
370
    50
100
AcDbLine
 10
-218.235276
 20
-106.182107
 30
0.0
 11
-224.281969
 21
-95.708926
 31
0.0
  0
ARC
  5
C2
100
AcDbEntity
  8
2
370
    50
100
AcDbCircle
 10
-209.134267
 20
-93.945517
 30
0.0
 40
15.25
100
AcDbArc
 50
173.359838
 51
186.640162
  0
ARC
  5
C3
100
AcDbEntity
  8
2
370
    50
100
AcDbCircle
 10
-209.134267
 20
-93.945517
 30
0.0
 40
15.25
100
AcDbArc
 50
233.359838
 51
246.640162
  0
LINE
  5
C4
100
AcDbEntity
  8
2
370
    50
100
AcDbLine
 10
-214.033246
 20
-107.945517
 30
0.0
 11
-215.18096
 21
-107.945517
 31
0.0
  0
ARC
  5
C5
100
AcDbEntity
  8
2
370
    50
100
AcDbCircle
 10
-45.849995
 20
-122.229788
 30
0.0
 40
12.5
100
AcDbArc
 50
202.567101
 51
268.627137
  0
ARC
  5
C6
100
AcDbEntity
  8
2
370
    50
100
AcDbCircle
 10
-237.418538
 20
-122.229788
 30
0.0
 40
12.5
100
AcDbArc
 50
112.567101
 51
178.627137
  0
LINE
  5
C7
100
AcDbEntity
  8
2
370
    25
  6
CENTER
100
AcDbLine
 10
-74.134267
 20
-93.945508
 30
0.0
 11
-27.171529
 21
-140.908248
 31
0.0
  0
LINE
  5
C8
100
AcDbEntity
  8
2
370
    25
  6
CENTER
100
AcDbLine
 10
-209.134259
 20
-93.945517
 30
0.0
 11
-255.512349
 21
-140.323604
 31
0.0
  0
POINT
  5
C9
100
AcDbEntity
  8
2
370
    50
100
AcDbPoint
 10
-141.634267
 20
-93.945517
 30
0.0
  0
LINE
  5
CA
100
AcDbEntity
  8
2
370
    25
  6
CENTER
100
AcDbLine
 10
-142.56355
 20
115.300726
 30
0.0
 11
-230.555054
 21
115.300726
 31
0.0
  0
LINE
  5
CB
100
AcDbEntity
  8
2
370
    50
100
AcDbLine
 10
-175.542513
 20
124.300726
 30
0.0
 11
-188.742245
 21
124.300726
 31
0.0
  0
ARC
  5
CC
100
AcDbEntity
  8
2
370
    50
100
AcDbCircle
 10
-176.471513
 20
224.300726
 30
0.0
 40
100.0
100
AcDbArc
 50
270.0
 51
285.119346
  0
ARC
  5
CD
100
AcDbEntity
  8
2
370
    50
100
AcDbCircle
 10
-142.56355
 20
98.800726
 30
0.0
 40
30.0
100
AcDbArc
 50
90.0
 51
105.119346
  0
ARC
  5
CE
100
AcDbEntity
  8
2
370
    50
100
AcDbCircle
 10
-142.56355
 20
131.800726
 30
0.0
 40
30.0
100
AcDbArc
 50
254.880654
 51
270.0
  0
ARC
  5
CF
100
AcDbEntity
  8
2
370
    50
100
AcDbCircle
 10
-176.471513
 20
6.300726
 30
0.0
 40
100.0
100
AcDbArc
 50
74.880654
 51
90.0
  0
LINE
  5
D0
100
AcDbEntity
  8
2
370
    50
100
AcDbLine
 10
-175.542513
 20
106.300726
 30
0.0
 11
-181.291238
 21
106.300726
 31
0.0
  0
ARC
  5
D1
100
AcDbEntity
  8
2
370
    50
100
AcDbCircle
 10
-181.291238
 20
6.300726
 30
0.0
 40
100.0
100
AcDbArc
 50
90.0
 51
96.592537
  0
LINE
  5
D2
100
AcDbEntity
  8
2
370
    25
  6
CENTER
100
AcDbLine
 10
-142.56355
 20
115.300726
 30
0.0
 11
-53.950502
 21
115.300726
 31
0.0
  0
LINE
  5
D3
100
AcDbEntity
  8
2
370
    50
100
AcDbLine
 10
-108.655586
 20
124.300726
 30
0.0
 11
-94.526854
 21
124.300726
 31
0.0
  0
ARC
  5
D4
100
AcDbEntity
  8
2
370
    50
100
AcDbCircle
 10
-108.655586
 20
224.300726
 30
0.0
 40
100.0
100
AcDbArc
 50
254.880654
 51
270.0
  0
ARC
  5
D5
100
AcDbEntity
  8
2
370
    50
100
AcDbCircle
 10
-142.56355
 20
98.800726
 30
0.0
 40
30.0
100
AcDbArc
 50
74.880654
 51
90.0
  0
ARC
  5
D6
100
AcDbEntity
  8
2
370
    50
100
AcDbCircle
 10
-142.56355
 20
131.800726
 30
0.0
 40
30.0
100
AcDbArc
 50
270.0
 51
285.119346
  0
ARC
  5
D7
100
AcDbEntity
  8
2
370
    50
100
AcDbCircle
 10
-108.655586
 20
6.300726
 30
0.0
 40
100.0
100
AcDbArc
 50
90.0
 51
105.119346
  0
LINE
  5
D8
100
AcDbEntity
  8
2
370
    50
100
AcDbLine
 10
-108.655586
 20
106.300726
 30
0.0
 11
-101.977861
 21
106.300726
 31
0.0
  0
ARC
  5
D9
100
AcDbEntity
  8
2
370
    50
100
AcDbCircle
 10
-101.977861
 20
6.300726
 30
0.0
 40
100.0
100
AcDbArc
 50
84.484716
 51
90.0
  0
LINE
  5
DA
100
AcDbEntity
  8
2
370
    25
  6
CENTER
100
AcDbLine
 10
-141.634537
 20
88.905197
 30
0.0
 11
-141.634537
 21
141.219879
 31
0.0
  0
ARC
  5
DB
100
AcDbEntity
  8
2
370
    50
100
AcDbCircle
 10
-188.742245
 20
136.300726
 30
0.0
 40
12.0
100
AcDbArc
 50
260.582285
 51
270.0
  0
ARC
  5
DC
100
AcDbEntity
  8
2
370
    50
100
AcDbCircle
 10
-94.526854
 20
136.300726
 30
0.0
 40
12.0
100
AcDbArc
 50
270.0
 51
279.417857
  0
LINE
  5
DD
100
AcDbEntity
  8
2
370
    50
100
AcDbLine
 10
-87.43455
 20
173.300726
 30
0.0
 11
-45.88455
 21
173.300726
 31
0.0
  0
LINE
  5
DE
100
AcDbEntity
  8
2
370
    50
100
AcDbLine
 10
-87.93455
 20
159.800726
 30
0.0
 11
-87.93455
 21
172.800726
 31
0.0
  0
LINE
  5
DF
100
AcDbEntity
  8
2
370
    50
100
AcDbLine
 10
-43.43455
 20
208.300726
 30
0.0
 11
-24.83455
 21
208.300726
 31
0.0
  0
LINE
  5
E0
100
AcDbEntity
  8
2
370
    25
100
AcDbLine
 10
-43.43455
 20
194.300726
 30
0.0
 11
-43.43455
 21
208.300726
 31
0.0
  0
LINE
  5
E1
100
AcDbEntity
  8
2
370
    50
100
AcDbLine
 10
-24.83455
 20
208.300726
 30
0.0
 11
-23.63455
 21
207.100726
 31
0.0
  0
LINE
  5
E2
100
AcDbEntity
  8
2
370
    50
100
AcDbLine
 10
-43.43455
 20
208.300726
 30
0.0
 11
-44.63455
 21
207.100726
 31
0.0
  0
LINE
  5
E3
100
AcDbEntity
  8
2
370
    50
100
AcDbLine
 10
-87.43455
 20
159.300726
 30
0.0
 11
-45.63455
 21
159.300726
 31
0.0
  0
LINE
  5
E4
100
AcDbEntity
  8
2
370
    50
100
AcDbLine
 10
-87.93455
 20
159.300726
 30
0.0
 11
-87.13455
 21
159.300726
 31
0.0
  0
LINE
  5
E5
100
AcDbEntity
  8
2
370
    25
  6
CENTER
100
AcDbLine
 10
-34.13455
 20
213.337803
 30
0.0
 11
-34.13455
 21
147.210413
 31
0.0
  0
LINE
  5
E6
100
AcDbEntity
  8
2
370
    50
100
AcDbLine
 10
-45.63455
 20
159.800726
 30
0.0
 11
-45.63455
 21
159.300726
 31
0.0
  0
LINE
  5
E7
100
AcDbEntity
  8
2
370
    50
100
AcDbLine
 10
-45.38455
 20
181.300726
 30
0.0
 11
-45.38455
 21
173.800726
 31
0.0
  0
LINE
  5
E8
100
AcDbEntity
  8
2
370
    50
100
AcDbLine
 10
-21.955015
 20
184.300726
 30
0.0
 11
-46.314085
 21
184.300726
 31
0.0
  0
LINE
  5
E9
100
AcDbEntity
  8
2
370
    50
100
AcDbLine
 10
-66.495832
 20
137.300726
 30
0.0
 11
-81.773267
 21
137.300726
 31
0.0
  0
LINE
  5
EA
100
AcDbEntity
  8
2
370
    50
100
AcDbLine
 10
-61.959045
 20
152.300726
 30
0.0
 11
-86.310054
 21
152.300726
 31
0.0
  0
LINE
  5
EB
100
AcDbEntity
  8
2
370
    50
100
AcDbLine
 10
-89.38455
 20
139.300726
 30
0.0
 11
-89.38455
 21
150.300726
 31
0.0
  0
LINE
  5
EC
100
AcDbEntity
  8
2
370
    50
100
AcDbLine
 10
-58.88455
 20
139.300726
 30
0.0
 11
-58.88455
 21
150.300726
 31
0.0
  0
LINE
  5
ED
100
AcDbEntity
  8
2
370
    50
100
AcDbLine
 10
-87.13455
 20
152.300726
 30
0.0
 11
-87.13455
 21
159.300726
 31
0.0
  0
LINE
  5
EE
100
AcDbEntity
  8
2
370
    50
100
AcDbLine
 10
-61.13455
 20
152.300726
 30
0.0
 11
-61.13455
 21
159.300726
 31
0.0
  0
LINE
  5
EF
100
AcDbEntity
  8
2
370
    50
100
AcDbLine
 10
-86.23455
 20
152.300726
 30
0.0
 11
-86.23455
 21
155.300726
 31
0.0
  0
LINE
  5
F0
100
AcDbEntity
  8
2
370
    50
100
AcDbLine
 10
-86.23455
 20
155.300726
 30
0.0
 11
-87.13455
 21
156.859572
 31
0.0
  0
LINE
  5
F1
100
AcDbEntity
  8
2
370
    50
100
AcDbLine
 10
-62.03455
 20
152.300726
 30
0.0
 11
-62.03455
 21
155.300726
 31
0.0
  0
LINE
  5
F2
100
AcDbEntity
  8
2
370
    50
100
AcDbLine
 10
-62.03455
 20
155.300726
 30
0.0
 11
-61.13455
 21
156.859572
 31
0.0
  0
LINE
  5
F3
100
AcDbEntity
  8
2
370
    50
100
AcDbLine
 10
-62.03455
 20
155.300726
 30
0.0
 11
-61.13455
 21
156.859572
 31
0.0
  0
LINE
  5
F4
100
AcDbEntity
  8
2
370
    50
100
AcDbLine
 10
-61.13455
 20
152.300726
 30
0.0
 11
-61.13455
 21
159.300726
 31
0.0
  0
LINE
  5
F5
100
AcDbEntity
  8
2
370
    50
100
AcDbLine
 10
-62.03455
 20
152.300726
 30
0.0
 11
-62.03455
 21
155.300726
 31
0.0
  0
ARC
  5
F6
100
AcDbEntity
  8
2
370
    50
100
AcDbCircle
 10
-39.13455
 20
153.800726
 30
0.0
 40
5.0
100
AcDbArc
 50
180.0
 51
270.0
  0
ARC
  5
F7
100
AcDbEntity
  8
2
370
    50
100
AcDbCircle
 10
-29.13455
 20
153.800726
 30
0.0
 40
5.0
100
AcDbArc
 50
270.0
 51
360.0
  0
LINE
  5
F8
100
AcDbEntity
  8
2
370
    50
100
AcDbLine
 10
-22.88455
 20
159.800726
 30
0.0
 11
-45.63455
 21
159.800726
 31
0.0
  0
LINE
  5
F9
100
AcDbEntity
  8
2
370
    50
100
AcDbLine
 10
-30.70955
 20
147.898802
 30
0.0
 11
-37.55955
 21
147.898802
 31
0.0
  0
LINE
  5
FA
100
AcDbEntity
  8
2
370
    50
100
AcDbLine
 10
-29.13455
 20
148.800726
 30
0.0
 11
-29.70955
 21
148.800726
 31
0.0
  0
LINE
  5
FB
100
AcDbEntity
  8
2
370
    50
100
AcDbLine
 10
-39.13455
 20
148.800726
 30
0.0
 11
-29.714371
 21
148.800726
 31
0.0
  0
ARC
  5
FC
100
AcDbEntity
  8
2
370
    50
100
AcDbCircle
 10
-37.55955
 20
148.898802
 30
0.0
 40
1.0
100
AcDbArc
 50
185.628401
 51
270.0
  0
LINE
  5
FD
100
AcDbEntity
  8
2
370
    50
100
AcDbLine
 10
-86.23455
 20
155.300726
 30
0.0
 11
-62.03455
 21
155.300726
 31
0.0
  0
ARC
  5
FE
100
AcDbEntity
  8
2
370
    50
100
AcDbCircle
 10
-30.70955
 20
148.898802
 30
0.0
 40
1.0
100
AcDbArc
 50
270.0
 51
354.371599
  0
LINE
  5
FF
100
AcDbEntity
  8
2
370
    50
100
AcDbLine
 10
-57.13455
 20
194.300726
 30
0.0
 11
-57.13455
 21
191.800726
 31
0.0
  0
LINE
  5
100
100
AcDbEntity
  8
2
370
    50
100
AcDbLine
 10
-11.13455
 20
194.300726
 30
0.0
 11
-11.13455
 21
191.800726
 31
0.0
  0
LINE
  5
101
100
AcDbEntity
  8
2
370
    50
100
AcDbLine
 10
-11.13455
 20
194.300726
 30
0.0
 11
-57.13455
 21
194.300726
 31
0.0
  0
LINE
  5
102
100
AcDbEntity
  8
2
370
    50
100
AcDbLine
 10
-11.13455
 20
191.800726
 30
0.0
 11
-57.13455
 21
191.800726
 31
0.0
  0
POINT
  5
103
100
AcDbEntity
  8
2
370
    50
100
AcDbPoint
 10
-74.13455
 20
137.300726
 30
0.0
  0
POINT
  5
104
100
AcDbEntity
  8
2
370
    50
100
AcDbPoint
 10
-74.13455
 20
137.300726
 30
0.0
  0
LINE
  5
105
100
AcDbEntity
  8
2
370
    25
  6
CENTER
100
AcDbLine
 10
-74.13455
 20
101.310053
 30
0.0
 11
-74.13455
 21
178.241984
 31
0.0
  0
LINE
  5
106
100
AcDbEntity
  8
2
370
    50
100
AcDbLine
 10
-65.033541
 20
150.300726
 30
0.0
 11
-65.033541
 21
139.300726
 31
0.0
  0
LINE
  5
107
100
AcDbEntity
  8
2
370
    50
100
AcDbLine
 10
-68.087856
 20
150.300726
 30
0.0
 11
-68.087856
 21
139.466532
 31
0.0
  0
LINE
  5
108
100
AcDbEntity
  8
2
370
    50
100
AcDbLine
 10
-80.181243
 20
150.300726
 30
0.0
 11
-80.181243
 21
139.466532
 31
0.0
  0
LINE
  5
109
100
AcDbEntity
  8
2
370
    50
100
AcDbLine
 10
-83.235559
 20
150.300726
 30
0.0
 11
-83.235559
 21
139.300726
 31
0.0
  0
ARC
  5
10A
100
AcDbEntity
  8
2
370
    50
100
AcDbCircle
 10
-74.13455
 20
142.160101
 30
0.0
 40
10.140625
100
AcDbArc
 50
53.395774
 51
126.604226
  0
ARC
  5
10B
100
AcDbEntity
  8
2
370
    50
100
AcDbCircle
 10
-61.959045
 20
148.937595
 30
0.0
 40
3.363131
100
AcDbArc
 50
23.910931
 51
156.089069
  0
LINE
  5
10C
100
AcDbEntity
  8
2
370
    50
100
AcDbLine
 10
-83.235559
 20
150.300726
 30
0.0
 11
-80.181243
 21
150.300726
 31
0.0
  0
LINE
  5
10D
100
AcDbEntity
  8
2
370
    50
100
AcDbLine
 10
-68.087856
 20
150.300726
 30
0.0
 11
-65.033541
 21
150.300726
 31
0.0
  0
LINE
  5
10E
100
AcDbEntity
  8
2
370
    50
100
AcDbLine
 10
-68.087856
 20
139.300726
 30
0.0
 11
-65.033541
 21
139.300726
 31
0.0
  0
ARC
  5
10F
100
AcDbEntity
  8
2
370
    50
100
AcDbCircle
 10
-74.13455
 20
147.441351
 30
0.0
 40
10.140625
100
AcDbArc
 50
233.395774
 51
306.604226
  0
LINE
  5
110
100
AcDbEntity
  8
2
370
    50
100
AcDbLine
 10
-83.235559
 20
139.300726
 30
0.0
 11
-80.181243
 21
139.300726
 31
0.0
  0
ARC
  5
111
100
AcDbEntity
  8
2
370
    50
100
AcDbCircle
 10
-86.310054
 20
148.937595
 30
0.0
 40
3.363131
100
AcDbArc
 50
23.910931
 51
156.089069
  0
LINE
  5
112
100
AcDbEntity
  8
2
370
    50
100
AcDbLine
 10
-195.834523
 20
173.300726
 30
0.0
 11
-237.384523
 21
173.300726
 31
0.0
  0
LINE
  5
113
100
AcDbEntity
  8
2
370
    50
100
AcDbLine
 10
-195.334523
 20
159.800726
 30
0.0
 11
-195.334523
 21
172.800726
 31
0.0
  0
LINE
  5
114
100
AcDbEntity
  8
2
370
    50
100
AcDbLine
 10
-239.834523
 20
208.300726
 30
0.0
 11
-258.434523
 21
208.300726
 31
0.0
  0
LINE
  5
115
100
AcDbEntity
  8
2
370
    50
100
AcDbLine
 10
-258.434523
 20
208.300726
 30
0.0
 11
-259.634523
 21
207.100726
 31
0.0
  0
LINE
  5
116
100
AcDbEntity
  8
2
370
    50
100
AcDbLine
 10
-239.834523
 20
208.300726
 30
0.0
 11
-238.634523
 21
207.100726
 31
0.0
  0
LINE
  5
117
100
AcDbEntity
  8
2
370
    50
100
AcDbLine
 10
-196.134523
 20
159.300726
 30
0.0
 11
-237.634523
 21
159.300726
 31
0.0
  0
LINE
  5
118
100
AcDbEntity
  8
2
370
    50
100
AcDbLine
 10
-195.834523
 20
159.300726
 30
0.0
 11
-196.134523
 21
159.300726
 31
0.0
  0
LINE
  5
119
100
AcDbEntity
  8
2
370
    25
  6
CENTER
100
AcDbLine
 10
-249.134523
 20
213.337803
 30
0.0
 11
-249.134523
 21
147.210413
 31
0.0
  0
LINE
  5
11A
100
AcDbEntity
  8
2
370
    50
100
AcDbLine
 10
-237.634523
 20
159.800726
 30
0.0
 11
-237.634523
 21
159.300726
 31
0.0
  0
LINE
  5
11B
100
AcDbEntity
  8
2
370
    50
100
AcDbLine
 10
-237.884523
 20
181.300726
 30
0.0
 11
-237.884523
 21
173.800726
 31
0.0
  0
LINE
  5
11C
100
AcDbEntity
  8
2
370
    50
100
AcDbLine
 10
-221.310028
 20
152.300726
 30
0.0
 11
-196.959019
 21
152.300726
 31
0.0
  0
LINE
  5
11D
100
AcDbEntity
  8
2
370
    50
100
AcDbLine
 10
-193.884523
 20
139.300726
 30
0.0
 11
-193.884523
 21
150.300726
 31
0.0
  0
LINE
  5
11E
100
AcDbEntity
  8
2
370
    50
100
AcDbLine
 10
-224.384523
 20
139.300726
 30
0.0
 11
-224.384523
 21
150.300726
 31
0.0
  0
LINE
  5
11F
100
AcDbEntity
  8
2
370
    50
100
AcDbLine
 10
-196.134523
 20
152.300726
 30
0.0
 11
-196.134523
 21
159.300726
 31
0.0
  0
LINE
  5
120
100
AcDbEntity
  8
2
370
    50
100
AcDbLine
 10
-222.134523
 20
152.300726
 30
0.0
 11
-222.134523
 21
159.300726
 31
0.0
  0
LINE
  5
121
100
AcDbEntity
  8
2
370
    50
100
AcDbLine
 10
-197.034523
 20
152.300726
 30
0.0
 11
-197.034523
 21
155.300726
 31
0.0
  0
LINE
  5
122
100
AcDbEntity
  8
2
370
    50
100
AcDbLine
 10
-197.034523
 20
155.300726
 30
0.0
 11
-196.134523
 21
156.859572
 31
0.0
  0
LINE
  5
123
100
AcDbEntity
  8
2
370
    50
100
AcDbLine
 10
-221.234523
 20
152.300726
 30
0.0
 11
-221.234523
 21
155.300726
 31
0.0
  0
LINE
  5
124
100
AcDbEntity
  8
2
370
    50
100
AcDbLine
 10
-221.234523
 20
155.300726
 30
0.0
 11
-222.134523
 21
156.859572
 31
0.0
  0
LINE
  5
125
100
AcDbEntity
  8
2
370
    50
100
AcDbLine
 10
-221.234523
 20
155.300726
 30
0.0
 11
-222.134523
 21
156.859572
 31
0.0
  0
LINE
  5
126
100
AcDbEntity
  8
2
370
    50
100
AcDbLine
 10
-222.134523
 20
152.300726
 30
0.0
 11
-222.134523
 21
159.300726
 31
0.0
  0
LINE
  5
127
100
AcDbEntity
  8
2
370
    50
100
AcDbLine
 10
-221.234523
 20
152.300726
 30
0.0
 11
-221.234523
 21
155.300726
 31
0.0
  0
ARC
  5
128
100
AcDbEntity
  8
2
370
    50
100
AcDbCircle
 10
-195.884523
 20
139.300726
 30
0.0
 40
2.0
100
AcDbArc
 50
270.0
 51
360.0
  0
ARC
  5
129
100
AcDbEntity
  8
2
370
    50
100
AcDbCircle
 10
-222.384523
 20
139.300726
 30
0.0
 40
2.0
100
AcDbArc
 50
180.0
 51
270.0
  0
ARC
  5
12A
100
AcDbEntity
  8
2
370
    50
100
AcDbCircle
 10
-244.134523
 20
153.800726
 30
0.0
 40
5.0
100
AcDbArc
 50
270.0
 51
0.0
  0
ARC
  5
12B
100
AcDbEntity
  8
2
370
    50
100
AcDbCircle
 10
-254.134523
 20
153.800726
 30
0.0
 40
5.0
100
AcDbArc
 50
180.0
 51
270.0
  0
LINE
  5
12C
100
AcDbEntity
  8
2
370
    50
100
AcDbLine
 10
-260.384523
 20
159.800726
 30
0.0
 11
-237.634523
 21
159.800726
 31
0.0
  0
LINE
  5
12D
100
AcDbEntity
  8
2
370
    50
100
AcDbLine
 10
-252.559523
 20
147.898802
 30
0.0
 11
-245.709523
 21
147.898802
 31
0.0
  0
LINE
  5
12E
100
AcDbEntity
  8
2
370
    50
100
AcDbLine
 10
-254.134523
 20
148.800726
 30
0.0
 11
-253.559523
 21
148.800726
 31
0.0
  0
LINE
  5
12F
100
AcDbEntity
  8
2
370
    50
100
AcDbLine
 10
-244.134523
 20
148.800726
 30
0.0
 11
-253.554702
 21
148.800726
 31
0.0
  0
ARC
  5
130
100
AcDbEntity
  8
2
370
    50
100
AcDbCircle
 10
-245.709523
 20
148.898802
 30
0.0
 40
1.0
100
AcDbArc
 50
270.0
 51
354.371599
  0
LINE
  5
131
100
AcDbEntity
  8
2
370
    50
100
AcDbLine
 10
-197.034523
 20
155.300726
 30
0.0
 11
-221.234523
 21
155.300726
 31
0.0
  0
ARC
  5
132
100
AcDbEntity
  8
2
370
    50
100
AcDbCircle
 10
-252.559523
 20
148.898802
 30
0.0
 40
1.0
100
AcDbArc
 50
185.628401
 51
270.0
  0
POINT
  5
133
100
AcDbEntity
  8
2
370
    50
100
AcDbPoint
 10
-209.134523
 20
137.300726
 30
0.0
  0
POINT
  5
134
100
AcDbEntity
  8
2
370
    50
100
AcDbPoint
 10
-209.134523
 20
137.300726
 30
0.0
  0
LINE
  5
135
100
AcDbEntity
  8
2
370
    25
  6
CENTER
100
AcDbLine
 10
-209.134523
 20
101.310053
 30
0.0
 11
-209.134523
 21
178.241984
 31
0.0
  0
LINE
  5
136
100
AcDbEntity
  8
2
370
    50
100
AcDbLine
 10
-218.235532
 20
150.300726
 30
0.0
 11
-218.235532
 21
139.300726
 31
0.0
  0
LINE
  5
137
100
AcDbEntity
  8
2
370
    50
100
AcDbLine
 10
-215.181217
 20
150.300726
 30
0.0
 11
-215.181217
 21
139.466532
 31
0.0
  0
LINE
  5
138
100
AcDbEntity
  8
2
370
    50
100
AcDbLine
 10
-203.08783
 20
150.300726
 30
0.0
 11
-203.08783
 21
139.466532
 31
0.0
  0
LINE
  5
139
100
AcDbEntity
  8
2
370
    50
100
AcDbLine
 10
-200.033514
 20
150.300726
 30
0.0
 11
-200.033514
 21
139.300726
 31
0.0
  0
ARC
  5
13A
100
AcDbEntity
  8
2
370
    50
100
AcDbCircle
 10
-209.134523
 20
142.160101
 30
0.0
 40
10.140625
100
AcDbArc
 50
53.395774
 51
126.604226
  0
ARC
  5
13B
100
AcDbEntity
  8
2
370
    50
100
AcDbCircle
 10
-221.310028
 20
148.937595
 30
0.0
 40
3.363131
100
AcDbArc
 50
23.910931
 51
156.089069
  0
LINE
  5
13C
100
AcDbEntity
  8
2
370
    50
100
AcDbLine
 10
-200.033514
 20
150.300726
 30
0.0
 11
-203.08783
 21
150.300726
 31
0.0
  0
LINE
  5
13D
100
AcDbEntity
  8
2
370
    50
100
AcDbLine
 10
-215.181217
 20
150.300726
 30
0.0
 11
-218.235532
 21
150.300726
 31
0.0
  0
ARC
  5
13E
100
AcDbEntity
  8
2
370
    50
100
AcDbCircle
 10
-221.310028
 20
140.663857
 30
0.0
 40
3.363131
100
AcDbArc
 50
315.774066
 51
336.089069
  0
LINE
  5
13F
100
AcDbEntity
  8
2
370
    50
100
AcDbLine
 10
-215.181217
 20
139.300726
 30
0.0
 11
-218.235532
 21
139.300726
 31
0.0
  0
ARC
  5
140
100
AcDbEntity
  8
2
370
    50
100
AcDbCircle
 10
-209.134523
 20
147.441351
 30
0.0
 40
10.140625
100
AcDbArc
 50
233.395774
 51
306.604226
  0
LINE
  5
141
100
AcDbEntity
  8
2
370
    50
100
AcDbLine
 10
-200.033514
 20
139.300726
 30
0.0
 11
-203.08783
 21
139.300726
 31
0.0
  0
ARC
  5
142
100
AcDbEntity
  8
2
370
    50
100
AcDbCircle
 10
-196.959019
 20
148.937595
 30
0.0
 40
3.363131
100
AcDbArc
 50
23.910931
 51
156.089069
  0
ARC
  5
143
100
AcDbEntity
  8
2
370
    50
100
AcDbCircle
 10
-196.959019
 20
140.663857
 30
0.0
 40
3.363131
100
AcDbArc
 50
203.910931
 51
224.225934
  0
CIRCLE
  5
144
100
AcDbEntity
  8
2
370
    50
100
AcDbCircle
 10
-74.13455
 20
115.300726
 30
0.0
 40
8.0
  0
ARC
  5
145
100
AcDbEntity
  8
2
370
    50
100
AcDbCircle
 10
-109.381784
 20
135.650726
 30
0.0
 40
20.2
100
AcDbArc
 50
300.807097
 51
359.193658
  0
ARC
  5
146
100
AcDbEntity
  8
2
370
    50
100
AcDbCircle
 10
-106.090887
 20
133.750726
 30
0.0
 40
17.9
100
AcDbArc
 50
292.120687
 51
7.879313
  0
ARC
  5
147
100
AcDbEntity
  8
2
370
    50
100
AcDbCircle
 10
-106.090887
 20
96.850726
 30
0.0
 40
17.9
100
AcDbArc
 50
352.120687
 51
67.879313
  0
ARC
  5
148
100
AcDbEntity
  8
2
370
    50
100
AcDbCircle
 10
-109.381784
 20
94.950726
 30
0.0
 40
20.2
100
AcDbArc
 50
0.806342
 51
59.192903
  0
ARC
  5
149
100
AcDbEntity
  8
2
370
    50
100
AcDbCircle
 10
-74.13455
 20
78.400726
 30
0.0
 40
17.9
100
AcDbArc
 50
52.120687
 51
127.879313
  0
ARC
  5
14A
100
AcDbEntity
  8
2
370
    50
100
AcDbCircle
 10
-74.13455
 20
74.600726
 30
0.0
 40
20.2
100
AcDbArc
 50
60.804497
 51
119.193992
  0
ARC
  5
14B
100
AcDbEntity
  8
2
370
    50
100
AcDbCircle
 10
-42.178212
 20
96.850726
 30
0.0
 40
17.9
100
AcDbArc
 50
112.136637
 51
187.879313
  0
ARC
  5
14C
100
AcDbEntity
  8
2
370
    50
100
AcDbCircle
 10
-42.178212
 20
133.750726
 30
0.0
 40
17.9
100
AcDbArc
 50
172.120687
 51
247.879313
  0
ARC
  5
14D
100
AcDbEntity
  8
2
370
    50
100
AcDbCircle
 10
-38.887316
 20
135.650726
 30
0.0
 40
20.2
100
AcDbArc
 50
180.804164
 51
239.196591
  0
ARC
  5
14E
100
AcDbEntity
  8
2
370
    50
100
AcDbCircle
 10
-74.13455
 20
152.200726
 30
0.0
 40
17.9
100
AcDbArc
 50
232.120687
 51
307.879313
  0
ARC
  5
14F
100
AcDbEntity
  8
2
370
    50
100
AcDbCircle
 10
-74.13455
 20
156.000726
 30
0.0
 40
20.2
100
AcDbArc
 50
240.806008
 51
299.195503
  0
ARC
  5
150
100
AcDbEntity
  8
2
370
    50
100
AcDbCircle
 10
-38.887316
 20
94.950726
 30
0.0
 40
20.2
100
AcDbArc
 50
120.803409
 51
179.195836
  0
ARC
  5
151
100
AcDbEntity
  8
2
370
    50
100
AcDbCircle
 10
-74.134013
 20
115.300726
 30
0.0
 40
25.28
100
AcDbArc
 50
114.046586
 51
125.955719
  0
ARC
  5
152
100
AcDbEntity
  8
2
370
    50
100
AcDbCircle
 10
-74.134013
 20
115.300726
 30
0.0
 40
25.28
100
AcDbArc
 50
174.045037
 51
185.954963
  0
ARC
  5
153
100
AcDbEntity
  8
2
370
    50
100
AcDbCircle
 10
-74.134013
 20
115.300726
 30
0.0
 40
25.28
100
AcDbArc
 50
234.044281
 51
245.953414
  0
ARC
  5
154
100
AcDbEntity
  8
2
370
    50
100
AcDbCircle
 10
-74.134013
 20
115.300726
 30
0.0
 40
25.28
100
AcDbArc
 50
294.045074
 51
305.952621
  0
ARC
  5
155
100
AcDbEntity
  8
2
370
    50
100
AcDbCircle
 10
-74.134013
 20
115.300726
 30
0.0
 40
25.28
100
AcDbArc
 50
354.046623
 51
5.953377
  0
ARC
  5
156
100
AcDbEntity
  8
2
370
    50
100
AcDbCircle
 10
-74.134013
 20
115.300726
 30
0.0
 40
25.28
100
AcDbArc
 50
54.047379
 51
65.954926
  0
ARC
  5
157
100
AcDbEntity
  8
2
370
    50
100
AcDbCircle
 10
-84.23135
 20
92.671272
 30
0.0
 40
0.5
100
AcDbArc
 50
245.953414
 51
299.193992
  0
ARC
  5
158
100
AcDbEntity
  8
2
370
    50
100
AcDbCircle
 10
-88.683833
 20
95.242034
 30
0.0
 40
0.5
100
AcDbArc
 50
180.806342
 51
234.044281
  0
ARC
  5
159
100
AcDbEntity
  8
2
370
    50
100
AcDbCircle
 10
-98.780294
 20
112.729883
 30
0.0
 40
0.5
100
AcDbArc
 50
185.954963
 51
239.192903
  0
ARC
  5
15A
100
AcDbEntity
  8
2
370
    50
100
AcDbCircle
 10
-98.780294
 20
117.871569
 30
0.0
 40
0.5
100
AcDbArc
 50
120.807097
 51
174.045037
  0
ARC
  5
15B
100
AcDbEntity
  8
2
370
    50
100
AcDbCircle
 10
-88.683833
 20
135.359418
 30
0.0
 40
0.5
100
AcDbArc
 50
125.955719
 51
179.193658
  0
ARC
  5
15C
100
AcDbEntity
  8
2
370
    50
100
AcDbCircle
 10
-84.23135
 20
137.93018
 30
0.0
 40
0.5
100
AcDbArc
 50
60.806008
 51
114.046586
  0
ARC
  5
15D
100
AcDbEntity
  8
2
370
    50
100
AcDbCircle
 10
-64.037273
 20
137.930446
 30
0.0
 40
0.5
100
AcDbArc
 50
65.954926
 51
119.195503
  0
ARC
  5
15E
100
AcDbEntity
  8
2
370
    50
100
AcDbCircle
 10
-59.585277
 20
135.360205
 30
0.0
 40
0.5
100
AcDbArc
 50
0.804164
 51
54.047379
  0
ARC
  5
15F
100
AcDbEntity
  8
2
370
    50
100
AcDbCircle
 10
-49.487661
 20
117.870887
 30
0.0
 40
0.5
100
AcDbArc
 50
5.953377
 51
59.196591
  0
ARC
  5
160
100
AcDbEntity
  8
2
370
    50
100
AcDbCircle
 10
-49.487661
 20
112.730565
 30
0.0
 40
0.5
100
AcDbArc
 50
300.803409
 51
354.046623
  0
ARC
  5
161
100
AcDbEntity
  8
2
370
    50
100
AcDbCircle
 10
-59.585277
 20
95.241247
 30
0.0
 40
0.5
100
AcDbArc
 50
305.952621
 51
359.195836
  0
ARC
  5
162
100
AcDbEntity
  8
2
370
    50
100
AcDbCircle
 10
-64.037273
 20
92.671006
 30
0.0
 40
0.5
100
AcDbArc
 50
240.804497
 51
294.045074
  0
POINT
  5
163
100
AcDbEntity
  8
2
370
    50
100
AcDbPoint
 10
-209.134523
 20
115.300726
 30
0.0
  0
POINT
  5
164
100
AcDbEntity
  8
2
370
    50
100
AcDbPoint
 10
-74.13455
 20
115.300726
 30
0.0
  0
POINT
  5
165
100
AcDbEntity
  8
2
370
    50
100
AcDbPoint
 10
-74.13455
 20
115.300726
 30
0.0
  0
POINT
  5
166
100
AcDbEntity
  8
2
370
    50
100
AcDbPoint
 10
-209.134523
 20
115.300726
 30
0.0
  0
ARC
  5
167
100
AcDbEntity
  8
2
370
    50
100
AcDbCircle
 10
-244.381757
 20
135.650726
 30
0.0
 40
20.2
100
AcDbArc
 50
300.807097
 51
359.193658
  0
ARC
  5
168
100
AcDbEntity
  8
2
370
    50
100
AcDbCircle
 10
-241.090861
 20
133.750726
 30
0.0
 40
17.9
100
AcDbArc
 50
292.120687
 51
7.879313
  0
ARC
  5
169
100
AcDbEntity
  8
2
370
    50
100
AcDbCircle
 10
-241.090861
 20
96.850726
 30
0.0
 40
17.9
100
AcDbArc
 50
352.120687
 51
67.879313
  0
ARC
  5
16A
100
AcDbEntity
  8
2
370
    50
100
AcDbCircle
 10
-244.381757
 20
94.950726
 30
0.0
 40
20.2
100
AcDbArc
 50
0.806342
 51
59.192903
  0
ARC
  5
16B
100
AcDbEntity
  8
2
370
    50
100
AcDbCircle
 10
-209.134523
 20
78.400726
 30
0.0
 40
17.9
100
AcDbArc
 50
52.120687
 51
127.879313
  0
ARC
  5
16C
100
AcDbEntity
  8
2
370
    50
100
AcDbCircle
 10
-209.134523
 20
74.600726
 30
0.0
 40
20.2
100
AcDbArc
 50
60.804497
 51
119.193992
  0
ARC
  5
16D
100
AcDbEntity
  8
2
370
    50
100
AcDbCircle
 10
-177.178186
 20
96.850726
 30
0.0
 40
17.9
100
AcDbArc
 50
112.136637
 51
187.879313
  0
ARC
  5
16E
100
AcDbEntity
  8
2
370
    50
100
AcDbCircle
 10
-177.178186
 20
133.750726
 30
0.0
 40
17.9
100
AcDbArc
 50
172.120687
 51
247.879313
  0
ARC
  5
16F
100
AcDbEntity
  8
2
370
    50
100
AcDbCircle
 10
-173.88729
 20
135.650726
 30
0.0
 40
20.2
100
AcDbArc
 50
180.804164
 51
239.196591
  0
ARC
  5
170
100
AcDbEntity
  8
2
370
    50
100
AcDbCircle
 10
-209.134523
 20
152.200726
 30
0.0
 40
17.9
100
AcDbArc
 50
232.120687
 51
307.879313
  0
ARC
  5
171
100
AcDbEntity
  8
2
370
    50
100
AcDbCircle
 10
-209.134523
 20
156.000726
 30
0.0
 40
20.2
100
AcDbArc
 50
240.806008
 51
299.195503
  0
ARC
  5
172
100
AcDbEntity
  8
2
370
    50
100
AcDbCircle
 10
-173.88729
 20
94.950726
 30
0.0
 40
20.2
100
AcDbArc
 50
120.803409
 51
179.195836
  0
ARC
  5
173
100
AcDbEntity
  8
2
370
    50
100
AcDbCircle
 10
-209.133987
 20
115.300726
 30
0.0
 40
25.28
100
AcDbArc
 50
114.046586
 51
125.955719
  0
ARC
  5
174
100
AcDbEntity
  8
2
370
    50
100
AcDbCircle
 10
-209.133987
 20
115.300726
 30
0.0
 40
25.28
100
AcDbArc
 50
174.045037
 51
185.954963
  0
ARC
  5
175
100
AcDbEntity
  8
2
370
    50
100
AcDbCircle
 10
-209.133987
 20
115.300726
 30
0.0
 40
25.28
100
AcDbArc
 50
234.044281
 51
245.953414
  0
ARC
  5
176
100
AcDbEntity
  8
2
370
    50
100
AcDbCircle
 10
-209.133987
 20
115.300726
 30
0.0
 40
25.28
100
AcDbArc
 50
294.045074
 51
305.952621
  0
ARC
  5
177
100
AcDbEntity
  8
2
370
    50
100
AcDbCircle
 10
-209.133987
 20
115.300726
 30
0.0
 40
25.28
100
AcDbArc
 50
354.046623
 51
5.953377
  0
ARC
  5
178
100
AcDbEntity
  8
2
370
    50
100
AcDbCircle
 10
-209.133987
 20
115.300726
 30
0.0
 40
25.28
100
AcDbArc
 50
54.047379
 51
65.954926
  0
ARC
  5
179
100
AcDbEntity
  8
2
370
    50
100
AcDbCircle
 10
-219.231323
 20
92.671272
 30
0.0
 40
0.5
100
AcDbArc
 50
245.953414
 51
299.193992
  0
ARC
  5
17A
100
AcDbEntity
  8
2
370
    50
100
AcDbCircle
 10
-223.683807
 20
95.242034
 30
0.0
 40
0.5
100
AcDbArc
 50
180.806342
 51
234.044281
  0
ARC
  5
17B
100
AcDbEntity
  8
2
370
    50
100
AcDbCircle
 10
-233.780268
 20
112.729883
 30
0.0
 40
0.5
100
AcDbArc
 50
185.954963
 51
239.192903
  0
ARC
  5
17C
100
AcDbEntity
  8
2
370
    50
100
AcDbCircle
 10
-233.780268
 20
117.871569
 30
0.0
 40
0.5
100
AcDbArc
 50
120.807097
 51
174.045037
  0
ARC
  5
17D
100
AcDbEntity
  8
2
370
    50
100
AcDbCircle
 10
-223.683807
 20
135.359418
 30
0.0
 40
0.5
100
AcDbArc
 50
125.955719
 51
179.193658
  0
ARC
  5
17E
100
AcDbEntity
  8
2
370
    50
100
AcDbCircle
 10
-219.231323
 20
137.93018
 30
0.0
 40
0.5
100
AcDbArc
 50
60.806008
 51
114.046586
  0
ARC
  5
17F
100
AcDbEntity
  8
2
370
    50
100
AcDbCircle
 10
-199.037247
 20
137.930446
 30
0.0
 40
0.5
100
AcDbArc
 50
65.954926
 51
119.195503
  0
ARC
  5
180
100
AcDbEntity
  8
2
370
    50
100
AcDbCircle
 10
-194.585251
 20
135.360205
 30
0.0
 40
0.5
100
AcDbArc
 50
0.804164
 51
54.047379
  0
ARC
  5
181
100
AcDbEntity
  8
2
370
    50
100
AcDbCircle
 10
-184.487635
 20
117.870887
 30
0.0
 40
0.5
100
AcDbArc
 50
5.953377
 51
59.196591
  0
ARC
  5
182
100
AcDbEntity
  8
2
370
    50
100
AcDbCircle
 10
-184.487635
 20
112.730565
 30
0.0
 40
0.5
100
AcDbArc
 50
300.803409
 51
354.046623
  0
ARC
  5
183
100
AcDbEntity
  8
2
370
    50
100
AcDbCircle
 10
-194.585251
 20
95.241247
 30
0.0
 40
0.5
100
AcDbArc
 50
305.952621
 51
359.195836
  0
ARC
  5
184
100
AcDbEntity
  8
2
370
    50
100
AcDbCircle
 10
-199.037247
 20
92.671006
 30
0.0
 40
0.5
100
AcDbArc
 50
240.804497
 51
294.045074
  0
POINT
  5
185
100
AcDbEntity
  8
2
370
    50
100
AcDbPoint
 10
-209.134523
 20
115.300726
 30
0.0
  0
LINE
  5
186
100
AcDbEntity
  8
2
370
    50
100
AcDbLine
 10
-201.495806
 20
137.300726
 30
0.0
 11
-216.773241
 21
137.300726
 31
0.0
  0
LINE
  5
187
100
AcDbEntity
  8
2
370
    50
100
AcDbLine
 10
-196.680939
 20
137.300726
 30
0.0
 11
-195.884523
 21
137.300726
 31
0.0
  0
CIRCLE
  5
188
100
AcDbEntity
  8
2
370
    50
100
AcDbCircle
 10
-209.134523
 20
115.300726
 30
0.0
 40
8.0
  0
LINE
  5
189
100
AcDbEntity
  8
2
370
    50
100
AcDbLine
 10
-216.773241
 20
137.300726
 30
0.0
 11
-201.495806
 21
137.300726
 31
0.0
  0
LINE
  5
18A
100
AcDbEntity
  8
2
370
    50
100
AcDbLine
 10
-195.884523
 20
137.300726
 30
0.0
 11
-196.680939
 21
137.300726
 31
0.0
  0
LINE
  5
18B
100
AcDbEntity
  8
2
370
    50
100
AcDbLine
 10
-222.384523
 20
137.300726
 30
0.0
 11
-221.587035
 21
137.300726
 31
0.0
  0
ARC
  5
18C
100
AcDbEntity
  8
2
370
    50
100
AcDbCircle
 10
-61.959045
 20
140.663857
 30
0.0
 40
3.363131
100
AcDbArc
 50
203.910931
 51
224.225934
  0
ARC
  5
18D
100
AcDbEntity
  8
2
370
    50
100
AcDbCircle
 10
-61.959045
 20
140.663857
 30
0.0
 40
3.363131
100
AcDbArc
 50
274.438131
 51
336.089069
  0
ARC
  5
18E
100
AcDbEntity
  8
2
370
    50
100
AcDbCircle
 10
-86.310054
 20
140.663857
 30
0.0
 40
3.363131
100
AcDbArc
 50
203.910931
 51
265.578
  0
ARC
  5
18F
100
AcDbEntity
  8
2
370
    50
100
AcDbCircle
 10
-86.310054
 20
140.663857
 30
0.0
 40
3.363131
100
AcDbArc
 50
315.774066
 51
336.089069
  0
LINE
  5
190
100
AcDbEntity
  8
2
370
    50
100
AcDbLine
 10
-44.63455
 20
207.100726
 30
0.0
 11
-23.63455
 21
207.100726
 31
0.0
  0
LINE
  5
191
100
AcDbEntity
  8
2
370
    50
100
AcDbLine
 10
-259.634523
 20
207.100726
 30
0.0
 11
-238.634523
 21
207.100726
 31
0.0
  0
LINE
  5
192
100
AcDbEntity
  8
2
370
    50
100
AcDbLine
 10
-44.13455
 20
153.800726
 30
0.0
 11
-24.13455
 21
153.800726
 31
0.0
  0
LINE
  5
193
100
AcDbEntity
  8
2
370
    50
100
AcDbLine
 10
-239.134523
 20
153.800726
 30
0.0
 11
-259.134523
 21
153.800726
 31
0.0
  0
ARC
  5
194
100
AcDbEntity
  8
2
370
    50
100
AcDbCircle
 10
-87.43455
 20
172.800726
 30
0.0
 40
0.5
100
AcDbArc
 50
90.0
 51
180.0
  0
ARC
  5
195
100
AcDbEntity
  8
2
370
    50
100
AcDbCircle
 10
-45.88455
 20
173.800726
 30
0.0
 40
0.5
100
AcDbArc
 50
270.0
 51
360.0
  0
ARC
  5
196
100
AcDbEntity
  8
2
370
    50
100
AcDbCircle
 10
-87.43455
 20
159.800726
 30
0.0
 40
0.5
100
AcDbArc
 50
180.0
 51
270.0
  0
ARC
  5
197
100
AcDbEntity
  8
2
370
    50
100
AcDbCircle
 10
-195.834523
 20
172.800726
 30
0.0
 40
0.5
100
AcDbArc
 50
0.0
 51
90.0
  0
ARC
  5
198
100
AcDbEntity
  8
2
370
    50
100
AcDbCircle
 10
-195.834523
 20
159.800726
 30
0.0
 40
0.5
100
AcDbArc
 50
270.0
 51
360.0
  0
ARC
  5
199
100
AcDbEntity
  8
2
370
    50
100
AcDbCircle
 10
-237.384523
 20
173.800726
 30
0.0
 40
0.5
100
AcDbArc
 50
180.0
 51
270.0
  0
LINE
  5
19A
100
AcDbEntity
  8
2
370
    50
100
AcDbLine
 10
-11.13455
 20
191.800726
 30
0.0
 11
-21.373776
 21
184.486993
 31
0.0
  0
LINE
  5
19B
100
AcDbEntity
  8
2
370
    50
100
AcDbLine
 10
-57.13455
 20
191.800726
 30
0.0
 11
-46.895323
 21
184.486993
 31
0.0
  0
ARC
  5
19C
100
AcDbEntity
  8
2
370
    50
100
AcDbCircle
 10
-21.955015
 20
185.300726
 30
0.0
 40
1.0
100
AcDbArc
 50
270.0
 51
305.537678
  0
ARC
  5
19D
100
AcDbEntity
  8
2
370
    50
100
AcDbCircle
 10
-46.314085
 20
185.300726
 30
0.0
 40
1.0
100
AcDbArc
 50
234.462322
 51
270.0
  0
LINE
  5
19E
100
AcDbEntity
  8
2
370
    50
100
AcDbLine
 10
-132.533528
 20
103.064136
 30
0.0
 11
-132.302273
 21
103.464681
 31
0.0
  0
POINT
  5
19F
100
AcDbEntity
  8
2
370
    50
100
AcDbPoint
 10
-141.634537
 20
115.300726
 30
0.0
  0
ARC
  5
1A0
100
AcDbEntity
  8
2
370
    50
100
AcDbCircle
 10
-141.634537
 20
115.300726
 30
0.0
 40
14.0
100
AcDbArc
 50
251.842218
 51
294.60292
  0
ARC
  5
1A1
100
AcDbEntity
  8
2
370
    50
100
AcDbCircle
 10
-141.634537
 20
115.300726
 30
0.0
 40
14.0
100
AcDbArc
 50
65.39708
 51
108.157782
  0
POINT
  5
1A2
100
AcDbEntity
  8
2
370
    50
100
AcDbPoint
 10
-34.13455
 20
194.300726
 30
0.0
  0
POINT
  5
1A3
100
AcDbEntity
  8
2
370
    50
100
AcDbPoint
 10
-34.13455
 20
191.300726
 30
0.0
  0
LINE
  5
1A4
100
AcDbEntity
  8
2
370
    50
100
AcDbLine
 10
-45.38455
 20
181.300726
 30
0.0
 11
-22.88455
 21
181.300726
 31
0.0
  0
LINE
  5
1A5
100
AcDbEntity
  8
2
370
    50
100
AcDbLine
 10
-43.43455
 20
184.300726
 30
0.0
 11
-24.83455
 21
184.300726
 31
0.0
  0
LINE
  5
1A6
100
AcDbEntity
  8
2
370
    50
100
AcDbLine
 10
-24.83455
 20
184.300726
 30
0.0
 11
-23.63455
 21
182.222265
 31
0.0
  0
LINE
  5
1A7
100
AcDbEntity
  8
2
370
    50
100
AcDbLine
 10
-23.63455
 20
181.300726
 30
0.0
 11
-23.63455
 21
184.300726
 31
0.0
  0
LINE
  5
1A8
100
AcDbEntity
  8
2
370
    50
100
AcDbLine
 10
-23.63455
 20
194.300726
 30
0.0
 11
-23.63455
 21
207.100726
 31
0.0
  0
LINE
  5
1A9
100
AcDbEntity
  8
2
370
    25
100
AcDbLine
 10
-24.83455
 20
194.300726
 30
0.0
 11
-24.83455
 21
208.300726
 31
0.0
  0
LINE
  5
1AA
100
AcDbEntity
  8
2
370
    50
100
AcDbLine
 10
-44.63455
 20
181.300726
 30
0.0
 11
-44.63455
 21
184.300726
 31
0.0
  0
LINE
  5
1AB
100
AcDbEntity
  8
2
370
    50
100
AcDbLine
 10
-44.63455
 20
194.300726
 30
0.0
 11
-44.63455
 21
207.100726
 31
0.0
  0
LINE
  5
1AC
100
AcDbEntity
  8
2
370
    50
100
AcDbLine
 10
-43.43455
 20
184.300726
 30
0.0
 11
-44.63455
 21
182.222265
 31
0.0
  0
LINE
  5
1AD
100
AcDbEntity
  8
2
370
    50
100
AcDbLine
 10
-272.134523
 20
194.300726
 30
0.0
 11
-226.134523
 21
194.300726
 31
0.0
  0
LINE
  5
1AE
100
AcDbEntity
  8
2
370
    50
100
AcDbLine
 10
-272.134523
 20
191.800726
 30
0.0
 11
-226.134523
 21
191.800726
 31
0.0
  0
LINE
  5
1AF
100
AcDbEntity
  8
2
370
    50
100
AcDbLine
 10
-238.634523
 20
194.300726
 30
0.0
 11
-238.634523
 21
207.100726
 31
0.0
  0
LINE
  5
1B0
100
AcDbEntity
  8
2
370
    25
100
AcDbLine
 10
-239.834523
 20
194.300726
 30
0.0
 11
-239.834523
 21
208.300726
 31
0.0
  0
LINE
  5
1B1
100
AcDbEntity
  8
2
370
    25
100
AcDbLine
 10
-258.434523
 20
194.300726
 30
0.0
 11
-258.434523
 21
208.300726
 31
0.0
  0
LINE
  5
1B2
100
AcDbEntity
  8
2
370
    50
100
AcDbLine
 10
-259.634523
 20
194.300726
 30
0.0
 11
-259.634523
 21
207.100726
 31
0.0
  0
LINE
  5
1B3
100
AcDbEntity
  8
2
370
    50
100
AcDbLine
 10
-272.134523
 20
194.300726
 30
0.0
 11
-272.134523
 21
191.800726
 31
0.0
  0
LINE
  5
1B4
100
AcDbEntity
  8
2
370
    50
100
AcDbLine
 10
-272.134523
 20
191.800726
 30
0.0
 11
-261.895297
 21
184.486993
 31
0.0
  0
LINE
  5
1B5
100
AcDbEntity
  8
2
370
    50
100
AcDbLine
 10
-226.134523
 20
191.800726
 30
0.0
 11
-236.37375
 21
184.486993
 31
0.0
  0
LINE
  5
1B6
100
AcDbEntity
  8
2
370
    50
100
AcDbLine
 10
-239.834523
 20
184.300726
 30
0.0
 11
-258.434523
 21
184.300726
 31
0.0
  0
LINE
  5
1B7
100
AcDbEntity
  8
2
370
    50
100
AcDbLine
 10
-261.314058
 20
184.300726
 30
0.0
 11
-236.954989
 21
184.300726
 31
0.0
  0
ARC
  5
1B8
100
AcDbEntity
  8
2
370
    50
100
AcDbCircle
 10
-236.954989
 20
185.300726
 30
0.0
 40
1.0
100
AcDbArc
 50
270.0
 51
305.537678
  0
LINE
  5
1B9
100
AcDbEntity
  8
2
370
    50
100
AcDbLine
 10
-237.884523
 20
181.300726
 30
0.0
 11
-260.384523
 21
181.300726
 31
0.0
  0
LINE
  5
1BA
100
AcDbEntity
  8
2
370
    50
100
AcDbLine
 10
-239.834523
 20
184.300726
 30
0.0
 11
-238.634523
 21
182.222265
 31
0.0
  0
LINE
  5
1BB
100
AcDbEntity
  8
2
370
    50
100
AcDbLine
 10
-259.634523
 20
181.300726
 30
0.0
 11
-259.634523
 21
184.300726
 31
0.0
  0
LINE
  5
1BC
100
AcDbEntity
  8
2
370
    50
100
AcDbLine
 10
-239.834523
 20
184.300726
 30
0.0
 11
-258.434523
 21
184.300726
 31
0.0
  0
LINE
  5
1BD
100
AcDbEntity
  8
2
370
    50
100
AcDbLine
 10
-258.434523
 20
184.300726
 30
0.0
 11
-259.634523
 21
182.222265
 31
0.0
  0
LINE
  5
1BE
100
AcDbEntity
  8
2
370
    50
100
AcDbLine
 10
-239.834523
 20
184.300726
 30
0.0
 11
-238.634523
 21
182.222265
 31
0.0
  0
LINE
  5
1BF
100
AcDbEntity
  8
2
370
    50
100
AcDbLine
 10
-261.314058
 20
184.300726
 30
0.0
 11
-236.954989
 21
184.300726
 31
0.0
  0
LINE
  5
1C0
100
AcDbEntity
  8
2
370
    50
100
AcDbLine
 10
-237.884523
 20
181.300726
 30
0.0
 11
-260.384523
 21
181.300726
 31
0.0
  0
LINE
  5
1C1
100
AcDbEntity
  8
2
370
    50
100
AcDbLine
 10
-238.634523
 20
181.300726
 30
0.0
 11
-238.634523
 21
184.300726
 31
0.0
  0
LINE
  5
1C2
100
AcDbEntity
  8
2
370
    50
100
AcDbLine
 10
-226.134523
 20
194.300726
 30
0.0
 11
-226.134523
 21
191.800726
 31
0.0
  0
ARC
  5
1C3
100
AcDbEntity
  8
2
370
    50
100
AcDbCircle
 10
-261.314058
 20
185.300726
 30
0.0
 40
1.0
100
AcDbArc
 50
234.462322
 51
270.0
  0
LINE
  5
1C4
100
AcDbEntity
  8
2
370
    50
100
AcDbLine
 10
106.365733
 20
-79.57802
 30
0.0
 11
106.365733
 21
-72.945517
 31
0.0
  0
LINE
  5
1C5
100
AcDbEntity
  8
2
370
    50
100
AcDbLine
 10
81.365733
 20
-72.945517
 30
0.0
 11
81.365733
 21
-96.445517
 31
0.0
  0
ARC
  5
1C6
100
AcDbEntity
  8
2
370
    50
100
AcDbCircle
 10
93.865733
 20
-96.445517
 30
0.0
 40
12.5
100
AcDbArc
 50
180.0
 51
270.0
  0
LINE
  5
1C7
100
AcDbEntity
  8
2
370
    50
100
AcDbLine
 10
93.865733
 20
-108.945517
 30
0.0
 11
115.865733
 21
-108.945517
 31
0.0
  0
LINE
  5
1C8
100
AcDbEntity
  8
2
370
    50
100
AcDbLine
 10
110.865733
 20
-88.945517
 30
0.0
 11
115.865733
 21
-88.945517
 31
0.0
  0
ARC
  5
1C9
100
AcDbEntity
  8
2
370
    50
100
AcDbCircle
 10
118.365733
 20
-79.57802
 30
0.0
 40
12.0
100
AcDbArc
 50
180.0
 51
231.317813
  0
LINE
  5
1CA
100
AcDbEntity
  8
2
370
    50
100
AcDbLine
 10
84.115733
 20
-65.245517
 30
0.0
 11
84.065733
 21
-65.245517
 31
0.0
  0
LINE
  5
1CB
100
AcDbEntity
  8
2
370
    50
100
AcDbLine
 10
103.615733
 20
-65.245517
 30
0.0
 11
103.665733
 21
-65.245517
 31
0.0
  0
ARC
  5
1CC
100
AcDbEntity
  8
2
370
    50
100
AcDbCircle
 10
168.597255
 20
-51.524679
 30
0.0
 40
100.0
100
AcDbArc
 50
168.537652
 51
188.388164
  0
ARC
  5
1CD
100
AcDbEntity
  8
2
370
    50
100
AcDbCircle
 10
79.412204
 20
-33.440802
 30
0.0
 40
9.0
100
AcDbArc
 50
96.34007
 51
168.537652
  0
ARC
  5
1CE
100
AcDbEntity
  8
2
370
    50
100
AcDbCircle
 10
93.878456
 20
-163.639602
 30
0.0
 40
140.0
100
AcDbArc
 50
93.788374
 51
96.34007
  0
ARC
  5
1CF
100
AcDbEntity
  8
2
370
    50
100
AcDbCircle
 10
86.128456
 20
-23.326578
 30
0.0
 40
1.0
100
AcDbArc
 50
95.629843
 51
180.0
  0
ARC
  5
1D0
100
AcDbEntity
  8
2
370
    50
100
AcDbCircle
 10
93.878456
 20
-101.945517
 30
0.0
 40
80.0
100
AcDbArc
 50
84.370157
 51
95.629843
  0
ARC
  5
1D1
100
AcDbEntity
  8
2
370
    50
100
AcDbCircle
 10
101.628456
 20
-23.326578
 30
0.0
 40
1.0
100
AcDbArc
 50
0.0
 51
84.370157
  0
LINE
  5
1D2
100
AcDbEntity
  8
2
370
    50
100
AcDbLine
 10
103.128456
 20
-23.945517
 30
0.0
 11
84.628456
 21
-23.945517
 31
0.0
  0
ARC
  5
1D3
100
AcDbEntity
  8
2
370
    50
100
AcDbCircle
 10
93.878456
 20
-163.639602
 30
0.0
 40
140.0
100
AcDbArc
 50
83.65993
 51
86.211626
  0
ARC
  5
1D4
100
AcDbEntity
  8
2
370
    50
100
AcDbCircle
 10
108.344709
 20
-33.440802
 30
0.0
 40
9.0
100
AcDbArc
 50
11.462348
 51
83.65993
  0
ARC
  5
1D5
100
AcDbEntity
  8
2
370
    50
100
AcDbCircle
 10
19.159657
 20
-51.524679
 30
0.0
 40
100.0
100
AcDbArc
 50
351.611836
 51
11.462348
  0
ARC
  5
1D6
100
AcDbEntity
  8
2
370
    50
100
AcDbCircle
 10
110.175486
 20
-64.945517
 30
0.0
 40
8.0
100
AcDbArc
 50
270.0
 51
351.611836
  0
LINE
  5
1D7
100
AcDbEntity
  8
2
370
    50
100
AcDbLine
 10
110.175486
 20
-72.945517
 30
0.0
 11
81.878456
 21
-72.945517
 31
0.0
  0
LINE
  5
1D8
100
AcDbEntity
  8
2
370
    50
100
AcDbLine
 10
81.878456
 20
-72.945517
 30
0.0
 11
77.581426
 21
-72.945517
 31
0.0
  0
ARC
  5
1D9
100
AcDbEntity
  8
2
370
    50
100
AcDbCircle
 10
77.581426
 20
-64.945517
 30
0.0
 40
8.0
100
AcDbArc
 50
188.388164
 51
270.0
  0
LINE
  5
1DA
100
AcDbEntity
  8
2
370
    50
100
AcDbLine
 10
102.628456
 20
-23.326578
 30
0.0
 11
102.628456
 21
-23.945517
 31
0.0
  0
LINE
  5
1DB
100
AcDbEntity
  8
2
370
    50
100
AcDbLine
 10
85.128456
 20
-23.326578
 30
0.0
 11
85.128456
 21
-23.945517
 31
0.0
  0
ARC
  5
1DC
100
AcDbEntity
  8
2
370
    50
100
AcDbCircle
 10
-15.786484
 20
-52.039851
 30
0.0
 40
120.0
100
AcDbArc
 50
355.059572
 51
9.155483
  0
ARC
  5
1DD
100
AcDbEntity
  8
2
370
    50
100
AcDbCircle
 10
203.543397
 20
-52.039851
 30
0.0
 40
120.0
100
AcDbArc
 50
170.844517
 51
184.940428
  0
ARC
  5
1DE
100
AcDbEntity
  8
2
370
    50
100
AcDbCircle
 10
93.878456
 20
-34.365437
 30
0.0
 40
8.91992
100
AcDbArc
 50
9.155483
 51
170.844517
  0
ARC
  5
1DF
100
AcDbEntity
  8
2
370
    50
100
AcDbCircle
 10
93.878456
 20
-61.519406
 30
0.0
 40
9.926111
100
AcDbArc
 50
184.940428
 51
355.059572
  0
LINE
  5
1E0
100
AcDbEntity
  8
2
370
    50
100
AcDbLine
 10
108.378456
 20
-27.445517
 30
0.0
 11
108.378456
 21
-68.445517
 31
0.0
  0
LINE
  5
1E1
100
AcDbEntity
  8
2
370
    50
100
AcDbLine
 10
79.378456
 20
-27.445517
 30
0.0
 11
79.378456
 21
-68.445517
 31
0.0
  0
ARC
  5
1E2
100
AcDbEntity
  8
2
370
    50
100
AcDbCircle
 10
19.159657
 20
-51.524679
 30
0.0
 40
99.5
100
AcDbArc
 50
352.362481
 51
11.528523
  0
ARC
  5
1E3
100
AcDbEntity
  8
2
370
    50
100
AcDbCircle
 10
168.597255
 20
-51.524679
 30
0.0
 40
99.5
100
AcDbArc
 50
168.471477
 51
187.637519
  0
ARC
  5
1E4
100
AcDbEntity
  8
2
370
    50
100
AcDbCircle
 10
78.943237
 20
-33.237879
 30
0.0
 40
8.0
100
AcDbArc
 50
105.117347
 51
168.471477
  0
ARC
  5
1E5
100
AcDbEntity
  8
2
370
    50
100
AcDbCircle
 10
77.378456
 20
-27.445517
 30
0.0
 40
2.0
100
AcDbArc
 50
0.0
 51
105.117347
  0
ARC
  5
1E6
100
AcDbEntity
  8
2
370
    50
100
AcDbCircle
 10
108.813675
 20
-33.237879
 30
0.0
 40
8.0
100
AcDbArc
 50
11.528523
 51
74.882653
  0
ARC
  5
1E7
100
AcDbEntity
  8
2
370
    50
100
AcDbCircle
 10
110.378456
 20
-27.445517
 30
0.0
 40
2.0
100
AcDbArc
 50
74.882653
 51
180.0
  0
ARC
  5
1E8
100
AcDbEntity
  8
2
370
    50
100
AcDbCircle
 10
77.908977
 20
-63.685526
 30
0.0
 40
8.0
100
AcDbArc
 50
187.637519
 51
252.175397
  0
ARC
  5
1E9
100
AcDbEntity
  8
2
370
    50
100
AcDbCircle
 10
76.378456
 20
-68.445517
 30
0.0
 40
3.0
100
AcDbArc
 50
252.175397
 51
360.0
  0
ARC
  5
1EA
100
AcDbEntity
  8
2
370
    50
100
AcDbCircle
 10
111.378456
 20
-68.445517
 30
0.0
 40
3.0
100
AcDbArc
 50
180.0
 51
287.824603
  0
ARC
  5
1EB
100
AcDbEntity
  8
2
370
    50
100
AcDbCircle
 10
109.847936
 20
-63.685526
 30
0.0
 40
8.0
100
AcDbArc
 50
287.824603
 51
352.362481
  0
LINE
  5
1EC
100
AcDbEntity
  8
2
370
    50
100
AcDbLine
 10
81.365733
 20
-73.195517
 30
0.0
 11
81.365733
 21
-72.945517
 31
0.0
  0
LINE
  5
1ED
100
AcDbEntity
  8
2
370
    50
100
AcDbLine
 10
106.365733
 20
-72.945517
 30
0.0
 11
106.365733
 21
-74.108118
 31
0.0
  0
POINT
  5
1EE
100
AcDbEntity
  8
2
370
    50
100
AcDbPoint
 10
93.878456
 20
-21.945517
 30
0.0
  0
LINE
  5
1EF
100
AcDbEntity
  8
2
370
    50
100
AcDbLine
 10
151.865733
 20
-85.145517
 30
0.0
 11
151.865733
 21
-127.695517
 31
0.0
  0
LINE
  5
1F0
100
AcDbEntity
  8
2
370
    50
100
AcDbLine
 10
137.865733
 20
-85.145517
 30
0.0
 11
151.865733
 21
-85.145517
 31
0.0
  0
LINE
  5
1F1
100
AcDbEntity
  8
2
370
    50
100
AcDbLine
 10
186.865733
 20
-129.645517
 30
0.0
 11
186.865733
 21
-148.245517
 31
0.0
  0
LINE
  5
1F2
100
AcDbEntity
  8
2
370
    25
100
AcDbLine
 10
172.865733
 20
-148.245517
 30
0.0
 11
186.865733
 21
-148.245517
 31
0.0
  0
LINE
  5
1F3
100
AcDbEntity
  8
2
370
    25
100
AcDbLine
 10
172.865733
 20
-129.645517
 30
0.0
 11
186.865733
 21
-129.645517
 31
0.0
  0
LINE
  5
1F4
100
AcDbEntity
  8
2
370
    50
100
AcDbLine
 10
162.865733
 20
-148.245517
 30
0.0
 11
160.787272
 21
-149.445517
 31
0.0
  0
LINE
  5
1F5
100
AcDbEntity
  8
2
370
    50
100
AcDbLine
 10
162.865733
 20
-129.645517
 30
0.0
 11
160.787272
 21
-128.445517
 31
0.0
  0
LINE
  5
1F6
100
AcDbEntity
  8
2
370
    50
100
AcDbLine
 10
186.865733
 20
-148.245517
 30
0.0
 11
185.665733
 21
-149.445517
 31
0.0
  0
LINE
  5
1F7
100
AcDbEntity
  8
2
370
    50
100
AcDbLine
 10
186.865733
 20
-129.645517
 30
0.0
 11
185.665733
 21
-128.445517
 31
0.0
  0
LINE
  5
1F8
100
AcDbEntity
  8
2
370
    50
100
AcDbLine
 10
137.865733
 20
-85.145517
 30
0.0
 11
137.865733
 21
-127.445517
 31
0.0
  0
LINE
  5
1F9
100
AcDbEntity
  8
2
370
    25
  6
CENTER
100
AcDbLine
 10
191.90281
 20
-138.945517
 30
0.0
 11
125.77542
 21
-138.945517
 31
0.0
  0
LINE
  5
1FA
100
AcDbEntity
  8
2
370
    25
  6
CENTER
100
AcDbLine
 10
154.341734
 20
-98.945517
 30
0.0
 11
93.865733
 21
-98.945517
 31
0.0
  0
LINE
  5
1FB
100
AcDbEntity
  8
2
370
    50
100
AcDbLine
 10
138.365733
 20
-127.445517
 30
0.0
 11
137.865733
 21
-127.445517
 31
0.0
  0
LINE
  5
1FC
100
AcDbEntity
  8
2
370
    50
100
AcDbLine
 10
159.865733
 20
-127.695517
 30
0.0
 11
151.865733
 21
-127.695517
 31
0.0
  0
LINE
  5
1FD
100
AcDbEntity
  8
2
370
    50
100
AcDbLine
 10
159.865733
 20
-127.695517
 30
0.0
 11
159.865733
 21
-150.195517
 31
0.0
  0
LINE
  5
1FE
100
AcDbEntity
  8
2
370
    50
100
AcDbLine
 10
115.865733
 20
-111.121021
 30
0.0
 11
115.865733
 21
-86.770012
 31
0.0
  0
LINE
  5
1FF
100
AcDbEntity
  8
2
370
    50
100
AcDbLine
 10
130.865733
 20
-111.121021
 30
0.0
 11
130.865733
 21
-86.770012
 31
0.0
  0
LINE
  5
200
100
AcDbEntity
  8
2
370
    50
100
AcDbLine
 10
117.865733
 20
-83.695517
 30
0.0
 11
128.865733
 21
-83.695517
 31
0.0
  0
LINE
  5
201
100
AcDbEntity
  8
2
370
    50
100
AcDbLine
 10
117.865733
 20
-114.195517
 30
0.0
 11
128.865733
 21
-114.195517
 31
0.0
  0
LINE
  5
202
100
AcDbEntity
  8
2
370
    50
100
AcDbLine
 10
130.865733
 20
-85.945517
 30
0.0
 11
137.865733
 21
-85.945517
 31
0.0
  0
LINE
  5
203
100
AcDbEntity
  8
2
370
    50
100
AcDbLine
 10
130.865733
 20
-111.945517
 30
0.0
 11
137.865733
 21
-111.945517
 31
0.0
  0
LINE
  5
204
100
AcDbEntity
  8
2
370
    50
100
AcDbLine
 10
130.865733
 20
-86.845517
 30
0.0
 11
133.865733
 21
-86.845517
 31
0.0
  0
LINE
  5
205
100
AcDbEntity
  8
2
370
    50
100
AcDbLine
 10
133.865733
 20
-86.845517
 30
0.0
 11
135.424579
 21
-85.945517
 31
0.0
  0
LINE
  5
206
100
AcDbEntity
  8
2
370
    50
100
AcDbLine
 10
130.865733
 20
-111.045517
 30
0.0
 11
133.865733
 21
-111.045517
 31
0.0
  0
LINE
  5
207
100
AcDbEntity
  8
2
370
    50
100
AcDbLine
 10
133.865733
 20
-111.045517
 30
0.0
 11
135.424579
 21
-111.945517
 31
0.0
  0
LINE
  5
208
100
AcDbEntity
  8
2
370
    50
100
AcDbLine
 10
133.865733
 20
-111.045517
 30
0.0
 11
135.424579
 21
-111.945517
 31
0.0
  0
LINE
  5
209
100
AcDbEntity
  8
2
370
    50
100
AcDbLine
 10
138.365733
 20
-127.945517
 30
0.0
 11
134.601801
 21
-127.945517
 31
0.0
  0
ARC
  5
20A
100
AcDbEntity
  8
2
370
    50
100
AcDbCircle
 10
132.365733
 20
-133.945517
 30
0.0
 40
5.0
100
AcDbArc
 50
90.0
 51
180.0
  0
ARC
  5
20B
100
AcDbEntity
  8
2
370
    50
100
AcDbCircle
 10
132.365733
 20
-143.945517
 30
0.0
 40
5.0
100
AcDbArc
 50
180.0
 51
270.0
  0
ARC
  5
20C
100
AcDbEntity
  8
2
370
    50
100
AcDbCircle
 10
134.601801
 20
-130.945517
 30
0.0
 40
3.0
100
AcDbArc
 50
90.0
 51
138.189685
  0
LINE
  5
20D
100
AcDbEntity
  8
2
370
    50
100
AcDbLine
 10
138.365733
 20
-150.195517
 30
0.0
 11
138.365733
 21
-127.445517
 31
0.0
  0
LINE
  5
20E
100
AcDbEntity
  8
2
370
    50
100
AcDbLine
 10
126.463809
 20
-142.370517
 30
0.0
 11
126.463809
 21
-135.520517
 31
0.0
  0
LINE
  5
20F
100
AcDbEntity
  8
2
370
    50
100
AcDbLine
 10
127.365733
 20
-143.945517
 30
0.0
 11
127.365733
 21
-133.945517
 31
0.0
  0
ARC
  5
210
100
AcDbEntity
  8
2
370
    50
100
AcDbCircle
 10
127.463809
 20
-135.520517
 30
0.0
 40
1.0
100
AcDbArc
 50
95.628401
 51
180.0
  0
ARC
  5
211
100
AcDbEntity
  8
2
370
    50
100
AcDbCircle
 10
127.463809
 20
-142.370517
 30
0.0
 40
1.0
100
AcDbArc
 50
180.0
 51
264.371599
  0
POINT
  5
212
100
AcDbEntity
  8
2
370
    50
100
AcDbPoint
 10
93.865733
 20
-93.945517
 30
0.0
  0
LINE
  5
213
100
AcDbEntity
  8
2
370
    50
100
AcDbLine
 10
80.865733
 20
-113.945663
 30
0.0
 11
80.865733
 21
-115.945663
 31
0.0
  0
LINE
  5
214
100
AcDbEntity
  8
2
370
    50
100
AcDbLine
 10
106.865733
 20
-113.945663
 30
0.0
 11
106.865733
 21
-115.945663
 31
0.0
  0
LINE
  5
215
100
AcDbEntity
  8
2
370
    50
100
AcDbLine
 10
81.500733
 20
-115.945517
 30
0.0
 11
80.865733
 21
-115.310517
 31
0.0
  0
POINT
  5
216
100
AcDbEntity
  8
2
370
    50
100
AcDbPoint
 10
93.865733
 20
-124.224152
 30
0.0
  0
POINT
  5
217
100
AcDbEntity
  8
2
370
    50
100
AcDbPoint
 10
93.865733
 20
-124.224152
 30
0.0
  0
LINE
  5
218
100
AcDbEntity
  8
2
370
    50
100
AcDbLine
 10
80.365733
 20
-92.092047
 30
0.0
 11
80.365733
 21
-113.945663
 31
0.0
  0
ARC
  5
219
100
AcDbEntity
  8
2
370
    50
100
AcDbCircle
 10
93.865733
 20
-93.945517
 30
0.0
 40
13.5
100
AcDbArc
 50
157.808393
 51
180.0
  0
LINE
  5
21A
100
AcDbEntity
  8
2
370
    50
100
AcDbLine
 10
107.365733
 20
-113.945663
 30
0.0
 11
80.365733
 21
-113.945663
 31
0.0
  0
LINE
  5
21B
100
AcDbEntity
  8
2
370
    50
100
AcDbLine
 10
107.365733
 20
-108.945517
 30
0.0
 11
107.365733
 21
-113.945663
 31
0.0
  0
LINE
  5
21C
100
AcDbEntity
  8
2
370
    50
100
AcDbLine
 10
106.230733
 20
-115.945517
 30
0.0
 11
106.865733
 21
-115.310517
 31
0.0
  0
LINE
  5
21D
100
AcDbEntity
  8
2
370
    50
100
AcDbLine
 10
172.865733
 20
-115.945521
 30
0.0
 11
170.623042
 21
-115.945521
 31
0.0
  0
LINE
  5
21E
100
AcDbEntity
  8
2
370
    50
100
AcDbLine
 10
172.865733
 20
-161.945521
 30
0.0
 11
170.623042
 21
-161.945521
 31
0.0
  0
LINE
  5
21F
100
AcDbEntity
  8
2
370
    50
100
AcDbLine
 10
172.865733
 20
-161.945521
 30
0.0
 11
172.865733
 21
-115.945521
 31
0.0
  0
LINE
  5
220
100
AcDbEntity
  8
2
370
    50
100
AcDbLine
 10
170.216175
 20
-116.154902
 30
0.0
 11
163.052
 21
-126.184743
 31
0.0
  0
LINE
  5
221
100
AcDbEntity
  8
2
370
    50
100
AcDbLine
 10
170.216175
 20
-161.73614
 30
0.0
 11
163.052
 21
-151.70629
 31
0.0
  0
ARC
  5
222
100
AcDbEntity
  8
2
370
    50
100
AcDbCircle
 10
163.865733
 20
-126.765982
 30
0.0
 40
1.0
100
AcDbArc
 50
144.46231
 51
180.0
  0
ARC
  5
223
100
AcDbEntity
  8
2
370
    50
100
AcDbCircle
 10
163.865733
 20
-151.125052
 30
0.0
 40
1.0
100
AcDbArc
 50
180.0
 51
215.537666
  0
ARC
  5
224
100
AcDbEntity
  8
2
370
    50
100
AcDbCircle
 10
170.623042
 20
-116.445521
 30
0.0
 40
0.5
100
AcDbArc
 50
90.0
 51
144.46231
  0
ARC
  5
225
100
AcDbEntity
  8
2
370
    50
100
AcDbCircle
 10
170.623042
 20
-161.445521
 30
0.0
 40
0.5
100
AcDbArc
 50
215.537666
 51
270.0
  0
LINE
  5
226
100
AcDbEntity
  8
2
370
    50
100
AcDbLine
 10
162.865733
 20
-151.125052
 30
0.0
 11
162.865733
 21
-126.765982
 31
0.0
  0
LINE
  5
227
100
AcDbEntity
  8
2
370
    25
  6
CENTER
100
AcDbLine
 10
93.865733
 20
-14.069104
 30
0.0
 11
93.865733
 21
-179.898727
 31
0.0
  0
ARC
  5
228
100
AcDbEntity
  8
2
370
    50
100
AcDbCircle
 10
-141.634537
 20
115.300726
 30
0.0
 40
16.0
100
AcDbArc
 50
110.364135
 51
131.516308
  0
LINE
  5
229
100
AcDbEntity
  8
2
370
    50
100
AcDbLine
 10
85.46468
 20
-148.945716
 30
0.0
 11
84.86468
 21
-148.945716
 31
0.0
  0
LINE
  5
22A
100
AcDbEntity
  8
2
370
    50
100
AcDbLine
 10
87.01468
 20
-152.945716
 30
0.0
 11
87.01468
 21
-154.945716
 31
0.0
  0
LINE
  5
22B
100
AcDbEntity
  8
2
370
    50
100
AcDbLine
 10
85.46468
 20
-157.445716
 30
0.0
 11
86.01468
 21
-157.995716
 31
0.0
  0
LINE
  5
22C
100
AcDbEntity
  8
2
370
    50
100
AcDbLine
 10
85.46468
 20
-148.945716
 30
0.0
 11
85.46468
 21
-150.567289
 31
0.0
  0
ARC
  5
22D
100
AcDbEntity
  8
2
370
    50
100
AcDbCircle
 10
87.46468
 20
-150.567289
 30
0.0
 40
2.0
100
AcDbArc
 50
180.0
 51
225.0
  0
LINE
  5
22E
100
AcDbEntity
  8
2
370
    50
100
AcDbLine
 10
86.050466
 20
-151.981502
 30
0.0
 11
87.01468
 21
-152.945716
 31
0.0
  0
LINE
  5
22F
100
AcDbEntity
  8
2
370
    50
100
AcDbLine
 10
85.46468
 20
-156.578558
 30
0.0
 11
85.46468
 21
-157.445716
 31
0.0
  0
ARC
  5
230
100
AcDbEntity
  8
2
370
    50
100
AcDbCircle
 10
85.66468
 20
-156.578558
 30
0.0
 40
0.2
100
AcDbArc
 50
135.0
 51
180.0
  0
LINE
  5
231
100
AcDbEntity
  8
2
370
    50
100
AcDbLine
 10
87.01468
 20
-154.945716
 30
0.0
 11
85.523258
 21
-156.437137
 31
0.0
  0
LINE
  5
232
100
AcDbEntity
  8
2
370
    50
100
AcDbLine
 10
86.01468
 20
-157.995716
 30
0.0
 11
86.01468
 21
-166.945716
 31
0.0
  0
ARC
  5
233
100
AcDbEntity
  8
2
370
    50
100
AcDbCircle
 10
87.01468
 20
-166.945716
 30
0.0
 40
1.0
100
AcDbArc
 50
180.0
 51
270.0
  0
LINE
  5
234
100
AcDbEntity
  8
2
370
    50
100
AcDbLine
 10
87.01468
 20
-167.945716
 30
0.0
 11
93.86468
 21
-167.945716
 31
0.0
  0
LINE
  5
235
100
AcDbEntity
  8
2
370
    50
100
AcDbLine
 10
86.01468
 20
-157.995716
 30
0.0
 11
93.86468
 21
-157.995716
 31
0.0
  0
LINE
  5
236
100
AcDbEntity
  8
2
370
    50
100
AcDbLine
 10
85.46468
 20
-157.445716
 30
0.0
 11
93.86468
 21
-157.445716
 31
0.0
  0
LINE
  5
237
100
AcDbEntity
  8
2
370
    50
100
AcDbLine
 10
85.523258
 20
-156.437137
 30
0.0
 11
93.86468
 21
-156.437137
 31
0.0
  0
LINE
  5
238
100
AcDbEntity
  8
2
370
    50
100
AcDbLine
 10
87.01468
 20
-154.945716
 30
0.0
 11
93.86468
 21
-154.945716
 31
0.0
  0
LINE
  5
239
100
AcDbEntity
  8
2
370
    50
100
AcDbLine
 10
87.01468
 20
-152.945716
 30
0.0
 11
93.86468
 21
-152.945716
 31
0.0
  0
LINE
  5
23A
100
AcDbEntity
  8
2
370
    50
100
AcDbLine
 10
85.46468
 20
-148.945716
 30
0.0
 11
93.86468
 21
-148.945716
 31
0.0
  0
LINE
  5
23B
100
AcDbEntity
  8
2
370
    50
100
AcDbLine
 10
80.16468
 20
-138.445716
 30
0.0
 11
79.86468
 21
-138.745716
 31
0.0
  0
LINE
  5
23C
100
AcDbEntity
  8
2
370
    50
100
AcDbLine
 10
81.86468
 20
-138.445716
 30
0.0
 11
80.16468
 21
-138.445716
 31
0.0
  0
LINE
  5
23D
100
AcDbEntity
  8
2
370
    50
100
AcDbLine
 10
79.86468
 20
-138.745716
 30
0.0
 11
79.86468
 21
-142.445716
 31
0.0
  0
LINE
  5
23E
100
AcDbEntity
  8
2
370
    50
100
AcDbLine
 10
79.86468
 20
-142.445716
 30
0.0
 11
75.86468
 21
-146.445716
 31
0.0
  0
LINE
  5
23F
100
AcDbEntity
  8
2
370
    50
100
AcDbLine
 10
71.86468
 20
-147.245716
 30
0.0
 11
72.429697
 21
-148.206246
 31
0.0
  0
ARC
  5
240
100
AcDbEntity
  8
2
370
    50
100
AcDbCircle
 10
73.722599
 20
-147.445716
 30
0.0
 40
1.5
100
AcDbArc
 50
210.465545
 51
270.0
  0
LINE
  5
241
100
AcDbEntity
  8
2
370
    50
100
AcDbLine
 10
84.86468
 20
-148.945716
 30
0.0
 11
73.722599
 21
-148.945716
 31
0.0
  0
LINE
  5
242
100
AcDbEntity
  8
2
370
    50
100
AcDbLine
 10
75.86468
 20
-146.445716
 30
0.0
 11
72.36468
 21
-146.445716
 31
0.0
  0
ARC
  5
243
100
AcDbEntity
  8
2
370
    50
100
AcDbCircle
 10
72.36468
 20
-146.945716
 30
0.0
 40
0.5
100
AcDbArc
 50
90.0
 51
180.0
  0
LINE
  5
244
100
AcDbEntity
  8
2
370
    50
100
AcDbLine
 10
71.86468
 20
-146.945716
 30
0.0
 11
71.86468
 21
-147.245716
 31
0.0
  0
LINE
  5
245
100
AcDbEntity
  8
2
370
    50
100
AcDbLine
 10
81.86468
 20
-138.445716
 30
0.0
 11
93.86468
 21
-138.445716
 31
0.0
  0
LINE
  5
246
100
AcDbEntity
  8
2
370
    50
100
AcDbLine
 10
87.748585
 20
-142.445716
 30
0.0
 11
85.744605
 21
-146.445716
 31
0.0
  0
LINE
  5
247
100
AcDbEntity
  8
2
370
    50
100
AcDbLine
 10
86.016534
 20
-142.445716
 30
0.0
 11
84.012554
 21
-146.445716
 31
0.0
  0
LINE
  5
248
100
AcDbEntity
  8
2
370
    50
100
AcDbLine
 10
86.016534
 20
-142.445716
 30
0.0
 11
87.748585
 21
-142.445716
 31
0.0
  0
LINE
  5
249
100
AcDbEntity
  8
2
370
    50
100
AcDbLine
 10
93.86468
 20
-146.445716
 30
0.0
 11
75.86468
 21
-146.445716
 31
0.0
  0
LINE
  5
24A
100
AcDbEntity
  8
2
370
    50
100
AcDbLine
 10
79.86468
 20
-142.445716
 30
0.0
 11
79.86468
 21
-145.445716
 31
0.0
  0
ARC
  5
24B
100
AcDbEntity
  8
2
370
    50
100
AcDbCircle
 10
78.86468
 20
-145.445716
 30
0.0
 40
1.0
100
AcDbArc
 50
270.0
 51
360.0
  0
LINE
  5
24C
100
AcDbEntity
  8
2
370
    50
100
AcDbLine
 10
87.748585
 20
-142.445716
 30
0.0
 11
87.748585
 21
-145.445716
 31
0.0
  0
ARC
  5
24D
100
AcDbEntity
  8
2
370
    50
100
AcDbCircle
 10
86.748585
 20
-145.445716
 30
0.0
 40
1.0
100
AcDbArc
 50
270.0
 51
360.0
  0
LINE
  5
24E
100
AcDbEntity
  8
2
370
    50
100
AcDbLine
 10
79.86468
 20
-138.745716
 30
0.0
 11
93.86468
 21
-138.745716
 31
0.0
  0
LINE
  5
24F
100
AcDbEntity
  8
2
370
    50
100
AcDbLine
 10
85.46468
 20
-150.567289
 30
0.0
 11
93.86468
 21
-150.567289
 31
0.0
  0
LINE
  5
250
100
AcDbEntity
  8
2
370
    50
100
AcDbLine
 10
71.86468
 20
-147.245716
 30
0.0
 11
93.86468
 21
-147.245716
 31
0.0
  0
LINE
  5
251
100
AcDbEntity
  8
2
370
    50
100
AcDbLine
 10
93.86468
 20
-127.445716
 30
0.0
 11
81.86468
 21
-127.445716
 31
0.0
  0
LINE
  5
252
100
AcDbEntity
  8
2
370
    50
100
AcDbLine
 10
91.915733
 20
-171.445716
 30
0.0
 11
95.815733
 21
-171.445716
 31
0.0
  0
LINE
  5
253
100
AcDbEntity
  8
2
370
    50
100
AcDbLine
 10
91.715733
 20
-176.445716
 30
0.0
 11
96.015733
 21
-176.445716
 31
0.0
  0
LINE
  5
254
100
AcDbEntity
  8
2
370
    50
100
AcDbLine
 10
91.715733
 20
-174.945716
 30
0.0
 11
96.015733
 21
-174.945716
 31
0.0
  0
LINE
  5
255
100
AcDbEntity
  8
2
370
    50
100
AcDbLine
 10
102.26468
 20
-148.945716
 30
0.0
 11
102.86468
 21
-148.945716
 31
0.0
  0
LINE
  5
256
100
AcDbEntity
  8
2
370
    50
100
AcDbLine
 10
100.71468
 20
-152.945716
 30
0.0
 11
100.71468
 21
-154.945716
 31
0.0
  0
LINE
  5
257
100
AcDbEntity
  8
2
370
    50
100
AcDbLine
 10
102.26468
 20
-157.445716
 30
0.0
 11
101.71468
 21
-157.995716
 31
0.0
  0
LINE
  5
258
100
AcDbEntity
  8
2
370
    50
100
AcDbLine
 10
102.26468
 20
-148.945716
 30
0.0
 11
102.26468
 21
-150.567289
 31
0.0
  0
ARC
  5
259
100
AcDbEntity
  8
2
370
    50
100
AcDbCircle
 10
100.26468
 20
-150.567289
 30
0.0
 40
2.0
100
AcDbArc
 50
315.0
 51
360.0
  0
LINE
  5
25A
100
AcDbEntity
  8
2
370
    50
100
AcDbLine
 10
101.678893
 20
-151.981502
 30
0.0
 11
100.71468
 21
-152.945716
 31
0.0
  0
LINE
  5
25B
100
AcDbEntity
  8
2
370
    50
100
AcDbLine
 10
102.26468
 20
-156.578558
 30
0.0
 11
102.26468
 21
-157.445716
 31
0.0
  0
ARC
  5
25C
100
AcDbEntity
  8
2
370
    50
100
AcDbCircle
 10
102.06468
 20
-156.578558
 30
0.0
 40
0.2
100
AcDbArc
 50
360.0
 51
45.0
  0
LINE
  5
25D
100
AcDbEntity
  8
2
370
    50
100
AcDbLine
 10
100.71468
 20
-154.945716
 30
0.0
 11
102.206101
 21
-156.437137
 31
0.0
  0
LINE
  5
25E
100
AcDbEntity
  8
2
370
    50
100
AcDbLine
 10
101.71468
 20
-157.995716
 30
0.0
 11
101.71468
 21
-166.945716
 31
0.0
  0
ARC
  5
25F
100
AcDbEntity
  8
2
370
    50
100
AcDbCircle
 10
100.71468
 20
-166.945716
 30
0.0
 40
1.0
100
AcDbArc
 50
270.0
 51
360.0
  0
LINE
  5
260
100
AcDbEntity
  8
2
370
    50
100
AcDbLine
 10
100.71468
 20
-167.945716
 30
0.0
 11
93.86468
 21
-167.945716
 31
0.0
  0
LINE
  5
261
100
AcDbEntity
  8
2
370
    50
100
AcDbLine
 10
101.71468
 20
-157.995716
 30
0.0
 11
93.86468
 21
-157.995716
 31
0.0
  0
LINE
  5
262
100
AcDbEntity
  8
2
370
    50
100
AcDbLine
 10
102.26468
 20
-157.445716
 30
0.0
 11
93.86468
 21
-157.445716
 31
0.0
  0
LINE
  5
263
100
AcDbEntity
  8
2
370
    50
100
AcDbLine
 10
102.206101
 20
-156.437137
 30
0.0
 11
93.86468
 21
-156.437137
 31
0.0
  0
LINE
  5
264
100
AcDbEntity
  8
2
370
    50
100
AcDbLine
 10
100.71468
 20
-154.945716
 30
0.0
 11
93.86468
 21
-154.945716
 31
0.0
  0
LINE
  5
265
100
AcDbEntity
  8
2
370
    50
100
AcDbLine
 10
100.71468
 20
-152.945716
 30
0.0
 11
93.86468
 21
-152.945716
 31
0.0
  0
LINE
  5
266
100
AcDbEntity
  8
2
370
    50
100
AcDbLine
 10
102.26468
 20
-148.945716
 30
0.0
 11
93.86468
 21
-148.945716
 31
0.0
  0
LINE
  5
267
100
AcDbEntity
  8
2
370
    50
100
AcDbLine
 10
107.56468
 20
-138.445716
 30
0.0
 11
107.86468
 21
-138.745716
 31
0.0
  0
LINE
  5
268
100
AcDbEntity
  8
2
370
    50
100
AcDbLine
 10
105.86468
 20
-138.445716
 30
0.0
 11
107.56468
 21
-138.445716
 31
0.0
  0
LINE
  5
269
100
AcDbEntity
  8
2
370
    50
100
AcDbLine
 10
107.86468
 20
-138.745716
 30
0.0
 11
107.86468
 21
-142.445716
 31
0.0
  0
LINE
  5
26A
100
AcDbEntity
  8
2
370
    50
100
AcDbLine
 10
107.86468
 20
-142.445716
 30
0.0
 11
111.86468
 21
-146.445716
 31
0.0
  0
LINE
  5
26B
100
AcDbEntity
  8
2
370
    50
100
AcDbLine
 10
115.86468
 20
-147.245716
 30
0.0
 11
115.299662
 21
-148.206246
 31
0.0
  0
ARC
  5
26C
100
AcDbEntity
  8
2
370
    50
100
AcDbCircle
 10
114.006761
 20
-147.445716
 30
0.0
 40
1.5
100
AcDbArc
 50
270.0
 51
329.534455
  0
LINE
  5
26D
100
AcDbEntity
  8
2
370
    50
100
AcDbLine
 10
102.86468
 20
-148.945716
 30
0.0
 11
114.006761
 21
-148.945716
 31
0.0
  0
LINE
  5
26E
100
AcDbEntity
  8
2
370
    50
100
AcDbLine
 10
111.86468
 20
-146.445716
 30
0.0
 11
115.36468
 21
-146.445716
 31
0.0
  0
ARC
  5
26F
100
AcDbEntity
  8
2
370
    50
100
AcDbCircle
 10
115.36468
 20
-146.945716
 30
0.0
 40
0.5
100
AcDbArc
 50
0.0
 51
90.0
  0
LINE
  5
270
100
AcDbEntity
  8
2
370
    50
100
AcDbLine
 10
115.86468
 20
-146.945716
 30
0.0
 11
115.86468
 21
-147.245716
 31
0.0
  0
LINE
  5
271
100
AcDbEntity
  8
2
370
    50
100
AcDbLine
 10
105.86468
 20
-138.445716
 30
0.0
 11
93.86468
 21
-138.445716
 31
0.0
  0
LINE
  5
272
100
AcDbEntity
  8
2
370
    50
100
AcDbLine
 10
99.980774
 20
-142.445716
 30
0.0
 11
101.984755
 21
-146.445716
 31
0.0
  0
LINE
  5
273
100
AcDbEntity
  8
2
370
    50
100
AcDbLine
 10
101.712825
 20
-142.445716
 30
0.0
 11
103.716805
 21
-146.445716
 31
0.0
  0
LINE
  5
274
100
AcDbEntity
  8
2
370
    50
100
AcDbLine
 10
101.712825
 20
-142.445716
 30
0.0
 11
99.980774
 21
-142.445716
 31
0.0
  0
LINE
  5
275
100
AcDbEntity
  8
2
370
    50
100
AcDbLine
 10
93.86468
 20
-146.445716
 30
0.0
 11
111.86468
 21
-146.445716
 31
0.0
  0
LINE
  5
276
100
AcDbEntity
  8
2
370
    50
100
AcDbLine
 10
107.86468
 20
-142.445716
 30
0.0
 11
107.86468
 21
-145.445716
 31
0.0
  0
ARC
  5
277
100
AcDbEntity
  8
2
370
    50
100
AcDbCircle
 10
108.86468
 20
-145.445716
 30
0.0
 40
1.0
100
AcDbArc
 50
180.0
 51
270.0
  0
LINE
  5
278
100
AcDbEntity
  8
2
370
    50
100
AcDbLine
 10
99.980774
 20
-142.445716
 30
0.0
 11
99.980774
 21
-145.445716
 31
0.0
  0
ARC
  5
279
100
AcDbEntity
  8
2
370
    50
100
AcDbCircle
 10
100.980774
 20
-145.445716
 30
0.0
 40
1.0
100
AcDbArc
 50
180.0
 51
270.0
  0
LINE
  5
27A
100
AcDbEntity
  8
2
370
    50
100
AcDbLine
 10
107.86468
 20
-138.745716
 30
0.0
 11
93.86468
 21
-138.745716
 31
0.0
  0
LINE
  5
27B
100
AcDbEntity
  8
2
370
    50
100
AcDbLine
 10
102.26468
 20
-150.567289
 30
0.0
 11
93.86468
 21
-150.567289
 31
0.0
  0
LINE
  5
27C
100
AcDbEntity
  8
2
370
    50
100
AcDbLine
 10
115.86468
 20
-147.245716
 30
0.0
 11
93.86468
 21
-147.245716
 31
0.0
  0
LINE
  5
27D
100
AcDbEntity
  8
2
370
    50
100
AcDbLine
 10
93.86468
 20
-127.445716
 30
0.0
 11
105.86468
 21
-127.445716
 31
0.0
  0
LINE
  5
27E
100
AcDbEntity
  8
2
370
    50
100
AcDbLine
 10
-147.202301
 20
130.300726
 30
0.0
 11
-141.634537
 21
130.300726
 31
0.0
  0
ARC
  5
27F
100
AcDbEntity
  8
2
370
    50
100
AcDbCircle
 10
-141.634537
 20
115.300726
 30
0.0
 40
16.0
100
AcDbArc
 50
110.364135
 51
129.635865
  0
ARC
  5
280
100
AcDbEntity
  8
2
370
    50
100
AcDbCircle
 10
-141.634537
 20
115.300726
 30
0.0
 40
22.0
100
AcDbArc
 50
26.720972
 51
152.42831
  0
LINE
  5
281
100
AcDbEntity
  8
2
370
    50
100
AcDbLine
 10
-149.268511
 20
130.523158
 30
0.0
 11
-148.752871
 21
129.630043
 31
0.0
  0
LINE
  5
282
100
AcDbEntity
  8
2
370
    50
100
AcDbLine
 10
-151.000562
 20
129.523158
 30
0.0
 11
-150.484922
 21
128.630043
 31
0.0
  0
ELLIPSE
  5
283
100
AcDbEntity
  8
2
370
    50
100
AcDbEllipse
 10
-148.618992
 20
130.898158
 30
0.0
 11
0.75
 21
-1.2990379999999999
 31
0.0
210
0.0
220
0.0
230
1.0
 40
0.5
 41
3.1415929999999999
 42
4.7123889999999999
  0
ELLIPSE
  5
284
100
AcDbEntity
  8
2
370
    50
100
AcDbEllipse
 10
-151.650081
 20
129.148158
 30
0.0
 11
0.75
 21
-1.2990379999999999
 31
0.0
210
0.0
220
0.0
230
1.0
 40
0.5
 41
1.5707960000000001
 42
3.1415929999999999
  0
ARC
  5
285
100
AcDbEntity
  8
2
370
    50
100
AcDbCircle
 10
-141.634537
 20
115.300726
 30
0.0
 40
16.0
100
AcDbArc
 50
45.402149
 51
69.635865
  0
LINE
  5
286
100
AcDbEntity
  8
2
370
    50
100
AcDbLine
 10
-136.066772
 20
130.300726
 30
0.0
 11
-141.634537
 21
130.300726
 31
0.0
  0
ARC
  5
287
100
AcDbEntity
  8
2
370
    50
100
AcDbCircle
 10
-141.634537
 20
115.300726
 30
0.0
 40
16.0
100
AcDbArc
 50
50.364135
 51
69.635865
  0
LINE
  5
288
100
AcDbEntity
  8
2
370
    50
100
AcDbLine
 10
-134.000562
 20
130.523158
 30
0.0
 11
-134.516202
 21
129.630043
 31
0.0
  0
LINE
  5
289
100
AcDbEntity
  8
2
370
    50
100
AcDbLine
 10
-132.268511
 20
129.523158
 30
0.0
 11
-132.784151
 21
128.630043
 31
0.0
  0
ELLIPSE
  5
28A
100
AcDbEntity
  8
2
370
    50
100
AcDbEllipse
 10
-134.650081
 20
130.898158
 30
0.0
 11
-0.75
 21
-1.2990379999999999
 31
0.0
210
0.0
220
0.0
230
1.0
 40
0.5
 41
1.5707960000000001
 42
3.1415929999999999
  0
ELLIPSE
  5
28B
100
AcDbEntity
  8
2
370
    50
100
AcDbEllipse
 10
-131.618992
 20
129.148158
 30
0.0
 11
-0.75
 21
-1.2990379999999999
 31
0.0
210
0.0
220
0.0
230
1.0
 40
0.5
 41
3.1415929999999999
 42
4.7123889999999999
  0
ARC
  5
28C
100
AcDbEntity
  8
2
370
    50
100
AcDbCircle
 10
-141.634537
 20
115.300726
 30
0.0
 40
16.0
100
AcDbArc
 50
228.483692
 51
249.635865
  0
LINE
  5
28D
100
AcDbEntity
  8
2
370
    50
100
AcDbLine
 10
-147.202301
 20
100.300726
 30
0.0
 11
-141.634537
 21
100.300726
 31
0.0
  0
ARC
  5
28E
100
AcDbEntity
  8
2
370
    50
100
AcDbCircle
 10
-141.634537
 20
115.300726
 30
0.0
 40
22.0
100
AcDbArc
 50
207.57169
 51
333.279028
  0
LINE
  5
28F
100
AcDbEntity
  8
2
370
    50
100
AcDbLine
 10
-149.268511
 20
100.078294
 30
0.0
 11
-148.752871
 21
100.971409
 31
0.0
  0
LINE
  5
290
100
AcDbEntity
  8
2
370
    50
100
AcDbLine
 10
-151.000562
 20
101.078294
 30
0.0
 11
-150.484922
 21
101.971409
 31
0.0
  0
ELLIPSE
  5
291
100
AcDbEntity
  8
2
370
    50
100
AcDbEllipse
 10
-148.618992
 20
99.703294
 30
0.0
 11
0.75
 21
1.2990379999999999
 31
0.0
210
0.0
220
0.0
230
1.0
 40
0.5
 41
1.5707960000000001
 42
3.1415929999999999
  0
ELLIPSE
  5
292
100
AcDbEntity
  8
2
370
    50
100
AcDbEllipse
 10
-151.650081
 20
101.453294
 30
0.0
 11
0.75
 21
1.2990379999999999
 31
0.0
210
0.0
220
0.0
230
1.0
 40
0.5
 41
3.1415929999999999
 42
4.7123889999999999
  0
ARC
  5
293
100
AcDbEntity
  8
2
370
    50
100
AcDbCircle
 10
-141.634537
 20
115.300726
 30
0.0
 40
16.0
100
AcDbArc
 50
290.364135
 51
314.597851
  0
LINE
  5
294
100
AcDbEntity
  8
2
370
    50
100
AcDbLine
 10
-136.066772
 20
100.300726
 30
0.0
 11
-141.634537
 21
100.300726
 31
0.0
  0
ARC
  5
295
100
AcDbEntity
  8
2
370
    50
100
AcDbCircle
 10
-141.634537
 20
115.300726
 30
0.0
 40
16.0
100
AcDbArc
 50
290.364135
 51
309.635865
  0
LINE
  5
296
100
AcDbEntity
  8
2
370
    50
100
AcDbLine
 10
-134.000562
 20
100.078294
 30
0.0
 11
-134.516202
 21
100.971409
 31
0.0
  0
LINE
  5
297
100
AcDbEntity
  8
2
370
    50
100
AcDbLine
 10
-132.268511
 20
101.078294
 30
0.0
 11
-132.784151
 21
101.971409
 31
0.0
  0
ELLIPSE
  5
298
100
AcDbEntity
  8
2
370
    50
100
AcDbEllipse
 10
-134.650081
 20
99.703294
 30
0.0
 11
-0.75
 21
1.2990379999999999
 31
0.0
210
0.0
220
0.0
230
1.0
 40
0.5
 41
3.1415929999999999
 42
4.7123889999999999
  0
ELLIPSE
  5
299
100
AcDbEntity
  8
2
370
    50
100
AcDbEllipse
 10
-131.618992
 20
101.453294
 30
0.0
 11
-0.75
 21
1.2990379999999999
 31
0.0
210
0.0
220
0.0
230
1.0
 40
0.5
 41
1.5707960000000001
 42
3.1415929999999999
  0
LINE
  5
29A
100
AcDbEntity
  8
2
370
    50
100
AcDbLine
 10
79.865492
 20
-115.945179
 30
0.0
 11
107.865492
 21
-115.945179
 31
0.0
  0
LINE
  5
29B
100
AcDbEntity
  8
2
370
    50
100
AcDbLine
 10
79.865492
 20
-127.445179
 30
0.0
 11
107.865492
 21
-127.445179
 31
0.0
  0
LINE
  5
29C
100
AcDbEntity
  8
2
370
    50
100
AcDbLine
 10
78.865492
 20
-125.882213
 30
0.0
 11
78.865492
 21
-117.508146
 31
0.0
  0
ARC
  5
29D
100
AcDbEntity
  8
2
370
    50
100
AcDbCircle
 10
87.131117
 20
-121.695179
 30
0.0
 40
9.265625
100
AcDbArc
 50
141.641984
 51
153.135058
  0
ARC
  5
29E
100
AcDbEntity
  8
2
370
    50
100
AcDbCircle
 10
87.131117
 20
-121.695179
 30
0.0
 40
9.265625
100
AcDbArc
 50
206.864942
 51
218.358016
  0
ELLIPSE
  5
29F
100
AcDbEntity
  8
2
370
    50
100
AcDbEllipse
 10
86.365492
 20
-121.695179
 30
0.0
 11
-4.8218249999999996
 21
0.0
 31
0.0
210
0.0
220
0.0
230
1.0
 40
0.881409
 41
0.0
 42
6.2831849999999996
  0
ELLIPSE
  5
2A0
100
AcDbEntity
  8
2
370
    50
100
AcDbEllipse
 10
101.365492
 20
-121.695179
 30
0.0
 11
-4.8218249999999996
 21
0.0
 31
0.0
210
0.0
220
0.0
230
1.0
 40
0.881409
 41
0.0
 42
6.2831849999999996
  0
LINE
  5
2A1
100
AcDbEntity
  8
2
370
    50
100
AcDbLine
 10
108.865492
 20
-125.882213
 30
0.0
 11
108.865492
 21
-117.508146
 31
0.0
  0
ARC
  5
2A2
100
AcDbEntity
  8
2
370
    50
100
AcDbCircle
 10
100.599867
 20
-121.695179
 30
0.0
 40
9.265625
100
AcDbArc
 50
26.864942
 51
38.358016
  0
ARC
  5
2A3
100
AcDbEntity
  8
2
370
    50
100
AcDbCircle
 10
100.599867
 20
-121.695179
 30
0.0
 40
9.265625
100
AcDbArc
 50
321.641984
 51
333.135058
  0
LINE
  5
2A4
100
AcDbEntity
  8
2
370
    50
100
AcDbLine
 10
-127.634117
 20
-127.446359
 30
0.0
 11
-155.634117
 21
-127.446359
 31
0.0
  0
LINE
  5
2A5
100
AcDbEntity
  8
2
370
    50
100
AcDbLine
 10
-127.634117
 20
-115.946359
 30
0.0
 11
-155.634117
 21
-115.946359
 31
0.0
  0
ARC
  5
2A6
100
AcDbEntity
  8
2
370
    50
100
AcDbCircle
 10
-134.899742
 20
-121.696359
 30
0.0
 40
9.265625
100
AcDbArc
 50
321.641984
 51
38.358016
  0
ARC
  5
2A7
100
AcDbEntity
  8
2
370
    50
100
AcDbCircle
 10
-148.368492
 20
-121.696359
 30
0.0
 40
9.265625
100
AcDbArc
 50
141.641984
 51
218.358016
  0
LINE
  5
2A8
100
AcDbEntity
  8
2
370
    25
  6
CENTER
100
AcDbLine
 10
-141.634604
 20
-177.745102
 30
0.0
 11
-141.634604
 21
-80.092834
 31
0.0
  0
LINE
  5
2A9
100
AcDbEntity
  8
2
370
    50
100
AcDbLine
 10
-129.634604
 20
-127.446211
 30
0.0
 11
-128.634604
 21
-128.446211
 31
0.0
  0
LINE
  5
2AA
100
AcDbEntity
  8
2
370
    50
100
AcDbLine
 10
-128.634604
 20
-128.446211
 30
0.0
 11
-128.634604
 21
-137.446211
 31
0.0
  0
LINE
  5
2AB
100
AcDbEntity
  8
2
370
    50
100
AcDbLine
 10
-128.634604
 20
-137.446211
 30
0.0
 11
-129.634604
 21
-138.446211
 31
0.0
  0
LINE
  5
2AC
100
AcDbEntity
  8
2
370
    50
100
AcDbLine
 10
-133.234604
 20
-148.946211
 30
0.0
 11
-132.634604
 21
-148.946211
 31
0.0
  0
LINE
  5
2AD
100
AcDbEntity
  8
2
370
    50
100
AcDbLine
 10
-134.784604
 20
-152.946211
 30
0.0
 11
-134.784604
 21
-154.946211
 31
0.0
  0
LINE
  5
2AE
100
AcDbEntity
  8
2
370
    50
100
AcDbLine
 10
-133.234604
 20
-157.446211
 30
0.0
 11
-133.784604
 21
-157.996211
 31
0.0
  0
LINE
  5
2AF
100
AcDbEntity
  8
2
370
    50
100
AcDbLine
 10
-133.234604
 20
-148.946211
 30
0.0
 11
-133.234604
 21
-150.567783
 31
0.0
  0
ARC
  5
2B0
100
AcDbEntity
  8
2
370
    50
100
AcDbCircle
 10
-135.234604
 20
-150.567783
 30
0.0
 40
2.0
100
AcDbArc
 50
315.0
 51
360.0
  0
LINE
  5
2B1
100
AcDbEntity
  8
2
370
    50
100
AcDbLine
 10
-133.82039
 20
-151.981997
 30
0.0
 11
-134.784604
 21
-152.946211
 31
0.0
  0
LINE
  5
2B2
100
AcDbEntity
  8
2
370
    50
100
AcDbLine
 10
-133.234604
 20
-156.579053
 30
0.0
 11
-133.234604
 21
-157.446211
 31
0.0
  0
ARC
  5
2B3
100
AcDbEntity
  8
2
370
    50
100
AcDbCircle
 10
-133.434604
 20
-156.579053
 30
0.0
 40
0.2
100
AcDbArc
 50
0.0
 51
45.0
  0
LINE
  5
2B4
100
AcDbEntity
  8
2
370
    50
100
AcDbLine
 10
-134.784604
 20
-154.946211
 30
0.0
 11
-133.293182
 21
-156.437632
 31
0.0
  0
LINE
  5
2B5
100
AcDbEntity
  8
2
370
    50
100
AcDbLine
 10
-133.784604
 20
-157.996211
 30
0.0
 11
-133.784604
 21
-166.946211
 31
0.0
  0
ARC
  5
2B6
100
AcDbEntity
  8
2
370
    50
100
AcDbCircle
 10
-134.784604
 20
-166.946211
 30
0.0
 40
1.0
100
AcDbArc
 50
270.0
 51
360.0
  0
LINE
  5
2B7
100
AcDbEntity
  8
2
370
    50
100
AcDbLine
 10
-136.284604
 20
-167.946211
 30
0.0
 11
-136.284604
 21
-171.446211
 31
0.0
  0
LINE
  5
2B8
100
AcDbEntity
  8
2
370
    50
100
AcDbLine
 10
-136.284604
 20
-171.446211
 30
0.0
 11
-135.134604
 21
-172.596211
 31
0.0
  0
LINE
  5
2B9
100
AcDbEntity
  8
2
370
    50
100
AcDbLine
 10
-135.134604
 20
-172.596211
 30
0.0
 11
-135.134604
 21
-174.446211
 31
0.0
  0
LINE
  5
2BA
100
AcDbEntity
  8
2
370
    50
100
AcDbLine
 10
-135.134604
 20
-174.446211
 30
0.0
 11
-135.634604
 21
-174.946211
 31
0.0
  0
LINE
  5
2BB
100
AcDbEntity
  8
2
370
    50
100
AcDbLine
 10
-138.134604
 20
-171.446211
 30
0.0
 11
-138.134604
 21
-174.946211
 31
0.0
  0
LINE
  5
2BC
100
AcDbEntity
  8
2
370
    50
100
AcDbLine
 10
-127.934604
 20
-138.446211
 30
0.0
 11
-127.634604
 21
-138.746211
 31
0.0
  0
LINE
  5
2BD
100
AcDbEntity
  8
2
370
    50
100
AcDbLine
 10
-127.634604
 20
-138.746211
 30
0.0
 11
-127.634604
 21
-145.446211
 31
0.0
  0
LINE
  5
2BE
100
AcDbEntity
  8
2
370
    50
100
AcDbLine
 10
-127.634604
 20
-142.446211
 30
0.0
 11
-123.634604
 21
-146.446211
 31
0.0
  0
ARC
  5
2BF
100
AcDbEntity
  8
2
370
    50
100
AcDbCircle
 10
-126.634604
 20
-145.446211
 30
0.0
 40
1.0
100
AcDbArc
 50
180.0
 51
270.0
  0
LINE
  5
2C0
100
AcDbEntity
  8
2
370
    50
100
AcDbLine
 10
-148.484604
 20
-167.946211
 30
0.0
 11
-134.784604
 21
-167.946211
 31
0.0
  0
ARC
  5
2C1
100
AcDbEntity
  8
2
370
    50
100
AcDbCircle
 10
-121.492523
 20
-147.446211
 30
0.0
 40
1.5
100
AcDbArc
 50
270.0
 51
329.534455
  0
LINE
  5
2C2
100
AcDbEntity
  8
2
370
    50
100
AcDbLine
 10
-144.384604
 20
-171.446211
 30
0.0
 11
-136.284604
 21
-171.446211
 31
0.0
  0
LINE
  5
2C3
100
AcDbEntity
  8
2
370
    50
100
AcDbLine
 10
-138.134604
 20
-174.946211
 30
0.0
 11
-136.634604
 21
-176.446211
 31
0.0
  0
LINE
  5
2C4
100
AcDbEntity
  8
2
370
    50
100
AcDbLine
 10
-136.634604
 20
-176.446211
 30
0.0
 11
-134.134604
 21
-176.446211
 31
0.0
  0
LINE
  5
2C5
100
AcDbEntity
  8
2
370
    50
100
AcDbLine
 10
-134.134604
 20
-175.446211
 30
0.0
 11
-134.134604
 21
-176.446211
 31
0.0
  0
LINE
  5
2C6
100
AcDbEntity
  8
2
370
    50
100
AcDbLine
 10
-135.134604
 20
-174.446211
 30
0.0
 11
-134.134604
 21
-175.446211
 31
0.0
  0
LINE
  5
2C7
100
AcDbEntity
  8
2
370
    50
100
AcDbLine
 10
-142.384604
 20
-174.946211
 30
0.0
 11
-135.634604
 21
-174.946211
 31
0.0
  0
LINE
  5
2C8
100
AcDbEntity
  8
2
370
    50
100
AcDbLine
 10
-144.384604
 20
-172.946211
 30
0.0
 11
-142.384604
 21
-174.946211
 31
0.0
  0
LINE
  5
2C9
100
AcDbEntity
  8
2
370
    50
100
AcDbLine
 10
-153.634604
 20
-127.446211
 30
0.0
 11
-154.634604
 21
-128.446211
 31
0.0
  0
LINE
  5
2CA
100
AcDbEntity
  8
2
370
    50
100
AcDbLine
 10
-154.634604
 20
-128.446211
 30
0.0
 11
-154.634604
 21
-137.446211
 31
0.0
  0
LINE
  5
2CB
100
AcDbEntity
  8
2
370
    50
100
AcDbLine
 10
-154.634604
 20
-137.446211
 30
0.0
 11
-153.634604
 21
-138.446211
 31
0.0
  0
LINE
  5
2CC
100
AcDbEntity
  8
2
370
    50
100
AcDbLine
 10
-150.034604
 20
-148.946211
 30
0.0
 11
-150.634604
 21
-148.946211
 31
0.0
  0
LINE
  5
2CD
100
AcDbEntity
  8
2
370
    50
100
AcDbLine
 10
-148.484604
 20
-152.946211
 30
0.0
 11
-148.484604
 21
-154.946211
 31
0.0
  0
LINE
  5
2CE
100
AcDbEntity
  8
2
370
    50
100
AcDbLine
 10
-150.034604
 20
-157.446211
 30
0.0
 11
-149.484604
 21
-157.996211
 31
0.0
  0
LINE
  5
2CF
100
AcDbEntity
  8
2
370
    50
100
AcDbLine
 10
-150.034604
 20
-148.946211
 30
0.0
 11
-150.034604
 21
-150.567783
 31
0.0
  0
ARC
  5
2D0
100
AcDbEntity
  8
2
370
    50
100
AcDbCircle
 10
-148.034604
 20
-150.567783
 30
0.0
 40
2.0
100
AcDbArc
 50
180.0
 51
225.0
  0
LINE
  5
2D1
100
AcDbEntity
  8
2
370
    50
100
AcDbLine
 10
-149.448817
 20
-151.981997
 30
0.0
 11
-148.484604
 21
-152.946211
 31
0.0
  0
LINE
  5
2D2
100
AcDbEntity
  8
2
370
    50
100
AcDbLine
 10
-150.034604
 20
-156.579053
 30
0.0
 11
-150.034604
 21
-157.446211
 31
0.0
  0
ARC
  5
2D3
100
AcDbEntity
  8
2
370
    50
100
AcDbCircle
 10
-149.834604
 20
-156.579053
 30
0.0
 40
0.2
100
AcDbArc
 50
135.0
 51
180.0
  0
LINE
  5
2D4
100
AcDbEntity
  8
2
370
    50
100
AcDbLine
 10
-148.484604
 20
-154.946211
 30
0.0
 11
-149.976025
 21
-156.437632
 31
0.0
  0
LINE
  5
2D5
100
AcDbEntity
  8
2
370
    50
100
AcDbLine
 10
-149.484604
 20
-157.996211
 30
0.0
 11
-149.484604
 21
-166.946211
 31
0.0
  0
ARC
  5
2D6
100
AcDbEntity
  8
2
370
    50
100
AcDbCircle
 10
-148.484604
 20
-166.946211
 30
0.0
 40
1.0
100
AcDbArc
 50
180.0
 51
270.0
  0
LINE
  5
2D7
100
AcDbEntity
  8
2
370
    50
100
AcDbLine
 10
-121.492523
 20
-148.946211
 30
0.0
 11
-161.776685
 21
-148.946211
 31
0.0
  0
LINE
  5
2D8
100
AcDbEntity
  8
2
370
    50
100
AcDbLine
 10
-155.334604
 20
-138.446211
 30
0.0
 11
-155.634604
 21
-138.746211
 31
0.0
  0
LINE
  5
2D9
100
AcDbEntity
  8
2
370
    50
100
AcDbLine
 10
-127.934604
 20
-138.446211
 30
0.0
 11
-155.334604
 21
-138.446211
 31
0.0
  0
LINE
  5
2DA
100
AcDbEntity
  8
2
370
    50
100
AcDbLine
 10
-155.634604
 20
-138.746211
 30
0.0
 11
-155.634604
 21
-145.446211
 31
0.0
  0
LINE
  5
2DB
100
AcDbEntity
  8
2
370
    50
100
AcDbLine
 10
-155.634604
 20
-142.446211
 30
0.0
 11
-159.634604
 21
-146.446211
 31
0.0
  0
LINE
  5
2DC
100
AcDbEntity
  8
2
370
    50
100
AcDbLine
 10
-163.634604
 20
-147.246211
 30
0.0
 11
-163.069586
 21
-148.206741
 31
0.0
  0
ARC
  5
2DD
100
AcDbEntity
  8
2
370
    50
100
AcDbCircle
 10
-161.776685
 20
-147.446211
 30
0.0
 40
1.5
100
AcDbArc
 50
210.465545
 51
270.0
  0
LINE
  5
2DE
100
AcDbEntity
  8
2
370
    50
100
AcDbLine
 10
-120.133631
 20
-146.446211
 30
0.0
 11
-163.134604
 21
-146.446211
 31
0.0
  0
ARC
  5
2DF
100
AcDbEntity
  8
2
370
    50
100
AcDbCircle
 10
-163.134604
 20
-146.946211
 30
0.0
 40
0.5
100
AcDbArc
 50
90.0
 51
180.0
  0
LINE
  5
2E0
100
AcDbEntity
  8
2
370
    50
100
AcDbLine
 10
-163.634604
 20
-146.946211
 30
0.0
 11
-163.634604
 21
-147.246211
 31
0.0
  0
LINE
  5
2E1
100
AcDbEntity
  8
2
370
    50
100
AcDbLine
 10
-119.633631
 20
-147.246211
 30
0.0
 11
-120.198648
 21
-148.206741
 31
0.0
  0
ARC
  5
2E2
100
AcDbEntity
  8
2
370
    50
100
AcDbCircle
 10
-120.133631
 20
-146.946211
 30
0.0
 40
0.5
100
AcDbArc
 50
0.0
 51
90.0
  0
LINE
  5
2E3
100
AcDbEntity
  8
2
370
    50
100
AcDbLine
 10
82.165253
 20
-138.445433
 30
0.0
 11
105.565253
 21
-138.445433
 31
0.0
  0
LINE
  5
2E4
100
AcDbEntity
  8
2
370
    50
100
AcDbLine
 10
81.865253
 20
-138.145433
 30
0.0
 11
81.865253
 21
-127.745433
 31
0.0
  0
LINE
  5
2E5
100
AcDbEntity
  8
2
370
    50
100
AcDbLine
 10
105.865253
 20
-138.145433
 30
0.0
 11
105.865253
 21
-127.745433
 31
0.0
  0
LINE
  5
2E6
100
AcDbEntity
  8
2
370
    50
100
AcDbLine
 10
92.19538
 20
-128.445433
 30
0.0
 11
92.19538
 21
-137.445433
 31
0.0
  0
LINE
  5
2E7
100
AcDbEntity
  8
2
370
    50
100
AcDbLine
 10
95.535126
 20
-128.445433
 30
0.0
 11
95.535126
 21
-137.445433
 31
0.0
  0
LINE
  5
2E8
100
AcDbEntity
  8
2
370
    50
100
AcDbLine
 10
83.535126
 20
-128.445433
 30
0.0
 11
83.535126
 21
-137.445433
 31
0.0
  0
LINE
  5
2E9
100
AcDbEntity
  8
2
370
    50
100
AcDbLine
 10
104.19538
 20
-128.445433
 30
0.0
 11
104.19538
 21
-137.445433
 31
0.0
  0
ARC
  5
2EA
100
AcDbEntity
  8
2
370
    50
100
AcDbCircle
 10
87.865253
 20
-128.570433
 30
0.0
 40
9.875
100
AcDbArc
 50
243.992176
 51
296.007824
  0
ARC
  5
2EB
100
AcDbEntity
  8
2
370
    50
100
AcDbCircle
 10
99.865253
 20
-128.570433
 30
0.0
 40
9.875
100
AcDbArc
 50
243.992176
 51
296.007824
  0
LINE
  5
2EC
100
AcDbEntity
  8
2
370
    50
100
AcDbLine
 10
95.535126
 20
-137.445433
 30
0.0
 11
92.19538
 21
-137.445433
 31
0.0
  0
LINE
  5
2ED
100
AcDbEntity
  8
2
370
    50
100
AcDbLine
 10
83.535126
 20
-137.445433
 30
0.0
 11
81.865253
 21
-137.445433
 31
0.0
  0
ARC
  5
2EE
100
AcDbEntity
  8
2
370
    50
100
AcDbCircle
 10
99.865253
 20
-128.570433
 30
0.0
 40
9.875
100
AcDbArc
 50
243.992176
 51
296.007824
  0
LINE
  5
2EF
100
AcDbEntity
  8
2
370
    50
100
AcDbLine
 10
104.19538
 20
-137.445433
 30
0.0
 11
105.865253
 21
-137.445433
 31
0.0
  0
LINE
  5
2F0
100
AcDbEntity
  8
2
370
    50
100
AcDbLine
 10
82.165253
 20
-127.445433
 30
0.0
 11
105.565253
 21
-127.445433
 31
0.0
  0
ARC
  5
2F1
100
AcDbEntity
  8
2
370
    50
100
AcDbCircle
 10
87.865253
 20
-137.320433
 30
0.0
 40
9.875
100
AcDbArc
 50
63.992176
 51
116.007824
  0
ARC
  5
2F2
100
AcDbEntity
  8
2
370
    50
100
AcDbCircle
 10
99.865253
 20
-137.320433
 30
0.0
 40
9.875
100
AcDbArc
 50
63.992176
 51
116.007824
  0
LINE
  5
2F3
100
AcDbEntity
  8
2
370
    50
100
AcDbLine
 10
95.535126
 20
-128.445433
 30
0.0
 11
92.19538
 21
-128.445433
 31
0.0
  0
LINE
  5
2F4
100
AcDbEntity
  8
2
370
    50
100
AcDbLine
 10
83.535126
 20
-128.445433
 30
0.0
 11
81.865253
 21
-128.445433
 31
0.0
  0
LINE
  5
2F5
100
AcDbEntity
  8
2
370
    50
100
AcDbLine
 10
104.19538
 20
-128.445433
 30
0.0
 11
105.865253
 21
-128.445433
 31
0.0
  0
ARC
  5
2F6
100
AcDbEntity
  8
2
370
    50
100
AcDbCircle
 10
82.165253
 20
-138.145433
 30
0.0
 40
0.3
100
AcDbArc
 50
180.0
 51
270.0
  0
ARC
  5
2F7
100
AcDbEntity
  8
2
370
    50
100
AcDbCircle
 10
82.165253
 20
-127.745433
 30
0.0
 40
0.3
100
AcDbArc
 50
90.0
 51
180.0
  0
ARC
  5
2F8
100
AcDbEntity
  8
2
370
    50
100
AcDbCircle
 10
105.565253
 20
-127.745433
 30
0.0
 40
0.3
100
AcDbArc
 50
0.0
 51
90.0
  0
ARC
  5
2F9
100
AcDbEntity
  8
2
370
    50
100
AcDbCircle
 10
105.565253
 20
-138.145433
 30
0.0
 40
0.3
100
AcDbArc
 50
270.0
 51
360.0
  0
LINE
  5
2FA
100
AcDbEntity
  8
2
370
    50
100
AcDbLine
 10
95.115733
 20
-171.445716
 30
0.0
 11
95.115733
 21
-167.945716
 31
0.0
  0
LINE
  5
2FB
100
AcDbEntity
  8
2
370
    50
100
AcDbLine
 10
92.615733
 20
-171.445716
 30
0.0
 11
92.615733
 21
-167.945716
 31
0.0
  0
LINE
  5
2FC
100
AcDbEntity
  8
2
370
    50
100
AcDbLine
 10
91.565733
 20
-172.595716
 30
0.0
 11
91.565733
 21
-174.445716
 31
0.0
  0
LINE
  5
2FD
100
AcDbEntity
  8
2
370
    50
100
AcDbLine
 10
96.165733
 20
-172.595716
 30
0.0
 11
96.165733
 21
-174.445716
 31
0.0
  0
LINE
  5
2FE
100
AcDbEntity
  8
2
370
    50
100
AcDbLine
 10
96.165733
 20
-172.595716
 30
0.0
 11
91.565733
 21
-172.595716
 31
0.0
  0
LINE
  5
2FF
100
AcDbEntity
  8
2
370
    50
100
AcDbLine
 10
95.815733
 20
-171.445716
 30
0.0
 11
96.165733
 21
-172.595716
 31
0.0
  0
LINE
  5
300
100
AcDbEntity
  8
2
370
    50
100
AcDbLine
 10
91.915733
 20
-171.445716
 30
0.0
 11
91.565733
 21
-172.595716
 31
0.0
  0
LINE
  5
301
100
AcDbEntity
  8
2
370
    50
100
AcDbLine
 10
96.165733
 20
-174.445716
 30
0.0
 11
91.565733
 21
-174.445716
 31
0.0
  0
LINE
  5
302
100
AcDbEntity
  8
2
370
    50
100
AcDbLine
 10
96.015733
 20
-174.945716
 30
0.0
 11
96.015733
 21
-176.445716
 31
0.0
  0
LINE
  5
303
100
AcDbEntity
  8
2
370
    50
100
AcDbLine
 10
91.715733
 20
-174.945716
 30
0.0
 11
91.715733
 21
-176.445716
 31
0.0
  0
LINE
  5
304
100
AcDbEntity
  8
2
370
    50
100
AcDbLine
 10
96.165733
 20
-174.445716
 30
0.0
 11
96.015733
 21
-174.945716
 31
0.0
  0
LINE
  5
305
100
AcDbEntity
  8
2
370
    50
100
AcDbLine
 10
91.565733
 20
-174.445716
 30
0.0
 11
91.715733
 21
-174.945716
 31
0.0
  0
LINE
  5
306
100
AcDbEntity
  8
2
370
    50
100
AcDbLine
 10
-119.633631
 20
-146.946211
 30
0.0
 11
-119.633631
 21
-147.246211
 31
0.0
  0
ARC
  5
307
100
AcDbEntity
  8
2
370
    50
100
AcDbCircle
 10
-156.634604
 20
-145.446211
 30
0.0
 40
1.0
100
AcDbArc
 50
270.0
 51
360.0
  0
LINE
  5
308
100
AcDbEntity
  8
2
370
    50
100
AcDbLine
 10
-144.384604
 20
-172.946211
 30
0.0
 11
-144.384604
 21
-167.946211
 31
0.0
  0
LINE
  5
309
100
AcDbEntity
  8
2
370
    50
100
AcDbLine
 10
-133.234604
 20
-150.567783
 30
0.0
 11
-150.034604
 21
-150.567783
 31
0.0
  0
LINE
  5
30A
100
AcDbEntity
  8
2
370
    50
100
AcDbLine
 10
-148.484604
 20
-152.946211
 30
0.0
 11
-134.784604
 21
-152.946211
 31
0.0
  0
LINE
  5
30B
100
AcDbEntity
  8
2
370
    50
100
AcDbLine
 10
-134.784604
 20
-154.946211
 30
0.0
 11
-148.484604
 21
-154.946211
 31
0.0
  0
LINE
  5
30C
100
AcDbEntity
  8
2
370
    50
100
AcDbLine
 10
-133.293182
 20
-156.437632
 30
0.0
 11
-150.034604
 21
-156.437632
 31
0.0
  0
LINE
  5
30D
100
AcDbEntity
  8
2
370
    50
100
AcDbLine
 10
-150.034604
 20
-157.446211
 30
0.0
 11
-133.234604
 21
-157.446211
 31
0.0
  0
LINE
  5
30E
100
AcDbEntity
  8
2
370
    50
100
AcDbLine
 10
-133.784604
 20
-157.996211
 30
0.0
 11
-149.484604
 21
-157.996211
 31
0.0
  0
LINE
  5
30F
100
AcDbEntity
  8
2
370
    50
100
AcDbLine
 10
-119.633631
 20
-146.946211
 30
0.0
 11
-163.634604
 21
-146.946211
 31
0.0
  0
LINE
  5
310
100
AcDbEntity
  8
2
370
    50
100
AcDbLine
 10
-127.634604
 20
-138.746211
 30
0.0
 11
-155.634604
 21
-138.746211
 31
0.0
  0
ARC
  5
311
100
AcDbEntity
  8
2
370
    50
100
AcDbCircle
 10
-99.482723
 20
-52.039851
 30
0.0
 40
120.0
100
AcDbArc
 50
170.844517
 51
184.940428
  0
ARC
  5
312
100
AcDbEntity
  8
2
370
    50
100
AcDbCircle
 10
-318.812604
 20
-52.039851
 30
0.0
 40
120.0
100
AcDbArc
 50
355.059572
 51
9.155483
  0
ARC
  5
313
100
AcDbEntity
  8
2
370
    50
100
AcDbCircle
 10
-209.147663
 20
-34.365437
 30
0.0
 40
8.91992
100
AcDbArc
 50
9.155483
 51
170.844517
  0
ARC
  5
314
100
AcDbEntity
  8
2
370
    50
100
AcDbCircle
 10
-209.147663
 20
-61.519406
 30
0.0
 40
9.926111
100
AcDbArc
 50
184.940428
 51
355.059572
  0
LINE
  5
315
100
AcDbEntity
  8
2
370
    50
100
AcDbLine
 10
-223.647663
 20
-27.445517
 30
0.0
 11
-223.647663
 21
-68.445517
 31
0.0
  0
LINE
  5
316
100
AcDbEntity
  8
2
370
    50
100
AcDbLine
 10
-194.647663
 20
-27.445517
 30
0.0
 11
-194.647663
 21
-68.445517
 31
0.0
  0
ARC
  5
317
100
AcDbEntity
  8
2
370
    50
100
AcDbCircle
 10
-134.428865
 20
-51.524679
 30
0.0
 40
99.5
100
AcDbArc
 50
168.471477
 51
187.637519
  0
ARC
  5
318
100
AcDbEntity
  8
2
370
    50
100
AcDbCircle
 10
-283.866462
 20
-51.524679
 30
0.0
 40
99.5
100
AcDbArc
 50
352.362481
 51
11.528523
  0
ARC
  5
319
100
AcDbEntity
  8
2
370
    50
100
AcDbCircle
 10
-194.212444
 20
-33.237879
 30
0.0
 40
8.0
100
AcDbArc
 50
11.528523
 51
74.882653
  0
ARC
  5
31A
100
AcDbEntity
  8
2
370
    50
100
AcDbCircle
 10
-192.647663
 20
-27.445517
 30
0.0
 40
2.0
100
AcDbArc
 50
74.882653
 51
180.0
  0
ARC
  5
31B
100
AcDbEntity
  8
2
370
    50
100
AcDbCircle
 10
-224.082883
 20
-33.237879
 30
0.0
 40
8.0
100
AcDbArc
 50
105.117347
 51
168.471477
  0
ARC
  5
31C
100
AcDbEntity
  8
2
370
    50
100
AcDbCircle
 10
-225.647663
 20
-27.445517
 30
0.0
 40
2.0
100
AcDbArc
 50
0.0
 51
105.117347
  0
ARC
  5
31D
100
AcDbEntity
  8
2
370
    50
100
AcDbCircle
 10
-193.178184
 20
-63.685526
 30
0.0
 40
8.0
100
AcDbArc
 50
287.824603
 51
352.362481
  0
ARC
  5
31E
100
AcDbEntity
  8
2
370
    50
100
AcDbCircle
 10
-191.647663
 20
-68.445517
 30
0.0
 40
3.0
100
AcDbArc
 50
180.0
 51
287.824603
  0
ARC
  5
31F
100
AcDbEntity
  8
2
370
    50
100
AcDbCircle
 10
-226.647663
 20
-68.445517
 30
0.0
 40
3.0
100
AcDbArc
 50
252.175397
 51
360.0
  0
ARC
  5
320
100
AcDbEntity
  8
2
370
    50
100
AcDbCircle
 10
-225.117143
 20
-63.685526
 30
0.0
 40
8.0
100
AcDbArc
 50
187.637519
 51
252.175397
  0
LINE
  5
321
100
AcDbEntity
  8
2
370
    50
100
AcDbLine
 10
185.665733
 20
-128.445517
 30
0.0
 11
185.665733
 21
-149.445517
 31
0.0
  0
LINE
  5
322
100
AcDbEntity
  8
2
370
    50
100
AcDbLine
 10
159.865733
 20
-128.445517
 30
0.0
 11
162.865733
 21
-128.445517
 31
0.0
  0
LINE
  5
323
100
AcDbEntity
  8
2
370
    50
100
AcDbLine
 10
172.865733
 20
-128.445517
 30
0.0
 11
185.665733
 21
-128.445517
 31
0.0
  0
LINE
  5
324
100
AcDbEntity
  8
2
370
    50
100
AcDbLine
 10
159.865733
 20
-149.445517
 30
0.0
 11
162.865733
 21
-149.445517
 31
0.0
  0
LINE
  5
325
100
AcDbEntity
  8
2
370
    50
100
AcDbLine
 10
172.865733
 20
-149.445517
 30
0.0
 11
185.665733
 21
-149.445517
 31
0.0
  0
LINE
  5
326
100
AcDbEntity
  8
2
370
    50
100
AcDbLine
 10
170.623042
 20
-115.945521
 30
0.0
 11
170.623042
 21
-161.945521
 31
0.0
  0
LINE
  5
327
100
AcDbEntity
  8
2
370
    50
100
AcDbLine
 10
133.865733
 20
-86.845517
 30
0.0
 11
133.865733
 21
-111.045517
 31
0.0
  0
ARC
  5
328
100
AcDbEntity
  8
2
370
    50
100
AcDbCircle
 10
-152.080756
 20
-131.205978
 30
0.0
 40
3.760005
100
AcDbArc
 50
47.21775
 51
132.78225
  0
ARC
  5
329
100
AcDbEntity
  8
2
370
    50
100
AcDbCircle
 10
-141.634604
 20
-140.446359
 30
0.0
 40
13.0
100
AcDbArc
 50
67.380135
 51
112.619865
  0
LINE
  5
32A
100
AcDbEntity
  8
2
370
    50
100
AcDbLine
 10
-149.526909
 20
-128.446359
 30
0.0
 11
-146.634604
 21
-128.446359
 31
0.0
  0
ARC
  5
32B
100
AcDbEntity
  8
2
370
    50
100
AcDbCircle
 10
-152.080756
 20
-134.68674
 30
0.0
 40
3.760005
100
AcDbArc
 50
227.21775
 51
312.78225
  0
ARC
  5
32C
100
AcDbEntity
  8
2
370
    50
100
AcDbCircle
 10
-141.634604
 20
-125.446359
 30
0.0
 40
13.0
100
AcDbArc
 50
247.380135
 51
292.619865
  0
LINE
  5
32D
100
AcDbEntity
  8
2
370
    50
100
AcDbLine
 10
-146.634604
 20
-128.446359
 30
0.0
 11
-146.634604
 21
-137.446359
 31
0.0
  0
LINE
  5
32E
100
AcDbEntity
  8
2
370
    50
100
AcDbLine
 10
-149.526909
 20
-128.446359
 30
0.0
 11
-149.526909
 21
-137.446359
 31
0.0
  0
LINE
  5
32F
100
AcDbEntity
  8
2
370
    50
100
AcDbLine
 10
-149.526909
 20
-137.446359
 30
0.0
 11
-146.634604
 21
-137.446359
 31
0.0
  0
ARC
  5
330
100
AcDbEntity
  8
2
370
    50
100
AcDbCircle
 10
-131.188451
 20
-131.205978
 30
0.0
 40
3.760005
100
AcDbArc
 50
47.21775
 51
132.78225
  0
LINE
  5
331
100
AcDbEntity
  8
2
370
    50
100
AcDbLine
 10
-133.742299
 20
-128.446359
 30
0.0
 11
-133.742299
 21
-137.446359
 31
0.0
  0
LINE
  5
332
100
AcDbEntity
  8
2
370
    50
100
AcDbLine
 10
-133.742299
 20
-128.446359
 30
0.0
 11
-136.634604
 21
-128.446359
 31
0.0
  0
LINE
  5
333
100
AcDbEntity
  8
2
370
    50
100
AcDbLine
 10
-136.634604
 20
-128.446359
 30
0.0
 11
-136.634604
 21
-137.446359
 31
0.0
  0
LINE
  5
334
100
AcDbEntity
  8
2
370
    50
100
AcDbLine
 10
-133.742299
 20
-137.446359
 30
0.0
 11
-136.634604
 21
-137.446359
 31
0.0
  0
ARC
  5
335
100
AcDbEntity
  8
2
370
    50
100
AcDbCircle
 10
-131.188451
 20
-134.68674
 30
0.0
 40
3.760005
100
AcDbArc
 50
227.21775
 51
312.78225
  0
ELLIPSE
  5
336
100
AcDbEntity
  8
2
370
    50
100
AcDbEllipse
 10
-154.737853
 20
-121.696359
 30
0.0
 11
0.0
 21
-4.25
 31
0.0
210
0.0
220
0.0
230
1.0
 40
0.681588
 41
0.0
 42
6.2831849999999996
  0
ELLIPSE
  5
337
100
AcDbEntity
  8
2
370
    50
100
AcDbEllipse
 10
-141.634604
 20
-121.696359
 30
0.0
 11
-5.5677640000000004
 21
0.0
 31
0.0
210
0.0
220
0.0
230
1.0
 40
0.727401
 41
0.0
 42
6.2831849999999996
  0
ELLIPSE
  5
338
100
AcDbEntity
  8
2
370
    50
100
AcDbEllipse
 10
-128.531354
 20
-121.696359
 30
0.0
 11
0.0
 21
4.25
 31
0.0
210
0.0
220
0.0
230
1.0
 40
0.681588
 41
0.0
 42
6.2831849999999996
  0
LINE
  5
339
100
AcDbEntity
  8
2
370
    50
100
AcDbLine
 10
-24.13455
 20
159.800726
 30
0.0
 11
-24.13455
 21
153.800726
 31
0.0
  0
LINE
  5
33A
100
AcDbEntity
  8
2
370
    50
100
AcDbLine
 10
-44.13455
 20
159.800726
 30
0.0
 11
-44.13455
 21
153.800726
 31
0.0
  0
LINE
  5
33B
100
AcDbEntity
  8
2
370
    50
100
AcDbLine
 10
-239.134523
 20
159.800726
 30
0.0
 11
-239.134523
 21
153.800726
 31
0.0
  0
LINE
  5
33C
100
AcDbEntity
  8
2
370
    50
100
AcDbLine
 10
-259.134523
 20
159.800726
 30
0.0
 11
-259.134523
 21
153.800726
 31
0.0
  0
ARC
  5
33D
100
AcDbEntity
  8
2
370
    50
100
AcDbCircle
 10
134.601801
 20
-146.945517
 30
0.0
 40
3.0
100
AcDbArc
 50
221.810315
 51
270.0
  0
LINE
  5
33E
100
AcDbEntity
  8
2
370
    50
100
AcDbLine
 10
138.365733
 20
-149.945517
 30
0.0
 11
134.601801
 21
-149.945517
 31
0.0
  0
LINE
  5
33F
100
AcDbEntity
  8
2
370
    50
100
AcDbLine
 10
132.365733
 20
-128.945517
 30
0.0
 11
132.365733
 21
-148.945517
 31
0.0
  0
LINE
  5
340
100
AcDbEntity
  8
2
370
    50
100
AcDbLine
 10
138.365733
 20
-134.363517
 30
0.0
 11
132.365733
 21
-134.363517
 31
0.0
  0
LINE
  5
341
100
AcDbEntity
  8
2
370
    50
100
AcDbLine
 10
138.365733
 20
-143.527517
 30
0.0
 11
132.365733
 21
-143.527517
 31
0.0
  0
ARC
  5
342
100
AcDbEntity
  8
2
370
    50
100
AcDbCircle
 10
119.228864
 20
-86.770012
 30
0.0
 40
3.363131
100
AcDbArc
 50
113.910931
 51
246.089069
  0
LINE
  5
343
100
AcDbEntity
  8
2
370
    50
100
AcDbLine
 10
117.865733
 20
-89.844508
 30
0.0
 11
128.865733
 21
-89.844508
 31
0.0
  0
LINE
  5
344
100
AcDbEntity
  8
2
370
    50
100
AcDbLine
 10
117.865733
 20
-92.898823
 30
0.0
 11
117.865733
 21
-89.844508
 31
0.0
  0
LINE
  5
345
100
AcDbEntity
  8
2
370
    50
100
AcDbLine
 10
117.865733
 20
-92.898823
 30
0.0
 11
128.699927
 21
-92.898823
 31
0.0
  0
ARC
  5
346
100
AcDbEntity
  8
2
370
    50
100
AcDbCircle
 10
126.006358
 20
-98.945517
 30
0.0
 40
10.140625
100
AcDbArc
 50
143.395774
 51
216.604226
  0
LINE
  5
347
100
AcDbEntity
  8
2
370
    50
100
AcDbLine
 10
117.865733
 20
-108.046525
 30
0.0
 11
117.865733
 21
-104.99221
 31
0.0
  0
LINE
  5
348
100
AcDbEntity
  8
2
370
    50
100
AcDbLine
 10
117.865733
 20
-104.99221
 30
0.0
 11
128.699927
 21
-104.99221
 31
0.0
  0
LINE
  5
349
100
AcDbEntity
  8
2
370
    50
100
AcDbLine
 10
117.865733
 20
-108.046525
 30
0.0
 11
128.865733
 21
-108.046525
 31
0.0
  0
ARC
  5
34A
100
AcDbEntity
  8
2
370
    50
100
AcDbCircle
 10
119.228864
 20
-111.121021
 30
0.0
 40
3.363131
100
AcDbArc
 50
113.910931
 51
246.089069
  0
LINE
  5
34B
100
AcDbEntity
  8
2
370
    50
100
AcDbLine
 10
128.865733
 20
-108.046525
 30
0.0
 11
128.865733
 21
-104.99221
 31
0.0
  0
ARC
  5
34C
100
AcDbEntity
  8
2
370
    50
100
AcDbCircle
 10
120.725108
 20
-98.945517
 30
0.0
 40
10.140625
100
AcDbArc
 50
323.395774
 51
36.604226
  0
LINE
  5
34D
100
AcDbEntity
  8
2
370
    50
100
AcDbLine
 10
128.865733
 20
-92.898823
 30
0.0
 11
128.865733
 21
-89.844508
 31
0.0
  0
ARC
  5
34E
100
AcDbEntity
  8
2
370
    50
100
AcDbCircle
 10
127.502603
 20
-86.770012
 30
0.0
 40
3.363131
100
AcDbArc
 50
293.910931
 51
360.0
  0
ARC
  5
34F
100
AcDbEntity
  8
2
370
    50
100
AcDbCircle
 10
127.502603
 20
-86.770012
 30
0.0
 40
3.363131
100
AcDbArc
 50
293.910931
 51
66.089069
  0
ARC
  5
350
100
AcDbEntity
  8
2
370
    50
100
AcDbCircle
 10
127.502603
 20
-111.121021
 30
0.0
 40
3.363131
100
AcDbArc
 50
293.910931
 51
66.089069
  0
LINE
  5
351
100
AcDbEntity
  8
2
370
    50
100
AcDbLine
 10
-147.751752
 20
-142.446211
 30
0.0
 11
-149.755732
 21
-146.446211
 31
0.0
  0
LINE
  5
352
100
AcDbEntity
  8
2
370
    50
100
AcDbLine
 10
-149.483803
 20
-142.446211
 30
0.0
 11
-151.487783
 21
-146.446211
 31
0.0
  0
LINE
  5
353
100
AcDbEntity
  8
2
370
    50
100
AcDbLine
 10
-149.483803
 20
-142.446211
 30
0.0
 11
-147.751752
 21
-142.446211
 31
0.0
  0
LINE
  5
354
100
AcDbEntity
  8
2
370
    50
100
AcDbLine
 10
-147.751752
 20
-142.446211
 30
0.0
 11
-147.751752
 21
-145.446211
 31
0.0
  0
ARC
  5
355
100
AcDbEntity
  8
2
370
    50
100
AcDbCircle
 10
-148.751752
 20
-145.446211
 30
0.0
 40
1.0
100
AcDbArc
 50
270.0
 51
360.0
  0
LINE
  5
356
100
AcDbEntity
  8
2
370
    50
100
AcDbLine
 10
-135.519563
 20
-142.446211
 30
0.0
 11
-133.515582
 21
-146.446211
 31
0.0
  0
LINE
  5
357
100
AcDbEntity
  8
2
370
    50
100
AcDbLine
 10
-133.787512
 20
-142.446211
 30
0.0
 11
-131.783531
 21
-146.446211
 31
0.0
  0
LINE
  5
358
100
AcDbEntity
  8
2
370
    50
100
AcDbLine
 10
-133.787512
 20
-142.446211
 30
0.0
 11
-135.519563
 21
-142.446211
 31
0.0
  0
LINE
  5
359
100
AcDbEntity
  8
2
370
    50
100
AcDbLine
 10
-135.519563
 20
-142.446211
 30
0.0
 11
-135.519563
 21
-145.446211
 31
0.0
  0
ARC
  5
35A
100
AcDbEntity
  8
2
370
    50
100
AcDbCircle
 10
-134.519563
 20
-145.446211
 30
0.0
 40
1.0
100
AcDbArc
 50
180.0
 51
270.0
  0
ARC
  5
35B
100
AcDbEntity
  8
2
370
    50
100
AcDbCircle
 10
-16.586008
 20
186.233185
 30
0.0
 40
8.0
100
AcDbArc
 50
218.065167
 51
257.293325
  0
LINE
  5
35C
100
AcDbEntity
  8
2
370
    50
100
AcDbLine
 10
-14.134488
 20
177.300726
 30
0.0
 11
-18.964117
 21
178.594821
 31
0.0
  0
LINE
  5
35D
100
AcDbEntity
  8
2
370
    50
100
AcDbLine
 10
-14.134488
 20
177.300726
 30
0.0
 11
-14.134488
 21
165.300726
 31
0.0
  0
LINE
  5
35E
100
AcDbEntity
  8
2
370
    50
100
AcDbLine
 10
-14.134488
 20
165.300726
 30
0.0
 11
-18.964117
 21
164.006631
 31
0.0
  0
ARC
  5
35F
100
AcDbEntity
  8
2
370
    50
100
AcDbCircle
 10
-15.463204
 20
156.813328
 30
0.0
 40
8.0
100
AcDbArc
 50
115.95175
 51
158.073011
  0
POINT
  5
360
100
AcDbEntity
  8
2
370
    50
100
AcDbPoint
 10
-11.134488
 20
171.300724
 30
0.0
  0
LINE
  5
361
100
AcDbEntity
  8
2
370
    50
100
AcDbLine
 10
-11.134488
 20
163.800724
 30
0.0
 11
-11.134488
 21
178.800724
 31
0.0
  0
LINE
  5
362
100
AcDbEntity
  8
2
370
    50
100
AcDbLine
 10
-11.134488
 20
178.800724
 30
0.0
 11
-6.434488
 21
178.800724
 31
0.0
  0
ARC
  5
363
100
AcDbEntity
  8
2
370
    50
100
AcDbCircle
 10
-35.481863
 20
171.300724
 30
0.0
 40
30.0
100
AcDbArc
 50
345.522488
 51
14.477512
  0
LINE
  5
364
100
AcDbEntity
  8
2
370
    50
100
AcDbLine
 10
-11.134488
 20
163.800724
 30
0.0
 11
-6.434488
 21
163.800724
 31
0.0
  0
LINE
  5
365
100
AcDbEntity
  8
2
370
    50
100
AcDbLine
 10
-11.134488
 20
167.800724
 30
0.0
 11
-13.434488
 21
167.800724
 31
0.0
  0
LINE
  5
366
100
AcDbEntity
  8
2
370
    50
100
AcDbLine
 10
-11.134488
 20
174.800724
 30
0.0
 11
-13.434488
 21
174.800724
 31
0.0
  0
LINE
  5
367
100
AcDbEntity
  8
2
370
    50
100
AcDbLine
 10
-13.434488
 20
175.050724
 30
0.0
 11
-14.134488
 21
175.750724
 31
0.0
  0
LINE
  5
368
100
AcDbEntity
  8
2
370
    50
100
AcDbLine
 10
-13.434488
 20
167.550724
 30
0.0
 11
-14.134488
 21
166.850724
 31
0.0
  0
LINE
  5
369
100
AcDbEntity
  8
2
370
    25
100
AcDbLine
 10
-14.134488
 20
167.550724
 30
0.0
 11
-13.434488
 21
167.550724
 31
0.0
  0
LINE
  5
36A
100
AcDbEntity
  8
2
370
    25
100
AcDbLine
 10
-14.134488
 20
175.050724
 30
0.0
 11
-13.434488
 21
175.050724
 31
0.0
  0
LINE
  5
36B
100
AcDbEntity
  8
2
370
    50
100
AcDbLine
 10
-13.434488
 20
175.050724
 30
0.0
 11
-13.434488
 21
167.550724
 31
0.0
  0
LINE
  5
36C
100
AcDbEntity
  8
2
370
    25
  6
CENTER
100
AcDbLine
 10
-16.027376
 20
171.300724
 30
0.0
 11
-3.860513
 21
171.300724
 31
0.0
  0
LINE
  5
36D
100
AcDbEntity
  8
2
370
    50
100
AcDbLine
 10
-11.134488
 20
177.800724
 30
0.0
 11
-6.194493
 21
177.800724
 31
0.0
  0
LINE
  5
36E
100
AcDbEntity
  8
2
370
    50
100
AcDbLine
 10
-11.134488
 20
176.800724
 30
0.0
 11
-5.990339
 21
176.800724
 31
0.0
  0
LINE
  5
36F
100
AcDbEntity
  8
2
370
    50
100
AcDbLine
 10
-11.134488
 20
175.800724
 30
0.0
 11
-5.821283
 21
175.800724
 31
0.0
  0
LINE
  5
370
100
AcDbEntity
  8
2
370
    50
100
AcDbLine
 10
-11.134488
 20
174.800724
 30
0.0
 11
-5.686729
 21
174.800724
 31
0.0
  0
LINE
  5
371
100
AcDbEntity
  8
2
370
    50
100
AcDbLine
 10
-11.134488
 20
173.800724
 30
0.0
 11
-5.586211
 21
173.800724
 31
0.0
  0
LINE
  5
372
100
AcDbEntity
  8
2
370
    50
100
AcDbLine
 10
-11.134488
 20
172.800724
 30
0.0
 11
-5.519386
 21
172.800724
 31
0.0
  0
LINE
  5
373
100
AcDbEntity
  8
2
370
    50
100
AcDbLine
 10
-11.134488
 20
164.800724
 30
0.0
 11
-6.194493
 21
164.800724
 31
0.0
  0
LINE
  5
374
100
AcDbEntity
  8
2
370
    50
100
AcDbLine
 10
-11.134488
 20
165.800724
 30
0.0
 11
-5.990339
 21
165.800724
 31
0.0
  0
LINE
  5
375
100
AcDbEntity
  8
2
370
    50
100
AcDbLine
 10
-11.134488
 20
166.800724
 30
0.0
 11
-5.821283
 21
166.800724
 31
0.0
  0
LINE
  5
376
100
AcDbEntity
  8
2
370
    50
100
AcDbLine
 10
-11.134488
 20
167.800724
 30
0.0
 11
-5.686729
 21
167.800724
 31
0.0
  0
LINE
  5
377
100
AcDbEntity
  8
2
370
    50
100
AcDbLine
 10
-11.134488
 20
168.800724
 30
0.0
 11
-5.586211
 21
168.800724
 31
0.0
  0
LINE
  5
378
100
AcDbEntity
  8
2
370
    50
100
AcDbLine
 10
-11.134488
 20
169.800724
 30
0.0
 11
-5.519386
 21
169.800724
 31
0.0
  0
ARC
  5
379
100
AcDbEntity
  8
2
370
    50
100
AcDbCircle
 10
-266.683065
 20
186.233185
 30
0.0
 40
8.0
100
AcDbArc
 50
282.706675
 51
321.934833
  0
LINE
  5
37A
100
AcDbEntity
  8
2
370
    50
100
AcDbLine
 10
-269.134585
 20
177.300726
 30
0.0
 11
-264.304956
 21
178.594821
 31
0.0
  0
LINE
  5
37B
100
AcDbEntity
  8
2
370
    50
100
AcDbLine
 10
-269.134585
 20
177.300726
 30
0.0
 11
-269.134585
 21
165.300726
 31
0.0
  0
LINE
  5
37C
100
AcDbEntity
  8
2
370
    50
100
AcDbLine
 10
-269.134585
 20
165.300726
 30
0.0
 11
-264.304956
 21
164.006631
 31
0.0
  0
ARC
  5
37D
100
AcDbEntity
  8
2
370
    50
100
AcDbCircle
 10
-267.805869
 20
156.813328
 30
0.0
 40
8.0
100
AcDbArc
 50
21.926989
 51
64.04825
  0
POINT
  5
37E
100
AcDbEntity
  8
2
370
    50
100
AcDbPoint
 10
-272.134585
 20
171.300724
 30
0.0
  0
LINE
  5
37F
100
AcDbEntity
  8
2
370
    50
100
AcDbLine
 10
-272.134585
 20
163.800724
 30
0.0
 11
-272.134585
 21
178.800724
 31
0.0
  0
LINE
  5
380
100
AcDbEntity
  8
2
370
    50
100
AcDbLine
 10
-272.134585
 20
178.800724
 30
0.0
 11
-276.834585
 21
178.800724
 31
0.0
  0
ARC
  5
381
100
AcDbEntity
  8
2
370
    50
100
AcDbCircle
 10
-247.78721
 20
171.300724
 30
0.0
 40
30.0
100
AcDbArc
 50
165.522488
 51
194.477512
  0
LINE
  5
382
100
AcDbEntity
  8
2
370
    50
100
AcDbLine
 10
-272.134585
 20
163.800724
 30
0.0
 11
-276.834585
 21
163.800724
 31
0.0
  0
LINE
  5
383
100
AcDbEntity
  8
2
370
    50
100
AcDbLine
 10
-272.134585
 20
167.800724
 30
0.0
 11
-269.834585
 21
167.800724
 31
0.0
  0
LINE
  5
384
100
AcDbEntity
  8
2
370
    50
100
AcDbLine
 10
-272.134585
 20
174.800724
 30
0.0
 11
-269.834585
 21
174.800724
 31
0.0
  0
LINE
  5
385
100
AcDbEntity
  8
2
370
    50
100
AcDbLine
 10
-269.834585
 20
175.050724
 30
0.0
 11
-269.134585
 21
175.750724
 31
0.0
  0
LINE
  5
386
100
AcDbEntity
  8
2
370
    50
100
AcDbLine
 10
-269.834585
 20
167.550724
 30
0.0
 11
-269.134585
 21
166.850724
 31
0.0
  0
LINE
  5
387
100
AcDbEntity
  8
2
370
    25
100
AcDbLine
 10
-269.134585
 20
167.550724
 30
0.0
 11
-269.834585
 21
167.550724
 31
0.0
  0
LINE
  5
388
100
AcDbEntity
  8
2
370
    25
100
AcDbLine
 10
-269.134585
 20
175.050724
 30
0.0
 11
-269.834585
 21
175.050724
 31
0.0
  0
LINE
  5
389
100
AcDbEntity
  8
2
370
    50
100
AcDbLine
 10
-269.834585
 20
175.050724
 30
0.0
 11
-269.834585
 21
167.550724
 31
0.0
  0
LINE
  5
38A
100
AcDbEntity
  8
2
370
    25
  6
CENTER
100
AcDbLine
 10
-267.241697
 20
171.300724
 30
0.0
 11
-279.40856
 21
171.300724
 31
0.0
  0
LINE
  5
38B
100
AcDbEntity
  8
2
370
    50
100
AcDbLine
 10
-272.134585
 20
177.800724
 30
0.0
 11
-277.07458
 21
177.800724
 31
0.0
  0
LINE
  5
38C
100
AcDbEntity
  8
2
370
    50
100
AcDbLine
 10
-272.134585
 20
176.800724
 30
0.0
 11
-277.278735
 21
176.800724
 31
0.0
  0
LINE
  5
38D
100
AcDbEntity
  8
2
370
    50
100
AcDbLine
 10
-272.134585
 20
175.800724
 30
0.0
 11
-277.44779
 21
175.800724
 31
0.0
  0
LINE
  5
38E
100
AcDbEntity
  8
2
370
    50
100
AcDbLine
 10
-272.134585
 20
174.800724
 30
0.0
 11
-277.582344
 21
174.800724
 31
0.0
  0
LINE
  5
38F
100
AcDbEntity
  8
2
370
    50
100
AcDbLine
 10
-272.134585
 20
173.800724
 30
0.0
 11
-277.682862
 21
173.800724
 31
0.0
  0
LINE
  5
390
100
AcDbEntity
  8
2
370
    50
100
AcDbLine
 10
-272.134585
 20
172.800724
 30
0.0
 11
-277.749687
 21
172.800724
 31
0.0
  0
LINE
  5
391
100
AcDbEntity
  8
2
370
    50
100
AcDbLine
 10
-272.134585
 20
164.800724
 30
0.0
 11
-277.07458
 21
164.800724
 31
0.0
  0
LINE
  5
392
100
AcDbEntity
  8
2
370
    50
100
AcDbLine
 10
-272.134585
 20
165.800724
 30
0.0
 11
-277.278735
 21
165.800724
 31
0.0
  0
LINE
  5
393
100
AcDbEntity
  8
2
370
    50
100
AcDbLine
 10
-272.134585
 20
166.800724
 30
0.0
 11
-277.44779
 21
166.800724
 31
0.0
  0
LINE
  5
394
100
AcDbEntity
  8
2
370
    50
100
AcDbLine
 10
-272.134585
 20
167.800724
 30
0.0
 11
-277.582344
 21
167.800724
 31
0.0
  0
LINE
  5
395
100
AcDbEntity
  8
2
370
    50
100
AcDbLine
 10
-272.134585
 20
168.800724
 30
0.0
 11
-277.682862
 21
168.800724
 31
0.0
  0
LINE
  5
396
100
AcDbEntity
  8
2
370
    50
100
AcDbLine
 10
-272.134585
 20
169.800724
 30
0.0
 11
-277.749687
 21
169.800724
 31
0.0
  0
LINE
  5
397
100
AcDbEntity
  8
2
370
    50
100
AcDbLine
 10
-5.481863
 20
171.300724
 30
0.0
 11
-11.134488
 21
171.300724
 31
0.0
  0
LINE
  5
398
100
AcDbEntity
  8
2
370
    50
100
AcDbLine
 10
-277.78721
 20
171.300724
 30
0.0
 11
-272.134585
 21
171.300724
 31
0.0
  0
LINE
  5
399
100
AcDbEntity
  8
2
370
    50
100
AcDbLine
 10
-248.378737
 20
-143.796588
 30
0.0
 11
-251.702139
 21
-147.11999
 31
0.0
  0
LINE
  5
39A
100
AcDbEntity
  8
2
370
    50
100
AcDbLine
 10
-249.79295
 20
-142.382375
 30
0.0
 11
-253.430413
 21
-146.019838
 31
0.0
  0
LINE
  5
39B
100
AcDbEntity
  8
2
370
    50
100
AcDbLine
 10
-258.985339
 20
-133.189987
 30
0.0
 11
-262.308741
 21
-136.513389
 31
0.0
  0
ARC
  5
39C
100
AcDbEntity
  8
2
370
    50
100
AcDbCircle
 10
-236.465844
 20
-121.277093
 30
0.0
 40
30.0
100
AcDbArc
 50
210.522488
 51
239.477512
  0
LINE
  5
39D
100
AcDbEntity
  8
2
370
    50
100
AcDbLine
 10
-258.278232
 20
-133.897093
 30
0.0
 11
-261.771335
 21
-137.390197
 31
0.0
  0
LINE
  5
39E
100
AcDbEntity
  8
2
370
    50
100
AcDbLine
 10
-257.571125
 20
-134.6042
 30
0.0
 11
-261.208588
 21
-138.241663
 31
0.0
  0
LINE
  5
39F
100
AcDbEntity
  8
2
370
    50
100
AcDbLine
 10
-256.864018
 20
-135.311307
 30
0.0
 11
-260.621021
 21
-139.06831
 31
0.0
  0
LINE
  5
3A0
100
AcDbEntity
  8
2
370
    50
100
AcDbLine
 10
-256.156912
 20
-136.018414
 30
0.0
 11
-260.009059
 21
-139.870561
 31
0.0
  0
LINE
  5
3A1
100
AcDbEntity
  8
2
370
    50
100
AcDbLine
 10
-255.449805
 20
-136.725521
 30
0.0
 11
-259.373029
 21
-140.648745
 31
0.0
  0
LINE
  5
3A2
100
AcDbEntity
  8
2
370
    50
100
AcDbLine
 10
-254.742698
 20
-137.432627
 30
0.0
 11
-258.713174
 21
-141.403104
 31
0.0
  0
LINE
  5
3A3
100
AcDbEntity
  8
2
370
    50
100
AcDbLine
 10
-255.803358
 20
-132.129327
 30
0.0
 11
-248.163449
 21
-118.896616
 31
0.0
  0
LINE
  5
3A4
100
AcDbEntity
  8
2
370
    50
100
AcDbLine
 10
-247.318077
 20
-140.614608
 30
0.0
 11
-255.803358
 21
-132.129327
 31
0.0
  0
LINE
  5
3A5
100
AcDbEntity
  8
2
370
    50
100
AcDbLine
 10
-256.156912
 20
-136.018414
 30
0.0
 11
-254.530566
 21
-134.392068
 31
0.0
  0
LINE
  5
3A6
100
AcDbEntity
  8
2
370
    25
100
AcDbLine
 10
-254.212368
 20
-133.720317
 30
0.0
 11
-254.707343
 21
-134.215292
 31
0.0
  0
LINE
  5
3A7
100
AcDbEntity
  8
2
370
    50
100
AcDbLine
 10
-254.707343
 20
-134.215292
 30
0.0
 11
-249.404042
 21
-139.518592
 31
0.0
  0
LINE
  5
3A8
100
AcDbEntity
  8
2
370
    50
100
AcDbLine
 10
-248.378737
 20
-143.796588
 30
0.0
 11
-258.985339
 21
-133.189987
 31
0.0
  0
LINE
  5
3A9
100
AcDbEntity
  8
2
370
    50
100
AcDbLine
 10
-254.707343
 20
-134.215292
 30
0.0
 11
-254.707343
 21
-133.225342
 31
0.0
  0
LINE
  5
3AA
100
AcDbEntity
  8
2
370
    50
100
AcDbLine
 10
-247.318077
 20
-140.614608
 30
0.0
 11
-234.085366
 21
-132.974699
 31
0.0
  0
LINE
  5
3AB
100
AcDbEntity
  8
2
370
    50
100
AcDbLine
 10
-249.404042
 20
-139.518592
 30
0.0
 11
-248.414092
 21
-139.518592
 31
0.0
  0
LINE
  5
3AC
100
AcDbEntity
  8
2
370
    25
100
AcDbLine
 10
-248.909067
 20
-139.023618
 30
0.0
 11
-249.404042
 21
-139.518592
 31
0.0
  0
LINE
  5
3AD
100
AcDbEntity
  8
2
370
    50
100
AcDbLine
 10
-251.207164
 20
-140.968161
 30
0.0
 11
-249.580818
 21
-139.341816
 31
0.0
  0
LINE
  5
3AE
100
AcDbEntity
  8
2
370
    50
100
AcDbLine
 10
-249.085844
 20
-143.089482
 30
0.0
 11
-252.578947
 21
-146.582585
 31
0.0
  0
LINE
  5
3AF
100
AcDbEntity
  8
2
370
    50
100
AcDbLine
 10
-250.500057
 20
-141.675268
 30
0.0
 11
-254.25706
 21
-145.432271
 31
0.0
  0
LINE
  5
3B0
100
AcDbEntity
  8
2
370
    50
100
AcDbLine
 10
-251.207164
 20
-140.968161
 30
0.0
 11
-255.059311
 21
-144.820308
 31
0.0
  0
LINE
  5
3B1
100
AcDbEntity
  8
2
370
    50
100
AcDbLine
 10
-251.914271
 20
-140.261054
 30
0.0
 11
-255.837495
 21
-144.184279
 31
0.0
  0
LINE
  5
3B2
100
AcDbEntity
  8
2
370
    50
100
AcDbLine
 10
-252.621378
 20
-139.553948
 30
0.0
 11
-256.591854
 21
-143.524424
 31
0.0
  0
LINE
  5
3B3
100
AcDbEntity
  8
2
370
    50
100
AcDbLine
 10
-253.682038
 20
-138.493288
 30
0.0
 11
-257.679047
 21
-142.490297
 31
0.0
  0
LINE
  5
3B4
100
AcDbEntity
  8
2
370
    50
100
AcDbLine
 10
-27.465175
 20
-132.129327
 30
0.0
 11
-35.105084
 21
-118.896616
 31
0.0
  0
LINE
  5
3B5
100
AcDbEntity
  8
2
370
    50
100
AcDbLine
 10
-35.950457
 20
-140.614608
 30
0.0
 11
-27.465175
 21
-132.129327
 31
0.0
  0
LINE
  5
3B6
100
AcDbEntity
  8
2
370
    50
100
AcDbLine
 10
-34.889797
 20
-143.796588
 30
0.0
 11
-24.283195
 21
-133.189987
 31
0.0
  0
LINE
  5
3B7
100
AcDbEntity
  8
2
370
    50
100
AcDbLine
 10
-24.283195
 20
-133.189987
 30
0.0
 11
-20.959793
 21
-136.513389
 31
0.0
  0
ARC
  5
3B8
100
AcDbEntity
  8
2
370
    50
100
AcDbCircle
 10
-46.80269
 20
-121.277093
 30
0.0
 40
30.0
100
AcDbArc
 50
300.522488
 51
329.477512
  0
LINE
  5
3B9
100
AcDbEntity
  8
2
370
    50
100
AcDbLine
 10
-34.889797
 20
-143.796588
 30
0.0
 11
-31.566395
 21
-147.11999
 31
0.0
  0
LINE
  5
3BA
100
AcDbEntity
  8
2
370
    50
100
AcDbLine
 10
-32.061369
 20
-140.968161
 30
0.0
 11
-33.687715
 21
-139.341816
 31
0.0
  0
LINE
  5
3BB
100
AcDbEntity
  8
2
370
    50
100
AcDbLine
 10
-27.111622
 20
-136.018414
 30
0.0
 11
-28.737968
 21
-134.392068
 31
0.0
  0
LINE
  5
3BC
100
AcDbEntity
  8
2
370
    50
100
AcDbLine
 10
-28.561191
 20
-134.215292
 30
0.0
 11
-28.561191
 21
-133.225342
 31
0.0
  0
LINE
  5
3BD
100
AcDbEntity
  8
2
370
    50
100
AcDbLine
 10
-33.864492
 20
-139.518592
 30
0.0
 11
-34.854441
 21
-139.518592
 31
0.0
  0
LINE
  5
3BE
100
AcDbEntity
  8
2
370
    25
100
AcDbLine
 10
-34.359466
 20
-139.023618
 30
0.0
 11
-33.864492
 21
-139.518592
 31
0.0
  0
LINE
  5
3BF
100
AcDbEntity
  8
2
370
    25
100
AcDbLine
 10
-29.056166
 20
-133.720317
 30
0.0
 11
-28.561191
 21
-134.215292
 31
0.0
  0
LINE
  5
3C0
100
AcDbEntity
  8
2
370
    50
100
AcDbLine
 10
-28.561191
 20
-134.215292
 30
0.0
 11
-33.864492
 21
-139.518592
 31
0.0
  0
LINE
  5
3C1
100
AcDbEntity
  8
2
370
    50
100
AcDbLine
 10
-24.990302
 20
-133.897093
 30
0.0
 11
-21.497198
 21
-137.390197
 31
0.0
  0
LINE
  5
3C2
100
AcDbEntity
  8
2
370
    50
100
AcDbLine
 10
-25.697408
 20
-134.6042
 30
0.0
 11
-22.059946
 21
-138.241663
 31
0.0
  0
LINE
  5
3C3
100
AcDbEntity
  8
2
370
    50
100
AcDbLine
 10
-26.404515
 20
-135.311307
 30
0.0
 11
-22.647512
 21
-139.06831
 31
0.0
  0
LINE
  5
3C4
100
AcDbEntity
  8
2
370
    50
100
AcDbLine
 10
-27.111622
 20
-136.018414
 30
0.0
 11
-23.259475
 21
-139.870561
 31
0.0
  0
LINE
  5
3C5
100
AcDbEntity
  8
2
370
    50
100
AcDbLine
 10
-27.818729
 20
-136.725521
 30
0.0
 11
-23.895505
 21
-140.648745
 31
0.0
  0
LINE
  5
3C6
100
AcDbEntity
  8
2
370
    50
100
AcDbLine
 10
-28.525836
 20
-137.432627
 30
0.0
 11
-24.555359
 21
-141.403104
 31
0.0
  0
LINE
  5
3C7
100
AcDbEntity
  8
2
370
    50
100
AcDbLine
 10
-34.18269
 20
-143.089482
 30
0.0
 11
-30.689586
 21
-146.582585
 31
0.0
  0
LINE
  5
3C8
100
AcDbEntity
  8
2
370
    50
100
AcDbLine
 10
-33.475583
 20
-142.382375
 30
0.0
 11
-29.83812
 21
-146.019838
 31
0.0
  0
LINE
  5
3C9
100
AcDbEntity
  8
2
370
    50
100
AcDbLine
 10
-32.768476
 20
-141.675268
 30
0.0
 11
-29.011473
 21
-145.432271
 31
0.0
  0
LINE
  5
3CA
100
AcDbEntity
  8
2
370
    50
100
AcDbLine
 10
-32.061369
 20
-140.968161
 30
0.0
 11
-28.209222
 21
-144.820308
 31
0.0
  0
LINE
  5
3CB
100
AcDbEntity
  8
2
370
    50
100
AcDbLine
 10
-31.354263
 20
-140.261054
 30
0.0
 11
-27.431039
 21
-144.184279
 31
0.0
  0
LINE
  5
3CC
100
AcDbEntity
  8
2
370
    50
100
AcDbLine
 10
-30.647156
 20
-139.553948
 30
0.0
 11
-26.67668
 21
-143.524424
 31
0.0
  0
LINE
  5
3CD
100
AcDbEntity
  8
2
370
    50
100
AcDbLine
 10
-29.586496
 20
-138.493288
 30
0.0
 11
-25.589486
 21
-142.490297
 31
0.0
  0
LINE
  5
3CE
100
AcDbEntity
  8
2
370
    50
100
AcDbLine
 10
-35.950457
 20
-140.614608
 30
0.0
 11
-49.183167
 21
-132.974699
 31
0.0
  0
LINE
  5
3CF
100
AcDbEntity
  8
2
370
    50
100
AcDbLine
 10
157.365733
 20
-161.945578
 30
0.0
 11
157.365733
 21
-166.645578
 31
0.0
  0
LINE
  5
3D0
100
AcDbEntity
  8
2
370
    50
100
AcDbLine
 10
142.365733
 20
-161.945578
 30
0.0
 11
142.365733
 21
-166.645578
 31
0.0
  0
LINE
  5
3D1
100
AcDbEntity
  8
2
370
    50
100
AcDbLine
 10
153.665733
 20
-159.595578
 30
0.0
 11
154.315733
 21
-158.945578
 31
0.0
  0
LINE
  5
3D2
100
AcDbEntity
  8
2
370
    50
100
AcDbLine
 10
146.115733
 20
-159.645578
 30
0.0
 11
145.415733
 21
-158.945578
 31
0.0
  0
LINE
  5
3D3
100
AcDbEntity
  8
2
370
    50
100
AcDbLine
 10
153.365733
 20
-161.945578
 30
0.0
 11
153.365733
 21
-159.645578
 31
0.0
  0
LINE
  5
3D4
100
AcDbEntity
  8
2
370
    50
100
AcDbLine
 10
146.365733
 20
-161.945578
 30
0.0
 11
146.365733
 21
-159.645578
 31
0.0
  0
LINE
  5
3D5
100
AcDbEntity
  8
2
370
    50
100
AcDbLine
 10
146.115733
 20
-159.645578
 30
0.0
 11
146.365733
 21
-159.645578
 31
0.0
  0
LINE
  5
3D6
100
AcDbEntity
  8
2
370
    50
100
AcDbLine
 10
153.665733
 20
-159.645578
 30
0.0
 11
146.365733
 21
-159.645578
 31
0.0
  0
LINE
  5
3D7
100
AcDbEntity
  8
2
370
    50
100
AcDbLine
 10
142.365733
 20
-161.945578
 30
0.0
 11
153.365733
 21
-161.945578
 31
0.0
  0
LINE
  5
3D8
100
AcDbEntity
  8
2
370
    50
100
AcDbLine
 10
153.365733
 20
-161.945578
 30
0.0
 11
157.365733
 21
-161.945578
 31
0.0
  0
ARC
  5
3D9
100
AcDbEntity
  8
2
370
    50
100
AcDbCircle
 10
149.865733
 20
-137.598203
 30
0.0
 40
30.0
100
AcDbArc
 50
255.522488
 51
284.477512
  0
LINE
  5
3DA
100
AcDbEntity
  8
2
370
    25
100
AcDbLine
 10
146.065733
 20
-158.945578
 30
0.0
 11
146.065733
 21
-159.595578
 31
0.0
  0
LINE
  5
3DB
100
AcDbEntity
  8
2
370
    25
100
AcDbLine
 10
153.665733
 20
-159.645578
 30
0.0
 11
153.665733
 21
-158.945578
 31
0.0
  0
LINE
  5
3DC
100
AcDbEntity
  8
2
370
    50
100
AcDbLine
 10
143.865733
 20
-158.945578
 30
0.0
 11
142.571638
 21
-154.115949
 31
0.0
  0
ARC
  5
3DD
100
AcDbEntity
  8
2
370
    50
100
AcDbCircle
 10
135.378335
 20
-157.616862
 30
0.0
 40
8.0
100
AcDbArc
 50
25.95175
 51
68.073011
  0
LINE
  5
3DE
100
AcDbEntity
  8
2
370
    50
100
AcDbLine
 10
155.865733
 20
-158.945578
 30
0.0
 11
157.159828
 21
-154.115949
 31
0.0
  0
ARC
  5
3DF
100
AcDbEntity
  8
2
370
    50
100
AcDbCircle
 10
164.798192
 20
-156.494059
 30
0.0
 40
8.0
100
AcDbArc
 50
128.065167
 51
167.293325
  0
LINE
  5
3E0
100
AcDbEntity
  8
2
370
    50
100
AcDbLine
 10
153.665733
 20
-158.945578
 30
0.0
 11
143.865733
 21
-158.945578
 31
0.0
  0
LINE
  5
3E1
100
AcDbEntity
  8
2
370
    50
100
AcDbLine
 10
153.665733
 20
-158.945578
 30
0.0
 11
155.865733
 21
-158.945578
 31
0.0
  0
ARC
  5
3E2
100
AcDbEntity
  8
2
370
    50
100
AcDbCircle
 10
-45.849995
 20
-122.229788
 30
0.0
 40
23.0
100
AcDbArc
 50
323.752929
 51
102.133959
  0
ARC
  5
3E3
100
AcDbEntity
  8
2
370
    50
100
AcDbCircle
 10
-45.849995
 20
-122.229788
 30
0.0
 40
12.5
100
AcDbArc
 50
1.372863
 51
67.432899
  0
ARC
  5
3E4
100
AcDbEntity
  8
2
370
    50
100
AcDbCircle
 10
-237.418538
 20
-122.229788
 30
0.0
 40
23.0
100
AcDbArc
 50
233.752929
 51
102.133959
  0
ARC
  5
3E5
100
AcDbEntity
  8
2
370
    50
100
AcDbCircle
 10
-237.418538
 20
-122.229788
 30
0.0
 40
12.5
100
AcDbArc
 50
271.372863
 51
337.432899
  0
LINE
  5
3E6
100
AcDbEntity
  8
2
370
    50
100
AcDbLine
 10
156.365733
 20
-161.945578
 30
0.0
 11
156.365733
 21
-166.885573
 31
0.0
  0
LINE
  5
3E7
100
AcDbEntity
  8
2
370
    50
100
AcDbLine
 10
155.365733
 20
-161.945578
 30
0.0
 11
155.365733
 21
-167.089728
 31
0.0
  0
LINE
  5
3E8
100
AcDbEntity
  8
2
370
    50
100
AcDbLine
 10
154.365733
 20
-161.945578
 30
0.0
 11
154.365733
 21
-167.258783
 31
0.0
  0
LINE
  5
3E9
100
AcDbEntity
  8
2
370
    50
100
AcDbLine
 10
153.365733
 20
-161.945578
 30
0.0
 11
153.365733
 21
-167.393337
 31
0.0
  0
LINE
  5
3EA
100
AcDbEntity
  8
2
370
    50
100
AcDbLine
 10
152.365733
 20
-161.945578
 30
0.0
 11
152.365733
 21
-167.493855
 31
0.0
  0
LINE
  5
3EB
100
AcDbEntity
  8
2
370
    50
100
AcDbLine
 10
151.365733
 20
-161.945578
 30
0.0
 11
151.365733
 21
-167.56068
 31
0.0
  0
LINE
  5
3EC
100
AcDbEntity
  8
2
370
    50
100
AcDbLine
 10
150.365733
 20
-161.945578
 30
0.0
 11
150.365733
 21
-167.594036
 31
0.0
  0
LINE
  5
3ED
100
AcDbEntity
  8
2
370
    50
100
AcDbLine
 10
149.365733
 20
-161.945578
 30
0.0
 11
149.365733
 21
-167.594036
 31
0.0
  0
LINE
  5
3EE
100
AcDbEntity
  8
2
370
    50
100
AcDbLine
 10
148.365733
 20
-161.945578
 30
0.0
 11
148.365733
 21
-167.56068
 31
0.0
  0
LINE
  5
3EF
100
AcDbEntity
  8
2
370
    50
100
AcDbLine
 10
147.365733
 20
-161.945578
 30
0.0
 11
147.365733
 21
-167.493855
 31
0.0
  0
LINE
  5
3F0
100
AcDbEntity
  8
2
370
    50
100
AcDbLine
 10
146.365733
 20
-161.945578
 30
0.0
 11
146.365733
 21
-167.393337
 31
0.0
  0
LINE
  5
3F1
100
AcDbEntity
  8
2
370
    50
100
AcDbLine
 10
145.365733
 20
-161.945578
 30
0.0
 11
145.365733
 21
-167.258783
 31
0.0
  0
LINE
  5
3F2
100
AcDbEntity
  8
2
370
    50
100
AcDbLine
 10
144.365733
 20
-161.945578
 30
0.0
 11
144.365733
 21
-167.089728
 31
0.0
  0
LINE
  5
3F3
100
AcDbEntity
  8
2
370
    50
100
AcDbLine
 10
143.365733
 20
-161.945578
 30
0.0
 11
143.365733
 21
-166.885573
 31
0.0
  0
DIMENSION
  5
3F4
100
AcDbEntity
  8
3
370
    25
100
AcDbDimension
  2
*D0
 10
222.150665
 20
-161.945521
 30
0.0
 11
210.650665
 21
-142.445521
 31
0.0
 70
     1
 71
     0
 72
     0
 41
0.0
 42
0.0
  3
Standard
100
AcDbAlignedDimension
 13
172.865733
 23
-115.945521
 33
0.0
 14
172.865733
 24
-161.945521
 34
0.0
 50
270.0
  0
TEXT
  5
3F5
100
AcDbEntity
  8
3
370
    50
100
AcDbText
 10
199.201416
 20
-100.328262
 30
0.0
 40
7.0
  1
ＰＪ１／２
 72
     5
 11
232.801416
 21
-100.328262
 31
0.0
100
AcDbText
  0
LWPOLYLINE
  5
3F6
100
AcDbEntity
  8
3
370
    25
100
AcDbPolyline
 90
        3
 70
     0
 10
178.702484
 20
-128.445517
 10
198.451691
 20
-101.296204
 10
233.989929
 20
-101.296204
  0
LINE
  5
3FB
100
AcDbEntity
  8
3
370
    25
100
AcDbLine
 10
180.975325
 20
-125.321033
 30
0.0
 11
180.138122
 21
-124.712027
 31
0.0
  0
LINE
  5
3FC
100
AcDbEntity
  8
3
370
    25
100
AcDbLine
 10
180.138122
 20
-124.712027
 30
0.0
 11
178.702484
 21
-128.445517
 31
0.0
  0
LINE
  5
3FD
100
AcDbEntity
  8
3
370
    25
100
AcDbLine
 10
178.702484
 20
-128.445517
 30
0.0
 11
181.812528
 21
-125.930039
 31
0.0
  0
LINE
  5
3FE
100
AcDbEntity
  8
3
370
    25
100
AcDbLine
 10
181.812528
 20
-125.930039
 30
0.0
 11
180.975325
 21
-125.321033
 31
0.0
  0
DIMENSION
  5
3FF
100
AcDbEntity
  8
3
370
    25
100
AcDbDimension
  2
*D1
 10
172.865733
 20
-201.940979
 30
0.0
 11
133.365733
 21
-197.440979
 31
0.0
 71
     0
 72
     0
 41
0.0
 42
0.0
  3
Standard
100
AcDbAlignedDimension
 13
93.865733
 23
-179.898727
 33
0.0
 14
172.865733
 24
-161.945521
 34
0.0
100
AcDbRotatedDimension
  0
TEXT
  5
400
100
AcDbEntity
  8
3
370
    50
100
AcDbText
 10
194.865733
 20
-200.940979
 30
0.0
 40
7.0
  1
（１４）
 72
     5
 11
221.465733
 21
-200.940979
 31
0.0
100
AcDbText
  0
DIMENSION
  5
401
100
AcDbEntity
  8
3
370
    25
100
AcDbDimension
  2
*D2
 10
186.865733
 20
-201.940979
 30
0.0
 11
179.865733
 21
-199.940979
 31
0.0
 71
     0
 72
     0
 41
0.0
 42
0.0
  3
Standard
100
AcDbAlignedDimension
 13
172.865733
 23
-161.945521
 33
0.0
 14
186.865733
 24
-148.245517
 34
0.0
100
AcDbRotatedDimension
  0
DIMENSION
  5
402
100
AcDbEntity
  8
3
370
    25
100
AcDbDimension
  2
*D3
 10
-74.134267
 20
13.581383
 30
0.0
 11
-141.634267
 21
18.081383
 31
0.0
 71
     0
 72
     0
 41
0.0
 42
0.0
  3
Standard
100
AcDbAlignedDimension
 13
-209.134267
 23
-17.918743
 33
0.0
 14
-74.134267
 24
-17.918743
 34
0.0
100
AcDbRotatedDimension
  0
DIMENSION
  5
403
100
AcDbEntity
  8
3
370
    25
100
AcDbDimension
  2
*D4
 10
-280.534688
 20
-79.113637
 30
0.0
 11
-267.09966
 21
-66.739269
 31
0.0
 70
     1
 71
     0
 72
     0
 41
0.0
 42
0.0
  3
Standard
100
AcDbAlignedDimension
 13
-209.134267
 23
-93.945517
 33
0.0
 14
-237.418538
 24
-122.229788
 34
0.0
 50
45.0
  0
DIMENSION
  5
404
100
AcDbEntity
  8
3
370
    25
100
AcDbDimension
  2
*D5
 10
25.137932
 20
-21.945517
 30
0.0
 11
10.137932
 21
-67.445517
 31
0.0
 71
     0
 72
     0
 41
0.0
 42
0.0
  3
Standard
100
AcDbAlignedDimension
 13
93.865733
 23
-98.945517
 33
0.0
 14
93.878456
 24
-21.945517
 34
0.0
 50
90.0
100
AcDbRotatedDimension
  0
DIMENSION
  5
405
100
AcDbEntity
  8
3
370
    25
100
AcDbDimension
  2
*D6
 10
25.137932
 20
-98.945517
 30
0.0
 11
17.137932
 21
-133.445616
 31
0.0
 71
     0
 72
     0
 41
0.0
 42
0.0
  3
Standard
100
AcDbAlignedDimension
 13
87.01468
 23
-167.945716
 33
0.0
 14
93.865733
 24
-98.945517
 34
0.0
 50
90.0
100
AcDbRotatedDimension
  0
DIMENSION
  5
406
100
AcDbEntity
  8
3
370
    25
100
AcDbDimension
  2
*D7
 10
44.260227
 20
-148.945716
 30
0.0
 11
36.260227
 21
-158.445716
 31
0.0
 71
     0
 72
     0
 41
0.0
 42
0.0
  3
Standard
100
AcDbAlignedDimension
 13
87.01468
 23
-167.945716
 33
0.0
 14
73.722599
 24
-148.945716
 34
0.0
 50
90.0
100
AcDbRotatedDimension
  0
TEXT
  5
407
100
AcDbEntity
  8
3
370
    50
100
AcDbText
 10
-180.134267
 20
-204.007767
 30
0.0
 40
7.0
  1
２００（ＭＡＸ２１０）
 72
     5
 11
-104.534267
 21
-204.007767
 31
0.0
100
AcDbText
  0
DIMENSION
  5
408
100
AcDbEntity
  8
3
370
    25
100
AcDbDimension
  2
*D8
 10
-45.849995
 20
-205.007767
 30
0.0
 11
-141.634267
 21
-203.007767
 31
0.0
 71
     0
 72
     0
 41
0.0
 42
0.0
  3
Standard
100
AcDbAlignedDimension
 13
-237.418538
 23
-122.229788
 33
0.0
 14
-45.849995
 24
-122.229788
 34
0.0
100
AcDbRotatedDimension
  0
TEXT
  5
409
100
AcDbEntity
  8
3
370
    50
100
AcDbText
 10
-252.816655
 20
-2.692019
 30
0.0
 40
7.0
  1
（湯表示）
 72
     5
 11
-219.216655
 21
-2.692019
 31
0.0
100
AcDbText
  0
TEXT
  5
40A
100
AcDbEntity
  8
3
370
    50
100
AcDbText
 10
-61.800205
 20
2.234149
 30
0.0
 40
7.0
  1
サックス
 72
     5
 11
-35.200205
 21
2.234149
 31
0.0
100
AcDbText
  0
TEXT
  5
40B
100
AcDbEntity
  8
3
370
    50
100
AcDbText
 10
-252.816655
 20
5.307981
 30
0.0
 40
7.0
  1
ピンク
 72
     5
 11
-233.216655
 21
5.307981
 31
0.0
100
AcDbText
  0
TEXT
  5
40C
100
AcDbEntity
  8
3
370
    50
100
AcDbText
 10
-61.800205
 20
-5.765851
 30
0.0
 40
7.0
  1
（水表示）
 72
     5
 11
-28.200205
 21
-5.765851
 31
0.0
100
AcDbText
  0
LWPOLYLINE
  5
40D
100
AcDbEntity
  8
3
370
    25
100
AcDbPolyline
 90
        2
 70
     0
 10
-69.512846
 20
-22.078377
 10
-59.930435
 20
-6.73866
  0
LWPOLYLINE
  5
411
100
AcDbEntity
  8
3
370
    25
100
AcDbPolyline
 90
        2
 70
     0
 10
-215.057604
 20
-22.165102
 10
-224.642578
 20
-4.843271
  0
TEXT
  5
415
100
AcDbEntity
  8
3
370
    50
100
AcDbText
 10
-162.073013
 20
195.729523
 30
0.0
 40
7.0
  1
逆止弁内蔵
 72
     5
 11
-128.473013
 21
195.729523
 31
0.0
100
AcDbText
  0
LWPOLYLINE
  5
416
100
AcDbEntity
  8
3
370
    25
100
AcDbPolyline
 90
        3
 70
     0
 10
-204.286362
 20
162.132034
 10
-144.827209
 20
193.607819
 10
-83.331488
 20
160.501747
  0
TEXT
  5
41B
100
AcDbEntity
  8
3
370
    50
100
AcDbText
 10
-222.865952
 20
-172.852325
 30
0.0
 40
7.0
  1
緊急止水機能付
 72
     5
 11
-175.265952
 21
-172.852325
 31
0.0
100
AcDbText
  0
LWPOLYLINE
  5
41C
100
AcDbEntity
  8
3
370
    25
100
AcDbPolyline
 90
        2
 70
     0
 10
-172.090027
 20
-169.60881
 10
-145.945816
 20
-164.635391
  0
DIMENSION
  5
420
100
AcDbEntity
  8
3
370
    25
100
AcDbDimension
  2
*D9
 10
71.86468
 20
-191.694199
 30
0.0
 11
93.86468
 21
-187.194199
 31
0.0
 70
     1
 71
     0
 72
     0
 41
0.0
 42
0.0
  3
Standard
100
AcDbAlignedDimension
 13
115.86468
 23
-147.245716
 33
0.0
 14
71.86468
 24
-147.245716
 34
0.0
  0
TEXT
  5
421
100
AcDbEntity
  8
3
370
    50
100
AcDbText
 10
229.796265
 20
-272.713074
 30
0.0
 40
7.0
  1
外観寸法図
 72
     5
 11
263.396265
 21
-272.713074
 31
0.0
100
AcDbText
  0
TEXT
  5
422
100
AcDbEntity
  8
3
370
    50
100
AcDbText
 10
290.832582
 20
-240.013492
 30
0.0
 40
6.0
  1
１　２
 72
     5
 11
307.632582
 21
-240.013492
 31
0.0
100
AcDbText
  0
TEXT
  5
423
100
AcDbEntity
  8
3
370
    50
100
AcDbText
 10
66.031136
 20
-236.063721
 30
0.0
 40
6.0
  1
Ｋ１３－４４６ＤＡ
 72
     5
 11
118.831136
 21
-236.063721
 31
0.0
100
AcDbText
  0
TEXT
  5
424
100
AcDbEntity
  8
3
370
    50
100
AcDbText
 10
66.031136
 20
-228.063721
 30
0.0
 40
6.0
  1
壁付２ハンドル湯水混合水栓（ホース接続形・寒）
 41
0.9
 72
     5
 11
189.151136
 21
-228.063721
 31
0.0
100
AcDbText
  0
TEXT
  5
425
100
AcDbEntity
  8
3
370
    50
100
AcDbText
 10
336.070276
 20
-271.880939
 30
0.0
 40
6.4
  1
３０１２４９
 72
     5
 11
373.190276
 21
-271.880939
 31
0.0
100
AcDbText
  0
ENDSEC
  0
SECTION
  2
OBJECTS
  0
DICTIONARY
  5
49C
100
AcDbDictionary
280
     0
281
     1
  3
ACAD_GROUP
350
49D
  3
ACAD_MLINESTYLE
350
49E
  0
DICTIONARY
  5
49D
102
{ACAD_REACTORS
330
49C
102
}
100
AcDbDictionary
280
     0
281
     1
  0
DICTIONARY
  5
49E
102
{ACAD_REACTORS
330
49C
102
}
100
AcDbDictionary
280
     0
281
     1
  3
Standard
350
49F
  0
MLINESTYLE
  5
49F
102
{ACAD_REACTORS
330
49E
102
}
100
AcDbMlineStyle
  2
Standard
 70
     0
  3

 62
     0
 51
90.0
 52
90.0
 71
     2
 49
0.5
 62
   256
  6
ByLayer
 49
-0.5
 62
   256
  6
ByLayer
  0
ENDSEC
  0
EOF
