  0
SECTION
  2
HEADER
  9
$ACADVER
  1
AC1015
  9
$ACADMAINTVER
 70
     6
  9
$DWGCODEPAGE
  3
ANSI_932
  9
$INSBASE
 10
0.0
 20
0.0
 30
0.0
  9
$EXTMIN
 10
-105.0
 20
-148.5
 30
1.000000E+20
  9
$EXTMAX
 10
105.0
 20
148.5
 30
-1.000000E+20
  9
$LIMMIN
 10
-105.0
 20
-148.5
  9
$LIMMAX
 10
105.0
 20
148.5
  9
$ORTHOMODE
 70
     0
  9
$REGENMODE
 70
     1
  9
$FILLMODE
 70
     1
  9
$QTEXTMODE
 70
     0
  9
$MIRRTEXT
 70
     1
  9
$LTSCALE
 40
1.0
  9
$ATTMODE
 70
     1
  9
$TEXTSIZE
 40
0.2
  9
$TRACEWID
 40
0.05
  9
$TEXTSTYLE
  7
STANDARD
  9
$CLAYER
  8
0
  9
$CELTYPE
  6
CONTINUOUS
  9
$CECOLOR
 62
   256
  9
$CELTSCALE
 40
1.0
  9
$DISPSILH
 70
     0
  9
$DIMSCALE
 40
1.0
  9
$DIMASZ
 40
2.0
  9
$DIMEXO
 40
1.0
  9
$DIMDLI
 40
0.38
  9
$DIMRND
 40
0.0
  9
$DIMDLE
 40
0.0
  9
$DIMEXE
 40
2.0
  9
$DIMTP
 40
0.0
  9
$DIMTM
 40
0.0
  9
$DIMTXT
 40
3.5
  9
$DIMCEN
 40
0.09
  9
$DIMTSZ
 40
0.0
  9
$DIMTOL
 70
     0
  9
$DIMLIM
 70
     0
  9
$DIMTIH
 70
     0
  9
$DIMTOH
 70
     0
  9
$DIMSE1
 70
     0
  9
$DIMSE2
 70
     0
  9
$DIMTAD
 70
     1
  9
$DIMZIN
 70
     0
  9
$DIMBLK
  1

  9
$DIMASO
 70
     1
  9
$DIMSHO
 70
     1
  9
$DIMPOST
  1

  9
$DIMAPOST
  1

  9
$DIMALT
 70
     0
  9
$DIMALTD
 70
     2
  9
$DIMALTF
 40
25.4
  9
$DIMLFAC
 40
1.0
  9
$DIMTOFL
 70
     0
  9
$DIMTVP
 40
0.0
  9
$DIMTIX
 70
     0
  9
$DIMSOXD
 70
     0
  9
$DIMSAH
 70
     0
  9
$DIMBLK1
  1

  9
$DIMBLK2
  1

  9
$DIMSTYLE
  2
Standard
  9
$DIMCLRD
 70
     0
  9
$DIMCLRE
 70
     0
  9
$DIMCLRT
 70
     0
  9
$DIMTFAC
 40
1.0
  9
$DIMGAP
 40
0.5
  9
$DIMJUST
 70
     0
  9
$DIMSD1
 70
     0
  9
$DIMSD2
 70
     0
  9
$DIMTOLJ
 70
     1
  9
$DIMTZIN
 70
     0
  9
$DIMALTZ
 70
     0
  9
$DIMALTTZ
 70
     0
  9
$DIMUPT
 70
     0
  9
$DIMDEC
 70
     0
  9
$DIMTDEC
 70
     4
  9
$DIMALTU
 70
     2
  9
$DIMALTTD
 70
     2
  9
$DIMTXSTY
  7
STANDARD
  9
$DIMAUNIT
 70
     0
  9
$DIMADEC
 70
     0
  9
$DIMALTRND
 40
0.0
  9
$DIMAZIN
 70
     0
  9
$DIMDSEP
 70
     0
  9
$DIMATFIT
 70
     3
  9
$DIMFRAC
 70
     0
  9
$DIMLDRBLK
  1

  9
$DIMLUNIT
 70
     2
  9
$DIMLWD
 70
     0
  9
$DIMLWE
 70
     0
  9
$DIMTMOVE
 70
     0
  9
$LUNITS
 70
     2
  9
$LUPREC
 70
     4
  9
$SKETCHINC
 40
0.1
  9
$FILLETRAD
 40
0.0
  9
$AUNITS
 70
     0
  9
$AUPREC
 70
     0
  9
$MENU
  1
acad
  9
$ELEVATION
 40
0.0
  9
$PELEVATION
 40
0.0
  9
$THICKNESS
 40
0.0
  9
$LIMCHECK
 70
     0
  9
$CHAMFERA
 40
0.0
  9
$CHAMFERB
 40
0.0
  9
$CHAMFERC
 40
0.0
  9
$CHAMFERD
 40
0.0
  9
$SKPOLY
 70
     0
  9
$TDCREATE
 40
2453068.000000000
  9
$TDUCREATE
 40
0.000000000
  9
$TDUPDATE
 40
0.000000000
  9
$TDUUPDATE
 40
2447892.625000000
  9
$TDINDWG
 40
0.0000000000
  9
$TDUSRTIMER
 40
0.0000000000
  9
$USRTIMER
 70
     1
  9
$ANGBASE
 50
0.0
  9
$ANGDIR
 70
     0
  9
$PDMODE
 70
     0
  9
$PDSIZE
 40
0.0
  9
$PLINEWID
 40
0.0
  9
$SPLFRAME
 70
     0
  9
$SPLINETYPE
 70
     6
  9
$SPLINESEGS
 70
     8
  9
$HANDSEED
  5
286
  9
$SURFTAB1
 70
     6
  9
$SURFTAB2
 70
     6
  9
$SURFTYPE
 70
     6
  9
$SURFU
 70
     6
  9
$SURFV
 70
     6
  9
$UCSBASE
  2

  9
$UCSNAME
  2

  9
$UCSORG
 10
0.0
 20
0.0
 30
0.0
  9
$UCSXDIR
 10
1.0
 20
0.0
 30
0.0
  9
$UCSYDIR
 10
0.0
 20
1.0
 30
0.0
  9
$UCSORTHOREF
  2

  9
$UCSORTHOVIEW
 70
     0
  9
$UCSORGTOP
 10
0.0
 20
0.0
 30
0.0
  9
$UCSORGBOTTOM
 10
0.0
 20
0.0
 30
0.0
  9
$UCSORGLEFT
 10
0.0
 20
0.0
 30
0.0
  9
$UCSORGRIGHT
 10
0.0
 20
0.0
 30
0.0
  9
$UCSORGFRONT
 10
0.0
 20
0.0
 30
0.0
  9
$UCSORGBACK
 10
0.0
 20
0.0
 30
0.0
  9
$PUCSBASE
  2

  9
$PUCSNAME
  2

  9
$PUCSORG
 10
0.0
 20
0.0
 30
0.0
  9
$PUCSXDIR
 10
1.0
 20
0.0
 30
0.0
  9
$PUCSYDIR
 10
0.0
 20
1.0
 30
0.0
  9
$PUCSORTHOREF
  2

  9
$PUCSORTHOVIEW
 70
     0
  9
$PUCSORGTOP
 10
0.0
 20
0.0
 30
0.0
  9
$PUCSORGBOTTOM
 10
0.0
 20
0.0
 30
0.0
  9
$PUCSORGLEFT
 10
0.0
 20
0.0
 30
0.0
  9
$PUCSORGRIGHT
 10
0.0
 20
0.0
 30
0.0
  9
$PUCSORGFRONT
 10
0.0
 20
0.0
 30
0.0
  9
$PUCSORGBACK
 10
0.0
 20
0.0
 30
0.0
  9
$USERI1
 70
     0
  9
$USERI2
 70
     0
  9
$USERI3
 70
     0
  9
$USERI4
 70
     0
  9
$USERI5
 70
     0
  9
$USERR1
 40
0.0
  9
$USERR2
 40
0.0
  9
$USERR3
 40
0.0
  9
$USERR4
 40
0.0
  9
$USERR5
 40
0.0
  9
$WORLDVIEW
 70
     1
  9
$SHADEDGE
 70
     3
  9
$SHADEDIF
 70
    70
  9
$TILEMODE
 70
     1
  9
$MAXACTVP
 70
    16
  9
$PINSBASE
 10
0.0
 20
0.0
 30
0.0
  9
$PLIMCHECK
 70
     0
  9
$PEXTMIN
 10
1.000000E+20
 20
1.000000E+20
 30
1.000000E+20
  9
$PEXTMAX
 10
-1.000000E+20
 20
-1.000000E+20
 30
-1.000000E+20
  9
$PLIMMIN
 10
0.0
 20
0.0
  9
$PLIMMAX
 10
12.0
 20
9.0
  9
$UNITMODE
 70
     0
  9
$VISRETAIN
 70
     0
  9
$PLINEGEN
 70
     1
  9
$PSLTSCALE
 70
     0
  9
$TREEDEPTH
 70
  3020
  9
$CMLSTYLE
  2
Standard
  9
$CMLJUST
 70
     0
  9
$CMLSCALE
 40
1.0
  9
$PROXYGRAPHICS
 70
     0
  9
$MEASUREMENT
 70
     0
  9
$CELWEIGHT
370
     0
  9
$ENDCAPS
280
     0
  9
$JOINSTYLE
280
     0
  9
$LWDISPLAY
290
     0
  9
$INSUNITS
 70
     0
  9
$HYPERLINKBASE
  1

  9
$STYLESHEET
  1

  9
$XEDIT
290
     1
  9
$CEPSNTYPE
380
     0
  9
$PSTYLEMODE
290
     1
  9
$FINGERPRINTGUID
  2

  9
$VERSIONGUID
  2

  9
$EXTNAMES
290
     1
  9
$PSVPSCALE
 40
0.0
  0
ENDSEC
  0
SECTION
  2
CLASSES
  0
CLASS
  1
LWPOLYLINE
  2
AcDbPolyline
  3
AutoCAD 2000
 90
        0
280
     0
281
     1
  0
CLASS
  1
IMAGE
  2
AcDbRasterImage
  3
ISM
 90
      127
280
     0
281
     1
  0
CLASS
  1
OLE2FRAME
  2
AcDbOle2Frame
  3
AutoCAD 2000
 90
        0
280
     0
281
     1
  0
CLASS
  1
HATCH
  2
AcDbHatch
  3
AutoCAD 2000
 90
        0
280
     0
281
     1
  0
CLASS
  1
DICTIONARYVAR
  2
AcDbDictionaryVar
  3
AutoCAD 2000
 90
        0
280
     0
281
     0
  0
CLASS
  1
RASTERVARIABLES
  2
AcDbRasterVariables
  3
ISM
 90
        0
280
     0
281
     0
  0
CLASS
  1
IMAGEDEF
  2
AcDbRasterImageDef
  3
ISM
 90
        0
280
     0
281
     0
  0
CLASS
  1
IMAGEDEF_REACTOR
  2
AcDbRasterImageDefReactor
  3
ISM
 90
        1
280
     0
281
     0
  0
CLASS
  1
IDBUFFER
  2
AcDbIdBuffer
  3
AutoCAD 2000
 90
        0
280
     0
281
     0
  0
CLASS
  1
SPATIAL_FILTER
  2
AcDbSpatialFilter
  3
AutoCAD 2000
 90
        0
280
     0
281
     0
  0
CLASS
  1
XRECORD
  2
AcDbXrecord
  3
AutoCAD 2000
 90
        0
280
     0
281
     0
  0
CLASS
  1
SORTENTSTABLE
  2
AcDbSortentsTable
  3
AutoCAD 2000
 90
        0
280
     0
281
     0
  0
CLASS
  1
LAYER_INDEX
  2
AcDbLayerIndex
  3
AutoCAD 2000
 90
        0
280
     0
281
     0
  0
CLASS
  1
SPATIAL_INDEX
  2
AcDbSpatialIndex
  3
AutoCAD 2000
 90
        0
280
     0
281
     0
  0
CLASS
  1
OBJECT_PTR
  2
CAseDLPNTableRecord
  3
"ASE-LPNTableRecord"
 90
        1
280
     0
281
     0
  0
CLASS
  1
LAYOUT
  2
AcDbLayout
  3
AutoCAD 2000
 90
        0
280
     0
281
     0
  0
CLASS
  1
PLOTSETTINGS
  2
AcDbPlotSettings
  3
AutoCAD 2000
 90
        0
280
     0
281
     0
  0
CLASS
  1
ACDBDICTIONARYWDFLT
  2
AcDbDictionaryWithDefault
  3
AutoCAD 2000
 90
        0
280
     0
281
     0
  0
CLASS
  1
ACDBPLACEHOLDER
  2
AcDbPlaceHolder
  3
AutoCAD 2000
 90
        0
280
     0
281
     0
  0
CLASS
  1
VBA_PROJECT
  2
AcDbVbaProject
  3
acadvba
 90
        0
280
     0
281
     0
  0
CLASS
  1
WIPEOUT
  2
AcDbWipeout
  3
WipeOut|AutoCAD Express Tool|expresstools@autodesk.com
 90
      127
280
     0
281
     1
  0
CLASS
  1
WIPEOUTVARIABLES
  2
AcDbWipeoutVariables
  3
WipeOut|AutoCAD Express Tool|expresstools@autodesk.com
 90
        0
280
     0
281
     0
  0
CLASS
  1
RTEXT
  2
RText
  3
RText|AutoCAD Express Tool|expresstools@autodesk.com
 90
        0
280
     0
281
     1
  0
CLASS
  1
ARCALIGNEDTEXT
  2
AcDbArcAlignedText
  3
ATEXT|AutoCAD Express Tool|expresstools@autodesk.com
 90
        0
280
     0
281
     1
  0
ENDSEC
  0
SECTION
  2
TABLES
  0
TABLE
  2
VPORT
  5
6
100
AcDbSymbolTable
 70
     1
  0
VPORT
  5
1F
100
AcDbSymbolTableRecord
100
AcDbViewportTableRecord
  2
*ACTIVE
 70
     0
 10
0.0
 20
0.0
 11
1.0
 21
1.0
 12
0.0
 22
0.0
 13
0.0
 23
0.0
 14
1.0
 24
1.0
 15
0.0
 25
0.0
 16
0.0
 26
0.0
 36
1.0
 17
0.0
 27
0.0
 37
0.0
 40
297.0
 41
0.707071
 42
50.0
 43
0.0
 44
0.0
 50
0.0
 51
0.0
 71
     0
 72
   500
 73
     1
 74
     1
 75
     0
 76
     0
 77
     0
 78
     0
281
     0
 65
     0
110
0.0
120
0.0
130
0.0
111
1.0
121
0.0
131
0.0
112
0.0
122
1.0
132
0.0
345
0
346
0
 79
     0
146
0.0
  0
ENDTAB
  0
TABLE
  2
LTYPE
  5
3
100
AcDbSymbolTable
 70
     9
  0
LTYPE
  5
C
100
AcDbSymbolTableRecord
100
AcDbLinetypeTableRecord
  2
ByBlock
 70
    64
  3

 72
    65
 73
     0
 40
0.0
  0
LTYPE
  5
D
100
AcDbSymbolTableRecord
100
AcDbLinetypeTableRecord
  2
ByLayer
 70
    64
  3

 72
    65
 73
     0
 40
0.0
  0
LTYPE
  5
E
100
AcDbSymbolTableRecord
100
AcDbLinetypeTableRecord
  2
CONTINUOUS
 70
     0
  3
Solid line
 72
    65
 73
     0
 40
0.0
  0
LTYPE
  5
F
100
AcDbSymbolTableRecord
100
AcDbLinetypeTableRecord
  2
DASHED
 70
     0
  3
__ __ __ __ __ __ __ __ __ __ __ __ __ __ __
 72
    65
 73
     2
 40
2.0
 49
1.2
 74
     0
 49
-0.8
 74
     0
  0
LTYPE
  5
10
100
AcDbSymbolTableRecord
100
AcDbLinetypeTableRecord
  2
CENTER
 70
     0
  3
____ _ ____ _ ____ _ ____ _ ____ _ ____ _ ____
 72
    65
 73
     4
 40
12.0
 49
9.0
 74
     0
 49
-1.0
 74
     0
 49
1.0
 74
     0
 49
-1.0
 74
     0
  0
LTYPE
  5
11
100
AcDbSymbolTableRecord
100
AcDbLinetypeTableRecord
  2
HIDDEN
 70
     0
  3
_ _ _ _ _ _ _ _ _ _ _ _ _ _ _ _ _ _ _ _ _ _ _
 72
    65
 73
     2
 40
3.2
 49
2.4
 74
     0
 49
-0.8
 74
     0
  0
LTYPE
  5
12
100
AcDbSymbolTableRecord
100
AcDbLinetypeTableRecord
  2
PHANTOM
 70
     0
  3
_____ _ _ _____ _ _ _____ _ _ _____ _ _ _____
 72
    65
 73
     6
 40
13.5
 49
9.0
 74
     0
 49
-1.0
 74
     0
 49
1.0
 74
     0
 49
-0.5
 74
     0
 49
1.0
 74
     0
 49
-1.0
 74
     0
  0
LTYPE
  5
13
100
AcDbSymbolTableRecord
100
AcDbLinetypeTableRecord
  2
DOT
 70
     0
  3
...............................................
 72
    65
 73
     2
 40
1.0
 49
0.5
 74
     0
 49
-0.5
 74
     0
  0
LTYPE
  5
14
100
AcDbSymbolTableRecord
100
AcDbLinetypeTableRecord
  2
DASHDOT
 70
     0
  3
__ . __ . __ . __ . __ . __ . __ . __ . __ . __
 72
    65
 73
     4
 40
8.0
 49
5.0
 74
     0
 49
-1.0
 74
     0
 49
1.0
 74
     0
 49
-1.0
 74
     0
  0
ENDTAB
  0
TABLE
  2
LAYER
  5
1
100
AcDbSymbolTable
 70
    10
  0
LAYER
  5
15
100
AcDbSymbolTableRecord
100
AcDbLayerTableRecord
  2
0
 70
     0
 62
     7
  6
CONTINUOUS
290
     1
370
    -3
390
0
  0
LAYER
  5
16
100
AcDbSymbolTableRecord
100
AcDbLayerTableRecord
  2
1
 70
     0
 62
     7
  6
CONTINUOUS
290
     1
370
    -3
390
0
  0
LAYER
  5
17
100
AcDbSymbolTableRecord
100
AcDbLayerTableRecord
  2
2
 70
     0
 62
     7
  6
CONTINUOUS
290
     1
370
    -3
390
0
  0
LAYER
  5
18
100
AcDbSymbolTableRecord
100
AcDbLayerTableRecord
  2
3
 70
     0
 62
     7
  6
CONTINUOUS
290
     1
370
    -3
390
0
  0
LAYER
  5
19
100
AcDbSymbolTableRecord
100
AcDbLayerTableRecord
  2
4
 70
     0
 62
     7
  6
CONTINUOUS
290
     1
370
    -3
390
0
  0
LAYER
  5
1A
100
AcDbSymbolTableRecord
100
AcDbLayerTableRecord
  2
5
 70
     0
 62
     7
  6
CONTINUOUS
290
     1
370
    -3
390
0
  0
LAYER
  5
1B
100
AcDbSymbolTableRecord
100
AcDbLayerTableRecord
  2
6
 70
     0
 62
     7
  6
CONTINUOUS
290
     1
370
    -3
390
0
  0
LAYER
  5
1C
100
AcDbSymbolTableRecord
100
AcDbLayerTableRecord
  2
7
 70
     0
 62
     7
  6
CONTINUOUS
290
     1
370
    -3
390
0
  0
LAYER
  5
1D
100
AcDbSymbolTableRecord
100
AcDbLayerTableRecord
  2
8
 70
     0
 62
     7
  6
CONTINUOUS
290
     1
370
    -3
390
0
  0
LAYER
  5
1E
100
AcDbSymbolTableRecord
100
AcDbLayerTableRecord
  2
9
 70
     0
 62
     7
  6
CONTINUOUS
290
     1
370
    -3
390
0
  0
ENDTAB
  0
TABLE
  2
STYLE
  5
2
100
AcDbSymbolTable
 70
     1
  0
STYLE
  5
21
100
AcDbSymbolTableRecord
100
AcDbTextStyleTableRecord
  2
STANDARD
 70
    64
 40
0.0
 41
1.0
 50
0.0
 71
     0
 42
1.0
  3
txt
  4
BIGFONT
  0
ENDTAB
  0
TABLE
  2
VIEW
  5
4
100
AcDbSymbolTable
 70
     0
  0
ENDTAB
  0
TABLE
  2
UCS
  5
5
100
AcDbSymbolTable
 70
     0
  0
ENDTAB
  0
TABLE
  2
APPID
  5
7
100
AcDbSymbolTable
 70
     1
  0
APPID
  5
20
100
AcDbSymbolTableRecord
100
AcDbRegAppTableRecord
  2
ACAD
 70
     0
  0
ENDTAB
  0
TABLE
  2
DIMSTYLE
  5
8
100
AcDbSymbolTable
 70
     1
100
AcDbDimStyleTable
 71
     0
  0
DIMSTYLE
105
41
100
AcDbSymbolTableRecord
100
AcDbDimStyleTableRecord
  2
Standard
 70
     0
  3

  4

 40
1.0
 41
2.0
 42
1.0
 43
0.38
 44
2.0
 45
0.0
 46
0.0
 47
0.0
 48
0.0
 71
     0
 72
     0
 73
     0
 74
     0
 75
     0
 76
     0
 77
     1
 78
     0
 79
     0
140
3.5
141
0.09
142
0.0
143
25.4
144
1.0
145
0.0
146
1.0
147
0.5
148
0.0
170
     0
171
     2
172
     0
173
     0
174
     0
175
     0
176
     0
177
     0
178
     0
179
     0
271
     0
272
     4
273
     2
274
     2
275
     0
276
     0
277
     2
278
    46
279
     0
280
     0
281
     0
282
     0
283
     1
284
     0
285
     0
286
     0
288
     0
289
     3
340
21
341
0
342
0
343
0
344
0
371
    -2
372
    -2
  0
ENDTAB
  0
TABLE
  2
BLOCK_RECORD
  5
3C
100
AcDbSymbolTable
 70
    24
  0
BLOCK_RECORD
  5
3A
100
AcDbSymbolTableRecord
100
AcDbBlockTableRecord
  2
*Model_Space
340
0
  0
BLOCK_RECORD
  5
3B
100
AcDbSymbolTableRecord
100
AcDbBlockTableRecord
  2
*Paper_Space
340
0
  0
BLOCK_RECORD
  5
22
100
AcDbSymbolTableRecord
100
AcDbBlockTableRecord
  2
*D0
340
0
  0
BLOCK_RECORD
  5
23
100
AcDbSymbolTableRecord
100
AcDbBlockTableRecord
  2
*D1
340
0
  0
BLOCK_RECORD
  5
24
100
AcDbSymbolTableRecord
100
AcDbBlockTableRecord
  2
*D2
340
0
  0
BLOCK_RECORD
  5
25
100
AcDbSymbolTableRecord
100
AcDbBlockTableRecord
  2
*D3
340
0
  0
BLOCK_RECORD
  5
26
100
AcDbSymbolTableRecord
100
AcDbBlockTableRecord
  2
*D4
340
0
  0
BLOCK_RECORD
  5
27
100
AcDbSymbolTableRecord
100
AcDbBlockTableRecord
  2
*D5
340
0
  0
BLOCK_RECORD
  5
28
100
AcDbSymbolTableRecord
100
AcDbBlockTableRecord
  2
*D6
340
0
  0
BLOCK_RECORD
  5
29
100
AcDbSymbolTableRecord
100
AcDbBlockTableRecord
  2
*D7
340
0
  0
BLOCK_RECORD
  5
2A
100
AcDbSymbolTableRecord
100
AcDbBlockTableRecord
  2
*D8
340
0
  0
BLOCK_RECORD
  5
2B
100
AcDbSymbolTableRecord
100
AcDbBlockTableRecord
  2
*D9
340
0
  0
BLOCK_RECORD
  5
2C
100
AcDbSymbolTableRecord
100
AcDbBlockTableRecord
  2
*D10
340
0
  0
BLOCK_RECORD
  5
2D
100
AcDbSymbolTableRecord
100
AcDbBlockTableRecord
  2
*D11
340
0
  0
BLOCK_RECORD
  5
2E
100
AcDbSymbolTableRecord
100
AcDbBlockTableRecord
  2
*D12
340
0
  0
BLOCK_RECORD
  5
2F
100
AcDbSymbolTableRecord
100
AcDbBlockTableRecord
  2
*D13
340
0
  0
BLOCK_RECORD
  5
30
100
AcDbSymbolTableRecord
100
AcDbBlockTableRecord
  2
*D14
340
0
  0
BLOCK_RECORD
  5
31
100
AcDbSymbolTableRecord
100
AcDbBlockTableRecord
  2
*D15
340
0
  0
BLOCK_RECORD
  5
32
100
AcDbSymbolTableRecord
100
AcDbBlockTableRecord
  2
*D16
340
0
  0
BLOCK_RECORD
  5
33
100
AcDbSymbolTableRecord
100
AcDbBlockTableRecord
  2
*D17
340
0
  0
BLOCK_RECORD
  5
34
100
AcDbSymbolTableRecord
100
AcDbBlockTableRecord
  2
*D18
340
0
  0
BLOCK_RECORD
  5
35
100
AcDbSymbolTableRecord
100
AcDbBlockTableRecord
  2
*D19
340
0
  0
BLOCK_RECORD
  5
36
100
AcDbSymbolTableRecord
100
AcDbBlockTableRecord
  2
*D20
340
0
  0
BLOCK_RECORD
  5
37
100
AcDbSymbolTableRecord
100
AcDbBlockTableRecord
  2
*D21
340
0
  0
BLOCK_RECORD
  5
38
100
AcDbSymbolTableRecord
100
AcDbBlockTableRecord
  2
*D22
340
0
  0
BLOCK_RECORD
  5
39
100
AcDbSymbolTableRecord
100
AcDbBlockTableRecord
  2
*D23
340
0
  0
ENDTAB
  0
ENDSEC
  0
SECTION
  2
BLOCKS
  0
BLOCK
  5
3D
100
AcDbEntity
  8
0
390
0
100
AcDbBlockBegin
  2
*Model_Space
 70
     0
 10
0.0
 20
0.0
 30
0.0
  3
*Model_Space
  1

  0
ENDBLK
  5
3E
100
AcDbEntity
  8
0
390
0
100
AcDbBlockEnd
  0
BLOCK
  5
3F
100
AcDbEntity
 67
     1
  8
0
390
0
100
AcDbBlockBegin
  2
*Paper_Space
 70
     0
 10
0.0
 20
0.0
 30
0.0
  3
*Paper_Space
  1

  0
ENDBLK
  5
40
100
AcDbEntity
 67
     1
  8
0
390
0
100
AcDbBlockEnd
  0
BLOCK
  5
161
100
AcDbEntity
  8
3
100
AcDbBlockBegin
  2
*D0
 70
     1
 10
0.0
 20
0.0
 30
0.0
  3
*D0
  1

  0
TEXT
  5
162
100
AcDbEntity
  8
3
370
    25
100
AcDbText
 10
-58.693749
 20
31.029626
 30
0.0
 40
3.5
  1
４０゜
 50
70.0
 72
     5
 11
-55.341951
 21
40.238614
 31
0.0
100
AcDbText
  0
LINE
  5
163
100
AcDbEntity
  8
3
370
    25
100
AcDbLine
 10
-35.814662
 20
50.567019
 30
0.0
 11
-44.720583
 21
58.039974
 31
0.0
  0
LINE
  5
164
100
AcDbEntity
  8
3
370
    25
100
AcDbLine
 10
1.573126
 20
11.223494
 30
0.0
 11
-61.760388
 21
11.223494
 31
0.0
  0
LINE
  5
165
100
AcDbEntity
  8
3
370
    25
100
AcDbLine
 10
-43.954538
 20
57.397186
 30
0.0
 11
-45.577269
 21
56.228107
 31
0.0
  0
LINE
  5
166
100
AcDbEntity
  8
3
370
    25
100
AcDbLine
 10
-43.954538
 20
57.397186
 30
0.0
 11
-44.775325
 21
55.573369
 31
0.0
  0
LINE
  5
167
100
AcDbEntity
  8
3
370
    25
100
AcDbLine
 10
-45.577269
 20
56.228107
 30
0.0
 11
-44.775325
 21
55.573369
 31
0.0
  0
LINE
  5
168
100
AcDbEntity
  8
3
370
    25
100
AcDbLine
 10
-60.760388
 20
11.223494
 30
0.0
 11
-60.216819
 21
13.148211
 31
0.0
  0
LINE
  5
169
100
AcDbEntity
  8
3
370
    25
100
AcDbLine
 10
-60.760388
 20
11.223494
 30
0.0
 11
-61.252002
 21
13.162132
 31
0.0
  0
LINE
  5
16A
100
AcDbEntity
  8
3
370
    25
100
AcDbLine
 10
-60.216819
 20
13.148211
 30
0.0
 11
-61.252002
 21
13.162132
 31
0.0
  0
ARC
  5
16B
100
AcDbEntity
  8
3
370
    25
100
AcDbCircle
 10
11.073125
 20
11.223494
 30
0.0
 40
71.833512
100
AcDbArc
 50
140.0
 51
180.0
  0
ENDBLK
  5
16C
100
AcDbEntity
  8
3
100
AcDbBlockEnd
  0
BLOCK
  5
16D
100
AcDbEntity
  8
3
100
AcDbBlockBegin
  2
*D1
 70
     1
 10
0.0
 20
0.0
 30
0.0
  3
*D1
  1

  0
TEXT
  5
16E
100
AcDbEntity
  8
3
370
    25
100
AcDbText
 10
63.301399
 20
2.473494
 30
0.0
 40
3.5
  1
φ４６．５
 50
90.0
 72
     5
 11
63.301399
 21
19.273494
 31
0.0
100
AcDbText
  0
LINE
  5
16F
100
AcDbEntity
  8
3
370
    25
100
AcDbLine
 10
29.073124
 20
34.473494
 30
0.0
 11
64.801399
 21
34.473494
 31
0.0
  0
LINE
  5
170
100
AcDbEntity
  8
3
370
    25
100
AcDbLine
 10
63.801399
 20
34.473494
 30
0.0
 11
63.283761
 21
32.541643
 31
0.0
  0
LINE
  5
171
100
AcDbEntity
  8
3
370
    25
100
AcDbLine
 10
63.801399
 20
34.473494
 30
0.0
 11
64.319038
 21
32.541643
 31
0.0
  0
LINE
  5
172
100
AcDbEntity
  8
3
370
    25
100
AcDbLine
 10
63.283761
 20
32.541643
 30
0.0
 11
64.319038
 21
32.541643
 31
0.0
  0
LINE
  5
173
100
AcDbEntity
  8
3
370
    25
100
AcDbLine
 10
63.801399
 20
34.473494
 30
0.0
 11
63.801399
 21
-12.026506
 31
0.0
  0
LINE
  5
174
100
AcDbEntity
  8
3
370
    25
100
AcDbLine
 10
63.801399
 20
-12.026506
 30
0.0
 11
64.319038
 21
-10.094654
 31
0.0
  0
LINE
  5
175
100
AcDbEntity
  8
3
370
    25
100
AcDbLine
 10
63.801399
 20
-12.026506
 30
0.0
 11
63.283761
 21
-10.094654
 31
0.0
  0
LINE
  5
176
100
AcDbEntity
  8
3
370
    25
100
AcDbLine
 10
64.319038
 20
-10.094654
 30
0.0
 11
63.283761
 21
-10.094654
 31
0.0
  0
LINE
  5
177
100
AcDbEntity
  8
3
370
    25
100
AcDbLine
 10
29.073124
 20
-12.026506
 30
0.0
 11
64.801399
 21
-12.026506
 31
0.0
  0
ENDBLK
  5
178
100
AcDbEntity
  8
3
100
AcDbBlockEnd
  0
BLOCK
  5
179
100
AcDbEntity
  8
3
100
AcDbBlockBegin
  2
*D2
 70
     1
 10
0.0
 20
0.0
 30
0.0
  3
*D2
  1

  0
TEXT
  5
17A
100
AcDbEntity
  8
3
370
    25
100
AcDbText
 10
31.573124
 20
-90.05851
 30
0.0
 40
3.5
  1
１４
 72
     5
 11
37.873124
 21
-90.05851
 31
0.0
100
AcDbText
  0
LINE
  5
17B
100
AcDbEntity
  8
3
370
    25
100
AcDbLine
 10
28.073124
 20
-13.026506
 30
0.0
 11
28.073124
 21
-91.55851
 31
0.0
  0
LINE
  5
17C
100
AcDbEntity
  8
3
370
    25
100
AcDbLine
 10
28.073124
 20
-90.55851
 30
0.0
 11
30.004976
 21
-91.076148
 31
0.0
  0
LINE
  5
17D
100
AcDbEntity
  8
3
370
    25
100
AcDbLine
 10
28.073124
 20
-90.55851
 30
0.0
 11
30.004976
 21
-90.040872
 31
0.0
  0
LINE
  5
17E
100
AcDbEntity
  8
3
370
    25
100
AcDbLine
 10
30.004976
 20
-91.076148
 30
0.0
 11
30.004976
 21
-90.040872
 31
0.0
  0
LINE
  5
17F
100
AcDbEntity
  8
3
370
    25
100
AcDbLine
 10
28.073124
 20
-90.55851
 30
0.0
 11
42.073124
 21
-90.55851
 31
0.0
  0
LINE
  5
180
100
AcDbEntity
  8
3
370
    25
100
AcDbLine
 10
42.073124
 20
-90.55851
 30
0.0
 11
40.141273
 21
-90.040872
 31
0.0
  0
LINE
  5
181
100
AcDbEntity
  8
3
370
    25
100
AcDbLine
 10
42.073124
 20
-90.55851
 30
0.0
 11
40.141273
 21
-91.076148
 31
0.0
  0
LINE
  5
182
100
AcDbEntity
  8
3
370
    25
100
AcDbLine
 10
40.141273
 20
-90.040872
 30
0.0
 11
40.141273
 21
-91.076148
 31
0.0
  0
LINE
  5
183
100
AcDbEntity
  8
3
370
    25
100
AcDbLine
 10
42.073124
 20
0.745994
 30
0.0
 11
42.073124
 21
-91.55851
 31
0.0
  0
ENDBLK
  5
184
100
AcDbEntity
  8
3
100
AcDbBlockEnd
  0
BLOCK
  5
185
100
AcDbEntity
  8
3
100
AcDbBlockBegin
  2
*D3
 70
     1
 10
0.0
 20
0.0
 30
0.0
  3
*D3
  1

  0
TEXT
  5
186
100
AcDbEntity
  8
3
370
    25
100
AcDbText
 10
-61.29678
 20
-18.813964
 30
0.0
 40
3.5
  1
５３
 50
90.0
 72
     5
 11
-61.29678
 21
-12.513964
 31
0.0
100
AcDbText
  0
LINE
  5
187
100
AcDbEntity
  8
3
370
    25
100
AcDbLine
 10
-14.653498
 20
-41.851422
 30
0.0
 11
-61.79678
 21
-41.851422
 31
0.0
  0
LINE
  5
188
100
AcDbEntity
  8
3
370
    25
100
AcDbLine
 10
-60.79678
 20
-41.851422
 30
0.0
 11
-60.279142
 21
-39.91957
 31
0.0
  0
LINE
  5
189
100
AcDbEntity
  8
3
370
    25
100
AcDbLine
 10
-60.79678
 20
-41.851422
 30
0.0
 11
-61.314418
 21
-39.91957
 31
0.0
  0
LINE
  5
18A
100
AcDbEntity
  8
3
370
    25
100
AcDbLine
 10
-60.279142
 20
-39.91957
 30
0.0
 11
-61.314418
 21
-39.91957
 31
0.0
  0
LINE
  5
18B
100
AcDbEntity
  8
3
370
    25
100
AcDbLine
 10
-60.79678
 20
-41.851422
 30
0.0
 11
-60.79678
 21
11.223494
 31
0.0
  0
LINE
  5
18C
100
AcDbEntity
  8
3
370
    25
100
AcDbLine
 10
-60.79678
 20
11.223494
 30
0.0
 11
-61.314418
 21
9.291643
 31
0.0
  0
LINE
  5
18D
100
AcDbEntity
  8
3
370
    25
100
AcDbLine
 10
-60.79678
 20
11.223494
 30
0.0
 11
-60.279142
 21
9.291643
 31
0.0
  0
LINE
  5
18E
100
AcDbEntity
  8
3
370
    25
100
AcDbLine
 10
-61.314418
 20
9.291643
 30
0.0
 11
-60.279142
 21
9.291643
 31
0.0
  0
LINE
  5
18F
100
AcDbEntity
  8
3
370
    25
100
AcDbLine
 10
1.573126
 20
11.223494
 30
0.0
 11
-61.79678
 21
11.223494
 31
0.0
  0
ENDBLK
  5
190
100
AcDbEntity
  8
3
100
AcDbBlockEnd
  0
BLOCK
  5
191
100
AcDbEntity
  8
3
100
AcDbBlockBegin
  2
*D4
 70
     1
 10
0.0
 20
0.0
 30
0.0
  3
*D4
  1

  0
TEXT
  5
192
100
AcDbEntity
  8
3
370
    25
100
AcDbText
 10
3.709813
 20
-90.05851
 30
0.0
 40
3.5
  1
４２
 72
     5
 11
10.009813
 21
-90.05851
 31
0.0
100
AcDbText
  0
LINE
  5
193
100
AcDbEntity
  8
3
370
    25
100
AcDbLine
 10
-13.653498
 20
-42.851422
 30
0.0
 11
-13.653498
 21
-91.55851
 31
0.0
  0
LINE
  5
194
100
AcDbEntity
  8
3
370
    25
100
AcDbLine
 10
-13.653498
 20
-90.55851
 30
0.0
 11
-11.721646
 21
-91.076148
 31
0.0
  0
LINE
  5
195
100
AcDbEntity
  8
3
370
    25
100
AcDbLine
 10
-13.653498
 20
-90.55851
 30
0.0
 11
-11.721646
 21
-90.040872
 31
0.0
  0
LINE
  5
196
100
AcDbEntity
  8
3
370
    25
100
AcDbLine
 10
-11.721646
 20
-91.076148
 30
0.0
 11
-11.721646
 21
-90.040872
 31
0.0
  0
LINE
  5
197
100
AcDbEntity
  8
3
370
    25
100
AcDbLine
 10
-13.653498
 20
-90.55851
 30
0.0
 11
28.073124
 21
-90.55851
 31
0.0
  0
LINE
  5
198
100
AcDbEntity
  8
3
370
    25
100
AcDbLine
 10
28.073124
 20
-90.55851
 30
0.0
 11
26.141273
 21
-90.040872
 31
0.0
  0
LINE
  5
199
100
AcDbEntity
  8
3
370
    25
100
AcDbLine
 10
28.073124
 20
-90.55851
 30
0.0
 11
26.141273
 21
-91.076148
 31
0.0
  0
LINE
  5
19A
100
AcDbEntity
  8
3
370
    25
100
AcDbLine
 10
26.141273
 20
-90.040872
 30
0.0
 11
26.141273
 21
-91.076148
 31
0.0
  0
LINE
  5
19B
100
AcDbEntity
  8
3
370
    25
100
AcDbLine
 10
28.073124
 20
-13.026506
 30
0.0
 11
28.073124
 21
-91.55851
 31
0.0
  0
ENDBLK
  5
19C
100
AcDbEntity
  8
3
100
AcDbBlockEnd
  0
BLOCK
  5
19D
100
AcDbEntity
  8
3
100
AcDbBlockBegin
  2
*D5
 70
     1
 10
0.0
 20
0.0
 30
0.0
  3
*D5
  1

  0
TEXT
  5
19E
100
AcDbEntity
  8
3
370
    25
100
AcDbText
 10
31.573124
 20
-90.05851
 30
0.0
 40
3.5
  1
１４
 72
     5
 11
37.873124
 21
-90.05851
 31
0.0
100
AcDbText
  0
LINE
  5
19F
100
AcDbEntity
  8
3
370
    25
100
AcDbLine
 10
28.073124
 20
-13.026506
 30
0.0
 11
28.073124
 21
-91.55851
 31
0.0
  0
LINE
  5
1A0
100
AcDbEntity
  8
3
370
    25
100
AcDbLine
 10
28.073124
 20
-90.55851
 30
0.0
 11
30.004976
 21
-91.076148
 31
0.0
  0
LINE
  5
1A1
100
AcDbEntity
  8
3
370
    25
100
AcDbLine
 10
28.073124
 20
-90.55851
 30
0.0
 11
30.004976
 21
-90.040872
 31
0.0
  0
LINE
  5
1A2
100
AcDbEntity
  8
3
370
    25
100
AcDbLine
 10
30.004976
 20
-91.076148
 30
0.0
 11
30.004976
 21
-90.040872
 31
0.0
  0
LINE
  5
1A3
100
AcDbEntity
  8
3
370
    25
100
AcDbLine
 10
28.073124
 20
-90.55851
 30
0.0
 11
42.073124
 21
-90.55851
 31
0.0
  0
LINE
  5
1A4
100
AcDbEntity
  8
3
370
    25
100
AcDbLine
 10
42.073124
 20
-90.55851
 30
0.0
 11
40.141273
 21
-90.040872
 31
0.0
  0
LINE
  5
1A5
100
AcDbEntity
  8
3
370
    25
100
AcDbLine
 10
42.073124
 20
-90.55851
 30
0.0
 11
40.141273
 21
-91.076148
 31
0.0
  0
LINE
  5
1A6
100
AcDbEntity
  8
3
370
    25
100
AcDbLine
 10
40.141273
 20
-90.040872
 30
0.0
 11
40.141273
 21
-91.076148
 31
0.0
  0
LINE
  5
1A7
100
AcDbEntity
  8
3
370
    25
100
AcDbLine
 10
42.073124
 20
0.745994
 30
0.0
 11
42.073124
 21
-91.55851
 31
0.0
  0
ENDBLK
  5
1A8
100
AcDbEntity
  8
3
100
AcDbBlockEnd
  0
BLOCK
  5
1A9
100
AcDbEntity
  8
3
100
AcDbBlockBegin
  2
*D6
 70
     1
 10
0.0
 20
0.0
 30
0.0
  3
*D6
  1

  0
TEXT
  5
1AA
100
AcDbEntity
  8
3
370
    25
100
AcDbText
 10
-61.29678
 20
-18.813964
 30
0.0
 40
3.5
  1
５３
 50
90.0
 72
     5
 11
-61.29678
 21
-12.513964
 31
0.0
100
AcDbText
  0
LINE
  5
1AB
100
AcDbEntity
  8
3
370
    25
100
AcDbLine
 10
-14.653498
 20
-41.851422
 30
0.0
 11
-61.79678
 21
-41.851422
 31
0.0
  0
LINE
  5
1AC
100
AcDbEntity
  8
3
370
    25
100
AcDbLine
 10
-60.79678
 20
-41.851422
 30
0.0
 11
-60.279142
 21
-39.91957
 31
0.0
  0
LINE
  5
1AD
100
AcDbEntity
  8
3
370
    25
100
AcDbLine
 10
-60.79678
 20
-41.851422
 30
0.0
 11
-61.314418
 21
-39.91957
 31
0.0
  0
LINE
  5
1AE
100
AcDbEntity
  8
3
370
    25
100
AcDbLine
 10
-60.279142
 20
-39.91957
 30
0.0
 11
-61.314418
 21
-39.91957
 31
0.0
  0
LINE
  5
1AF
100
AcDbEntity
  8
3
370
    25
100
AcDbLine
 10
-60.79678
 20
-41.851422
 30
0.0
 11
-60.79678
 21
11.223494
 31
0.0
  0
LINE
  5
1B0
100
AcDbEntity
  8
3
370
    25
100
AcDbLine
 10
-60.79678
 20
11.223494
 30
0.0
 11
-61.314418
 21
9.291643
 31
0.0
  0
LINE
  5
1B1
100
AcDbEntity
  8
3
370
    25
100
AcDbLine
 10
-60.79678
 20
11.223494
 30
0.0
 11
-60.279142
 21
9.291643
 31
0.0
  0
LINE
  5
1B2
100
AcDbEntity
  8
3
370
    25
100
AcDbLine
 10
-61.314418
 20
9.291643
 30
0.0
 11
-60.279142
 21
9.291643
 31
0.0
  0
LINE
  5
1B3
100
AcDbEntity
  8
3
370
    25
100
AcDbLine
 10
1.573126
 20
11.223494
 30
0.0
 11
-61.79678
 21
11.223494
 31
0.0
  0
ENDBLK
  5
1B4
100
AcDbEntity
  8
3
100
AcDbBlockEnd
  0
BLOCK
  5
1B5
100
AcDbEntity
  8
3
100
AcDbBlockBegin
  2
*D7
 70
     1
 10
0.0
 20
0.0
 30
0.0
  3
*D7
  1

  0
TEXT
  5
1B6
100
AcDbEntity
  8
3
370
    25
100
AcDbText
 10
3.709813
 20
-90.05851
 30
0.0
 40
3.5
  1
４２
 72
     5
 11
10.009813
 21
-90.05851
 31
0.0
100
AcDbText
  0
LINE
  5
1B7
100
AcDbEntity
  8
3
370
    25
100
AcDbLine
 10
-13.653498
 20
-42.851422
 30
0.0
 11
-13.653498
 21
-91.55851
 31
0.0
  0
LINE
  5
1B8
100
AcDbEntity
  8
3
370
    25
100
AcDbLine
 10
-13.653498
 20
-90.55851
 30
0.0
 11
-11.721646
 21
-91.076148
 31
0.0
  0
LINE
  5
1B9
100
AcDbEntity
  8
3
370
    25
100
AcDbLine
 10
-13.653498
 20
-90.55851
 30
0.0
 11
-11.721646
 21
-90.040872
 31
0.0
  0
LINE
  5
1BA
100
AcDbEntity
  8
3
370
    25
100
AcDbLine
 10
-11.721646
 20
-91.076148
 30
0.0
 11
-11.721646
 21
-90.040872
 31
0.0
  0
LINE
  5
1BB
100
AcDbEntity
  8
3
370
    25
100
AcDbLine
 10
-13.653498
 20
-90.55851
 30
0.0
 11
28.073124
 21
-90.55851
 31
0.0
  0
LINE
  5
1BC
100
AcDbEntity
  8
3
370
    25
100
AcDbLine
 10
28.073124
 20
-90.55851
 30
0.0
 11
26.141273
 21
-90.040872
 31
0.0
  0
LINE
  5
1BD
100
AcDbEntity
  8
3
370
    25
100
AcDbLine
 10
28.073124
 20
-90.55851
 30
0.0
 11
26.141273
 21
-91.076148
 31
0.0
  0
LINE
  5
1BE
100
AcDbEntity
  8
3
370
    25
100
AcDbLine
 10
26.141273
 20
-90.040872
 30
0.0
 11
26.141273
 21
-91.076148
 31
0.0
  0
LINE
  5
1BF
100
AcDbEntity
  8
3
370
    25
100
AcDbLine
 10
28.073124
 20
-13.026506
 30
0.0
 11
28.073124
 21
-91.55851
 31
0.0
  0
ENDBLK
  5
1C0
100
AcDbEntity
  8
3
100
AcDbBlockEnd
  0
BLOCK
  5
1C1
100
AcDbEntity
  8
3
100
AcDbBlockBegin
  2
*D8
 70
     1
 10
0.0
 20
0.0
 30
0.0
  3
*D8
  1

  0
TEXT
  5
1C2
100
AcDbEntity
  8
3
370
    25
100
AcDbText
 10
31.573124
 20
-90.05851
 30
0.0
 40
3.5
  1
１４
 72
     5
 11
37.873124
 21
-90.05851
 31
0.0
100
AcDbText
  0
LINE
  5
1C3
100
AcDbEntity
  8
3
370
    25
100
AcDbLine
 10
28.073124
 20
-13.026506
 30
0.0
 11
28.073124
 21
-91.55851
 31
0.0
  0
LINE
  5
1C4
100
AcDbEntity
  8
3
370
    25
100
AcDbLine
 10
28.073124
 20
-90.55851
 30
0.0
 11
30.004976
 21
-91.076148
 31
0.0
  0
LINE
  5
1C5
100
AcDbEntity
  8
3
370
    25
100
AcDbLine
 10
28.073124
 20
-90.55851
 30
0.0
 11
30.004976
 21
-90.040872
 31
0.0
  0
LINE
  5
1C6
100
AcDbEntity
  8
3
370
    25
100
AcDbLine
 10
30.004976
 20
-91.076148
 30
0.0
 11
30.004976
 21
-90.040872
 31
0.0
  0
LINE
  5
1C7
100
AcDbEntity
  8
3
370
    25
100
AcDbLine
 10
28.073124
 20
-90.55851
 30
0.0
 11
42.073124
 21
-90.55851
 31
0.0
  0
LINE
  5
1C8
100
AcDbEntity
  8
3
370
    25
100
AcDbLine
 10
42.073124
 20
-90.55851
 30
0.0
 11
40.141273
 21
-90.040872
 31
0.0
  0
LINE
  5
1C9
100
AcDbEntity
  8
3
370
    25
100
AcDbLine
 10
42.073124
 20
-90.55851
 30
0.0
 11
40.141273
 21
-91.076148
 31
0.0
  0
LINE
  5
1CA
100
AcDbEntity
  8
3
370
    25
100
AcDbLine
 10
40.141273
 20
-90.040872
 30
0.0
 11
40.141273
 21
-91.076148
 31
0.0
  0
LINE
  5
1CB
100
AcDbEntity
  8
3
370
    25
100
AcDbLine
 10
42.073124
 20
0.745994
 30
0.0
 11
42.073124
 21
-91.55851
 31
0.0
  0
ENDBLK
  5
1CC
100
AcDbEntity
  8
3
100
AcDbBlockEnd
  0
BLOCK
  5
1CD
100
AcDbEntity
  8
3
100
AcDbBlockBegin
  2
*D9
 70
     1
 10
0.0
 20
0.0
 30
0.0
  3
*D9
  1

  0
TEXT
  5
1CE
100
AcDbEntity
  8
3
370
    25
100
AcDbText
 10
-61.29678
 20
-18.813964
 30
0.0
 40
3.5
  1
５３
 50
90.0
 72
     5
 11
-61.29678
 21
-12.513964
 31
0.0
100
AcDbText
  0
LINE
  5
1CF
100
AcDbEntity
  8
3
370
    25
100
AcDbLine
 10
-14.653498
 20
-41.851422
 30
0.0
 11
-61.79678
 21
-41.851422
 31
0.0
  0
LINE
  5
1D0
100
AcDbEntity
  8
3
370
    25
100
AcDbLine
 10
-60.79678
 20
-41.851422
 30
0.0
 11
-60.279142
 21
-39.91957
 31
0.0
  0
LINE
  5
1D1
100
AcDbEntity
  8
3
370
    25
100
AcDbLine
 10
-60.79678
 20
-41.851422
 30
0.0
 11
-61.314418
 21
-39.91957
 31
0.0
  0
LINE
  5
1D2
100
AcDbEntity
  8
3
370
    25
100
AcDbLine
 10
-60.279142
 20
-39.91957
 30
0.0
 11
-61.314418
 21
-39.91957
 31
0.0
  0
LINE
  5
1D3
100
AcDbEntity
  8
3
370
    25
100
AcDbLine
 10
-60.79678
 20
-41.851422
 30
0.0
 11
-60.79678
 21
11.223494
 31
0.0
  0
LINE
  5
1D4
100
AcDbEntity
  8
3
370
    25
100
AcDbLine
 10
-60.79678
 20
11.223494
 30
0.0
 11
-61.314418
 21
9.291643
 31
0.0
  0
LINE
  5
1D5
100
AcDbEntity
  8
3
370
    25
100
AcDbLine
 10
-60.79678
 20
11.223494
 30
0.0
 11
-60.279142
 21
9.291643
 31
0.0
  0
LINE
  5
1D6
100
AcDbEntity
  8
3
370
    25
100
AcDbLine
 10
-61.314418
 20
9.291643
 30
0.0
 11
-60.279142
 21
9.291643
 31
0.0
  0
LINE
  5
1D7
100
AcDbEntity
  8
3
370
    25
100
AcDbLine
 10
1.573126
 20
11.223494
 30
0.0
 11
-61.79678
 21
11.223494
 31
0.0
  0
ENDBLK
  5
1D8
100
AcDbEntity
  8
3
100
AcDbBlockEnd
  0
BLOCK
  5
1D9
100
AcDbEntity
  8
3
100
AcDbBlockBegin
  2
*D10
 70
     1
 10
0.0
 20
0.0
 30
0.0
  3
*D10
  1

  0
TEXT
  5
1DA
100
AcDbEntity
  8
3
370
    25
100
AcDbText
 10
3.709813
 20
-90.05851
 30
0.0
 40
3.5
  1
４２
 72
     5
 11
10.009813
 21
-90.05851
 31
0.0
100
AcDbText
  0
LINE
  5
1DB
100
AcDbEntity
  8
3
370
    25
100
AcDbLine
 10
-13.653498
 20
-42.851422
 30
0.0
 11
-13.653498
 21
-91.55851
 31
0.0
  0
LINE
  5
1DC
100
AcDbEntity
  8
3
370
    25
100
AcDbLine
 10
-13.653498
 20
-90.55851
 30
0.0
 11
-11.721646
 21
-91.076148
 31
0.0
  0
LINE
  5
1DD
100
AcDbEntity
  8
3
370
    25
100
AcDbLine
 10
-13.653498
 20
-90.55851
 30
0.0
 11
-11.721646
 21
-90.040872
 31
0.0
  0
LINE
  5
1DE
100
AcDbEntity
  8
3
370
    25
100
AcDbLine
 10
-11.721646
 20
-91.076148
 30
0.0
 11
-11.721646
 21
-90.040872
 31
0.0
  0
LINE
  5
1DF
100
AcDbEntity
  8
3
370
    25
100
AcDbLine
 10
-13.653498
 20
-90.55851
 30
0.0
 11
28.073124
 21
-90.55851
 31
0.0
  0
LINE
  5
1E0
100
AcDbEntity
  8
3
370
    25
100
AcDbLine
 10
28.073124
 20
-90.55851
 30
0.0
 11
26.141273
 21
-90.040872
 31
0.0
  0
LINE
  5
1E1
100
AcDbEntity
  8
3
370
    25
100
AcDbLine
 10
28.073124
 20
-90.55851
 30
0.0
 11
26.141273
 21
-91.076148
 31
0.0
  0
LINE
  5
1E2
100
AcDbEntity
  8
3
370
    25
100
AcDbLine
 10
26.141273
 20
-90.040872
 30
0.0
 11
26.141273
 21
-91.076148
 31
0.0
  0
LINE
  5
1E3
100
AcDbEntity
  8
3
370
    25
100
AcDbLine
 10
28.073124
 20
-13.026506
 30
0.0
 11
28.073124
 21
-91.55851
 31
0.0
  0
ENDBLK
  5
1E4
100
AcDbEntity
  8
3
100
AcDbBlockEnd
  0
BLOCK
  5
1E5
100
AcDbEntity
  8
3
100
AcDbBlockBegin
  2
*D11
 70
     1
 10
0.0
 20
0.0
 30
0.0
  3
*D11
  1

  0
TEXT
  5
1E6
100
AcDbEntity
  8
3
370
    25
100
AcDbText
 10
31.573124
 20
-90.05851
 30
0.0
 40
3.5
  1
１４
 72
     5
 11
37.873124
 21
-90.05851
 31
0.0
100
AcDbText
  0
LINE
  5
1E7
100
AcDbEntity
  8
3
370
    25
100
AcDbLine
 10
28.073124
 20
-13.026506
 30
0.0
 11
28.073124
 21
-91.55851
 31
0.0
  0
LINE
  5
1E8
100
AcDbEntity
  8
3
370
    25
100
AcDbLine
 10
28.073124
 20
-90.55851
 30
0.0
 11
30.004976
 21
-91.076148
 31
0.0
  0
LINE
  5
1E9
100
AcDbEntity
  8
3
370
    25
100
AcDbLine
 10
28.073124
 20
-90.55851
 30
0.0
 11
30.004976
 21
-90.040872
 31
0.0
  0
LINE
  5
1EA
100
AcDbEntity
  8
3
370
    25
100
AcDbLine
 10
30.004976
 20
-91.076148
 30
0.0
 11
30.004976
 21
-90.040872
 31
0.0
  0
LINE
  5
1EB
100
AcDbEntity
  8
3
370
    25
100
AcDbLine
 10
28.073124
 20
-90.55851
 30
0.0
 11
42.073124
 21
-90.55851
 31
0.0
  0
LINE
  5
1EC
100
AcDbEntity
  8
3
370
    25
100
AcDbLine
 10
42.073124
 20
-90.55851
 30
0.0
 11
40.141273
 21
-90.040872
 31
0.0
  0
LINE
  5
1ED
100
AcDbEntity
  8
3
370
    25
100
AcDbLine
 10
42.073124
 20
-90.55851
 30
0.0
 11
40.141273
 21
-91.076148
 31
0.0
  0
LINE
  5
1EE
100
AcDbEntity
  8
3
370
    25
100
AcDbLine
 10
40.141273
 20
-90.040872
 30
0.0
 11
40.141273
 21
-91.076148
 31
0.0
  0
LINE
  5
1EF
100
AcDbEntity
  8
3
370
    25
100
AcDbLine
 10
42.073124
 20
0.745994
 30
0.0
 11
42.073124
 21
-91.55851
 31
0.0
  0
ENDBLK
  5
1F0
100
AcDbEntity
  8
3
100
AcDbBlockEnd
  0
BLOCK
  5
1F1
100
AcDbEntity
  8
3
100
AcDbBlockBegin
  2
*D12
 70
     1
 10
0.0
 20
0.0
 30
0.0
  3
*D12
  1

  0
TEXT
  5
1F2
100
AcDbEntity
  8
3
370
    25
100
AcDbText
 10
-61.29678
 20
-18.813964
 30
0.0
 40
3.5
  1
５３
 50
90.0
 72
     5
 11
-61.29678
 21
-12.513964
 31
0.0
100
AcDbText
  0
LINE
  5
1F3
100
AcDbEntity
  8
3
370
    25
100
AcDbLine
 10
-14.653498
 20
-41.851422
 30
0.0
 11
-61.79678
 21
-41.851422
 31
0.0
  0
LINE
  5
1F4
100
AcDbEntity
  8
3
370
    25
100
AcDbLine
 10
-60.79678
 20
-41.851422
 30
0.0
 11
-60.279142
 21
-39.91957
 31
0.0
  0
LINE
  5
1F5
100
AcDbEntity
  8
3
370
    25
100
AcDbLine
 10
-60.79678
 20
-41.851422
 30
0.0
 11
-61.314418
 21
-39.91957
 31
0.0
  0
LINE
  5
1F6
100
AcDbEntity
  8
3
370
    25
100
AcDbLine
 10
-60.279142
 20
-39.91957
 30
0.0
 11
-61.314418
 21
-39.91957
 31
0.0
  0
LINE
  5
1F7
100
AcDbEntity
  8
3
370
    25
100
AcDbLine
 10
-60.79678
 20
-41.851422
 30
0.0
 11
-60.79678
 21
11.223494
 31
0.0
  0
LINE
  5
1F8
100
AcDbEntity
  8
3
370
    25
100
AcDbLine
 10
-60.79678
 20
11.223494
 30
0.0
 11
-61.314418
 21
9.291643
 31
0.0
  0
LINE
  5
1F9
100
AcDbEntity
  8
3
370
    25
100
AcDbLine
 10
-60.79678
 20
11.223494
 30
0.0
 11
-60.279142
 21
9.291643
 31
0.0
  0
LINE
  5
1FA
100
AcDbEntity
  8
3
370
    25
100
AcDbLine
 10
-61.314418
 20
9.291643
 30
0.0
 11
-60.279142
 21
9.291643
 31
0.0
  0
LINE
  5
1FB
100
AcDbEntity
  8
3
370
    25
100
AcDbLine
 10
1.573126
 20
11.223494
 30
0.0
 11
-61.79678
 21
11.223494
 31
0.0
  0
ENDBLK
  5
1FC
100
AcDbEntity
  8
3
100
AcDbBlockEnd
  0
BLOCK
  5
1FD
100
AcDbEntity
  8
3
100
AcDbBlockBegin
  2
*D13
 70
     1
 10
0.0
 20
0.0
 30
0.0
  3
*D13
  1

  0
TEXT
  5
1FE
100
AcDbEntity
  8
3
370
    25
100
AcDbText
 10
3.709813
 20
-90.05851
 30
0.0
 40
3.5
  1
４２
 72
     5
 11
10.009813
 21
-90.05851
 31
0.0
100
AcDbText
  0
LINE
  5
1FF
100
AcDbEntity
  8
3
370
    25
100
AcDbLine
 10
-13.653498
 20
-42.851422
 30
0.0
 11
-13.653498
 21
-91.55851
 31
0.0
  0
LINE
  5
200
100
AcDbEntity
  8
3
370
    25
100
AcDbLine
 10
-13.653498
 20
-90.55851
 30
0.0
 11
-11.721646
 21
-91.076148
 31
0.0
  0
LINE
  5
201
100
AcDbEntity
  8
3
370
    25
100
AcDbLine
 10
-13.653498
 20
-90.55851
 30
0.0
 11
-11.721646
 21
-90.040872
 31
0.0
  0
LINE
  5
202
100
AcDbEntity
  8
3
370
    25
100
AcDbLine
 10
-11.721646
 20
-91.076148
 30
0.0
 11
-11.721646
 21
-90.040872
 31
0.0
  0
LINE
  5
203
100
AcDbEntity
  8
3
370
    25
100
AcDbLine
 10
-13.653498
 20
-90.55851
 30
0.0
 11
28.073124
 21
-90.55851
 31
0.0
  0
LINE
  5
204
100
AcDbEntity
  8
3
370
    25
100
AcDbLine
 10
28.073124
 20
-90.55851
 30
0.0
 11
26.141273
 21
-90.040872
 31
0.0
  0
LINE
  5
205
100
AcDbEntity
  8
3
370
    25
100
AcDbLine
 10
28.073124
 20
-90.55851
 30
0.0
 11
26.141273
 21
-91.076148
 31
0.0
  0
LINE
  5
206
100
AcDbEntity
  8
3
370
    25
100
AcDbLine
 10
26.141273
 20
-90.040872
 30
0.0
 11
26.141273
 21
-91.076148
 31
0.0
  0
LINE
  5
207
100
AcDbEntity
  8
3
370
    25
100
AcDbLine
 10
28.073124
 20
-13.026506
 30
0.0
 11
28.073124
 21
-91.55851
 31
0.0
  0
ENDBLK
  5
208
100
AcDbEntity
  8
3
100
AcDbBlockEnd
  0
BLOCK
  5
209
100
AcDbEntity
  8
3
100
AcDbBlockBegin
  2
*D14
 70
     1
 10
0.0
 20
0.0
 30
0.0
  3
*D14
  1

  0
TEXT
  5
20A
100
AcDbEntity
  8
3
370
    25
100
AcDbText
 10
31.573124
 20
-90.05851
 30
0.0
 40
3.5
  1
１４
 72
     5
 11
37.873124
 21
-90.05851
 31
0.0
100
AcDbText
  0
LINE
  5
20B
100
AcDbEntity
  8
3
370
    25
100
AcDbLine
 10
28.073124
 20
-13.026506
 30
0.0
 11
28.073124
 21
-91.55851
 31
0.0
  0
LINE
  5
20C
100
AcDbEntity
  8
3
370
    25
100
AcDbLine
 10
28.073124
 20
-90.55851
 30
0.0
 11
30.004976
 21
-91.076148
 31
0.0
  0
LINE
  5
20D
100
AcDbEntity
  8
3
370
    25
100
AcDbLine
 10
28.073124
 20
-90.55851
 30
0.0
 11
30.004976
 21
-90.040872
 31
0.0
  0
LINE
  5
20E
100
AcDbEntity
  8
3
370
    25
100
AcDbLine
 10
30.004976
 20
-91.076148
 30
0.0
 11
30.004976
 21
-90.040872
 31
0.0
  0
LINE
  5
20F
100
AcDbEntity
  8
3
370
    25
100
AcDbLine
 10
28.073124
 20
-90.55851
 30
0.0
 11
42.073124
 21
-90.55851
 31
0.0
  0
LINE
  5
210
100
AcDbEntity
  8
3
370
    25
100
AcDbLine
 10
42.073124
 20
-90.55851
 30
0.0
 11
40.141273
 21
-90.040872
 31
0.0
  0
LINE
  5
211
100
AcDbEntity
  8
3
370
    25
100
AcDbLine
 10
42.073124
 20
-90.55851
 30
0.0
 11
40.141273
 21
-91.076148
 31
0.0
  0
LINE
  5
212
100
AcDbEntity
  8
3
370
    25
100
AcDbLine
 10
40.141273
 20
-90.040872
 30
0.0
 11
40.141273
 21
-91.076148
 31
0.0
  0
LINE
  5
213
100
AcDbEntity
  8
3
370
    25
100
AcDbLine
 10
42.073124
 20
0.745994
 30
0.0
 11
42.073124
 21
-91.55851
 31
0.0
  0
ENDBLK
  5
214
100
AcDbEntity
  8
3
100
AcDbBlockEnd
  0
BLOCK
  5
215
100
AcDbEntity
  8
3
100
AcDbBlockBegin
  2
*D15
 70
     1
 10
0.0
 20
0.0
 30
0.0
  3
*D15
  1

  0
TEXT
  5
216
100
AcDbEntity
  8
3
370
    25
100
AcDbText
 10
-61.29678
 20
-18.813964
 30
0.0
 40
3.5
  1
５３
 50
90.0
 72
     5
 11
-61.29678
 21
-12.513964
 31
0.0
100
AcDbText
  0
LINE
  5
217
100
AcDbEntity
  8
3
370
    25
100
AcDbLine
 10
-14.653498
 20
-41.851422
 30
0.0
 11
-61.79678
 21
-41.851422
 31
0.0
  0
LINE
  5
218
100
AcDbEntity
  8
3
370
    25
100
AcDbLine
 10
-60.79678
 20
-41.851422
 30
0.0
 11
-60.279142
 21
-39.91957
 31
0.0
  0
LINE
  5
219
100
AcDbEntity
  8
3
370
    25
100
AcDbLine
 10
-60.79678
 20
-41.851422
 30
0.0
 11
-61.314418
 21
-39.91957
 31
0.0
  0
LINE
  5
21A
100
AcDbEntity
  8
3
370
    25
100
AcDbLine
 10
-60.279142
 20
-39.91957
 30
0.0
 11
-61.314418
 21
-39.91957
 31
0.0
  0
LINE
  5
21B
100
AcDbEntity
  8
3
370
    25
100
AcDbLine
 10
-60.79678
 20
-41.851422
 30
0.0
 11
-60.79678
 21
11.223494
 31
0.0
  0
LINE
  5
21C
100
AcDbEntity
  8
3
370
    25
100
AcDbLine
 10
-60.79678
 20
11.223494
 30
0.0
 11
-61.314418
 21
9.291643
 31
0.0
  0
LINE
  5
21D
100
AcDbEntity
  8
3
370
    25
100
AcDbLine
 10
-60.79678
 20
11.223494
 30
0.0
 11
-60.279142
 21
9.291643
 31
0.0
  0
LINE
  5
21E
100
AcDbEntity
  8
3
370
    25
100
AcDbLine
 10
-61.314418
 20
9.291643
 30
0.0
 11
-60.279142
 21
9.291643
 31
0.0
  0
LINE
  5
21F
100
AcDbEntity
  8
3
370
    25
100
AcDbLine
 10
1.573126
 20
11.223494
 30
0.0
 11
-61.79678
 21
11.223494
 31
0.0
  0
ENDBLK
  5
220
100
AcDbEntity
  8
3
100
AcDbBlockEnd
  0
BLOCK
  5
221
100
AcDbEntity
  8
3
100
AcDbBlockBegin
  2
*D16
 70
     1
 10
0.0
 20
0.0
 30
0.0
  3
*D16
  1

  0
TEXT
  5
222
100
AcDbEntity
  8
3
370
    25
100
AcDbText
 10
3.709813
 20
-90.05851
 30
0.0
 40
3.5
  1
４２
 72
     5
 11
10.009813
 21
-90.05851
 31
0.0
100
AcDbText
  0
LINE
  5
223
100
AcDbEntity
  8
3
370
    25
100
AcDbLine
 10
-13.653498
 20
-42.851422
 30
0.0
 11
-13.653498
 21
-91.55851
 31
0.0
  0
LINE
  5
224
100
AcDbEntity
  8
3
370
    25
100
AcDbLine
 10
-13.653498
 20
-90.55851
 30
0.0
 11
-11.721646
 21
-91.076148
 31
0.0
  0
LINE
  5
225
100
AcDbEntity
  8
3
370
    25
100
AcDbLine
 10
-13.653498
 20
-90.55851
 30
0.0
 11
-11.721646
 21
-90.040872
 31
0.0
  0
LINE
  5
226
100
AcDbEntity
  8
3
370
    25
100
AcDbLine
 10
-11.721646
 20
-91.076148
 30
0.0
 11
-11.721646
 21
-90.040872
 31
0.0
  0
LINE
  5
227
100
AcDbEntity
  8
3
370
    25
100
AcDbLine
 10
-13.653498
 20
-90.55851
 30
0.0
 11
28.073124
 21
-90.55851
 31
0.0
  0
LINE
  5
228
100
AcDbEntity
  8
3
370
    25
100
AcDbLine
 10
28.073124
 20
-90.55851
 30
0.0
 11
26.141273
 21
-90.040872
 31
0.0
  0
LINE
  5
229
100
AcDbEntity
  8
3
370
    25
100
AcDbLine
 10
28.073124
 20
-90.55851
 30
0.0
 11
26.141273
 21
-91.076148
 31
0.0
  0
LINE
  5
22A
100
AcDbEntity
  8
3
370
    25
100
AcDbLine
 10
26.141273
 20
-90.040872
 30
0.0
 11
26.141273
 21
-91.076148
 31
0.0
  0
LINE
  5
22B
100
AcDbEntity
  8
3
370
    25
100
AcDbLine
 10
28.073124
 20
-13.026506
 30
0.0
 11
28.073124
 21
-91.55851
 31
0.0
  0
ENDBLK
  5
22C
100
AcDbEntity
  8
3
100
AcDbBlockEnd
  0
BLOCK
  5
22D
100
AcDbEntity
  8
3
100
AcDbBlockBegin
  2
*D17
 70
     1
 10
0.0
 20
0.0
 30
0.0
  3
*D17
  1

  0
TEXT
  5
22E
100
AcDbEntity
  8
3
370
    25
100
AcDbText
 10
31.573124
 20
-90.05851
 30
0.0
 40
3.5
  1
１４
 72
     5
 11
37.873124
 21
-90.05851
 31
0.0
100
AcDbText
  0
LINE
  5
22F
100
AcDbEntity
  8
3
370
    25
100
AcDbLine
 10
28.073124
 20
-13.026506
 30
0.0
 11
28.073124
 21
-91.55851
 31
0.0
  0
LINE
  5
230
100
AcDbEntity
  8
3
370
    25
100
AcDbLine
 10
28.073124
 20
-90.55851
 30
0.0
 11
30.004976
 21
-91.076148
 31
0.0
  0
LINE
  5
231
100
AcDbEntity
  8
3
370
    25
100
AcDbLine
 10
28.073124
 20
-90.55851
 30
0.0
 11
30.004976
 21
-90.040872
 31
0.0
  0
LINE
  5
232
100
AcDbEntity
  8
3
370
    25
100
AcDbLine
 10
30.004976
 20
-91.076148
 30
0.0
 11
30.004976
 21
-90.040872
 31
0.0
  0
LINE
  5
233
100
AcDbEntity
  8
3
370
    25
100
AcDbLine
 10
28.073124
 20
-90.55851
 30
0.0
 11
42.073124
 21
-90.55851
 31
0.0
  0
LINE
  5
234
100
AcDbEntity
  8
3
370
    25
100
AcDbLine
 10
42.073124
 20
-90.55851
 30
0.0
 11
40.141273
 21
-90.040872
 31
0.0
  0
LINE
  5
235
100
AcDbEntity
  8
3
370
    25
100
AcDbLine
 10
42.073124
 20
-90.55851
 30
0.0
 11
40.141273
 21
-91.076148
 31
0.0
  0
LINE
  5
236
100
AcDbEntity
  8
3
370
    25
100
AcDbLine
 10
40.141273
 20
-90.040872
 30
0.0
 11
40.141273
 21
-91.076148
 31
0.0
  0
LINE
  5
237
100
AcDbEntity
  8
3
370
    25
100
AcDbLine
 10
42.073124
 20
0.745994
 30
0.0
 11
42.073124
 21
-91.55851
 31
0.0
  0
ENDBLK
  5
238
100
AcDbEntity
  8
3
100
AcDbBlockEnd
  0
BLOCK
  5
239
100
AcDbEntity
  8
3
100
AcDbBlockBegin
  2
*D18
 70
     1
 10
0.0
 20
0.0
 30
0.0
  3
*D18
  1

  0
TEXT
  5
23A
100
AcDbEntity
  8
3
370
    25
100
AcDbText
 10
-61.29678
 20
-18.813964
 30
0.0
 40
3.5
  1
５３
 50
90.0
 72
     5
 11
-61.29678
 21
-12.513964
 31
0.0
100
AcDbText
  0
LINE
  5
23B
100
AcDbEntity
  8
3
370
    25
100
AcDbLine
 10
-14.653498
 20
-41.851422
 30
0.0
 11
-61.79678
 21
-41.851422
 31
0.0
  0
LINE
  5
23C
100
AcDbEntity
  8
3
370
    25
100
AcDbLine
 10
-60.79678
 20
-41.851422
 30
0.0
 11
-60.279142
 21
-39.91957
 31
0.0
  0
LINE
  5
23D
100
AcDbEntity
  8
3
370
    25
100
AcDbLine
 10
-60.79678
 20
-41.851422
 30
0.0
 11
-61.314418
 21
-39.91957
 31
0.0
  0
LINE
  5
23E
100
AcDbEntity
  8
3
370
    25
100
AcDbLine
 10
-60.279142
 20
-39.91957
 30
0.0
 11
-61.314418
 21
-39.91957
 31
0.0
  0
LINE
  5
23F
100
AcDbEntity
  8
3
370
    25
100
AcDbLine
 10
-60.79678
 20
-41.851422
 30
0.0
 11
-60.79678
 21
11.223494
 31
0.0
  0
LINE
  5
240
100
AcDbEntity
  8
3
370
    25
100
AcDbLine
 10
-60.79678
 20
11.223494
 30
0.0
 11
-61.314418
 21
9.291643
 31
0.0
  0
LINE
  5
241
100
AcDbEntity
  8
3
370
    25
100
AcDbLine
 10
-60.79678
 20
11.223494
 30
0.0
 11
-60.279142
 21
9.291643
 31
0.0
  0
LINE
  5
242
100
AcDbEntity
  8
3
370
    25
100
AcDbLine
 10
-61.314418
 20
9.291643
 30
0.0
 11
-60.279142
 21
9.291643
 31
0.0
  0
LINE
  5
243
100
AcDbEntity
  8
3
370
    25
100
AcDbLine
 10
1.573126
 20
11.223494
 30
0.0
 11
-61.79678
 21
11.223494
 31
0.0
  0
ENDBLK
  5
244
100
AcDbEntity
  8
3
100
AcDbBlockEnd
  0
BLOCK
  5
245
100
AcDbEntity
  8
3
100
AcDbBlockBegin
  2
*D19
 70
     1
 10
0.0
 20
0.0
 30
0.0
  3
*D19
  1

  0
TEXT
  5
246
100
AcDbEntity
  8
3
370
    25
100
AcDbText
 10
3.709813
 20
-90.05851
 30
0.0
 40
3.5
  1
４２
 72
     5
 11
10.009813
 21
-90.05851
 31
0.0
100
AcDbText
  0
LINE
  5
247
100
AcDbEntity
  8
3
370
    25
100
AcDbLine
 10
-13.653498
 20
-42.851422
 30
0.0
 11
-13.653498
 21
-91.55851
 31
0.0
  0
LINE
  5
248
100
AcDbEntity
  8
3
370
    25
100
AcDbLine
 10
-13.653498
 20
-90.55851
 30
0.0
 11
-11.721646
 21
-91.076148
 31
0.0
  0
LINE
  5
249
100
AcDbEntity
  8
3
370
    25
100
AcDbLine
 10
-13.653498
 20
-90.55851
 30
0.0
 11
-11.721646
 21
-90.040872
 31
0.0
  0
LINE
  5
24A
100
AcDbEntity
  8
3
370
    25
100
AcDbLine
 10
-11.721646
 20
-91.076148
 30
0.0
 11
-11.721646
 21
-90.040872
 31
0.0
  0
LINE
  5
24B
100
AcDbEntity
  8
3
370
    25
100
AcDbLine
 10
-13.653498
 20
-90.55851
 30
0.0
 11
28.073124
 21
-90.55851
 31
0.0
  0
LINE
  5
24C
100
AcDbEntity
  8
3
370
    25
100
AcDbLine
 10
28.073124
 20
-90.55851
 30
0.0
 11
26.141273
 21
-90.040872
 31
0.0
  0
LINE
  5
24D
100
AcDbEntity
  8
3
370
    25
100
AcDbLine
 10
28.073124
 20
-90.55851
 30
0.0
 11
26.141273
 21
-91.076148
 31
0.0
  0
LINE
  5
24E
100
AcDbEntity
  8
3
370
    25
100
AcDbLine
 10
26.141273
 20
-90.040872
 30
0.0
 11
26.141273
 21
-91.076148
 31
0.0
  0
LINE
  5
24F
100
AcDbEntity
  8
3
370
    25
100
AcDbLine
 10
28.073124
 20
-13.026506
 30
0.0
 11
28.073124
 21
-91.55851
 31
0.0
  0
ENDBLK
  5
250
100
AcDbEntity
  8
3
100
AcDbBlockEnd
  0
BLOCK
  5
251
100
AcDbEntity
  8
3
100
AcDbBlockBegin
  2
*D20
 70
     1
 10
0.0
 20
0.0
 30
0.0
  3
*D20
  1

  0
TEXT
  5
252
100
AcDbEntity
  8
3
370
    25
100
AcDbText
 10
31.573124
 20
-90.05851
 30
0.0
 40
3.5
  1
１４
 72
     5
 11
37.873124
 21
-90.05851
 31
0.0
100
AcDbText
  0
LINE
  5
253
100
AcDbEntity
  8
3
370
    25
100
AcDbLine
 10
28.073124
 20
-13.026506
 30
0.0
 11
28.073124
 21
-91.55851
 31
0.0
  0
LINE
  5
254
100
AcDbEntity
  8
3
370
    25
100
AcDbLine
 10
28.073124
 20
-90.55851
 30
0.0
 11
30.004976
 21
-91.076148
 31
0.0
  0
LINE
  5
255
100
AcDbEntity
  8
3
370
    25
100
AcDbLine
 10
28.073124
 20
-90.55851
 30
0.0
 11
30.004976
 21
-90.040872
 31
0.0
  0
LINE
  5
256
100
AcDbEntity
  8
3
370
    25
100
AcDbLine
 10
30.004976
 20
-91.076148
 30
0.0
 11
30.004976
 21
-90.040872
 31
0.0
  0
LINE
  5
257
100
AcDbEntity
  8
3
370
    25
100
AcDbLine
 10
28.073124
 20
-90.55851
 30
0.0
 11
42.073124
 21
-90.55851
 31
0.0
  0
LINE
  5
258
100
AcDbEntity
  8
3
370
    25
100
AcDbLine
 10
42.073124
 20
-90.55851
 30
0.0
 11
40.141273
 21
-90.040872
 31
0.0
  0
LINE
  5
259
100
AcDbEntity
  8
3
370
    25
100
AcDbLine
 10
42.073124
 20
-90.55851
 30
0.0
 11
40.141273
 21
-91.076148
 31
0.0
  0
LINE
  5
25A
100
AcDbEntity
  8
3
370
    25
100
AcDbLine
 10
40.141273
 20
-90.040872
 30
0.0
 11
40.141273
 21
-91.076148
 31
0.0
  0
LINE
  5
25B
100
AcDbEntity
  8
3
370
    25
100
AcDbLine
 10
42.073124
 20
0.745994
 30
0.0
 11
42.073124
 21
-91.55851
 31
0.0
  0
ENDBLK
  5
25C
100
AcDbEntity
  8
3
100
AcDbBlockEnd
  0
BLOCK
  5
25D
100
AcDbEntity
  8
3
100
AcDbBlockBegin
  2
*D21
 70
     1
 10
0.0
 20
0.0
 30
0.0
  3
*D21
  1

  0
TEXT
  5
25E
100
AcDbEntity
  8
3
370
    25
100
AcDbText
 10
-61.29678
 20
-18.813964
 30
0.0
 40
3.5
  1
５３
 50
90.0
 72
     5
 11
-61.29678
 21
-12.513964
 31
0.0
100
AcDbText
  0
LINE
  5
25F
100
AcDbEntity
  8
3
370
    25
100
AcDbLine
 10
-14.653498
 20
-41.851422
 30
0.0
 11
-61.79678
 21
-41.851422
 31
0.0
  0
LINE
  5
260
100
AcDbEntity
  8
3
370
    25
100
AcDbLine
 10
-60.79678
 20
-41.851422
 30
0.0
 11
-60.279142
 21
-39.91957
 31
0.0
  0
LINE
  5
261
100
AcDbEntity
  8
3
370
    25
100
AcDbLine
 10
-60.79678
 20
-41.851422
 30
0.0
 11
-61.314418
 21
-39.91957
 31
0.0
  0
LINE
  5
262
100
AcDbEntity
  8
3
370
    25
100
AcDbLine
 10
-60.279142
 20
-39.91957
 30
0.0
 11
-61.314418
 21
-39.91957
 31
0.0
  0
LINE
  5
263
100
AcDbEntity
  8
3
370
    25
100
AcDbLine
 10
-60.79678
 20
-41.851422
 30
0.0
 11
-60.79678
 21
11.223494
 31
0.0
  0
LINE
  5
264
100
AcDbEntity
  8
3
370
    25
100
AcDbLine
 10
-60.79678
 20
11.223494
 30
0.0
 11
-61.314418
 21
9.291643
 31
0.0
  0
LINE
  5
265
100
AcDbEntity
  8
3
370
    25
100
AcDbLine
 10
-60.79678
 20
11.223494
 30
0.0
 11
-60.279142
 21
9.291643
 31
0.0
  0
LINE
  5
266
100
AcDbEntity
  8
3
370
    25
100
AcDbLine
 10
-61.314418
 20
9.291643
 30
0.0
 11
-60.279142
 21
9.291643
 31
0.0
  0
LINE
  5
267
100
AcDbEntity
  8
3
370
    25
100
AcDbLine
 10
1.573126
 20
11.223494
 30
0.0
 11
-61.79678
 21
11.223494
 31
0.0
  0
ENDBLK
  5
268
100
AcDbEntity
  8
3
100
AcDbBlockEnd
  0
BLOCK
  5
269
100
AcDbEntity
  8
3
100
AcDbBlockBegin
  2
*D22
 70
     1
 10
0.0
 20
0.0
 30
0.0
  3
*D22
  1

  0
TEXT
  5
26A
100
AcDbEntity
  8
3
370
    25
100
AcDbText
 10
3.709813
 20
-90.05851
 30
0.0
 40
3.5
  1
４２
 72
     5
 11
10.009813
 21
-90.05851
 31
0.0
100
AcDbText
  0
LINE
  5
26B
100
AcDbEntity
  8
3
370
    25
100
AcDbLine
 10
-13.653498
 20
-42.851422
 30
0.0
 11
-13.653498
 21
-91.55851
 31
0.0
  0
LINE
  5
26C
100
AcDbEntity
  8
3
370
    25
100
AcDbLine
 10
-13.653498
 20
-90.55851
 30
0.0
 11
-11.721646
 21
-91.076148
 31
0.0
  0
LINE
  5
26D
100
AcDbEntity
  8
3
370
    25
100
AcDbLine
 10
-13.653498
 20
-90.55851
 30
0.0
 11
-11.721646
 21
-90.040872
 31
0.0
  0
LINE
  5
26E
100
AcDbEntity
  8
3
370
    25
100
AcDbLine
 10
-11.721646
 20
-91.076148
 30
0.0
 11
-11.721646
 21
-90.040872
 31
0.0
  0
LINE
  5
26F
100
AcDbEntity
  8
3
370
    25
100
AcDbLine
 10
-13.653498
 20
-90.55851
 30
0.0
 11
28.073124
 21
-90.55851
 31
0.0
  0
LINE
  5
270
100
AcDbEntity
  8
3
370
    25
100
AcDbLine
 10
28.073124
 20
-90.55851
 30
0.0
 11
26.141273
 21
-90.040872
 31
0.0
  0
LINE
  5
271
100
AcDbEntity
  8
3
370
    25
100
AcDbLine
 10
28.073124
 20
-90.55851
 30
0.0
 11
26.141273
 21
-91.076148
 31
0.0
  0
LINE
  5
272
100
AcDbEntity
  8
3
370
    25
100
AcDbLine
 10
26.141273
 20
-90.040872
 30
0.0
 11
26.141273
 21
-91.076148
 31
0.0
  0
LINE
  5
273
100
AcDbEntity
  8
3
370
    25
100
AcDbLine
 10
28.073124
 20
-13.026506
 30
0.0
 11
28.073124
 21
-91.55851
 31
0.0
  0
ENDBLK
  5
274
100
AcDbEntity
  8
3
100
AcDbBlockEnd
  0
BLOCK
  5
275
100
AcDbEntity
  8
3
100
AcDbBlockBegin
  2
*D23
 70
     1
 10
0.0
 20
0.0
 30
0.0
  3
*D23
  1

  0
TEXT
  5
276
100
AcDbEntity
  8
3
370
    25
100
AcDbText
 10
-25.973617
 20
-88.768568
 30
0.0
 40
3.5
  1
１７゜
 50
351.500003
 72
     5
 11
-16.281262
 21
-90.2171
 31
0.0
100
AcDbText
  0
LINE
  5
277
100
AcDbEntity
  8
3
370
    25
100
AcDbLine
 10
-17.131105
 20
-53.226165
 30
0.0
 11
-28.191042
 21
-89.401604
 31
0.0
  0
LINE
  5
278
100
AcDbEntity
  8
3
370
    25
100
AcDbLine
 10
-13.653498
 20
-42.851422
 30
0.0
 11
-13.653498
 21
-91.574253
 31
0.0
  0
LINE
  5
279
100
AcDbEntity
  8
3
370
    25
100
AcDbLine
 10
-27.89867
 20
-88.445299
 30
0.0
 11
-26.181896
 21
-89.471304
 31
0.0
  0
LINE
  5
27A
100
AcDbEntity
  8
3
370
    25
100
AcDbLine
 10
-27.89867
 20
-88.445299
 30
0.0
 11
-25.898898
 21
-88.475458
 31
0.0
  0
LINE
  5
27B
100
AcDbEntity
  8
3
370
    25
100
AcDbLine
 10
-26.181896
 20
-89.471304
 30
0.0
 11
-25.898898
 21
-88.475458
 31
0.0
  0
LINE
  5
27C
100
AcDbEntity
  8
3
370
    25
100
AcDbLine
 10
-13.653498
 20
-90.574253
 30
0.0
 11
-15.574708
 21
-90.018418
 31
0.0
  0
LINE
  5
27D
100
AcDbEntity
  8
3
370
    25
100
AcDbLine
 10
-13.653498
 20
-90.574253
 30
0.0
 11
-15.595232
 21
-91.053491
 31
0.0
  0
LINE
  5
27E
100
AcDbEntity
  8
3
370
    25
100
AcDbLine
 10
-15.574708
 20
-90.018418
 30
0.0
 11
-15.595232
 21
-91.053491
 31
0.0
  0
ARC
  5
27F
100
AcDbEntity
  8
3
370
    25
100
AcDbCircle
 10
-13.653498
 20
-41.851422
 30
0.0
 40
48.722832
100
AcDbArc
 50
253.000006
 51
270.0
  0
ENDBLK
  5
280
100
AcDbEntity
  8
3
100
AcDbBlockEnd
  0
ENDSEC
  0
SECTION
  2
ENTITIES
  0
LINE
  5
42
100
AcDbEntity
  8
1
370
   100
100
AcDbLine
 10
-88.5
 20
138.250162
 30
0.0
 11
88.5
 21
138.250162
 31
0.0
  0
LINE
  5
43
100
AcDbEntity
  8
1
370
   100
100
AcDbLine
 10
-88.5
 20
-138.250162
 30
0.0
 11
88.5
 21
-138.250162
 31
0.0
  0
LINE
  5
44
100
AcDbEntity
  8
1
370
   100
100
AcDbLine
 10
88.5
 20
-138.250162
 30
0.0
 11
88.5
 21
138.250162
 31
0.0
  0
TEXT
  5
45
100
AcDbEntity
  8
1
370
    50
100
AcDbText
 10
70.823029
 20
-112.39065
 30
0.0
 40
3.0
  1
設計
 72
     5
 11
76.223029
 21
-112.39065
 31
0.0
100
AcDbText
  0
TEXT
  5
46
100
AcDbEntity
  8
1
370
    50
100
AcDbText
 10
80.572546
 20
-112.314051
 30
0.0
 40
3.0
  1
製図
 72
     5
 11
85.972546
 21
-112.314051
 31
0.0
100
AcDbText
  0
TEXT
  5
47
100
AcDbEntity
  8
1
370
    50
100
AcDbText
 10
50.51168
 20
-112.39065
 30
0.0
 40
3.0
  1
承認
 72
     5
 11
55.91168
 21
-112.39065
 31
0.0
100
AcDbText
  0
TEXT
  5
48
100
AcDbEntity
  8
1
370
    50
100
AcDbText
 10
60.503647
 20
-112.363231
 30
0.0
 40
3.0
  1
検図
 72
     5
 11
65.903647
 21
-112.363231
 31
0.0
100
AcDbText
  0
LINE
  5
49
100
AcDbEntity
  8
1
370
    25
100
AcDbLine
 10
33.5
 20
-113.250162
 30
0.0
 11
88.5
 21
-113.250162
 31
0.0
  0
LINE
  5
4A
100
AcDbEntity
  8
1
370
    25
100
AcDbLine
 10
62.25
 20
-122.250162
 30
0.0
 11
62.25
 21
-129.250162
 31
0.0
  0
TEXT
  5
4B
100
AcDbEntity
  8
1
370
    50
100
AcDbText
 10
50.784602
 20
-127.270485
 30
0.0
 40
3.0
  1
日　付
 72
     5
 11
59.184602
 21
-127.270485
 31
0.0
100
AcDbText
  0
LINE
  5
4C
100
AcDbEntity
  8
1
370
    50
100
AcDbLine
 10
-88.5
 20
-129.250162
 30
0.0
 11
88.5
 21
-129.250162
 31
0.0
  0
TEXT
  5
4D
100
AcDbEntity
  8
1
370
    50
100
AcDbText
 10
34.896313
 20
-127.425425
 30
0.0
 40
3.0
  1
第三角法
 72
     5
 11
46.296313
 21
-127.425425
 31
0.0
100
AcDbText
  0
TEXT
  5
4E
100
AcDbEntity
  8
1
370
    50
100
AcDbText
 10
36.552517
 20
-112.263231
 30
0.0
 40
3.0
  1
尺　度
 72
     5
 11
44.952517
 21
-112.263231
 31
0.0
100
AcDbText
  0
LINE
  5
4F
100
AcDbEntity
  8
1
370
   100
100
AcDbLine
 10
-88.5
 20
-108.250162
 30
0.0
 11
88.5
 21
-108.250162
 31
0.0
  0
LINE
  5
50
100
AcDbEntity
  8
1
370
    50
100
AcDbLine
 10
-3.0
 20
-108.250162
 30
0.0
 11
-3.0
 21
-138.250162
 31
0.0
  0
LINE
  5
51
100
AcDbEntity
  8
1
370
    25
100
AcDbLine
 10
78.5
 20
-122.250162
 30
0.0
 11
78.5
 21
-108.250162
 31
0.0
  0
LINE
  5
52
100
AcDbEntity
  8
1
370
    25
100
AcDbLine
 10
68.5
 20
-122.250162
 30
0.0
 11
68.5
 21
-108.250162
 31
0.0
  0
LINE
  5
53
100
AcDbEntity
  8
1
370
    25
100
AcDbLine
 10
58.5
 20
-122.250162
 30
0.0
 11
58.5
 21
-108.250162
 31
0.0
  0
LINE
  5
54
100
AcDbEntity
  8
1
370
    50
100
AcDbLine
 10
33.5
 20
-138.250162
 30
0.0
 11
33.5
 21
-108.250162
 31
0.0
  0
LINE
  5
55
100
AcDbEntity
  8
1
370
    50
100
AcDbLine
 10
-14.0
 20
-108.250162
 30
0.0
 11
-14.0
 21
-138.250162
 31
0.0
  0
LINE
  5
56
100
AcDbEntity
  8
1
370
    50
100
AcDbLine
 10
-77.5
 20
-108.250162
 30
0.0
 11
-77.5
 21
-129.250162
 31
0.0
  0
LINE
  5
57
100
AcDbEntity
  8
1
370
    50
100
AcDbLine
 10
33.5
 20
-122.250162
 30
0.0
 11
88.5
 21
-122.250162
 31
0.0
  0
TEXT
  5
58
100
AcDbEntity
  8
1
370
    50
100
AcDbText
 10
34.559372
 20
-135.204691
 30
0.0
 40
3.0
  1
コードＮｏ
 41
0.9
 72
     5
 11
47.519372
 21
-135.204691
 31
0.0
100
AcDbText
  0
TEXT
  5
59
100
AcDbEntity
  8
1
370
   100
100
AcDbText
 10
-82.547806
 20
-135.702051
 30
0.0
 40
4.0
  1
ミズタニバルブ工業株式会社
 41
1.2
 72
     5
 11
-21.107806
 21
-135.702051
 31
0.0
100
AcDbText
  0
LINE
  5
5A
100
AcDbEntity
  8
1
370
    50
100
AcDbLine
 10
-88.5
 20
-118.750162
 30
0.0
 11
33.5
 21
-118.750162
 31
0.0
  0
LINE
  5
5B
100
AcDbEntity
  8
1
370
    50
100
AcDbLine
 10
-51.25
 20
-118.750162
 30
0.0
 11
-51.25
 21
-129.250162
 31
0.0
  0
LINE
  5
5C
100
AcDbEntity
  8
1
370
    50
100
AcDbLine
 10
-40.25
 20
-118.750162
 30
0.0
 11
-40.25
 21
-129.250162
 31
0.0
  0
LINE
  5
5D
100
AcDbEntity
  8
1
370
    50
100
AcDbLine
 10
48.5
 20
-138.250162
 30
0.0
 11
48.5
 21
-108.250162
 31
0.0
  0
TEXT
  5
5E
100
AcDbEntity
  8
1
370
    50
100
AcDbText
 10
63.557873
 20
-127.314368
 30
0.0
 40
3.0
  1
　　・　　・
 72
     5
 11
80.957873
 21
-127.314368
 31
0.0
100
AcDbText
  0
LINE
  5
5F
100
AcDbEntity
  8
1
370
   100
100
AcDbLine
 10
-88.5
 20
138.250162
 30
0.0
 11
-88.5
 21
-138.250162
 31
0.0
  0
TEXT
  5
60
100
AcDbEntity
  8
1
370
    50
100
AcDbText
 10
36.425098
 20
-119.270968
 30
0.0
 40
3.0
  1
　／ 
 72
     5
 11
41.825098
 21
-119.270968
 31
0.0
100
AcDbText
  0
TEXT
  5
61
100
AcDbEntity
  8
1
370
    50
100
AcDbText
 10
-12.039131
 20
-135.276676
 30
0.0
 40
3.0
  1
備 考 
 72
     5
 11
-5.139131
 21
-135.276676
 31
0.0
100
AcDbText
  0
TEXT
  5
62
100
AcDbEntity
  8
1
370
    50
100
AcDbText
 10
-12.234926
 20
-114.710141
 30
0.0
 40
3.0
  1
仕 上
 72
     5
 11
-5.334926
 21
-114.710141
 31
0.0
100
AcDbText
  0
TEXT
  5
63
100
AcDbEntity
  8
1
370
    50
100
AcDbText
 10
-12.267605
 20
-123.710054
 30
0.0
 40
3.0
  1
表 面
 72
     5
 11
-5.367605
 21
-123.710054
 31
0.0
100
AcDbText
  0
TEXT
  5
64
100
AcDbEntity
  8
1
370
    50
100
AcDbText
 10
-12.267605
 20
-127.210054
 30
0.0
 40
3.0
  1
処 理
 72
     5
 11
-5.367605
 21
-127.210054
 31
0.0
100
AcDbText
  0
TEXT
  5
65
100
AcDbEntity
  8
1
370
    50
100
AcDbText
 10
-86.594518
 20
-115.110921
 30
0.0
 40
3.0
  1
品 名
 72
     5
 11
-79.694518
 21
-115.110921
 31
0.0
100
AcDbText
  0
TEXT
  5
66
100
AcDbEntity
  8
1
370
    50
100
AcDbText
 10
-86.79231
 20
-125.495488
 30
0.0
 40
3.0
  1
材 質
 72
     5
 11
-79.89231
 21
-125.495488
 31
0.0
100
AcDbText
  0
TEXT
  5
67
100
AcDbEntity
  8
1
370
    50
100
AcDbText
 10
-49.54231
 20
-125.495488
 30
0.0
 40
3.0
  1
規 格
 72
     5
 11
-42.64231
 21
-125.495488
 31
0.0
100
AcDbText
  0
LINE
  5
68
100
AcDbEntity
  8
2
370
    25
  6
CENTER
100
AcDbLine
 10
45.612536
 20
11.223494
 30
0.0
 11
2.573126
 21
11.223494
 31
0.0
  0
LINE
  5
69
100
AcDbEntity
  8
2
370
    25
  6
CENTER
100
AcDbLine
 10
-16.838733
 20
-52.26986
 30
0.0
 11
2.573126
 21
11.223494
 31
0.0
  0
SPLINE
  5
6A
100
AcDbEntity
  8
2
370
    50
100
AcDbSpline
210
0.0
220
0.0
230
1.0
 70
     8
 71
     3
 72
     0
 73
     0
 74
    28
 44
0.0000000001
 11
-10.164933
 21
8.8926800000000004
 31
0.0
 11
-10.098948999999999
 21
9.2231830000000006
 31
0.0
 11
-10.054829
 21
9.4994980000000009
 31
0.0
 11
-10.028592
 21
9.7311309999999995
 31
0.0
 11
-10.016258000000001
 21
9.9275889999999993
 31
0.0
 11
-10.013847
 21
10.098378
 31
0.0
 11
-10.017519999999999
 21
10.252742
 31
0.0
 11
-10.025539
 21
10.395996999999999
 31
0.0
 11
-10.037777999999999
 21
10.530447000000001
 31
0.0
 11
-10.054152999999999
 21
10.658321000000001
 31
0.0
 11
-10.074581
 21
10.781845000000001
 31
0.0
 11
-10.098974999999999
 21
10.903247
 31
0.0
 11
-10.127252
 21
11.024115999999999
 31
0.0
 11
-10.159325000000001
 21
11.144413
 31
0.0
 11
-10.195111000000001
 21
11.263838
 31
0.0
 11
-10.234524
 21
11.382095
 31
0.0
 11
-10.277476999999999
 21
11.498885
 31
0.0
 11
-10.323987000000001
 21
11.614061
 31
0.0
 11
-10.374936
 21
11.728778
 31
0.0
 11
-10.431649999999999
 21
11.844856999999999
 31
0.0
 11
-10.495459
 21
11.964124
 31
0.0
 11
-10.567693
 21
12.088404000000001
 31
0.0
 11
-10.649711999999999
 21
12.21954
 31
0.0
 11
-10.74522
 21
12.360564999999999
 31
0.0
 11
-10.861872
 21
12.516522
 31
0.0
 11
-11.007698
 21
12.692646
 31
0.0
 11
-11.190733
 21
12.894175000000001
 31
0.0
 11
-11.418996999999999
 21
13.126329
 31
0.0
  0
LINE
  5
6B
100
AcDbEntity
  8
2
370
    50
100
AcDbLine
 10
28.073124
 20
21.700994
 30
0.0
 11
41.073124
 21
21.700994
 31
0.0
  0
LINE
  5
6C
100
AcDbEntity
  8
2
370
    50
100
AcDbLine
 10
42.073124
 20
20.700994
 30
0.0
 11
41.073124
 21
21.700994
 31
0.0
  0
LINE
  5
6D
100
AcDbEntity
  8
2
370
    50
100
AcDbLine
 10
11.901294
 20
27.498871
 30
0.0
 11
5.257541
 21
33.073643
 31
0.0
  0
SPLINE
  5
6E
100
AcDbEntity
  8
2
370
    50
100
AcDbSpline
210
0.0
220
0.0
230
1.0
 70
     8
 71
     3
 72
     0
 73
     0
 74
    31
 44
0.0000000001
 11
11.901306
 21
27.498863
 31
0.0
 11
12.397781999999999
 21
27.122993000000001
 31
0.0
 11
12.809815
 21
26.824010000000001
 31
0.0
 11
13.154169
 21
26.586728000000001
 31
0.0
 11
13.447611
 21
26.395966999999999
 31
0.0
 11
13.706904
 21
26.236542
 31
0.0
 11
13.947070999999999
 21
26.094958999999999
 31
0.0
 11
14.174265
 21
25.966301000000001
 31
0.0
 11
14.391819999999999
 21
25.848378
 31
0.0
 11
14.603071
 21
25.739000999999998
 31
0.0
 11
14.811353
 21
25.635981000000001
 31
0.0
 11
15.019762
 21
25.537295
 31
0.0
 11
15.229582000000001
 21
25.442194000000001
 31
0.0
 11
15.441268000000001
 21
25.350512999999999
 31
0.0
 11
15.655268
 21
25.262089
 31
0.0
 11
15.872031
 21
25.176762
 31
0.0
 11
16.091998
 21
25.094374999999999
 31
0.0
 11
16.315453999999999
 21
25.014903
 31
0.0
 11
16.542556999999999
 21
24.93843
 31
0.0
 11
16.773457000000001
 21
24.865044000000001
 31
0.0
 11
17.008305
 21
24.794830999999999
 31
0.0
 11
17.247254000000002
 21
24.727879999999999
 31
0.0
 11
17.490651
 21
24.664234
 31
0.0
 11
17.739217
 21
24.603853000000001
 31
0.0
 11
17.993715999999999
 21
24.546686999999999
 31
0.0
 11
18.254912000000001
 21
24.492685000000002
 31
0.0
 11
18.523861
 21
24.441780999999999
 31
0.0
 11
18.814264999999999
 21
24.393232999999999
 31
0.0
 11
19.157032000000001
 21
24.345375000000001
 31
0.0
 11
19.584301
 21
24.296474
 31
0.0
 11
20.128184000000001
 21
24.244803000000001
 31
0.0
  0
LINE
  5
6F
100
AcDbEntity
  8
2
370
    50
100
AcDbLine
 10
21.073117
 20
23.241829
 30
0.0
 11
20.12791
 21
24.239347
 31
0.0
  0
LINE
  5
70
100
AcDbEntity
  8
2
370
    50
100
AcDbLine
 10
21.073124
 20
23.241821
 30
0.0
 11
21.073124
 21
-0.776506
 31
0.0
  0
LINE
  5
71
100
AcDbEntity
  8
2
370
    50
100
AcDbLine
 10
20.073124
 20
-1.776506
 30
0.0
 11
21.073124
 21
-0.776506
 31
0.0
  0
LINE
  5
72
100
AcDbEntity
  8
2
370
    50
100
AcDbLine
 10
12.104002
 20
-1.776506
 30
0.0
 11
20.073124
 21
-1.776506
 31
0.0
  0
SPLINE
  5
73
100
AcDbEntity
  8
2
370
    50
100
AcDbSpline
210
0.0
220
0.0
230
1.0
 70
     8
 71
     3
 72
     0
 73
     0
 74
    31
 44
0.0000000001
 11
12.103998000000001
 21
-1.776505
 31
0.0
 11
11.928229999999999
 21
-1.794438
 31
0.0
 11
11.784769000000001
 21
-1.8148789999999999
 31
0.0
 11
11.667519
 21
-1.8373349999999999
 31
0.0
 11
11.570387
 21
-1.8613139999999999
 31
0.0
 11
11.487276
 21
-1.8863209999999999
 31
0.0
 11
11.412531
 21
-1.9119299999999999
 31
0.0
 11
11.343650999999999
 21
-1.938196
 31
0.0
 11
11.279525
 21
-1.9653860000000001
 31
0.0
 11
11.219049
 21
-1.993765
 31
0.0
 11
11.161117000000001
 21
-2.023603
 31
0.0
 11
11.104668999999999
 21
-2.0551550000000001
 31
0.0
 11
11.049253999999999
 21
-2.0885389999999999
 31
0.0
 11
10.994878
 21
-2.1237659999999998
 31
0.0
 11
10.941554999999999
 21
-2.1608429999999998
 31
0.0
 11
10.889302000000001
 21
-2.1997810000000002
 31
0.0
 11
10.838134
 21
-2.2405889999999999
 31
0.0
 11
10.788072
 21
-2.2832849999999998
 31
0.0
 11
10.739143
 21
-2.3279040000000002
 31
0.0
 11
10.691374
 21
-2.374479
 31
0.0
 11
10.644792000000001
 21
-2.423044
 31
0.0
 11
10.599423
 21
-2.4736340000000001
 31
0.0
 11
10.555234
 21
-2.5264009999999999
 31
0.0
 11
10.512064000000001
 21
-2.5817420000000002
 31
0.0
 11
10.469735999999999
 21
-2.6400809999999999
 31
0.0
 11
10.428075
 21
-2.7018460000000002
 31
0.0
 11
10.386877
 21
-2.7675610000000002
 31
0.0
 11
10.344979
 21
-2.8411659999999999
 31
0.0
 11
10.300041
 21
-2.9308019999999999
 31
0.0
 11
10.249649
 21
-3.0448689999999998
 31
0.0
 11
10.191394000000001
 21
-3.1917580000000001
 31
0.0
  0
LINE
  5
74
100
AcDbEntity
  8
2
370
    50
100
AcDbLine
 10
9.915983
 20
-4.09259
 30
0.0
 11
10.191394
 21
-3.191762
 31
0.0
  0
LINE
  5
75
100
AcDbEntity
  8
2
370
    50
100
AcDbLine
 10
9.291645
 20
-4.424557
 30
0.0
 11
9.915983
 21
-4.09259
 31
0.0
  0
LINE
  5
76
100
AcDbEntity
  8
2
370
    50
100
AcDbLine
 10
41.073124
 20
0.745994
 30
0.0
 11
42.073124
 21
1.745994
 31
0.0
  0
LINE
  5
77
100
AcDbEntity
  8
2
370
    50
100
AcDbLine
 10
41.073124
 20
0.745994
 30
0.0
 11
28.073124
 21
0.745994
 31
0.0
  0
LINE
  5
78
100
AcDbEntity
  8
2
370
    50
100
AcDbLine
 10
-10.164935
 20
8.892671
 30
0.0
 11
-12.079027
 21
2.631959
 31
0.0
  0
LINE
  5
79
100
AcDbEntity
  8
2
370
    50
100
AcDbLine
 10
-11.454937
 20
13.156488
 30
0.0
 11
-11.419003
 21
13.126335
 31
0.0
  0
LINE
  5
7A
100
AcDbEntity
  8
2
370
    50
100
AcDbLine
 10
9.291636
 20
-4.424562
 30
0.0
 11
-11.74706
 21
2.007621
 31
0.0
  0
LINE
  5
7B
100
AcDbEntity
  8
2
370
    50
100
AcDbLine
 10
-12.079027
 20
2.631959
 30
0.0
 11
-11.74706
 21
2.007621
 31
0.0
  0
LINE
  5
7C
100
AcDbEntity
  8
2
370
    50
100
AcDbLine
 10
42.073124
 20
1.745994
 30
0.0
 11
42.073124
 21
20.700994
 31
0.0
  0
LINE
  5
7D
100
AcDbEntity
  8
2
370
    25
100
AcDbLine
 10
28.073124
 20
20.800994
 30
0.0
 11
41.973124
 21
20.800994
 31
0.0
  0
LINE
  5
7E
100
AcDbEntity
  8
2
370
    25
100
AcDbLine
 10
41.973124
 20
1.645994
 30
0.0
 11
28.073124
 21
1.645994
 31
0.0
  0
LINE
  5
7F
100
AcDbEntity
  8
2
370
    50
100
AcDbLine
 10
20.073124
 20
-1.776506
 30
0.0
 11
20.073124
 21
24.249808
 31
0.0
  0
LINE
  5
80
100
AcDbEntity
  8
2
370
    50
100
AcDbLine
 10
41.073124
 20
0.745994
 30
0.0
 11
41.073124
 21
21.700994
 31
0.0
  0
LINE
  5
81
100
AcDbEntity
  8
2
370
    50
100
AcDbLine
 10
7.379035
 20
-3.839813
 30
0.0
 11
6.794292
 21
-5.752422
 31
0.0
  0
LINE
  5
82
100
AcDbEntity
  8
2
370
    50
100
AcDbLine
 10
-10.419194
 20
-0.489732
 30
0.0
 11
-9.834451
 21
1.422877
 31
0.0
  0
TEXT
  5
83
100
AcDbEntity
  8
3
370
    50
100
AcDbText
 10
36.425098
 20
-119.270968
 30
0.0
 40
3.0
  1
１　１
 72
     5
 11
44.825098
 21
-119.270968
 31
0.0
100
AcDbText
  0
DIMENSION
  5
84
100
AcDbEntity
  8
3
370
    25
100
AcDbDimension
  2
*D0
 10
2.573126
 20
11.223494
 30
0.0
 11
-55.102537
 21
40.896399
 31
0.0
 70
     2
 71
     0
 72
     0
 41
0.0
 42
0.0
  3
Standard
100
AcDb2LineAngularDimension
 13
-35.048618
 23
49.924232
 33
0.0
 14
11.073125
 24
11.223494
 34
0.0
 15
11.073125
 25
11.223494
 35
0.0
 16
-56.428297
 26
35.792002
 36
0.0
1001
ACAD
1000
DSTYLE
1002
{
1070
   275
1070
     0
1070
   179
1070
     0
1002
}
  0
DIMENSION
  5
85
100
AcDbEntity
  8
3
370
    25
100
AcDbDimension
  2
*D1
 10
63.801399
 20
-12.026506
 30
0.0
 11
54.551399
 21
5.973494
 31
0.0
 70
     1
 71
     0
 72
     0
 41
0.0
 42
0.0
  3
Standard
100
AcDbAlignedDimension
 13
28.073124
 23
34.473494
 33
0.0
 14
28.073124
 24
-12.026506
 34
0.0
 50
270.0
  0
TEXT
  5
86
100
AcDbEntity
  8
3
370
    50
100
AcDbText
 10
41.108826
 20
42.506372
 30
0.0
 40
3.5
  1
ＰＪ１／２
 72
     5
 11
57.908826
 21
42.506372
 31
0.0
100
AcDbText
  0
LWPOLYLINE
  5
87
100
AcDbEntity
  8
3
370
    25
100
AcDbPolyline
 90
        3
 70
     0
 10
34.829536
 20
21.700994
 10
40.63958
 20
41.599283
 10
59.590988
 20
41.599283
  0
LINE
  5
8C
100
AcDbEntity
  8
3
370
    25
100
AcDbLine
 10
35.371002
 20
23.555412
 30
0.0
 11
34.874113
 21
23.700497
 31
0.0
  0
LINE
  5
8D
100
AcDbEntity
  8
3
370
    25
100
AcDbLine
 10
34.874113
 20
23.700497
 30
0.0
 11
34.829536
 21
21.700994
 31
0.0
  0
LINE
  5
8E
100
AcDbEntity
  8
3
370
    25
100
AcDbLine
 10
34.829536
 20
21.700994
 30
0.0
 11
35.867892
 21
23.410327
 31
0.0
  0
LINE
  5
8F
100
AcDbEntity
  8
3
370
    25
100
AcDbLine
 10
35.867892
 20
23.410327
 30
0.0
 11
35.371002
 21
23.555412
 31
0.0
  0
TEXT
  5
90
100
AcDbEntity
  8
3
370
    50
100
AcDbText
 10
5.180408
 20
-135.947067
 30
0.0
 40
3.5
  1
外観寸法図
 72
     5
 11
21.980408
 21
-135.947067
 31
0.0
100
AcDbText
  0
DIMENSION
  5
91
100
AcDbEntity
  8
3
370
    25
100
AcDbDimension
  2
*D2
 10
42.073124
 20
-90.55851
 30
0.0
 11
35.073124
 21
-88.30851
 31
0.0
 71
     0
 72
     0
 41
0.0
 42
0.0
  3
Standard
100
AcDbAlignedDimension
 13
28.073124
 23
-12.026506
 33
0.0
 14
42.073124
 24
1.745994
 34
0.0
100
AcDbRotatedDimension
  0
DIMENSION
  5
92
100
AcDbEntity
  8
3
370
    25
100
AcDbDimension
  2
*D3
 10
-60.79678
 20
11.223494
 30
0.0
 11
-64.79678
 21
-15.313964
 31
0.0
 71
     0
 72
     0
 41
0.0
 42
0.0
  3
Standard
100
AcDbAlignedDimension
 13
-13.653498
 23
-41.851422
 33
0.0
 14
2.573126
 24
11.223494
 34
0.0
 50
90.0
100
AcDbRotatedDimension
  0
DIMENSION
  5
93
100
AcDbEntity
  8
3
370
    25
100
AcDbDimension
  2
*D4
 10
28.073124
 20
-90.55851
 30
0.0
 11
7.209813
 21
-88.30851
 31
0.0
 71
     0
 72
     0
 41
0.0
 42
0.0
  3
Standard
100
AcDbAlignedDimension
 13
-13.653498
 23
-41.851422
 33
0.0
 14
28.073124
 24
-12.026506
 34
0.0
100
AcDbRotatedDimension
  0
DIMENSION
  5
94
100
AcDbEntity
  8
3
370
    25
100
AcDbDimension
  2
*D5
 10
42.073124
 20
-90.55851
 30
0.0
 11
35.073124
 21
-88.30851
 31
0.0
 71
     0
 72
     0
 41
0.0
 42
0.0
  3
Standard
100
AcDbAlignedDimension
 13
28.073124
 23
-12.026506
 33
0.0
 14
42.073124
 24
1.745994
 34
0.0
100
AcDbRotatedDimension
  0
DIMENSION
  5
95
100
AcDbEntity
  8
3
370
    25
100
AcDbDimension
  2
*D6
 10
-60.79678
 20
11.223494
 30
0.0
 11
-64.79678
 21
-15.313964
 31
0.0
 71
     0
 72
     0
 41
0.0
 42
0.0
  3
Standard
100
AcDbAlignedDimension
 13
-13.653498
 23
-41.851422
 33
0.0
 14
2.573126
 24
11.223494
 34
0.0
 50
90.0
100
AcDbRotatedDimension
  0
DIMENSION
  5
96
100
AcDbEntity
  8
3
370
    25
100
AcDbDimension
  2
*D7
 10
28.073124
 20
-90.55851
 30
0.0
 11
7.209813
 21
-88.30851
 31
0.0
 71
     0
 72
     0
 41
0.0
 42
0.0
  3
Standard
100
AcDbAlignedDimension
 13
-13.653498
 23
-41.851422
 33
0.0
 14
28.073124
 24
-12.026506
 34
0.0
100
AcDbRotatedDimension
  0
DIMENSION
  5
97
100
AcDbEntity
  8
3
370
    25
100
AcDbDimension
  2
*D8
 10
42.073124
 20
-90.55851
 30
0.0
 11
35.073124
 21
-88.30851
 31
0.0
 71
     0
 72
     0
 41
0.0
 42
0.0
  3
Standard
100
AcDbAlignedDimension
 13
28.073124
 23
-12.026506
 33
0.0
 14
42.073124
 24
1.745994
 34
0.0
100
AcDbRotatedDimension
  0
DIMENSION
  5
98
100
AcDbEntity
  8
3
370
    25
100
AcDbDimension
  2
*D9
 10
-60.79678
 20
11.223494
 30
0.0
 11
-64.79678
 21
-15.313964
 31
0.0
 71
     0
 72
     0
 41
0.0
 42
0.0
  3
Standard
100
AcDbAlignedDimension
 13
-13.653498
 23
-41.851422
 33
0.0
 14
2.573126
 24
11.223494
 34
0.0
 50
90.0
100
AcDbRotatedDimension
  0
DIMENSION
  5
99
100
AcDbEntity
  8
3
370
    25
100
AcDbDimension
  2
*D10
 10
28.073124
 20
-90.55851
 30
0.0
 11
7.209813
 21
-88.30851
 31
0.0
 71
     0
 72
     0
 41
0.0
 42
0.0
  3
Standard
100
AcDbAlignedDimension
 13
-13.653498
 23
-41.851422
 33
0.0
 14
28.073124
 24
-12.026506
 34
0.0
100
AcDbRotatedDimension
  0
DIMENSION
  5
9A
100
AcDbEntity
  8
3
370
    25
100
AcDbDimension
  2
*D11
 10
42.073124
 20
-90.55851
 30
0.0
 11
35.073124
 21
-88.30851
 31
0.0
 71
     0
 72
     0
 41
0.0
 42
0.0
  3
Standard
100
AcDbAlignedDimension
 13
28.073124
 23
-12.026506
 33
0.0
 14
42.073124
 24
1.745994
 34
0.0
100
AcDbRotatedDimension
  0
DIMENSION
  5
9B
100
AcDbEntity
  8
3
370
    25
100
AcDbDimension
  2
*D12
 10
-60.79678
 20
11.223494
 30
0.0
 11
-64.79678
 21
-15.313964
 31
0.0
 71
     0
 72
     0
 41
0.0
 42
0.0
  3
Standard
100
AcDbAlignedDimension
 13
-13.653498
 23
-41.851422
 33
0.0
 14
2.573126
 24
11.223494
 34
0.0
 50
90.0
100
AcDbRotatedDimension
  0
DIMENSION
  5
9C
100
AcDbEntity
  8
3
370
    25
100
AcDbDimension
  2
*D13
 10
28.073124
 20
-90.55851
 30
0.0
 11
7.209813
 21
-88.30851
 31
0.0
 71
     0
 72
     0
 41
0.0
 42
0.0
  3
Standard
100
AcDbAlignedDimension
 13
-13.653498
 23
-41.851422
 33
0.0
 14
28.073124
 24
-12.026506
 34
0.0
100
AcDbRotatedDimension
  0
DIMENSION
  5
9D
100
AcDbEntity
  8
3
370
    25
100
AcDbDimension
  2
*D14
 10
42.073124
 20
-90.55851
 30
0.0
 11
35.073124
 21
-88.30851
 31
0.0
 71
     0
 72
     0
 41
0.0
 42
0.0
  3
Standard
100
AcDbAlignedDimension
 13
28.073124
 23
-12.026506
 33
0.0
 14
42.073124
 24
1.745994
 34
0.0
100
AcDbRotatedDimension
  0
DIMENSION
  5
9E
100
AcDbEntity
  8
3
370
    25
100
AcDbDimension
  2
*D15
 10
-60.79678
 20
11.223494
 30
0.0
 11
-64.79678
 21
-15.313964
 31
0.0
 71
     0
 72
     0
 41
0.0
 42
0.0
  3
Standard
100
AcDbAlignedDimension
 13
-13.653498
 23
-41.851422
 33
0.0
 14
2.573126
 24
11.223494
 34
0.0
 50
90.0
100
AcDbRotatedDimension
  0
DIMENSION
  5
9F
100
AcDbEntity
  8
3
370
    25
100
AcDbDimension
  2
*D16
 10
28.073124
 20
-90.55851
 30
0.0
 11
7.209813
 21
-88.30851
 31
0.0
 71
     0
 72
     0
 41
0.0
 42
0.0
  3
Standard
100
AcDbAlignedDimension
 13
-13.653498
 23
-41.851422
 33
0.0
 14
28.073124
 24
-12.026506
 34
0.0
100
AcDbRotatedDimension
  0
DIMENSION
  5
A0
100
AcDbEntity
  8
3
370
    25
100
AcDbDimension
  2
*D17
 10
42.073124
 20
-90.55851
 30
0.0
 11
35.073124
 21
-88.30851
 31
0.0
 71
     0
 72
     0
 41
0.0
 42
0.0
  3
Standard
100
AcDbAlignedDimension
 13
28.073124
 23
-12.026506
 33
0.0
 14
42.073124
 24
1.745994
 34
0.0
100
AcDbRotatedDimension
  0
DIMENSION
  5
A1
100
AcDbEntity
  8
3
370
    25
100
AcDbDimension
  2
*D18
 10
-60.79678
 20
11.223494
 30
0.0
 11
-64.79678
 21
-15.313964
 31
0.0
 71
     0
 72
     0
 41
0.0
 42
0.0
  3
Standard
100
AcDbAlignedDimension
 13
-13.653498
 23
-41.851422
 33
0.0
 14
2.573126
 24
11.223494
 34
0.0
 50
90.0
100
AcDbRotatedDimension
  0
DIMENSION
  5
A2
100
AcDbEntity
  8
3
370
    25
100
AcDbDimension
  2
*D19
 10
28.073124
 20
-90.55851
 30
0.0
 11
7.209813
 21
-88.30851
 31
0.0
 71
     0
 72
     0
 41
0.0
 42
0.0
  3
Standard
100
AcDbAlignedDimension
 13
-13.653498
 23
-41.851422
 33
0.0
 14
28.073124
 24
-12.026506
 34
0.0
100
AcDbRotatedDimension
  0
DIMENSION
  5
A3
100
AcDbEntity
  8
3
370
    25
100
AcDbDimension
  2
*D20
 10
42.073124
 20
-90.55851
 30
0.0
 11
35.073124
 21
-88.30851
 31
0.0
 71
     0
 72
     0
 41
0.0
 42
0.0
  3
Standard
100
AcDbAlignedDimension
 13
28.073124
 23
-12.026506
 33
0.0
 14
42.073124
 24
1.745994
 34
0.0
100
AcDbRotatedDimension
  0
DIMENSION
  5
A4
100
AcDbEntity
  8
3
370
    25
100
AcDbDimension
  2
*D21
 10
-60.79678
 20
11.223494
 30
0.0
 11
-64.79678
 21
-15.313964
 31
0.0
 71
     0
 72
     0
 41
0.0
 42
0.0
  3
Standard
100
AcDbAlignedDimension
 13
-13.653498
 23
-41.851422
 33
0.0
 14
2.573126
 24
11.223494
 34
0.0
 50
90.0
100
AcDbRotatedDimension
  0
DIMENSION
  5
A5
100
AcDbEntity
  8
3
370
    25
100
AcDbDimension
  2
*D22
 10
28.073124
 20
-90.55851
 30
0.0
 11
7.209813
 21
-88.30851
 31
0.0
 71
     0
 72
     0
 41
0.0
 42
0.0
  3
Standard
100
AcDbAlignedDimension
 13
-13.653498
 23
-41.851422
 33
0.0
 14
28.073124
 24
-12.026506
 34
0.0
100
AcDbRotatedDimension
  0
POINT
  5
A6
100
AcDbEntity
  8
3
370
    50
100
AcDbPoint
 10
-13.653498
 20
-41.851422
 30
0.0
  0
DIMENSION
  5
A7
100
AcDbEntity
  8
3
370
    25
100
AcDbDimension
  2
*D23
 10
-13.653498
 20
-41.856294
 30
0.0
 11
-15.58895
 21
-90.320567
 31
0.0
 70
     2
 71
     0
 72
     0
 41
0.0
 42
0.0
  3
Standard
100
AcDb2LineAngularDimension
 13
-16.838733
 23
-52.26986
 33
0.0
 14
-13.653498
 24
-41.851422
 34
0.0
 15
-13.653498
 25
-41.851422
 35
0.0
 16
-20.855188
 26
-90.039076
 36
0.0
1001
ACAD
1000
DSTYLE
1002
{
1070
   275
1070
     0
1070
   179
1070
     0
1002
}
  0
TEXT
  5
A8
100
AcDbEntity
  8
3
370
    50
100
AcDbText
 10
63.557873
 20
-127.314368
 30
0.0
 40
3.0
  1
１２　０５　２５
 72
     5
 11
86.957873
 21
-127.314368
 31
0.0
100
AcDbText
  0
TEXT
  5
A9
100
AcDbEntity
  8
3
370
    50
100
AcDbText
 10
-56.031617
 20
-55.525784
 30
0.0
 40
3.5
  1
緊急止水機能付
 72
     5
 11
-32.231617
 21
-55.525784
 31
0.0
100
AcDbText
  0
LWPOLYLINE
  5
AA
100
AcDbEntity
  8
3
370
    25
100
AcDbPolyline
 90
        3
 70
     0
 10
-16.551785
 20
-46.565121
 10
-29.436745
 20
-56.281918
 10
-56.787171
 20
-56.281918
  0
TEXT
  5
AF
100
AcDbEntity
  8
3
370
    50
100
AcDbText
 10
-68.967835
 20
-113.950443
 30
0.0
 40
3.5
  1
緊急止水弁付横水栓（寒）
 72
     5
 11
-27.667835
 21
-113.950443
 31
0.0
100
AcDbText
  0
TEXT
  5
B0
100
AcDbEntity
  8
3
370
    50
100
AcDbText
 10
-47.833763
 20
-7.669401
 30
0.0
 40
3.5
  1
ＰＪ１／２
 72
     5
 11
-31.033763
 21
-7.669401
 31
0.0
100
AcDbText
  0
LWPOLYLINE
  5
B1
100
AcDbEntity
  8
3
370
    25
100
AcDbPolyline
 90
        4
 70
     0
 10
-10.411977
 20
-0.466126
 10
-15.046465
 20
4.678178
 10
-29.587603
 20
-9.272623
 10
-48.176418
 20
-9.272623
  0
LINE
  5
B7
100
AcDbEntity
  8
3
370
    25
100
AcDbLine
 10
-11.705029
 20
0.969168
 30
0.0
 11
-12.089614
 21
0.622696
 31
0.0
  0
LINE
  5
B8
100
AcDbEntity
  8
3
370
    25
100
AcDbLine
 10
-12.089614
 20
0.622696
 30
0.0
 11
-10.411977
 21
-0.466126
 31
0.0
  0
LINE
  5
B9
100
AcDbEntity
  8
3
370
    25
100
AcDbLine
 10
-10.411977
 20
-0.466126
 30
0.0
 11
-11.320443
 21
1.31564
 31
0.0
  0
LINE
  5
BA
100
AcDbEntity
  8
3
370
    25
100
AcDbLine
 10
-11.320443
 20
1.31564
 30
0.0
 11
-11.705029
 21
0.969168
 31
0.0
  0
TEXT
  5
BB
100
AcDbEntity
  8
3
370
    50
100
AcDbText
 10
59.292465
 20
-135.466339
 30
0.0
 40
3.5
  1
５００３２２
 72
     5
 11
79.592465
 21
-135.466339
 31
0.0
100
AcDbText
  0
TEXT
  5
BC
100
AcDbEntity
  8
3
370
    50
100
AcDbText
 10
-68.967835
 20
-118.450443
 30
0.0
 40
3.5
  1
Ｋ１３－３０ＡＳＮ－２
 72
     5
 11
-31.167835
 21
-118.450443
 31
0.0
100
AcDbText
  0
LINE
  5
BD
100
AcDbEntity
  8
4
370
    50
100
AcDbLine
 10
28.073124
 20
34.473494
 30
0.0
 11
26.573124
 21
34.473494
 31
0.0
  0
LINE
  5
BE
100
AcDbEntity
  8
4
370
    50
100
AcDbLine
 10
24.575865
 20
32.578166
 30
0.0
 11
24.199246
 21
25.391853
 31
0.0
  0
ARC
  5
BF
100
AcDbEntity
  8
4
370
    50
100
AcDbCircle
 10
26.573124
 20
32.473494
 30
0.0
 40
2.0
100
AcDbArc
 50
90.0
 51
177.0
  0
LINE
  5
C0
100
AcDbEntity
  8
4
370
    50
100
AcDbLine
 10
21.073124
 20
-0.676506
 30
0.0
 11
22.616101
 21
-1.089945
 31
0.0
  0
LINE
  5
C1
100
AcDbEntity
  8
4
370
    50
100
AcDbLine
 10
21.073124
 20
23.123494
 30
0.0
 11
22.719625
 21
23.564673
 31
0.0
  0
ARC
  5
C2
100
AcDbEntity
  8
4
370
    50
100
AcDbCircle
 10
22.201987
 20
25.496525
 30
0.0
 40
2.0
100
AcDbArc
 50
285.0
 51
357.0
  0
ARC
  5
C3
100
AcDbEntity
  8
4
370
    50
100
AcDbCircle
 10
22.098463
 20
-3.021797
 30
0.0
 40
2.0
100
AcDbArc
 50
3.0
 51
75.0
  0
ARC
  5
C4
100
AcDbEntity
  8
4
370
    50
100
AcDbCircle
 10
26.471053
 20
-10.026506
 30
0.0
 40
2.0
100
AcDbArc
 50
183.0
 51
270.0
  0
LINE
  5
C5
100
AcDbEntity
  8
4
370
    50
100
AcDbLine
 10
24.473794
 20
-10.131178
 30
0.0
 11
24.095722
 21
-2.917125
 31
0.0
  0
LINE
  5
C6
100
AcDbEntity
  8
4
370
    50
100
AcDbLine
 10
28.073124
 20
-12.026506
 30
0.0
 11
26.471053
 21
-12.026506
 31
0.0
  0
LINE
  5
C7
100
AcDbEntity
  8
4
370
    50
100
AcDbLine
 10
28.073124
 20
-12.026506
 30
0.0
 11
28.073124
 21
34.473494
 31
0.0
  0
LINE
  5
C8
100
AcDbEntity
  8
4
370
    25
100
AcDbLine
 10
24.123198
 20
23.940759
 30
0.0
 11
24.123198
 21
-1.549972
 31
0.0
  0
LINE
  5
C9
100
AcDbEntity
  8
8
370
    50
100
AcDbLine
 10
9.663214
 20
-6.62954
 30
0.0
 11
10.327147
 21
-7.878216
 31
0.0
  0
LINE
  5
CA
100
AcDbEntity
  8
8
370
    50
100
AcDbLine
 10
10.327147
 20
-7.878216
 30
0.0
 11
7.695802
 21
-16.484959
 31
0.0
  0
LINE
  5
CB
100
AcDbEntity
  8
8
370
    50
100
AcDbLine
 10
7.695802
 20
-16.484959
 30
0.0
 11
6.447125
 21
-17.148892
 31
0.0
  0
LINE
  5
CC
100
AcDbEntity
  8
8
370
    50
100
AcDbLine
 10
-0.065475
 20
-26.137554
 30
0.0
 11
0.508308
 21
-26.312977
 31
0.0
  0
LINE
  5
CD
100
AcDbEntity
  8
8
370
    50
100
AcDbLine
 10
-2.717234
 20
-29.509597
 30
0.0
 11
-3.301978
 21
-31.422206
 31
0.0
  0
LINE
  5
CE
100
AcDbEntity
  8
8
370
    50
100
AcDbLine
 10
-2.550634
 20
-34.266144
 30
0.0
 11
-3.237407
 21
-34.631308
 31
0.0
  0
LINE
  5
CF
100
AcDbEntity
  8
8
370
    50
100
AcDbLine
 10
-0.065475
 20
-26.137554
 30
0.0
 11
-0.539577
 21
-27.688272
 31
0.0
  0
ARC
  5
D0
100
AcDbEntity
  8
8
370
    50
100
AcDbCircle
 10
-2.452187
 20
-27.103528
 30
0.0
 40
2.0
100
AcDbArc
 50
298.0
 51
343.0
  0
LINE
  5
D1
100
AcDbEntity
  8
8
370
    50
100
AcDbLine
 10
-1.513243
 20
-28.869424
 30
0.0
 11
-2.717234
 21
-29.509597
 31
0.0
  0
LINE
  5
D2
100
AcDbEntity
  8
8
370
    50
100
AcDbLine
 10
-2.297102
 20
-33.436878
 30
0.0
 11
-2.550634
 21
-34.266144
 31
0.0
  0
ARC
  5
D3
100
AcDbEntity
  8
8
370
    50
100
AcDbCircle
 10
-2.488363
 20
-33.378403
 30
0.0
 40
0.2
100
AcDbArc
 50
343.0
 51
28.0
  0
LINE
  5
D4
100
AcDbEntity
  8
8
370
    50
100
AcDbLine
 10
-3.301978
 20
-31.422206
 30
0.0
 11
-2.311774
 21
-33.284509
 31
0.0
  0
LINE
  5
D5
100
AcDbEntity
  8
8
370
    50
100
AcDbLine
 10
-3.237407
 20
-34.631308
 30
0.0
 11
-5.854133
 21
-43.190235
 31
0.0
  0
ARC
  5
D6
100
AcDbEntity
  8
8
370
    50
100
AcDbCircle
 10
-6.810438
 20
-42.897863
 30
0.0
 40
1.0
100
AcDbArc
 50
253.0
 51
343.0
  0
LINE
  5
D7
100
AcDbEntity
  8
8
370
    50
100
AcDbLine
 10
-14.536777
 20
-0.276552
 30
0.0
 11
-17.168122
 21
-8.883295
 31
0.0
  0
LINE
  5
D8
100
AcDbEntity
  8
8
370
    50
100
AcDbLine
 10
-17.168122
 20
-8.883295
 30
0.0
 11
-16.504189
 21
-10.131971
 31
0.0
  0
LINE
  5
D9
100
AcDbEntity
  8
8
370
    50
100
AcDbLine
 10
-16.131395
 20
-21.225709
 30
0.0
 11
-16.705178
 21
-21.050286
 31
0.0
  0
LINE
  5
DA
100
AcDbEntity
  8
8
370
    50
100
AcDbLine
 10
-15.818609
 20
-25.504105
 30
0.0
 11
-16.403353
 21
-27.416714
 31
0.0
  0
LINE
  5
DB
100
AcDbEntity
  8
8
370
    50
100
AcDbLine
 10
-18.616554
 20
-29.3543
 30
0.0
 11
-18.251391
 21
-30.041072
 31
0.0
  0
LINE
  5
DC
100
AcDbEntity
  8
8
370
    50
100
AcDbLine
 10
-16.131395
 20
-21.225709
 30
0.0
 11
-16.605497
 21
-22.776427
 31
0.0
  0
ARC
  5
DD
100
AcDbEntity
  8
8
370
    50
100
AcDbCircle
 10
-14.692887
 20
-23.361171
 30
0.0
 40
2.0
100
AcDbArc
 50
163.0
 51
208.0
  0
LINE
  5
DE
100
AcDbEntity
  8
8
370
    50
100
AcDbLine
 10
-16.458783
 20
-24.300114
 30
0.0
 11
-15.818609
 21
-25.504105
 31
0.0
  0
LINE
  5
DF
100
AcDbEntity
  8
8
370
    50
100
AcDbLine
 10
-18.363022
 20
-28.525033
 30
0.0
 11
-18.616554
 21
-29.3543
 31
0.0
  0
ARC
  5
E0
100
AcDbEntity
  8
8
370
    50
100
AcDbCircle
 10
-18.171761
 20
-28.583508
 30
0.0
 40
0.2
100
AcDbArc
 50
118.0
 51
163.0
  0
LINE
  5
E1
100
AcDbEntity
  8
8
370
    50
100
AcDbLine
 10
-16.403353
 20
-27.416714
 30
0.0
 11
-18.265655
 21
-28.406918
 31
0.0
  0
LINE
  5
E2
100
AcDbEntity
  8
8
370
    50
100
AcDbLine
 10
-18.251391
 20
-30.041072
 30
0.0
 11
-20.868118
 21
-38.599999
 31
0.0
  0
ARC
  5
E3
100
AcDbEntity
  8
8
370
    50
100
AcDbCircle
 10
-19.911813
 20
-38.892371
 30
0.0
 40
1.0
100
AcDbArc
 50
163.0
 51
253.0
  0
LINE
  5
E4
100
AcDbEntity
  8
8
370
    50
100
AcDbLine
 10
-13.2881
 20
0.387381
 30
0.0
 11
-14.536777
 21
-0.276552
 31
0.0
  0
LINE
  5
E5
100
AcDbEntity
  8
8
370
    50
100
AcDbLine
 10
-8.537267
 20
-43.415611
 30
0.0
 11
-9.560568
 21
-46.762677
 31
0.0
  0
LINE
  5
E6
100
AcDbEntity
  8
8
370
    50
100
AcDbLine
 10
-9.560568
 20
-46.762677
 30
0.0
 11
-8.797045
 21
-48.198655
 31
0.0
  0
LINE
  5
E7
100
AcDbEntity
  8
8
370
    50
100
AcDbLine
 10
-8.797045
 20
-48.198655
 30
0.0
 11
-9.337932
 21
-49.967819
 31
0.0
  0
LINE
  5
E8
100
AcDbEntity
  8
8
370
    50
100
AcDbLine
 10
-9.337932
 20
-49.967819
 30
0.0
 11
-9.962271
 21
-50.299786
 31
0.0
  0
LINE
  5
E9
100
AcDbEntity
  8
8
370
    50
100
AcDbLine
 10
-11.329732
 20
-46.22179
 30
0.0
 11
-12.353033
 21
-49.568856
 31
0.0
  0
LINE
  5
EA
100
AcDbEntity
  8
8
370
    50
100
AcDbLine
 10
-8.098435
 20
-23.681632
 30
0.0
 11
11.163533
 21
-29.570606
 31
0.0
  0
LINE
  5
EB
100
AcDbEntity
  8
8
370
    50
100
AcDbLine
 10
8.072843
 20
-17.645924
 30
0.0
 11
8.272023
 21
-18.020527
 31
0.0
  0
LINE
  5
EC
100
AcDbEntity
  8
8
370
    50
100
AcDbLine
 10
6.447125
 20
-17.148892
 30
0.0
 11
8.072843
 21
-17.645924
 31
0.0
  0
LINE
  5
ED
100
AcDbEntity
  8
8
370
    50
100
AcDbLine
 10
8.272023
 20
-18.020527
 30
0.0
 11
7.190248
 21
-21.558855
 31
0.0
  0
LINE
  5
EE
100
AcDbEntity
  8
8
370
    50
100
AcDbLine
 10
7.190248
 20
-21.558855
 30
0.0
 11
9.84598
 21
-26.55356
 31
0.0
  0
LINE
  5
EF
100
AcDbEntity
  8
8
370
    50
100
AcDbLine
 10
-20.204185
 20
-39.848676
 30
0.0
 11
-8.537267
 21
-43.415611
 31
0.0
  0
LINE
  5
F0
100
AcDbEntity
  8
8
370
    50
100
AcDbLine
 10
-18.251391
 20
-30.041072
 30
0.0
 11
-10.744399
 21
-32.33619
 31
0.0
  0
LINE
  5
F1
100
AcDbEntity
  8
8
370
    50
100
AcDbLine
 10
-18.616554
 20
-29.3543
 30
0.0
 11
-10.583594
 21
-31.810222
 31
0.0
  0
LINE
  5
F2
100
AcDbEntity
  8
8
370
    50
100
AcDbLine
 10
-18.265655
 20
-28.406918
 30
0.0
 11
-10.288715
 21
-30.845714
 31
0.0
  0
LINE
  5
F3
100
AcDbEntity
  8
8
370
    50
100
AcDbLine
 10
-16.403353
 20
-27.416714
 30
0.0
 11
-9.852665
 21
-29.41946
 31
0.0
  0
LINE
  5
F4
100
AcDbEntity
  8
8
370
    50
100
AcDbLine
 10
-15.818609
 20
-25.504105
 30
0.0
 11
-9.267922
 21
-27.506851
 31
0.0
  0
LINE
  5
F5
100
AcDbEntity
  8
8
370
    50
100
AcDbLine
 10
-16.131395
 20
-21.225709
 30
0.0
 11
-8.098435
 21
-23.681632
 31
0.0
  0
LINE
  5
F6
100
AcDbEntity
  8
8
370
    50
100
AcDbLine
 10
-18.129907
 20
-9.634939
 30
0.0
 11
-18.50451
 21
-9.834119
 31
0.0
  0
LINE
  5
F7
100
AcDbEntity
  8
8
370
    50
100
AcDbLine
 10
-16.504189
 20
-10.131971
 30
0.0
 11
-18.129907
 21
-9.634939
 31
0.0
  0
LINE
  5
F8
100
AcDbEntity
  8
8
370
    50
100
AcDbLine
 10
-18.50451
 20
-9.834119
 30
0.0
 11
-19.586285
 21
-13.372447
 31
0.0
  0
LINE
  5
F9
100
AcDbEntity
  8
8
370
    50
100
AcDbLine
 10
-19.586285
 20
-13.372447
 30
0.0
 11
-24.580991
 21
-16.028179
 31
0.0
  0
LINE
  5
FA
100
AcDbEntity
  8
8
370
    50
100
AcDbLine
 10
-28.640108
 20
-15.623736
 30
0.0
 11
-28.38061
 21
-16.707491
 31
0.0
  0
ARC
  5
FB
100
AcDbEntity
  8
8
370
    50
100
AcDbCircle
 10
-26.921845
 20
-16.3582
 30
0.0
 40
1.5
100
AcDbArc
 50
193.465545
 51
253.0
  0
LINE
  5
FC
100
AcDbEntity
  8
8
370
    50
100
AcDbLine
 10
-16.705178
 20
-21.050286
 30
0.0
 11
-27.360403
 21
-17.792657
 31
0.0
  0
LINE
  5
FD
100
AcDbEntity
  8
8
370
    50
100
AcDbLine
 10
-24.580991
 20
-16.028179
 30
0.0
 11
-27.928058
 21
-15.004878
 31
0.0
  0
ARC
  5
FE
100
AcDbEntity
  8
8
370
    50
100
AcDbCircle
 10
-28.074244
 20
-15.483031
 30
0.0
 40
0.5
100
AcDbArc
 50
73.0
 51
163.0
  0
LINE
  5
FF
100
AcDbEntity
  8
8
370
    50
100
AcDbLine
 10
-28.552396
 20
-15.336845
 30
0.0
 11
-28.640108
 21
-15.623736
 31
0.0
  0
LINE
  5
100
100
AcDbEntity
  8
8
370
    50
100
AcDbLine
 10
-16.504189
 20
-10.131971
 30
0.0
 11
-5.028532
 21
-13.640432
 31
0.0
  0
LINE
  5
101
100
AcDbEntity
  8
8
370
    50
100
AcDbLine
 10
-12.046869
 20
-15.677478
 30
0.0
 11
-15.132772
 21
-18.91679
 31
0.0
  0
LINE
  5
102
100
AcDbEntity
  8
8
370
    50
100
AcDbLine
 10
-13.703238
 20
-15.171075
 30
0.0
 11
-16.78914
 21
-18.410387
 31
0.0
  0
LINE
  5
103
100
AcDbEntity
  8
8
370
    50
100
AcDbLine
 10
-13.703238
 20
-15.171075
 30
0.0
 11
-12.046869
 21
-15.677478
 31
0.0
  0
LINE
  5
104
100
AcDbEntity
  8
8
370
    50
100
AcDbLine
 10
-7.367506
 20
-21.29087
 30
0.0
 11
-24.580991
 21
-16.028179
 31
0.0
  0
LINE
  5
105
100
AcDbEntity
  8
8
370
    50
100
AcDbLine
 10
-19.586285
 20
-13.372447
 30
0.0
 11
-20.463401
 21
-16.241361
 31
0.0
  0
ARC
  5
106
100
AcDbEntity
  8
8
370
    50
100
AcDbCircle
 10
-21.419705
 20
-15.948989
 30
0.0
 40
1.0
100
AcDbArc
 50
253.0
 51
343.0
  0
LINE
  5
107
100
AcDbEntity
  8
8
370
    50
100
AcDbLine
 10
-12.046869
 20
-15.677478
 30
0.0
 11
-12.923984
 21
-18.546392
 31
0.0
  0
ARC
  5
108
100
AcDbEntity
  8
8
370
    50
100
AcDbCircle
 10
-13.880289
 20
-18.25402
 30
0.0
 40
1.0
100
AcDbArc
 50
253.0
 51
343.0
  0
LINE
  5
109
100
AcDbEntity
  8
8
370
    50
100
AcDbLine
 10
-18.50451
 20
-9.834119
 30
0.0
 11
-5.116244
 21
-13.927323
 31
0.0
  0
ARC
  5
10A
100
AcDbEntity
  8
8
370
    50
100
AcDbCircle
 10
-12.901355
 20
-3.662262
 30
0.0
 40
3.760005
100
AcDbArc
 50
30.21775
 51
115.78225
  0
ARC
  5
10B
100
AcDbEntity
  8
8
370
    50
100
AcDbCircle
 10
-5.613275
 20
-15.553041
 30
0.0
 40
13.0
100
AcDbArc
 50
73.0
 51
95.619865
  0
LINE
  5
10C
100
AcDbEntity
  8
8
370
    50
100
AcDbLine
 10
-9.652264
 20
-1.769898
 30
0.0
 11
-6.886339
 21
-2.615526
 31
0.0
  0
ARC
  5
10D
100
AcDbEntity
  8
8
370
    50
100
AcDbCircle
 10
-13.919031
 20
-6.990931
 30
0.0
 40
3.760005
100
AcDbArc
 50
210.21775
 51
295.78225
  0
LINE
  5
10E
100
AcDbEntity
  8
8
370
    50
100
AcDbLine
 10
-12.283609
 20
-10.37664
 30
0.0
 11
-9.517684
 21
-11.222268
 31
0.0
  0
ARC
  5
10F
100
AcDbEntity
  8
8
370
    50
100
AcDbCircle
 10
-1.2277
 20
-1.20847
 30
0.0
 40
13.0
100
AcDbArc
 50
230.380135
 51
253.0
  0
LINE
  5
110
100
AcDbEntity
  8
8
370
    50
100
AcDbLine
 10
-6.886339
 20
-2.615526
 30
0.0
 11
-9.517684
 21
-11.222268
 31
0.0
  0
LINE
  5
111
100
AcDbEntity
  8
8
370
    50
100
AcDbLine
 10
-9.652264
 20
-1.769898
 30
0.0
 11
-12.283609
 21
-10.37664
 31
0.0
  0
LINE
  5
112
100
AcDbEntity
  8
8
370
    50
100
AcDbLine
 10
-16.429521
 20
-41.525552
 30
0.0
 11
-8.683453
 21
-43.893763
 31
0.0
  0
LINE
  5
113
100
AcDbEntity
  8
8
370
    50
100
AcDbLine
 10
-16.605497
 20
-22.776427
 30
0.0
 11
-8.572537
 21
-25.23235
 31
0.0
  0
LINE
  5
114
100
AcDbEntity
  8
8
370
    50
100
AcDbLine
 10
-28.640108
 20
-15.623736
 30
0.0
 11
-7.601403
 21
-22.055914
 31
0.0
  0
LINE
  5
115
100
AcDbEntity
  8
8
370
    50
100
AcDbLine
 10
-8.537267
 20
-43.415611
 30
0.0
 11
-7.10281
 21
-43.854168
 31
0.0
  0
LINE
  5
116
100
AcDbEntity
  8
8
370
    50
100
AcDbLine
 10
13.437302
 20
-28.488091
 30
0.0
 11
12.616141
 21
-29.241456
 31
0.0
  0
ARC
  5
117
100
AcDbEntity
  8
8
370
    50
100
AcDbCircle
 10
11.60209
 20
-28.136149
 30
0.0
 40
1.5
100
AcDbArc
 50
253.0
 51
312.534455
  0
LINE
  5
118
100
AcDbEntity
  8
8
370
    50
100
AcDbLine
 10
9.84598
 20
-26.55356
 30
0.0
 11
13.193047
 21
-27.576861
 31
0.0
  0
ARC
  5
119
100
AcDbEntity
  8
8
370
    50
100
AcDbCircle
 10
13.046861
 20
-28.055014
 30
0.0
 40
0.5
100
AcDbArc
 50
343.0
 51
73.0
  0
LINE
  5
11A
100
AcDbEntity
  8
8
370
    50
100
AcDbLine
 10
13.525013
 20
-28.2012
 30
0.0
 11
13.437302
 21
-28.488091
 31
0.0
  0
LINE
  5
11B
100
AcDbEntity
  8
8
370
    50
100
AcDbLine
 10
-1.812443
 20
-3.121079
 30
0.0
 11
-13.2881
 21
0.387381
 31
0.0
  0
LINE
  5
11C
100
AcDbEntity
  8
8
370
    50
100
AcDbLine
 10
9.663214
 20
-6.62954
 30
0.0
 11
-1.812443
 21
-3.121079
 31
0.0
  0
LINE
  5
11D
100
AcDbEntity
  8
8
370
    50
100
AcDbLine
 10
-17.306636
 20
-44.394467
 30
0.0
 11
-9.560568
 21
-46.762677
 31
0.0
  0
LINE
  5
11E
100
AcDbEntity
  8
8
370
    50
100
AcDbLine
 10
-12.353033
 20
-49.568856
 30
0.0
 11
-11.357133
 21
-51.441871
 31
0.0
  0
LINE
  5
11F
100
AcDbEntity
  8
8
370
    50
100
AcDbLine
 10
-11.357133
 20
-51.441871
 30
0.0
 11
-8.966371
 21
-52.1728
 31
0.0
  0
LINE
  5
120
100
AcDbEntity
  8
8
370
    50
100
AcDbLine
 10
-8.673999
 20
-51.216496
 30
0.0
 11
-8.966371
 21
-52.1728
 31
0.0
  0
LINE
  5
121
100
AcDbEntity
  8
8
370
    50
100
AcDbLine
 10
-9.337932
 20
-49.967819
 30
0.0
 11
-8.673999
 21
-51.216496
 31
0.0
  0
LINE
  5
122
100
AcDbEntity
  8
8
370
    50
100
AcDbLine
 10
-16.283335
 20
-41.0474
 30
0.0
 11
-17.745194
 21
-45.828924
 31
0.0
  0
LINE
  5
123
100
AcDbEntity
  8
8
370
    50
100
AcDbLine
 10
-17.745194
 20
-45.828924
 30
0.0
 11
-16.417328
 21
-48.326277
 31
0.0
  0
ARC
  5
124
100
AcDbEntity
  8
8
370
    50
100
AcDbCircle
 10
7.078056
 20
-9.77058
 30
0.0
 40
3.760005
100
AcDbArc
 50
30.21775
 51
115.78225
  0
ARC
  5
125
100
AcDbEntity
  8
8
370
    50
100
AcDbCircle
 10
-5.613275
 20
-15.553041
 30
0.0
 40
13.0
100
AcDbArc
 50
50.380135
 51
73.0
  0
LINE
  5
126
100
AcDbEntity
  8
8
370
    50
100
AcDbLine
 10
5.442634
 20
-6.384871
 30
0.0
 11
2.676709
 21
-5.539243
 31
0.0
  0
ARC
  5
127
100
AcDbEntity
  8
8
370
    50
100
AcDbCircle
 10
6.060379
 20
-13.09925
 30
0.0
 40
3.760005
100
AcDbArc
 50
210.21775
 51
295.78225
  0
LINE
  5
128
100
AcDbEntity
  8
8
370
    50
100
AcDbLine
 10
2.811288
 20
-14.991614
 30
0.0
 11
0.045363
 21
-14.145986
 31
0.0
  0
ARC
  5
129
100
AcDbEntity
  8
8
370
    50
100
AcDbCircle
 10
-1.2277
 20
-1.20847
 30
0.0
 40
13.0
100
AcDbArc
 50
253.0
 51
275.619865
  0
LINE
  5
12A
100
AcDbEntity
  8
8
370
    50
100
AcDbLine
 10
2.676709
 20
-5.539243
 30
0.0
 11
0.045363
 21
-14.145986
 31
0.0
  0
LINE
  5
12B
100
AcDbEntity
  8
8
370
    50
100
AcDbLine
 10
5.442634
 20
-6.384871
 30
0.0
 11
2.811288
 21
-14.991614
 31
0.0
  0
LINE
  5
12C
100
AcDbEntity
  8
8
370
    50
100
AcDbLine
 10
-0.349168
 20
-19.253824
 30
0.0
 11
0.397761
 21
-23.66495
 31
0.0
  0
LINE
  5
12D
100
AcDbEntity
  8
8
370
    50
100
AcDbLine
 10
1.3072
 20
-19.760226
 30
0.0
 11
2.054129
 21
-24.171353
 31
0.0
  0
LINE
  5
12E
100
AcDbEntity
  8
8
370
    50
100
AcDbLine
 10
1.3072
 20
-19.760226
 30
0.0
 11
-0.349168
 21
-19.253824
 31
0.0
  0
LINE
  5
12F
100
AcDbEntity
  8
8
370
    50
100
AcDbLine
 10
-7.367506
 20
-21.29087
 30
0.0
 11
9.84598
 21
-26.55356
 31
0.0
  0
LINE
  5
130
100
AcDbEntity
  8
8
370
    50
100
AcDbLine
 10
-0.349168
 20
-19.253824
 30
0.0
 11
-1.226284
 21
-22.122738
 31
0.0
  0
ARC
  5
131
100
AcDbEntity
  8
8
370
    50
100
AcDbCircle
 10
-0.269979
 20
-22.41511
 30
0.0
 40
1.0
100
AcDbArc
 50
163.0
 51
253.0
  0
LINE
  5
132
100
AcDbEntity
  8
8
370
    50
100
AcDbLine
 10
8.272023
 20
-18.020527
 30
0.0
 11
-5.116244
 21
-13.927323
 31
0.0
  0
LINE
  5
133
100
AcDbEntity
  8
8
370
    50
100
AcDbLine
 10
13.437302
 20
-28.488091
 30
0.0
 11
-7.601403
 21
-22.055914
 31
0.0
  0
LINE
  5
134
100
AcDbEntity
  8
8
370
    50
100
AcDbLine
 10
6.447125
 20
-17.148892
 30
0.0
 11
-5.028532
 21
-13.640432
 31
0.0
  0
LINE
  5
135
100
AcDbEntity
  8
8
370
    50
100
AcDbLine
 10
-3.237407
 20
-34.631308
 30
0.0
 11
-10.744399
 21
-32.33619
 31
0.0
  0
LINE
  5
136
100
AcDbEntity
  8
8
370
    50
100
AcDbLine
 10
-2.550634
 20
-34.266144
 30
0.0
 11
-10.583594
 21
-31.810222
 31
0.0
  0
LINE
  5
137
100
AcDbEntity
  8
8
370
    50
100
AcDbLine
 10
-2.311774
 20
-33.284509
 30
0.0
 11
-10.288715
 21
-30.845714
 31
0.0
  0
LINE
  5
138
100
AcDbEntity
  8
8
370
    50
100
AcDbLine
 10
-3.301978
 20
-31.422206
 30
0.0
 11
-9.852665
 21
-29.41946
 31
0.0
  0
LINE
  5
139
100
AcDbEntity
  8
8
370
    50
100
AcDbLine
 10
-2.717234
 20
-29.509597
 30
0.0
 11
-9.267922
 21
-27.506851
 31
0.0
  0
LINE
  5
13A
100
AcDbEntity
  8
8
370
    50
100
AcDbLine
 10
-0.539577
 20
-27.688272
 30
0.0
 11
-8.572537
 21
-25.23235
 31
0.0
  0
LINE
  5
13B
100
AcDbEntity
  8
8
370
    50
100
AcDbLine
 10
-16.417328
 20
-48.326277
 30
0.0
 11
-9.962271
 21
-50.299786
 31
0.0
  0
LINE
  5
13C
100
AcDbEntity
  8
9
370
    25
  6
CENTER
100
AcDbLine
 10
-35.048618
 20
49.924232
 30
0.0
 11
17.975693
 21
5.431552
 31
0.0
  0
ARC
  5
13D
100
AcDbEntity
  8
9
370
    50
100
AcDbCircle
 10
28.520282
 20
94.122005
 30
0.0
 40
100.0
100
AcDbArc
 50
218.537652
 51
238.388164
  0
ARC
  5
13E
100
AcDbEntity
  8
9
370
    50
100
AcDbCircle
 10
66.376978
 20
-35.181999
 30
0.0
 40
140.0
100
AcDbArc
 50
143.788374
 51
146.34007
  0
ARC
  5
13F
100
AcDbEntity
  8
9
370
    50
100
AcDbCircle
 10
-42.659817
 20
37.426384
 30
0.0
 40
9.0
100
AcDbArc
 50
146.34007
 51
218.537652
  0
ARC
  5
140
100
AcDbEntity
  8
9
370
    50
100
AcDbCircle
 10
-19.702607
 20
15.773087
 30
0.0
 40
8.0
100
AcDbArc
 50
238.388164
 51
320.0
  0
LINE
  5
141
100
AcDbEntity
  8
9
370
    50
100
AcDbLine
 10
-46.733426
 20
48.306585
 30
0.0
 11
-46.259292
 21
47.908739
 31
0.0
  0
ARC
  5
142
100
AcDbEntity
  8
9
370
    50
100
AcDbCircle
 10
-46.090639
 20
49.07263
 30
0.0
 40
1.0
100
AcDbArc
 50
145.629843
 51
230.0
  0
ARC
  5
143
100
AcDbEntity
  8
9
370
    50
100
AcDbCircle
 10
19.116566
 20
4.474195
 30
0.0
 40
80.0
100
AcDbArc
 50
139.999972
 51
145.629843
  0
LINE
  5
144
100
AcDbEntity
  8
9
370
    50
100
AcDbLine
 10
-46.580686
 20
47.525717
 30
0.0
 11
-40.634875
 21
54.611658
 31
0.0
  0
ARC
  5
145
100
AcDbEntity
  8
9
370
    50
100
AcDbCircle
 10
19.124769
 20
4.483971
 30
0.0
 40
80.0
100
AcDbArc
 50
134.370157
 51
140.009112
  0
ARC
  5
146
100
AcDbEntity
  8
9
370
    50
100
AcDbCircle
 10
-36.119228
 20
60.956095
 30
0.0
 40
1.0
100
AcDbArc
 50
50.0
 51
134.370157
  0
LINE
  5
147
100
AcDbEntity
  8
9
370
    50
100
AcDbLine
 10
-34.680912
 20
61.707316
 30
0.0
 11
-40.634876
 21
54.611659
 31
0.0
  0
ARC
  5
148
100
AcDbEntity
  8
9
370
    50
100
AcDbCircle
 10
66.38518
 20
-35.172222
 30
0.0
 40
140.0
100
AcDbArc
 50
133.65993
 51
136.211626
  0
ARC
  5
149
100
AcDbEntity
  8
9
370
    50
100
AcDbCircle
 10
-24.054159
 20
59.599746
 30
0.0
 40
9.0
100
AcDbArc
 50
61.462348
 51
133.65993
  0
ARC
  5
14A
100
AcDbEntity
  8
9
370
    50
100
AcDbCircle
 10
-67.528152
 20
-20.34406
 30
0.0
 40
100.0
100
AcDbArc
 50
41.611836
 51
61.462348
  0
ARC
  5
14B
100
AcDbEntity
  8
9
370
    50
100
AcDbCircle
 10
1.256653
 20
40.751362
 30
0.0
 40
8.0
100
AcDbArc
 50
320.0
 51
41.611836
  0
LINE
  5
14C
100
AcDbEntity
  8
9
370
    50
100
AcDbLine
 10
7.385009
 20
35.609062
 30
0.0
 11
-13.574252
 21
10.630787
 31
0.0
  0
LINE
  5
14D
100
AcDbEntity
  8
9
370
    50
100
AcDbLine
 10
-35.476441
 20
61.72214
 30
0.0
 11
-35.002306
 21
61.324294
 31
0.0
  0
ARC
  5
14E
100
AcDbEntity
  8
9
370
    50
100
AcDbCircle
 10
-89.596454
 20
-47.445504
 30
0.0
 40
120.0
100
AcDbArc
 50
45.059572
 51
59.155483
  0
ARC
  5
14F
100
AcDbEntity
  8
9
370
    50
100
AcDbCircle
 10
-32.644576
 20
47.923609
 30
0.0
 40
8.91992
100
AcDbArc
 50
59.155483
 51
140.081724
  0
ARC
  5
150
100
AcDbEntity
  8
9
370
    50
100
AcDbCircle
 10
-11.843429
 20
30.469374
 30
0.0
 40
9.926111
100
AcDbArc
 50
319.92656
 51
45.059572
  0
LINE
  5
151
100
AcDbEntity
  8
9
370
    50
100
AcDbLine
 10
-28.625122
 20
63.479293
 30
0.0
 11
2.7827
 21
37.125001
 31
0.0
  0
ARC
  5
152
100
AcDbEntity
  8
9
370
    50
100
AcDbCircle
 10
-67.528152
 20
-20.34406
 30
0.0
 40
99.5
100
AcDbArc
 50
42.362481
 51
61.528523
  0
ARC
  5
153
100
AcDbEntity
  8
9
370
    50
100
AcDbCircle
 10
-23.908161
 20
60.089431
 30
0.0
 40
8.0
100
AcDbArc
 50
61.528523
 51
124.882653
  0
ARC
  5
154
100
AcDbEntity
  8
9
370
    50
100
AcDbCircle
 10
-27.339547
 20
65.011382
 30
0.0
 40
2.0
100
AcDbArc
 50
124.882653
 51
230.0
  0
ARC
  5
155
100
AcDbEntity
  8
9
370
    50
100
AcDbCircle
 10
4.711063
 20
39.423134
 30
0.0
 40
3.0
100
AcDbArc
 50
230.0
 51
337.824603
  0
ARC
  5
156
100
AcDbEntity
  8
9
370
    50
100
AcDbCircle
 10
0.080899
 20
41.31035
 30
0.0
 40
8.0
100
AcDbArc
 50
337.824603
 51
42.362481
  0
LINE
  5
157
100
AcDbEntity
  8
9
370
    50
100
AcDbLine
 10
5.257541
 20
33.073643
 30
0.0
 11
-3.098698
 21
23.115066
 31
0.0
  0
ARC
  5
158
100
AcDbEntity
  8
9
370
    50
100
AcDbCircle
 10
51.36972
 20
120.55144
 30
0.0
 40
120.0
100
AcDbArc
 50
220.844517
 51
234.940428
  0
ARC
  5
159
100
AcDbEntity
  8
9
370
    50
100
AcDbCircle
 10
-32.660932
 20
47.904117
 30
0.0
 40
8.91992
100
AcDbArc
 50
139.918276
 51
220.844517
  0
ARC
  5
15A
100
AcDbEntity
  8
9
370
    50
100
AcDbCircle
 10
-11.859785
 20
30.449882
 30
0.0
 40
9.926111
100
AcDbArc
 50
234.940428
 51
320.07344
  0
LINE
  5
15B
100
AcDbEntity
  8
9
370
    50
100
AcDbLine
 10
-47.282319
 20
41.244511
 30
0.0
 11
-15.874497
 21
14.890219
 31
0.0
  0
ARC
  5
15C
100
AcDbEntity
  8
9
370
    50
100
AcDbCircle
 10
28.512128
 20
94.112289
 30
0.0
 40
99.5
100
AcDbArc
 50
218.471477
 51
237.637519
  0
ARC
  5
15D
100
AcDbEntity
  8
9
370
    50
100
AcDbCircle
 10
-43.124865
 20
37.187855
 30
0.0
 40
8.0
100
AcDbArc
 50
155.117347
 51
218.471477
  0
ARC
  5
15E
100
AcDbEntity
  8
9
370
    50
100
AcDbCircle
 10
-48.567894
 20
39.712422
 30
0.0
 40
2.0
100
AcDbArc
 50
50.0
 51
155.117347
  0
ARC
  5
15F
100
AcDbEntity
  8
9
370
    50
100
AcDbCircle
 10
-17.80286
 20
12.592086
 30
0.0
 40
3.0
100
AcDbArc
 50
302.175397
 51
50.0
  0
ARC
  5
160
100
AcDbEntity
  8
9
370
    50
100
AcDbCircle
 10
-20.465424
 20
16.824195
 30
0.0
 40
8.0
100
AcDbArc
 50
237.637519
 51
302.175397
  0
ENDSEC
  0
SECTION
  2
OBJECTS
  0
DICTIONARY
  5
281
100
AcDbDictionary
280
     0
281
     1
  3
ACAD_GROUP
350
282
  3
ACAD_MLINESTYLE
350
283
  0
DICTIONARY
  5
282
102
{ACAD_REACTORS
330
281
102
}
100
AcDbDictionary
280
     0
281
     1
  0
DICTIONARY
  5
283
102
{ACAD_REACTORS
330
281
102
}
100
AcDbDictionary
280
     0
281
     1
  3
Standard
350
284
  0
MLINESTYLE
  5
284
102
{ACAD_REACTORS
330
283
102
}
100
AcDbMlineStyle
  2
Standard
 70
     0
  3

 62
     0
 51
90.0
 52
90.0
 71
     2
 49
0.5
 62
   256
  6
ByLayer
 49
-0.5
 62
   256
  6
ByLayer
  0
ENDSEC
  0
EOF
