  0
SECTION
  2
HEADER
  9
$ACADVER
  1
AC1015
  9
$ACADMAINTVER
 70
     6
  9
$DWGCODEPAGE
  3
ANSI_932
  9
$INSBASE
 10
0.0
 20
0.0
 30
0.0
  9
$EXTMIN
 10
-420.5
 20
-297.0
 30
1.000000E+20
  9
$EXTMAX
 10
420.5
 20
297.0
 30
-1.000000E+20
  9
$LIMMIN
 10
-420.5
 20
-297.0
  9
$LIMMAX
 10
420.5
 20
297.0
  9
$ORTHOMODE
 70
     0
  9
$REGENMODE
 70
     1
  9
$FILLMODE
 70
     1
  9
$QTEXTMODE
 70
     0
  9
$MIRRTEXT
 70
     1
  9
$LTSCALE
 40
1.0
  9
$ATTMODE
 70
     1
  9
$TEXTSIZE
 40
0.2
  9
$TRACEWID
 40
0.05
  9
$TEXTSTYLE
  7
STANDARD
  9
$CLAYER
  8
0
  9
$CELTYPE
  6
CONTINUOUS
  9
$CECOLOR
 62
   256
  9
$CELTSCALE
 40
1.0
  9
$DISPSILH
 70
     0
  9
$DIMSCALE
 40
1.0
  9
$DIMASZ
 40
2.0
  9
$DIMEXO
 40
1.0
  9
$DIMDLI
 40
0.38
  9
$DIMRND
 40
0.0
  9
$DIMDLE
 40
0.0
  9
$DIMEXE
 40
2.0
  9
$DIMTP
 40
0.0
  9
$DIMTM
 40
0.0
  9
$DIMTXT
 40
3.5
  9
$DIMCEN
 40
0.09
  9
$DIMTSZ
 40
0.0
  9
$DIMTOL
 70
     0
  9
$DIMLIM
 70
     0
  9
$DIMTIH
 70
     0
  9
$DIMTOH
 70
     0
  9
$DIMSE1
 70
     0
  9
$DIMSE2
 70
     0
  9
$DIMTAD
 70
     1
  9
$DIMZIN
 70
     0
  9
$DIMBLK
  1

  9
$DIMASO
 70
     1
  9
$DIMSHO
 70
     1
  9
$DIMPOST
  1

  9
$DIMAPOST
  1

  9
$DIMALT
 70
     0
  9
$DIMALTD
 70
     2
  9
$DIMALTF
 40
25.4
  9
$DIMLFAC
 40
1.0
  9
$DIMTOFL
 70
     0
  9
$DIMTVP
 40
0.0
  9
$DIMTIX
 70
     0
  9
$DIMSOXD
 70
     0
  9
$DIMSAH
 70
     0
  9
$DIMBLK1
  1

  9
$DIMBLK2
  1

  9
$DIMSTYLE
  2
Standard
  9
$DIMCLRD
 70
     0
  9
$DIMCLRE
 70
     0
  9
$DIMCLRT
 70
     0
  9
$DIMTFAC
 40
1.0
  9
$DIMGAP
 40
0.5
  9
$DIMJUST
 70
     0
  9
$DIMSD1
 70
     0
  9
$DIMSD2
 70
     0
  9
$DIMTOLJ
 70
     1
  9
$DIMTZIN
 70
     0
  9
$DIMALTZ
 70
     0
  9
$DIMALTTZ
 70
     0
  9
$DIMUPT
 70
     0
  9
$DIMDEC
 70
     3
  9
$DIMTDEC
 70
     4
  9
$DIMALTU
 70
     2
  9
$DIMALTTD
 70
     2
  9
$DIMTXSTY
  7
STANDARD
  9
$DIMAUNIT
 70
     0
  9
$DIMADEC
 70
     0
  9
$DIMALTRND
 40
0.0
  9
$DIMAZIN
 70
     0
  9
$DIMDSEP
 70
     0
  9
$DIMATFIT
 70
     3
  9
$DIMFRAC
 70
     0
  9
$DIMLDRBLK
  1

  9
$DIMLUNIT
 70
     2
  9
$DIMLWD
 70
     0
  9
$DIMLWE
 70
     0
  9
$DIMTMOVE
 70
     0
  9
$LUNITS
 70
     2
  9
$LUPREC
 70
     4
  9
$SKETCHINC
 40
0.1
  9
$FILLETRAD
 40
0.0
  9
$AUNITS
 70
     0
  9
$AUPREC
 70
     0
  9
$MENU
  1
acad
  9
$ELEVATION
 40
0.0
  9
$PELEVATION
 40
0.0
  9
$THICKNESS
 40
0.0
  9
$LIMCHECK
 70
     0
  9
$CHAMFERA
 40
0.0
  9
$CHAMFERB
 40
0.0
  9
$CHAMFERC
 40
0.0
  9
$CHAMFERD
 40
0.0
  9
$SKPOLY
 70
     0
  9
$TDCREATE
 40
2453383.000000000
  9
$TDUCREATE
 40
0.000000000
  9
$TDUPDATE
 40
0.000000000
  9
$TDUUPDATE
 40
2447892.625000000
  9
$TDINDWG
 40
0.0000000000
  9
$TDUSRTIMER
 40
0.0000000000
  9
$USRTIMER
 70
     1
  9
$ANGBASE
 50
0.0
  9
$ANGDIR
 70
     0
  9
$PDMODE
 70
     0
  9
$PDSIZE
 40
0.0
  9
$PLINEWID
 40
0.0
  9
$SPLFRAME
 70
     0
  9
$SPLINETYPE
 70
     6
  9
$SPLINESEGS
 70
     8
  9
$HANDSEED
  5
1FD
  9
$SURFTAB1
 70
     6
  9
$SURFTAB2
 70
     6
  9
$SURFTYPE
 70
     6
  9
$SURFU
 70
     6
  9
$SURFV
 70
     6
  9
$UCSBASE
  2

  9
$UCSNAME
  2

  9
$UCSORG
 10
0.0
 20
0.0
 30
0.0
  9
$UCSXDIR
 10
1.0
 20
0.0
 30
0.0
  9
$UCSYDIR
 10
0.0
 20
1.0
 30
0.0
  9
$UCSORTHOREF
  2

  9
$UCSORTHOVIEW
 70
     0
  9
$UCSORGTOP
 10
0.0
 20
0.0
 30
0.0
  9
$UCSORGBOTTOM
 10
0.0
 20
0.0
 30
0.0
  9
$UCSORGLEFT
 10
0.0
 20
0.0
 30
0.0
  9
$UCSORGRIGHT
 10
0.0
 20
0.0
 30
0.0
  9
$UCSORGFRONT
 10
0.0
 20
0.0
 30
0.0
  9
$UCSORGBACK
 10
0.0
 20
0.0
 30
0.0
  9
$PUCSBASE
  2

  9
$PUCSNAME
  2

  9
$PUCSORG
 10
0.0
 20
0.0
 30
0.0
  9
$PUCSXDIR
 10
1.0
 20
0.0
 30
0.0
  9
$PUCSYDIR
 10
0.0
 20
1.0
 30
0.0
  9
$PUCSORTHOREF
  2

  9
$PUCSORTHOVIEW
 70
     0
  9
$PUCSORGTOP
 10
0.0
 20
0.0
 30
0.0
  9
$PUCSORGBOTTOM
 10
0.0
 20
0.0
 30
0.0
  9
$PUCSORGLEFT
 10
0.0
 20
0.0
 30
0.0
  9
$PUCSORGRIGHT
 10
0.0
 20
0.0
 30
0.0
  9
$PUCSORGFRONT
 10
0.0
 20
0.0
 30
0.0
  9
$PUCSORGBACK
 10
0.0
 20
0.0
 30
0.0
  9
$USERI1
 70
     0
  9
$USERI2
 70
     0
  9
$USERI3
 70
     0
  9
$USERI4
 70
     0
  9
$USERI5
 70
     0
  9
$USERR1
 40
0.0
  9
$USERR2
 40
0.0
  9
$USERR3
 40
0.0
  9
$USERR4
 40
0.0
  9
$USERR5
 40
0.0
  9
$WORLDVIEW
 70
     1
  9
$SHADEDGE
 70
     3
  9
$SHADEDIF
 70
    70
  9
$TILEMODE
 70
     1
  9
$MAXACTVP
 70
    16
  9
$PINSBASE
 10
0.0
 20
0.0
 30
0.0
  9
$PLIMCHECK
 70
     0
  9
$PEXTMIN
 10
1.000000E+20
 20
1.000000E+20
 30
1.000000E+20
  9
$PEXTMAX
 10
-1.000000E+20
 20
-1.000000E+20
 30
-1.000000E+20
  9
$PLIMMIN
 10
0.0
 20
0.0
  9
$PLIMMAX
 10
12.0
 20
9.0
  9
$UNITMODE
 70
     0
  9
$VISRETAIN
 70
     0
  9
$PLINEGEN
 70
     1
  9
$PSLTSCALE
 70
     0
  9
$TREEDEPTH
 70
  3020
  9
$CMLSTYLE
  2
Standard
  9
$CMLJUST
 70
     0
  9
$CMLSCALE
 40
1.0
  9
$PROXYGRAPHICS
 70
     0
  9
$MEASUREMENT
 70
     0
  9
$CELWEIGHT
370
     0
  9
$ENDCAPS
280
     0
  9
$JOINSTYLE
280
     0
  9
$LWDISPLAY
290
     0
  9
$INSUNITS
 70
     0
  9
$HYPERLINKBASE
  1

  9
$STYLESHEET
  1

  9
$XEDIT
290
     1
  9
$CEPSNTYPE
380
     0
  9
$PSTYLEMODE
290
     1
  9
$FINGERPRINTGUID
  2

  9
$VERSIONGUID
  2

  9
$EXTNAMES
290
     1
  9
$PSVPSCALE
 40
0.0
  0
ENDSEC
  0
SECTION
  2
CLASSES
  0
CLASS
  1
LWPOLYLINE
  2
AcDbPolyline
  3
AutoCAD 2000
 90
        0
280
     0
281
     1
  0
CLASS
  1
IMAGE
  2
AcDbRasterImage
  3
ISM
 90
      127
280
     0
281
     1
  0
CLASS
  1
OLE2FRAME
  2
AcDbOle2Frame
  3
AutoCAD 2000
 90
        0
280
     0
281
     1
  0
CLASS
  1
HATCH
  2
AcDbHatch
  3
AutoCAD 2000
 90
        0
280
     0
281
     1
  0
CLASS
  1
DICTIONARYVAR
  2
AcDbDictionaryVar
  3
AutoCAD 2000
 90
        0
280
     0
281
     0
  0
CLASS
  1
RASTERVARIABLES
  2
AcDbRasterVariables
  3
ISM
 90
        0
280
     0
281
     0
  0
CLASS
  1
IMAGEDEF
  2
AcDbRasterImageDef
  3
ISM
 90
        0
280
     0
281
     0
  0
CLASS
  1
IMAGEDEF_REACTOR
  2
AcDbRasterImageDefReactor
  3
ISM
 90
        1
280
     0
281
     0
  0
CLASS
  1
IDBUFFER
  2
AcDbIdBuffer
  3
AutoCAD 2000
 90
        0
280
     0
281
     0
  0
CLASS
  1
SPATIAL_FILTER
  2
AcDbSpatialFilter
  3
AutoCAD 2000
 90
        0
280
     0
281
     0
  0
CLASS
  1
XRECORD
  2
AcDbXrecord
  3
AutoCAD 2000
 90
        0
280
     0
281
     0
  0
CLASS
  1
SORTENTSTABLE
  2
AcDbSortentsTable
  3
AutoCAD 2000
 90
        0
280
     0
281
     0
  0
CLASS
  1
LAYER_INDEX
  2
AcDbLayerIndex
  3
AutoCAD 2000
 90
        0
280
     0
281
     0
  0
CLASS
  1
SPATIAL_INDEX
  2
AcDbSpatialIndex
  3
AutoCAD 2000
 90
        0
280
     0
281
     0
  0
CLASS
  1
OBJECT_PTR
  2
CAseDLPNTableRecord
  3
"ASE-LPNTableRecord"
 90
        1
280
     0
281
     0
  0
CLASS
  1
LAYOUT
  2
AcDbLayout
  3
AutoCAD 2000
 90
        0
280
     0
281
     0
  0
CLASS
  1
PLOTSETTINGS
  2
AcDbPlotSettings
  3
AutoCAD 2000
 90
        0
280
     0
281
     0
  0
CLASS
  1
ACDBDICTIONARYWDFLT
  2
AcDbDictionaryWithDefault
  3
AutoCAD 2000
 90
        0
280
     0
281
     0
  0
CLASS
  1
ACDBPLACEHOLDER
  2
AcDbPlaceHolder
  3
AutoCAD 2000
 90
        0
280
     0
281
     0
  0
CLASS
  1
VBA_PROJECT
  2
AcDbVbaProject
  3
acadvba
 90
        0
280
     0
281
     0
  0
CLASS
  1
WIPEOUT
  2
AcDbWipeout
  3
WipeOut|AutoCAD Express Tool|expresstools@autodesk.com
 90
      127
280
     0
281
     1
  0
CLASS
  1
WIPEOUTVARIABLES
  2
AcDbWipeoutVariables
  3
WipeOut|AutoCAD Express Tool|expresstools@autodesk.com
 90
        0
280
     0
281
     0
  0
CLASS
  1
RTEXT
  2
RText
  3
RText|AutoCAD Express Tool|expresstools@autodesk.com
 90
        0
280
     0
281
     1
  0
CLASS
  1
ARCALIGNEDTEXT
  2
AcDbArcAlignedText
  3
ATEXT|AutoCAD Express Tool|expresstools@autodesk.com
 90
        0
280
     0
281
     1
  0
ENDSEC
  0
SECTION
  2
TABLES
  0
TABLE
  2
VPORT
  5
6
100
AcDbSymbolTable
 70
     1
  0
VPORT
  5
19
100
AcDbSymbolTableRecord
100
AcDbViewportTableRecord
  2
*ACTIVE
 70
     0
 10
0.0
 20
0.0
 11
1.0
 21
1.0
 12
0.0
 22
0.0
 13
0.0
 23
0.0
 14
1.0
 24
1.0
 15
0.0
 25
0.0
 16
0.0
 26
0.0
 36
1.0
 17
0.0
 27
0.0
 37
0.0
 40
594.0
 41
1.415825
 42
50.0
 43
0.0
 44
0.0
 50
0.0
 51
0.0
 71
     0
 72
   500
 73
     1
 74
     1
 75
     0
 76
     0
 77
     0
 78
     0
281
     0
 65
     0
110
0.0
120
0.0
130
0.0
111
1.0
121
0.0
131
0.0
112
0.0
122
1.0
132
0.0
345
0
346
0
 79
     0
146
0.0
  0
ENDTAB
  0
TABLE
  2
LTYPE
  5
3
100
AcDbSymbolTable
 70
     9
  0
LTYPE
  5
C
100
AcDbSymbolTableRecord
100
AcDbLinetypeTableRecord
  2
ByBlock
 70
    64
  3

 72
    65
 73
     0
 40
0.0
  0
LTYPE
  5
D
100
AcDbSymbolTableRecord
100
AcDbLinetypeTableRecord
  2
ByLayer
 70
    64
  3

 72
    65
 73
     0
 40
0.0
  0
LTYPE
  5
E
100
AcDbSymbolTableRecord
100
AcDbLinetypeTableRecord
  2
CONTINUOUS
 70
     0
  3
Solid line
 72
    65
 73
     0
 40
0.0
  0
LTYPE
  5
F
100
AcDbSymbolTableRecord
100
AcDbLinetypeTableRecord
  2
DASHED
 70
     0
  3
__ __ __ __ __ __ __ __ __ __ __ __ __ __ __
 72
    65
 73
     2
 40
2.0
 49
1.2
 74
     0
 49
-0.8
 74
     0
  0
LTYPE
  5
10
100
AcDbSymbolTableRecord
100
AcDbLinetypeTableRecord
  2
CENTER
 70
     0
  3
____ _ ____ _ ____ _ ____ _ ____ _ ____ _ ____
 72
    65
 73
     4
 40
12.0
 49
9.0
 74
     0
 49
-1.0
 74
     0
 49
1.0
 74
     0
 49
-1.0
 74
     0
  0
LTYPE
  5
11
100
AcDbSymbolTableRecord
100
AcDbLinetypeTableRecord
  2
HIDDEN
 70
     0
  3
_ _ _ _ _ _ _ _ _ _ _ _ _ _ _ _ _ _ _ _ _ _ _
 72
    65
 73
     2
 40
3.2
 49
2.4
 74
     0
 49
-0.8
 74
     0
  0
LTYPE
  5
12
100
AcDbSymbolTableRecord
100
AcDbLinetypeTableRecord
  2
PHANTOM
 70
     0
  3
_____ _ _ _____ _ _ _____ _ _ _____ _ _ _____
 72
    65
 73
     6
 40
13.5
 49
9.0
 74
     0
 49
-1.0
 74
     0
 49
1.0
 74
     0
 49
-0.5
 74
     0
 49
1.0
 74
     0
 49
-1.0
 74
     0
  0
LTYPE
  5
13
100
AcDbSymbolTableRecord
100
AcDbLinetypeTableRecord
  2
DOT
 70
     0
  3
...............................................
 72
    65
 73
     2
 40
1.0
 49
0.5
 74
     0
 49
-0.5
 74
     0
  0
LTYPE
  5
14
100
AcDbSymbolTableRecord
100
AcDbLinetypeTableRecord
  2
DASHDOT
 70
     0
  3
__ . __ . __ . __ . __ . __ . __ . __ . __ . __
 72
    65
 73
     4
 40
8.0
 49
5.0
 74
     0
 49
-1.0
 74
     0
 49
1.0
 74
     0
 49
-1.0
 74
     0
  0
ENDTAB
  0
TABLE
  2
LAYER
  5
1
100
AcDbSymbolTable
 70
     4
  0
LAYER
  5
15
100
AcDbSymbolTableRecord
100
AcDbLayerTableRecord
  2
0
 70
     0
 62
     7
  6
CONTINUOUS
290
     1
370
    -3
390
0
  0
LAYER
  5
16
100
AcDbSymbolTableRecord
100
AcDbLayerTableRecord
  2
1
 70
     0
 62
     7
  6
CONTINUOUS
290
     1
370
    -3
390
0
  0
LAYER
  5
17
100
AcDbSymbolTableRecord
100
AcDbLayerTableRecord
  2
2
 70
     0
 62
     7
  6
CONTINUOUS
290
     1
370
    -3
390
0
  0
LAYER
  5
18
100
AcDbSymbolTableRecord
100
AcDbLayerTableRecord
  2
3
 70
     0
 62
     7
  6
CONTINUOUS
290
     1
370
    -3
390
0
  0
ENDTAB
  0
TABLE
  2
STYLE
  5
2
100
AcDbSymbolTable
 70
     1
  0
STYLE
  5
1B
100
AcDbSymbolTableRecord
100
AcDbTextStyleTableRecord
  2
STANDARD
 70
    64
 40
0.0
 41
1.0
 50
0.0
 71
     0
 42
1.0
  3
txt
  4
BIGFONT
  0
ENDTAB
  0
TABLE
  2
VIEW
  5
4
100
AcDbSymbolTable
 70
     0
  0
ENDTAB
  0
TABLE
  2
UCS
  5
5
100
AcDbSymbolTable
 70
     0
  0
ENDTAB
  0
TABLE
  2
APPID
  5
7
100
AcDbSymbolTable
 70
     1
  0
APPID
  5
1A
100
AcDbSymbolTableRecord
100
AcDbRegAppTableRecord
  2
ACAD
 70
     0
  0
ENDTAB
  0
TABLE
  2
DIMSTYLE
  5
8
100
AcDbSymbolTable
 70
     1
100
AcDbDimStyleTable
 71
     0
  0
DIMSTYLE
105
2B
100
AcDbSymbolTableRecord
100
AcDbDimStyleTableRecord
  2
Standard
 70
     0
  3

  4

 40
1.0
 41
2.0
 42
1.0
 43
0.38
 44
2.0
 45
0.0
 46
0.0
 47
0.0
 48
0.0
 71
     0
 72
     0
 73
     0
 74
     0
 75
     0
 76
     0
 77
     1
 78
     0
 79
     0
140
3.5
141
0.09
142
0.0
143
25.4
144
1.0
145
0.0
146
1.0
147
0.5
148
0.0
170
     0
171
     2
172
     0
173
     0
174
     0
175
     0
176
     0
177
     0
178
     0
179
     0
271
     3
272
     4
273
     2
274
     2
275
     0
276
     0
277
     2
278
    46
279
     0
280
     0
281
     0
282
     0
283
     1
284
     0
285
     0
286
     0
288
     0
289
     3
340
1B
341
0
342
0
343
0
344
0
371
    -2
372
    -2
  0
ENDTAB
  0
TABLE
  2
BLOCK_RECORD
  5
26
100
AcDbSymbolTable
 70
     8
  0
BLOCK_RECORD
  5
24
100
AcDbSymbolTableRecord
100
AcDbBlockTableRecord
  2
*Model_Space
340
0
  0
BLOCK_RECORD
  5
25
100
AcDbSymbolTableRecord
100
AcDbBlockTableRecord
  2
*Paper_Space
340
0
  0
BLOCK_RECORD
  5
1C
100
AcDbSymbolTableRecord
100
AcDbBlockTableRecord
  2
*D0
340
0
  0
BLOCK_RECORD
  5
1D
100
AcDbSymbolTableRecord
100
AcDbBlockTableRecord
  2
*D1
340
0
  0
BLOCK_RECORD
  5
1E
100
AcDbSymbolTableRecord
100
AcDbBlockTableRecord
  2
*D2
340
0
  0
BLOCK_RECORD
  5
1F
100
AcDbSymbolTableRecord
100
AcDbBlockTableRecord
  2
*D3
340
0
  0
BLOCK_RECORD
  5
20
100
AcDbSymbolTableRecord
100
AcDbBlockTableRecord
  2
*D4
340
0
  0
BLOCK_RECORD
  5
21
100
AcDbSymbolTableRecord
100
AcDbBlockTableRecord
  2
*D5
340
0
  0
BLOCK_RECORD
  5
22
100
AcDbSymbolTableRecord
100
AcDbBlockTableRecord
  2
*D6
340
0
  0
BLOCK_RECORD
  5
23
100
AcDbSymbolTableRecord
100
AcDbBlockTableRecord
  2
*D7
340
0
  0
ENDTAB
  0
ENDSEC
  0
SECTION
  2
BLOCKS
  0
BLOCK
  5
27
100
AcDbEntity
  8
0
390
0
100
AcDbBlockBegin
  2
*Model_Space
 70
     0
 10
0.0
 20
0.0
 30
0.0
  3
*Model_Space
  1

  0
ENDBLK
  5
28
100
AcDbEntity
  8
0
390
0
100
AcDbBlockEnd
  0
BLOCK
  5
29
100
AcDbEntity
 67
     1
  8
0
390
0
100
AcDbBlockBegin
  2
*Paper_Space
 70
     0
 10
0.0
 20
0.0
 30
0.0
  3
*Paper_Space
  1

  0
ENDBLK
  5
2A
100
AcDbEntity
 67
     1
  8
0
390
0
100
AcDbBlockEnd
  0
BLOCK
  5
19A
100
AcDbEntity
  8
3
100
AcDbBlockBegin
  2
*D0
 70
     1
 10
0.0
 20
0.0
 30
0.0
  3
*D0
  1

  0
TEXT
  5
19B
100
AcDbEntity
  8
3
370
    25
100
AcDbText
 10
71.157763
 20
-41.467951
 30
0.0
 40
3.0
  1
φ４６
 50
90.0
 72
     5
 11
71.157763
 21
-33.067951
 31
0.0
100
AcDbText
  0
LINE
  5
19C
100
AcDbEntity
  8
3
370
    25
100
AcDbLine
 10
34.008369
 20
-13.217951
 30
0.0
 11
72.657763
 21
-13.217951
 31
0.0
  0
LINE
  5
19D
100
AcDbEntity
  8
3
370
    25
100
AcDbLine
 10
71.657763
 20
-13.217951
 30
0.0
 11
71.140125
 21
-15.149803
 31
0.0
  0
LINE
  5
19E
100
AcDbEntity
  8
3
370
    25
100
AcDbLine
 10
71.657763
 20
-13.217951
 30
0.0
 11
72.175401
 21
-15.149803
 31
0.0
  0
LINE
  5
19F
100
AcDbEntity
  8
3
370
    25
100
AcDbLine
 10
71.140125
 20
-15.149803
 30
0.0
 11
72.175401
 21
-15.149803
 31
0.0
  0
LINE
  5
1A0
100
AcDbEntity
  8
3
370
    25
100
AcDbLine
 10
71.657763
 20
-13.217951
 30
0.0
 11
71.657763
 21
-59.217951
 31
0.0
  0
LINE
  5
1A1
100
AcDbEntity
  8
3
370
    25
100
AcDbLine
 10
71.657763
 20
-59.217951
 30
0.0
 11
72.175401
 21
-57.2861
 31
0.0
  0
LINE
  5
1A2
100
AcDbEntity
  8
3
370
    25
100
AcDbLine
 10
71.657763
 20
-59.217951
 30
0.0
 11
71.140125
 21
-57.2861
 31
0.0
  0
LINE
  5
1A3
100
AcDbEntity
  8
3
370
    25
100
AcDbLine
 10
72.175401
 20
-57.2861
 30
0.0
 11
71.140125
 21
-57.2861
 31
0.0
  0
LINE
  5
1A4
100
AcDbEntity
  8
3
370
    25
100
AcDbLine
 10
34.008369
 20
-59.217951
 30
0.0
 11
72.657763
 21
-59.217951
 31
0.0
  0
ENDBLK
  5
1A5
100
AcDbEntity
  8
3
100
AcDbBlockEnd
  0
BLOCK
  5
1A6
100
AcDbEntity
  8
3
100
AcDbBlockBegin
  2
*D1
 70
     1
 10
0.0
 20
0.0
 30
0.0
  3
*D1
  1

  0
TEXT
  5
1A7
100
AcDbEntity
  8
3
370
    25
100
AcDbText
 10
-146.455383
 20
-10.718267
 30
0.0
 40
3.0
  1
５８
 50
90.0
 72
     5
 11
-146.455383
 21
-5.318267
 31
0.0
100
AcDbText
  0
LINE
  5
1A8
100
AcDbEntity
  8
3
370
    25
100
AcDbLine
 10
-87.343229
 20
-36.21803
 30
0.0
 11
-146.955383
 21
-36.21803
 31
0.0
  0
LINE
  5
1A9
100
AcDbEntity
  8
3
370
    25
100
AcDbLine
 10
-145.955383
 20
-36.21803
 30
0.0
 11
-145.437745
 21
-34.286179
 31
0.0
  0
LINE
  5
1AA
100
AcDbEntity
  8
3
370
    25
100
AcDbLine
 10
-145.955383
 20
-36.21803
 30
0.0
 11
-146.473021
 21
-34.286179
 31
0.0
  0
LINE
  5
1AB
100
AcDbEntity
  8
3
370
    25
100
AcDbLine
 10
-145.437745
 20
-34.286179
 30
0.0
 11
-146.473021
 21
-34.286179
 31
0.0
  0
LINE
  5
1AC
100
AcDbEntity
  8
3
370
    25
100
AcDbLine
 10
-145.955383
 20
-36.21803
 30
0.0
 11
-145.955383
 21
21.781496
 31
0.0
  0
LINE
  5
1AD
100
AcDbEntity
  8
3
370
    25
100
AcDbLine
 10
-145.955383
 20
21.781496
 30
0.0
 11
-146.473021
 21
19.849644
 31
0.0
  0
LINE
  5
1AE
100
AcDbEntity
  8
3
370
    25
100
AcDbLine
 10
-145.955383
 20
21.781496
 30
0.0
 11
-145.437745
 21
19.849644
 31
0.0
  0
LINE
  5
1AF
100
AcDbEntity
  8
3
370
    25
100
AcDbLine
 10
-146.473021
 20
19.849644
 30
0.0
 11
-145.437745
 21
19.849644
 31
0.0
  0
LINE
  5
1B0
100
AcDbEntity
  8
3
370
    25
100
AcDbLine
 10
-24.306992
 20
21.781496
 30
0.0
 11
-146.955383
 21
21.781496
 31
0.0
  0
ENDBLK
  5
1B1
100
AcDbEntity
  8
3
100
AcDbBlockEnd
  0
BLOCK
  5
1B2
100
AcDbEntity
  8
3
100
AcDbBlockBegin
  2
*D2
 70
     1
 10
0.0
 20
0.0
 30
0.0
  3
*D2
  1

  0
TEXT
  5
1B3
100
AcDbEntity
  8
3
370
    25
100
AcDbText
 10
-146.455383
 20
-64.46718
 30
0.0
 40
3.0
  1
４２．５
 50
90.0
 72
     5
 11
-146.455383
 21
-53.06718
 31
0.0
100
AcDbText
  0
LINE
  5
1B4
100
AcDbEntity
  8
3
370
    25
100
AcDbLine
 10
-117.606527
 20
-78.716329
 30
0.0
 11
-146.955383
 21
-78.716329
 31
0.0
  0
LINE
  5
1B5
100
AcDbEntity
  8
3
370
    25
100
AcDbLine
 10
-145.955383
 20
-78.716329
 30
0.0
 11
-145.437745
 21
-76.784478
 31
0.0
  0
LINE
  5
1B6
100
AcDbEntity
  8
3
370
    25
100
AcDbLine
 10
-145.955383
 20
-78.716329
 30
0.0
 11
-146.473021
 21
-76.784478
 31
0.0
  0
LINE
  5
1B7
100
AcDbEntity
  8
3
370
    25
100
AcDbLine
 10
-145.437745
 20
-76.784478
 30
0.0
 11
-146.473021
 21
-76.784478
 31
0.0
  0
LINE
  5
1B8
100
AcDbEntity
  8
3
370
    25
100
AcDbLine
 10
-145.955383
 20
-78.716329
 30
0.0
 11
-145.955383
 21
-36.21803
 31
0.0
  0
LINE
  5
1B9
100
AcDbEntity
  8
3
370
    25
100
AcDbLine
 10
-145.955383
 20
-36.21803
 30
0.0
 11
-146.473021
 21
-38.149882
 31
0.0
  0
LINE
  5
1BA
100
AcDbEntity
  8
3
370
    25
100
AcDbLine
 10
-145.955383
 20
-36.21803
 30
0.0
 11
-145.437745
 21
-38.149882
 31
0.0
  0
LINE
  5
1BB
100
AcDbEntity
  8
3
370
    25
100
AcDbLine
 10
-146.473021
 20
-38.149882
 30
0.0
 11
-145.437745
 21
-38.149882
 31
0.0
  0
LINE
  5
1BC
100
AcDbEntity
  8
3
370
    25
100
AcDbLine
 10
-87.343229
 20
-36.21803
 30
0.0
 11
-146.955383
 21
-36.21803
 31
0.0
  0
ENDBLK
  5
1BD
100
AcDbEntity
  8
3
100
AcDbBlockEnd
  0
BLOCK
  5
1BE
100
AcDbEntity
  8
3
100
AcDbBlockBegin
  2
*D3
 70
     1
 10
0.0
 20
0.0
 30
0.0
  3
*D3
  1

  0
TEXT
  5
1BF
100
AcDbEntity
  8
3
370
    25
100
AcDbText
 10
15.193131
 20
-85.441177
 30
0.0
 40
3.0
  1
７０
 72
     5
 11
20.593131
 21
-85.441177
 31
0.0
100
AcDbText
  0
LINE
  5
1C0
100
AcDbEntity
  8
3
370
    25
100
AcDbLine
 10
-16.306992
 20
-53.490131
 30
0.0
 11
-16.306992
 21
-86.941177
 31
0.0
  0
LINE
  5
1C1
100
AcDbEntity
  8
3
370
    25
100
AcDbLine
 10
-16.306992
 20
-85.941177
 30
0.0
 11
-14.37514
 21
-86.458815
 31
0.0
  0
LINE
  5
1C2
100
AcDbEntity
  8
3
370
    25
100
AcDbLine
 10
-16.306992
 20
-85.941177
 30
0.0
 11
-14.37514
 21
-85.423539
 31
0.0
  0
LINE
  5
1C3
100
AcDbEntity
  8
3
370
    25
100
AcDbLine
 10
-14.37514
 20
-86.458815
 30
0.0
 11
-14.37514
 21
-85.423539
 31
0.0
  0
LINE
  5
1C4
100
AcDbEntity
  8
3
370
    25
100
AcDbLine
 10
-16.306992
 20
-85.941177
 30
0.0
 11
53.693255
 21
-85.941177
 31
0.0
  0
LINE
  5
1C5
100
AcDbEntity
  8
3
370
    25
100
AcDbLine
 10
53.693255
 20
-85.941177
 30
0.0
 11
51.761403
 21
-85.423539
 31
0.0
  0
LINE
  5
1C6
100
AcDbEntity
  8
3
370
    25
100
AcDbLine
 10
53.693255
 20
-85.941177
 30
0.0
 11
51.761403
 21
-86.458815
 31
0.0
  0
LINE
  5
1C7
100
AcDbEntity
  8
3
370
    25
100
AcDbLine
 10
51.761403
 20
-85.423539
 30
0.0
 11
51.761403
 21
-86.458815
 31
0.0
  0
LINE
  5
1C8
100
AcDbEntity
  8
3
370
    25
100
AcDbLine
 10
53.693255
 20
-46.49553
 30
0.0
 11
53.693255
 21
-86.941177
 31
0.0
  0
ENDBLK
  5
1C9
100
AcDbEntity
  8
3
100
AcDbBlockEnd
  0
BLOCK
  5
1CA
100
AcDbEntity
  8
3
100
AcDbBlockBegin
  2
*D4
 70
     1
 10
0.0
 20
0.0
 30
0.0
  3
*D4
  1

  0
LINE
  5
1CB
100
AcDbEntity
  8
3
370
    25
100
AcDbLine
 10
-116.606527
 20
-79.716329
 30
0.0
 11
-116.606527
 21
-86.941177
 31
0.0
  0
LINE
  5
1CC
100
AcDbEntity
  8
3
370
    25
100
AcDbLine
 10
-116.606527
 20
-85.941177
 30
0.0
 11
-114.674675
 21
-86.458815
 31
0.0
  0
LINE
  5
1CD
100
AcDbEntity
  8
3
370
    25
100
AcDbLine
 10
-116.606527
 20
-85.941177
 30
0.0
 11
-114.674675
 21
-85.423539
 31
0.0
  0
LINE
  5
1CE
100
AcDbEntity
  8
3
370
    25
100
AcDbLine
 10
-114.674675
 20
-86.458815
 30
0.0
 11
-114.674675
 21
-85.423539
 31
0.0
  0
LINE
  5
1CF
100
AcDbEntity
  8
3
370
    25
100
AcDbLine
 10
-116.606527
 20
-85.941177
 30
0.0
 11
-16.306992
 21
-85.941177
 31
0.0
  0
LINE
  5
1D0
100
AcDbEntity
  8
3
370
    25
100
AcDbLine
 10
-16.306992
 20
-85.941177
 30
0.0
 11
-18.238843
 21
-85.423539
 31
0.0
  0
LINE
  5
1D1
100
AcDbEntity
  8
3
370
    25
100
AcDbLine
 10
-16.306992
 20
-85.941177
 30
0.0
 11
-18.238843
 21
-86.458815
 31
0.0
  0
LINE
  5
1D2
100
AcDbEntity
  8
3
370
    25
100
AcDbLine
 10
-18.238843
 20
-85.423539
 30
0.0
 11
-18.238843
 21
-86.458815
 31
0.0
  0
LINE
  5
1D3
100
AcDbEntity
  8
3
370
    25
100
AcDbLine
 10
-16.306992
 20
-53.490131
 30
0.0
 11
-16.306992
 21
-86.941177
 31
0.0
  0
ENDBLK
  5
1D4
100
AcDbEntity
  8
3
100
AcDbBlockEnd
  0
BLOCK
  5
1D5
100
AcDbEntity
  8
3
100
AcDbBlockBegin
  2
*D5
 70
     1
 10
0.0
 20
0.0
 30
0.0
  3
*D5
  1

  0
LINE
  5
1D6
100
AcDbEntity
  8
3
370
    25
100
AcDbLine
 10
-116.606527
 20
-79.716329
 30
0.0
 11
-116.606527
 21
-102.472038
 31
0.0
  0
LINE
  5
1D7
100
AcDbEntity
  8
3
370
    25
100
AcDbLine
 10
-116.606527
 20
-101.472038
 30
0.0
 11
-114.674675
 21
-101.989676
 31
0.0
  0
LINE
  5
1D8
100
AcDbEntity
  8
3
370
    25
100
AcDbLine
 10
-116.606527
 20
-101.472038
 30
0.0
 11
-114.674675
 21
-100.9544
 31
0.0
  0
LINE
  5
1D9
100
AcDbEntity
  8
3
370
    25
100
AcDbLine
 10
-114.674675
 20
-101.989676
 30
0.0
 11
-114.674675
 21
-100.9544
 31
0.0
  0
LINE
  5
1DA
100
AcDbEntity
  8
3
370
    25
100
AcDbLine
 10
-116.606527
 20
-101.472038
 30
0.0
 11
53.693255
 21
-101.472038
 31
0.0
  0
LINE
  5
1DB
100
AcDbEntity
  8
3
370
    25
100
AcDbLine
 10
53.693255
 20
-101.472038
 30
0.0
 11
51.761403
 21
-100.9544
 31
0.0
  0
LINE
  5
1DC
100
AcDbEntity
  8
3
370
    25
100
AcDbLine
 10
53.693255
 20
-101.472038
 30
0.0
 11
51.761403
 21
-101.989676
 31
0.0
  0
LINE
  5
1DD
100
AcDbEntity
  8
3
370
    25
100
AcDbLine
 10
51.761403
 20
-100.9544
 30
0.0
 11
51.761403
 21
-101.989676
 31
0.0
  0
LINE
  5
1DE
100
AcDbEntity
  8
3
370
    25
100
AcDbLine
 10
53.693255
 20
-46.49553
 30
0.0
 11
53.693255
 21
-102.472038
 31
0.0
  0
ENDBLK
  5
1DF
100
AcDbEntity
  8
3
100
AcDbBlockEnd
  0
BLOCK
  5
1E0
100
AcDbEntity
  8
3
100
AcDbBlockBegin
  2
*D6
 70
     1
 10
0.0
 20
0.0
 30
0.0
  3
*D6
  1

  0
TEXT
  5
1E1
100
AcDbEntity
  8
3
370
    25
100
AcDbText
 10
-122.33461
 20
-95.904297
 30
0.0
 40
3.0
  1
１０゜
 50
355.0
 72
     5
 11
-113.966575
 21
-96.636405
 31
0.0
100
AcDbText
  0
LINE
  5
1E2
100
AcDbEntity
  8
3
370
    25
100
AcDbLine
 10
-117.502338
 20
-83.796727
 30
0.0
 11
-119.99444
 21
-97.930139
 31
0.0
  0
LINE
  5
1E3
100
AcDbEntity
  8
3
370
    25
100
AcDbLine
 10
-116.606527
 20
-79.716329
 30
0.0
 11
-116.606527
 21
-98.226543
 31
0.0
  0
LINE
  5
1E4
100
AcDbEntity
  8
3
370
    25
100
AcDbLine
 10
-119.820792
 20
-96.945331
 30
0.0
 11
-121.58683
 21
-96.006658
 31
0.0
  0
LINE
  5
1E5
100
AcDbEntity
  8
3
370
    25
100
AcDbLine
 10
-119.820792
 20
-96.945331
 30
0.0
 11
-121.819563
 21
-97.015436
 31
0.0
  0
LINE
  5
1E6
100
AcDbEntity
  8
3
370
    25
100
AcDbLine
 10
-121.58683
 20
-96.006658
 30
0.0
 11
-121.819563
 21
-97.015436
 31
0.0
  0
LINE
  5
1E7
100
AcDbEntity
  8
3
370
    25
100
AcDbLine
 10
-116.606527
 20
-97.226543
 30
0.0
 11
-114.650295
 21
-97.642665
 31
0.0
  0
LINE
  5
1E8
100
AcDbEntity
  8
3
370
    25
100
AcDbLine
 10
-116.606527
 20
-97.226543
 30
0.0
 11
-114.70432
 21
-96.6088
 31
0.0
  0
LINE
  5
1E9
100
AcDbEntity
  8
3
370
    25
100
AcDbLine
 10
-114.650295
 20
-97.642665
 30
0.0
 11
-114.70432
 21
-96.6088
 31
0.0
  0
ARC
  5
1EA
100
AcDbEntity
  8
3
370
    25
100
AcDbCircle
 10
-116.606527
 20
-78.716329
 30
0.0
 40
18.510214
100
AcDbArc
 50
244.883956
 51
285.116044
  0
ENDBLK
  5
1EB
100
AcDbEntity
  8
3
100
AcDbBlockEnd
  0
BLOCK
  5
1EC
100
AcDbEntity
  8
3
100
AcDbBlockBegin
  2
*D7
 70
     1
 10
0.0
 20
0.0
 30
0.0
  3
*D7
  1

  0
TEXT
  5
1ED
100
AcDbEntity
  8
3
370
    25
100
AcDbText
 10
43.850812
 20
-74.689049
 30
0.0
 40
3.0
  1
２０
 72
     5
 11
49.250812
 21
-74.689049
 31
0.0
100
AcDbText
  0
LINE
  5
1EE
100
AcDbEntity
  8
3
370
    25
100
AcDbLine
 10
33.508369
 20
-59.717951
 30
0.0
 11
33.508369
 21
-76.189049
 31
0.0
  0
LINE
  5
1EF
100
AcDbEntity
  8
3
370
    25
100
AcDbLine
 10
33.508369
 20
-75.189049
 30
0.0
 11
35.44022
 21
-75.706687
 31
0.0
  0
LINE
  5
1F0
100
AcDbEntity
  8
3
370
    25
100
AcDbLine
 10
33.508369
 20
-75.189049
 30
0.0
 11
35.44022
 21
-74.671411
 31
0.0
  0
LINE
  5
1F1
100
AcDbEntity
  8
3
370
    25
100
AcDbLine
 10
35.44022
 20
-75.706687
 30
0.0
 11
35.44022
 21
-74.671411
 31
0.0
  0
LINE
  5
1F2
100
AcDbEntity
  8
3
370
    25
100
AcDbLine
 10
33.508369
 20
-75.189049
 30
0.0
 11
53.693255
 21
-75.189049
 31
0.0
  0
LINE
  5
1F3
100
AcDbEntity
  8
3
370
    25
100
AcDbLine
 10
53.693255
 20
-75.189049
 30
0.0
 11
51.761403
 21
-74.671411
 31
0.0
  0
LINE
  5
1F4
100
AcDbEntity
  8
3
370
    25
100
AcDbLine
 10
53.693255
 20
-75.189049
 30
0.0
 11
51.761403
 21
-75.706687
 31
0.0
  0
LINE
  5
1F5
100
AcDbEntity
  8
3
370
    25
100
AcDbLine
 10
51.761403
 20
-74.671411
 30
0.0
 11
51.761403
 21
-75.706687
 31
0.0
  0
LINE
  5
1F6
100
AcDbEntity
  8
3
370
    25
100
AcDbLine
 10
53.693255
 20
-46.49553
 30
0.0
 11
53.693255
 21
-76.189049
 31
0.0
  0
ENDBLK
  5
1F7
100
AcDbEntity
  8
3
100
AcDbBlockEnd
  0
ENDSEC
  0
SECTION
  2
ENTITIES
  0
LINE
  5
2C
100
AcDbEntity
  8
1
370
   100
100
AcDbLine
 10
-186.510785
 20
137.514384
 30
0.0
 11
197.491193
 21
137.514384
 31
0.0
  0
LINE
  5
2D
100
AcDbEntity
  8
1
370
   100
100
AcDbLine
 10
-186.510785
 20
137.514384
 30
0.0
 11
-186.510785
 21
-138.985941
 31
0.0
  0
LINE
  5
2E
100
AcDbEntity
  8
1
370
   100
100
AcDbLine
 10
-186.510785
 20
-138.985941
 30
0.0
 11
197.491193
 21
-138.985941
 31
0.0
  0
LINE
  5
2F
100
AcDbEntity
  8
1
370
   100
100
AcDbLine
 10
197.491193
 20
-138.985941
 30
0.0
 11
197.491193
 21
137.514384
 31
0.0
  0
TEXT
  5
30
100
AcDbEntity
  8
1
370
    50
100
AcDbText
 10
179.814221
 20
-113.126428
 30
0.0
 40
3.0
  1
設計
 72
     5
 11
185.214221
 21
-113.126428
 31
0.0
100
AcDbText
  0
TEXT
  5
31
100
AcDbEntity
  8
1
370
    50
100
AcDbText
 10
189.563739
 20
-113.049829
 30
0.0
 40
3.0
  1
製図
 72
     5
 11
194.963739
 21
-113.049829
 31
0.0
100
AcDbText
  0
TEXT
  5
32
100
AcDbEntity
  8
1
370
    50
100
AcDbText
 10
159.502872
 20
-113.126428
 30
0.0
 40
3.0
  1
承認
 72
     5
 11
164.902872
 21
-113.126428
 31
0.0
100
AcDbText
  0
TEXT
  5
33
100
AcDbEntity
  8
1
370
    50
100
AcDbText
 10
169.494839
 20
-113.09901
 30
0.0
 40
3.0
  1
検図
 72
     5
 11
174.894839
 21
-113.09901
 31
0.0
100
AcDbText
  0
LINE
  5
34
100
AcDbEntity
  8
1
370
    25
100
AcDbLine
 10
142.491193
 20
-113.985941
 30
0.0
 11
197.491193
 21
-113.985941
 31
0.0
  0
LINE
  5
35
100
AcDbEntity
  8
1
370
    25
100
AcDbLine
 10
171.241193
 20
-122.985941
 30
0.0
 11
171.241193
 21
-129.985941
 31
0.0
  0
TEXT
  5
36
100
AcDbEntity
  8
1
370
    50
100
AcDbText
 10
159.775795
 20
-128.006264
 30
0.0
 40
3.0
  1
日　付
 72
     5
 11
168.175795
 21
-128.006264
 31
0.0
100
AcDbText
  0
LINE
  5
37
100
AcDbEntity
  8
1
370
    50
100
AcDbLine
 10
20.491193
 20
-129.985941
 30
0.0
 11
197.491193
 21
-129.985941
 31
0.0
  0
TEXT
  5
38
100
AcDbEntity
  8
1
370
    50
100
AcDbText
 10
143.887505
 20
-128.161203
 30
0.0
 40
3.0
  1
第三角法
 72
     5
 11
155.287505
 21
-128.161203
 31
0.0
100
AcDbText
  0
TEXT
  5
39
100
AcDbEntity
  8
1
370
    50
100
AcDbText
 10
145.54371
 20
-112.99901
 30
0.0
 40
3.0
  1
尺　度
 72
     5
 11
153.94371
 21
-112.99901
 31
0.0
100
AcDbText
  0
LINE
  5
3A
100
AcDbEntity
  8
1
370
   100
100
AcDbLine
 10
20.491193
 20
-108.985941
 30
0.0
 11
197.491193
 21
-108.985941
 31
0.0
  0
LINE
  5
3B
100
AcDbEntity
  8
1
370
    50
100
AcDbLine
 10
105.991193
 20
-108.985941
 30
0.0
 11
105.991193
 21
-138.985941
 31
0.0
  0
LINE
  5
3C
100
AcDbEntity
  8
1
370
    25
100
AcDbLine
 10
187.491193
 20
-122.985941
 30
0.0
 11
187.491193
 21
-108.985941
 31
0.0
  0
LINE
  5
3D
100
AcDbEntity
  8
1
370
    25
100
AcDbLine
 10
177.491193
 20
-122.985941
 30
0.0
 11
177.491193
 21
-108.985941
 31
0.0
  0
LINE
  5
3E
100
AcDbEntity
  8
1
370
    25
100
AcDbLine
 10
167.491193
 20
-122.985941
 30
0.0
 11
167.491193
 21
-108.985941
 31
0.0
  0
LINE
  5
3F
100
AcDbEntity
  8
1
370
    50
100
AcDbLine
 10
142.491193
 20
-138.985941
 30
0.0
 11
142.491193
 21
-108.985941
 31
0.0
  0
LINE
  5
40
100
AcDbEntity
  8
1
370
    50
100
AcDbLine
 10
94.991193
 20
-108.985941
 30
0.0
 11
94.991193
 21
-138.985941
 31
0.0
  0
LINE
  5
41
100
AcDbEntity
  8
1
370
    50
100
AcDbLine
 10
31.491193
 20
-108.985941
 30
0.0
 11
31.491193
 21
-129.985941
 31
0.0
  0
LINE
  5
42
100
AcDbEntity
  8
1
370
    50
100
AcDbLine
 10
142.491193
 20
-122.985941
 30
0.0
 11
197.491193
 21
-122.985941
 31
0.0
  0
TEXT
  5
43
100
AcDbEntity
  8
1
370
    50
100
AcDbText
 10
143.550565
 20
-135.940469
 30
0.0
 40
3.0
  1
コードＮｏ
 41
0.9
 72
     5
 11
156.510565
 21
-135.940469
 31
0.0
100
AcDbText
  0
TEXT
  5
44
100
AcDbEntity
  8
1
370
   100
100
AcDbText
 10
26.443387
 20
-136.43783
 30
0.0
 40
4.0
  1
ミズタニバルブ工業株式会社
 41
1.2
 72
     5
 11
87.883387
 21
-136.43783
 31
0.0
100
AcDbText
  0
LINE
  5
45
100
AcDbEntity
  8
1
370
    50
100
AcDbLine
 10
20.491193
 20
-119.485941
 30
0.0
 11
142.491193
 21
-119.485941
 31
0.0
  0
LINE
  5
46
100
AcDbEntity
  8
1
370
    50
100
AcDbLine
 10
57.741193
 20
-119.485941
 30
0.0
 11
57.741193
 21
-129.985941
 31
0.0
  0
LINE
  5
47
100
AcDbEntity
  8
1
370
    50
100
AcDbLine
 10
68.741193
 20
-119.485941
 30
0.0
 11
68.741193
 21
-129.985941
 31
0.0
  0
LINE
  5
48
100
AcDbEntity
  8
1
370
    50
100
AcDbLine
 10
157.491193
 20
-138.985941
 30
0.0
 11
157.491193
 21
-108.985941
 31
0.0
  0
TEXT
  5
49
100
AcDbEntity
  8
1
370
    50
100
AcDbText
 10
172.549065
 20
-128.050147
 30
0.0
 40
3.0
  1
　　・　　・
 72
     5
 11
189.949065
 21
-128.050147
 31
0.0
100
AcDbText
  0
LINE
  5
4A
100
AcDbEntity
  8
1
370
   100
100
AcDbLine
 10
20.491193
 20
-108.985941
 30
0.0
 11
20.491193
 21
-138.985941
 31
0.0
  0
TEXT
  5
4B
100
AcDbEntity
  8
1
370
    50
100
AcDbText
 10
145.416291
 20
-120.006746
 30
0.0
 40
3.0
  1
　／ 
 72
     5
 11
150.816291
 21
-120.006746
 31
0.0
100
AcDbText
  0
TEXT
  5
4C
100
AcDbEntity
  8
1
370
    50
100
AcDbText
 10
96.952061
 20
-136.012454
 30
0.0
 40
3.0
  1
備 考 
 72
     5
 11
103.852061
 21
-136.012454
 31
0.0
100
AcDbText
  0
TEXT
  5
4D
100
AcDbEntity
  8
1
370
    50
100
AcDbText
 10
96.756267
 20
-115.44592
 30
0.0
 40
3.0
  1
仕 上
 72
     5
 11
103.656267
 21
-115.44592
 31
0.0
100
AcDbText
  0
TEXT
  5
4E
100
AcDbEntity
  8
1
370
    50
100
AcDbText
 10
96.723588
 20
-124.445833
 30
0.0
 40
3.0
  1
表 面
 72
     5
 11
103.623588
 21
-124.445833
 31
0.0
100
AcDbText
  0
TEXT
  5
4F
100
AcDbEntity
  8
1
370
    50
100
AcDbText
 10
96.723588
 20
-127.945833
 30
0.0
 40
3.0
  1
処 理
 72
     5
 11
103.623588
 21
-127.945833
 31
0.0
100
AcDbText
  0
TEXT
  5
50
100
AcDbEntity
  8
1
370
    50
100
AcDbText
 10
22.396675
 20
-115.8467
 30
0.0
 40
3.0
  1
品 名
 72
     5
 11
29.296675
 21
-115.8467
 31
0.0
100
AcDbText
  0
TEXT
  5
51
100
AcDbEntity
  8
1
370
    50
100
AcDbText
 10
22.198883
 20
-126.231267
 30
0.0
 40
3.0
  1
材 質
 72
     5
 11
29.098883
 21
-126.231267
 31
0.0
100
AcDbText
  0
TEXT
  5
52
100
AcDbEntity
  8
1
370
    50
100
AcDbText
 10
59.448883
 20
-126.231267
 30
0.0
 40
3.0
  1
規 格
 72
     5
 11
66.348883
 21
-126.231267
 31
0.0
100
AcDbText
  0
LINE
  5
53
100
AcDbEntity
  8
2
370
    50
100
AcDbLine
 10
-68.606527
 20
-23.215995
 30
0.0
 11
-59.606523
 21
-23.215995
 31
0.0
  0
LINE
  5
54
100
AcDbEntity
  8
2
370
    50
100
AcDbLine
 10
-68.606377
 20
-23.815995
 30
0.0
 11
-67.567147
 21
-23.215995
 31
0.0
  0
LINE
  5
55
100
AcDbEntity
  8
2
370
    50
100
AcDbLine
 10
-41.306523
 20
-20.915995
 30
0.0
 11
-58.606523
 21
-20.915995
 31
0.0
  0
LINE
  5
56
100
AcDbEntity
  8
2
370
    50
100
AcDbLine
 10
-40.306523
 20
-21.915995
 30
0.0
 11
-40.306523
 21
-50.515995
 31
0.0
  0
LINE
  5
57
100
AcDbEntity
  8
2
370
    50
100
AcDbLine
 10
-59.606523
 20
-21.915995
 30
0.0
 11
-59.606523
 21
-50.515995
 31
0.0
  0
LINE
  5
58
100
AcDbEntity
  8
2
370
    50
100
AcDbLine
 10
-68.606527
 20
-49.215995
 30
0.0
 11
-59.606523
 21
-49.215995
 31
0.0
  0
LINE
  5
59
100
AcDbEntity
  8
2
370
    50
100
AcDbLine
 10
-68.606377
 20
-48.615995
 30
0.0
 11
-67.567147
 21
-49.215995
 31
0.0
  0
LINE
  5
5A
100
AcDbEntity
  8
2
370
    50
100
AcDbLine
 10
-41.306523
 20
-51.515995
 30
0.0
 11
-58.606523
 21
-51.515995
 31
0.0
  0
LINE
  5
5B
100
AcDbEntity
  8
2
370
    50
100
AcDbLine
 10
-40.306523
 20
-50.515995
 30
0.0
 11
-41.306523
 21
-51.515995
 31
0.0
  0
LINE
  5
5C
100
AcDbEntity
  8
2
370
    50
100
AcDbLine
 10
-58.606523
 20
-51.515995
 30
0.0
 11
-59.606523
 21
-50.515995
 31
0.0
  0
LINE
  5
5D
100
AcDbEntity
  8
2
370
    50
100
AcDbLine
 10
-59.606523
 20
-21.915995
 30
0.0
 11
-58.606523
 21
-20.915995
 31
0.0
  0
LINE
  5
5E
100
AcDbEntity
  8
2
370
    50
100
AcDbLine
 10
-40.306523
 20
-21.915995
 30
0.0
 11
-41.306523
 21
-20.915995
 31
0.0
  0
LINE
  5
5F
100
AcDbEntity
  8
2
370
    50
100
AcDbLine
 10
-40.306523
 20
-23.21803
 30
0.0
 11
-36.806745
 21
-23.21803
 31
0.0
  0
LINE
  5
60
100
AcDbEntity
  8
2
370
    50
100
AcDbLine
 10
-40.306523
 20
-49.21803
 30
0.0
 11
-36.806745
 21
-49.21803
 31
0.0
  0
LINE
  5
61
100
AcDbEntity
  8
2
370
    50
100
AcDbLine
 10
-40.306745
 20
-23.81803
 30
0.0
 11
-39.267515
 21
-23.21803
 31
0.0
  0
LINE
  5
62
100
AcDbEntity
  8
2
370
    50
100
AcDbLine
 10
-36.758965
 20
-23.241447
 30
0.0
 11
-36.806745
 21
-23.21803
 31
0.0
  0
LINE
  5
63
100
AcDbEntity
  8
2
370
    50
100
AcDbLine
 10
-35.170446
 20
-48.4161
 30
0.0
 11
-36.806745
 21
-49.21803
 31
0.0
  0
LINE
  5
64
100
AcDbEntity
  8
2
370
    50
100
AcDbLine
 10
-40.306745
 20
-48.614629
 30
0.0
 11
-39.261623
 21
-49.21803
 31
0.0
  0
LINE
  5
65
100
AcDbEntity
  8
2
370
    50
100
AcDbLine
 10
-28.306745
 20
-13.71803
 30
0.0
 11
-28.306745
 21
-11.718408
 31
0.0
  0
LINE
  5
66
100
AcDbEntity
  8
2
370
    50
100
AcDbLine
 10
-4.306745
 20
-13.71803
 30
0.0
 11
-4.306745
 21
-11.718408
 31
0.0
  0
LINE
  5
67
100
AcDbEntity
  8
2
370
    50
100
AcDbLine
 10
53.693255
 20
-45.49553
 30
0.0
 11
53.693255
 21
-26.94053
 31
0.0
  0
ARC
  5
68
100
AcDbEntity
  8
2
370
    50
100
AcDbCircle
 10
-16.306745
 20
0.78197
 30
0.0
 40
50.0
100
AcDbArc
 50
255.904263
 51
283.468037
  0
LINE
  5
69
100
AcDbEntity
  8
2
370
    25
100
AcDbLine
 10
-4.906745
 20
-12.21803
 30
0.0
 11
-4.906745
 21
-11.718408
 31
0.0
  0
LINE
  5
6A
100
AcDbEntity
  8
2
370
    25
100
AcDbLine
 10
33.508369
 20
-45.49553
 30
0.0
 11
53.693255
 21
-45.49553
 31
0.0
  0
LINE
  5
6B
100
AcDbEntity
  8
2
370
    50
100
AcDbLine
 10
53.693255
 20
-26.94053
 30
0.0
 11
52.720755
 21
-25.96803
 31
0.0
  0
LINE
  5
6C
100
AcDbEntity
  8
2
370
    50
100
AcDbLine
 10
53.693255
 20
-45.49553
 30
0.0
 11
52.720755
 21
-46.46803
 31
0.0
  0
LINE
  5
6D
100
AcDbEntity
  8
2
370
    50
100
AcDbLine
 10
-3.806745
 20
-15.96803
 30
0.0
 11
-3.806745
 21
-13.71803
 31
0.0
  0
LINE
  5
6E
100
AcDbEntity
  8
2
370
    50
100
AcDbLine
 10
-28.806745
 20
-18.282851
 30
0.0
 11
-28.806745
 21
-13.71803
 31
0.0
  0
LINE
  5
6F
100
AcDbEntity
  8
2
370
    50
100
AcDbLine
 10
-36.758965
 20
-23.241447
 30
0.0
 11
-36.806745
 21
-23.21803
 31
0.0
  0
LINE
  5
70
100
AcDbEntity
  8
2
370
    50
100
AcDbLine
 10
-35.170446
 20
-48.4161
 30
0.0
 11
-36.806745
 21
-49.21803
 31
0.0
  0
LINE
  5
71
100
AcDbEntity
  8
2
370
    50
100
AcDbLine
 10
-27.706745
 20
-12.21803
 30
0.0
 11
-28.306745
 21
-13.257261
 31
0.0
  0
LINE
  5
72
100
AcDbEntity
  8
2
370
    50
100
AcDbLine
 10
-28.806745
 20
-13.71803
 30
0.0
 11
-3.806745
 21
-13.71803
 31
0.0
  0
LINE
  5
73
100
AcDbEntity
  8
2
370
    50
100
AcDbLine
 10
-4.906745
 20
-12.21803
 30
0.0
 11
-4.306745
 21
-13.257261
 31
0.0
  0
ARC
  5
74
100
AcDbEntity
  8
2
370
    50
100
AcDbCircle
 10
-34.328818
 20
-18.282851
 30
0.0
 40
5.522072
100
AcDbArc
 50
243.891094
 51
360.0
  0
ARC
  5
75
100
AcDbEntity
  8
2
370
    50
100
AcDbCircle
 10
-30.866
 20
-57.199113
 30
0.0
 40
9.781083
100
AcDbArc
 50
75.904263
 51
116.108906
  0
LINE
  5
76
100
AcDbEntity
  8
2
370
    50
100
AcDbLine
 10
33.508369
 20
-25.96803
 30
0.0
 11
52.720755
 21
-25.96803
 31
0.0
  0
LINE
  5
77
100
AcDbEntity
  8
2
370
    50
100
AcDbLine
 10
33.508369
 20
-46.46803
 30
0.0
 11
52.720755
 21
-46.46803
 31
0.0
  0
ARC
  5
78
100
AcDbEntity
  8
2
370
    50
100
AcDbCircle
 10
6.193255
 20
-15.96803
 30
0.0
 40
10.0
100
AcDbArc
 50
180.0
 51
266.072819
  0
ARC
  5
79
100
AcDbEntity
  8
2
370
    50
100
AcDbCircle
 10
6.983542
 20
-96.46803
 30
0.0
 40
50.0
100
AcDbArc
 50
91.69067
 51
103.468037
  0
ARC
  5
7A
100
AcDbEntity
  8
2
370
    50
100
AcDbCircle
 10
-7.411089
 20
-8.218408
 30
0.0
 40
5.0
100
AcDbArc
 50
315.572996
 51
44.427004
  0
ARC
  5
7B
100
AcDbEntity
  8
2
370
    50
100
AcDbCircle
 10
-25.269661
 20
-8.218408
 30
0.0
 40
5.0
100
AcDbArc
 50
135.572996
 51
224.427004
  0
LINE
  5
7C
100
AcDbEntity
  8
2
370
    50
100
AcDbLine
 10
-10.24466
 20
0.281592
 30
0.0
 11
-3.840375
 21
-4.718408
 31
0.0
  0
LINE
  5
7D
100
AcDbEntity
  8
2
370
    50
100
AcDbLine
 10
-22.24466
 20
0.281592
 30
0.0
 11
-28.840375
 21
-4.718408
 31
0.0
  0
LINE
  5
7E
100
AcDbEntity
  8
2
370
    50
100
AcDbLine
 10
-22.24466
 20
0.281592
 30
0.0
 11
-10.24466
 21
0.281592
 31
0.0
  0
LINE
  5
7F
100
AcDbEntity
  8
2
370
    50
100
AcDbLine
 10
-28.840375
 20
-11.718408
 30
0.0
 11
-3.840375
 21
-11.718408
 31
0.0
  0
LINE
  5
80
100
AcDbEntity
  8
2
370
    50
100
AcDbLine
 10
-21.056838
 20
0.281592
 30
0.0
 11
-21.056838
 21
7.781496
 31
0.0
  0
LINE
  5
81
100
AcDbEntity
  8
2
370
    50
100
AcDbLine
 10
-11.557146
 20
0.281592
 30
0.0
 11
-11.557146
 21
7.781496
 31
0.0
  0
LINE
  5
82
100
AcDbEntity
  8
2
370
    25
  6
CENTER
100
AcDbLine
 10
-16.306992
 20
27.203804
 30
0.0
 11
-16.306992
 21
-52.490131
 31
0.0
  0
LINE
  5
83
100
AcDbEntity
  8
2
370
    25
  6
CENTER
100
AcDbLine
 10
-86.343229
 20
-36.21803
 30
0.0
 11
56.730815
 21
-36.21803
 31
0.0
  0
LINE
  5
84
100
AcDbEntity
  8
2
370
    50
100
AcDbLine
 10
-46.969446
 20
9.040315
 30
0.0
 11
-45.821122
 21
13.325917
 31
0.0
  0
ARC
  5
85
100
AcDbEntity
  8
2
370
    50
100
AcDbCircle
 10
-40.991493
 20
12.031822
 30
0.0
 40
5.0
100
AcDbArc
 50
98.108858
 51
165.0
  0
LINE
  5
86
100
AcDbEntity
  8
2
370
    50
100
AcDbLine
 10
-23.306992
 20
21.781496
 30
0.0
 11
-23.306992
 21
18.645333
 31
0.0
  0
LINE
  5
87
100
AcDbEntity
  8
2
370
    50
100
AcDbLine
 10
-9.306992
 20
21.781496
 30
0.0
 11
-9.306992
 21
18.645333
 31
0.0
  0
LINE
  5
88
100
AcDbEntity
  8
2
370
    50
100
AcDbLine
 10
-23.306992
 20
21.781496
 30
0.0
 11
-9.306992
 21
21.781496
 31
0.0
  0
LINE
  5
89
100
AcDbEntity
  8
2
370
    50
100
AcDbLine
 10
6.008369
 20
-24.217951
 30
0.0
 11
18.724293
 21
-24.217951
 31
0.0
  0
LINE
  5
8A
100
AcDbEntity
  8
2
370
    50
100
AcDbLine
 10
6.008369
 20
-48.217951
 30
0.0
 11
18.724293
 21
-48.217951
 31
0.0
  0
LINE
  5
8B
100
AcDbEntity
  8
2
370
    50
100
AcDbLine
 10
29.345004
 20
-59.217951
 30
0.0
 11
33.008369
 21
-59.217951
 31
0.0
  0
LINE
  5
8C
100
AcDbEntity
  8
2
370
    50
100
AcDbLine
 10
29.345004
 20
-13.217951
 30
0.0
 11
33.008369
 21
-13.217951
 31
0.0
  0
LINE
  5
8D
100
AcDbEntity
  8
2
370
    50
100
AcDbLine
 10
24.515375
 20
-16.923856
 30
0.0
 11
23.553922
 21
-20.512047
 31
0.0
  0
LINE
  5
8E
100
AcDbEntity
  8
2
370
    50
100
AcDbLine
 10
24.515375
 20
-55.512047
 30
0.0
 11
23.553922
 21
-51.923856
 31
0.0
  0
ARC
  5
8F
100
AcDbEntity
  8
2
370
    50
100
AcDbCircle
 10
18.724293
 20
-19.217951
 30
0.0
 40
5.0
100
AcDbArc
 50
270.0
 51
345.0
  0
ARC
  5
90
100
AcDbEntity
  8
2
370
    50
100
AcDbCircle
 10
18.724293
 20
-53.217951
 30
0.0
 40
5.0
100
AcDbArc
 50
15.0
 51
90.0
  0
ARC
  5
91
100
AcDbEntity
  8
2
370
    50
100
AcDbCircle
 10
29.345004
 20
-18.217951
 30
0.0
 40
5.0
100
AcDbArc
 50
90.0
 51
165.0
  0
ARC
  5
92
100
AcDbEntity
  8
2
370
    50
100
AcDbCircle
 10
29.345004
 20
-54.217951
 30
0.0
 40
5.0
100
AcDbArc
 50
195.0
 51
270.0
  0
LINE
  5
93
100
AcDbEntity
  8
2
370
    50
100
AcDbLine
 10
5.508369
 20
-24.717951
 30
0.0
 11
6.008369
 21
-24.217951
 31
0.0
  0
LINE
  5
94
100
AcDbEntity
  8
2
370
    50
100
AcDbLine
 10
6.008369
 20
-48.217951
 30
0.0
 11
5.508369
 21
-47.717951
 31
0.0
  0
LINE
  5
95
100
AcDbEntity
  8
2
370
    50
100
AcDbLine
 10
33.508369
 20
-13.717951
 30
0.0
 11
33.008369
 21
-13.217951
 31
0.0
  0
LINE
  5
96
100
AcDbEntity
  8
2
370
    50
100
AcDbLine
 10
33.008369
 20
-59.217951
 30
0.0
 11
33.508369
 21
-58.717951
 31
0.0
  0
LINE
  5
97
100
AcDbEntity
  8
2
370
    50
100
AcDbLine
 10
33.508369
 20
-58.717951
 30
0.0
 11
33.508369
 21
-13.717951
 31
0.0
  0
LINE
  5
98
100
AcDbEntity
  8
2
370
    50
100
AcDbLine
 10
5.508369
 20
-47.717951
 30
0.0
 11
5.508369
 21
-24.717951
 31
0.0
  0
LINE
  5
99
100
AcDbEntity
  8
2
370
    50
100
AcDbLine
 10
-1.306745
 20
13.495534
 30
0.0
 11
-1.306745
 21
8.781496
 31
0.0
  0
ARC
  5
9A
100
AcDbEntity
  8
2
370
    50
100
AcDbCircle
 10
-6.306745
 20
13.495534
 30
0.0
 40
5.0
100
AcDbArc
 50
0.0
 51
86.72409
  0
LINE
  5
9B
100
AcDbEntity
  8
2
370
    25
100
AcDbLine
 10
33.508369
 20
-26.94053
 30
0.0
 11
53.693255
 21
-26.94053
 31
0.0
  0
LINE
  5
9C
100
AcDbEntity
  8
2
370
    25
100
AcDbLine
 10
-27.706745
 20
-12.21803
 30
0.0
 11
-27.706745
 21
-11.718408
 31
0.0
  0
ARC
  5
9D
100
AcDbEntity
  8
2
370
    50
100
AcDbCircle
 10
-46.00352
 20
8.781496
 30
0.0
 40
1.0
100
AcDbArc
 50
165.0
 51
270.0
  0
LINE
  5
9E
100
AcDbEntity
  8
2
370
    50
100
AcDbLine
 10
-46.00352
 20
7.781496
 30
0.0
 11
-2.306745
 21
7.781496
 31
0.0
  0
ARC
  5
9F
100
AcDbEntity
  8
2
370
    50
100
AcDbCircle
 10
-2.306745
 20
8.781496
 30
0.0
 40
1.0
100
AcDbArc
 50
270.0
 51
360.0
  0
POINT
  5
A0
100
AcDbEntity
  8
2
370
    50
100
AcDbPoint
 10
-16.306745
 20
0.78197
 30
0.0
  0
ARC
  5
A1
100
AcDbEntity
  8
2
370
    50
100
AcDbCircle
 10
-16.306992
 20
-161.218504
 30
0.0
 40
180.0
100
AcDbArc
 50
90.0
 51
98.10886
  0
LINE
  5
A2
100
AcDbEntity
  8
2
370
    25
  6
CENTER
100
AcDbLine
 10
-127.087456
 20
80.704937
 30
0.0
 11
58.78381
 21
80.704937
 31
0.0
  0
LINE
  5
A3
100
AcDbEntity
  8
2
370
    25
  6
CENTER
100
AcDbLine
 10
-16.307236
 20
54.546936
 30
0.0
 11
-16.307236
 21
106.889427
 31
0.0
  0
LINE
  5
A4
100
AcDbEntity
  8
2
370
    50
100
AcDbLine
 10
53.692764
 20
71.389437
 30
0.0
 11
53.692764
 21
90.020437
 31
0.0
  0
LINE
  5
A5
100
AcDbEntity
  8
2
370
    25
100
AcDbLine
 10
33.508007
 20
90.020437
 30
0.0
 11
53.692764
 21
90.020437
 31
0.0
  0
LINE
  5
A6
100
AcDbEntity
  8
2
370
    25
100
AcDbLine
 10
33.508007
 20
71.389437
 30
0.0
 11
53.692764
 21
71.389437
 31
0.0
  0
LINE
  5
A7
100
AcDbEntity
  8
2
370
    50
100
AcDbLine
 10
53.692764
 20
90.020437
 30
0.0
 11
52.758264
 21
90.954937
 31
0.0
  0
LINE
  5
A8
100
AcDbEntity
  8
2
370
    50
100
AcDbLine
 10
53.692764
 20
71.389437
 30
0.0
 11
52.758264
 21
70.454937
 31
0.0
  0
LINE
  5
A9
100
AcDbEntity
  8
2
370
    50
100
AcDbLine
 10
52.758264
 20
90.954937
 30
0.0
 11
52.758264
 21
70.454937
 31
0.0
  0
ARC
  5
AA
100
AcDbEntity
  8
2
370
    50
100
AcDbCircle
 10
-3.807236
 20
59.054302
 30
0.0
 40
6.0
100
AcDbArc
 50
229.129151
 51
10.870849
  0
ARC
  5
AB
100
AcDbEntity
  8
2
370
    50
100
AcDbCircle
 10
-3.807236
 20
102.355572
 30
0.0
 40
6.0
100
AcDbArc
 50
349.129151
 51
130.870849
  0
POINT
  5
AC
100
AcDbEntity
  8
2
370
    50
100
AcDbPoint
 10
-1.307236
 20
80.704937
 30
0.0
  0
POINT
  5
AD
100
AcDbEntity
  8
2
370
    50
100
AcDbPoint
 10
28.692764
 20
80.704937
 30
0.0
  0
LINE
  5
AE
100
AcDbEntity
  8
2
370
    50
100
AcDbLine
 10
2.085093
 20
101.223997
 30
0.0
 11
-0.76888
 21
86.362811
 31
0.0
  0
ARC
  5
AF
100
AcDbEntity
  8
2
370
    50
100
AcDbCircle
 10
28.692764
 20
80.704937
 30
0.0
 40
30.0
100
AcDbArc
 50
169.129151
 51
190.870849
  0
LINE
  5
B0
100
AcDbEntity
  8
2
370
    50
100
AcDbLine
 10
2.085093
 20
60.185877
 30
0.0
 11
-0.76888
 21
75.047062
 31
0.0
  0
LINE
  5
B1
100
AcDbEntity
  8
2
370
    50
100
AcDbLine
 10
-7.733373
 20
106.892691
 30
0.0
 11
-16.307236
 21
99.47341
 31
0.0
  0
LINE
  5
B2
100
AcDbEntity
  8
2
370
    50
100
AcDbLine
 10
-7.733373
 20
54.517183
 30
0.0
 11
-16.307236
 21
61.936464
 31
0.0
  0
CIRCLE
  5
B3
100
AcDbEntity
  8
2
370
    50
100
AcDbCircle
 10
-16.307236
 20
80.704937
 30
0.0
 40
7.0
  0
CIRCLE
  5
B4
100
AcDbEntity
  8
2
370
    50
100
AcDbCircle
 10
-16.307236
 20
80.704937
 30
0.0
 40
5.5
  0
LINE
  5
B5
100
AcDbEntity
  8
2
370
    50
100
AcDbLine
 10
33.508007
 20
58.205423
 30
0.0
 11
33.508007
 21
103.205423
 31
0.0
  0
LINE
  5
B6
100
AcDbEntity
  8
2
370
    50
100
AcDbLine
 10
6.008007
 20
92.705423
 30
0.0
 11
18.723931
 21
92.705423
 31
0.0
  0
LINE
  5
B7
100
AcDbEntity
  8
2
370
    50
100
AcDbLine
 10
6.008007
 20
68.705423
 30
0.0
 11
18.723931
 21
68.705423
 31
0.0
  0
LINE
  5
B8
100
AcDbEntity
  8
2
370
    50
100
AcDbLine
 10
29.344642
 20
57.705423
 30
0.0
 11
33.008007
 21
57.705423
 31
0.0
  0
LINE
  5
B9
100
AcDbEntity
  8
2
370
    50
100
AcDbLine
 10
29.344642
 20
103.705423
 30
0.0
 11
33.008007
 21
103.705423
 31
0.0
  0
LINE
  5
BA
100
AcDbEntity
  8
2
370
    50
100
AcDbLine
 10
24.515013
 20
99.999518
 30
0.0
 11
23.55356
 21
96.411328
 31
0.0
  0
LINE
  5
BB
100
AcDbEntity
  8
2
370
    50
100
AcDbLine
 10
24.515013
 20
61.411328
 30
0.0
 11
23.55356
 21
64.999518
 31
0.0
  0
LINE
  5
BC
100
AcDbEntity
  8
2
370
    50
100
AcDbLine
 10
5.508007
 20
69.205423
 30
0.0
 11
5.508007
 21
92.205423
 31
0.0
  0
ARC
  5
BD
100
AcDbEntity
  8
2
370
    50
100
AcDbCircle
 10
18.723931
 20
97.705423
 30
0.0
 40
5.0
100
AcDbArc
 50
270.0
 51
345.0
  0
ARC
  5
BE
100
AcDbEntity
  8
2
370
    50
100
AcDbCircle
 10
18.723931
 20
63.705423
 30
0.0
 40
5.0
100
AcDbArc
 50
15.0
 51
90.0
  0
ARC
  5
BF
100
AcDbEntity
  8
2
370
    50
100
AcDbCircle
 10
29.344642
 20
98.705423
 30
0.0
 40
5.0
100
AcDbArc
 50
90.0
 51
165.0
  0
ARC
  5
C0
100
AcDbEntity
  8
2
370
    50
100
AcDbCircle
 10
29.344642
 20
62.705423
 30
0.0
 40
5.0
100
AcDbArc
 50
195.0
 51
270.0
  0
LINE
  5
C1
100
AcDbEntity
  8
2
370
    50
100
AcDbLine
 10
5.508007
 20
92.205423
 30
0.0
 11
6.008007
 21
92.705423
 31
0.0
  0
LINE
  5
C2
100
AcDbEntity
  8
2
370
    50
100
AcDbLine
 10
6.008007
 20
68.705423
 30
0.0
 11
5.508007
 21
69.205423
 31
0.0
  0
LINE
  5
C3
100
AcDbEntity
  8
2
370
    50
100
AcDbLine
 10
33.508007
 20
103.205423
 30
0.0
 11
33.008007
 21
103.705423
 31
0.0
  0
LINE
  5
C4
100
AcDbEntity
  8
2
370
    50
100
AcDbLine
 10
33.008007
 20
57.705423
 30
0.0
 11
33.508007
 21
58.205423
 31
0.0
  0
LINE
  5
C5
100
AcDbEntity
  8
2
370
    50
100
AcDbLine
 10
6.008007
 20
68.705423
 30
0.0
 11
6.008007
 21
92.705423
 31
0.0
  0
LINE
  5
C6
100
AcDbEntity
  8
2
370
    50
100
AcDbLine
 10
33.008007
 20
57.705423
 30
0.0
 11
33.008007
 21
103.705423
 31
0.0
  0
LINE
  5
C7
100
AcDbEntity
  8
2
370
    25
100
AcDbLine
 10
21.417481
 20
92.095195
 30
0.0
 11
21.417481
 21
80.705423
 31
0.0
  0
LINE
  5
C8
100
AcDbEntity
  8
2
370
    25
100
AcDbLine
 10
26.95525
 20
101.108075
 30
0.0
 11
26.95525
 21
80.705423
 31
0.0
  0
LINE
  5
C9
100
AcDbEntity
  8
2
370
    25
100
AcDbLine
 10
21.417481
 20
69.315651
 30
0.0
 11
21.417481
 21
80.705423
 31
0.0
  0
LINE
  5
CA
100
AcDbEntity
  8
2
370
    25
100
AcDbLine
 10
26.95525
 20
60.302771
 30
0.0
 11
26.95525
 21
80.705423
 31
0.0
  0
LINE
  5
CB
100
AcDbEntity
  8
2
370
    50
100
AcDbLine
 10
0.113001
 20
90.954937
 30
0.0
 11
5.508007
 21
90.954937
 31
0.0
  0
LINE
  5
CC
100
AcDbEntity
  8
2
370
    50
100
AcDbLine
 10
33.508007
 20
90.954937
 30
0.0
 11
52.758264
 21
90.954937
 31
0.0
  0
LINE
  5
CD
100
AcDbEntity
  8
2
370
    50
100
AcDbLine
 10
0.113001
 20
70.454937
 30
0.0
 11
5.508007
 21
70.454937
 31
0.0
  0
LINE
  5
CE
100
AcDbEntity
  8
2
370
    50
100
AcDbLine
 10
33.508007
 20
70.454937
 30
0.0
 11
52.758264
 21
70.454937
 31
0.0
  0
CIRCLE
  5
CF
100
AcDbEntity
  8
2
370
    50
100
AcDbCircle
 10
-16.307246
 20
80.705317
 30
0.0
 40
7.0
  0
CIRCLE
  5
D0
100
AcDbEntity
  8
2
370
    50
100
AcDbCircle
 10
-16.307246
 20
80.705317
 30
0.0
 40
5.5
  0
ARC
  5
D1
100
AcDbEntity
  8
2
370
    50
100
AcDbCircle
 10
-73.606527
 20
-43.286043
 30
0.0
 40
8.205286
100
AcDbArc
 50
270.0
 51
307.543478
  0
ARC
  5
D2
100
AcDbEntity
  8
2
370
    50
100
AcDbCircle
 10
-73.606527
 20
-46.491329
 30
0.0
 40
5.0
100
AcDbArc
 50
180.0
 51
270.0
  0
ARC
  5
D3
100
AcDbEntity
  8
2
370
    50
100
AcDbCircle
 10
-73.606527
 20
-29.146616
 30
0.0
 40
8.205286
100
AcDbArc
 50
52.456522
 51
90.0
  0
ARC
  5
D4
100
AcDbEntity
  8
2
370
    50
100
AcDbCircle
 10
-73.606527
 20
-25.941329
 30
0.0
 40
5.0
100
AcDbArc
 50
90.0
 51
180.0
  0
LINE
  5
D5
100
AcDbEntity
  8
2
370
    50
100
AcDbLine
 10
-68.606527
 20
-49.791942
 30
0.0
 11
-68.606527
 21
-22.640717
 31
0.0
  0
LINE
  5
D6
100
AcDbEntity
  8
2
370
    50
100
AcDbLine
 10
-78.606527
 20
-46.491329
 30
0.0
 11
-78.606527
 21
-25.941329
 31
0.0
  0
LINE
  5
D7
100
AcDbEntity
  8
2
370
    25
  6
CENTER
100
AcDbLine
 10
-113.119604
 20
-58.941005
 30
0.0
 11
-117.32869
 21
-82.811919
 31
0.0
  0
LINE
  5
D8
100
AcDbEntity
  8
2
370
    50
100
AcDbLine
 10
-105.339622
 20
-60.312825
 30
0.0
 11
-105.961351
 21
-63.838822
 31
0.0
  0
LINE
  5
D9
100
AcDbEntity
  8
2
370
    50
100
AcDbLine
 10
-120.899585
 20
-57.569184
 30
0.0
 11
-121.521313
 21
-61.095181
 31
0.0
  0
ARC
  5
DA
100
AcDbEntity
  8
2
370
    25
  6
CENTER
100
AcDbCircle
 10
-86.03739
 20
-63.716329
 30
0.0
 40
27.5
100
AcDbArc
 50
90.0
 51
170.0
  0
ARC
  5
DB
100
AcDbEntity
  8
2
370
    50
100
AcDbCircle
 10
-86.03739
 20
-63.716329
 30
0.0
 40
19.6
100
AcDbArc
 50
90.0
 51
170.0
  0
ARC
  5
DC
100
AcDbEntity
  8
2
370
    50
100
AcDbCircle
 10
-86.03739
 20
-63.716329
 30
0.0
 40
35.4
100
AcDbArc
 50
90.0
 51
170.0
  0
LINE
  5
DD
100
AcDbEntity
  8
2
370
    50
100
AcDbLine
 10
-123.844864
 20
-77.440015
 30
0.0
 11
-109.36819
 21
-79.992644
 31
0.0
  0
LINE
  5
DE
100
AcDbEntity
  8
2
370
    50
100
AcDbLine
 10
-106.435669
 20
-68.83232
 30
0.0
 11
-106.661411
 21
-70.11257
 31
0.0
  0
LINE
  5
DF
100
AcDbEntity
  8
2
370
    50
100
AcDbLine
 10
-122.783477
 20
-65.94976
 30
0.0
 11
-123.00922
 21
-67.230011
 31
0.0
  0
LINE
  5
E0
100
AcDbEntity
  8
2
370
    50
100
AcDbLine
 10
-107.255871
 20
-65.133703
 30
0.0
 11
-107.603168
 21
-67.103319
 31
0.0
  0
LINE
  5
E1
100
AcDbEntity
  8
2
370
    50
100
AcDbLine
 10
-120.747737
 20
-62.754723
 30
0.0
 11
-121.095034
 21
-64.724339
 31
0.0
  0
LINE
  5
E2
100
AcDbEntity
  8
2
370
    50
100
AcDbLine
 10
-107.191399
 20
-70.526832
 30
0.0
 11
-108.788962
 21
-79.587064
 31
0.0
  0
LINE
  5
E3
100
AcDbEntity
  8
2
370
    50
100
AcDbLine
 10
-122.652881
 20
-67.800556
 30
0.0
 11
-124.250444
 21
-76.860787
 31
0.0
  0
LINE
  5
E4
100
AcDbEntity
  8
2
370
    50
100
AcDbLine
 10
-107.191399
 20
-70.526832
 30
0.0
 11
-106.661411
 21
-70.11257
 31
0.0
  0
LINE
  5
E5
100
AcDbEntity
  8
2
370
    50
100
AcDbLine
 10
-122.652881
 20
-67.800556
 30
0.0
 11
-123.00922
 21
-67.230011
 31
0.0
  0
LINE
  5
E6
100
AcDbEntity
  8
2
370
    50
100
AcDbLine
 10
-122.783477
 20
-65.94976
 30
0.0
 11
-121.095034
 21
-64.724339
 31
0.0
  0
LINE
  5
E7
100
AcDbEntity
  8
2
370
    50
100
AcDbLine
 10
-106.435669
 20
-68.83232
 30
0.0
 11
-107.603168
 21
-67.103319
 31
0.0
  0
LINE
  5
E8
100
AcDbEntity
  8
2
370
    50
100
AcDbLine
 10
-107.255871
 20
-65.133703
 30
0.0
 11
-105.961351
 21
-63.838822
 31
0.0
  0
LINE
  5
E9
100
AcDbEntity
  8
2
370
    50
100
AcDbLine
 10
-120.747737
 20
-62.754723
 30
0.0
 11
-121.521313
 21
-61.095181
 31
0.0
  0
ARC
  5
EA
100
AcDbEntity
  8
2
370
    50
100
AcDbCircle
 10
-109.281366
 20
-79.50024
 30
0.0
 40
0.5
100
AcDbArc
 50
260.0
 51
350.0
  0
LINE
  5
EB
100
AcDbEntity
  8
2
370
    50
100
AcDbLine
 10
-86.03739
 20
-28.316329
 30
0.0
 11
-78.606527
 21
-28.316329
 31
0.0
  0
LINE
  5
EC
100
AcDbEntity
  8
2
370
    50
100
AcDbLine
 10
-86.03739
 20
-44.116329
 30
0.0
 11
-78.606527
 21
-44.116329
 31
0.0
  0
POINT
  5
ED
100
AcDbEntity
  8
2
370
    50
100
AcDbPoint
 10
-116.606527
 20
-78.716329
 30
0.0
  0
ARC
  5
EE
100
AcDbEntity
  8
2
370
    50
100
AcDbCircle
 10
-123.75804
 20
-76.947611
 30
0.0
 40
0.5
100
AcDbArc
 50
170.0
 51
260.0
  0
LINE
  5
EF
100
AcDbEntity
  8
2
370
    50
100
AcDbLine
 10
-40.306382
 20
93.704937
 30
0.0
 11
-36.807236
 21
93.704937
 31
0.0
  0
LINE
  5
F0
100
AcDbEntity
  8
2
370
    50
100
AcDbLine
 10
-40.306382
 20
67.704937
 30
0.0
 11
-36.807236
 21
67.704937
 31
0.0
  0
LINE
  5
F1
100
AcDbEntity
  8
2
370
    50
100
AcDbLine
 10
-40.307236
 20
93.104937
 30
0.0
 11
-39.268005
 21
93.704937
 31
0.0
  0
LINE
  5
F2
100
AcDbEntity
  8
2
370
    50
100
AcDbLine
 10
-40.307236
 20
68.304937
 30
0.0
 11
-39.268005
 21
67.704937
 31
0.0
  0
LINE
  5
F3
100
AcDbEntity
  8
2
370
    50
100
AcDbLine
 10
-36.807236
 20
93.704937
 30
0.0
 11
-35.150871
 21
92.897074
 31
0.0
  0
LINE
  5
F4
100
AcDbEntity
  8
2
370
    50
100
AcDbLine
 10
-30.853917
 20
91.905255
 30
0.0
 11
-27.458273
 21
91.905573
 31
0.0
  0
ARC
  5
F5
100
AcDbEntity
  8
2
370
    50
100
AcDbCircle
 10
-30.854834
 20
101.705255
 30
0.0
 40
9.8
100
AcDbArc
 50
244.0
 51
270.005362
  0
ARC
  5
F6
100
AcDbEntity
  8
2
370
    50
100
AcDbCircle
 10
-30.854834
 20
59.704618
 30
0.0
 40
9.8
100
AcDbArc
 50
89.994638
 51
116.0
  0
LINE
  5
F7
100
AcDbEntity
  8
2
370
    50
100
AcDbLine
 10
-36.807236
 20
67.704937
 30
0.0
 11
-35.150871
 21
68.5128
 31
0.0
  0
ARC
  5
F8
100
AcDbEntity
  8
2
370
    50
100
AcDbCircle
 10
-30.854834
 20
59.704618
 30
0.0
 40
9.8
100
AcDbArc
 50
89.994638
 51
116.0
  0
LINE
  5
F9
100
AcDbEntity
  8
2
370
    50
100
AcDbLine
 10
-30.853917
 20
69.504618
 30
0.0
 11
-27.324343
 21
69.504288
 31
0.0
  0
ARC
  5
FA
100
AcDbEntity
  8
2
370
    50
100
AcDbCircle
 10
-41.307236
 20
80.704937
 30
0.0
 40
6.0
100
AcDbArc
 50
109.129151
 51
250.870849
  0
LINE
  5
FB
100
AcDbEntity
  8
2
370
    50
100
AcDbLine
 10
-16.307236
 20
99.47341
 30
0.0
 11
-19.176551
 21
96.990485
 31
0.0
  0
LINE
  5
FC
100
AcDbEntity
  8
2
370
    50
100
AcDbLine
 10
-43.273428
 20
86.373631
 30
0.0
 11
-28.976277
 21
91.332611
 31
0.0
  0
ARC
  5
FD
100
AcDbEntity
  8
2
370
    50
100
AcDbCircle
 10
-38.807236
 20
119.67608
 30
0.0
 40
30.0
100
AcDbArc
 50
289.129151
 51
310.870849
  0
LINE
  5
FE
100
AcDbEntity
  8
2
370
    50
100
AcDbLine
 10
-16.307236
 20
61.936464
 30
0.0
 11
-19.176551
 21
64.419388
 31
0.0
  0
LINE
  5
FF
100
AcDbEntity
  8
2
370
    50
100
AcDbLine
 10
-43.273428
 20
75.036243
 30
0.0
 11
-28.976277
 21
70.077263
 31
0.0
  0
ARC
  5
100
100
AcDbEntity
  8
2
370
    50
100
AcDbCircle
 10
-38.807236
 20
41.733794
 30
0.0
 40
30.0
100
AcDbArc
 50
49.129151
 51
70.870849
  0
LINE
  5
101
100
AcDbEntity
  8
2
370
    50
100
AcDbLine
 10
-36.807236
 20
67.704937
 30
0.0
 11
-36.807236
 21
72.793438
 31
0.0
  0
LINE
  5
102
100
AcDbEntity
  8
2
370
    50
100
AcDbLine
 10
-36.807236
 20
88.616435
 30
0.0
 11
-36.807236
 21
93.704937
 31
0.0
  0
LINE
  5
103
100
AcDbEntity
  8
2
370
    50
100
AcDbLine
 10
-40.307236
 20
68.304937
 30
0.0
 11
-40.307236
 21
74.007417
 31
0.0
  0
LINE
  5
104
100
AcDbEntity
  8
2
370
    50
100
AcDbLine
 10
-40.307236
 20
87.402457
 30
0.0
 11
-40.307236
 21
93.104937
 31
0.0
  0
CIRCLE
  5
105
100
AcDbEntity
  8
2
370
    50
100
AcDbCircle
 10
-16.307236
 20
80.704937
 30
0.0
 40
7.0
  0
CIRCLE
  5
106
100
AcDbEntity
  8
2
370
    50
100
AcDbCircle
 10
-16.307236
 20
80.704937
 30
0.0
 40
5.5
  0
LINE
  5
107
100
AcDbEntity
  8
2
370
    50
100
AcDbLine
 10
-40.307382
 20
68.704937
 30
0.0
 11
-40.307382
 21
74.007467
 31
0.0
  0
LINE
  5
108
100
AcDbEntity
  8
2
370
    50
100
AcDbLine
 10
-40.307382
 20
87.402406
 30
0.0
 11
-40.307382
 21
92.704937
 31
0.0
  0
LINE
  5
109
100
AcDbEntity
  8
2
370
    50
100
AcDbLine
 10
-113.741552
 20
88.604937
 30
0.0
 11
-78.606382
 21
88.604937
 31
0.0
  0
LINE
  5
10A
100
AcDbEntity
  8
2
370
    50
100
AcDbLine
 10
-113.741552
 20
72.804937
 30
0.0
 11
-78.606382
 21
72.804937
 31
0.0
  0
LINE
  5
10B
100
AcDbEntity
  8
2
370
    50
100
AcDbLine
 10
-78.606382
 20
71.704937
 30
0.0
 11
-78.606382
 21
89.704937
 31
0.0
  0
ELLIPSE
  5
10C
100
AcDbEntity
  8
2
370
    50
100
AcDbEllipse
 10
-113.741552
 20
80.704937
 30
0.0
 11
0.0
 21
7.9000000000000004
 31
0.0
210
0.0
220
0.0
230
1.0
 40
0.984808
 41
0.0
 42
3.1415929999999999
  0
LINE
  5
10D
100
AcDbEntity
  8
2
370
    50
100
AcDbLine
 10
-114.835536
 20
89.004937
 30
0.0
 11
-114.609793
 21
89.004937
 31
0.0
  0
LINE
  5
10E
100
AcDbEntity
  8
2
370
    50
100
AcDbLine
 10
-114.609793
 20
72.404937
 30
0.0
 11
-114.835536
 21
72.404937
 31
0.0
  0
ELLIPSE
  5
10F
100
AcDbEntity
  8
2
370
    50
100
AcDbEllipse
 10
-114.609793
 20
80.704937
 30
0.0
 11
0.0
 21
8.3000000000000007
 31
0.0
210
0.0
220
0.0
230
1.0
 40
0.984808
 41
5.9714650000000002
 42
3.4533130000000001
  0
ELLIPSE
  5
110
100
AcDbEntity
  8
2
370
    50
100
AcDbEllipse
 10
-114.835536
 20
80.704937
 30
0.0
 11
0.0
 21
8.3000000000000007
 31
0.0
210
0.0
220
0.0
230
1.0
 40
0.984808
 41
0.0
 42
3.1415929999999999
  0
ELLIPSE
  5
111
100
AcDbEntity
  8
2
370
    50
100
AcDbEllipse
 10
-116.606747
 20
80.704937
 30
0.0
 11
0.0
 21
7.8499999999999996
 31
0.0
210
0.0
220
0.0
230
1.0
 40
0.984808
 41
0.143309
 42
2.9982839999999999
  0
ARC
  5
112
100
AcDbEntity
  8
2
370
    50
100
AcDbCircle
 10
-70.606382
 20
94.104937
 30
0.0
 40
2.0
100
AcDbArc
 50
0.0
 51
17.457063
  0
ARC
  5
113
100
AcDbEntity
  8
2
370
    50
100
AcDbCircle
 10
-73.606382
 20
70.304937
 30
0.0
 40
5.0
100
AcDbArc
 50
180.0
 51
226.054183
  0
ARC
  5
114
100
AcDbEntity
  8
2
370
    50
100
AcDbCircle
 10
-73.606382
 20
91.104937
 30
0.0
 40
5.0
100
AcDbArc
 50
133.945817
 51
180.0
  0
LINE
  5
115
100
AcDbEntity
  8
2
370
    50
100
AcDbLine
 10
-78.606382
 20
70.304937
 30
0.0
 11
-78.606382
 21
91.104937
 31
0.0
  0
ARC
  5
116
100
AcDbEntity
  8
2
370
    50
100
AcDbCircle
 10
-70.606382
 20
67.304937
 30
0.0
 40
2.0
100
AcDbArc
 50
342.542937
 51
360.0
  0
LINE
  5
117
100
AcDbEntity
  8
2
370
    50
100
AcDbLine
 10
-68.698498
 20
94.704919
 30
0.0
 11
-77.076271
 21
94.704919
 31
0.0
  0
LINE
  5
118
100
AcDbEntity
  8
2
370
    50
100
AcDbLine
 10
-68.698498
 20
66.704955
 30
0.0
 11
-77.076271
 21
66.704955
 31
0.0
  0
LINE
  5
119
100
AcDbEntity
  8
2
370
    50
100
AcDbLine
 10
-68.606382
 20
94.104937
 30
0.0
 11
-68.606382
 21
67.304937
 31
0.0
  0
ELLIPSE
  5
11A
100
AcDbEntity
  8
2
370
    50
100
AcDbEllipse
 10
-72.832952
 20
87.704955
 30
0.0
 11
0.0
 21
5.2365899999999996
 31
0.0
210
0.0
220
0.0
230
1.0
 40
0.779251
 41
0.0
 42
6.2831849999999996
  0
ELLIPSE
  5
11B
100
AcDbEntity
  8
2
370
    50
100
AcDbEllipse
 10
-72.832952
 20
73.704919
 30
0.0
 11
0.0
 21
-5.2365899999999996
 31
0.0
210
0.0
220
0.0
230
1.0
 40
0.779251
 41
0.0
 42
6.2831849999999996
  0
LINE
  5
11C
100
AcDbEntity
  8
2
370
    50
100
AcDbLine
 10
-59.606382
 20
66.704937
 30
0.0
 11
-59.606382
 21
94.704937
 31
0.0
  0
LINE
  5
11D
100
AcDbEntity
  8
2
370
    50
100
AcDbLine
 10
-68.646791
 20
93.704937
 30
0.0
 11
-59.606382
 21
93.704937
 31
0.0
  0
LINE
  5
11E
100
AcDbEntity
  8
2
370
    50
100
AcDbLine
 10
-68.606382
 20
67.704937
 30
0.0
 11
-59.606382
 21
67.704937
 31
0.0
  0
LINE
  5
11F
100
AcDbEntity
  8
2
370
    50
100
AcDbLine
 10
-68.606236
 20
68.304937
 30
0.0
 11
-68.006236
 21
67.704937
 31
0.0
  0
LINE
  5
120
100
AcDbEntity
  8
2
370
    50
100
AcDbLine
 10
-68.606236
 20
68.304937
 30
0.0
 11
-68.149093
 21
67.847794
 31
0.0
  0
LINE
  5
121
100
AcDbEntity
  8
2
370
    50
100
AcDbLine
 10
-68.606236
 20
68.304937
 30
0.0
 11
-68.149093
 21
67.847794
 31
0.0
  0
LINE
  5
122
100
AcDbEntity
  8
2
370
    50
100
AcDbLine
 10
-68.606236
 20
68.304937
 30
0.0
 11
-68.149093
 21
67.847794
 31
0.0
  0
LINE
  5
123
100
AcDbEntity
  8
2
370
    50
100
AcDbLine
 10
-58.606827
 20
68.360079
 30
0.0
 11
-58.606827
 21
66.704937
 31
0.0
  0
LINE
  5
124
100
AcDbEntity
  8
2
370
    50
100
AcDbLine
 10
-40.306382
 20
66.704937
 30
0.0
 11
-59.606382
 21
66.704937
 31
0.0
  0
LINE
  5
125
100
AcDbEntity
  8
2
370
    50
100
AcDbLine
 10
-47.074428
 20
79.049794
 30
0.0
 11
-58.606827
 21
79.049794
 31
0.0
  0
LINE
  5
126
100
AcDbEntity
  8
2
370
    50
100
AcDbLine
 10
-41.056938
 20
68.360079
 30
0.0
 11
-58.606827
 21
68.360079
 31
0.0
  0
LINE
  5
127
100
AcDbEntity
  8
2
370
    50
100
AcDbLine
 10
-47.074428
 20
82.360079
 30
0.0
 11
-58.606827
 21
82.360079
 31
0.0
  0
LINE
  5
128
100
AcDbEntity
  8
2
370
    50
100
AcDbLine
 10
-58.606827
 20
93.049794
 30
0.0
 11
-58.606827
 21
94.704937
 31
0.0
  0
LINE
  5
129
100
AcDbEntity
  8
2
370
    50
100
AcDbLine
 10
-40.306382
 20
94.704937
 30
0.0
 11
-59.606382
 21
94.704937
 31
0.0
  0
LINE
  5
12A
100
AcDbEntity
  8
2
370
    50
100
AcDbLine
 10
-41.305938
 20
93.049794
 30
0.0
 11
-58.606827
 21
93.049794
 31
0.0
  0
LINE
  5
12B
100
AcDbEntity
  8
2
370
    50
100
AcDbLine
 10
-68.606236
 20
93.104937
 30
0.0
 11
-68.006236
 21
93.704937
 31
0.0
  0
LINE
  5
12C
100
AcDbEntity
  8
2
370
    50
100
AcDbLine
 10
-40.306382
 20
66.704937
 30
0.0
 11
-40.306382
 21
73.938097
 31
0.0
  0
LINE
  5
12D
100
AcDbEntity
  8
2
370
    50
100
AcDbLine
 10
-40.306382
 20
87.471776
 30
0.0
 11
-40.306382
 21
94.704937
 31
0.0
  0
LINE
  5
12E
100
AcDbEntity
  8
2
370
    50
100
AcDbLine
 10
-58.606827
 20
82.360079
 30
0.0
 11
-58.606827
 21
79.049794
 31
0.0
  0
ARC
  5
12F
100
AcDbEntity
  8
2
370
    50
100
AcDbCircle
 10
-44.816501
 20
87.704937
 30
0.0
 40
14.789882
100
AcDbArc
 50
158.814656
 51
201.185344
  0
ARC
  5
130
100
AcDbEntity
  8
2
370
    50
100
AcDbCircle
 10
-44.816501
 20
73.704937
 30
0.0
 40
14.789882
100
AcDbArc
 50
158.814656
 51
201.185344
  0
LINE
  5
131
100
AcDbEntity
  8
2
370
    50
100
AcDbLine
 10
-41.305938
 20
68.360079
 30
0.0
 11
-41.305938
 21
66.704937
 31
0.0
  0
LINE
  5
132
100
AcDbEntity
  8
2
370
    50
100
AcDbLine
 10
-41.305938
 20
93.049794
 30
0.0
 11
-41.305938
 21
94.704937
 31
0.0
  0
ARC
  5
133
100
AcDbEntity
  8
2
370
    50
100
AcDbCircle
 10
-55.096264
 20
87.704937
 30
0.0
 40
14.789882
100
AcDbArc
 50
0.0
 51
21.185344
  0
ARC
  5
134
100
AcDbEntity
  8
2
370
    50
100
AcDbCircle
 10
-55.096264
 20
73.704937
 30
0.0
 40
14.789882
100
AcDbArc
 50
338.814656
 51
359.333719
  0
LINE
  5
135
100
AcDbEntity
  8
2
370
    50
100
AcDbLine
 10
52.720755
 20
-25.96803
 30
0.0
 11
52.720755
 21
-46.46803
 31
0.0
  0
LINE
  5
136
100
AcDbEntity
  8
2
370
    50
100
AcDbLine
 10
33.008369
 20
-13.217951
 30
0.0
 11
33.008369
 21
-59.217951
 31
0.0
  0
LINE
  5
137
100
AcDbEntity
  8
2
370
    50
100
AcDbLine
 10
6.008369
 20
-24.217951
 30
0.0
 11
6.008369
 21
-48.217951
 31
0.0
  0
LINE
  5
138
100
AcDbEntity
  8
2
370
    25
100
AcDbLine
 10
26.955612
 20
-56.620196
 30
0.0
 11
26.955612
 21
-36.217544
 31
0.0
  0
LINE
  5
139
100
AcDbEntity
  8
2
370
    25
100
AcDbLine
 10
21.417842
 20
-47.607316
 30
0.0
 11
21.417842
 21
-36.217544
 31
0.0
  0
LINE
  5
13A
100
AcDbEntity
  8
2
370
    25
100
AcDbLine
 10
21.417842
 20
-24.827772
 30
0.0
 11
21.417842
 21
-36.217544
 31
0.0
  0
LINE
  5
13B
100
AcDbEntity
  8
2
370
    25
100
AcDbLine
 10
26.955612
 20
-15.814892
 30
0.0
 11
26.955612
 21
-36.217544
 31
0.0
  0
ELLIPSE
  5
13C
100
AcDbEntity
  8
2
370
    50
100
AcDbEllipse
 10
-72.856527
 20
-36.21803
 30
0.0
 11
0.0
 21
-6.0
 31
0.0
210
0.0
220
0.0
230
1.0
 40
0.625
 41
0.0
 42
6.2831849999999996
  0
ELLIPSE
  5
13D
100
AcDbEntity
  8
2
370
    50
100
AcDbEllipse
 10
-72.856527
 20
-48.512828
 30
0.0
 11
3.75
 21
0.0
 31
0.0
210
0.0
220
0.0
230
1.0
 40
0.8
 41
0.0
 42
6.2831849999999996
  0
ELLIPSE
  5
13E
100
AcDbEntity
  8
2
370
    50
100
AcDbEllipse
 10
-72.856527
 20
-23.923233
 30
0.0
 11
-3.75
 21
0.0
 31
0.0
210
0.0
220
0.0
230
1.0
 40
0.8
 41
0.0
 42
6.2831849999999996
  0
LINE
  5
13F
100
AcDbEntity
  8
2
370
    50
100
AcDbLine
 10
-41.306527
 20
-42.389714
 30
0.0
 11
-41.306527
 21
-45.256505
 31
0.0
  0
LINE
  5
140
100
AcDbEntity
  8
2
370
    50
100
AcDbLine
 10
-41.306527
 20
-42.389714
 30
0.0
 11
-58.606527
 21
-42.389714
 31
0.0
  0
LINE
  5
141
100
AcDbEntity
  8
2
370
    50
100
AcDbLine
 10
-41.306527
 20
-45.256505
 30
0.0
 11
-58.606527
 21
-45.256505
 31
0.0
  0
ARC
  5
142
100
AcDbEntity
  8
2
370
    50
100
AcDbCircle
 10
-45.707579
 20
-48.387336
 30
0.0
 40
5.401052
100
AcDbArc
 50
324.57262
 51
35.42738
  0
ARC
  5
143
100
AcDbEntity
  8
2
370
    50
100
AcDbCircle
 10
-59.851366
 20
-36.21803
 30
0.0
 40
19.544839
100
AcDbArc
 50
341.592665
 51
360.0
  0
LINE
  5
144
100
AcDbEntity
  8
2
370
    50
100
AcDbLine
 10
-58.606527
 20
-42.389714
 30
0.0
 11
-58.606527
 21
-45.256505
 31
0.0
  0
ARC
  5
145
100
AcDbEntity
  8
2
370
    50
100
AcDbCircle
 10
-54.205475
 20
-48.387336
 30
0.0
 40
5.401052
100
AcDbArc
 50
144.57262
 51
215.42738
  0
ARC
  5
146
100
AcDbEntity
  8
2
370
    50
100
AcDbCircle
 10
-40.061688
 20
-36.21803
 30
0.0
 40
19.544839
100
AcDbArc
 50
180.0
 51
198.407335
  0
LINE
  5
147
100
AcDbEntity
  8
2
370
    50
100
AcDbLine
 10
-41.306527
 20
-30.046347
 30
0.0
 11
-41.306527
 21
-27.179556
 31
0.0
  0
LINE
  5
148
100
AcDbEntity
  8
2
370
    50
100
AcDbLine
 10
-41.306527
 20
-30.046347
 30
0.0
 11
-58.606527
 21
-30.046347
 31
0.0
  0
LINE
  5
149
100
AcDbEntity
  8
2
370
    50
100
AcDbLine
 10
-41.306527
 20
-27.179556
 30
0.0
 11
-58.606527
 21
-27.179556
 31
0.0
  0
ARC
  5
14A
100
AcDbEntity
  8
2
370
    50
100
AcDbCircle
 10
-45.707579
 20
-24.048724
 30
0.0
 40
5.401052
100
AcDbArc
 50
324.57262
 51
35.42738
  0
ARC
  5
14B
100
AcDbEntity
  8
2
370
    50
100
AcDbCircle
 10
-59.851366
 20
-36.21803
 30
0.0
 40
19.544839
100
AcDbArc
 50
0.0
 51
18.407335
  0
LINE
  5
14C
100
AcDbEntity
  8
2
370
    50
100
AcDbLine
 10
-58.606527
 20
-30.046347
 30
0.0
 11
-58.606527
 21
-27.179556
 31
0.0
  0
ARC
  5
14D
100
AcDbEntity
  8
2
370
    50
100
AcDbCircle
 10
-54.205475
 20
-24.048724
 30
0.0
 40
5.401052
100
AcDbArc
 50
144.57262
 51
215.42738
  0
ARC
  5
14E
100
AcDbEntity
  8
2
370
    50
100
AcDbCircle
 10
-40.061688
 20
-36.21803
 30
0.0
 40
19.544839
100
AcDbArc
 50
161.592665
 51
180.0
  0
LINE
  5
14F
100
AcDbEntity
  8
2
370
    50
100
AcDbLine
 10
-120.747737
 20
-62.754723
 30
0.0
 11
-107.255871
 21
-65.133703
 31
0.0
  0
LINE
  5
150
100
AcDbEntity
  8
2
370
    50
100
AcDbLine
 10
-107.603168
 20
-67.103319
 30
0.0
 11
-121.095034
 21
-64.724339
 31
0.0
  0
LINE
  5
151
100
AcDbEntity
  8
2
370
    50
100
AcDbLine
 10
-122.783477
 20
-65.94976
 30
0.0
 11
-106.435669
 21
-68.83232
 31
0.0
  0
LINE
  5
152
100
AcDbEntity
  8
2
370
    50
100
AcDbLine
 10
-106.661411
 20
-70.11257
 30
0.0
 11
-123.00922
 21
-67.230011
 31
0.0
  0
LINE
  5
153
100
AcDbEntity
  8
2
370
    50
100
AcDbLine
 10
-122.652881
 20
-67.800556
 30
0.0
 11
-107.191399
 21
-70.526832
 31
0.0
  0
LINE
  5
154
100
AcDbEntity
  8
2
370
    50
100
AcDbLine
 10
-105.961351
 20
-63.838822
 30
0.0
 11
-121.521313
 21
-61.095181
 31
0.0
  0
LINE
  5
155
100
AcDbEntity
  8
2
370
    25
100
AcDbLine
 10
-16.306992
 20
18.781592
 30
0.0
 11
-16.306992
 21
21.781592
 31
0.0
  0
LINE
  5
156
100
AcDbEntity
  8
2
370
    50
100
AcDbLine
 10
-3.806992
 20
-4.718408
 30
0.0
 11
-28.806992
 21
-4.718408
 31
0.0
  0
ELLIPSE
  5
157
100
AcDbEntity
  8
2
370
    50
100
AcDbEllipse
 10
-16.306992
 20
-8.218408
 30
0.0
 11
5.0
 21
0.0
 31
0.0
210
0.0
220
0.0
230
1.0
 40
0.6
 41
0.0
 42
6.2831849999999996
  0
ELLIPSE
  5
158
100
AcDbEntity
  8
2
370
    50
100
AcDbEllipse
 10
-4.877706
 20
-8.218408
 30
0.0
 11
0.0
 21
3.0
 31
0.0
210
0.0
220
0.0
230
1.0
 40
0.833333
 41
0.0
 42
6.2831849999999996
  0
ELLIPSE
  5
159
100
AcDbEntity
  8
2
370
    50
100
AcDbEllipse
 10
-27.736278
 20
-8.218408
 30
0.0
 11
0.0
 21
-3.0
 31
0.0
210
0.0
220
0.0
230
1.0
 40
0.833333
 41
0.0
 42
6.2831849999999996
  0
LINE
  5
15A
100
AcDbEntity
  8
2
370
    50
100
AcDbLine
 10
-8.306992
 20
8.781592
 30
0.0
 11
-8.306992
 21
13.755876
 31
0.0
  0
ARC
  5
15B
100
AcDbEntity
  8
2
370
    50
100
AcDbCircle
 10
-13.306992
 20
13.755876
 30
0.0
 40
5.0
100
AcDbArc
 50
0.0
 51
89.017739
  0
ARC
  5
15C
100
AcDbEntity
  8
2
370
    50
100
AcDbCircle
 10
-9.306992
 20
8.781592
 30
0.0
 40
1.0
100
AcDbArc
 50
270.0
 51
360.0
  0
LINE
  5
15D
100
AcDbEntity
  8
2
370
    25
100
AcDbLine
 10
-15.806992
 20
18.780897
 30
0.0
 11
-15.806992
 21
21.781592
 31
0.0
  0
LINE
  5
15E
100
AcDbEntity
  8
2
370
    25
100
AcDbLine
 10
-15.306992
 20
18.780897
 30
0.0
 11
-15.306992
 21
21.781592
 31
0.0
  0
LINE
  5
15F
100
AcDbEntity
  8
2
370
    25
100
AcDbLine
 10
-14.806992
 20
18.780897
 30
0.0
 11
-14.806992
 21
21.781592
 31
0.0
  0
LINE
  5
160
100
AcDbEntity
  8
2
370
    25
100
AcDbLine
 10
-14.306992
 20
18.780897
 30
0.0
 11
-14.306992
 21
21.781592
 31
0.0
  0
LINE
  5
161
100
AcDbEntity
  8
2
370
    25
100
AcDbLine
 10
-13.806992
 20
18.780897
 30
0.0
 11
-13.806992
 21
21.781592
 31
0.0
  0
LINE
  5
162
100
AcDbEntity
  8
2
370
    25
100
AcDbLine
 10
-13.306992
 20
18.75659
 30
0.0
 11
-13.306992
 21
21.781592
 31
0.0
  0
LINE
  5
163
100
AcDbEntity
  8
2
370
    25
100
AcDbLine
 10
-12.806992
 20
18.747561
 30
0.0
 11
-12.806992
 21
21.781592
 31
0.0
  0
LINE
  5
164
100
AcDbEntity
  8
2
370
    25
100
AcDbLine
 10
-12.306992
 20
18.737142
 30
0.0
 11
-12.306992
 21
21.781592
 31
0.0
  0
LINE
  5
165
100
AcDbEntity
  8
2
370
    25
100
AcDbLine
 10
-11.806992
 20
18.725333
 30
0.0
 11
-11.806992
 21
21.781592
 31
0.0
  0
LINE
  5
166
100
AcDbEntity
  8
2
370
    25
100
AcDbLine
 10
-11.306992
 20
18.712134
 30
0.0
 11
-11.306992
 21
21.781592
 31
0.0
  0
LINE
  5
167
100
AcDbEntity
  8
2
370
    25
100
AcDbLine
 10
-10.806992
 20
18.697544
 30
0.0
 11
-10.806992
 21
21.781592
 31
0.0
  0
LINE
  5
168
100
AcDbEntity
  8
2
370
    25
100
AcDbLine
 10
-10.306992
 20
18.681564
 30
0.0
 11
-10.306992
 21
21.781592
 31
0.0
  0
LINE
  5
169
100
AcDbEntity
  8
2
370
    25
100
AcDbLine
 10
-9.806992
 20
18.664192
 30
0.0
 11
-9.806992
 21
21.781592
 31
0.0
  0
LINE
  5
16A
100
AcDbEntity
  8
2
370
    25
100
AcDbLine
 10
-16.806992
 20
18.780897
 30
0.0
 11
-16.806992
 21
21.781592
 31
0.0
  0
LINE
  5
16B
100
AcDbEntity
  8
2
370
    25
100
AcDbLine
 10
-17.306992
 20
18.780897
 30
0.0
 11
-17.306992
 21
21.781592
 31
0.0
  0
LINE
  5
16C
100
AcDbEntity
  8
2
370
    25
100
AcDbLine
 10
-17.806992
 20
18.780897
 30
0.0
 11
-17.806992
 21
21.781592
 31
0.0
  0
LINE
  5
16D
100
AcDbEntity
  8
2
370
    25
100
AcDbLine
 10
-18.306992
 20
18.780897
 30
0.0
 11
-18.306992
 21
21.781592
 31
0.0
  0
LINE
  5
16E
100
AcDbEntity
  8
2
370
    25
100
AcDbLine
 10
-18.806992
 20
18.780897
 30
0.0
 11
-18.806992
 21
21.781592
 31
0.0
  0
LINE
  5
16F
100
AcDbEntity
  8
2
370
    25
100
AcDbLine
 10
-19.306992
 20
18.75659
 30
0.0
 11
-19.306992
 21
21.781592
 31
0.0
  0
LINE
  5
170
100
AcDbEntity
  8
2
370
    25
100
AcDbLine
 10
-19.806992
 20
18.747561
 30
0.0
 11
-19.806992
 21
21.781592
 31
0.0
  0
LINE
  5
171
100
AcDbEntity
  8
2
370
    25
100
AcDbLine
 10
-20.306992
 20
18.737142
 30
0.0
 11
-20.306992
 21
21.781592
 31
0.0
  0
LINE
  5
172
100
AcDbEntity
  8
2
370
    25
100
AcDbLine
 10
-20.806992
 20
18.725333
 30
0.0
 11
-20.806992
 21
21.781592
 31
0.0
  0
LINE
  5
173
100
AcDbEntity
  8
2
370
    25
100
AcDbLine
 10
-21.306992
 20
18.712038
 30
0.0
 11
-21.306992
 21
21.781592
 31
0.0
  0
LINE
  5
174
100
AcDbEntity
  8
2
370
    25
100
AcDbLine
 10
-21.806992
 20
18.697544
 30
0.0
 11
-21.806992
 21
21.781592
 31
0.0
  0
LINE
  5
175
100
AcDbEntity
  8
2
370
    25
100
AcDbLine
 10
-22.306992
 20
18.681564
 30
0.0
 11
-22.306992
 21
21.781592
 31
0.0
  0
LINE
  5
176
100
AcDbEntity
  8
2
370
    25
100
AcDbLine
 10
-22.806992
 20
18.664192
 30
0.0
 11
-22.806992
 21
21.781592
 31
0.0
  0
ARC
  5
177
100
AcDbEntity
  8
2
370
    50
100
AcDbCircle
 10
-16.306992
 20
-161.218504
 30
0.0
 40
180.0
100
AcDbArc
 50
86.72409
 51
90.0
  0
LINE
  5
178
100
AcDbEntity
  8
2
370
    50
100
AcDbLine
 10
-4.906745
 20
-12.21803
 30
0.0
 11
-27.706745
 21
-12.21803
 31
0.0
  0
TEXT
  5
179
100
AcDbEntity
  8
3
370
    50
100
AcDbText
 10
145.416291
 20
-120.006746
 30
0.0
 40
3.0
  1
１　１
 72
     5
 11
153.816291
 21
-120.006746
 31
0.0
100
AcDbText
  0
TEXT
  5
17A
100
AcDbEntity
  8
3
370
    50
100
AcDbText
 10
172.549065
 20
-128.050147
 30
0.0
 40
3.0
  1
０５　　７　２７
 72
     5
 11
195.949065
 21
-128.050147
 31
0.0
100
AcDbText
  0
TEXT
  5
17B
100
AcDbEntity
  8
3
370
    50
100
AcDbText
 10
33.137161
 20
-118.09523
 30
0.0
 40
3.0
  1
Ｋ１３－１０１ＳＮ
 72
     5
 11
59.537161
 21
-118.09523
 31
0.0
100
AcDbText
  0
TEXT
  5
17C
100
AcDbEntity
  8
3
370
    50
100
AcDbText
 10
53.588726
 20
3.031123
 30
0.0
 40
3.0
  1
ＰＪ１／２
 72
     5
 11
67.988726
 21
3.031123
 31
0.0
100
AcDbText
  0
LWPOLYLINE
  5
17D
100
AcDbEntity
  8
3
370
    25
100
AcDbPolyline
 90
        3
 70
     0
 10
39.278896
 20
-25.96803
 10
50.311716
 20
1.98217
 10
73.491288
 20
1.98217
  0
LINE
  5
182
100
AcDbEntity
  8
3
370
    25
100
AcDbLine
 10
39.988199
 20
-24.171105
 30
0.0
 11
39.506714
 21
-23.981048
 31
0.0
  0
LINE
  5
183
100
AcDbEntity
  8
3
370
    25
100
AcDbLine
 10
39.506714
 20
-23.981048
 30
0.0
 11
39.278896
 21
-25.96803
 31
0.0
  0
LINE
  5
184
100
AcDbEntity
  8
3
370
    25
100
AcDbLine
 10
39.278896
 20
-25.96803
 30
0.0
 11
40.469684
 21
-24.361162
 31
0.0
  0
LINE
  5
185
100
AcDbEntity
  8
3
370
    25
100
AcDbLine
 10
40.469684
 20
-24.361162
 30
0.0
 11
39.988199
 21
-24.171105
 31
0.0
  0
DIMENSION
  5
186
100
AcDbEntity
  8
3
370
    25
100
AcDbDimension
  2
*D0
 10
71.657763
 20
-59.217951
 30
0.0
 11
66.657763
 21
-38.467951
 31
0.0
 70
     1
 71
     0
 72
     0
 41
0.0
 42
0.0
  3
Standard
100
AcDbAlignedDimension
 13
33.008369
 23
-13.217951
 33
0.0
 14
33.008369
 24
-59.217951
 34
0.0
 50
90.0
  0
DIMENSION
  5
187
100
AcDbEntity
  8
3
370
    25
100
AcDbDimension
  2
*D1
 10
-145.955383
 20
21.781496
 30
0.0
 11
-149.455383
 21
-7.718267
 31
0.0
 71
     0
 72
     0
 41
0.0
 42
0.0
  3
Standard
100
AcDbAlignedDimension
 13
-86.343229
 23
-36.21803
 33
0.0
 14
-23.306992
 24
21.781496
 34
0.0
 50
90.0
100
AcDbRotatedDimension
  0
DIMENSION
  5
188
100
AcDbEntity
  8
3
370
    25
100
AcDbDimension
  2
*D2
 10
-145.955383
 20
-36.21803
 30
0.0
 11
-152.455383
 21
-61.46718
 31
0.0
 71
     0
 72
     0
 41
0.0
 42
0.0
  3
Standard
100
AcDbAlignedDimension
 13
-116.606527
 23
-78.716329
 33
0.0
 14
-86.343229
 24
-36.21803
 34
0.0
 50
90.0
100
AcDbRotatedDimension
  0
DIMENSION
  5
189
100
AcDbEntity
  8
3
370
    25
100
AcDbDimension
  2
*D3
 10
53.693255
 20
-85.941177
 30
0.0
 11
18.193131
 21
-83.941177
 31
0.0
 71
     0
 72
     0
 41
0.0
 42
0.0
  3
Standard
100
AcDbAlignedDimension
 13
-16.306992
 23
-52.490131
 33
0.0
 14
53.693255
 24
-45.49553
 34
0.0
100
AcDbRotatedDimension
  0
TEXT
  5
18A
100
AcDbEntity
  8
3
370
    50
100
AcDbText
 10
-71.706759
 20
-85.441177
 30
0.0
 40
3.0
  1
１０１
 72
     5
 11
-63.306759
 21
-85.441177
 31
0.0
100
AcDbText
  0
DIMENSION
  5
18B
100
AcDbEntity
  8
3
370
    25
100
AcDbDimension
  2
*D4
 10
-16.306992
 20
-85.941177
 30
0.0
 11
-66.456759
 21
-83.941177
 31
0.0
 71
     0
 72
     0
 41
0.0
 42
0.0
  3
Standard
100
AcDbAlignedDimension
 13
-116.606527
 23
-78.716329
 33
0.0
 14
-16.306992
 24
-52.490131
 34
0.0
100
AcDbRotatedDimension
  0
TEXT
  5
18C
100
AcDbEntity
  8
3
370
    50
100
AcDbText
 10
-36.706636
 20
-100.972038
 30
0.0
 40
3.0
  1
１７１
 72
     5
 11
-28.306636
 21
-100.972038
 31
0.0
100
AcDbText
  0
DIMENSION
  5
18D
100
AcDbEntity
  8
3
370
    25
100
AcDbDimension
  2
*D5
 10
53.693255
 20
-101.472038
 30
0.0
 11
-31.456636
 21
-99.472038
 31
0.0
 71
     0
 72
     0
 41
0.0
 42
0.0
  3
Standard
100
AcDbAlignedDimension
 13
-116.606527
 23
-78.716329
 33
0.0
 14
53.693255
 24
-45.49553
 34
0.0
100
AcDbRotatedDimension
  0
DIMENSION
  5
18E
100
AcDbEntity
  8
3
370
    25
100
AcDbDimension
  2
*D6
 10
-116.606527
 20
-78.71818
 30
0.0
 11
-113.368858
 21
-96.688699
 31
0.0
 70
     2
 71
     0
 72
     0
 41
0.0
 42
0.0
  3
Standard
100
AcDb2LineAngularDimension
 13
-117.32869
 23
-82.811919
 33
0.0
 14
-116.606527
 24
-78.716329
 34
0.0
 15
-116.606527
 25
-78.716329
 35
0.0
 16
-118.219798
 26
-97.156106
 36
0.0
1001
ACAD
1000
DSTYLE
1002
{
1070
   275
1070
     0
1070
   179
1070
     0
1002
}
  0
TEXT
  5
18F
100
AcDbEntity
  8
3
370
    50
100
AcDbText
 10
-68.543381
 20
-69.01947
 30
0.0
 40
3.0
  1
逆止弁内蔵
 72
     5
 11
-54.143381
 21
-69.01947
 31
0.0
100
AcDbText
  0
LWPOLYLINE
  5
190
100
AcDbEntity
  8
3
370
    25
100
AcDbPolyline
 90
        2
 70
     0
 10
-53.459255
 20
-38.392887
 10
-61.104393
 20
-65.153732
  0
TEXT
  5
194
100
AcDbEntity
  8
3
370
    50
100
AcDbText
 10
33.577885
 20
-113.587622
 30
0.0
 40
3.0
  1
横水栓（吐水口回転・ホース接続・逆止・送り座）
 41
0.9
 72
     5
 11
95.137885
 21
-113.587622
 31
0.0
100
AcDbText
  0
TEXT
  5
195
100
AcDbEntity
  8
3
370
    50
100
AcDbText
 10
116.854675
 20
-135.845978
 30
0.0
 40
3.0
  1
外観寸法図
 72
     5
 11
131.254675
 21
-135.845978
 31
0.0
100
AcDbText
  0
TEXT
  5
196
100
AcDbEntity
  8
3
370
    50
100
AcDbText
 10
169.742371
 20
-135.79747
 30
0.0
 40
3.0
  1
５０１８５２
 72
     5
 11
187.142371
 21
-135.79747
 31
0.0
100
AcDbText
  0
TEXT
  5
197
100
AcDbEntity
  8
3
370
    50
100
AcDbText
 10
54.502098
 20
-2.055816
 30
0.0
 40
3.0
  1
給水栓ネジ
 72
     5
 11
68.902098
 21
-2.055816
 31
0.0
100
AcDbText
  0
TEXT
  5
198
100
AcDbEntity
  8
3
370
    50
100
AcDbText
 10
34.850812
 20
-74.689049
 30
0.0
 40
3.0
  1
ＭＡＸ
 72
     5
 11
43.250812
 21
-74.689049
 31
0.0
100
AcDbText
  0
DIMENSION
  5
199
100
AcDbEntity
  8
3
370
    25
100
AcDbDimension
  2
*D7
 10
53.693255
 20
-75.189049
 30
0.0
 11
46.850812
 21
-73.189049
 31
0.0
 71
     0
 72
     0
 41
0.0
 42
0.0
  3
Standard
100
AcDbAlignedDimension
 13
33.508369
 23
-58.717951
 33
0.0
 14
53.693255
 24
-45.49553
 34
0.0
100
AcDbRotatedDimension
  0
ENDSEC
  0
SECTION
  2
OBJECTS
  0
DICTIONARY
  5
1F8
100
AcDbDictionary
280
     0
281
     1
  3
ACAD_GROUP
350
1F9
  3
ACAD_MLINESTYLE
350
1FA
  0
DICTIONARY
  5
1F9
102
{ACAD_REACTORS
330
1F8
102
}
100
AcDbDictionary
280
     0
281
     1
  0
DICTIONARY
  5
1FA
102
{ACAD_REACTORS
330
1F8
102
}
100
AcDbDictionary
280
     0
281
     1
  3
Standard
350
1FB
  0
MLINESTYLE
  5
1FB
102
{ACAD_REACTORS
330
1FA
102
}
100
AcDbMlineStyle
  2
Standard
 70
     0
  3

 62
     0
 51
90.0
 52
90.0
 71
     2
 49
0.5
 62
   256
  6
ByLayer
 49
-0.5
 62
   256
  6
ByLayer
  0
ENDSEC
  0
EOF
