  0
SECTION
  2
HEADER
  9
$ACADVER
  1
AC1015
  9
$ACADMAINTVER
 70
     6
  9
$DWGCODEPAGE
  3
ANSI_932
  9
$INSBASE
 10
0.0
 20
0.0
 30
0.0
  9
$EXTMIN
 10
-420.5
 20
-297.0
 30
1.000000E+20
  9
$EXTMAX
 10
420.5
 20
297.0
 30
-1.000000E+20
  9
$LIMMIN
 10
-420.5
 20
-297.0
  9
$LIMMAX
 10
420.5
 20
297.0
  9
$ORTHOMODE
 70
     0
  9
$REGENMODE
 70
     1
  9
$FILLMODE
 70
     1
  9
$QTEXTMODE
 70
     0
  9
$MIRRTEXT
 70
     1
  9
$LTSCALE
 40
1.0
  9
$ATTMODE
 70
     1
  9
$TEXTSIZE
 40
0.2
  9
$TRACEWID
 40
0.05
  9
$TEXTSTYLE
  7
STANDARD
  9
$CLAYER
  8
0
  9
$CELTYPE
  6
CONTINUOUS
  9
$CECOLOR
 62
   256
  9
$CELTSCALE
 40
1.0
  9
$DISPSILH
 70
     0
  9
$DIMSCALE
 40
1.0
  9
$DIMASZ
 40
2.0
  9
$DIMEXO
 40
1.0
  9
$DIMDLI
 40
0.38
  9
$DIMRND
 40
0.0
  9
$DIMDLE
 40
0.0
  9
$DIMEXE
 40
2.0
  9
$DIMTP
 40
0.0
  9
$DIMTM
 40
0.0
  9
$DIMTXT
 40
3.5
  9
$DIMCEN
 40
0.09
  9
$DIMTSZ
 40
0.0
  9
$DIMTOL
 70
     0
  9
$DIMLIM
 70
     0
  9
$DIMTIH
 70
     0
  9
$DIMTOH
 70
     0
  9
$DIMSE1
 70
     0
  9
$DIMSE2
 70
     0
  9
$DIMTAD
 70
     1
  9
$DIMZIN
 70
     0
  9
$DIMBLK
  1

  9
$DIMASO
 70
     1
  9
$DIMSHO
 70
     1
  9
$DIMPOST
  1

  9
$DIMAPOST
  1

  9
$DIMALT
 70
     0
  9
$DIMALTD
 70
     2
  9
$DIMALTF
 40
25.4
  9
$DIMLFAC
 40
1.0
  9
$DIMTOFL
 70
     0
  9
$DIMTVP
 40
0.0
  9
$DIMTIX
 70
     0
  9
$DIMSOXD
 70
     0
  9
$DIMSAH
 70
     0
  9
$DIMBLK1
  1

  9
$DIMBLK2
  1

  9
$DIMSTYLE
  2
Standard
  9
$DIMCLRD
 70
     0
  9
$DIMCLRE
 70
     0
  9
$DIMCLRT
 70
     0
  9
$DIMTFAC
 40
1.0
  9
$DIMGAP
 40
0.5
  9
$DIMJUST
 70
     0
  9
$DIMSD1
 70
     0
  9
$DIMSD2
 70
     0
  9
$DIMTOLJ
 70
     1
  9
$DIMTZIN
 70
     0
  9
$DIMALTZ
 70
     0
  9
$DIMALTTZ
 70
     0
  9
$DIMUPT
 70
     0
  9
$DIMDEC
 70
     3
  9
$DIMTDEC
 70
     4
  9
$DIMALTU
 70
     2
  9
$DIMALTTD
 70
     2
  9
$DIMTXSTY
  7
STANDARD
  9
$DIMAUNIT
 70
     0
  9
$DIMADEC
 70
     0
  9
$DIMALTRND
 40
0.0
  9
$DIMAZIN
 70
     0
  9
$DIMDSEP
 70
     0
  9
$DIMATFIT
 70
     3
  9
$DIMFRAC
 70
     0
  9
$DIMLDRBLK
  1

  9
$DIMLUNIT
 70
     2
  9
$DIMLWD
 70
     0
  9
$DIMLWE
 70
     0
  9
$DIMTMOVE
 70
     0
  9
$LUNITS
 70
     2
  9
$LUPREC
 70
     4
  9
$SKETCHINC
 40
0.1
  9
$FILLETRAD
 40
0.0
  9
$AUNITS
 70
     0
  9
$AUPREC
 70
     0
  9
$MENU
  1
acad
  9
$ELEVATION
 40
0.0
  9
$PELEVATION
 40
0.0
  9
$THICKNESS
 40
0.0
  9
$LIMCHECK
 70
     0
  9
$CHAMFERA
 40
0.0
  9
$CHAMFERB
 40
0.0
  9
$CHAMFERC
 40
0.0
  9
$CHAMFERD
 40
0.0
  9
$SKPOLY
 70
     0
  9
$TDCREATE
 40
2453383.000000000
  9
$TDUCREATE
 40
0.000000000
  9
$TDUPDATE
 40
0.000000000
  9
$TDUUPDATE
 40
2447892.625000000
  9
$TDINDWG
 40
0.0000000000
  9
$TDUSRTIMER
 40
0.0000000000
  9
$USRTIMER
 70
     1
  9
$ANGBASE
 50
0.0
  9
$ANGDIR
 70
     0
  9
$PDMODE
 70
     0
  9
$PDSIZE
 40
0.0
  9
$PLINEWID
 40
0.0
  9
$SPLFRAME
 70
     0
  9
$SPLINETYPE
 70
     6
  9
$SPLINESEGS
 70
     8
  9
$HANDSEED
  5
1F0
  9
$SURFTAB1
 70
     6
  9
$SURFTAB2
 70
     6
  9
$SURFTYPE
 70
     6
  9
$SURFU
 70
     6
  9
$SURFV
 70
     6
  9
$UCSBASE
  2

  9
$UCSNAME
  2

  9
$UCSORG
 10
0.0
 20
0.0
 30
0.0
  9
$UCSXDIR
 10
1.0
 20
0.0
 30
0.0
  9
$UCSYDIR
 10
0.0
 20
1.0
 30
0.0
  9
$UCSORTHOREF
  2

  9
$UCSORTHOVIEW
 70
     0
  9
$UCSORGTOP
 10
0.0
 20
0.0
 30
0.0
  9
$UCSORGBOTTOM
 10
0.0
 20
0.0
 30
0.0
  9
$UCSORGLEFT
 10
0.0
 20
0.0
 30
0.0
  9
$UCSORGRIGHT
 10
0.0
 20
0.0
 30
0.0
  9
$UCSORGFRONT
 10
0.0
 20
0.0
 30
0.0
  9
$UCSORGBACK
 10
0.0
 20
0.0
 30
0.0
  9
$PUCSBASE
  2

  9
$PUCSNAME
  2

  9
$PUCSORG
 10
0.0
 20
0.0
 30
0.0
  9
$PUCSXDIR
 10
1.0
 20
0.0
 30
0.0
  9
$PUCSYDIR
 10
0.0
 20
1.0
 30
0.0
  9
$PUCSORTHOREF
  2

  9
$PUCSORTHOVIEW
 70
     0
  9
$PUCSORGTOP
 10
0.0
 20
0.0
 30
0.0
  9
$PUCSORGBOTTOM
 10
0.0
 20
0.0
 30
0.0
  9
$PUCSORGLEFT
 10
0.0
 20
0.0
 30
0.0
  9
$PUCSORGRIGHT
 10
0.0
 20
0.0
 30
0.0
  9
$PUCSORGFRONT
 10
0.0
 20
0.0
 30
0.0
  9
$PUCSORGBACK
 10
0.0
 20
0.0
 30
0.0
  9
$USERI1
 70
     0
  9
$USERI2
 70
     0
  9
$USERI3
 70
     0
  9
$USERI4
 70
     0
  9
$USERI5
 70
     0
  9
$USERR1
 40
0.0
  9
$USERR2
 40
0.0
  9
$USERR3
 40
0.0
  9
$USERR4
 40
0.0
  9
$USERR5
 40
0.0
  9
$WORLDVIEW
 70
     1
  9
$SHADEDGE
 70
     3
  9
$SHADEDIF
 70
    70
  9
$TILEMODE
 70
     1
  9
$MAXACTVP
 70
    16
  9
$PINSBASE
 10
0.0
 20
0.0
 30
0.0
  9
$PLIMCHECK
 70
     0
  9
$PEXTMIN
 10
1.000000E+20
 20
1.000000E+20
 30
1.000000E+20
  9
$PEXTMAX
 10
-1.000000E+20
 20
-1.000000E+20
 30
-1.000000E+20
  9
$PLIMMIN
 10
0.0
 20
0.0
  9
$PLIMMAX
 10
12.0
 20
9.0
  9
$UNITMODE
 70
     0
  9
$VISRETAIN
 70
     0
  9
$PLINEGEN
 70
     1
  9
$PSLTSCALE
 70
     0
  9
$TREEDEPTH
 70
  3020
  9
$CMLSTYLE
  2
Standard
  9
$CMLJUST
 70
     0
  9
$CMLSCALE
 40
1.0
  9
$PROXYGRAPHICS
 70
     0
  9
$MEASUREMENT
 70
     0
  9
$CELWEIGHT
370
     0
  9
$ENDCAPS
280
     0
  9
$JOINSTYLE
280
     0
  9
$LWDISPLAY
290
     0
  9
$INSUNITS
 70
     0
  9
$HYPERLINKBASE
  1

  9
$STYLESHEET
  1

  9
$XEDIT
290
     1
  9
$CEPSNTYPE
380
     0
  9
$PSTYLEMODE
290
     1
  9
$FINGERPRINTGUID
  2

  9
$VERSIONGUID
  2

  9
$EXTNAMES
290
     1
  9
$PSVPSCALE
 40
0.0
  0
ENDSEC
  0
SECTION
  2
CLASSES
  0
CLASS
  1
LWPOLYLINE
  2
AcDbPolyline
  3
AutoCAD 2000
 90
        0
280
     0
281
     1
  0
CLASS
  1
IMAGE
  2
AcDbRasterImage
  3
ISM
 90
      127
280
     0
281
     1
  0
CLASS
  1
OLE2FRAME
  2
AcDbOle2Frame
  3
AutoCAD 2000
 90
        0
280
     0
281
     1
  0
CLASS
  1
HATCH
  2
AcDbHatch
  3
AutoCAD 2000
 90
        0
280
     0
281
     1
  0
CLASS
  1
DICTIONARYVAR
  2
AcDbDictionaryVar
  3
AutoCAD 2000
 90
        0
280
     0
281
     0
  0
CLASS
  1
RASTERVARIABLES
  2
AcDbRasterVariables
  3
ISM
 90
        0
280
     0
281
     0
  0
CLASS
  1
IMAGEDEF
  2
AcDbRasterImageDef
  3
ISM
 90
        0
280
     0
281
     0
  0
CLASS
  1
IMAGEDEF_REACTOR
  2
AcDbRasterImageDefReactor
  3
ISM
 90
        1
280
     0
281
     0
  0
CLASS
  1
IDBUFFER
  2
AcDbIdBuffer
  3
AutoCAD 2000
 90
        0
280
     0
281
     0
  0
CLASS
  1
SPATIAL_FILTER
  2
AcDbSpatialFilter
  3
AutoCAD 2000
 90
        0
280
     0
281
     0
  0
CLASS
  1
XRECORD
  2
AcDbXrecord
  3
AutoCAD 2000
 90
        0
280
     0
281
     0
  0
CLASS
  1
SORTENTSTABLE
  2
AcDbSortentsTable
  3
AutoCAD 2000
 90
        0
280
     0
281
     0
  0
CLASS
  1
LAYER_INDEX
  2
AcDbLayerIndex
  3
AutoCAD 2000
 90
        0
280
     0
281
     0
  0
CLASS
  1
SPATIAL_INDEX
  2
AcDbSpatialIndex
  3
AutoCAD 2000
 90
        0
280
     0
281
     0
  0
CLASS
  1
OBJECT_PTR
  2
CAseDLPNTableRecord
  3
"ASE-LPNTableRecord"
 90
        1
280
     0
281
     0
  0
CLASS
  1
LAYOUT
  2
AcDbLayout
  3
AutoCAD 2000
 90
        0
280
     0
281
     0
  0
CLASS
  1
PLOTSETTINGS
  2
AcDbPlotSettings
  3
AutoCAD 2000
 90
        0
280
     0
281
     0
  0
CLASS
  1
ACDBDICTIONARYWDFLT
  2
AcDbDictionaryWithDefault
  3
AutoCAD 2000
 90
        0
280
     0
281
     0
  0
CLASS
  1
ACDBPLACEHOLDER
  2
AcDbPlaceHolder
  3
AutoCAD 2000
 90
        0
280
     0
281
     0
  0
CLASS
  1
VBA_PROJECT
  2
AcDbVbaProject
  3
acadvba
 90
        0
280
     0
281
     0
  0
CLASS
  1
WIPEOUT
  2
AcDbWipeout
  3
WipeOut|AutoCAD Express Tool|expresstools@autodesk.com
 90
      127
280
     0
281
     1
  0
CLASS
  1
WIPEOUTVARIABLES
  2
AcDbWipeoutVariables
  3
WipeOut|AutoCAD Express Tool|expresstools@autodesk.com
 90
        0
280
     0
281
     0
  0
CLASS
  1
RTEXT
  2
RText
  3
RText|AutoCAD Express Tool|expresstools@autodesk.com
 90
        0
280
     0
281
     1
  0
CLASS
  1
ARCALIGNEDTEXT
  2
AcDbArcAlignedText
  3
ATEXT|AutoCAD Express Tool|expresstools@autodesk.com
 90
        0
280
     0
281
     1
  0
ENDSEC
  0
SECTION
  2
TABLES
  0
TABLE
  2
VPORT
  5
6
100
AcDbSymbolTable
 70
     1
  0
VPORT
  5
19
100
AcDbSymbolTableRecord
100
AcDbViewportTableRecord
  2
*ACTIVE
 70
     0
 10
0.0
 20
0.0
 11
1.0
 21
1.0
 12
0.0
 22
0.0
 13
0.0
 23
0.0
 14
1.0
 24
1.0
 15
0.0
 25
0.0
 16
0.0
 26
0.0
 36
1.0
 17
0.0
 27
0.0
 37
0.0
 40
594.0
 41
1.415825
 42
50.0
 43
0.0
 44
0.0
 50
0.0
 51
0.0
 71
     0
 72
   500
 73
     1
 74
     1
 75
     0
 76
     0
 77
     0
 78
     0
281
     0
 65
     0
110
0.0
120
0.0
130
0.0
111
1.0
121
0.0
131
0.0
112
0.0
122
1.0
132
0.0
345
0
346
0
 79
     0
146
0.0
  0
ENDTAB
  0
TABLE
  2
LTYPE
  5
3
100
AcDbSymbolTable
 70
     9
  0
LTYPE
  5
C
100
AcDbSymbolTableRecord
100
AcDbLinetypeTableRecord
  2
ByBlock
 70
    64
  3

 72
    65
 73
     0
 40
0.0
  0
LTYPE
  5
D
100
AcDbSymbolTableRecord
100
AcDbLinetypeTableRecord
  2
ByLayer
 70
    64
  3

 72
    65
 73
     0
 40
0.0
  0
LTYPE
  5
E
100
AcDbSymbolTableRecord
100
AcDbLinetypeTableRecord
  2
CONTINUOUS
 70
     0
  3
Solid line
 72
    65
 73
     0
 40
0.0
  0
LTYPE
  5
F
100
AcDbSymbolTableRecord
100
AcDbLinetypeTableRecord
  2
DASHED
 70
     0
  3
__ __ __ __ __ __ __ __ __ __ __ __ __ __ __
 72
    65
 73
     2
 40
2.0
 49
1.2
 74
     0
 49
-0.8
 74
     0
  0
LTYPE
  5
10
100
AcDbSymbolTableRecord
100
AcDbLinetypeTableRecord
  2
CENTER
 70
     0
  3
____ _ ____ _ ____ _ ____ _ ____ _ ____ _ ____
 72
    65
 73
     4
 40
12.0
 49
9.0
 74
     0
 49
-1.0
 74
     0
 49
1.0
 74
     0
 49
-1.0
 74
     0
  0
LTYPE
  5
11
100
AcDbSymbolTableRecord
100
AcDbLinetypeTableRecord
  2
HIDDEN
 70
     0
  3
_ _ _ _ _ _ _ _ _ _ _ _ _ _ _ _ _ _ _ _ _ _ _
 72
    65
 73
     2
 40
3.2
 49
2.4
 74
     0
 49
-0.8
 74
     0
  0
LTYPE
  5
12
100
AcDbSymbolTableRecord
100
AcDbLinetypeTableRecord
  2
PHANTOM
 70
     0
  3
_____ _ _ _____ _ _ _____ _ _ _____ _ _ _____
 72
    65
 73
     6
 40
13.5
 49
9.0
 74
     0
 49
-1.0
 74
     0
 49
1.0
 74
     0
 49
-0.5
 74
     0
 49
1.0
 74
     0
 49
-1.0
 74
     0
  0
LTYPE
  5
13
100
AcDbSymbolTableRecord
100
AcDbLinetypeTableRecord
  2
DOT
 70
     0
  3
...............................................
 72
    65
 73
     2
 40
1.0
 49
0.5
 74
     0
 49
-0.5
 74
     0
  0
LTYPE
  5
14
100
AcDbSymbolTableRecord
100
AcDbLinetypeTableRecord
  2
DASHDOT
 70
     0
  3
__ . __ . __ . __ . __ . __ . __ . __ . __ . __
 72
    65
 73
     4
 40
8.0
 49
5.0
 74
     0
 49
-1.0
 74
     0
 49
1.0
 74
     0
 49
-1.0
 74
     0
  0
ENDTAB
  0
TABLE
  2
LAYER
  5
1
100
AcDbSymbolTable
 70
     4
  0
LAYER
  5
15
100
AcDbSymbolTableRecord
100
AcDbLayerTableRecord
  2
0
 70
     0
 62
     7
  6
CONTINUOUS
290
     1
370
    -3
390
0
  0
LAYER
  5
16
100
AcDbSymbolTableRecord
100
AcDbLayerTableRecord
  2
1
 70
     0
 62
     7
  6
CONTINUOUS
290
     1
370
    -3
390
0
  0
LAYER
  5
17
100
AcDbSymbolTableRecord
100
AcDbLayerTableRecord
  2
2
 70
     0
 62
     7
  6
CONTINUOUS
290
     1
370
    -3
390
0
  0
LAYER
  5
18
100
AcDbSymbolTableRecord
100
AcDbLayerTableRecord
  2
3
 70
     0
 62
     7
  6
CONTINUOUS
290
     1
370
    -3
390
0
  0
ENDTAB
  0
TABLE
  2
STYLE
  5
2
100
AcDbSymbolTable
 70
     1
  0
STYLE
  5
1B
100
AcDbSymbolTableRecord
100
AcDbTextStyleTableRecord
  2
STANDARD
 70
    64
 40
0.0
 41
1.0
 50
0.0
 71
     0
 42
1.0
  3
txt
  4
BIGFONT
  0
ENDTAB
  0
TABLE
  2
VIEW
  5
4
100
AcDbSymbolTable
 70
     0
  0
ENDTAB
  0
TABLE
  2
UCS
  5
5
100
AcDbSymbolTable
 70
     0
  0
ENDTAB
  0
TABLE
  2
APPID
  5
7
100
AcDbSymbolTable
 70
     1
  0
APPID
  5
1A
100
AcDbSymbolTableRecord
100
AcDbRegAppTableRecord
  2
ACAD
 70
     0
  0
ENDTAB
  0
TABLE
  2
DIMSTYLE
  5
8
100
AcDbSymbolTable
 70
     1
100
AcDbDimStyleTable
 71
     0
  0
DIMSTYLE
105
2B
100
AcDbSymbolTableRecord
100
AcDbDimStyleTableRecord
  2
Standard
 70
     0
  3

  4

 40
1.0
 41
2.0
 42
1.0
 43
0.38
 44
2.0
 45
0.0
 46
0.0
 47
0.0
 48
0.0
 71
     0
 72
     0
 73
     0
 74
     0
 75
     0
 76
     0
 77
     1
 78
     0
 79
     0
140
3.5
141
0.09
142
0.0
143
25.4
144
1.0
145
0.0
146
1.0
147
0.5
148
0.0
170
     0
171
     2
172
     0
173
     0
174
     0
175
     0
176
     0
177
     0
178
     0
179
     0
271
     3
272
     4
273
     2
274
     2
275
     0
276
     0
277
     2
278
    46
279
     0
280
     0
281
     0
282
     0
283
     1
284
     0
285
     0
286
     0
288
     0
289
     3
340
1B
341
0
342
0
343
0
344
0
371
    -2
372
    -2
  0
ENDTAB
  0
TABLE
  2
BLOCK_RECORD
  5
26
100
AcDbSymbolTable
 70
     8
  0
BLOCK_RECORD
  5
24
100
AcDbSymbolTableRecord
100
AcDbBlockTableRecord
  2
*Model_Space
340
0
  0
BLOCK_RECORD
  5
25
100
AcDbSymbolTableRecord
100
AcDbBlockTableRecord
  2
*Paper_Space
340
0
  0
BLOCK_RECORD
  5
1C
100
AcDbSymbolTableRecord
100
AcDbBlockTableRecord
  2
*D0
340
0
  0
BLOCK_RECORD
  5
1D
100
AcDbSymbolTableRecord
100
AcDbBlockTableRecord
  2
*D1
340
0
  0
BLOCK_RECORD
  5
1E
100
AcDbSymbolTableRecord
100
AcDbBlockTableRecord
  2
*D2
340
0
  0
BLOCK_RECORD
  5
1F
100
AcDbSymbolTableRecord
100
AcDbBlockTableRecord
  2
*D3
340
0
  0
BLOCK_RECORD
  5
20
100
AcDbSymbolTableRecord
100
AcDbBlockTableRecord
  2
*D4
340
0
  0
BLOCK_RECORD
  5
21
100
AcDbSymbolTableRecord
100
AcDbBlockTableRecord
  2
*D5
340
0
  0
BLOCK_RECORD
  5
22
100
AcDbSymbolTableRecord
100
AcDbBlockTableRecord
  2
*D6
340
0
  0
BLOCK_RECORD
  5
23
100
AcDbSymbolTableRecord
100
AcDbBlockTableRecord
  2
*D7
340
0
  0
ENDTAB
  0
ENDSEC
  0
SECTION
  2
BLOCKS
  0
BLOCK
  5
27
100
AcDbEntity
  8
0
390
0
100
AcDbBlockBegin
  2
*Model_Space
 70
     0
 10
0.0
 20
0.0
 30
0.0
  3
*Model_Space
  1

  0
ENDBLK
  5
28
100
AcDbEntity
  8
0
390
0
100
AcDbBlockEnd
  0
BLOCK
  5
29
100
AcDbEntity
 67
     1
  8
0
390
0
100
AcDbBlockBegin
  2
*Paper_Space
 70
     0
 10
0.0
 20
0.0
 30
0.0
  3
*Paper_Space
  1

  0
ENDBLK
  5
2A
100
AcDbEntity
 67
     1
  8
0
390
0
100
AcDbBlockEnd
  0
BLOCK
  5
18D
100
AcDbEntity
  8
3
100
AcDbBlockBegin
  2
*D0
 70
     1
 10
0.0
 20
0.0
 30
0.0
  3
*D0
  1

  0
TEXT
  5
18E
100
AcDbEntity
  8
3
370
    25
100
AcDbText
 10
49.395134
 20
76.612885
 30
0.0
 40
3.5
  1
φ４６
 50
90.0
 72
     5
 11
49.395134
 21
86.412885
 31
0.0
100
AcDbText
  0
LINE
  5
18F
100
AcDbEntity
  8
3
370
    25
100
AcDbLine
 10
20.426617
 20
104.862885
 30
0.0
 11
50.895134
 21
104.862885
 31
0.0
  0
LINE
  5
190
100
AcDbEntity
  8
3
370
    25
100
AcDbLine
 10
49.895134
 20
104.862885
 30
0.0
 11
49.377496
 21
102.931034
 31
0.0
  0
LINE
  5
191
100
AcDbEntity
  8
3
370
    25
100
AcDbLine
 10
49.895134
 20
104.862885
 30
0.0
 11
50.412772
 21
102.931034
 31
0.0
  0
LINE
  5
192
100
AcDbEntity
  8
3
370
    25
100
AcDbLine
 10
49.377496
 20
102.931034
 30
0.0
 11
50.412772
 21
102.931034
 31
0.0
  0
LINE
  5
193
100
AcDbEntity
  8
3
370
    25
100
AcDbLine
 10
49.895134
 20
104.862885
 30
0.0
 11
49.895134
 21
58.862885
 31
0.0
  0
LINE
  5
194
100
AcDbEntity
  8
3
370
    25
100
AcDbLine
 10
49.895134
 20
58.862885
 30
0.0
 11
50.412772
 21
60.794737
 31
0.0
  0
LINE
  5
195
100
AcDbEntity
  8
3
370
    25
100
AcDbLine
 10
49.895134
 20
58.862885
 30
0.0
 11
49.377496
 21
60.794737
 31
0.0
  0
LINE
  5
196
100
AcDbEntity
  8
3
370
    25
100
AcDbLine
 10
50.412772
 20
60.794737
 30
0.0
 11
49.377496
 21
60.794737
 31
0.0
  0
LINE
  5
197
100
AcDbEntity
  8
3
370
    25
100
AcDbLine
 10
20.426617
 20
58.862885
 30
0.0
 11
50.895134
 21
58.862885
 31
0.0
  0
ENDBLK
  5
198
100
AcDbEntity
  8
3
100
AcDbBlockEnd
  0
BLOCK
  5
199
100
AcDbEntity
  8
3
100
AcDbBlockBegin
  2
*D1
 70
     1
 10
0.0
 20
0.0
 30
0.0
  3
*D1
  1

  0
TEXT
  5
19A
100
AcDbEntity
  8
3
370
    25
100
AcDbText
 10
22.926912
 20
-84.740555
 30
0.0
 40
3.5
  1
１４
 72
     5
 11
29.226912
 21
-84.740555
 31
0.0
100
AcDbText
  0
LINE
  5
19B
100
AcDbEntity
  8
3
370
    25
100
AcDbLine
 10
19.426912
 20
-47.44711
 30
0.0
 11
19.426912
 21
-86.240555
 31
0.0
  0
LINE
  5
19C
100
AcDbEntity
  8
3
370
    25
100
AcDbLine
 10
19.426912
 20
-85.240555
 30
0.0
 11
21.358764
 21
-85.758193
 31
0.0
  0
LINE
  5
19D
100
AcDbEntity
  8
3
370
    25
100
AcDbLine
 10
19.426912
 20
-85.240555
 30
0.0
 11
21.358764
 21
-84.722917
 31
0.0
  0
LINE
  5
19E
100
AcDbEntity
  8
3
370
    25
100
AcDbLine
 10
21.358764
 20
-85.758193
 30
0.0
 11
21.358764
 21
-84.722917
 31
0.0
  0
LINE
  5
19F
100
AcDbEntity
  8
3
370
    25
100
AcDbLine
 10
19.426912
 20
-85.240555
 30
0.0
 11
33.426912
 21
-85.240555
 31
0.0
  0
LINE
  5
1A0
100
AcDbEntity
  8
3
370
    25
100
AcDbLine
 10
33.426912
 20
-85.240555
 30
0.0
 11
31.495061
 21
-84.722917
 31
0.0
  0
LINE
  5
1A1
100
AcDbEntity
  8
3
370
    25
100
AcDbLine
 10
33.426912
 20
-85.240555
 30
0.0
 11
31.495061
 21
-85.758193
 31
0.0
  0
LINE
  5
1A2
100
AcDbEntity
  8
3
370
    25
100
AcDbLine
 10
31.495061
 20
-84.722917
 30
0.0
 11
31.495061
 21
-85.758193
 31
0.0
  0
LINE
  5
1A3
100
AcDbEntity
  8
3
370
    25
100
AcDbLine
 10
33.426912
 20
-33.92461
 30
0.0
 11
33.426912
 21
-86.240555
 31
0.0
  0
ENDBLK
  5
1A4
100
AcDbEntity
  8
3
100
AcDbBlockEnd
  0
BLOCK
  5
1A5
100
AcDbEntity
  8
3
100
AcDbBlockBegin
  2
*D2
 70
     1
 10
0.0
 20
0.0
 30
0.0
  3
*D2
  1

  0
TEXT
  5
1A6
100
AcDbEntity
  8
3
370
    25
100
AcDbText
 10
-6.573088
 20
-84.722137
 30
0.0
 40
3.5
  1
４５
 72
     5
 11
-0.273088
 21
-84.722137
 31
0.0
100
AcDbText
  0
LINE
  5
1A7
100
AcDbEntity
  8
3
370
    25
100
AcDbLine
 10
-25.573088
 20
-47.834345
 30
0.0
 11
-25.573088
 21
-86.222137
 31
0.0
  0
LINE
  5
1A8
100
AcDbEntity
  8
3
370
    25
100
AcDbLine
 10
-25.573088
 20
-85.222137
 30
0.0
 11
-23.641236
 21
-85.739776
 31
0.0
  0
LINE
  5
1A9
100
AcDbEntity
  8
3
370
    25
100
AcDbLine
 10
-25.573088
 20
-85.222137
 30
0.0
 11
-23.641236
 21
-84.704499
 31
0.0
  0
LINE
  5
1AA
100
AcDbEntity
  8
3
370
    25
100
AcDbLine
 10
-23.641236
 20
-85.739776
 30
0.0
 11
-23.641236
 21
-84.704499
 31
0.0
  0
LINE
  5
1AB
100
AcDbEntity
  8
3
370
    25
100
AcDbLine
 10
-25.573088
 20
-85.222137
 30
0.0
 11
19.426912
 21
-85.222137
 31
0.0
  0
LINE
  5
1AC
100
AcDbEntity
  8
3
370
    25
100
AcDbLine
 10
19.426912
 20
-85.222137
 30
0.0
 11
17.495061
 21
-84.704499
 31
0.0
  0
LINE
  5
1AD
100
AcDbEntity
  8
3
370
    25
100
AcDbLine
 10
19.426912
 20
-85.222137
 30
0.0
 11
17.495061
 21
-85.739776
 31
0.0
  0
LINE
  5
1AE
100
AcDbEntity
  8
3
370
    25
100
AcDbLine
 10
17.495061
 20
-84.704499
 30
0.0
 11
17.495061
 21
-85.739776
 31
0.0
  0
LINE
  5
1AF
100
AcDbEntity
  8
3
370
    25
100
AcDbLine
 10
19.426912
 20
-47.44711
 30
0.0
 11
19.426912
 21
-86.222137
 31
0.0
  0
ENDBLK
  5
1B0
100
AcDbEntity
  8
3
100
AcDbBlockEnd
  0
BLOCK
  5
1B1
100
AcDbEntity
  8
3
100
AcDbBlockBegin
  2
*D3
 70
     1
 10
0.0
 20
0.0
 30
0.0
  3
*D3
  1

  0
TEXT
  5
1B2
100
AcDbEntity
  8
3
370
    25
100
AcDbText
 10
-161.001328
 20
-51.88703
 30
0.0
 40
3.5
  1
４２．５
 50
90.0
 72
     5
 11
-161.001328
 21
-38.58703
 31
0.0
100
AcDbText
  0
LINE
  5
1B3
100
AcDbEntity
  8
3
370
    25
100
AcDbLine
 10
-126.857888
 20
-66.12695
 30
0.0
 11
-161.501328
 21
-66.12695
 31
0.0
  0
LINE
  5
1B4
100
AcDbEntity
  8
3
370
    25
100
AcDbLine
 10
-160.501328
 20
-66.12695
 30
0.0
 11
-159.983689
 21
-64.195098
 31
0.0
  0
LINE
  5
1B5
100
AcDbEntity
  8
3
370
    25
100
AcDbLine
 10
-160.501328
 20
-66.12695
 30
0.0
 11
-161.018966
 21
-64.195098
 31
0.0
  0
LINE
  5
1B6
100
AcDbEntity
  8
3
370
    25
100
AcDbLine
 10
-159.983689
 20
-64.195098
 30
0.0
 11
-161.018966
 21
-64.195098
 31
0.0
  0
LINE
  5
1B7
100
AcDbEntity
  8
3
370
    25
100
AcDbLine
 10
-160.501328
 20
-66.12695
 30
0.0
 11
-160.501328
 21
-23.64711
 31
0.0
  0
LINE
  5
1B8
100
AcDbEntity
  8
3
370
    25
100
AcDbLine
 10
-160.501328
 20
-23.64711
 30
0.0
 11
-161.018966
 21
-25.578962
 31
0.0
  0
LINE
  5
1B9
100
AcDbEntity
  8
3
370
    25
100
AcDbLine
 10
-160.501328
 20
-23.64711
 30
0.0
 11
-159.983689
 21
-25.578962
 31
0.0
  0
LINE
  5
1BA
100
AcDbEntity
  8
3
370
    25
100
AcDbLine
 10
-161.018966
 20
-25.578962
 30
0.0
 11
-159.983689
 21
-25.578962
 31
0.0
  0
LINE
  5
1BB
100
AcDbEntity
  8
3
370
    25
100
AcDbLine
 10
-96.713583
 20
-23.64711
 30
0.0
 11
-161.501328
 21
-23.64711
 31
0.0
  0
ENDBLK
  5
1BC
100
AcDbEntity
  8
3
100
AcDbBlockEnd
  0
BLOCK
  5
1BD
100
AcDbEntity
  8
3
100
AcDbBlockBegin
  2
*D4
 70
     1
 10
0.0
 20
0.0
 30
0.0
  3
*D4
  1

  0
TEXT
  5
1BE
100
AcDbEntity
  8
3
370
    25
100
AcDbText
 10
-161.001328
 20
1.85239
 30
0.0
 40
3.5
  1
５８
 50
90.0
 72
     5
 11
-161.001328
 21
8.15239
 31
0.0
100
AcDbText
  0
LINE
  5
1BF
100
AcDbEntity
  8
3
370
    25
100
AcDbLine
 10
-96.713583
 20
-23.64711
 30
0.0
 11
-161.501328
 21
-23.64711
 31
0.0
  0
LINE
  5
1C0
100
AcDbEntity
  8
3
370
    25
100
AcDbLine
 10
-160.501328
 20
-23.64711
 30
0.0
 11
-159.983689
 21
-21.715258
 31
0.0
  0
LINE
  5
1C1
100
AcDbEntity
  8
3
370
    25
100
AcDbLine
 10
-160.501328
 20
-23.64711
 30
0.0
 11
-161.018966
 21
-21.715258
 31
0.0
  0
LINE
  5
1C2
100
AcDbEntity
  8
3
370
    25
100
AcDbLine
 10
-159.983689
 20
-21.715258
 30
0.0
 11
-161.018966
 21
-21.715258
 31
0.0
  0
LINE
  5
1C3
100
AcDbEntity
  8
3
370
    25
100
AcDbLine
 10
-160.501328
 20
-23.64711
 30
0.0
 11
-160.501328
 21
34.35189
 31
0.0
  0
LINE
  5
1C4
100
AcDbEntity
  8
3
370
    25
100
AcDbLine
 10
-160.501328
 20
34.35189
 30
0.0
 11
-161.018966
 21
32.420038
 31
0.0
  0
LINE
  5
1C5
100
AcDbEntity
  8
3
370
    25
100
AcDbLine
 10
-160.501328
 20
34.35189
 30
0.0
 11
-159.983689
 21
32.420038
 31
0.0
  0
LINE
  5
1C6
100
AcDbEntity
  8
3
370
    25
100
AcDbLine
 10
-161.018966
 20
32.420038
 30
0.0
 11
-159.983689
 21
32.420038
 31
0.0
  0
LINE
  5
1C7
100
AcDbEntity
  8
3
370
    25
100
AcDbLine
 10
-33.573088
 20
34.35189
 30
0.0
 11
-161.501328
 21
34.35189
 31
0.0
  0
ENDBLK
  5
1C8
100
AcDbEntity
  8
3
100
AcDbBlockEnd
  0
BLOCK
  5
1C9
100
AcDbEntity
  8
3
100
AcDbBlockBegin
  2
*D5
 70
     1
 10
0.0
 20
0.0
 30
0.0
  3
*D5
  1

  0
LINE
  5
1CA
100
AcDbEntity
  8
3
370
    25
100
AcDbLine
 10
-125.857888
 20
-67.12695
 30
0.0
 11
-125.857888
 21
-86.240555
 31
0.0
  0
LINE
  5
1CB
100
AcDbEntity
  8
3
370
    25
100
AcDbLine
 10
-125.857888
 20
-85.240555
 30
0.0
 11
-123.926036
 21
-85.758193
 31
0.0
  0
LINE
  5
1CC
100
AcDbEntity
  8
3
370
    25
100
AcDbLine
 10
-125.857888
 20
-85.240555
 30
0.0
 11
-123.926036
 21
-84.722917
 31
0.0
  0
LINE
  5
1CD
100
AcDbEntity
  8
3
370
    25
100
AcDbLine
 10
-123.926036
 20
-85.758193
 30
0.0
 11
-123.926036
 21
-84.722917
 31
0.0
  0
LINE
  5
1CE
100
AcDbEntity
  8
3
370
    25
100
AcDbLine
 10
-125.857888
 20
-85.240555
 30
0.0
 11
-25.573088
 21
-85.240555
 31
0.0
  0
LINE
  5
1CF
100
AcDbEntity
  8
3
370
    25
100
AcDbLine
 10
-25.573088
 20
-85.240555
 30
0.0
 11
-27.504939
 21
-84.722917
 31
0.0
  0
LINE
  5
1D0
100
AcDbEntity
  8
3
370
    25
100
AcDbLine
 10
-25.573088
 20
-85.240555
 30
0.0
 11
-27.504939
 21
-85.758193
 31
0.0
  0
LINE
  5
1D1
100
AcDbEntity
  8
3
370
    25
100
AcDbLine
 10
-27.504939
 20
-84.722917
 30
0.0
 11
-27.504939
 21
-85.758193
 31
0.0
  0
LINE
  5
1D2
100
AcDbEntity
  8
3
370
    25
100
AcDbLine
 10
-25.573088
 20
-47.834345
 30
0.0
 11
-25.573088
 21
-86.240555
 31
0.0
  0
ENDBLK
  5
1D3
100
AcDbEntity
  8
3
100
AcDbBlockEnd
  0
BLOCK
  5
1D4
100
AcDbEntity
  8
3
100
AcDbBlockBegin
  2
*D6
 70
     1
 10
0.0
 20
0.0
 30
0.0
  3
*D6
  1

  0
TEXT
  5
1D5
100
AcDbEntity
  8
3
370
    25
100
AcDbText
 10
-126.48423
 20
-78.084679
 30
0.0
 40
3.5
  1
１０゜
 50
355.0
 72
     5
 11
-116.721522
 21
-78.938805
 31
0.0
100
AcDbText
  0
LINE
  5
1D6
100
AcDbEntity
  8
3
370
    25
100
AcDbLine
 10
-126.75341
 20
-71.205709
 30
0.0
 11
-128.400259
 21
-80.545455
 31
0.0
  0
LINE
  5
1D7
100
AcDbEntity
  8
3
370
    25
100
AcDbLine
 10
-125.857888
 20
-67.12695
 30
0.0
 11
-125.857888
 21
-80.767884
 31
0.0
  0
LINE
  5
1D8
100
AcDbEntity
  8
3
370
    25
100
AcDbLine
 10
-128.226611
 20
-79.560647
 30
0.0
 11
-129.974825
 21
-78.58918
 31
0.0
  0
LINE
  5
1D9
100
AcDbEntity
  8
3
370
    25
100
AcDbLine
 10
-128.226611
 20
-79.560647
 30
0.0
 11
-130.226342
 21
-79.593438
 31
0.0
  0
LINE
  5
1DA
100
AcDbEntity
  8
3
370
    25
100
AcDbLine
 10
-129.974825
 20
-78.58918
 30
0.0
 11
-130.226342
 21
-79.593438
 31
0.0
  0
LINE
  5
1DB
100
AcDbEntity
  8
3
370
    25
100
AcDbLine
 10
-125.857888
 20
-79.767884
 30
0.0
 11
-123.894231
 21
-80.147426
 31
0.0
  0
LINE
  5
1DC
100
AcDbEntity
  8
3
370
    25
100
AcDbLine
 10
-125.857888
 20
-79.767884
 30
0.0
 11
-123.96754
 21
-79.114749
 31
0.0
  0
LINE
  5
1DD
100
AcDbEntity
  8
3
370
    25
100
AcDbLine
 10
-123.894231
 20
-80.147426
 30
0.0
 11
-123.96754
 21
-79.114749
 31
0.0
  0
ARC
  5
1DE
100
AcDbEntity
  8
3
370
    25
100
AcDbCircle
 10
-125.857888
 20
-66.12695
 30
0.0
 40
13.640934
100
AcDbArc
 50
239.869901
 51
290.130099
  0
ENDBLK
  5
1DF
100
AcDbEntity
  8
3
100
AcDbBlockEnd
  0
BLOCK
  5
1E0
100
AcDbEntity
  8
3
100
AcDbBlockBegin
  2
*D7
 70
     1
 10
0.0
 20
0.0
 30
0.0
  3
*D7
  1

  0
LINE
  5
1E1
100
AcDbEntity
  8
3
370
    25
100
AcDbLine
 10
-125.857888
 20
-67.12695
 30
0.0
 11
-125.857888
 21
-99.27681
 31
0.0
  0
LINE
  5
1E2
100
AcDbEntity
  8
3
370
    25
100
AcDbLine
 10
-125.857888
 20
-98.27681
 30
0.0
 11
-123.926036
 21
-98.794448
 31
0.0
  0
LINE
  5
1E3
100
AcDbEntity
  8
3
370
    25
100
AcDbLine
 10
-125.857888
 20
-98.27681
 30
0.0
 11
-123.926036
 21
-97.759172
 31
0.0
  0
LINE
  5
1E4
100
AcDbEntity
  8
3
370
    25
100
AcDbLine
 10
-123.926036
 20
-98.794448
 30
0.0
 11
-123.926036
 21
-97.759172
 31
0.0
  0
LINE
  5
1E5
100
AcDbEntity
  8
3
370
    25
100
AcDbLine
 10
-125.857888
 20
-98.27681
 30
0.0
 11
33.426912
 21
-98.27681
 31
0.0
  0
LINE
  5
1E6
100
AcDbEntity
  8
3
370
    25
100
AcDbLine
 10
33.426912
 20
-98.27681
 30
0.0
 11
31.495061
 21
-97.759172
 31
0.0
  0
LINE
  5
1E7
100
AcDbEntity
  8
3
370
    25
100
AcDbLine
 10
33.426912
 20
-98.27681
 30
0.0
 11
31.495061
 21
-98.794448
 31
0.0
  0
LINE
  5
1E8
100
AcDbEntity
  8
3
370
    25
100
AcDbLine
 10
31.495061
 20
-97.759172
 30
0.0
 11
31.495061
 21
-98.794448
 31
0.0
  0
LINE
  5
1E9
100
AcDbEntity
  8
3
370
    25
100
AcDbLine
 10
33.426912
 20
-33.92461
 30
0.0
 11
33.426912
 21
-99.27681
 31
0.0
  0
ENDBLK
  5
1EA
100
AcDbEntity
  8
3
100
AcDbBlockEnd
  0
ENDSEC
  0
SECTION
  2
ENTITIES
  0
LINE
  5
2C
100
AcDbEntity
  8
1
370
   100
100
AcDbLine
 10
-186.510785
 20
137.514384
 30
0.0
 11
197.491193
 21
137.514384
 31
0.0
  0
LINE
  5
2D
100
AcDbEntity
  8
1
370
   100
100
AcDbLine
 10
-186.510785
 20
137.514384
 30
0.0
 11
-186.510785
 21
-138.985941
 31
0.0
  0
LINE
  5
2E
100
AcDbEntity
  8
1
370
   100
100
AcDbLine
 10
-186.510785
 20
-138.985941
 30
0.0
 11
197.491193
 21
-138.985941
 31
0.0
  0
LINE
  5
2F
100
AcDbEntity
  8
1
370
   100
100
AcDbLine
 10
197.491193
 20
-138.985941
 30
0.0
 11
197.491193
 21
137.514384
 31
0.0
  0
TEXT
  5
30
100
AcDbEntity
  8
1
370
    50
100
AcDbText
 10
179.814221
 20
-113.126428
 30
0.0
 40
3.0
  1
設計
 72
     5
 11
185.214221
 21
-113.126428
 31
0.0
100
AcDbText
  0
TEXT
  5
31
100
AcDbEntity
  8
1
370
    50
100
AcDbText
 10
189.563739
 20
-113.049829
 30
0.0
 40
3.0
  1
製図
 72
     5
 11
194.963739
 21
-113.049829
 31
0.0
100
AcDbText
  0
TEXT
  5
32
100
AcDbEntity
  8
1
370
    50
100
AcDbText
 10
159.502872
 20
-113.126428
 30
0.0
 40
3.0
  1
承認
 72
     5
 11
164.902872
 21
-113.126428
 31
0.0
100
AcDbText
  0
TEXT
  5
33
100
AcDbEntity
  8
1
370
    50
100
AcDbText
 10
169.494839
 20
-113.09901
 30
0.0
 40
3.0
  1
検図
 72
     5
 11
174.894839
 21
-113.09901
 31
0.0
100
AcDbText
  0
LINE
  5
34
100
AcDbEntity
  8
1
370
    25
100
AcDbLine
 10
142.491193
 20
-113.985941
 30
0.0
 11
197.491193
 21
-113.985941
 31
0.0
  0
LINE
  5
35
100
AcDbEntity
  8
1
370
    25
100
AcDbLine
 10
171.241193
 20
-122.985941
 30
0.0
 11
171.241193
 21
-129.985941
 31
0.0
  0
TEXT
  5
36
100
AcDbEntity
  8
1
370
    50
100
AcDbText
 10
159.775795
 20
-128.006264
 30
0.0
 40
3.0
  1
日　付
 72
     5
 11
168.175795
 21
-128.006264
 31
0.0
100
AcDbText
  0
LINE
  5
37
100
AcDbEntity
  8
1
370
    50
100
AcDbLine
 10
20.491193
 20
-129.985941
 30
0.0
 11
197.491193
 21
-129.985941
 31
0.0
  0
TEXT
  5
38
100
AcDbEntity
  8
1
370
    50
100
AcDbText
 10
143.887505
 20
-128.161203
 30
0.0
 40
3.0
  1
第三角法
 72
     5
 11
155.287505
 21
-128.161203
 31
0.0
100
AcDbText
  0
TEXT
  5
39
100
AcDbEntity
  8
1
370
    50
100
AcDbText
 10
145.54371
 20
-112.99901
 30
0.0
 40
3.0
  1
尺　度
 72
     5
 11
153.94371
 21
-112.99901
 31
0.0
100
AcDbText
  0
LINE
  5
3A
100
AcDbEntity
  8
1
370
   100
100
AcDbLine
 10
20.491193
 20
-108.985941
 30
0.0
 11
197.491193
 21
-108.985941
 31
0.0
  0
LINE
  5
3B
100
AcDbEntity
  8
1
370
    50
100
AcDbLine
 10
105.991193
 20
-108.985941
 30
0.0
 11
105.991193
 21
-138.985941
 31
0.0
  0
LINE
  5
3C
100
AcDbEntity
  8
1
370
    25
100
AcDbLine
 10
187.491193
 20
-122.985941
 30
0.0
 11
187.491193
 21
-108.985941
 31
0.0
  0
LINE
  5
3D
100
AcDbEntity
  8
1
370
    25
100
AcDbLine
 10
177.491193
 20
-122.985941
 30
0.0
 11
177.491193
 21
-108.985941
 31
0.0
  0
LINE
  5
3E
100
AcDbEntity
  8
1
370
    25
100
AcDbLine
 10
167.491193
 20
-122.985941
 30
0.0
 11
167.491193
 21
-108.985941
 31
0.0
  0
LINE
  5
3F
100
AcDbEntity
  8
1
370
    50
100
AcDbLine
 10
142.491193
 20
-138.985941
 30
0.0
 11
142.491193
 21
-108.985941
 31
0.0
  0
LINE
  5
40
100
AcDbEntity
  8
1
370
    50
100
AcDbLine
 10
94.991193
 20
-108.985941
 30
0.0
 11
94.991193
 21
-138.985941
 31
0.0
  0
LINE
  5
41
100
AcDbEntity
  8
1
370
    50
100
AcDbLine
 10
31.491193
 20
-108.985941
 30
0.0
 11
31.491193
 21
-129.985941
 31
0.0
  0
LINE
  5
42
100
AcDbEntity
  8
1
370
    50
100
AcDbLine
 10
142.491193
 20
-122.985941
 30
0.0
 11
197.491193
 21
-122.985941
 31
0.0
  0
TEXT
  5
43
100
AcDbEntity
  8
1
370
    50
100
AcDbText
 10
143.550565
 20
-135.940469
 30
0.0
 40
3.0
  1
コードＮｏ
 41
0.9
 72
     5
 11
156.510565
 21
-135.940469
 31
0.0
100
AcDbText
  0
TEXT
  5
44
100
AcDbEntity
  8
1
370
   100
100
AcDbText
 10
26.443387
 20
-136.43783
 30
0.0
 40
4.0
  1
ミズタニバルブ工業株式会社
 41
1.2
 72
     5
 11
87.883387
 21
-136.43783
 31
0.0
100
AcDbText
  0
LINE
  5
45
100
AcDbEntity
  8
1
370
    50
100
AcDbLine
 10
20.491193
 20
-119.485941
 30
0.0
 11
142.491193
 21
-119.485941
 31
0.0
  0
LINE
  5
46
100
AcDbEntity
  8
1
370
    50
100
AcDbLine
 10
57.741193
 20
-119.485941
 30
0.0
 11
57.741193
 21
-129.985941
 31
0.0
  0
LINE
  5
47
100
AcDbEntity
  8
1
370
    50
100
AcDbLine
 10
68.741193
 20
-119.485941
 30
0.0
 11
68.741193
 21
-129.985941
 31
0.0
  0
LINE
  5
48
100
AcDbEntity
  8
1
370
    50
100
AcDbLine
 10
157.491193
 20
-138.985941
 30
0.0
 11
157.491193
 21
-108.985941
 31
0.0
  0
TEXT
  5
49
100
AcDbEntity
  8
1
370
    50
100
AcDbText
 10
172.549065
 20
-128.050147
 30
0.0
 40
3.0
  1
　　・　　・
 72
     5
 11
189.949065
 21
-128.050147
 31
0.0
100
AcDbText
  0
LINE
  5
4A
100
AcDbEntity
  8
1
370
   100
100
AcDbLine
 10
20.491193
 20
-108.985941
 30
0.0
 11
20.491193
 21
-138.985941
 31
0.0
  0
TEXT
  5
4B
100
AcDbEntity
  8
1
370
    50
100
AcDbText
 10
145.416291
 20
-120.006746
 30
0.0
 40
3.0
  1
　／ 
 72
     5
 11
150.816291
 21
-120.006746
 31
0.0
100
AcDbText
  0
TEXT
  5
4C
100
AcDbEntity
  8
1
370
    50
100
AcDbText
 10
96.952061
 20
-136.012454
 30
0.0
 40
3.0
  1
備 考 
 72
     5
 11
103.852061
 21
-136.012454
 31
0.0
100
AcDbText
  0
TEXT
  5
4D
100
AcDbEntity
  8
1
370
    50
100
AcDbText
 10
96.756267
 20
-115.44592
 30
0.0
 40
3.0
  1
仕 上
 72
     5
 11
103.656267
 21
-115.44592
 31
0.0
100
AcDbText
  0
TEXT
  5
4E
100
AcDbEntity
  8
1
370
    50
100
AcDbText
 10
96.723588
 20
-124.445833
 30
0.0
 40
3.0
  1
表 面
 72
     5
 11
103.623588
 21
-124.445833
 31
0.0
100
AcDbText
  0
TEXT
  5
4F
100
AcDbEntity
  8
1
370
    50
100
AcDbText
 10
96.723588
 20
-127.945833
 30
0.0
 40
3.0
  1
処 理
 72
     5
 11
103.623588
 21
-127.945833
 31
0.0
100
AcDbText
  0
TEXT
  5
50
100
AcDbEntity
  8
1
370
    50
100
AcDbText
 10
22.396675
 20
-115.8467
 30
0.0
 40
3.0
  1
品 名
 72
     5
 11
29.296675
 21
-115.8467
 31
0.0
100
AcDbText
  0
TEXT
  5
51
100
AcDbEntity
  8
1
370
    50
100
AcDbText
 10
22.198883
 20
-126.231267
 30
0.0
 40
3.0
  1
材 質
 72
     5
 11
29.098883
 21
-126.231267
 31
0.0
100
AcDbText
  0
TEXT
  5
52
100
AcDbEntity
  8
1
370
    50
100
AcDbText
 10
59.448883
 20
-126.231267
 30
0.0
 40
3.0
  1
規 格
 72
     5
 11
66.348883
 21
-126.231267
 31
0.0
100
AcDbText
  0
LINE
  5
53
100
AcDbEntity
  8
2
370
    25
100
AcDbLine
 10
-25.573088
 20
31.35189
 30
0.0
 11
-25.573088
 21
34.35189
 31
0.0
  0
LINE
  5
54
100
AcDbEntity
  8
2
370
    50
100
AcDbLine
 10
-19.573088
 20
12.85189
 30
0.0
 11
-31.573088
 21
12.85189
 31
0.0
  0
LINE
  5
55
100
AcDbEntity
  8
2
370
    50
100
AcDbLine
 10
-13.073088
 20
7.85189
 30
0.0
 11
-38.073088
 21
7.85189
 31
0.0
  0
ARC
  5
56
100
AcDbEntity
  8
2
370
    50
100
AcDbCircle
 10
-16.643802
 20
4.35189
 30
0.0
 40
5.0
100
AcDbArc
 50
315.572996
 51
44.427004
  0
ARC
  5
57
100
AcDbEntity
  8
2
370
    50
100
AcDbCircle
 10
-34.502373
 20
4.35189
 30
0.0
 40
5.0
100
AcDbArc
 50
135.572996
 51
224.427004
  0
LINE
  5
58
100
AcDbEntity
  8
2
370
    50
100
AcDbLine
 10
-31.573088
 20
12.85189
 30
0.0
 11
-38.073088
 21
7.85189
 31
0.0
  0
LINE
  5
59
100
AcDbEntity
  8
2
370
    50
100
AcDbLine
 10
-19.573088
 20
12.85189
 30
0.0
 11
-13.073088
 21
7.85189
 31
0.0
  0
ELLIPSE
  5
5A
100
AcDbEntity
  8
2
370
    50
100
AcDbEllipse
 10
-25.573088
 20
4.35189
 30
0.0
 11
5.0
 21
0.0
 31
0.0
210
0.0
220
0.0
230
1.0
 40
0.6
 41
0.0
 42
6.2831849999999996
  0
ELLIPSE
  5
5B
100
AcDbEntity
  8
2
370
    50
100
AcDbEllipse
 10
-14.143802
 20
4.35189
 30
0.0
 11
0.0
 21
3.0
 31
0.0
210
0.0
220
0.0
230
1.0
 40
0.833333
 41
0.0
 42
6.2831849999999996
  0
ELLIPSE
  5
5C
100
AcDbEntity
  8
2
370
    50
100
AcDbEllipse
 10
-37.002373
 20
4.35189
 30
0.0
 11
0.0
 21
-3.0
 31
0.0
210
0.0
220
0.0
230
1.0
 40
0.833333
 41
0.0
 42
6.2831849999999996
  0
LINE
  5
5D
100
AcDbEntity
  8
2
370
    50
100
AcDbLine
 10
-20.823088
 20
12.85189
 30
0.0
 11
-20.823088
 21
20.35189
 31
0.0
  0
LINE
  5
5E
100
AcDbEntity
  8
2
370
    50
100
AcDbLine
 10
-30.323088
 20
12.85189
 30
0.0
 11
-30.323088
 21
20.35189
 31
0.0
  0
LINE
  5
5F
100
AcDbEntity
  8
2
370
    50
100
AcDbLine
 10
-53.966637
 20
20.35189
 30
0.0
 11
-7.573088
 21
20.35189
 31
0.0
  0
LINE
  5
60
100
AcDbEntity
  8
2
370
    50
100
AcDbLine
 10
-55.898489
 20
22.869528
 30
0.0
 11
-55.087474
 21
25.896275
 31
0.0
  0
ARC
  5
61
100
AcDbEntity
  8
2
370
    50
100
AcDbCircle
 10
-53.966637
 20
22.35189
 30
0.0
 40
2.0
100
AcDbArc
 50
165.0
 51
270.0
  0
ARC
  5
62
100
AcDbEntity
  8
2
370
    50
100
AcDbCircle
 10
-25.573088
 20
-148.64811
 30
0.0
 40
180.0
100
AcDbArc
 50
85.411434
 51
98.108943
  0
ARC
  5
63
100
AcDbEntity
  8
2
370
    50
100
AcDbCircle
 10
-50.257845
 20
24.602179
 30
0.0
 40
5.0
100
AcDbArc
 50
98.108943
 51
165.0
  0
LINE
  5
64
100
AcDbEntity
  8
2
370
    50
100
AcDbLine
 10
-6.573088
 20
21.35189
 30
0.0
 11
-6.573088
 21
25.790991
 31
0.0
  0
ARC
  5
65
100
AcDbEntity
  8
2
370
    50
100
AcDbCircle
 10
-7.573088
 20
21.35189
 30
0.0
 40
1.0
100
AcDbArc
 50
270.0
 51
360.0
  0
ARC
  5
66
100
AcDbEntity
  8
2
370
    50
100
AcDbCircle
 10
-11.573088
 20
25.790991
 30
0.0
 40
5.0
100
AcDbArc
 50
0.0
 51
85.411434
  0
LINE
  5
67
100
AcDbEntity
  8
2
370
    50
100
AcDbLine
 10
-17.573088
 20
21.35189
 30
0.0
 11
-17.573088
 21
26.326174
 31
0.0
  0
ARC
  5
68
100
AcDbEntity
  8
2
370
    50
100
AcDbCircle
 10
-22.573088
 20
26.326174
 30
0.0
 40
5.0
100
AcDbArc
 50
0.0
 51
89.017739
  0
ARC
  5
69
100
AcDbEntity
  8
2
370
    50
100
AcDbCircle
 10
-18.573088
 20
21.35189
 30
0.0
 40
1.0
100
AcDbArc
 50
270.0
 51
360.0
  0
LINE
  5
6A
100
AcDbEntity
  8
2
370
    50
100
AcDbLine
 10
-32.573088
 20
34.35189
 30
0.0
 11
-18.573088
 21
34.35189
 31
0.0
  0
LINE
  5
6B
100
AcDbEntity
  8
2
370
    50
100
AcDbLine
 10
-32.573088
 20
31.215727
 30
0.0
 11
-32.573088
 21
34.35189
 31
0.0
  0
LINE
  5
6C
100
AcDbEntity
  8
2
370
    50
100
AcDbLine
 10
-18.573088
 20
31.215727
 30
0.0
 11
-18.573088
 21
34.35189
 31
0.0
  0
LINE
  5
6D
100
AcDbEntity
  8
2
370
    25
100
AcDbLine
 10
-25.073088
 20
31.351196
 30
0.0
 11
-25.073088
 21
34.35189
 31
0.0
  0
LINE
  5
6E
100
AcDbEntity
  8
2
370
    25
100
AcDbLine
 10
-24.573088
 20
31.351196
 30
0.0
 11
-24.573088
 21
34.35189
 31
0.0
  0
LINE
  5
6F
100
AcDbEntity
  8
2
370
    25
100
AcDbLine
 10
-24.073088
 20
31.351196
 30
0.0
 11
-24.073088
 21
34.35189
 31
0.0
  0
LINE
  5
70
100
AcDbEntity
  8
2
370
    25
100
AcDbLine
 10
-23.573088
 20
31.351196
 30
0.0
 11
-23.573088
 21
34.35189
 31
0.0
  0
LINE
  5
71
100
AcDbEntity
  8
2
370
    25
100
AcDbLine
 10
-23.073088
 20
31.351196
 30
0.0
 11
-23.073088
 21
34.35189
 31
0.0
  0
LINE
  5
72
100
AcDbEntity
  8
2
370
    25
100
AcDbLine
 10
-22.573088
 20
31.326888
 30
0.0
 11
-22.573088
 21
34.35189
 31
0.0
  0
LINE
  5
73
100
AcDbEntity
  8
2
370
    25
100
AcDbLine
 10
-22.073088
 20
31.317859
 30
0.0
 11
-22.073088
 21
34.35189
 31
0.0
  0
LINE
  5
74
100
AcDbEntity
  8
2
370
    25
100
AcDbLine
 10
-21.573088
 20
31.30744
 30
0.0
 11
-21.573088
 21
34.35189
 31
0.0
  0
LINE
  5
75
100
AcDbEntity
  8
2
370
    25
100
AcDbLine
 10
-21.073088
 20
31.295631
 30
0.0
 11
-21.073088
 21
34.35189
 31
0.0
  0
LINE
  5
76
100
AcDbEntity
  8
2
370
    25
100
AcDbLine
 10
-20.573088
 20
31.282432
 30
0.0
 11
-20.573088
 21
34.35189
 31
0.0
  0
LINE
  5
77
100
AcDbEntity
  8
2
370
    25
100
AcDbLine
 10
-20.073088
 20
31.267843
 30
0.0
 11
-20.073088
 21
34.35189
 31
0.0
  0
LINE
  5
78
100
AcDbEntity
  8
2
370
    25
100
AcDbLine
 10
-19.573088
 20
31.251862
 30
0.0
 11
-19.573088
 21
34.35189
 31
0.0
  0
LINE
  5
79
100
AcDbEntity
  8
2
370
    25
100
AcDbLine
 10
-19.073088
 20
31.234491
 30
0.0
 11
-19.073088
 21
34.35189
 31
0.0
  0
LINE
  5
7A
100
AcDbEntity
  8
2
370
    25
100
AcDbLine
 10
-26.073088
 20
31.351196
 30
0.0
 11
-26.073088
 21
34.35189
 31
0.0
  0
LINE
  5
7B
100
AcDbEntity
  8
2
370
    25
100
AcDbLine
 10
-26.573088
 20
31.351196
 30
0.0
 11
-26.573088
 21
34.35189
 31
0.0
  0
LINE
  5
7C
100
AcDbEntity
  8
2
370
    25
100
AcDbLine
 10
-27.073088
 20
31.351196
 30
0.0
 11
-27.073088
 21
34.35189
 31
0.0
  0
LINE
  5
7D
100
AcDbEntity
  8
2
370
    25
100
AcDbLine
 10
-27.573088
 20
31.351196
 30
0.0
 11
-27.573088
 21
34.35189
 31
0.0
  0
LINE
  5
7E
100
AcDbEntity
  8
2
370
    25
100
AcDbLine
 10
-28.073088
 20
31.351196
 30
0.0
 11
-28.073088
 21
34.35189
 31
0.0
  0
LINE
  5
7F
100
AcDbEntity
  8
2
370
    25
100
AcDbLine
 10
-28.573088
 20
31.326888
 30
0.0
 11
-28.573088
 21
34.35189
 31
0.0
  0
LINE
  5
80
100
AcDbEntity
  8
2
370
    25
100
AcDbLine
 10
-29.073088
 20
31.317859
 30
0.0
 11
-29.073088
 21
34.35189
 31
0.0
  0
LINE
  5
81
100
AcDbEntity
  8
2
370
    25
100
AcDbLine
 10
-29.573088
 20
31.30744
 30
0.0
 11
-29.573088
 21
34.35189
 31
0.0
  0
LINE
  5
82
100
AcDbEntity
  8
2
370
    25
100
AcDbLine
 10
-30.073088
 20
31.295631
 30
0.0
 11
-30.073088
 21
34.35189
 31
0.0
  0
LINE
  5
83
100
AcDbEntity
  8
2
370
    25
100
AcDbLine
 10
-30.573088
 20
31.282432
 30
0.0
 11
-30.573088
 21
34.35189
 31
0.0
  0
LINE
  5
84
100
AcDbEntity
  8
2
370
    25
100
AcDbLine
 10
-31.073088
 20
31.267843
 30
0.0
 11
-31.073088
 21
34.35189
 31
0.0
  0
LINE
  5
85
100
AcDbEntity
  8
2
370
    25
100
AcDbLine
 10
-31.573088
 20
31.251862
 30
0.0
 11
-31.573088
 21
34.35189
 31
0.0
  0
LINE
  5
86
100
AcDbEntity
  8
2
370
    25
100
AcDbLine
 10
-32.073088
 20
31.234491
 30
0.0
 11
-32.073088
 21
34.35189
 31
0.0
  0
LINE
  5
87
100
AcDbEntity
  8
2
370
    50
100
AcDbLine
 10
-13.073088
 20
0.85189
 30
0.0
 11
-38.073088
 21
0.85189
 31
0.0
  0
LINE
  5
88
100
AcDbEntity
  8
2
370
    50
100
AcDbLine
 10
-37.573088
 20
-1.14711
 30
0.0
 11
-37.573088
 21
0.85189
 31
0.0
  0
LINE
  5
89
100
AcDbEntity
  8
2
370
    50
100
AcDbLine
 10
-13.573088
 20
-1.14711
 30
0.0
 11
-13.573088
 21
0.85189
 31
0.0
  0
LINE
  5
8A
100
AcDbEntity
  8
2
370
    25
  6
CENTER
100
AcDbLine
 10
-95.713583
 20
-23.64711
 30
0.0
 11
35.380413
 21
-23.64711
 31
0.0
  0
LINE
  5
8B
100
AcDbEntity
  8
2
370
    50
100
AcDbLine
 10
-49.573088
 20
-10.64711
 30
0.0
 11
-46.073088
 21
-10.64711
 31
0.0
  0
LINE
  5
8C
100
AcDbEntity
  8
2
370
    50
100
AcDbLine
 10
-49.573088
 20
-36.64711
 30
0.0
 11
-46.073088
 21
-36.64711
 31
0.0
  0
LINE
  5
8D
100
AcDbEntity
  8
2
370
    50
100
AcDbLine
 10
17.926912
 20
-0.64711
 30
0.0
 11
19.226912
 21
-0.64711
 31
0.0
  0
LINE
  5
8E
100
AcDbEntity
  8
2
370
    50
100
AcDbLine
 10
17.926912
 20
-46.64711
 30
0.0
 11
19.226912
 21
-46.64711
 31
0.0
  0
LINE
  5
8F
100
AcDbEntity
  8
2
370
    50
100
AcDbLine
 10
19.426912
 20
-13.16961
 30
0.0
 11
32.226912
 21
-13.16961
 31
0.0
  0
LINE
  5
90
100
AcDbEntity
  8
2
370
    50
100
AcDbLine
 10
19.426912
 20
-34.12461
 30
0.0
 11
32.226912
 21
-34.12461
 31
0.0
  0
LINE
  5
91
100
AcDbEntity
  8
2
370
    50
100
AcDbLine
 10
-3.073088
 20
-14.39711
 30
0.0
 11
12.926912
 21
-14.39711
 31
0.0
  0
ARC
  5
92
100
AcDbEntity
  8
2
370
    50
100
AcDbCircle
 10
12.926912
 20
-10.39711
 30
0.0
 40
4.0
100
AcDbArc
 50
270.0
 51
360.0
  0
ARC
  5
93
100
AcDbEntity
  8
2
370
    50
100
AcDbCircle
 10
12.926912
 20
-36.89711
 30
0.0
 40
4.0
100
AcDbArc
 50
0.0
 51
90.0
  0
LINE
  5
94
100
AcDbEntity
  8
2
370
    50
100
AcDbLine
 10
33.426912
 20
-32.92461
 30
0.0
 11
33.426912
 21
-14.36961
 31
0.0
  0
LINE
  5
95
100
AcDbEntity
  8
2
370
    50
100
AcDbLine
 10
16.926912
 20
-45.64711
 30
0.0
 11
16.926912
 21
-1.64711
 31
0.0
  0
LINE
  5
96
100
AcDbEntity
  8
2
370
    50
100
AcDbLine
 10
19.426912
 20
-46.44711
 30
0.0
 11
19.426912
 21
-0.84711
 31
0.0
  0
ARC
  5
97
100
AcDbEntity
  8
2
370
    50
100
AcDbCircle
 10
17.926912
 20
-1.64711
 30
0.0
 40
1.0
100
AcDbArc
 50
90.0
 51
180.0
  0
ARC
  5
98
100
AcDbEntity
  8
2
370
    50
100
AcDbCircle
 10
17.926912
 20
-45.64711
 30
0.0
 40
1.0
100
AcDbArc
 50
180.0
 51
270.0
  0
ARC
  5
99
100
AcDbEntity
  8
2
370
    50
100
AcDbCircle
 10
-25.573088
 20
13.35289
 30
0.0
 40
50.0
100
AcDbArc
 50
255.904263
 51
285.740549
  0
LINE
  5
9A
100
AcDbEntity
  8
2
370
    50
100
AcDbLine
 10
-49.573088
 20
-36.04711
 30
0.0
 11
-49.115945
 21
-36.504253
 31
0.0
  0
LINE
  5
9B
100
AcDbEntity
  8
2
370
    50
100
AcDbLine
 10
-77.873088
 20
-36.04711
 30
0.0
 11
-77.415945
 21
-36.504253
 31
0.0
  0
LINE
  5
9C
100
AcDbEntity
  8
2
370
    50
100
AcDbLine
 10
-77.873088
 20
-36.04711
 30
0.0
 11
-77.415945
 21
-36.504253
 31
0.0
  0
LINE
  5
9D
100
AcDbEntity
  8
2
370
    50
100
AcDbLine
 10
-77.873088
 20
-36.04711
 30
0.0
 11
-77.415945
 21
-36.504253
 31
0.0
  0
LINE
  5
9E
100
AcDbEntity
  8
2
370
    25
100
AcDbLine
 10
21.926912
 20
-14.36961
 30
0.0
 11
33.426912
 21
-14.36961
 31
0.0
  0
LINE
  5
9F
100
AcDbEntity
  8
2
370
    25
100
AcDbLine
 10
21.926912
 20
-32.92461
 30
0.0
 11
33.426912
 21
-32.92461
 31
0.0
  0
LINE
  5
A0
100
AcDbEntity
  8
2
370
    50
100
AcDbLine
 10
33.426912
 20
-14.36961
 30
0.0
 11
32.226912
 21
-13.16961
 31
0.0
  0
LINE
  5
A1
100
AcDbEntity
  8
2
370
    50
100
AcDbLine
 10
33.426912
 20
-32.92461
 30
0.0
 11
32.226912
 21
-34.12461
 31
0.0
  0
LINE
  5
A2
100
AcDbEntity
  8
2
370
    25
  6
CENTER
100
AcDbLine
 10
-25.573088
 20
-46.834345
 30
0.0
 11
-25.573088
 21
39.733142
 31
0.0
  0
LINE
  5
A3
100
AcDbEntity
  8
2
370
    25
  6
CENTER
100
AcDbLine
 10
-25.573088
 20
-46.834345
 30
0.0
 11
-25.573088
 21
19.90371
 31
0.0
  0
LINE
  5
A4
100
AcDbEntity
  8
2
370
    50
100
AcDbLine
 10
19.426912
 20
-46.44711
 30
0.0
 11
19.226912
 21
-46.64711
 31
0.0
  0
LINE
  5
A5
100
AcDbEntity
  8
2
370
    50
100
AcDbLine
 10
19.426912
 20
-0.84711
 30
0.0
 11
19.226912
 21
-0.64711
 31
0.0
  0
LINE
  5
A6
100
AcDbEntity
  8
2
370
    50
100
AcDbLine
 10
12.926912
 20
-32.89711
 30
0.0
 11
1.55508
 21
-32.89711
 31
0.0
  0
ARC
  5
A7
100
AcDbEntity
  8
2
370
    50
100
AcDbCircle
 10
1.55508
 20
-82.89711
 30
0.0
 40
50.0
100
AcDbArc
 50
90.0
 51
105.740549
  0
LINE
  5
A8
100
AcDbEntity
  8
2
370
    50
100
AcDbLine
 10
-13.073088
 20
-4.39711
 30
0.0
 11
-13.073088
 21
-1.14711
 31
0.0
  0
ARC
  5
A9
100
AcDbEntity
  8
2
370
    50
100
AcDbCircle
 10
-3.073088
 20
-4.39711
 30
0.0
 40
10.0
100
AcDbArc
 50
180.0
 51
270.0
  0
LINE
  5
AA
100
AcDbEntity
  8
2
370
    50
100
AcDbLine
 10
-38.073088
 20
-5.711931
 30
0.0
 11
-38.073088
 21
-1.14711
 31
0.0
  0
LINE
  5
AB
100
AcDbEntity
  8
2
370
    50
100
AcDbLine
 10
-49.573088
 20
-11.24711
 30
0.0
 11
-48.533857
 21
-10.64711
 31
0.0
  0
LINE
  5
AC
100
AcDbEntity
  8
2
370
    50
100
AcDbLine
 10
-46.025307
 20
-10.670527
 30
0.0
 11
-46.073088
 21
-10.64711
 31
0.0
  0
LINE
  5
AD
100
AcDbEntity
  8
2
370
    50
100
AcDbLine
 10
-44.436789
 20
-35.84518
 30
0.0
 11
-46.073088
 21
-36.64711
 31
0.0
  0
LINE
  5
AE
100
AcDbEntity
  8
2
370
    50
100
AcDbLine
 10
21.926912
 20
-14.36961
 30
0.0
 11
19.848451
 21
-13.16961
 31
0.0
  0
LINE
  5
AF
100
AcDbEntity
  8
2
370
    50
100
AcDbLine
 10
21.926912
 20
-32.92461
 30
0.0
 11
19.848451
 21
-34.12461
 31
0.0
  0
LINE
  5
B0
100
AcDbEntity
  8
2
370
    50
100
AcDbLine
 10
-38.073088
 20
-1.14711
 30
0.0
 11
-13.073088
 21
-1.14711
 31
0.0
  0
ARC
  5
B1
100
AcDbEntity
  8
2
370
    50
100
AcDbCircle
 10
-43.59516
 20
-5.711931
 30
0.0
 40
5.522072
100
AcDbArc
 50
243.891094
 51
360.0
  0
ARC
  5
B2
100
AcDbEntity
  8
2
370
    50
100
AcDbCircle
 10
-40.132342
 20
-44.628193
 30
0.0
 40
9.781083
100
AcDbArc
 50
75.904263
 51
116.108906
  0
LINE
  5
B3
100
AcDbEntity
  8
2
370
    50
100
AcDbLine
 10
21.926912
 20
-14.36961
 30
0.0
 11
21.926912
 21
-32.92461
 31
0.0
  0
LINE
  5
B4
100
AcDbEntity
  8
2
370
    50
100
AcDbLine
 10
-77.873088
 20
-10.04711
 30
0.0
 11
-77.873088
 21
-37.24711
 31
0.0
  0
LINE
  5
B5
100
AcDbEntity
  8
2
370
    50
100
AcDbLine
 10
-87.873088
 20
-12.89711
 30
0.0
 11
-87.873088
 21
-34.39711
 31
0.0
  0
ARC
  5
B6
100
AcDbEntity
  8
2
370
    50
100
AcDbCircle
 10
-82.05223
 20
-14.352313
 30
0.0
 40
6.0
100
AcDbArc
 50
45.851238
 51
165.963865
  0
ARC
  5
B7
100
AcDbEntity
  8
2
370
    50
100
AcDbCircle
 10
-82.05223
 20
-32.941907
 30
0.0
 40
6.0
100
AcDbArc
 50
194.036135
 51
314.148762
  0
ELLIPSE
  5
B8
100
AcDbEntity
  8
2
370
    50
100
AcDbEllipse
 10
-82.123088
 20
-23.64711
 30
0.0
 11
0.0
 21
-6.0
 31
0.0
210
0.0
220
0.0
230
1.0
 40
0.625
 41
0.0
 42
6.2831849999999996
  0
ELLIPSE
  5
B9
100
AcDbEntity
  8
2
370
    50
100
AcDbEllipse
 10
-82.123088
 20
-35.941907
 30
0.0
 11
3.75
 21
0.0
 31
0.0
210
0.0
220
0.0
230
1.0
 40
0.8
 41
0.0
 42
6.2831849999999996
  0
ELLIPSE
  5
BA
100
AcDbEntity
  8
2
370
    50
100
AcDbEllipse
 10
-82.123088
 20
-11.352313
 30
0.0
 11
-3.75
 21
0.0
 31
0.0
210
0.0
220
0.0
230
1.0
 40
0.8
 41
0.0
 42
6.2831849999999996
  0
LINE
  5
BB
100
AcDbEntity
  8
2
370
    50
100
AcDbLine
 10
-77.873088
 20
-10.64711
 30
0.0
 11
-77.873088
 21
-36.64711
 31
0.0
  0
LINE
  5
BC
100
AcDbEntity
  8
2
370
    50
100
AcDbLine
 10
32.226912
 20
-13.16961
 30
0.0
 11
32.226912
 21
-34.12461
 31
0.0
  0
LINE
  5
BD
100
AcDbEntity
  8
2
370
    50
100
AcDbLine
 10
-14.173088
 20
0.792121
 30
0.0
 11
-14.173088
 21
0.85189
 31
0.0
  0
LINE
  5
BE
100
AcDbEntity
  8
2
370
    50
100
AcDbLine
 10
-36.973088
 20
0.792121
 30
0.0
 11
-36.973088
 21
0.85189
 31
0.0
  0
LINE
  5
BF
100
AcDbEntity
  8
2
370
    50
100
AcDbLine
 10
-37.573088
 20
-0.24711
 30
0.0
 11
-36.973088
 21
0.792121
 31
0.0
  0
LINE
  5
C0
100
AcDbEntity
  8
2
370
    50
100
AcDbLine
 10
-13.573088
 20
-0.24711
 30
0.0
 11
-14.173088
 21
0.792121
 31
0.0
  0
LINE
  5
C1
100
AcDbEntity
  8
2
370
    25
  6
CENTER
100
AcDbLine
 10
-122.372359
 20
-46.359535
 30
0.0
 11
-126.579762
 21
-70.220901
 31
0.0
  0
LINE
  5
C2
100
AcDbEntity
  8
2
370
    50
100
AcDbLine
 10
-130.149228
 20
-44.988263
 30
0.0
 11
-130.770708
 21
-48.51285
 31
0.0
  0
ARC
  5
C3
100
AcDbEntity
  8
2
370
    25
  6
CENTER
100
AcDbCircle
 10
-95.300979
 20
-51.13295
 30
0.0
 40
27.489
100
AcDbArc
 50
90.859714
 51
170.0
  0
ARC
  5
C4
100
AcDbEntity
  8
2
370
    50
100
AcDbCircle
 10
-95.300979
 20
-51.13295
 30
0.0
 40
35.38584
100
AcDbArc
 50
90.0
 51
170.0
  0
LINE
  5
C5
100
AcDbEntity
  8
2
370
    50
100
AcDbLine
 10
-133.093329
 20
-64.851146
 30
0.0
 11
-118.622446
 21
-67.402754
 31
0.0
  0
LINE
  5
C6
100
AcDbEntity
  8
2
370
    50
100
AcDbLine
 10
-131.901823
 20
-55.215543
 30
0.0
 11
-124.174174
 21
-56.578136
 31
0.0
  0
LINE
  5
C7
100
AcDbEntity
  8
2
370
    50
100
AcDbLine
 10
-132.25802
 20
-54.645226
 30
0.0
 11
-124.087385
 21
-56.085929
 31
0.0
  0
LINE
  5
C8
100
AcDbEntity
  8
2
370
    50
100
AcDbLine
 10
-132.032367
 20
-53.365488
 30
0.0
 11
-132.25802
 21
-54.645226
 31
0.0
  0
LINE
  5
C9
100
AcDbEntity
  8
2
370
    50
100
AcDbLine
 10
-129.997442
 20
-50.171728
 30
0.0
 11
-130.344599
 21
-52.140556
 31
0.0
  0
LINE
  5
CA
100
AcDbEntity
  8
2
370
    50
100
AcDbLine
 10
-131.901823
 20
-55.215543
 30
0.0
 11
-133.498747
 21
-64.27215
 31
0.0
  0
LINE
  5
CB
100
AcDbEntity
  8
2
370
    50
100
AcDbLine
 10
-131.901823
 20
-55.215543
 30
0.0
 11
-132.25802
 21
-54.645226
 31
0.0
  0
LINE
  5
CC
100
AcDbEntity
  8
2
370
    50
100
AcDbLine
 10
-132.032367
 20
-53.365488
 30
0.0
 11
-123.861732
 21
-54.806191
 31
0.0
  0
LINE
  5
CD
100
AcDbEntity
  8
2
370
    50
100
AcDbLine
 10
-130.344599
 20
-52.140556
 30
0.0
 11
-123.601364
 21
-53.32957
 31
0.0
  0
LINE
  5
CE
100
AcDbEntity
  8
2
370
    50
100
AcDbLine
 10
-129.997442
 20
-50.171728
 30
0.0
 11
-123.254207
 21
-51.360743
 31
0.0
  0
LINE
  5
CF
100
AcDbEntity
  8
2
370
    50
100
AcDbLine
 10
-130.770708
 20
-48.51285
 30
0.0
 11
-122.993839
 21
-49.884122
 31
0.0
  0
LINE
  5
D0
100
AcDbEntity
  8
2
370
    50
100
AcDbLine
 10
-132.032367
 20
-53.365488
 30
0.0
 11
-130.344599
 21
-52.140556
 31
0.0
  0
LINE
  5
D1
100
AcDbEntity
  8
2
370
    50
100
AcDbLine
 10
-129.997442
 20
-50.171728
 30
0.0
 11
-130.770708
 21
-48.51285
 31
0.0
  0
LINE
  5
D2
100
AcDbEntity
  8
2
370
    50
100
AcDbLine
 10
-95.300979
 20
-15.74711
 30
0.0
 11
-87.873088
 21
-15.74711
 31
0.0
  0
LINE
  5
D3
100
AcDbEntity
  8
2
370
    50
100
AcDbLine
 10
-114.59549
 20
-47.730807
 30
0.0
 11
-115.21697
 21
-51.255394
 31
0.0
  0
LINE
  5
D4
100
AcDbEntity
  8
2
370
    50
100
AcDbLine
 10
-118.622446
 20
-67.402754
 30
0.0
 11
-133.093329
 21
-64.851146
 31
0.0
  0
LINE
  5
D5
100
AcDbEntity
  8
2
370
    50
100
AcDbLine
 10
-116.446526
 20
-57.940729
 30
0.0
 11
-124.174174
 21
-56.578136
 31
0.0
  0
LINE
  5
D6
100
AcDbEntity
  8
2
370
    50
100
AcDbLine
 10
-115.91675
 20
-57.526632
 30
0.0
 11
-124.087385
 21
-56.085929
 31
0.0
  0
LINE
  5
D7
100
AcDbEntity
  8
2
370
    50
100
AcDbLine
 10
-115.691098
 20
-56.246894
 30
0.0
 11
-115.91675
 21
-57.526632
 31
0.0
  0
LINE
  5
D8
100
AcDbEntity
  8
2
370
    50
100
AcDbLine
 10
-116.510972
 20
-52.549757
 30
0.0
 11
-116.85813
 21
-54.518584
 31
0.0
  0
LINE
  5
D9
100
AcDbEntity
  8
2
370
    50
100
AcDbLine
 10
-116.446526
 20
-57.940729
 30
0.0
 11
-118.04345
 21
-66.997336
 31
0.0
  0
LINE
  5
DA
100
AcDbEntity
  8
2
370
    50
100
AcDbLine
 10
-116.446526
 20
-57.940729
 30
0.0
 11
-115.91675
 21
-57.526632
 31
0.0
  0
LINE
  5
DB
100
AcDbEntity
  8
2
370
    50
100
AcDbLine
 10
-115.691098
 20
-56.246894
 30
0.0
 11
-123.861732
 21
-54.806191
 31
0.0
  0
LINE
  5
DC
100
AcDbEntity
  8
2
370
    50
100
AcDbLine
 10
-116.85813
 20
-54.518584
 30
0.0
 11
-123.601364
 21
-53.32957
 31
0.0
  0
LINE
  5
DD
100
AcDbEntity
  8
2
370
    50
100
AcDbLine
 10
-116.510972
 20
-52.549757
 30
0.0
 11
-123.254207
 21
-51.360743
 31
0.0
  0
LINE
  5
DE
100
AcDbEntity
  8
2
370
    50
100
AcDbLine
 10
-115.21697
 20
-51.255394
 30
0.0
 11
-122.993839
 21
-49.884122
 31
0.0
  0
LINE
  5
DF
100
AcDbEntity
  8
2
370
    50
100
AcDbLine
 10
-115.691098
 20
-56.246894
 30
0.0
 11
-116.85813
 21
-54.518584
 31
0.0
  0
LINE
  5
E0
100
AcDbEntity
  8
2
370
    50
100
AcDbLine
 10
-116.510972
 20
-52.549757
 30
0.0
 11
-115.21697
 21
-51.255394
 31
0.0
  0
ARC
  5
E1
100
AcDbEntity
  8
2
370
    50
100
AcDbCircle
 10
-118.535657
 20
-66.910547
 30
0.0
 40
0.4998
100
AcDbArc
 50
260.0
 51
350.0
  0
LINE
  5
E2
100
AcDbEntity
  8
2
370
    50
100
AcDbLine
 10
-95.300979
 20
-31.54079
 30
0.0
 11
-87.873088
 21
-31.54079
 31
0.0
  0
ARC
  5
E3
100
AcDbEntity
  8
2
370
    50
100
AcDbCircle
 10
-95.300979
 20
-51.13295
 30
0.0
 40
19.59216
100
AcDbArc
 50
90.0
 51
170.0
  0
ARC
  5
E4
100
AcDbEntity
  8
2
370
    50
100
AcDbCircle
 10
-133.005729
 20
-64.358372
 30
0.0
 40
0.5005
100
AcDbArc
 50
170.0
 51
260.0
  0
POINT
  5
E5
100
AcDbEntity
  8
2
370
    50
100
AcDbPoint
 10
-125.857888
 20
-66.12695
 30
0.0
  0
POINT
  5
E6
100
AcDbEntity
  8
2
370
    50
100
AcDbPoint
 10
-49.573088
 20
-23.64711
 30
0.0
  0
LINE
  5
E7
100
AcDbEntity
  8
2
370
    50
100
AcDbLine
 10
-68.873088
 20
-10.646775
 30
0.0
 11
-68.873088
 21
-9.346775
 31
0.0
  0
LINE
  5
E8
100
AcDbEntity
  8
2
370
    50
100
AcDbLine
 10
-50.573088
 20
-8.346775
 30
0.0
 11
-67.873088
 21
-8.346775
 31
0.0
  0
LINE
  5
E9
100
AcDbEntity
  8
2
370
    50
100
AcDbLine
 10
-68.873088
 20
-36.646775
 30
0.0
 11
-68.873088
 21
-37.946775
 31
0.0
  0
LINE
  5
EA
100
AcDbEntity
  8
2
370
    50
100
AcDbLine
 10
-50.573088
 20
-38.946775
 30
0.0
 11
-67.873088
 21
-38.946775
 31
0.0
  0
LINE
  5
EB
100
AcDbEntity
  8
2
370
    50
100
AcDbLine
 10
-49.573088
 20
-37.946775
 30
0.0
 11
-50.573088
 21
-38.946775
 31
0.0
  0
LINE
  5
EC
100
AcDbEntity
  8
2
370
    50
100
AcDbLine
 10
-67.873088
 20
-38.946775
 30
0.0
 11
-68.873088
 21
-37.946775
 31
0.0
  0
LINE
  5
ED
100
AcDbEntity
  8
2
370
    50
100
AcDbLine
 10
-68.873088
 20
-9.346775
 30
0.0
 11
-67.873088
 21
-8.346775
 31
0.0
  0
LINE
  5
EE
100
AcDbEntity
  8
2
370
    50
100
AcDbLine
 10
-49.573088
 20
-9.346775
 30
0.0
 11
-50.573088
 21
-8.346775
 31
0.0
  0
LINE
  5
EF
100
AcDbEntity
  8
2
370
    50
100
AcDbLine
 10
-49.573088
 20
-23.64711
 30
0.0
 11
-49.573088
 21
-37.947247
 31
0.0
  0
LINE
  5
F0
100
AcDbEntity
  8
2
370
    50
100
AcDbLine
 10
-68.873088
 20
-23.64711
 30
0.0
 11
-68.873088
 21
-37.947247
 31
0.0
  0
LINE
  5
F1
100
AcDbEntity
  8
2
370
    50
100
AcDbLine
 10
-77.873088
 20
-36.647247
 30
0.0
 11
-68.873088
 21
-36.647247
 31
0.0
  0
LINE
  5
F2
100
AcDbEntity
  8
2
370
    50
100
AcDbLine
 10
-50.573088
 20
-38.947247
 30
0.0
 11
-67.873088
 21
-38.947247
 31
0.0
  0
LINE
  5
F3
100
AcDbEntity
  8
2
370
    50
100
AcDbLine
 10
-68.873088
 20
-37.947247
 30
0.0
 11
-67.873088
 21
-38.947247
 31
0.0
  0
LINE
  5
F4
100
AcDbEntity
  8
2
370
    50
100
AcDbLine
 10
-49.573088
 20
-37.947247
 30
0.0
 11
-50.573088
 21
-38.947247
 31
0.0
  0
LINE
  5
F5
100
AcDbEntity
  8
2
370
    50
100
AcDbLine
 10
-50.573088
 20
-29.818793
 30
0.0
 11
-50.573088
 21
-32.685585
 31
0.0
  0
LINE
  5
F6
100
AcDbEntity
  8
2
370
    50
100
AcDbLine
 10
-50.573088
 20
-29.818793
 30
0.0
 11
-67.873088
 21
-29.818793
 31
0.0
  0
LINE
  5
F7
100
AcDbEntity
  8
2
370
    50
100
AcDbLine
 10
-50.573088
 20
-32.685585
 30
0.0
 11
-67.873088
 21
-32.685585
 31
0.0
  0
ARC
  5
F8
100
AcDbEntity
  8
2
370
    50
100
AcDbCircle
 10
-54.97414
 20
-35.816416
 30
0.0
 40
5.401052
100
AcDbArc
 50
324.57262
 51
35.42738
  0
ARC
  5
F9
100
AcDbEntity
  8
2
370
    50
100
AcDbCircle
 10
-69.117926
 20
-23.64711
 30
0.0
 40
19.544839
100
AcDbArc
 50
341.592665
 51
360.0
  0
LINE
  5
FA
100
AcDbEntity
  8
2
370
    50
100
AcDbLine
 10
-67.873088
 20
-29.818793
 30
0.0
 11
-67.873088
 21
-32.685585
 31
0.0
  0
ARC
  5
FB
100
AcDbEntity
  8
2
370
    50
100
AcDbCircle
 10
-63.472036
 20
-35.816416
 30
0.0
 40
5.401052
100
AcDbArc
 50
144.57262
 51
215.42738
  0
ARC
  5
FC
100
AcDbEntity
  8
2
370
    50
100
AcDbCircle
 10
-49.328249
 20
-23.64711
 30
0.0
 40
19.544839
100
AcDbArc
 50
180.0
 51
198.407335
  0
LINE
  5
FD
100
AcDbEntity
  8
2
370
    50
100
AcDbLine
 10
-49.573088
 20
-23.64711
 30
0.0
 11
-49.573088
 21
-9.346973
 31
0.0
  0
LINE
  5
FE
100
AcDbEntity
  8
2
370
    50
100
AcDbLine
 10
-68.873088
 20
-23.64711
 30
0.0
 11
-68.873088
 21
-9.346973
 31
0.0
  0
LINE
  5
FF
100
AcDbEntity
  8
2
370
    50
100
AcDbLine
 10
-77.873088
 20
-10.646973
 30
0.0
 11
-68.873088
 21
-10.646973
 31
0.0
  0
LINE
  5
100
100
AcDbEntity
  8
2
370
    50
100
AcDbLine
 10
-50.573088
 20
-8.346973
 30
0.0
 11
-67.873088
 21
-8.346973
 31
0.0
  0
LINE
  5
101
100
AcDbEntity
  8
2
370
    50
100
AcDbLine
 10
-68.873088
 20
-9.346973
 30
0.0
 11
-67.873088
 21
-8.346973
 31
0.0
  0
LINE
  5
102
100
AcDbEntity
  8
2
370
    50
100
AcDbLine
 10
-49.573088
 20
-9.346973
 30
0.0
 11
-50.573088
 21
-8.346973
 31
0.0
  0
LINE
  5
103
100
AcDbEntity
  8
2
370
    50
100
AcDbLine
 10
-50.573088
 20
-17.475426
 30
0.0
 11
-50.573088
 21
-14.608635
 31
0.0
  0
LINE
  5
104
100
AcDbEntity
  8
2
370
    50
100
AcDbLine
 10
-50.573088
 20
-17.475426
 30
0.0
 11
-67.873088
 21
-17.475426
 31
0.0
  0
LINE
  5
105
100
AcDbEntity
  8
2
370
    50
100
AcDbLine
 10
-50.573088
 20
-14.608635
 30
0.0
 11
-67.873088
 21
-14.608635
 31
0.0
  0
ARC
  5
106
100
AcDbEntity
  8
2
370
    50
100
AcDbCircle
 10
-54.97414
 20
-11.477804
 30
0.0
 40
5.401052
100
AcDbArc
 50
324.57262
 51
35.42738
  0
ARC
  5
107
100
AcDbEntity
  8
2
370
    50
100
AcDbCircle
 10
-69.117926
 20
-23.64711
 30
0.0
 40
19.544839
100
AcDbArc
 50
0.0
 51
18.407335
  0
LINE
  5
108
100
AcDbEntity
  8
2
370
    50
100
AcDbLine
 10
-67.873088
 20
-17.475426
 30
0.0
 11
-67.873088
 21
-14.608635
 31
0.0
  0
ARC
  5
109
100
AcDbEntity
  8
2
370
    50
100
AcDbCircle
 10
-63.472036
 20
-11.477804
 30
0.0
 40
5.401052
100
AcDbArc
 50
144.57262
 51
215.42738
  0
ARC
  5
10A
100
AcDbEntity
  8
2
370
    50
100
AcDbCircle
 10
-49.328249
 20
-23.64711
 30
0.0
 40
19.544839
100
AcDbArc
 50
161.592665
 51
180.0
  0
LINE
  5
10B
100
AcDbEntity
  8
2
370
    50
100
AcDbLine
 10
-49.572529
 20
94.862885
 30
0.0
 11
-46.073383
 21
94.862885
 31
0.0
  0
LINE
  5
10C
100
AcDbEntity
  8
2
370
    50
100
AcDbLine
 10
-49.572529
 20
68.862885
 30
0.0
 11
-46.073383
 21
68.862885
 31
0.0
  0
LINE
  5
10D
100
AcDbEntity
  8
2
370
    25
  6
CENTER
100
AcDbLine
 10
-142.121546
 20
81.862885
 30
0.0
 11
39.025974
 21
81.862885
 31
0.0
  0
LINE
  5
10E
100
AcDbEntity
  8
2
370
    25
  6
CENTER
100
AcDbLine
 10
-25.573383
 20
54.677636
 30
0.0
 11
-25.573383
 21
110.158494
 31
0.0
  0
LINE
  5
10F
100
AcDbEntity
  8
2
370
    50
100
AcDbLine
 10
-49.573383
 20
94.262885
 30
0.0
 11
-48.534152
 21
94.862885
 31
0.0
  0
LINE
  5
110
100
AcDbEntity
  8
2
370
    50
100
AcDbLine
 10
-49.573383
 20
69.462885
 30
0.0
 11
-48.534152
 21
68.862885
 31
0.0
  0
LINE
  5
111
100
AcDbEntity
  8
2
370
    50
100
AcDbLine
 10
-46.073383
 20
94.862885
 30
0.0
 11
-44.417018
 21
94.055022
 31
0.0
  0
LINE
  5
112
100
AcDbEntity
  8
2
370
    50
100
AcDbLine
 10
-40.120064
 20
93.063204
 30
0.0
 11
-36.72442
 21
93.063522
 31
0.0
  0
ARC
  5
113
100
AcDbEntity
  8
2
370
    50
100
AcDbCircle
 10
-40.120981
 20
102.863204
 30
0.0
 40
9.8
100
AcDbArc
 50
244.0
 51
270.005362
  0
ARC
  5
114
100
AcDbEntity
  8
2
370
    50
100
AcDbCircle
 10
-40.120981
 20
60.862567
 30
0.0
 40
9.8
100
AcDbArc
 50
89.994638
 51
116.0
  0
LINE
  5
115
100
AcDbEntity
  8
2
370
    50
100
AcDbLine
 10
-46.073383
 20
68.862885
 30
0.0
 11
-44.417018
 21
69.670749
 31
0.0
  0
ARC
  5
116
100
AcDbEntity
  8
2
370
    50
100
AcDbCircle
 10
-40.120981
 20
60.862567
 30
0.0
 40
9.8
100
AcDbArc
 50
89.994638
 51
116.0
  0
LINE
  5
117
100
AcDbEntity
  8
2
370
    50
100
AcDbLine
 10
-40.120064
 20
70.662567
 30
0.0
 11
-36.590489
 21
70.662237
 31
0.0
  0
ARC
  5
118
100
AcDbEntity
  8
2
370
    50
100
AcDbCircle
 10
-13.073383
 20
60.21225
 30
0.0
 40
6.0
100
AcDbArc
 50
229.129151
 51
10.870849
  0
ARC
  5
119
100
AcDbEntity
  8
2
370
    50
100
AcDbCircle
 10
-50.573383
 20
81.862885
 30
0.0
 40
6.0
100
AcDbArc
 50
109.129151
 51
250.870849
  0
ARC
  5
11A
100
AcDbEntity
  8
2
370
    50
100
AcDbCircle
 10
-13.073383
 20
103.513521
 30
0.0
 40
6.0
100
AcDbArc
 50
349.129151
 51
130.870849
  0
LINE
  5
11B
100
AcDbEntity
  8
2
370
    50
100
AcDbLine
 10
-7.181054
 20
102.381946
 30
0.0
 11
-10.035026
 21
87.52076
 31
0.0
  0
ARC
  5
11C
100
AcDbEntity
  8
2
370
    50
100
AcDbCircle
 10
19.426617
 20
81.862885
 30
0.0
 40
30.0
100
AcDbArc
 50
169.129151
 51
190.870849
  0
LINE
  5
11D
100
AcDbEntity
  8
2
370
    50
100
AcDbLine
 10
-7.181054
 20
61.343825
 30
0.0
 11
-10.035026
 21
76.205011
 31
0.0
  0
LINE
  5
11E
100
AcDbEntity
  8
2
370
    50
100
AcDbLine
 10
-16.99952
 20
108.05064
 30
0.0
 11
-28.442698
 21
98.148434
 31
0.0
  0
LINE
  5
11F
100
AcDbEntity
  8
2
370
    50
100
AcDbLine
 10
-52.539574
 20
87.531579
 30
0.0
 11
-38.242424
 21
92.490559
 31
0.0
  0
ARC
  5
120
100
AcDbEntity
  8
2
370
    50
100
AcDbCircle
 10
-48.073383
 20
120.834029
 30
0.0
 40
30.0
100
AcDbArc
 50
289.129151
 51
310.870849
  0
LINE
  5
121
100
AcDbEntity
  8
2
370
    50
100
AcDbLine
 10
-16.99952
 20
55.675131
 30
0.0
 11
-28.442698
 21
65.577337
 31
0.0
  0
LINE
  5
122
100
AcDbEntity
  8
2
370
    50
100
AcDbLine
 10
-52.539574
 20
76.194192
 30
0.0
 11
-38.242424
 21
71.235212
 31
0.0
  0
ARC
  5
123
100
AcDbEntity
  8
2
370
    50
100
AcDbCircle
 10
-48.073383
 20
42.891742
 30
0.0
 40
30.0
100
AcDbArc
 50
49.129151
 51
70.870849
  0
LINE
  5
124
100
AcDbEntity
  8
2
370
    50
100
AcDbLine
 10
-46.073383
 20
68.862885
 30
0.0
 11
-46.073383
 21
73.951387
 31
0.0
  0
LINE
  5
125
100
AcDbEntity
  8
2
370
    50
100
AcDbLine
 10
-46.073383
 20
89.774384
 30
0.0
 11
-46.073383
 21
94.862885
 31
0.0
  0
LINE
  5
126
100
AcDbEntity
  8
2
370
    50
100
AcDbLine
 10
-49.573383
 20
69.462885
 30
0.0
 11
-49.573383
 21
75.165365
 31
0.0
  0
LINE
  5
127
100
AcDbEntity
  8
2
370
    50
100
AcDbLine
 10
-49.573383
 20
88.560406
 30
0.0
 11
-49.573383
 21
94.262885
 31
0.0
  0
CIRCLE
  5
128
100
AcDbEntity
  8
2
370
    50
100
AcDbCircle
 10
-25.573383
 20
81.862885
 30
0.0
 40
7.0
  0
CIRCLE
  5
129
100
AcDbEntity
  8
2
370
    50
100
AcDbCircle
 10
-25.573383
 20
81.862885
 30
0.0
 40
5.5
  0
LINE
  5
12A
100
AcDbEntity
  8
2
370
    50
100
AcDbLine
 10
-49.573529
 20
69.862885
 30
0.0
 11
-49.573529
 21
75.165416
 31
0.0
  0
LINE
  5
12B
100
AcDbEntity
  8
2
370
    50
100
AcDbLine
 10
-49.573529
 20
88.560355
 30
0.0
 11
-49.573529
 21
93.862885
 31
0.0
  0
LINE
  5
12C
100
AcDbEntity
  8
2
370
    50
100
AcDbLine
 10
16.926617
 20
59.862885
 30
0.0
 11
16.926617
 21
103.862885
 31
0.0
  0
LINE
  5
12D
100
AcDbEntity
  8
2
370
    50
100
AcDbLine
 10
33.426617
 20
73.812885
 30
0.0
 11
33.426617
 21
89.912885
 31
0.0
  0
LINE
  5
12E
100
AcDbEntity
  8
2
370
    50
100
AcDbLine
 10
17.926617
 20
104.862885
 30
0.0
 11
19.426617
 21
104.862885
 31
0.0
  0
LINE
  5
12F
100
AcDbEntity
  8
2
370
    50
100
AcDbLine
 10
17.926617
 20
58.862885
 30
0.0
 11
19.426617
 21
58.862885
 31
0.0
  0
LINE
  5
130
100
AcDbEntity
  8
2
370
    50
100
AcDbLine
 10
19.426617
 20
58.862885
 30
0.0
 11
19.426617
 21
104.862885
 31
0.0
  0
ARC
  5
131
100
AcDbEntity
  8
2
370
    50
100
AcDbCircle
 10
17.926617
 20
103.862885
 30
0.0
 40
1.0
100
AcDbArc
 50
90.0
 51
180.0
  0
ARC
  5
132
100
AcDbEntity
  8
2
370
    50
100
AcDbCircle
 10
17.926617
 20
59.862885
 30
0.0
 40
1.0
100
AcDbArc
 50
180.0
 51
270.0
  0
ARC
  5
133
100
AcDbEntity
  8
2
370
    50
100
AcDbCircle
 10
12.926617
 20
95.112885
 30
0.0
 40
4.0
100
AcDbArc
 50
270.0
 51
360.0
  0
LINE
  5
134
100
AcDbEntity
  8
2
370
    50
100
AcDbLine
 10
19.426617
 20
91.112885
 30
0.0
 11
32.226617
 21
91.112885
 31
0.0
  0
LINE
  5
135
100
AcDbEntity
  8
2
370
    50
100
AcDbLine
 10
19.426617
 20
72.612885
 30
0.0
 11
32.226617
 21
72.612885
 31
0.0
  0
LINE
  5
136
100
AcDbEntity
  8
2
370
    50
100
AcDbLine
 10
-9.345187
 20
91.112885
 30
0.0
 11
12.926617
 21
91.112885
 31
0.0
  0
LINE
  5
137
100
AcDbEntity
  8
2
370
    50
100
AcDbLine
 10
-9.345187
 20
72.612885
 30
0.0
 11
12.926617
 21
72.612885
 31
0.0
  0
LINE
  5
138
100
AcDbEntity
  8
2
370
    25
100
AcDbLine
 10
22.005078
 20
89.912885
 30
0.0
 11
33.426617
 21
89.912885
 31
0.0
  0
LINE
  5
139
100
AcDbEntity
  8
2
370
    25
100
AcDbLine
 10
22.005078
 20
73.812885
 30
0.0
 11
33.426617
 21
73.812885
 31
0.0
  0
LINE
  5
13A
100
AcDbEntity
  8
2
370
    50
100
AcDbLine
 10
32.226617
 20
91.112885
 30
0.0
 11
33.426617
 21
89.912885
 31
0.0
  0
LINE
  5
13B
100
AcDbEntity
  8
2
370
    50
100
AcDbLine
 10
33.426617
 20
73.812885
 30
0.0
 11
32.226617
 21
72.612885
 31
0.0
  0
LINE
  5
13C
100
AcDbEntity
  8
2
370
    50
100
AcDbLine
 10
32.226617
 20
72.612885
 30
0.0
 11
32.226617
 21
91.112885
 31
0.0
  0
LINE
  5
13D
100
AcDbEntity
  8
2
370
    50
100
AcDbLine
 10
22.005078
 20
89.912885
 30
0.0
 11
22.005078
 21
73.812885
 31
0.0
  0
ARC
  5
13E
100
AcDbEntity
  8
2
370
    50
100
AcDbCircle
 10
12.926617
 20
68.612885
 30
0.0
 40
4.0
100
AcDbArc
 50
0.0
 51
90.0
  0
LINE
  5
13F
100
AcDbEntity
  8
2
370
    50
100
AcDbLine
 10
22.005078
 20
89.912885
 30
0.0
 11
19.926617
 21
91.112885
 31
0.0
  0
LINE
  5
140
100
AcDbEntity
  8
2
370
    50
100
AcDbLine
 10
22.005078
 20
73.812885
 30
0.0
 11
19.926617
 21
72.612885
 31
0.0
  0
LINE
  5
141
100
AcDbEntity
  8
2
370
    50
100
AcDbLine
 10
-123.007699
 20
89.762885
 30
0.0
 11
-87.872529
 21
89.762885
 31
0.0
  0
LINE
  5
142
100
AcDbEntity
  8
2
370
    50
100
AcDbLine
 10
-123.007699
 20
73.962885
 30
0.0
 11
-87.872529
 21
73.962885
 31
0.0
  0
LINE
  5
143
100
AcDbEntity
  8
2
370
    50
100
AcDbLine
 10
-87.872529
 20
72.862885
 30
0.0
 11
-87.872529
 21
90.862885
 31
0.0
  0
ELLIPSE
  5
144
100
AcDbEntity
  8
2
370
    50
100
AcDbEllipse
 10
-123.007699
 20
81.862885
 30
0.0
 11
0.0
 21
7.9000000000000004
 31
0.0
210
0.0
220
0.0
230
1.0
 40
0.984808
 41
0.0
 42
3.1415929999999999
  0
LINE
  5
145
100
AcDbEntity
  8
2
370
    50
100
AcDbLine
 10
-124.101682
 20
90.162885
 30
0.0
 11
-123.87594
 21
90.162885
 31
0.0
  0
LINE
  5
146
100
AcDbEntity
  8
2
370
    50
100
AcDbLine
 10
-123.87594
 20
73.562885
 30
0.0
 11
-124.101682
 21
73.562885
 31
0.0
  0
ELLIPSE
  5
147
100
AcDbEntity
  8
2
370
    50
100
AcDbEllipse
 10
-123.87594
 20
81.862885
 30
0.0
 11
0.0
 21
8.3000000000000007
 31
0.0
210
0.0
220
0.0
230
1.0
 40
0.984808
 41
5.9714650000000002
 42
3.4533130000000001
  0
ELLIPSE
  5
148
100
AcDbEntity
  8
2
370
    50
100
AcDbEllipse
 10
-124.101682
 20
81.862885
 30
0.0
 11
0.0
 21
8.3000000000000007
 31
0.0
210
0.0
220
0.0
230
1.0
 40
0.984808
 41
0.0
 42
3.1415929999999999
  0
ELLIPSE
  5
149
100
AcDbEntity
  8
2
370
    50
100
AcDbEllipse
 10
-125.872894
 20
81.862885
 30
0.0
 11
0.0
 21
7.8499999999999996
 31
0.0
210
0.0
220
0.0
230
1.0
 40
0.984808
 41
0.143309
 42
2.9982839999999999
  0
ARC
  5
14A
100
AcDbEntity
  8
2
370
    50
100
AcDbCircle
 10
-79.872529
 20
95.262885
 30
0.0
 40
2.0
100
AcDbArc
 50
0.0
 51
17.457063
  0
ARC
  5
14B
100
AcDbEntity
  8
2
370
    50
100
AcDbCircle
 10
-82.872529
 20
71.462885
 30
0.0
 40
5.0
100
AcDbArc
 50
180.0
 51
226.054183
  0
ARC
  5
14C
100
AcDbEntity
  8
2
370
    50
100
AcDbCircle
 10
-82.872529
 20
92.262885
 30
0.0
 40
5.0
100
AcDbArc
 50
133.945817
 51
180.0
  0
LINE
  5
14D
100
AcDbEntity
  8
2
370
    50
100
AcDbLine
 10
-87.872529
 20
71.462885
 30
0.0
 11
-87.872529
 21
92.262885
 31
0.0
  0
ARC
  5
14E
100
AcDbEntity
  8
2
370
    50
100
AcDbCircle
 10
-79.872529
 20
68.462885
 30
0.0
 40
2.0
100
AcDbArc
 50
342.542937
 51
360.0
  0
LINE
  5
14F
100
AcDbEntity
  8
2
370
    50
100
AcDbLine
 10
-77.964645
 20
95.862867
 30
0.0
 11
-86.342418
 21
95.862867
 31
0.0
  0
LINE
  5
150
100
AcDbEntity
  8
2
370
    50
100
AcDbLine
 10
-77.964645
 20
67.862903
 30
0.0
 11
-86.342418
 21
67.862903
 31
0.0
  0
LINE
  5
151
100
AcDbEntity
  8
2
370
    50
100
AcDbLine
 10
-77.872529
 20
95.262885
 30
0.0
 11
-77.872529
 21
68.462885
 31
0.0
  0
ELLIPSE
  5
152
100
AcDbEntity
  8
2
370
    50
100
AcDbEllipse
 10
-82.099099
 20
88.862903
 30
0.0
 11
0.0
 21
5.2365899999999996
 31
0.0
210
0.0
220
0.0
230
1.0
 40
0.779251
 41
0.0
 42
6.2831849999999996
  0
ELLIPSE
  5
153
100
AcDbEntity
  8
2
370
    50
100
AcDbEllipse
 10
-82.099099
 20
74.862867
 30
0.0
 11
0.0
 21
-5.2365899999999996
 31
0.0
210
0.0
220
0.0
230
1.0
 40
0.779251
 41
0.0
 42
6.2831849999999996
  0
LINE
  5
154
100
AcDbEntity
  8
2
370
    50
100
AcDbLine
 10
-68.872529
 20
67.862885
 30
0.0
 11
-68.872529
 21
95.862885
 31
0.0
  0
LINE
  5
155
100
AcDbEntity
  8
2
370
    50
100
AcDbLine
 10
-77.912937
 20
94.862885
 30
0.0
 11
-68.872529
 21
94.862885
 31
0.0
  0
LINE
  5
156
100
AcDbEntity
  8
2
370
    50
100
AcDbLine
 10
-77.872529
 20
68.862885
 30
0.0
 11
-68.872529
 21
68.862885
 31
0.0
  0
LINE
  5
157
100
AcDbEntity
  8
2
370
    50
100
AcDbLine
 10
-77.872383
 20
69.462885
 30
0.0
 11
-77.272383
 21
68.862885
 31
0.0
  0
LINE
  5
158
100
AcDbEntity
  8
2
370
    50
100
AcDbLine
 10
-77.872383
 20
69.462885
 30
0.0
 11
-77.41524
 21
69.005743
 31
0.0
  0
LINE
  5
159
100
AcDbEntity
  8
2
370
    50
100
AcDbLine
 10
-77.872383
 20
69.462885
 30
0.0
 11
-77.41524
 21
69.005743
 31
0.0
  0
LINE
  5
15A
100
AcDbEntity
  8
2
370
    50
100
AcDbLine
 10
-77.872383
 20
69.462885
 30
0.0
 11
-77.41524
 21
69.005743
 31
0.0
  0
LINE
  5
15B
100
AcDbEntity
  8
2
370
    50
100
AcDbLine
 10
-67.872974
 20
69.518028
 30
0.0
 11
-67.872974
 21
67.862885
 31
0.0
  0
LINE
  5
15C
100
AcDbEntity
  8
2
370
    50
100
AcDbLine
 10
-49.572529
 20
67.862885
 30
0.0
 11
-68.872529
 21
67.862885
 31
0.0
  0
LINE
  5
15D
100
AcDbEntity
  8
2
370
    50
100
AcDbLine
 10
-56.340575
 20
80.207743
 30
0.0
 11
-67.872974
 21
80.207743
 31
0.0
  0
LINE
  5
15E
100
AcDbEntity
  8
2
370
    50
100
AcDbLine
 10
-50.572084
 20
69.518028
 30
0.0
 11
-67.872974
 21
69.518028
 31
0.0
  0
LINE
  5
15F
100
AcDbEntity
  8
2
370
    50
100
AcDbLine
 10
-56.340575
 20
83.518028
 30
0.0
 11
-67.872974
 21
83.518028
 31
0.0
  0
LINE
  5
160
100
AcDbEntity
  8
2
370
    50
100
AcDbLine
 10
-67.872974
 20
94.207743
 30
0.0
 11
-67.872974
 21
95.862885
 31
0.0
  0
LINE
  5
161
100
AcDbEntity
  8
2
370
    50
100
AcDbLine
 10
-49.572529
 20
95.862885
 30
0.0
 11
-68.872529
 21
95.862885
 31
0.0
  0
LINE
  5
162
100
AcDbEntity
  8
2
370
    50
100
AcDbLine
 10
-50.572084
 20
94.207743
 30
0.0
 11
-67.872974
 21
94.207743
 31
0.0
  0
LINE
  5
163
100
AcDbEntity
  8
2
370
    50
100
AcDbLine
 10
-77.872383
 20
94.262885
 30
0.0
 11
-77.272383
 21
94.862885
 31
0.0
  0
LINE
  5
164
100
AcDbEntity
  8
2
370
    50
100
AcDbLine
 10
-49.572529
 20
67.862885
 30
0.0
 11
-49.572529
 21
75.096046
 31
0.0
  0
LINE
  5
165
100
AcDbEntity
  8
2
370
    50
100
AcDbLine
 10
-49.572529
 20
88.629725
 30
0.0
 11
-49.572529
 21
95.862885
 31
0.0
  0
LINE
  5
166
100
AcDbEntity
  8
2
370
    50
100
AcDbLine
 10
-67.872974
 20
83.518028
 30
0.0
 11
-67.872974
 21
80.207743
 31
0.0
  0
ARC
  5
167
100
AcDbEntity
  8
2
370
    50
100
AcDbCircle
 10
-54.082647
 20
88.862885
 30
0.0
 40
14.789882
100
AcDbArc
 50
158.814656
 51
201.185344
  0
ARC
  5
168
100
AcDbEntity
  8
2
370
    50
100
AcDbCircle
 10
-54.082647
 20
74.862885
 30
0.0
 40
14.789882
100
AcDbArc
 50
158.814656
 51
201.185344
  0
LINE
  5
169
100
AcDbEntity
  8
2
370
    50
100
AcDbLine
 10
-50.572084
 20
69.518028
 30
0.0
 11
-50.572084
 21
67.862885
 31
0.0
  0
LINE
  5
16A
100
AcDbEntity
  8
2
370
    50
100
AcDbLine
 10
-50.572084
 20
94.207743
 30
0.0
 11
-50.572084
 21
95.862885
 31
0.0
  0
ARC
  5
16B
100
AcDbEntity
  8
2
370
    50
100
AcDbCircle
 10
-64.362411
 20
88.862885
 30
0.0
 40
14.789882
100
AcDbArc
 50
0.0
 51
21.185344
  0
ARC
  5
16C
100
AcDbEntity
  8
2
370
    50
100
AcDbCircle
 10
-64.362411
 20
74.862885
 30
0.0
 40
14.789882
100
AcDbArc
 50
338.814656
 51
359.333719
  0
LINE
  5
16D
100
AcDbEntity
  8
2
370
    25
100
AcDbLine
 10
-46.073088
 20
-36.64711
 30
0.0
 11
-46.073088
 21
-10.64711
 31
0.0
  0
TEXT
  5
16E
100
AcDbEntity
  8
3
370
    50
100
AcDbText
 10
145.416291
 20
-120.006746
 30
0.0
 40
3.0
  1
１　１
 72
     5
 11
153.816291
 21
-120.006746
 31
0.0
100
AcDbText
  0
DIMENSION
  5
16F
100
AcDbEntity
  8
3
370
    25
100
AcDbDimension
  2
*D0
 10
49.895134
 20
58.862885
 30
0.0
 11
44.145134
 21
80.112885
 31
0.0
 70
     1
 71
     0
 72
     0
 41
0.0
 42
0.0
  3
Standard
100
AcDbAlignedDimension
 13
19.426617
 23
104.862885
 33
0.0
 14
19.426617
 24
58.862885
 34
0.0
 50
90.0
  0
TEXT
  5
170
100
AcDbEntity
  8
3
370
    50
100
AcDbText
 10
34.270218
 20
-1.611401
 30
0.0
 40
3.5
  1
ＰＪ１／２給水栓ネジ
 72
     5
 11
68.570218
 21
-1.611401
 31
0.0
100
AcDbText
  0
LWPOLYLINE
  5
171
100
AcDbEntity
  8
3
370
    25
100
AcDbPolyline
 90
        3
 70
     0
 10
25.570358
 20
-12.933655
 10
34.834412
 20
-2.092583
 10
68.736801
 20
-2.092583
  0
LINE
  5
176
100
AcDbEntity
  8
3
370
    25
100
AcDbLine
 10
26.82538
 20
-11.464991
 30
0.0
 11
26.431852
 21
-11.128709
 31
0.0
  0
LINE
  5
177
100
AcDbEntity
  8
3
370
    25
100
AcDbLine
 10
26.431852
 20
-11.128709
 30
0.0
 11
25.570358
 21
-12.933655
 31
0.0
  0
LINE
  5
178
100
AcDbEntity
  8
3
370
    25
100
AcDbLine
 10
25.570358
 20
-12.933655
 30
0.0
 11
27.218907
 21
-11.801273
 31
0.0
  0
LINE
  5
179
100
AcDbEntity
  8
3
370
    25
100
AcDbLine
 10
27.218907
 20
-11.801273
 30
0.0
 11
26.82538
 21
-11.464991
 31
0.0
  0
DIMENSION
  5
17A
100
AcDbEntity
  8
3
370
    25
100
AcDbDimension
  2
*D1
 10
33.426912
 20
-85.240555
 30
0.0
 11
26.426912
 21
-82.990555
 31
0.0
 71
     0
 72
     0
 41
0.0
 42
0.0
  3
Standard
100
AcDbAlignedDimension
 13
19.426912
 23
-46.44711
 33
0.0
 14
33.426912
 24
-32.92461
 34
0.0
100
AcDbRotatedDimension
  0
DIMENSION
  5
17B
100
AcDbEntity
  8
3
370
    25
100
AcDbDimension
  2
*D2
 10
19.426912
 20
-85.222137
 30
0.0
 11
-3.073088
 21
-82.972137
 31
0.0
 71
     0
 72
     0
 41
0.0
 42
0.0
  3
Standard
100
AcDbAlignedDimension
 13
-25.573088
 23
-46.834345
 33
0.0
 14
19.426912
 24
-46.44711
 34
0.0
100
AcDbRotatedDimension
  0
DIMENSION
  5
17C
100
AcDbEntity
  8
3
370
    25
100
AcDbDimension
  2
*D3
 10
-160.501328
 20
-23.64711
 30
0.0
 11
-168.001328
 21
-48.38703
 31
0.0
 71
     0
 72
     0
 41
0.0
 42
0.0
  3
Standard
100
AcDbAlignedDimension
 13
-125.857888
 23
-66.12695
 33
0.0
 14
-95.713583
 24
-23.64711
 34
0.0
 50
90.0
100
AcDbRotatedDimension
  0
DIMENSION
  5
17D
100
AcDbEntity
  8
3
370
    25
100
AcDbDimension
  2
*D4
 10
-160.501328
 20
34.35189
 30
0.0
 11
-164.501328
 21
5.35239
 31
0.0
 71
     0
 72
     0
 41
0.0
 42
0.0
  3
Standard
100
AcDbAlignedDimension
 13
-95.713583
 23
-23.64711
 33
0.0
 14
-32.573088
 24
34.35189
 34
0.0
 50
90.0
100
AcDbRotatedDimension
  0
TEXT
  5
17E
100
AcDbEntity
  8
3
370
    50
100
AcDbText
 10
33.695782
 20
-118.251862
 30
0.0
 40
3.5
  1
Ｋ１３－１０ＳＮ
 72
     5
 11
60.995782
 21
-118.251862
 31
0.0
100
AcDbText
  0
TEXT
  5
17F
100
AcDbEntity
  8
3
370
    50
100
AcDbText
 10
115.208656
 20
-136.258743
 30
0.0
 40
3.5
  1
外観寸法図
 72
     5
 11
132.008656
 21
-136.258743
 31
0.0
100
AcDbText
  0
TEXT
  5
180
100
AcDbEntity
  8
3
370
    50
100
AcDbText
 10
-84.465488
 20
-84.740555
 30
0.0
 40
3.5
  1
１０１
 72
     5
 11
-74.665488
 21
-84.740555
 31
0.0
100
AcDbText
  0
DIMENSION
  5
181
100
AcDbEntity
  8
3
370
    25
100
AcDbDimension
  2
*D5
 10
-25.573088
 20
-85.240555
 30
0.0
 11
-75.715488
 21
-83.240555
 31
0.0
 71
     0
 72
     0
 41
0.0
 42
0.0
  3
Standard
100
AcDbAlignedDimension
 13
-125.857888
 23
-66.12695
 33
0.0
 14
-25.573088
 24
-46.834345
 34
0.0
100
AcDbRotatedDimension
  0
TEXT
  5
182
100
AcDbEntity
  8
3
370
    50
100
AcDbText
 10
172.549065
 20
-128.050147
 30
0.0
 40
3.0
  1
０５　　６　２９
 72
     5
 11
195.949065
 21
-128.050147
 31
0.0
100
AcDbText
  0
DIMENSION
  5
183
100
AcDbEntity
  8
3
370
    25
100
AcDbDimension
  2
*D6
 10
-125.857888
 20
-66.128314
 30
0.0
 11
-116.024186
 21
-78.999814
 31
0.0
 70
     2
 71
     0
 72
     0
 41
0.0
 42
0.0
  3
Standard
100
AcDb2LineAngularDimension
 13
-126.579762
 23
-70.220901
 33
0.0
 14
-125.857888
 24
-66.12695
 34
0.0
 15
-125.857888
 25
-66.12695
 35
0.0
 16
-127.046773
 26
-79.715976
 36
0.0
1001
ACAD
1000
DSTYLE
1002
{
1070
   275
1070
     0
1070
   179
1070
     0
1002
}
  0
TEXT
  5
184
100
AcDbEntity
  8
3
370
    50
100
AcDbText
 10
168.035138
 20
-135.940469
 30
0.0
 40
3.2
  1
５０１０４０
 72
     5
 11
186.595138
 21
-135.940469
 31
0.0
100
AcDbText
  0
TEXT
  5
185
100
AcDbEntity
  8
3
370
    50
100
AcDbText
 10
-86.733894
 20
7.675031
 30
0.0
 40
3.5
  1
逆止弁内蔵
 72
     5
 11
-69.933894
 21
7.675031
 31
0.0
100
AcDbText
  0
LWPOLYLINE
  5
186
100
AcDbEntity
  8
3
370
    25
100
AcDbPolyline
 90
        2
 70
     0
 10
-60.762413
 20
-10.27779
 10
-68.78302
 20
7.293025
  0
TEXT
  5
18A
100
AcDbEntity
  8
3
370
    50
100
AcDbText
 10
-51.465488
 20
-97.77681
 30
0.0
 40
3.5
  1
１６０
 72
     5
 11
-41.665488
 21
-97.77681
 31
0.0
100
AcDbText
  0
DIMENSION
  5
18B
100
AcDbEntity
  8
3
370
    25
100
AcDbDimension
  2
*D7
 10
33.426912
 20
-98.27681
 30
0.0
 11
-46.215488
 21
-96.27681
 31
0.0
 71
     0
 72
     0
 41
0.0
 42
0.0
  3
Standard
100
AcDbAlignedDimension
 13
-125.857888
 23
-66.12695
 33
0.0
 14
33.426912
 24
-32.92461
 34
0.0
100
AcDbRotatedDimension
  0
TEXT
  5
18C
100
AcDbEntity
  8
3
370
    50
100
AcDbText
 10
33.547638
 20
-113.658669
 30
0.0
 40
3.5
  1
横水栓１３（吐水口回転・ホース接続・逆止）
 41
0.8
 72
     5
 11
91.787638
 21
-113.658669
 31
0.0
100
AcDbText
  0
ENDSEC
  0
SECTION
  2
OBJECTS
  0
DICTIONARY
  5
1EB
100
AcDbDictionary
280
     0
281
     1
  3
ACAD_GROUP
350
1EC
  3
ACAD_MLINESTYLE
350
1ED
  0
DICTIONARY
  5
1EC
102
{ACAD_REACTORS
330
1EB
102
}
100
AcDbDictionary
280
     0
281
     1
  0
DICTIONARY
  5
1ED
102
{ACAD_REACTORS
330
1EB
102
}
100
AcDbDictionary
280
     0
281
     1
  3
Standard
350
1EE
  0
MLINESTYLE
  5
1EE
102
{ACAD_REACTORS
330
1ED
102
}
100
AcDbMlineStyle
  2
Standard
 70
     0
  3

 62
     0
 51
90.0
 52
90.0
 71
     2
 49
0.5
 62
   256
  6
ByLayer
 49
-0.5
 62
   256
  6
ByLayer
  0
ENDSEC
  0
EOF
