  0
SECTION
  2
HEADER
  9
$ACADVER
  1
AC1015
  9
$ACADMAINTVER
 70
     6
  9
$DWGCODEPAGE
  3
ANSI_932
  9
$INSBASE
 10
0.0
 20
0.0
 30
0.0
  9
$EXTMIN
 10
-1189.0
 20
-841.0
 30
1.000000E+20
  9
$EXTMAX
 10
1189.0
 20
841.0
 30
-1.000000E+20
  9
$LIMMIN
 10
-1189.0
 20
-841.0
  9
$LIMMAX
 10
1189.0
 20
841.0
  9
$ORTHOMODE
 70
     0
  9
$REGENMODE
 70
     1
  9
$FILLMODE
 70
     1
  9
$QTEXTMODE
 70
     0
  9
$MIRRTEXT
 70
     1
  9
$LTSCALE
 40
1.0
  9
$ATTMODE
 70
     1
  9
$TEXTSIZE
 40
0.2
  9
$TRACEWID
 40
0.05
  9
$TEXTSTYLE
  7
STANDARD
  9
$CLAYER
  8
0
  9
$CELTYPE
  6
CONTINUOUS
  9
$CECOLOR
 62
   256
  9
$CELTSCALE
 40
1.0
  9
$DISPSILH
 70
     0
  9
$DIMSCALE
 40
2.0
  9
$DIMASZ
 40
2.0
  9
$DIMEXO
 40
1.0
  9
$DIMDLI
 40
0.38
  9
$DIMRND
 40
0.0
  9
$DIMDLE
 40
0.0
  9
$DIMEXE
 40
2.0
  9
$DIMTP
 40
0.0
  9
$DIMTM
 40
0.0
  9
$DIMTXT
 40
3.5
  9
$DIMCEN
 40
0.09
  9
$DIMTSZ
 40
0.0
  9
$DIMTOL
 70
     0
  9
$DIMLIM
 70
     0
  9
$DIMTIH
 70
     0
  9
$DIMTOH
 70
     0
  9
$DIMSE1
 70
     0
  9
$DIMSE2
 70
     0
  9
$DIMTAD
 70
     1
  9
$DIMZIN
 70
     0
  9
$DIMBLK
  1

  9
$DIMASO
 70
     1
  9
$DIMSHO
 70
     1
  9
$DIMPOST
  1

  9
$DIMAPOST
  1

  9
$DIMALT
 70
     0
  9
$DIMALTD
 70
     2
  9
$DIMALTF
 40
25.4
  9
$DIMLFAC
 40
1.0
  9
$DIMTOFL
 70
     0
  9
$DIMTVP
 40
0.0
  9
$DIMTIX
 70
     0
  9
$DIMSOXD
 70
     0
  9
$DIMSAH
 70
     0
  9
$DIMBLK1
  1

  9
$DIMBLK2
  1

  9
$DIMSTYLE
  2
Standard
  9
$DIMCLRD
 70
     0
  9
$DIMCLRE
 70
     0
  9
$DIMCLRT
 70
     0
  9
$DIMTFAC
 40
1.0
  9
$DIMGAP
 40
0.5
  9
$DIMJUST
 70
     0
  9
$DIMSD1
 70
     0
  9
$DIMSD2
 70
     0
  9
$DIMTOLJ
 70
     1
  9
$DIMTZIN
 70
     0
  9
$DIMALTZ
 70
     0
  9
$DIMALTTZ
 70
     0
  9
$DIMUPT
 70
     0
  9
$DIMDEC
 70
     3
  9
$DIMTDEC
 70
     4
  9
$DIMALTU
 70
     2
  9
$DIMALTTD
 70
     2
  9
$DIMTXSTY
  7
STANDARD
  9
$DIMAUNIT
 70
     0
  9
$DIMADEC
 70
     2
  9
$DIMALTRND
 40
0.0
  9
$DIMAZIN
 70
     0
  9
$DIMDSEP
 70
     0
  9
$DIMATFIT
 70
     3
  9
$DIMFRAC
 70
     0
  9
$DIMLDRBLK
  1

  9
$DIMLUNIT
 70
     2
  9
$DIMLWD
 70
     0
  9
$DIMLWE
 70
     0
  9
$DIMTMOVE
 70
     0
  9
$LUNITS
 70
     2
  9
$LUPREC
 70
     4
  9
$SKETCHINC
 40
0.1
  9
$FILLETRAD
 40
0.0
  9
$AUNITS
 70
     0
  9
$AUPREC
 70
     0
  9
$MENU
  1
acad
  9
$ELEVATION
 40
0.0
  9
$PELEVATION
 40
0.0
  9
$THICKNESS
 40
0.0
  9
$LIMCHECK
 70
     0
  9
$CHAMFERA
 40
0.0
  9
$CHAMFERB
 40
0.0
  9
$CHAMFERC
 40
0.0
  9
$CHAMFERD
 40
0.0
  9
$SKPOLY
 70
     0
  9
$TDCREATE
 40
2459501.000000000
  9
$TDUCREATE
 40
0.000000000
  9
$TDUPDATE
 40
0.000000000
  9
$TDUUPDATE
 40
2447892.625000000
  9
$TDINDWG
 40
0.0000000000
  9
$TDUSRTIMER
 40
0.0000000000
  9
$USRTIMER
 70
     1
  9
$ANGBASE
 50
0.0
  9
$ANGDIR
 70
     0
  9
$PDMODE
 70
     0
  9
$PDSIZE
 40
0.0
  9
$PLINEWID
 40
0.0
  9
$SPLFRAME
 70
     0
  9
$SPLINETYPE
 70
     6
  9
$SPLINESEGS
 70
     8
  9
$HANDSEED
  5
3B2
  9
$SURFTAB1
 70
     6
  9
$SURFTAB2
 70
     6
  9
$SURFTYPE
 70
     6
  9
$SURFU
 70
     6
  9
$SURFV
 70
     6
  9
$UCSBASE
  2

  9
$UCSNAME
  2

  9
$UCSORG
 10
0.0
 20
0.0
 30
0.0
  9
$UCSXDIR
 10
1.0
 20
0.0
 30
0.0
  9
$UCSYDIR
 10
0.0
 20
1.0
 30
0.0
  9
$UCSORTHOREF
  2

  9
$UCSORTHOVIEW
 70
     0
  9
$UCSORGTOP
 10
0.0
 20
0.0
 30
0.0
  9
$UCSORGBOTTOM
 10
0.0
 20
0.0
 30
0.0
  9
$UCSORGLEFT
 10
0.0
 20
0.0
 30
0.0
  9
$UCSORGRIGHT
 10
0.0
 20
0.0
 30
0.0
  9
$UCSORGFRONT
 10
0.0
 20
0.0
 30
0.0
  9
$UCSORGBACK
 10
0.0
 20
0.0
 30
0.0
  9
$PUCSBASE
  2

  9
$PUCSNAME
  2

  9
$PUCSORG
 10
0.0
 20
0.0
 30
0.0
  9
$PUCSXDIR
 10
1.0
 20
0.0
 30
0.0
  9
$PUCSYDIR
 10
0.0
 20
1.0
 30
0.0
  9
$PUCSORTHOREF
  2

  9
$PUCSORTHOVIEW
 70
     0
  9
$PUCSORGTOP
 10
0.0
 20
0.0
 30
0.0
  9
$PUCSORGBOTTOM
 10
0.0
 20
0.0
 30
0.0
  9
$PUCSORGLEFT
 10
0.0
 20
0.0
 30
0.0
  9
$PUCSORGRIGHT
 10
0.0
 20
0.0
 30
0.0
  9
$PUCSORGFRONT
 10
0.0
 20
0.0
 30
0.0
  9
$PUCSORGBACK
 10
0.0
 20
0.0
 30
0.0
  9
$USERI1
 70
     0
  9
$USERI2
 70
     0
  9
$USERI3
 70
     0
  9
$USERI4
 70
     0
  9
$USERI5
 70
     0
  9
$USERR1
 40
0.0
  9
$USERR2
 40
0.0
  9
$USERR3
 40
0.0
  9
$USERR4
 40
0.0
  9
$USERR5
 40
0.0
  9
$WORLDVIEW
 70
     1
  9
$SHADEDGE
 70
     3
  9
$SHADEDIF
 70
    70
  9
$TILEMODE
 70
     1
  9
$MAXACTVP
 70
    16
  9
$PINSBASE
 10
0.0
 20
0.0
 30
0.0
  9
$PLIMCHECK
 70
     0
  9
$PEXTMIN
 10
1.000000E+20
 20
1.000000E+20
 30
1.000000E+20
  9
$PEXTMAX
 10
-1.000000E+20
 20
-1.000000E+20
 30
-1.000000E+20
  9
$PLIMMIN
 10
0.0
 20
0.0
  9
$PLIMMAX
 10
12.0
 20
9.0
  9
$UNITMODE
 70
     0
  9
$VISRETAIN
 70
     0
  9
$PLINEGEN
 70
     1
  9
$PSLTSCALE
 70
     0
  9
$TREEDEPTH
 70
  3020
  9
$CMLSTYLE
  2
Standard
  9
$CMLJUST
 70
     0
  9
$CMLSCALE
 40
1.0
  9
$PROXYGRAPHICS
 70
     0
  9
$MEASUREMENT
 70
     0
  9
$CELWEIGHT
370
     0
  9
$ENDCAPS
280
     0
  9
$JOINSTYLE
280
     0
  9
$LWDISPLAY
290
     0
  9
$INSUNITS
 70
     0
  9
$HYPERLINKBASE
  1

  9
$STYLESHEET
  1

  9
$XEDIT
290
     1
  9
$CEPSNTYPE
380
     0
  9
$PSTYLEMODE
290
     1
  9
$FINGERPRINTGUID
  2

  9
$VERSIONGUID
  2

  9
$EXTNAMES
290
     1
  9
$PSVPSCALE
 40
0.0
  0
ENDSEC
  0
SECTION
  2
CLASSES
  0
CLASS
  1
LWPOLYLINE
  2
AcDbPolyline
  3
AutoCAD 2000
 90
        0
280
     0
281
     1
  0
CLASS
  1
IMAGE
  2
AcDbRasterImage
  3
ISM
 90
      127
280
     0
281
     1
  0
CLASS
  1
OLE2FRAME
  2
AcDbOle2Frame
  3
AutoCAD 2000
 90
        0
280
     0
281
     1
  0
CLASS
  1
HATCH
  2
AcDbHatch
  3
AutoCAD 2000
 90
        0
280
     0
281
     1
  0
CLASS
  1
DICTIONARYVAR
  2
AcDbDictionaryVar
  3
AutoCAD 2000
 90
        0
280
     0
281
     0
  0
CLASS
  1
RASTERVARIABLES
  2
AcDbRasterVariables
  3
ISM
 90
        0
280
     0
281
     0
  0
CLASS
  1
IMAGEDEF
  2
AcDbRasterImageDef
  3
ISM
 90
        0
280
     0
281
     0
  0
CLASS
  1
IMAGEDEF_REACTOR
  2
AcDbRasterImageDefReactor
  3
ISM
 90
        1
280
     0
281
     0
  0
CLASS
  1
IDBUFFER
  2
AcDbIdBuffer
  3
AutoCAD 2000
 90
        0
280
     0
281
     0
  0
CLASS
  1
SPATIAL_FILTER
  2
AcDbSpatialFilter
  3
AutoCAD 2000
 90
        0
280
     0
281
     0
  0
CLASS
  1
XRECORD
  2
AcDbXrecord
  3
AutoCAD 2000
 90
        0
280
     0
281
     0
  0
CLASS
  1
SORTENTSTABLE
  2
AcDbSortentsTable
  3
AutoCAD 2000
 90
        0
280
     0
281
     0
  0
CLASS
  1
LAYER_INDEX
  2
AcDbLayerIndex
  3
AutoCAD 2000
 90
        0
280
     0
281
     0
  0
CLASS
  1
SPATIAL_INDEX
  2
AcDbSpatialIndex
  3
AutoCAD 2000
 90
        0
280
     0
281
     0
  0
CLASS
  1
OBJECT_PTR
  2
CAseDLPNTableRecord
  3
"ASE-LPNTableRecord"
 90
        1
280
     0
281
     0
  0
CLASS
  1
LAYOUT
  2
AcDbLayout
  3
AutoCAD 2000
 90
        0
280
     0
281
     0
  0
CLASS
  1
PLOTSETTINGS
  2
AcDbPlotSettings
  3
AutoCAD 2000
 90
        0
280
     0
281
     0
  0
CLASS
  1
ACDBDICTIONARYWDFLT
  2
AcDbDictionaryWithDefault
  3
AutoCAD 2000
 90
        0
280
     0
281
     0
  0
CLASS
  1
ACDBPLACEHOLDER
  2
AcDbPlaceHolder
  3
AutoCAD 2000
 90
        0
280
     0
281
     0
  0
CLASS
  1
VBA_PROJECT
  2
AcDbVbaProject
  3
acadvba
 90
        0
280
     0
281
     0
  0
CLASS
  1
WIPEOUT
  2
AcDbWipeout
  3
WipeOut|AutoCAD Express Tool|expresstools@autodesk.com
 90
      127
280
     0
281
     1
  0
CLASS
  1
WIPEOUTVARIABLES
  2
AcDbWipeoutVariables
  3
WipeOut|AutoCAD Express Tool|expresstools@autodesk.com
 90
        0
280
     0
281
     0
  0
CLASS
  1
RTEXT
  2
RText
  3
RText|AutoCAD Express Tool|expresstools@autodesk.com
 90
        0
280
     0
281
     1
  0
CLASS
  1
ARCALIGNEDTEXT
  2
AcDbArcAlignedText
  3
ATEXT|AutoCAD Express Tool|expresstools@autodesk.com
 90
        0
280
     0
281
     1
  0
ENDSEC
  0
SECTION
  2
TABLES
  0
TABLE
  2
VPORT
  5
6
100
AcDbSymbolTable
 70
     1
  0
VPORT
  5
19
100
AcDbSymbolTableRecord
100
AcDbViewportTableRecord
  2
*ACTIVE
 70
     0
 10
0.0
 20
0.0
 11
1.0
 21
1.0
 12
0.0
 22
0.0
 13
0.0
 23
0.0
 14
1.0
 24
1.0
 15
0.0
 25
0.0
 16
0.0
 26
0.0
 36
1.0
 17
0.0
 27
0.0
 37
0.0
 40
1682.0
 41
1.413793
 42
50.0
 43
0.0
 44
0.0
 50
0.0
 51
0.0
 71
     0
 72
   500
 73
     1
 74
     1
 75
     0
 76
     0
 77
     0
 78
     0
281
     0
 65
     0
110
0.0
120
0.0
130
0.0
111
1.0
121
0.0
131
0.0
112
0.0
122
1.0
132
0.0
345
0
346
0
 79
     0
146
0.0
  0
ENDTAB
  0
TABLE
  2
LTYPE
  5
3
100
AcDbSymbolTable
 70
     9
  0
LTYPE
  5
C
100
AcDbSymbolTableRecord
100
AcDbLinetypeTableRecord
  2
ByBlock
 70
    64
  3

 72
    65
 73
     0
 40
0.0
  0
LTYPE
  5
D
100
AcDbSymbolTableRecord
100
AcDbLinetypeTableRecord
  2
ByLayer
 70
    64
  3

 72
    65
 73
     0
 40
0.0
  0
LTYPE
  5
E
100
AcDbSymbolTableRecord
100
AcDbLinetypeTableRecord
  2
CONTINUOUS
 70
     0
  3
Solid line
 72
    65
 73
     0
 40
0.0
  0
LTYPE
  5
F
100
AcDbSymbolTableRecord
100
AcDbLinetypeTableRecord
  2
DASHED
 70
     0
  3
__ __ __ __ __ __ __ __ __ __ __ __ __ __ __
 72
    65
 73
     2
 40
2.0
 49
1.2
 74
     0
 49
-0.8
 74
     0
  0
LTYPE
  5
10
100
AcDbSymbolTableRecord
100
AcDbLinetypeTableRecord
  2
CENTER
 70
     0
  3
____ _ ____ _ ____ _ ____ _ ____ _ ____ _ ____
 72
    65
 73
     4
 40
12.0
 49
9.0
 74
     0
 49
-1.0
 74
     0
 49
1.0
 74
     0
 49
-1.0
 74
     0
  0
LTYPE
  5
11
100
AcDbSymbolTableRecord
100
AcDbLinetypeTableRecord
  2
HIDDEN
 70
     0
  3
_ _ _ _ _ _ _ _ _ _ _ _ _ _ _ _ _ _ _ _ _ _ _
 72
    65
 73
     2
 40
3.2
 49
2.4
 74
     0
 49
-0.8
 74
     0
  0
LTYPE
  5
12
100
AcDbSymbolTableRecord
100
AcDbLinetypeTableRecord
  2
PHANTOM
 70
     0
  3
_____ _ _ _____ _ _ _____ _ _ _____ _ _ _____
 72
    65
 73
     6
 40
13.5
 49
9.0
 74
     0
 49
-1.0
 74
     0
 49
1.0
 74
     0
 49
-0.5
 74
     0
 49
1.0
 74
     0
 49
-1.0
 74
     0
  0
LTYPE
  5
13
100
AcDbSymbolTableRecord
100
AcDbLinetypeTableRecord
  2
DOT
 70
     0
  3
...............................................
 72
    65
 73
     2
 40
1.0
 49
0.5
 74
     0
 49
-0.5
 74
     0
  0
LTYPE
  5
14
100
AcDbSymbolTableRecord
100
AcDbLinetypeTableRecord
  2
DASHDOT
 70
     0
  3
__ . __ . __ . __ . __ . __ . __ . __ . __ . __
 72
    65
 73
     4
 40
8.0
 49
5.0
 74
     0
 49
-1.0
 74
     0
 49
1.0
 74
     0
 49
-1.0
 74
     0
  0
ENDTAB
  0
TABLE
  2
LAYER
  5
1
100
AcDbSymbolTable
 70
     4
  0
LAYER
  5
15
100
AcDbSymbolTableRecord
100
AcDbLayerTableRecord
  2
0
 70
     0
 62
   225
  6
CONTINUOUS
290
     1
370
    -3
390
0
  0
LAYER
  5
16
100
AcDbSymbolTableRecord
100
AcDbLayerTableRecord
  2
1
 70
     0
 62
     2
  6
CONTINUOUS
290
     1
370
    -3
390
0
  0
LAYER
  5
17
100
AcDbSymbolTableRecord
100
AcDbLayerTableRecord
  2
2
 70
     0
 62
     3
  6
CONTINUOUS
290
     1
370
    -3
390
0
  0
LAYER
  5
18
100
AcDbSymbolTableRecord
100
AcDbLayerTableRecord
  2
3
 70
     0
 62
     4
  6
CONTINUOUS
290
     1
370
    -3
390
0
  0
ENDTAB
  0
TABLE
  2
STYLE
  5
2
100
AcDbSymbolTable
 70
     1
  0
STYLE
  5
1B
100
AcDbSymbolTableRecord
100
AcDbTextStyleTableRecord
  2
STANDARD
 70
    64
 40
0.0
 41
1.0
 50
0.0
 71
     0
 42
1.0
  3
txt
  4
BIGFONT
  0
ENDTAB
  0
TABLE
  2
VIEW
  5
4
100
AcDbSymbolTable
 70
     0
  0
ENDTAB
  0
TABLE
  2
UCS
  5
5
100
AcDbSymbolTable
 70
     0
  0
ENDTAB
  0
TABLE
  2
APPID
  5
7
100
AcDbSymbolTable
 70
     1
  0
APPID
  5
1A
100
AcDbSymbolTableRecord
100
AcDbRegAppTableRecord
  2
ACAD
 70
     0
  0
ENDTAB
  0
TABLE
  2
DIMSTYLE
  5
8
100
AcDbSymbolTable
 70
     1
100
AcDbDimStyleTable
 71
     0
  0
DIMSTYLE
105
33
100
AcDbSymbolTableRecord
100
AcDbDimStyleTableRecord
  2
Standard
 70
     0
  3

  4

 40
2.0
 41
2.0
 42
1.0
 43
0.38
 44
2.0
 45
0.0
 46
0.0
 47
0.0
 48
0.0
 71
     0
 72
     0
 73
     0
 74
     0
 75
     0
 76
     0
 77
     1
 78
     0
 79
     0
140
3.5
141
0.09
142
0.0
143
25.4
144
1.0
145
0.0
146
1.0
147
0.5
148
0.0
170
     0
171
     2
172
     0
173
     0
174
     0
175
     0
176
     0
177
     0
178
     0
179
     0
271
     3
272
     4
273
     2
274
     2
275
     0
276
     0
277
     2
278
    46
279
     0
280
     0
281
     0
282
     0
283
     1
284
     0
285
     0
286
     0
288
     0
289
     3
340
1B
341
0
342
0
343
0
344
0
371
    -2
372
    -2
  0
ENDTAB
  0
TABLE
  2
BLOCK_RECORD
  5
2E
100
AcDbSymbolTable
 70
    16
  0
BLOCK_RECORD
  5
2C
100
AcDbSymbolTableRecord
100
AcDbBlockTableRecord
  2
*Model_Space
340
0
  0
BLOCK_RECORD
  5
2D
100
AcDbSymbolTableRecord
100
AcDbBlockTableRecord
  2
*Paper_Space
340
0
  0
BLOCK_RECORD
  5
1C
100
AcDbSymbolTableRecord
100
AcDbBlockTableRecord
  2
*D0
340
0
  0
BLOCK_RECORD
  5
1D
100
AcDbSymbolTableRecord
100
AcDbBlockTableRecord
  2
*D1
340
0
  0
BLOCK_RECORD
  5
1E
100
AcDbSymbolTableRecord
100
AcDbBlockTableRecord
  2
*D2
340
0
  0
BLOCK_RECORD
  5
1F
100
AcDbSymbolTableRecord
100
AcDbBlockTableRecord
  2
*D3
340
0
  0
BLOCK_RECORD
  5
20
100
AcDbSymbolTableRecord
100
AcDbBlockTableRecord
  2
*D4
340
0
  0
BLOCK_RECORD
  5
21
100
AcDbSymbolTableRecord
100
AcDbBlockTableRecord
  2
*D5
340
0
  0
BLOCK_RECORD
  5
22
100
AcDbSymbolTableRecord
100
AcDbBlockTableRecord
  2
*D6
340
0
  0
BLOCK_RECORD
  5
23
100
AcDbSymbolTableRecord
100
AcDbBlockTableRecord
  2
*D7
340
0
  0
BLOCK_RECORD
  5
24
100
AcDbSymbolTableRecord
100
AcDbBlockTableRecord
  2
*D8
340
0
  0
BLOCK_RECORD
  5
25
100
AcDbSymbolTableRecord
100
AcDbBlockTableRecord
  2
*D9
340
0
  0
BLOCK_RECORD
  5
26
100
AcDbSymbolTableRecord
100
AcDbBlockTableRecord
  2
*D10
340
0
  0
BLOCK_RECORD
  5
27
100
AcDbSymbolTableRecord
100
AcDbBlockTableRecord
  2
*D11
340
0
  0
BLOCK_RECORD
  5
28
100
AcDbSymbolTableRecord
100
AcDbBlockTableRecord
  2
*D12
340
0
  0
BLOCK_RECORD
  5
29
100
AcDbSymbolTableRecord
100
AcDbBlockTableRecord
  2
*D13
340
0
  0
BLOCK_RECORD
  5
2A
100
AcDbSymbolTableRecord
100
AcDbBlockTableRecord
  2
*D14
340
0
  0
BLOCK_RECORD
  5
2B
100
AcDbSymbolTableRecord
100
AcDbBlockTableRecord
  2
*D15
340
0
  0
ENDTAB
  0
ENDSEC
  0
SECTION
  2
BLOCKS
  0
BLOCK
  5
2F
100
AcDbEntity
  8
0
390
0
100
AcDbBlockBegin
  2
*Model_Space
 70
     0
 10
0.0
 20
0.0
 30
0.0
  3
*Model_Space
  1

  0
ENDBLK
  5
30
100
AcDbEntity
  8
0
390
0
100
AcDbBlockEnd
  0
BLOCK
  5
31
100
AcDbEntity
 67
     1
  8
0
390
0
100
AcDbBlockBegin
  2
*Paper_Space
 70
     0
 10
0.0
 20
0.0
 30
0.0
  3
*Paper_Space
  1

  0
ENDBLK
  5
32
100
AcDbEntity
 67
     1
  8
0
390
0
100
AcDbBlockEnd
  0
BLOCK
  5
2F2
100
AcDbEntity
  8
3
100
AcDbBlockBegin
  2
*D0
 70
     1
 10
0.0
 20
0.0
 30
0.0
  3
*D0
  1

  0
TEXT
  5
2F3
100
AcDbEntity
  8
3
370
    25
100
AcDbText
 10
-121.140495
 20
-156.544693
 30
0.0
 40
7.0
  1
75.5
 50
90.0
 41
2.0
 72
     5
 11
-121.140495
 21
-131.344693
 31
0.0
100
AcDbText
  0
LINE
  5
2F4
100
AcDbEntity
  8
3
370
    25
100
AcDbLine
 10
-196.845971
 20
-166.294419
 30
0.0
 11
-117.140495
 21
-166.294419
 31
0.0
  0
LINE
  5
2F5
100
AcDbEntity
  8
3
370
    25
100
AcDbLine
 10
-119.140495
 20
-166.294419
 30
0.0
 11
-118.105219
 21
-162.430716
 31
0.0
  0
LINE
  5
2F6
100
AcDbEntity
  8
3
370
    25
100
AcDbLine
 10
-119.140495
 20
-166.294419
 30
0.0
 11
-120.175771
 21
-162.430716
 31
0.0
  0
LINE
  5
2F7
100
AcDbEntity
  8
3
370
    25
100
AcDbLine
 10
-118.105219
 20
-162.430716
 30
0.0
 11
-120.175771
 21
-162.430716
 31
0.0
  0
LINE
  5
2F8
100
AcDbEntity
  8
3
370
    25
100
AcDbLine
 10
-119.140495
 20
-166.294419
 30
0.0
 11
-119.140495
 21
-90.794967
 31
0.0
  0
LINE
  5
2F9
100
AcDbEntity
  8
3
370
    25
100
AcDbLine
 10
-119.140495
 20
-90.794967
 30
0.0
 11
-120.175771
 21
-94.658671
 31
0.0
  0
LINE
  5
2FA
100
AcDbEntity
  8
3
370
    25
100
AcDbLine
 10
-119.140495
 20
-90.794967
 30
0.0
 11
-118.105219
 21
-94.658671
 31
0.0
  0
LINE
  5
2FB
100
AcDbEntity
  8
3
370
    25
100
AcDbLine
 10
-120.175771
 20
-94.658671
 30
0.0
 11
-118.105219
 21
-94.658671
 31
0.0
  0
LINE
  5
2FC
100
AcDbEntity
  8
3
370
    25
100
AcDbLine
 10
-142.375549
 20
-90.794967
 30
0.0
 11
-117.140495
 21
-90.794967
 31
0.0
  0
ENDBLK
  5
2FD
100
AcDbEntity
  8
3
100
AcDbBlockEnd
  0
BLOCK
  5
2FE
100
AcDbEntity
  8
3
100
AcDbBlockBegin
  2
*D1
 70
     1
 10
0.0
 20
0.0
 30
0.0
  3
*D1
  1

  0
TEXT
  5
2FF
100
AcDbEntity
  8
3
370
    25
100
AcDbText
 10
-280.845971
 20
-249.380803
 30
0.0
 40
7.0
  1
102
 41
2.0
 72
     5
 11
-262.645971
 21
-249.380803
 31
0.0
100
AcDbText
  0
LINE
  5
300
100
AcDbEntity
  8
3
370
    25
100
AcDbLine
 10
-321.345752
 20
-230.594349
 30
0.0
 11
-321.345752
 21
-252.380803
 31
0.0
  0
LINE
  5
301
100
AcDbEntity
  8
3
370
    25
100
AcDbLine
 10
-321.345752
 20
-250.380803
 30
0.0
 11
-317.482048
 21
-251.416079
 31
0.0
  0
LINE
  5
302
100
AcDbEntity
  8
3
370
    25
100
AcDbLine
 10
-321.345752
 20
-250.380803
 30
0.0
 11
-317.482048
 21
-249.345527
 31
0.0
  0
LINE
  5
303
100
AcDbEntity
  8
3
370
    25
100
AcDbLine
 10
-317.482048
 20
-251.416079
 30
0.0
 11
-317.482048
 21
-249.345527
 31
0.0
  0
LINE
  5
304
100
AcDbEntity
  8
3
370
    25
100
AcDbLine
 10
-321.345752
 20
-250.380803
 30
0.0
 11
-219.34619
 21
-250.380803
 31
0.0
  0
LINE
  5
305
100
AcDbEntity
  8
3
370
    25
100
AcDbLine
 10
-219.34619
 20
-250.380803
 30
0.0
 11
-223.209894
 21
-249.345527
 31
0.0
  0
LINE
  5
306
100
AcDbEntity
  8
3
370
    25
100
AcDbLine
 10
-219.34619
 20
-250.380803
 30
0.0
 11
-223.209894
 21
-251.416079
 31
0.0
  0
LINE
  5
307
100
AcDbEntity
  8
3
370
    25
100
AcDbLine
 10
-223.209894
 20
-249.345527
 30
0.0
 11
-223.209894
 21
-251.416079
 31
0.0
  0
LINE
  5
308
100
AcDbEntity
  8
3
370
    25
100
AcDbLine
 10
-219.34619
 20
-230.594349
 30
0.0
 11
-219.34619
 21
-252.380803
 31
0.0
  0
ENDBLK
  5
309
100
AcDbEntity
  8
3
100
AcDbBlockEnd
  0
BLOCK
  5
30A
100
AcDbEntity
  8
3
100
AcDbBlockBegin
  2
*D2
 70
     1
 10
0.0
 20
0.0
 30
0.0
  3
*D2
  1

  0
TEXT
  5
30B
100
AcDbEntity
  8
3
370
    25
100
AcDbText
 10
-280.846125
 20
39.022283
 30
0.0
 40
7.0
  1
143
 41
2.0
 72
     5
 11
-262.646125
 21
39.022283
 31
0.0
100
AcDbText
  0
LINE
  5
30C
100
AcDbEntity
  8
3
370
    25
100
AcDbLine
 10
-341.845971
 20
-66.794217
 30
0.0
 11
-341.845971
 21
40.022283
 31
0.0
  0
LINE
  5
30D
100
AcDbEntity
  8
3
370
    25
100
AcDbLine
 10
-341.845971
 20
38.022283
 30
0.0
 11
-337.982268
 21
36.987006
 31
0.0
  0
LINE
  5
30E
100
AcDbEntity
  8
3
370
    25
100
AcDbLine
 10
-341.845971
 20
38.022283
 30
0.0
 11
-337.982268
 21
39.057559
 31
0.0
  0
LINE
  5
30F
100
AcDbEntity
  8
3
370
    25
100
AcDbLine
 10
-337.982268
 20
36.987006
 30
0.0
 11
-337.982268
 21
39.057559
 31
0.0
  0
LINE
  5
310
100
AcDbEntity
  8
3
370
    25
100
AcDbLine
 10
-341.845971
 20
38.022283
 30
0.0
 11
-198.84628
 21
38.022283
 31
0.0
  0
LINE
  5
311
100
AcDbEntity
  8
3
370
    25
100
AcDbLine
 10
-198.84628
 20
38.022283
 30
0.0
 11
-202.709983
 21
39.057559
 31
0.0
  0
LINE
  5
312
100
AcDbEntity
  8
3
370
    25
100
AcDbLine
 10
-198.84628
 20
38.022283
 30
0.0
 11
-202.709983
 21
36.987006
 31
0.0
  0
LINE
  5
313
100
AcDbEntity
  8
3
370
    25
100
AcDbLine
 10
-202.709983
 20
39.057559
 30
0.0
 11
-202.709983
 21
36.987006
 31
0.0
  0
LINE
  5
314
100
AcDbEntity
  8
3
370
    25
100
AcDbLine
 10
-198.84628
 20
-66.794217
 30
0.0
 11
-198.84628
 21
40.022283
 31
0.0
  0
ENDBLK
  5
315
100
AcDbEntity
  8
3
100
AcDbBlockEnd
  0
BLOCK
  5
316
100
AcDbEntity
  8
3
100
AcDbBlockBegin
  2
*D3
 70
     1
 10
0.0
 20
0.0
 30
0.0
  3
*D3
  1

  0
TEXT
  5
317
100
AcDbEntity
  8
3
370
    25
100
AcDbText
 10
-255.54829
 20
74.828555
 30
0.0
 40
7.0
  1
201
 41
2.0
 72
     5
 11
-237.34829
 21
74.828555
 31
0.0
100
AcDbText
  0
LINE
  5
318
100
AcDbEntity
  8
3
370
    25
100
AcDbLine
 10
-345.721032
 20
-88.794419
 30
0.0
 11
-345.721032
 21
75.828555
 31
0.0
  0
LINE
  5
319
100
AcDbEntity
  8
3
370
    25
100
AcDbLine
 10
-345.721032
 20
73.828555
 30
0.0
 11
-341.857329
 21
72.793279
 31
0.0
  0
LINE
  5
31A
100
AcDbEntity
  8
3
370
    25
100
AcDbLine
 10
-345.721032
 20
73.828555
 30
0.0
 11
-341.857329
 21
74.863831
 31
0.0
  0
LINE
  5
31B
100
AcDbEntity
  8
3
370
    25
100
AcDbLine
 10
-341.857329
 20
72.793279
 30
0.0
 11
-341.857329
 21
74.863831
 31
0.0
  0
LINE
  5
31C
100
AcDbEntity
  8
3
370
    25
100
AcDbLine
 10
-345.721032
 20
73.828555
 30
0.0
 11
-144.375549
 21
73.828555
 31
0.0
  0
LINE
  5
31D
100
AcDbEntity
  8
3
370
    25
100
AcDbLine
 10
-144.375549
 20
73.828555
 30
0.0
 11
-148.239252
 21
74.863831
 31
0.0
  0
LINE
  5
31E
100
AcDbEntity
  8
3
370
    25
100
AcDbLine
 10
-144.375549
 20
73.828555
 30
0.0
 11
-148.239252
 21
72.793279
 31
0.0
  0
LINE
  5
31F
100
AcDbEntity
  8
3
370
    25
100
AcDbLine
 10
-148.239252
 20
74.863831
 30
0.0
 11
-148.239252
 21
72.793279
 31
0.0
  0
LINE
  5
320
100
AcDbEntity
  8
3
370
    25
100
AcDbLine
 10
-144.375549
 20
-88.794967
 30
0.0
 11
-144.375549
 21
75.828555
 31
0.0
  0
ENDBLK
  5
321
100
AcDbEntity
  8
3
100
AcDbBlockEnd
  0
BLOCK
  5
322
100
AcDbEntity
  8
3
100
AcDbBlockBegin
  2
*D4
 70
     1
 10
0.0
 20
0.0
 30
0.0
  3
*D4
  1

  0
TEXT
  5
323
100
AcDbEntity
  8
3
370
    25
100
AcDbText
 10
268.075011
 20
4.283473
 30
0.0
 40
7.0
  1
44
 41
2.0
 72
     5
 11
279.275011
 21
4.283473
 31
0.0
100
AcDbText
  0
LINE
  5
324
100
AcDbEntity
  8
3
370
    25
100
AcDbLine
 10
208.075011
 20
2.283473
 30
0.0
 11
204.211308
 21
3.318749
 31
0.0
  0
LINE
  5
325
100
AcDbEntity
  8
3
370
    25
100
AcDbLine
 10
208.075011
 20
2.283473
 30
0.0
 11
204.211308
 21
1.248197
 31
0.0
  0
LINE
  5
326
100
AcDbEntity
  8
3
370
    25
100
AcDbLine
 10
204.211308
 20
3.318749
 30
0.0
 11
204.211308
 21
1.248197
 31
0.0
  0
LINE
  5
327
100
AcDbEntity
  8
3
370
    25
100
AcDbLine
 10
198.075011
 20
2.283473
 30
0.0
 11
296.075011
 21
2.283473
 31
0.0
  0
LINE
  5
328
100
AcDbEntity
  8
3
370
    25
100
AcDbLine
 10
252.075011
 20
2.283473
 30
0.0
 11
255.938715
 21
1.248197
 31
0.0
  0
LINE
  5
329
100
AcDbEntity
  8
3
370
    25
100
AcDbLine
 10
252.075011
 20
2.283473
 30
0.0
 11
255.938715
 21
3.318749
 31
0.0
  0
LINE
  5
32A
100
AcDbEntity
  8
3
370
    25
100
AcDbLine
 10
255.938715
 20
1.248197
 30
0.0
 11
255.938715
 21
3.318749
 31
0.0
  0
ENDBLK
  5
32B
100
AcDbEntity
  8
3
100
AcDbBlockEnd
  0
BLOCK
  5
32C
100
AcDbEntity
  8
3
100
AcDbBlockBegin
  2
*D5
 70
     1
 10
0.0
 20
0.0
 30
0.0
  3
*D5
  1

  0
TEXT
  5
32D
100
AcDbEntity
  8
3
370
    25
100
AcDbText
 10
186.139524
 20
-147.907155
 30
0.0
 40
7.0
  1
74
 41
2.0
 72
     5
 11
197.339524
 21
-147.907155
 31
0.0
100
AcDbText
  0
LINE
  5
32E
100
AcDbEntity
  8
3
370
    25
100
AcDbLine
 10
156.204239
 20
58.206495
 30
0.0
 11
156.204239
 21
-150.907155
 31
0.0
  0
LINE
  5
32F
100
AcDbEntity
  8
3
370
    25
100
AcDbLine
 10
156.204239
 20
-148.907155
 30
0.0
 11
160.067942
 21
-149.942431
 31
0.0
  0
LINE
  5
330
100
AcDbEntity
  8
3
370
    25
100
AcDbLine
 10
156.204239
 20
-148.907155
 30
0.0
 11
160.067942
 21
-147.871879
 31
0.0
  0
LINE
  5
331
100
AcDbEntity
  8
3
370
    25
100
AcDbLine
 10
160.067942
 20
-149.942431
 30
0.0
 11
160.067942
 21
-147.871879
 31
0.0
  0
LINE
  5
332
100
AcDbEntity
  8
3
370
    25
100
AcDbLine
 10
156.204239
 20
-148.907155
 30
0.0
 11
230.07481
 21
-148.907155
 31
0.0
  0
LINE
  5
333
100
AcDbEntity
  8
3
370
    25
100
AcDbLine
 10
230.07481
 20
-148.907155
 30
0.0
 11
226.211106
 21
-147.871879
 31
0.0
  0
LINE
  5
334
100
AcDbEntity
  8
3
370
    25
100
AcDbLine
 10
230.07481
 20
-148.907155
 30
0.0
 11
226.211106
 21
-149.942431
 31
0.0
  0
LINE
  5
335
100
AcDbEntity
  8
3
370
    25
100
AcDbLine
 10
226.211106
 20
-147.871879
 30
0.0
 11
226.211106
 21
-149.942431
 31
0.0
  0
LINE
  5
336
100
AcDbEntity
  8
3
370
    25
100
AcDbLine
 10
230.07481
 20
-106.594349
 30
0.0
 11
230.07481
 21
-150.907155
 31
0.0
  0
ENDBLK
  5
337
100
AcDbEntity
  8
3
100
AcDbBlockEnd
  0
BLOCK
  5
338
100
AcDbEntity
  8
3
100
AcDbBlockBegin
  2
*D6
 70
     1
 10
0.0
 20
0.0
 30
0.0
  3
*D6
  1

  0
TEXT
  5
339
100
AcDbEntity
  8
3
370
    25
100
AcDbText
 10
113.693375
 20
-98.194768
 30
0.0
 40
7.0
  1
55.8
 50
90.0
 41
2.0
 72
     5
 11
113.693375
 21
-72.994768
 31
0.0
100
AcDbText
  0
LINE
  5
33A
100
AcDbEntity
  8
3
370
    25
100
AcDbLine
 10
228.07481
 20
-98.094768
 30
0.0
 11
113.693375
 21
-98.094768
 31
0.0
  0
LINE
  5
33B
100
AcDbEntity
  8
3
370
    25
100
AcDbLine
 10
115.693375
 20
-98.094768
 30
0.0
 11
116.728651
 21
-94.231064
 31
0.0
  0
LINE
  5
33C
100
AcDbEntity
  8
3
370
    25
100
AcDbLine
 10
115.693375
 20
-98.094768
 30
0.0
 11
114.658099
 21
-94.231064
 31
0.0
  0
LINE
  5
33D
100
AcDbEntity
  8
3
370
    25
100
AcDbLine
 10
116.728651
 20
-94.231064
 30
0.0
 11
114.658099
 21
-94.231064
 31
0.0
  0
LINE
  5
33E
100
AcDbEntity
  8
3
370
    25
100
AcDbLine
 10
115.693375
 20
-98.094768
 30
0.0
 11
115.693375
 21
-42.294768
 31
0.0
  0
LINE
  5
33F
100
AcDbEntity
  8
3
370
    25
100
AcDbLine
 10
115.693375
 20
-42.294768
 30
0.0
 11
114.658099
 21
-46.158471
 31
0.0
  0
LINE
  5
340
100
AcDbEntity
  8
3
370
    25
100
AcDbLine
 10
115.693375
 20
-42.294768
 30
0.0
 11
116.728651
 21
-46.158471
 31
0.0
  0
LINE
  5
341
100
AcDbEntity
  8
3
370
    25
100
AcDbLine
 10
114.658099
 20
-46.158471
 30
0.0
 11
116.728651
 21
-46.158471
 31
0.0
  0
LINE
  5
342
100
AcDbEntity
  8
3
370
    25
100
AcDbLine
 10
206.075011
 20
-42.294768
 30
0.0
 11
113.693375
 21
-42.294768
 31
0.0
  0
ENDBLK
  5
343
100
AcDbEntity
  8
3
100
AcDbBlockEnd
  0
BLOCK
  5
344
100
AcDbEntity
  8
3
100
AcDbBlockBegin
  2
*D7
 70
     1
 10
0.0
 20
0.0
 30
0.0
  3
*D7
  1

  0
TEXT
  5
345
100
AcDbEntity
  8
3
370
    25
100
AcDbText
 10
114.693375
 20
-1.544136
 30
0.0
 40
7.0
  1
103
 50
90.0
 41
2.0
 72
     5
 11
114.693375
 21
16.655864
 31
0.0
100
AcDbText
  0
LINE
  5
346
100
AcDbEntity
  8
3
370
    25
100
AcDbLine
 10
206.075011
 20
-42.294768
 30
0.0
 11
113.693375
 21
-42.294768
 31
0.0
  0
LINE
  5
347
100
AcDbEntity
  8
3
370
    25
100
AcDbLine
 10
115.693375
 20
-42.294768
 30
0.0
 11
116.728651
 21
-38.431064
 31
0.0
  0
LINE
  5
348
100
AcDbEntity
  8
3
370
    25
100
AcDbLine
 10
115.693375
 20
-42.294768
 30
0.0
 11
114.658099
 21
-38.431064
 31
0.0
  0
LINE
  5
349
100
AcDbEntity
  8
3
370
    25
100
AcDbLine
 10
116.728651
 20
-38.431064
 30
0.0
 11
114.658099
 21
-38.431064
 31
0.0
  0
LINE
  5
34A
100
AcDbEntity
  8
3
370
    25
100
AcDbLine
 10
115.693375
 20
-42.294768
 30
0.0
 11
115.693375
 21
60.206495
 31
0.0
  0
LINE
  5
34B
100
AcDbEntity
  8
3
370
    25
100
AcDbLine
 10
115.693375
 20
60.206495
 30
0.0
 11
114.658099
 21
56.342792
 31
0.0
  0
LINE
  5
34C
100
AcDbEntity
  8
3
370
    25
100
AcDbLine
 10
115.693375
 20
60.206495
 30
0.0
 11
116.728651
 21
56.342792
 31
0.0
  0
LINE
  5
34D
100
AcDbEntity
  8
3
370
    25
100
AcDbLine
 10
114.658099
 20
56.342792
 30
0.0
 11
116.728651
 21
56.342792
 31
0.0
  0
LINE
  5
34E
100
AcDbEntity
  8
3
370
    25
100
AcDbLine
 10
154.204239
 20
60.206495
 30
0.0
 11
113.693375
 21
60.206495
 31
0.0
  0
ENDBLK
  5
34F
100
AcDbEntity
  8
3
100
AcDbBlockEnd
  0
BLOCK
  5
350
100
AcDbEntity
  8
3
100
AcDbBlockBegin
  2
*D8
 70
     1
 10
0.0
 20
0.0
 30
0.0
  3
*D8
  1

  0
TEXT
  5
351
100
AcDbEntity
  8
3
370
    25
100
AcDbText
 10
2.341782
 20
19.455465
 30
0.0
 40
7.0
  1
145
 50
90.0
 41
2.0
 72
     5
 11
2.341782
 21
37.655465
 31
0.0
100
AcDbText
  0
LINE
  5
352
100
AcDbEntity
  8
3
370
    25
100
AcDbLine
 10
206.075011
 20
-42.294768
 30
0.0
 11
1.341782
 21
-42.294768
 31
0.0
  0
LINE
  5
353
100
AcDbEntity
  8
3
370
    25
100
AcDbLine
 10
3.341782
 20
-42.294768
 30
0.0
 11
4.377058
 21
-38.431064
 31
0.0
  0
LINE
  5
354
100
AcDbEntity
  8
3
370
    25
100
AcDbLine
 10
3.341782
 20
-42.294768
 30
0.0
 11
2.306506
 21
-38.431064
 31
0.0
  0
LINE
  5
355
100
AcDbEntity
  8
3
370
    25
100
AcDbLine
 10
4.377058
 20
-38.431064
 30
0.0
 11
2.306506
 21
-38.431064
 31
0.0
  0
LINE
  5
356
100
AcDbEntity
  8
3
370
    25
100
AcDbLine
 10
3.341782
 20
-42.294768
 30
0.0
 11
3.341782
 21
102.205697
 31
0.0
  0
LINE
  5
357
100
AcDbEntity
  8
3
370
    25
100
AcDbLine
 10
3.341782
 20
102.205697
 30
0.0
 11
2.306506
 21
98.341993
 31
0.0
  0
LINE
  5
358
100
AcDbEntity
  8
3
370
    25
100
AcDbLine
 10
3.341782
 20
102.205697
 30
0.0
 11
4.377058
 21
98.341993
 31
0.0
  0
LINE
  5
359
100
AcDbEntity
  8
3
370
    25
100
AcDbLine
 10
2.306506
 20
98.341993
 30
0.0
 11
4.377058
 21
98.341993
 31
0.0
  0
LINE
  5
35A
100
AcDbEntity
  8
3
370
    25
100
AcDbLine
 10
16.614302
 20
102.205697
 30
0.0
 11
1.341782
 21
102.205697
 31
0.0
  0
ENDBLK
  5
35B
100
AcDbEntity
  8
3
100
AcDbBlockEnd
  0
BLOCK
  5
35C
100
AcDbEntity
  8
3
100
AcDbBlockBegin
  2
*D9
 70
     1
 10
0.0
 20
0.0
 30
0.0
  3
*D9
  1

  0
TEXT
  5
35D
100
AcDbEntity
  8
3
370
    25
100
AcDbText
 10
-24.955955
 20
43.455465
 30
0.0
 40
7.0
  1
193
 50
90.0
 41
2.0
 72
     5
 11
-24.955955
 21
61.655465
 31
0.0
100
AcDbText
  0
LINE
  5
35E
100
AcDbEntity
  8
3
370
    25
100
AcDbLine
 10
206.075011
 20
-42.294768
 30
0.0
 11
-25.955955
 21
-42.294768
 31
0.0
  0
LINE
  5
35F
100
AcDbEntity
  8
3
370
    25
100
AcDbLine
 10
-23.955955
 20
-42.294768
 30
0.0
 11
-22.920679
 21
-38.431064
 31
0.0
  0
LINE
  5
360
100
AcDbEntity
  8
3
370
    25
100
AcDbLine
 10
-23.955955
 20
-42.294768
 30
0.0
 11
-24.991231
 21
-38.431064
 31
0.0
  0
LINE
  5
361
100
AcDbEntity
  8
3
370
    25
100
AcDbLine
 10
-22.920679
 20
-38.431064
 30
0.0
 11
-24.991231
 21
-38.431064
 31
0.0
  0
LINE
  5
362
100
AcDbEntity
  8
3
370
    25
100
AcDbLine
 10
-23.955955
 20
-42.294768
 30
0.0
 11
-23.955955
 21
150.205697
 31
0.0
  0
LINE
  5
363
100
AcDbEntity
  8
3
370
    25
100
AcDbLine
 10
-23.955955
 20
150.205697
 30
0.0
 11
-24.991231
 21
146.341993
 31
0.0
  0
LINE
  5
364
100
AcDbEntity
  8
3
370
    25
100
AcDbLine
 10
-23.955955
 20
150.205697
 30
0.0
 11
-22.920679
 21
146.341993
 31
0.0
  0
LINE
  5
365
100
AcDbEntity
  8
3
370
    25
100
AcDbLine
 10
-24.991231
 20
146.341993
 30
0.0
 11
-22.920679
 21
146.341993
 31
0.0
  0
LINE
  5
366
100
AcDbEntity
  8
3
370
    25
100
AcDbLine
 10
28.075145
 20
150.205697
 30
0.0
 11
-25.955955
 21
150.205697
 31
0.0
  0
ENDBLK
  5
367
100
AcDbEntity
  8
3
100
AcDbBlockEnd
  0
BLOCK
  5
368
100
AcDbEntity
  8
3
100
AcDbBlockBegin
  2
*D10
 70
     1
 10
0.0
 20
0.0
 30
0.0
  3
*D10
  1

  0
TEXT
  5
369
100
AcDbEntity
  8
3
370
    25
100
AcDbText
 10
-317.283452
 20
57.166606
 30
0.0
 40
7.0
  1
71
 41
2.0
 72
     5
 11
-306.083452
 21
57.166606
 31
0.0
100
AcDbText
  0
LINE
  5
36A
100
AcDbEntity
  8
3
370
    25
100
AcDbLine
 10
-345.721032
 20
-88.794419
 30
0.0
 11
-345.721032
 21
58.166606
 31
0.0
  0
LINE
  5
36B
100
AcDbEntity
  8
3
370
    25
100
AcDbLine
 10
-345.721032
 20
56.166606
 30
0.0
 11
-341.857329
 21
55.13133
 31
0.0
  0
LINE
  5
36C
100
AcDbEntity
  8
3
370
    25
100
AcDbLine
 10
-345.721032
 20
56.166606
 30
0.0
 11
-341.857329
 21
57.201882
 31
0.0
  0
LINE
  5
36D
100
AcDbEntity
  8
3
370
    25
100
AcDbLine
 10
-341.857329
 20
55.13133
 30
0.0
 11
-341.857329
 21
57.201882
 31
0.0
  0
LINE
  5
36E
100
AcDbEntity
  8
3
370
    25
100
AcDbLine
 10
-345.721032
 20
56.166606
 30
0.0
 11
-274.845873
 21
56.166606
 31
0.0
  0
LINE
  5
36F
100
AcDbEntity
  8
3
370
    25
100
AcDbLine
 10
-274.845873
 20
56.166606
 30
0.0
 11
-278.709576
 21
57.201882
 31
0.0
  0
LINE
  5
370
100
AcDbEntity
  8
3
370
    25
100
AcDbLine
 10
-274.845873
 20
56.166606
 30
0.0
 11
-278.709576
 21
55.13133
 31
0.0
  0
LINE
  5
371
100
AcDbEntity
  8
3
370
    25
100
AcDbLine
 10
-278.709576
 20
57.201882
 30
0.0
 11
-278.709576
 21
55.13133
 31
0.0
  0
LINE
  5
372
100
AcDbEntity
  8
3
370
    25
100
AcDbLine
 10
-274.845873
 20
28.205616
 30
0.0
 11
-274.845873
 21
58.166606
 31
0.0
  0
ENDBLK
  5
373
100
AcDbEntity
  8
3
100
AcDbBlockEnd
  0
BLOCK
  5
374
100
AcDbEntity
  8
3
100
AcDbBlockBegin
  2
*D11
 70
     1
 10
0.0
 20
0.0
 30
0.0
  3
*D11
  1

  0
TEXT
  5
375
100
AcDbEntity
  8
3
370
    25
100
AcDbText
 10
-220.110711
 20
57.166606
 30
0.0
 40
7.0
  1
130
 41
2.0
 72
     5
 11
-201.910711
 21
57.166606
 31
0.0
100
AcDbText
  0
LINE
  5
376
100
AcDbEntity
  8
3
370
    25
100
AcDbLine
 10
-274.845873
 20
56.166606
 30
0.0
 11
-270.982169
 21
55.13133
 31
0.0
  0
LINE
  5
377
100
AcDbEntity
  8
3
370
    25
100
AcDbLine
 10
-274.845873
 20
56.166606
 30
0.0
 11
-270.982169
 21
57.201882
 31
0.0
  0
LINE
  5
378
100
AcDbEntity
  8
3
370
    25
100
AcDbLine
 10
-270.982169
 20
55.13133
 30
0.0
 11
-270.982169
 21
57.201882
 31
0.0
  0
LINE
  5
379
100
AcDbEntity
  8
3
370
    25
100
AcDbLine
 10
-274.845873
 20
56.166606
 30
0.0
 11
-144.375549
 21
56.166606
 31
0.0
  0
LINE
  5
37A
100
AcDbEntity
  8
3
370
    25
100
AcDbLine
 10
-144.375549
 20
56.166606
 30
0.0
 11
-148.239252
 21
57.201882
 31
0.0
  0
LINE
  5
37B
100
AcDbEntity
  8
3
370
    25
100
AcDbLine
 10
-144.375549
 20
56.166606
 30
0.0
 11
-148.239252
 21
55.13133
 31
0.0
  0
LINE
  5
37C
100
AcDbEntity
  8
3
370
    25
100
AcDbLine
 10
-148.239252
 20
57.201882
 30
0.0
 11
-148.239252
 21
55.13133
 31
0.0
  0
LINE
  5
37D
100
AcDbEntity
  8
3
370
    25
100
AcDbLine
 10
-144.375549
 20
-88.794967
 30
0.0
 11
-144.375549
 21
58.166606
 31
0.0
  0
ENDBLK
  5
37E
100
AcDbEntity
  8
3
100
AcDbBlockEnd
  0
BLOCK
  5
37F
100
AcDbEntity
  8
3
100
AcDbBlockBegin
  2
*D12
 70
     1
 10
0.0
 20
0.0
 30
0.0
  3
*D12
  1

  0
TEXT
  5
380
100
AcDbEntity
  8
3
370
    25
100
AcDbText
 10
223.075011
 20
-120.559209
 30
0.0
 40
7.0
  1
44
 41
2.0
 72
     5
 11
234.275011
 21
-120.559209
 31
0.0
100
AcDbText
  0
LINE
  5
381
100
AcDbEntity
  8
3
370
    25
100
AcDbLine
 10
208.075011
 20
-44.294768
 30
0.0
 11
208.075011
 21
-123.559209
 31
0.0
  0
LINE
  5
382
100
AcDbEntity
  8
3
370
    25
100
AcDbLine
 10
208.075011
 20
-121.559209
 30
0.0
 11
211.938715
 21
-122.594485
 31
0.0
  0
LINE
  5
383
100
AcDbEntity
  8
3
370
    25
100
AcDbLine
 10
208.075011
 20
-121.559209
 30
0.0
 11
211.938715
 21
-120.523933
 31
0.0
  0
LINE
  5
384
100
AcDbEntity
  8
3
370
    25
100
AcDbLine
 10
211.938715
 20
-122.594485
 30
0.0
 11
211.938715
 21
-120.523933
 31
0.0
  0
LINE
  5
385
100
AcDbEntity
  8
3
370
    25
100
AcDbLine
 10
208.075011
 20
-121.559209
 30
0.0
 11
252.075011
 21
-121.559209
 31
0.0
  0
LINE
  5
386
100
AcDbEntity
  8
3
370
    25
100
AcDbLine
 10
252.075011
 20
-121.559209
 30
0.0
 11
248.211308
 21
-120.523933
 31
0.0
  0
LINE
  5
387
100
AcDbEntity
  8
3
370
    25
100
AcDbLine
 10
252.075011
 20
-121.559209
 30
0.0
 11
248.211308
 21
-122.594485
 31
0.0
  0
LINE
  5
388
100
AcDbEntity
  8
3
370
    25
100
AcDbLine
 10
248.211308
 20
-120.523933
 30
0.0
 11
248.211308
 21
-122.594485
 31
0.0
  0
LINE
  5
389
100
AcDbEntity
  8
3
370
    25
100
AcDbLine
 10
252.075011
 20
-44.294768
 30
0.0
 11
252.075011
 21
-123.559209
 31
0.0
  0
ENDBLK
  5
38A
100
AcDbEntity
  8
3
100
AcDbBlockEnd
  0
BLOCK
  5
38B
100
AcDbEntity
  8
3
100
AcDbBlockBegin
  2
*D13
 70
     1
 10
0.0
 20
0.0
 30
0.0
  3
*D13
  1

  0
TEXT
  5
38C
100
AcDbEntity
  8
3
370
    25
100
AcDbText
 10
251.07506
 20
-133.713979
 30
0.0
 40
7.0
  1
56
 41
2.0
 72
     5
 11
262.27506
 21
-133.713979
 31
0.0
100
AcDbText
  0
LINE
  5
38D
100
AcDbEntity
  8
3
370
    25
100
AcDbLine
 10
230.07481
 20
-106.594349
 30
0.0
 11
230.07481
 21
-136.713979
 31
0.0
  0
LINE
  5
38E
100
AcDbEntity
  8
3
370
    25
100
AcDbLine
 10
230.07481
 20
-134.713979
 30
0.0
 11
233.938513
 21
-135.749255
 31
0.0
  0
LINE
  5
38F
100
AcDbEntity
  8
3
370
    25
100
AcDbLine
 10
230.07481
 20
-134.713979
 30
0.0
 11
233.938513
 21
-133.678703
 31
0.0
  0
LINE
  5
390
100
AcDbEntity
  8
3
370
    25
100
AcDbLine
 10
233.938513
 20
-135.749255
 30
0.0
 11
233.938513
 21
-133.678703
 31
0.0
  0
LINE
  5
391
100
AcDbEntity
  8
3
370
    25
100
AcDbLine
 10
230.07481
 20
-134.713979
 30
0.0
 11
286.07531
 21
-134.713979
 31
0.0
  0
LINE
  5
392
100
AcDbEntity
  8
3
370
    25
100
AcDbLine
 10
286.07531
 20
-134.713979
 30
0.0
 11
282.211606
 21
-133.678703
 31
0.0
  0
LINE
  5
393
100
AcDbEntity
  8
3
370
    25
100
AcDbLine
 10
286.07531
 20
-134.713979
 30
0.0
 11
282.211606
 21
-135.749255
 31
0.0
  0
LINE
  5
394
100
AcDbEntity
  8
3
370
    25
100
AcDbLine
 10
282.211606
 20
-133.678703
 30
0.0
 11
282.211606
 21
-135.749255
 31
0.0
  0
LINE
  5
395
100
AcDbEntity
  8
3
370
    25
100
AcDbLine
 10
286.07531
 20
43.206062
 30
0.0
 11
286.07531
 21
-136.713979
 31
0.0
  0
ENDBLK
  5
396
100
AcDbEntity
  8
3
100
AcDbBlockEnd
  0
BLOCK
  5
397
100
AcDbEntity
  8
3
100
AcDbBlockBegin
  2
*D14
 70
     1
 10
0.0
 20
0.0
 30
0.0
  3
*D14
  1

  0
LINE
  5
398
100
AcDbEntity
  8
3
370
    25
100
AcDbLine
 10
230.07481
 20
-106.594349
 30
0.0
 11
230.07481
 21
-150.907155
 31
0.0
  0
LINE
  5
399
100
AcDbEntity
  8
3
370
    25
100
AcDbLine
 10
230.07481
 20
-148.907155
 30
0.0
 11
233.938513
 21
-149.942431
 31
0.0
  0
LINE
  5
39A
100
AcDbEntity
  8
3
370
    25
100
AcDbLine
 10
230.07481
 20
-148.907155
 30
0.0
 11
233.938513
 21
-147.871879
 31
0.0
  0
LINE
  5
39B
100
AcDbEntity
  8
3
370
    25
100
AcDbLine
 10
233.938513
 20
-149.942431
 30
0.0
 11
233.938513
 21
-147.871879
 31
0.0
  0
LINE
  5
39C
100
AcDbEntity
  8
3
370
    25
100
AcDbLine
 10
230.07481
 20
-148.907155
 30
0.0
 11
305.76281
 21
-148.907155
 31
0.0
  0
LINE
  5
39D
100
AcDbEntity
  8
3
370
    25
100
AcDbLine
 10
305.76281
 20
-148.907155
 30
0.0
 11
301.899106
 21
-147.871879
 31
0.0
  0
LINE
  5
39E
100
AcDbEntity
  8
3
370
    25
100
AcDbLine
 10
305.76281
 20
-148.907155
 30
0.0
 11
301.899106
 21
-149.942431
 31
0.0
  0
LINE
  5
39F
100
AcDbEntity
  8
3
370
    25
100
AcDbLine
 10
301.899106
 20
-147.871879
 30
0.0
 11
301.899106
 21
-149.942431
 31
0.0
  0
LINE
  5
3A0
100
AcDbEntity
  8
3
370
    25
100
AcDbLine
 10
305.76281
 20
16.831062
 30
0.0
 11
305.76281
 21
-150.907155
 31
0.0
  0
ENDBLK
  5
3A1
100
AcDbEntity
  8
3
100
AcDbBlockEnd
  0
BLOCK
  5
3A2
100
AcDbEntity
  8
3
100
AcDbBlockBegin
  2
*D15
 70
     1
 10
0.0
 20
0.0
 30
0.0
  3
*D15
  1

  0
LINE
  5
3A3
100
AcDbEntity
  8
3
370
    25
100
AcDbLine
 10
30.075011
 20
104.205697
 30
0.0
 11
30.075011
 21
178.10644
 31
0.0
  0
LINE
  5
3A4
100
AcDbEntity
  8
3
370
    25
100
AcDbLine
 10
30.075011
 20
176.10644
 30
0.0
 11
33.938715
 21
175.071164
 31
0.0
  0
LINE
  5
3A5
100
AcDbEntity
  8
3
370
    25
100
AcDbLine
 10
30.075011
 20
176.10644
 30
0.0
 11
33.938715
 21
177.141717
 31
0.0
  0
LINE
  5
3A6
100
AcDbEntity
  8
3
370
    25
100
AcDbLine
 10
33.938715
 20
175.071164
 30
0.0
 11
33.938715
 21
177.141717
 31
0.0
  0
LINE
  5
3A7
100
AcDbEntity
  8
3
370
    25
100
AcDbLine
 10
30.075011
 20
176.10644
 30
0.0
 11
230.075011
 21
176.10644
 31
0.0
  0
LINE
  5
3A8
100
AcDbEntity
  8
3
370
    25
100
AcDbLine
 10
230.075011
 20
176.10644
 30
0.0
 11
226.211308
 21
177.141717
 31
0.0
  0
LINE
  5
3A9
100
AcDbEntity
  8
3
370
    25
100
AcDbLine
 10
230.075011
 20
176.10644
 30
0.0
 11
226.211308
 21
175.071164
 31
0.0
  0
LINE
  5
3AA
100
AcDbEntity
  8
3
370
    25
100
AcDbLine
 10
226.211308
 20
177.141717
 30
0.0
 11
226.211308
 21
175.071164
 31
0.0
  0
LINE
  5
3AB
100
AcDbEntity
  8
3
370
    25
100
AcDbLine
 10
230.075011
 20
86.205232
 30
0.0
 11
230.075011
 21
178.10644
 31
0.0
  0
ENDBLK
  5
3AC
100
AcDbEntity
  8
3
100
AcDbBlockEnd
  0
ENDSEC
  0
SECTION
  2
ENTITIES
  0
LINE
  5
34
100
AcDbEntity
  8
1
370
   100
100
AcDbLine
 10
-430.585397
 20
293.520961
 30
0.0
 11
337.418558
 21
293.520961
 31
0.0
  0
LINE
  5
35
100
AcDbEntity
  8
1
370
   100
100
AcDbLine
 10
-430.585397
 20
293.520961
 30
0.0
 11
-430.585397
 21
-259.479687
 31
0.0
  0
LINE
  5
36
100
AcDbEntity
  8
1
370
   100
100
AcDbLine
 10
-430.585397
 20
-259.479687
 30
0.0
 11
337.418558
 21
-259.479687
 31
0.0
  0
LINE
  5
37
100
AcDbEntity
  8
1
370
   100
100
AcDbLine
 10
337.418558
 20
-259.479687
 30
0.0
 11
337.418558
 21
293.520961
 31
0.0
  0
TEXT
  5
38
100
AcDbEntity
  8
1
370
    50
100
AcDbText
 10
302.064615
 20
-207.760663
 30
0.0
 40
6.0
  1
設計
 72
     5
 11
312.864615
 21
-207.760663
 31
0.0
100
AcDbText
  0
TEXT
  5
39
100
AcDbEntity
  8
1
370
    50
100
AcDbText
 10
321.563651
 20
-207.607465
 30
0.0
 40
6.0
  1
製図
 72
     5
 11
332.363651
 21
-207.607465
 31
0.0
100
AcDbText
  0
TEXT
  5
3A
100
AcDbEntity
  8
1
370
    50
100
AcDbText
 10
261.441918
 20
-207.760663
 30
0.0
 40
6.0
  1
承認
 72
     5
 11
272.241918
 21
-207.760663
 31
0.0
100
AcDbText
  0
TEXT
  5
3B
100
AcDbEntity
  8
1
370
    50
100
AcDbText
 10
281.425852
 20
-207.705826
 30
0.0
 40
6.0
  1
検図
 72
     5
 11
292.225852
 21
-207.705826
 31
0.0
100
AcDbText
  0
LINE
  5
3C
100
AcDbEntity
  8
1
370
    25
100
AcDbLine
 10
227.418558
 20
-209.479687
 30
0.0
 11
337.418558
 21
-209.479687
 31
0.0
  0
LINE
  5
3D
100
AcDbEntity
  8
1
370
    25
100
AcDbLine
 10
284.918558
 20
-227.479687
 30
0.0
 11
284.918558
 21
-241.479687
 31
0.0
  0
TEXT
  5
3E
100
AcDbEntity
  8
1
370
    50
100
AcDbText
 10
261.987763
 20
-237.520334
 30
0.0
 40
6.0
  1
日　付
 72
     5
 11
278.787763
 21
-237.520334
 31
0.0
100
AcDbText
  0
LINE
  5
3F
100
AcDbEntity
  8
1
370
    50
100
AcDbLine
 10
-16.581442
 20
-241.479687
 30
0.0
 11
337.418558
 21
-241.479687
 31
0.0
  0
TEXT
  5
40
100
AcDbEntity
  8
1
370
    50
100
AcDbText
 10
230.211184
 20
-237.830212
 30
0.0
 40
6.0
  1
第三角法
 72
     5
 11
253.011184
 21
-237.830212
 31
0.0
100
AcDbText
  0
TEXT
  5
41
100
AcDbEntity
  8
1
370
    50
100
AcDbText
 10
233.523592
 20
-207.505826
 30
0.0
 40
6.0
  1
尺　度
 72
     5
 11
250.323592
 21
-207.505826
 31
0.0
100
AcDbText
  0
LINE
  5
42
100
AcDbEntity
  8
1
370
   100
100
AcDbLine
 10
-16.581442
 20
-199.479687
 30
0.0
 11
337.418558
 21
-199.479687
 31
0.0
  0
LINE
  5
43
100
AcDbEntity
  8
1
370
    50
100
AcDbLine
 10
154.418558
 20
-199.479687
 30
0.0
 11
154.418558
 21
-259.479687
 31
0.0
  0
LINE
  5
44
100
AcDbEntity
  8
1
370
    25
100
AcDbLine
 10
317.418558
 20
-227.479687
 30
0.0
 11
317.418558
 21
-199.479687
 31
0.0
  0
LINE
  5
45
100
AcDbEntity
  8
1
370
    25
100
AcDbLine
 10
297.418558
 20
-227.479687
 30
0.0
 11
297.418558
 21
-199.479687
 31
0.0
  0
LINE
  5
46
100
AcDbEntity
  8
1
370
    25
100
AcDbLine
 10
277.418558
 20
-227.479687
 30
0.0
 11
277.418558
 21
-199.479687
 31
0.0
  0
LINE
  5
47
100
AcDbEntity
  8
1
370
    50
100
AcDbLine
 10
227.418558
 20
-259.479687
 30
0.0
 11
227.418558
 21
-199.479687
 31
0.0
  0
LINE
  5
48
100
AcDbEntity
  8
1
370
    50
100
AcDbLine
 10
132.418558
 20
-199.479687
 30
0.0
 11
132.418558
 21
-259.479687
 31
0.0
  0
LINE
  5
49
100
AcDbEntity
  8
1
370
    50
100
AcDbLine
 10
5.418558
 20
-199.479687
 30
0.0
 11
5.418558
 21
-241.479687
 31
0.0
  0
LINE
  5
4A
100
AcDbEntity
  8
1
370
    50
100
AcDbLine
 10
227.418558
 20
-227.479687
 30
0.0
 11
337.418558
 21
-227.479687
 31
0.0
  0
TEXT
  5
4B
100
AcDbEntity
  8
1
370
    50
100
AcDbText
 10
229.537302
 20
-253.388745
 30
0.0
 40
6.0
  1
コードＮｏ
 41
0.9
 72
     5
 11
255.457302
 21
-253.388745
 31
0.0
100
AcDbText
  0
TEXT
  5
4C
100
AcDbEntity
  8
1
370
   100
100
AcDbText
 10
-4.677053
 20
-254.383466
 30
0.0
 40
8.0
  1
ミズタニバルブ工業株式会社
 41
1.2
 72
     5
 11
118.202947
 21
-254.383466
 31
0.0
100
AcDbText
  0
LINE
  5
4D
100
AcDbEntity
  8
1
370
    50
100
AcDbLine
 10
-16.581442
 20
-220.479687
 30
0.0
 11
227.418558
 21
-220.479687
 31
0.0
  0
LINE
  5
4E
100
AcDbEntity
  8
1
370
    50
100
AcDbLine
 10
57.918558
 20
-220.479687
 30
0.0
 11
57.918558
 21
-241.479687
 31
0.0
  0
LINE
  5
4F
100
AcDbEntity
  8
1
370
    50
100
AcDbLine
 10
79.918558
 20
-220.479687
 30
0.0
 11
79.918558
 21
-241.479687
 31
0.0
  0
LINE
  5
50
100
AcDbEntity
  8
1
370
    50
100
AcDbLine
 10
257.418558
 20
-259.479687
 30
0.0
 11
257.418558
 21
-199.479687
 31
0.0
  0
TEXT
  5
51
100
AcDbEntity
  8
1
370
    50
100
AcDbText
 10
287.534304
 20
-237.608099
 30
0.0
 40
6.0
  1
　　・　　・
 72
     5
 11
322.334304
 21
-237.608099
 31
0.0
100
AcDbText
  0
LINE
  5
52
100
AcDbEntity
  8
1
370
   100
100
AcDbLine
 10
-16.581442
 20
-199.479687
 30
0.0
 11
-16.581442
 21
-259.479687
 31
0.0
  0
TEXT
  5
53
100
AcDbEntity
  8
1
370
    50
100
AcDbText
 10
233.268755
 20
-221.521298
 30
0.0
 40
6.0
  1
　／ 
 72
     5
 11
244.068755
 21
-221.521298
 31
0.0
100
AcDbText
  0
TEXT
  5
54
100
AcDbEntity
  8
1
370
    50
100
AcDbText
 10
136.340295
 20
-253.532715
 30
0.0
 40
6.0
  1
備 考 
 72
     5
 11
150.140295
 21
-253.532715
 31
0.0
100
AcDbText
  0
TEXT
  5
55
100
AcDbEntity
  8
1
370
    50
100
AcDbText
 10
135.948706
 20
-212.399646
 30
0.0
 40
6.0
  1
仕 上
 72
     5
 11
149.748706
 21
-212.399646
 31
0.0
100
AcDbText
  0
TEXT
  5
56
100
AcDbEntity
  8
1
370
    50
100
AcDbText
 10
135.883349
 20
-230.399472
 30
0.0
 40
6.0
  1
表 面
 72
     5
 11
149.683349
 21
-230.399472
 31
0.0
100
AcDbText
  0
TEXT
  5
57
100
AcDbEntity
  8
1
370
    50
100
AcDbText
 10
135.883349
 20
-237.399472
 30
0.0
 40
6.0
  1
処 理
 72
     5
 11
149.683349
 21
-237.399472
 31
0.0
100
AcDbText
  0
TEXT
  5
58
100
AcDbEntity
  8
1
370
    50
100
AcDbText
 10
-12.770477
 20
-213.201205
 30
0.0
 40
6.0
  1
品 名
 72
     5
 11
1.029523
 21
-213.201205
 31
0.0
100
AcDbText
  0
TEXT
  5
59
100
AcDbEntity
  8
1
370
    50
100
AcDbText
 10
-13.166061
 20
-233.97034
 30
0.0
 40
6.0
  1
材 質
 72
     5
 11
0.633939
 21
-233.97034
 31
0.0
100
AcDbText
  0
TEXT
  5
5A
100
AcDbEntity
  8
1
370
    50
100
AcDbText
 10
61.333939
 20
-233.97034
 30
0.0
 40
6.0
  1
規 格
 72
     5
 11
75.133939
 21
-233.97034
 31
0.0
100
AcDbText
  0
TEXT
  5
5B
100
AcDbEntity
  8
2
370
    50
100
AcDbText
 10
233.080048
 20
-217.719914
 30
0.0
 40
7.0
  1
１
 72
     5
 11
238.680048
 21
-217.719914
 31
0.0
100
AcDbText
  0
TEXT
  5
5C
100
AcDbEntity
  8
2
370
    50
100
AcDbText
 10
244.407486
 20
-225.669087
 30
0.0
 40
7.0
  1
２
 72
     5
 11
250.007486
 21
-225.669087
 31
0.0
100
AcDbText
  0
TEXT
  5
5D
100
AcDbEntity
  8
2
370
    50
100
AcDbText
 10
6.023911
 20
-207.646016
 30
0.0
 40
6.0
  1
台付きサ－モスタット
 72
     5
 11
64.823911
 21
-207.646016
 31
0.0
100
AcDbText
  0
TEXT
  5
5E
100
AcDbEntity
  8
2
370
    50
100
AcDbText
 10
7.56276
 20
-218.121373
 30
0.0
 40
6.0
  1
湯水混合水栓
 72
     5
 11
42.36276
 21
-218.121373
 31
0.0
100
AcDbText
  0
TEXT
  5
5F
100
AcDbEntity
  8
2
370
    50
100
AcDbText
 10
289.180344
 20
-239.641011
 30
0.0
 40
6.0
  1
０１　　８　２２
 72
     5
 11
335.980344
 21
-239.641011
 31
0.0
100
AcDbText
  0
TEXT
  5
60
100
AcDbEntity
  8
2
370
    50
100
AcDbText
 10
42.975273
 20
-219.248204
 30
0.0
 40
6.0
  1
（シャワバス）
 72
     5
 11
83.775273
 21
-219.248204
 31
0.0
100
AcDbText
  0
TEXT
  5
61
100
AcDbEntity
  8
2
370
    50
100
AcDbText
 10
276.704556
 20
-253.325177
 30
0.0
 40
7.0
  1
０３００３２
 72
     5
 11
317.304556
 21
-253.325177
 31
0.0
100
AcDbText
  0
TEXT
  5
62
100
AcDbEntity
  8
2
370
    50
100
AcDbText
 10
85.767006
 20
-219.240796
 30
0.0
 40
7.0
  1
ＭＷ－８８６
 72
     5
 11
126.367006
 21
-219.240796
 31
0.0
100
AcDbText
  0
LINE
  5
63
100
AcDbEntity
  8
2
370
    50
100
AcDbLine
 10
-341.845971
 20
-70.789601
 30
0.0
 11
-341.845971
 21
-71.494419
 31
0.0
  0
LINE
  5
64
100
AcDbEntity
  8
2
370
    50
100
AcDbLine
 10
-345.711031
 20
-91.794419
 30
0.0
 11
-341.845971
 21
-91.794419
 31
0.0
  0
LINE
  5
65
100
AcDbEntity
  8
2
370
    50
100
AcDbLine
 10
-345.711031
 20
-89.794419
 30
0.0
 11
-341.845971
 21
-89.794419
 31
0.0
  0
ARC
  5
66
100
AcDbEntity
  8
2
370
    50
100
AcDbCircle
 10
-295.721032
 20
-90.794419
 30
0.0
 40
50.0
100
AcDbArc
 50
181.145992
 51
202.705836
  0
ARC
  5
67
100
AcDbEntity
  8
2
370
    50
100
AcDbCircle
 10
-295.721032
 20
-90.794419
 30
0.0
 40
50.0
100
AcDbArc
 50
157.294164
 51
178.854008
  0
LINE
  5
68
100
AcDbEntity
  8
2
370
    50
100
AcDbLine
 10
-341.845971
 20
-68.794217
 30
0.0
 11
-341.845971
 21
-166.294419
 31
0.0
  0
LINE
  5
69
100
AcDbEntity
  8
2
370
    50
100
AcDbLine
 10
-236.846638
 20
-188.094304
 30
0.0
 11
-236.846638
 21
-186.594304
 31
0.0
  0
LINE
  5
6A
100
AcDbEntity
  8
2
370
    50
100
AcDbLine
 10
-219.346638
 20
-186.594304
 30
0.0
 11
-236.846638
 21
-186.594304
 31
0.0
  0
LINE
  5
6B
100
AcDbEntity
  8
2
370
    50
100
AcDbLine
 10
-219.346638
 20
-188.094304
 30
0.0
 11
-236.846638
 21
-188.094304
 31
0.0
  0
LINE
  5
6C
100
AcDbEntity
  8
2
370
    25
100
AcDbLine
 10
-228.596638
 20
-216.594349
 30
0.0
 11
-228.596638
 21
-196.794304
 31
0.0
  0
LINE
  5
6D
100
AcDbEntity
  8
2
370
    50
100
AcDbLine
 10
-229.596638
 20
-216.594349
 30
0.0
 11
-229.596638
 21
-196.794304
 31
0.0
  0
LINE
  5
6E
100
AcDbEntity
  8
2
370
    50
100
AcDbLine
 10
-231.346638
 20
-196.794304
 30
0.0
 11
-219.346638
 21
-196.794304
 31
0.0
  0
LINE
  5
6F
100
AcDbEntity
  8
2
370
    50
100
AcDbLine
 10
-233.096638
 20
-195.783941
 30
0.0
 11
-233.096638
 21
-190.294304
 31
0.0
  0
LINE
  5
70
100
AcDbEntity
  8
2
370
    50
100
AcDbLine
 10
-231.346638
 20
-196.794304
 30
0.0
 11
-233.096638
 21
-195.783941
 31
0.0
  0
LINE
  5
71
100
AcDbEntity
  8
2
370
    50
100
AcDbLine
 10
-239.346638
 20
-189.794304
 30
0.0
 11
-239.346638
 21
-188.594304
 31
0.0
  0
LINE
  5
72
100
AcDbEntity
  8
2
370
    50
100
AcDbLine
 10
-219.346638
 20
-190.294304
 30
0.0
 11
-233.667188
 21
-190.294304
 31
0.0
  0
LINE
  5
73
100
AcDbEntity
  8
2
370
    50
100
AcDbLine
 10
-239.346638
 20
-188.594304
 30
0.0
 11
-219.346638
 21
-188.594304
 31
0.0
  0
LINE
  5
74
100
AcDbEntity
  8
2
370
    50
100
AcDbLine
 10
-239.346638
 20
-189.794304
 30
0.0
 11
-219.346638
 21
-189.794304
 31
0.0
  0
ARC
  5
75
100
AcDbEntity
  8
2
370
    50
100
AcDbCircle
 10
-233.667188
 20
-185.294304
 30
0.0
 40
5.0
100
AcDbArc
 50
246.443536
 51
270.0
  0
ARC
  5
76
100
AcDbEntity
  8
2
370
    50
100
AcDbCircle
 10
-233.667188
 20
-193.094304
 30
0.0
 40
5.0
100
AcDbArc
 50
90.0
 51
113.556464
  0
ARC
  5
77
100
AcDbEntity
  8
2
370
    50
100
AcDbCircle
 10
-236.065104
 20
-190.794304
 30
0.0
 40
1.0
100
AcDbArc
 50
66.443536
 51
90.0
  0
ARC
  5
78
100
AcDbEntity
  8
2
370
    50
100
AcDbCircle
 10
-236.065104
 20
-187.594304
 30
0.0
 40
1.0
100
AcDbArc
 50
270.0
 51
293.556464
  0
LINE
  5
79
100
AcDbEntity
  8
2
370
    50
100
AcDbLine
 10
-226.346638
 20
-195.783941
 30
0.0
 11
-226.346638
 21
-190.294304
 31
0.0
  0
ARC
  5
7A
100
AcDbEntity
  8
2
370
    50
100
AcDbCircle
 10
-219.346638
 20
-172.040411
 30
0.0
 40
24.753893
100
AcDbArc
 50
253.573579
 51
270.0
  0
ARC
  5
7B
100
AcDbEntity
  8
2
370
    50
100
AcDbCircle
 10
-229.721638
 20
-190.652225
 30
0.0
 40
6.142079
100
AcDbArc
 50
236.668091
 51
303.331909
  0
ARC
  5
7C
100
AcDbEntity
  8
2
370
    50
100
AcDbCircle
 10
-219.346638
 20
-174.044304
 30
0.0
 40
16.25
100
AcDbArc
 50
255.749967
 51
270.0
  0
ARC
  5
7D
100
AcDbEntity
  8
2
370
    50
100
AcDbCircle
 10
-227.596638
 20
-174.044304
 30
0.0
 40
16.25
100
AcDbArc
 50
255.749967
 51
277.069714
  0
ARC
  5
7E
100
AcDbEntity
  8
2
370
    50
100
AcDbCircle
 10
-223.596638
 20
-174.044304
 30
0.0
 40
16.25
100
AcDbArc
 50
255.749967
 51
277.514045
  0
ARC
  5
7F
100
AcDbEntity
  8
2
370
    50
100
AcDbCircle
 10
-231.596638
 20
-174.044304
 30
0.0
 40
16.25
100
AcDbArc
 50
270.0
 51
277.069714
  0
ARC
  5
80
100
AcDbEntity
  8
2
370
    50
100
AcDbCircle
 10
-219.346638
 20
-204.344304
 30
0.0
 40
16.25
100
AcDbArc
 50
90.0
 51
104.250033
  0
ARC
  5
81
100
AcDbEntity
  8
2
370
    50
100
AcDbCircle
 10
-223.596638
 20
-204.344304
 30
0.0
 40
16.25
100
AcDbArc
 50
82.485955
 51
104.250033
  0
ARC
  5
82
100
AcDbEntity
  8
2
370
    50
100
AcDbCircle
 10
-227.596638
 20
-204.344304
 30
0.0
 40
16.25
100
AcDbArc
 50
82.930286
 51
104.250033
  0
ARC
  5
83
100
AcDbEntity
  8
2
370
    50
100
AcDbCircle
 10
-231.596638
 20
-204.344304
 30
0.0
 40
16.25
100
AcDbArc
 50
82.930286
 51
90.0
  0
LINE
  5
84
100
AcDbEntity
  8
2
370
    50
100
AcDbLine
 10
-230.84619
 20
-228.594349
 30
0.0
 11
-219.34619
 21
-228.594349
 31
0.0
  0
ARC
  5
85
100
AcDbEntity
  8
2
370
    50
100
AcDbCircle
 10
-217.07119
 20
-222.594349
 30
0.0
 40
15.025
100
AcDbArc
 50
156.463422
 51
203.536578
  0
LINE
  5
86
100
AcDbEntity
  8
2
370
    50
100
AcDbLine
 10
-230.84619
 20
-216.594349
 30
0.0
 11
-219.34619
 21
-216.594349
 31
0.0
  0
ELLIPSE
  5
87
100
AcDbEntity
  8
2
370
    50
100
AcDbEllipse
 10
-229.305483
 20
-222.594349
 30
0.0
 11
0.0
 21
6.0
 31
0.0
210
0.0
220
0.0
230
1.0
 40
0.458833
 41
0.0
 42
6.2831849999999996
  0
ELLIPSE
  5
88
100
AcDbEntity
  8
2
370
    50
100
AcDbEllipse
 10
-219.34619
 20
-222.594349
 30
0.0
 11
0.0
 21
6.0
 31
0.0
210
0.0
220
0.0
230
1.0
 40
0.926667
 41
0.0
 42
3.1415929999999999
  0
LINE
  5
89
100
AcDbEntity
  8
2
370
    50
100
AcDbLine
 10
-201.845743
 20
-188.094304
 30
0.0
 11
-201.845743
 21
-186.594304
 31
0.0
  0
LINE
  5
8A
100
AcDbEntity
  8
2
370
    50
100
AcDbLine
 10
-219.345743
 20
-186.594304
 30
0.0
 11
-201.845743
 21
-186.594304
 31
0.0
  0
LINE
  5
8B
100
AcDbEntity
  8
2
370
    50
100
AcDbLine
 10
-219.345743
 20
-188.094304
 30
0.0
 11
-201.845743
 21
-188.094304
 31
0.0
  0
LINE
  5
8C
100
AcDbEntity
  8
2
370
    25
100
AcDbLine
 10
-210.095743
 20
-216.594349
 30
0.0
 11
-210.095743
 21
-196.794304
 31
0.0
  0
LINE
  5
8D
100
AcDbEntity
  8
2
370
    50
100
AcDbLine
 10
-209.095743
 20
-216.594349
 30
0.0
 11
-209.095743
 21
-196.794304
 31
0.0
  0
LINE
  5
8E
100
AcDbEntity
  8
2
370
    50
100
AcDbLine
 10
-207.345743
 20
-196.794304
 30
0.0
 11
-219.345743
 21
-196.794304
 31
0.0
  0
LINE
  5
8F
100
AcDbEntity
  8
2
370
    50
100
AcDbLine
 10
-205.595743
 20
-195.783941
 30
0.0
 11
-205.595743
 21
-190.294304
 31
0.0
  0
LINE
  5
90
100
AcDbEntity
  8
2
370
    50
100
AcDbLine
 10
-207.345743
 20
-196.794304
 30
0.0
 11
-205.595743
 21
-195.783941
 31
0.0
  0
LINE
  5
91
100
AcDbEntity
  8
2
370
    50
100
AcDbLine
 10
-199.345743
 20
-189.794304
 30
0.0
 11
-199.345743
 21
-188.594304
 31
0.0
  0
LINE
  5
92
100
AcDbEntity
  8
2
370
    50
100
AcDbLine
 10
-219.345743
 20
-190.294304
 30
0.0
 11
-205.025193
 21
-190.294304
 31
0.0
  0
LINE
  5
93
100
AcDbEntity
  8
2
370
    50
100
AcDbLine
 10
-199.345743
 20
-188.594304
 30
0.0
 11
-219.345743
 21
-188.594304
 31
0.0
  0
LINE
  5
94
100
AcDbEntity
  8
2
370
    50
100
AcDbLine
 10
-199.345743
 20
-189.794304
 30
0.0
 11
-219.345743
 21
-189.794304
 31
0.0
  0
ARC
  5
95
100
AcDbEntity
  8
2
370
    50
100
AcDbCircle
 10
-205.025193
 20
-185.294304
 30
0.0
 40
5.0
100
AcDbArc
 50
270.0
 51
293.556464
  0
ARC
  5
96
100
AcDbEntity
  8
2
370
    50
100
AcDbCircle
 10
-205.025193
 20
-193.094304
 30
0.0
 40
5.0
100
AcDbArc
 50
66.443536
 51
90.0
  0
ARC
  5
97
100
AcDbEntity
  8
2
370
    50
100
AcDbCircle
 10
-202.627277
 20
-190.794304
 30
0.0
 40
1.0
100
AcDbArc
 50
90.0
 51
113.556464
  0
ARC
  5
98
100
AcDbEntity
  8
2
370
    50
100
AcDbCircle
 10
-202.627277
 20
-187.594304
 30
0.0
 40
1.0
100
AcDbArc
 50
246.443536
 51
270.0
  0
LINE
  5
99
100
AcDbEntity
  8
2
370
    50
100
AcDbLine
 10
-212.345743
 20
-195.783941
 30
0.0
 11
-212.345743
 21
-190.294304
 31
0.0
  0
ARC
  5
9A
100
AcDbEntity
  8
2
370
    50
100
AcDbCircle
 10
-219.345743
 20
-172.040411
 30
0.0
 40
24.753893
100
AcDbArc
 50
270.0
 51
286.426421
  0
ARC
  5
9B
100
AcDbEntity
  8
2
370
    50
100
AcDbCircle
 10
-208.970743
 20
-190.652225
 30
0.0
 40
6.142079
100
AcDbArc
 50
236.668091
 51
303.331909
  0
ARC
  5
9C
100
AcDbEntity
  8
2
370
    50
100
AcDbCircle
 10
-211.095743
 20
-174.044304
 30
0.0
 40
16.25
100
AcDbArc
 50
262.930286
 51
284.250033
  0
ARC
  5
9D
100
AcDbEntity
  8
2
370
    50
100
AcDbCircle
 10
-215.095743
 20
-174.044304
 30
0.0
 40
16.25
100
AcDbArc
 50
262.485955
 51
284.250033
  0
ARC
  5
9E
100
AcDbEntity
  8
2
370
    50
100
AcDbCircle
 10
-207.095743
 20
-174.044304
 30
0.0
 40
16.25
100
AcDbArc
 50
262.930286
 51
270.0
  0
ARC
  5
9F
100
AcDbEntity
  8
2
370
    50
100
AcDbCircle
 10
-215.095743
 20
-204.344304
 30
0.0
 40
16.25
100
AcDbArc
 50
75.749967
 51
97.514045
  0
ARC
  5
A0
100
AcDbEntity
  8
2
370
    50
100
AcDbCircle
 10
-211.095743
 20
-204.344304
 30
0.0
 40
16.25
100
AcDbArc
 50
75.749967
 51
97.069714
  0
ARC
  5
A1
100
AcDbEntity
  8
2
370
    50
100
AcDbCircle
 10
-207.095743
 20
-204.344304
 30
0.0
 40
16.25
100
AcDbArc
 50
90.0
 51
97.069714
  0
LINE
  5
A2
100
AcDbEntity
  8
2
370
    50
100
AcDbLine
 10
-207.84619
 20
-228.594349
 30
0.0
 11
-219.34619
 21
-228.594349
 31
0.0
  0
ARC
  5
A3
100
AcDbEntity
  8
2
370
    50
100
AcDbCircle
 10
-221.62119
 20
-222.594349
 30
0.0
 40
15.025
100
AcDbArc
 50
336.463422
 51
23.536578
  0
LINE
  5
A4
100
AcDbEntity
  8
2
370
    50
100
AcDbLine
 10
-207.84619
 20
-216.594349
 30
0.0
 11
-219.34619
 21
-216.594349
 31
0.0
  0
ELLIPSE
  5
A5
100
AcDbEntity
  8
2
370
    50
100
AcDbEllipse
 10
-209.386898
 20
-222.594349
 30
0.0
 11
0.0
 21
6.0
 31
0.0
210
0.0
220
0.0
230
1.0
 40
0.458833
 41
0.0
 42
6.2831849999999996
  0
ELLIPSE
  5
A6
100
AcDbEntity
  8
2
370
    50
100
AcDbEllipse
 10
-219.34619
 20
-222.594349
 30
0.0
 11
0.0
 21
6.0
 31
0.0
210
0.0
220
0.0
230
1.0
 40
0.926667
 41
3.1415929999999999
 42
0.0
  0
LINE
  5
A7
100
AcDbEntity
  8
2
370
    50
100
AcDbLine
 10
-340.84619
 20
-166.2941
 30
0.0
 11
-340.84619
 21
-169.2941
 31
0.0
  0
LINE
  5
A8
100
AcDbEntity
  8
2
370
    50
100
AcDbLine
 10
-199.84619
 20
-166.2941
 30
0.0
 11
-199.84619
 21
-169.2941
 31
0.0
  0
LINE
  5
A9
100
AcDbEntity
  8
2
370
    50
100
AcDbLine
 10
-209.095743
 20
-186.594304
 30
0.0
 11
-209.095743
 21
-169.2941
 31
0.0
  0
LINE
  5
AA
100
AcDbEntity
  8
2
370
    25
100
AcDbLine
 10
-210.095743
 20
-186.594304
 30
0.0
 11
-210.095743
 21
-169.2941
 31
0.0
  0
LINE
  5
AB
100
AcDbEntity
  8
2
370
    25
100
AcDbLine
 10
-228.596638
 20
-186.594304
 30
0.0
 11
-228.596638
 21
-169.2941
 31
0.0
  0
LINE
  5
AC
100
AcDbEntity
  8
2
370
    50
100
AcDbLine
 10
-229.596638
 20
-186.594304
 30
0.0
 11
-229.596638
 21
-169.2941
 31
0.0
  0
LINE
  5
AD
100
AcDbEntity
  8
2
370
    50
100
AcDbLine
 10
-340.84619
 20
-169.2941
 30
0.0
 11
-199.84619
 21
-169.2941
 31
0.0
  0
LINE
  5
AE
100
AcDbEntity
  8
2
370
    50
100
AcDbLine
 10
-198.346931
 20
-75.194871
 30
0.0
 11
-198.846931
 21
-75.194871
 31
0.0
  0
LINE
  5
AF
100
AcDbEntity
  8
2
370
    50
100
AcDbLine
 10
-198.346931
 20
-106.394871
 30
0.0
 11
-198.846931
 21
-106.394871
 31
0.0
  0
LINE
  5
B0
100
AcDbEntity
  8
2
370
    50
100
AcDbLine
 10
-154.346931
 20
-72.194871
 30
0.0
 11
-153.846931
 21
-72.194871
 31
0.0
  0
LINE
  5
B1
100
AcDbEntity
  8
2
370
    50
100
AcDbLine
 10
-154.346931
 20
-109.394871
 30
0.0
 11
-153.846931
 21
-109.394871
 31
0.0
  0
LINE
  5
B2
100
AcDbEntity
  8
2
370
    50
100
AcDbLine
 10
-198.745852
 20
-75.194831
 30
0.0
 11
-198.546293
 21
-75.194831
 31
0.0
  0
LINE
  5
B3
100
AcDbEntity
  8
2
370
    50
100
AcDbLine
 10
-198.846293
 20
-104.294951
 30
0.0
 11
-198.846293
 21
-103.294831
 31
0.0
  0
LINE
  5
B4
100
AcDbEntity
  8
2
370
    50
100
AcDbLine
 10
-198.846293
 20
-78.294831
 30
0.0
 11
-198.846293
 21
-77.294831
 31
0.0
  0
LINE
  5
B5
100
AcDbEntity
  8
2
370
    50
100
AcDbLine
 10
-197.346321
 20
-112.794967
 30
0.0
 11
-165.436858
 21
-112.794967
 31
0.0
  0
LINE
  5
B6
100
AcDbEntity
  8
2
370
    50
100
AcDbLine
 10
-153.846321
 20
-109.394967
 30
0.0
 11
-154.346321
 21
-109.394967
 31
0.0
  0
LINE
  5
B7
100
AcDbEntity
  8
2
370
    50
100
AcDbLine
 10
-153.846321
 20
-72.194967
 30
0.0
 11
-154.346321
 21
-72.194967
 31
0.0
  0
ARC
  5
B8
100
AcDbEntity
  8
2
370
    50
100
AcDbCircle
 10
-167.375549
 20
-90.794967
 30
0.0
 40
23.0
100
AcDbArc
 50
306.031312
 51
53.968688
  0
LINE
  5
B9
100
AcDbEntity
  8
2
370
    25
100
AcDbLine
 10
-154.346321
 20
-107.26431
 30
0.0
 11
-154.346321
 21
-107.294967
 31
0.0
  0
LINE
  5
BA
100
AcDbEntity
  8
2
370
    25
100
AcDbLine
 10
-154.346321
 20
-74.294967
 30
0.0
 11
-154.346321
 21
-74.325625
 31
0.0
  0
ARC
  5
BB
100
AcDbEntity
  8
2
370
    50
100
AcDbCircle
 10
-165.436858
 20
-90.794967
 30
0.0
 40
22.0
100
AcDbArc
 50
270.0
 51
300.272641
  0
ARC
  5
BC
100
AcDbEntity
  8
2
370
    50
100
AcDbCircle
 10
-165.436858
 20
-90.794967
 30
0.0
 40
22.0
100
AcDbArc
 50
59.727359
 51
90.0
  0
ARC
  5
BD
100
AcDbEntity
  8
2
370
    50
100
AcDbCircle
 10
-197.346321
 20
-111.794967
 30
0.0
 40
1.0
100
AcDbArc
 50
180.0
 51
270.0
  0
ARC
  5
BE
100
AcDbEntity
  8
2
370
    50
100
AcDbCircle
 10
-197.346321
 20
-69.794967
 30
0.0
 40
1.0
100
AcDbArc
 50
90.0
 51
180.0
  0
LINE
  5
BF
100
AcDbEntity
  8
2
370
    50
100
AcDbLine
 10
-165.436858
 20
-68.794967
 30
0.0
 11
-197.346321
 21
-68.794967
 31
0.0
  0
LINE
  5
C0
100
AcDbEntity
  8
2
370
    50
100
AcDbLine
 10
-173.936513
 20
-67.744967
 30
0.0
 11
-173.445766
 21
-68.594967
 31
0.0
  0
LINE
  5
C1
100
AcDbEntity
  8
2
370
    50
100
AcDbLine
 10
-185.756129
 20
-67.744967
 30
0.0
 11
-186.246876
 21
-68.594967
 31
0.0
  0
ARC
  5
C2
100
AcDbEntity
  8
2
370
    50
100
AcDbCircle
 10
-186.593287
 20
-68.394967
 30
0.0
 40
0.4
100
AcDbArc
 50
270.0
 51
330.0
  0
ARC
  5
C3
100
AcDbEntity
  8
2
370
    50
100
AcDbCircle
 10
-173.099356
 20
-68.394967
 30
0.0
 40
0.4
100
AcDbArc
 50
210.0
 51
270.0
  0
ARC
  5
C4
100
AcDbEntity
  8
2
370
    50
100
AcDbCircle
 10
-174.715936
 20
-68.194967
 30
0.0
 40
0.9
100
AcDbArc
 50
30.0
 51
90.0
  0
ARC
  5
C5
100
AcDbEntity
  8
2
370
    50
100
AcDbCircle
 10
-184.976706
 20
-68.194967
 30
0.0
 40
0.9
100
AcDbArc
 50
90.0
 51
150.0
  0
LINE
  5
C6
100
AcDbEntity
  8
2
370
    50
100
AcDbLine
 10
-174.715936
 20
-67.294967
 30
0.0
 11
-184.976706
 21
-67.294967
 31
0.0
  0
ARC
  5
C7
100
AcDbEntity
  8
2
370
    50
100
AcDbCircle
 10
-179.846321
 20
-70.294967
 30
0.0
 40
9.0
100
AcDbArc
 50
67.588868
 51
112.411132
  0
LINE
  5
C8
100
AcDbEntity
  8
2
370
    50
100
AcDbLine
 10
-183.896321
 20
-62.899192
 30
0.0
 11
-183.896321
 21
-67.294967
 31
0.0
  0
LINE
  5
C9
100
AcDbEntity
  8
2
370
    50
100
AcDbLine
 10
-175.796321
 20
-62.899192
 30
0.0
 11
-175.796321
 21
-67.294967
 31
0.0
  0
ARC
  5
CA
100
AcDbEntity
  8
2
370
    50
100
AcDbCircle
 10
-176.796321
 20
-62.899192
 30
0.0
 40
1.0
100
AcDbArc
 50
0.0
 51
67.588868
  0
ARC
  5
CB
100
AcDbEntity
  8
2
370
    50
100
AcDbCircle
 10
-182.896321
 20
-62.899192
 30
0.0
 40
1.0
100
AcDbArc
 50
112.411132
 51
180.0
  0
LINE
  5
CC
100
AcDbEntity
  8
2
370
    50
100
AcDbLine
 10
-154.346321
 20
-71.794967
 30
0.0
 11
-154.346321
 21
-109.794967
 31
0.0
  0
LINE
  5
CD
100
AcDbEntity
  8
2
370
    50
100
AcDbLine
 10
-198.346321
 20
-69.794967
 30
0.0
 11
-198.346321
 21
-111.794967
 31
0.0
  0
LINE
  5
CE
100
AcDbEntity
  8
2
370
    50
100
AcDbLine
 10
-198.846259
 20
-104.294798
 30
0.0
 11
-198.846259
 21
-103.294831
 31
0.0
  0
LINE
  5
CF
100
AcDbEntity
  8
2
370
    50
100
AcDbLine
 10
-198.846293
 20
-103.295071
 30
0.0
 11
-198.846293
 21
-104.295071
 31
0.0
  0
LINE
  5
D0
100
AcDbEntity
  8
2
370
    50
100
AcDbLine
 10
-198.846259
 20
-78.294831
 30
0.0
 11
-198.846259
 21
-77.294951
 31
0.0
  0
LINE
  5
D1
100
AcDbEntity
  8
2
370
    50
100
AcDbLine
 10
-198.846259
 20
-112.795153
 30
0.0
 11
-198.846259
 21
-106.394831
 31
0.0
  0
LINE
  5
D2
100
AcDbEntity
  8
2
370
    50
100
AcDbLine
 10
-198.846259
 20
-104.294951
 30
0.0
 11
-198.846259
 21
-103.294831
 31
0.0
  0
LINE
  5
D3
100
AcDbEntity
  8
2
370
    50
100
AcDbLine
 10
-198.846259
 20
-75.194831
 30
0.0
 11
-198.346321
 21
-75.194831
 31
0.0
  0
LINE
  5
D4
100
AcDbEntity
  8
2
370
    50
100
AcDbLine
 10
-341.845971
 20
-156.544419
 30
0.0
 11
-341.845971
 21
-155.793627
 31
0.0
  0
LINE
  5
D5
100
AcDbEntity
  8
2
370
    50
100
AcDbLine
 10
-341.845971
 20
-131.795083
 30
0.0
 11
-341.845971
 21
-131.044419
 31
0.0
  0
LINE
  5
D6
100
AcDbEntity
  8
2
370
    50
100
AcDbLine
 10
-341.845971
 20
-68.794217
 30
0.0
 11
-322.836017
 21
-68.794217
 31
0.0
  0
LINE
  5
D7
100
AcDbEntity
  8
2
370
    50
100
AcDbLine
 10
-226.855925
 20
-68.794217
 30
0.0
 11
-198.845971
 21
-68.794217
 31
0.0
  0
LINE
  5
D8
100
AcDbEntity
  8
2
370
    50
100
AcDbLine
 10
-198.845971
 20
-75.194871
 30
0.0
 11
-198.845971
 21
-68.794217
 31
0.0
  0
LINE
  5
D9
100
AcDbEntity
  8
2
370
    50
100
AcDbLine
 10
-255.145971
 20
-39.794419
 30
0.0
 11
-244.176433
 21
-58.794217
 31
0.0
  0
LINE
  5
DA
100
AcDbEntity
  8
2
370
    50
100
AcDbLine
 10
-294.545971
 20
-39.794419
 30
0.0
 11
-305.515509
 21
-58.794217
 31
0.0
  0
ARC
  5
DB
100
AcDbEntity
  8
2
370
    50
100
AcDbCircle
 10
-226.855925
 20
-48.794217
 30
0.0
 40
20.0
100
AcDbArc
 50
210.0
 51
270.0
  0
ARC
  5
DC
100
AcDbEntity
  8
2
370
    50
100
AcDbCircle
 10
-322.836017
 20
-48.794217
 30
0.0
 40
20.0
100
AcDbArc
 50
270.0
 51
330.0
  0
LINE
  5
DD
100
AcDbEntity
  8
2
370
    50
100
AcDbLine
 10
-198.845971
 20
-156.544419
 30
0.0
 11
-198.845971
 21
-155.793627
 31
0.0
  0
LINE
  5
DE
100
AcDbEntity
  8
2
370
    50
100
AcDbLine
 10
-198.845971
 20
-131.795083
 30
0.0
 11
-198.845971
 21
-131.044419
 31
0.0
  0
LINE
  5
DF
100
AcDbEntity
  8
2
370
    50
100
AcDbLine
 10
-198.845971
 20
-166.294419
 30
0.0
 11
-198.84628
 21
-68.794217
 31
0.0
  0
LINE
  5
E0
100
AcDbEntity
  8
2
370
    50
100
AcDbLine
 10
-294.545971
 20
-39.794348
 30
0.0
 11
-283.463857
 21
-39.794348
 31
0.0
  0
LINE
  5
E1
100
AcDbEntity
  8
2
370
    50
100
AcDbLine
 10
-266.228085
 20
-39.794348
 30
0.0
 11
-255.145971
 21
-39.794348
 31
0.0
  0
LINE
  5
E2
100
AcDbEntity
  8
2
370
    50
100
AcDbLine
 10
-198.845971
 20
-132.294419
 30
0.0
 11
-341.845971
 21
-132.294419
 31
0.0
  0
LINE
  5
E3
100
AcDbEntity
  8
2
370
    50
100
AcDbLine
 10
-198.846161
 20
-106.394007
 30
0.0
 11
-198.346321
 21
-106.394007
 31
0.0
  0
LINE
  5
E4
100
AcDbEntity
  8
2
370
    50
100
AcDbLine
 10
-153.846321
 20
-72.194967
 30
0.0
 11
-153.846321
 21
-109.394967
 31
0.0
  0
LINE
  5
E5
100
AcDbEntity
  8
2
370
    50
100
AcDbLine
 10
-341.845971
 20
-166.294419
 30
0.0
 11
-198.845971
 21
-166.294419
 31
0.0
  0
LINE
  5
E6
100
AcDbEntity
  8
2
370
    50
100
AcDbLine
 10
249.775011
 20
84.205232
 30
0.0
 11
210.375011
 21
84.205232
 31
0.0
  0
LINE
  5
E7
100
AcDbEntity
  8
2
370
    50
100
AcDbLine
 10
249.775011
 20
84.205232
 30
0.0
 11
252.075011
 21
80.221515
 31
0.0
  0
LINE
  5
E8
100
AcDbEntity
  8
2
370
    50
100
AcDbLine
 10
210.375011
 20
84.205232
 30
0.0
 11
208.075011
 21
80.221515
 31
0.0
  0
LINE
  5
E9
100
AcDbEntity
  8
2
370
    50
100
AcDbLine
 10
252.075011
 20
80.221515
 30
0.0
 11
252.075011
 21
37.887182
 31
0.0
  0
LINE
  5
EA
100
AcDbEntity
  8
2
370
    50
100
AcDbLine
 10
208.075011
 20
-42.294768
 30
0.0
 11
252.075011
 21
-42.294768
 31
0.0
  0
LINE
  5
EB
100
AcDbEntity
  8
2
370
    50
100
AcDbLine
 10
254.075011
 20
73.205232
 30
0.0
 11
267.075011
 21
73.205232
 31
0.0
  0
LINE
  5
EC
100
AcDbEntity
  8
2
370
    50
100
AcDbLine
 10
254.075011
 20
47.205232
 30
0.0
 11
267.075011
 21
47.205232
 31
0.0
  0
ARC
  5
ED
100
AcDbEntity
  8
2
370
    50
100
AcDbCircle
 10
254.075011
 20
75.205232
 30
0.0
 40
2.0
100
AcDbArc
 50
180.0
 51
270.0
  0
ARC
  5
EE
100
AcDbEntity
  8
2
370
    50
100
AcDbCircle
 10
254.075011
 20
45.205232
 30
0.0
 40
2.0
100
AcDbArc
 50
90.0
 51
180.0
  0
LINE
  5
EF
100
AcDbEntity
  8
2
370
    50
100
AcDbLine
 10
268.075011
 20
72.205232
 30
0.0
 11
268.075011
 21
48.205232
 31
0.0
  0
LINE
  5
F0
100
AcDbEntity
  8
2
370
    50
100
AcDbLine
 10
267.075011
 20
73.205232
 30
0.0
 11
268.075011
 21
72.205232
 31
0.0
  0
LINE
  5
F1
100
AcDbEntity
  8
2
370
    50
100
AcDbLine
 10
267.075011
 20
47.205232
 30
0.0
 11
268.075011
 21
48.205232
 31
0.0
  0
LINE
  5
F2
100
AcDbEntity
  8
2
370
    50
100
AcDbLine
 10
212.574362
 20
-64.094304
 30
0.0
 11
212.574362
 21
-62.594304
 31
0.0
  0
LINE
  5
F3
100
AcDbEntity
  8
2
370
    50
100
AcDbLine
 10
230.074362
 20
-62.594304
 30
0.0
 11
212.574362
 21
-62.594304
 31
0.0
  0
LINE
  5
F4
100
AcDbEntity
  8
2
370
    50
100
AcDbLine
 10
230.074362
 20
-64.094304
 30
0.0
 11
212.574362
 21
-64.094304
 31
0.0
  0
LINE
  5
F5
100
AcDbEntity
  8
2
370
    25
100
AcDbLine
 10
220.824362
 20
-92.594349
 30
0.0
 11
220.824362
 21
-72.794304
 31
0.0
  0
LINE
  5
F6
100
AcDbEntity
  8
2
370
    50
100
AcDbLine
 10
219.824362
 20
-92.594349
 30
0.0
 11
219.824362
 21
-72.794304
 31
0.0
  0
LINE
  5
F7
100
AcDbEntity
  8
2
370
    50
100
AcDbLine
 10
218.074362
 20
-72.794304
 30
0.0
 11
230.074362
 21
-72.794304
 31
0.0
  0
LINE
  5
F8
100
AcDbEntity
  8
2
370
    50
100
AcDbLine
 10
216.324362
 20
-71.783941
 30
0.0
 11
216.324362
 21
-66.294304
 31
0.0
  0
LINE
  5
F9
100
AcDbEntity
  8
2
370
    50
100
AcDbLine
 10
218.074362
 20
-72.794304
 30
0.0
 11
216.324362
 21
-71.783941
 31
0.0
  0
LINE
  5
FA
100
AcDbEntity
  8
2
370
    50
100
AcDbLine
 10
210.074362
 20
-65.794304
 30
0.0
 11
210.074362
 21
-64.594304
 31
0.0
  0
LINE
  5
FB
100
AcDbEntity
  8
2
370
    50
100
AcDbLine
 10
230.074362
 20
-66.294304
 30
0.0
 11
215.753812
 21
-66.294304
 31
0.0
  0
LINE
  5
FC
100
AcDbEntity
  8
2
370
    50
100
AcDbLine
 10
210.074362
 20
-64.594304
 30
0.0
 11
230.074362
 21
-64.594304
 31
0.0
  0
LINE
  5
FD
100
AcDbEntity
  8
2
370
    50
100
AcDbLine
 10
210.074362
 20
-65.794304
 30
0.0
 11
230.074362
 21
-65.794304
 31
0.0
  0
ARC
  5
FE
100
AcDbEntity
  8
2
370
    50
100
AcDbCircle
 10
215.753812
 20
-61.294304
 30
0.0
 40
5.0
100
AcDbArc
 50
246.443536
 51
270.0
  0
ARC
  5
FF
100
AcDbEntity
  8
2
370
    50
100
AcDbCircle
 10
215.753812
 20
-69.094304
 30
0.0
 40
5.0
100
AcDbArc
 50
90.0
 51
113.556464
  0
ARC
  5
100
100
AcDbEntity
  8
2
370
    50
100
AcDbCircle
 10
213.355896
 20
-66.794304
 30
0.0
 40
1.0
100
AcDbArc
 50
66.443536
 51
90.0
  0
ARC
  5
101
100
AcDbEntity
  8
2
370
    50
100
AcDbCircle
 10
213.355896
 20
-63.594304
 30
0.0
 40
1.0
100
AcDbArc
 50
270.0
 51
293.556464
  0
LINE
  5
102
100
AcDbEntity
  8
2
370
    50
100
AcDbLine
 10
223.074362
 20
-71.783941
 30
0.0
 11
223.074362
 21
-66.294304
 31
0.0
  0
ARC
  5
103
100
AcDbEntity
  8
2
370
    50
100
AcDbCircle
 10
230.074362
 20
-48.040411
 30
0.0
 40
24.753893
100
AcDbArc
 50
253.573579
 51
270.0
  0
ARC
  5
104
100
AcDbEntity
  8
2
370
    50
100
AcDbCircle
 10
219.699362
 20
-66.652225
 30
0.0
 40
6.142079
100
AcDbArc
 50
236.668091
 51
303.331909
  0
ARC
  5
105
100
AcDbEntity
  8
2
370
    50
100
AcDbCircle
 10
230.074362
 20
-50.044304
 30
0.0
 40
16.25
100
AcDbArc
 50
255.749967
 51
270.0
  0
ARC
  5
106
100
AcDbEntity
  8
2
370
    50
100
AcDbCircle
 10
221.824362
 20
-50.044304
 30
0.0
 40
16.25
100
AcDbArc
 50
255.749967
 51
277.069714
  0
ARC
  5
107
100
AcDbEntity
  8
2
370
    50
100
AcDbCircle
 10
225.824362
 20
-50.044304
 30
0.0
 40
16.25
100
AcDbArc
 50
255.749967
 51
277.514045
  0
ARC
  5
108
100
AcDbEntity
  8
2
370
    50
100
AcDbCircle
 10
217.824362
 20
-50.044304
 30
0.0
 40
16.25
100
AcDbArc
 50
270.0
 51
277.069714
  0
ARC
  5
109
100
AcDbEntity
  8
2
370
    50
100
AcDbCircle
 10
230.074362
 20
-80.344304
 30
0.0
 40
16.25
100
AcDbArc
 50
90.0
 51
104.250033
  0
ARC
  5
10A
100
AcDbEntity
  8
2
370
    50
100
AcDbCircle
 10
225.824362
 20
-80.344304
 30
0.0
 40
16.25
100
AcDbArc
 50
82.485955
 51
104.250033
  0
ARC
  5
10B
100
AcDbEntity
  8
2
370
    50
100
AcDbCircle
 10
221.824362
 20
-80.344304
 30
0.0
 40
16.25
100
AcDbArc
 50
82.930286
 51
104.250033
  0
ARC
  5
10C
100
AcDbEntity
  8
2
370
    50
100
AcDbCircle
 10
217.824362
 20
-80.344304
 30
0.0
 40
16.25
100
AcDbArc
 50
82.930286
 51
90.0
  0
LINE
  5
10D
100
AcDbEntity
  8
2
370
    50
100
AcDbLine
 10
218.57481
 20
-104.594349
 30
0.0
 11
230.07481
 21
-104.594349
 31
0.0
  0
ARC
  5
10E
100
AcDbEntity
  8
2
370
    50
100
AcDbCircle
 10
232.34981
 20
-98.594349
 30
0.0
 40
15.025
100
AcDbArc
 50
156.463422
 51
203.536578
  0
LINE
  5
10F
100
AcDbEntity
  8
2
370
    50
100
AcDbLine
 10
218.57481
 20
-92.594349
 30
0.0
 11
230.07481
 21
-92.594349
 31
0.0
  0
ELLIPSE
  5
110
100
AcDbEntity
  8
2
370
    50
100
AcDbEllipse
 10
220.115517
 20
-98.594349
 30
0.0
 11
0.0
 21
6.0
 31
0.0
210
0.0
220
0.0
230
1.0
 40
0.458833
 41
0.0
 42
6.2831849999999996
  0
ELLIPSE
  5
111
100
AcDbEntity
  8
2
370
    50
100
AcDbEllipse
 10
230.07481
 20
-98.594349
 30
0.0
 11
0.0
 21
6.0
 31
0.0
210
0.0
220
0.0
230
1.0
 40
0.926667
 41
0.0
 42
3.1415929999999999
  0
LINE
  5
112
100
AcDbEntity
  8
2
370
    50
100
AcDbLine
 10
247.575257
 20
-64.094304
 30
0.0
 11
247.575257
 21
-62.594304
 31
0.0
  0
LINE
  5
113
100
AcDbEntity
  8
2
370
    50
100
AcDbLine
 10
230.075257
 20
-62.594304
 30
0.0
 11
247.575257
 21
-62.594304
 31
0.0
  0
LINE
  5
114
100
AcDbEntity
  8
2
370
    50
100
AcDbLine
 10
230.075257
 20
-64.094304
 30
0.0
 11
247.575257
 21
-64.094304
 31
0.0
  0
LINE
  5
115
100
AcDbEntity
  8
2
370
    25
100
AcDbLine
 10
239.325257
 20
-92.594349
 30
0.0
 11
239.325257
 21
-72.794304
 31
0.0
  0
LINE
  5
116
100
AcDbEntity
  8
2
370
    50
100
AcDbLine
 10
240.325257
 20
-92.594349
 30
0.0
 11
240.325257
 21
-72.794304
 31
0.0
  0
LINE
  5
117
100
AcDbEntity
  8
2
370
    50
100
AcDbLine
 10
242.075257
 20
-72.794304
 30
0.0
 11
230.075257
 21
-72.794304
 31
0.0
  0
LINE
  5
118
100
AcDbEntity
  8
2
370
    50
100
AcDbLine
 10
243.825257
 20
-71.783941
 30
0.0
 11
243.825257
 21
-66.294304
 31
0.0
  0
LINE
  5
119
100
AcDbEntity
  8
2
370
    50
100
AcDbLine
 10
242.075257
 20
-72.794304
 30
0.0
 11
243.825257
 21
-71.783941
 31
0.0
  0
LINE
  5
11A
100
AcDbEntity
  8
2
370
    50
100
AcDbLine
 10
250.075257
 20
-65.794304
 30
0.0
 11
250.075257
 21
-64.594304
 31
0.0
  0
LINE
  5
11B
100
AcDbEntity
  8
2
370
    50
100
AcDbLine
 10
230.075257
 20
-66.294304
 30
0.0
 11
244.395807
 21
-66.294304
 31
0.0
  0
LINE
  5
11C
100
AcDbEntity
  8
2
370
    50
100
AcDbLine
 10
250.075257
 20
-64.594304
 30
0.0
 11
230.075257
 21
-64.594304
 31
0.0
  0
LINE
  5
11D
100
AcDbEntity
  8
2
370
    50
100
AcDbLine
 10
250.075257
 20
-65.794304
 30
0.0
 11
230.075257
 21
-65.794304
 31
0.0
  0
ARC
  5
11E
100
AcDbEntity
  8
2
370
    50
100
AcDbCircle
 10
244.395807
 20
-61.294304
 30
0.0
 40
5.0
100
AcDbArc
 50
270.0
 51
293.556464
  0
ARC
  5
11F
100
AcDbEntity
  8
2
370
    50
100
AcDbCircle
 10
244.395807
 20
-69.094304
 30
0.0
 40
5.0
100
AcDbArc
 50
66.443536
 51
90.0
  0
ARC
  5
120
100
AcDbEntity
  8
2
370
    50
100
AcDbCircle
 10
246.793723
 20
-66.794304
 30
0.0
 40
1.0
100
AcDbArc
 50
90.0
 51
113.556464
  0
ARC
  5
121
100
AcDbEntity
  8
2
370
    50
100
AcDbCircle
 10
246.793723
 20
-63.594304
 30
0.0
 40
1.0
100
AcDbArc
 50
246.443536
 51
270.0
  0
LINE
  5
122
100
AcDbEntity
  8
2
370
    50
100
AcDbLine
 10
237.075257
 20
-71.783941
 30
0.0
 11
237.075257
 21
-66.294304
 31
0.0
  0
ARC
  5
123
100
AcDbEntity
  8
2
370
    50
100
AcDbCircle
 10
230.075257
 20
-48.040411
 30
0.0
 40
24.753893
100
AcDbArc
 50
270.0
 51
286.426421
  0
ARC
  5
124
100
AcDbEntity
  8
2
370
    50
100
AcDbCircle
 10
240.450257
 20
-66.652225
 30
0.0
 40
6.142079
100
AcDbArc
 50
236.668091
 51
303.331909
  0
ARC
  5
125
100
AcDbEntity
  8
2
370
    50
100
AcDbCircle
 10
238.325257
 20
-50.044304
 30
0.0
 40
16.25
100
AcDbArc
 50
262.930286
 51
284.250033
  0
ARC
  5
126
100
AcDbEntity
  8
2
370
    50
100
AcDbCircle
 10
234.325257
 20
-50.044304
 30
0.0
 40
16.25
100
AcDbArc
 50
262.485955
 51
284.250033
  0
ARC
  5
127
100
AcDbEntity
  8
2
370
    50
100
AcDbCircle
 10
242.325257
 20
-50.044304
 30
0.0
 40
16.25
100
AcDbArc
 50
262.930286
 51
270.0
  0
ARC
  5
128
100
AcDbEntity
  8
2
370
    50
100
AcDbCircle
 10
234.325257
 20
-80.344304
 30
0.0
 40
16.25
100
AcDbArc
 50
75.749967
 51
97.514045
  0
ARC
  5
129
100
AcDbEntity
  8
2
370
    50
100
AcDbCircle
 10
238.325257
 20
-80.344304
 30
0.0
 40
16.25
100
AcDbArc
 50
75.749967
 51
97.069714
  0
ARC
  5
12A
100
AcDbEntity
  8
2
370
    50
100
AcDbCircle
 10
242.325257
 20
-80.344304
 30
0.0
 40
16.25
100
AcDbArc
 50
90.0
 51
97.069714
  0
LINE
  5
12B
100
AcDbEntity
  8
2
370
    50
100
AcDbLine
 10
241.57481
 20
-104.594349
 30
0.0
 11
230.07481
 21
-104.594349
 31
0.0
  0
ARC
  5
12C
100
AcDbEntity
  8
2
370
    50
100
AcDbCircle
 10
227.79981
 20
-98.594349
 30
0.0
 40
15.025
100
AcDbArc
 50
336.463422
 51
23.536578
  0
LINE
  5
12D
100
AcDbEntity
  8
2
370
    50
100
AcDbLine
 10
241.57481
 20
-92.594349
 30
0.0
 11
230.07481
 21
-92.594349
 31
0.0
  0
ELLIPSE
  5
12E
100
AcDbEntity
  8
2
370
    50
100
AcDbEllipse
 10
240.034102
 20
-98.594349
 30
0.0
 11
0.0
 21
6.0
 31
0.0
210
0.0
220
0.0
230
1.0
 40
0.458833
 41
0.0
 42
6.2831849999999996
  0
ELLIPSE
  5
12F
100
AcDbEntity
  8
2
370
    50
100
AcDbEllipse
 10
230.07481
 20
-98.594349
 30
0.0
 11
0.0
 21
6.0
 31
0.0
210
0.0
220
0.0
230
1.0
 40
0.926667
 41
3.1415929999999999
 42
0.0
  0
LINE
  5
130
100
AcDbEntity
  8
2
370
    50
100
AcDbLine
 10
240.325257
 20
-62.594304
 30
0.0
 11
240.325257
 21
-45.2941
 31
0.0
  0
LINE
  5
131
100
AcDbEntity
  8
2
370
    25
100
AcDbLine
 10
239.325257
 20
-62.594304
 30
0.0
 11
239.325257
 21
-45.2941
 31
0.0
  0
LINE
  5
132
100
AcDbEntity
  8
2
370
    25
100
AcDbLine
 10
220.824362
 20
-62.594304
 30
0.0
 11
220.824362
 21
-45.2941
 31
0.0
  0
LINE
  5
133
100
AcDbEntity
  8
2
370
    50
100
AcDbLine
 10
219.824362
 20
-62.594304
 30
0.0
 11
219.824362
 21
-45.2941
 31
0.0
  0
LINE
  5
134
100
AcDbEntity
  8
2
370
    50
100
AcDbLine
 10
209.075011
 20
-45.2941
 30
0.0
 11
251.075011
 21
-45.2941
 31
0.0
  0
POINT
  5
135
100
AcDbEntity
  8
2
370
    50
100
AcDbPoint
 10
-274.845971
 20
-63.793974
 30
0.0
  0
LINE
  5
136
100
AcDbEntity
  8
2
370
    50
100
AcDbLine
 10
-303.845304
 20
-188.094304
 30
0.0
 11
-303.845304
 21
-186.594304
 31
0.0
  0
LINE
  5
137
100
AcDbEntity
  8
2
370
    50
100
AcDbLine
 10
-321.345304
 20
-186.594304
 30
0.0
 11
-303.845304
 21
-186.594304
 31
0.0
  0
LINE
  5
138
100
AcDbEntity
  8
2
370
    50
100
AcDbLine
 10
-321.345304
 20
-188.094304
 30
0.0
 11
-303.845304
 21
-188.094304
 31
0.0
  0
LINE
  5
139
100
AcDbEntity
  8
2
370
    25
100
AcDbLine
 10
-312.095304
 20
-216.594349
 30
0.0
 11
-312.095304
 21
-196.794304
 31
0.0
  0
LINE
  5
13A
100
AcDbEntity
  8
2
370
    50
100
AcDbLine
 10
-311.095304
 20
-216.594349
 30
0.0
 11
-311.095304
 21
-196.794304
 31
0.0
  0
LINE
  5
13B
100
AcDbEntity
  8
2
370
    50
100
AcDbLine
 10
-309.345304
 20
-196.794304
 30
0.0
 11
-321.345304
 21
-196.794304
 31
0.0
  0
LINE
  5
13C
100
AcDbEntity
  8
2
370
    50
100
AcDbLine
 10
-307.595304
 20
-195.783941
 30
0.0
 11
-307.595304
 21
-190.294304
 31
0.0
  0
LINE
  5
13D
100
AcDbEntity
  8
2
370
    50
100
AcDbLine
 10
-309.345304
 20
-196.794304
 30
0.0
 11
-307.595304
 21
-195.783941
 31
0.0
  0
LINE
  5
13E
100
AcDbEntity
  8
2
370
    50
100
AcDbLine
 10
-301.345304
 20
-189.794304
 30
0.0
 11
-301.345304
 21
-188.594304
 31
0.0
  0
LINE
  5
13F
100
AcDbEntity
  8
2
370
    50
100
AcDbLine
 10
-321.345304
 20
-190.294304
 30
0.0
 11
-307.024754
 21
-190.294304
 31
0.0
  0
LINE
  5
140
100
AcDbEntity
  8
2
370
    50
100
AcDbLine
 10
-301.345304
 20
-188.594304
 30
0.0
 11
-321.345304
 21
-188.594304
 31
0.0
  0
LINE
  5
141
100
AcDbEntity
  8
2
370
    50
100
AcDbLine
 10
-301.345304
 20
-189.794304
 30
0.0
 11
-321.345304
 21
-189.794304
 31
0.0
  0
ARC
  5
142
100
AcDbEntity
  8
2
370
    50
100
AcDbCircle
 10
-307.024754
 20
-185.294304
 30
0.0
 40
5.0
100
AcDbArc
 50
270.0
 51
293.556464
  0
ARC
  5
143
100
AcDbEntity
  8
2
370
    50
100
AcDbCircle
 10
-307.024754
 20
-193.094304
 30
0.0
 40
5.0
100
AcDbArc
 50
66.443536
 51
90.0
  0
ARC
  5
144
100
AcDbEntity
  8
2
370
    50
100
AcDbCircle
 10
-304.626838
 20
-190.794304
 30
0.0
 40
1.0
100
AcDbArc
 50
90.0
 51
113.556464
  0
ARC
  5
145
100
AcDbEntity
  8
2
370
    50
100
AcDbCircle
 10
-304.626838
 20
-187.594304
 30
0.0
 40
1.0
100
AcDbArc
 50
246.443536
 51
270.0
  0
LINE
  5
146
100
AcDbEntity
  8
2
370
    50
100
AcDbLine
 10
-314.345304
 20
-195.783941
 30
0.0
 11
-314.345304
 21
-190.294304
 31
0.0
  0
ARC
  5
147
100
AcDbEntity
  8
2
370
    50
100
AcDbCircle
 10
-321.345304
 20
-172.040411
 30
0.0
 40
24.753893
100
AcDbArc
 50
270.0
 51
286.426421
  0
ARC
  5
148
100
AcDbEntity
  8
2
370
    50
100
AcDbCircle
 10
-310.970304
 20
-190.652225
 30
0.0
 40
6.142079
100
AcDbArc
 50
236.668091
 51
303.331909
  0
ARC
  5
149
100
AcDbEntity
  8
2
370
    50
100
AcDbCircle
 10
-321.345304
 20
-174.044304
 30
0.0
 40
16.25
100
AcDbArc
 50
270.0
 51
284.250033
  0
ARC
  5
14A
100
AcDbEntity
  8
2
370
    50
100
AcDbCircle
 10
-313.095304
 20
-174.044304
 30
0.0
 40
16.25
100
AcDbArc
 50
262.930286
 51
284.250033
  0
ARC
  5
14B
100
AcDbEntity
  8
2
370
    50
100
AcDbCircle
 10
-317.095304
 20
-174.044304
 30
0.0
 40
16.25
100
AcDbArc
 50
262.485955
 51
284.250033
  0
ARC
  5
14C
100
AcDbEntity
  8
2
370
    50
100
AcDbCircle
 10
-309.095304
 20
-174.044304
 30
0.0
 40
16.25
100
AcDbArc
 50
262.930286
 51
270.0
  0
ARC
  5
14D
100
AcDbEntity
  8
2
370
    50
100
AcDbCircle
 10
-321.345304
 20
-204.344304
 30
0.0
 40
16.25
100
AcDbArc
 50
75.749967
 51
90.0
  0
ARC
  5
14E
100
AcDbEntity
  8
2
370
    50
100
AcDbCircle
 10
-317.095304
 20
-204.344304
 30
0.0
 40
16.25
100
AcDbArc
 50
75.749967
 51
97.514045
  0
ARC
  5
14F
100
AcDbEntity
  8
2
370
    50
100
AcDbCircle
 10
-313.095304
 20
-204.344304
 30
0.0
 40
16.25
100
AcDbArc
 50
75.749967
 51
97.069714
  0
ARC
  5
150
100
AcDbEntity
  8
2
370
    50
100
AcDbCircle
 10
-309.095304
 20
-204.344304
 30
0.0
 40
16.25
100
AcDbArc
 50
90.0
 51
97.069714
  0
LINE
  5
151
100
AcDbEntity
  8
2
370
    50
100
AcDbLine
 10
-309.845752
 20
-228.594349
 30
0.0
 11
-321.345752
 21
-228.594349
 31
0.0
  0
ARC
  5
152
100
AcDbEntity
  8
2
370
    50
100
AcDbCircle
 10
-323.620752
 20
-222.594349
 30
0.0
 40
15.025
100
AcDbArc
 50
336.463422
 51
23.536578
  0
LINE
  5
153
100
AcDbEntity
  8
2
370
    50
100
AcDbLine
 10
-309.845752
 20
-216.594349
 30
0.0
 11
-321.345752
 21
-216.594349
 31
0.0
  0
ELLIPSE
  5
154
100
AcDbEntity
  8
2
370
    50
100
AcDbEllipse
 10
-311.386459
 20
-222.594349
 30
0.0
 11
0.0
 21
6.0
 31
0.0
210
0.0
220
0.0
230
1.0
 40
0.458833
 41
0.0
 42
6.2831849999999996
  0
ELLIPSE
  5
155
100
AcDbEntity
  8
2
370
    50
100
AcDbEllipse
 10
-321.345752
 20
-222.594349
 30
0.0
 11
0.0
 21
6.0
 31
0.0
210
0.0
220
0.0
230
1.0
 40
0.926667
 41
3.1415929999999999
 42
0.0
  0
LINE
  5
156
100
AcDbEntity
  8
2
370
    50
100
AcDbLine
 10
-338.846199
 20
-188.094304
 30
0.0
 11
-338.846199
 21
-186.594304
 31
0.0
  0
LINE
  5
157
100
AcDbEntity
  8
2
370
    50
100
AcDbLine
 10
-321.346199
 20
-186.594304
 30
0.0
 11
-338.846199
 21
-186.594304
 31
0.0
  0
LINE
  5
158
100
AcDbEntity
  8
2
370
    50
100
AcDbLine
 10
-321.346199
 20
-188.094304
 30
0.0
 11
-338.846199
 21
-188.094304
 31
0.0
  0
LINE
  5
159
100
AcDbEntity
  8
2
370
    25
100
AcDbLine
 10
-330.596199
 20
-216.594349
 30
0.0
 11
-330.596199
 21
-196.794304
 31
0.0
  0
LINE
  5
15A
100
AcDbEntity
  8
2
370
    50
100
AcDbLine
 10
-331.596199
 20
-216.594349
 30
0.0
 11
-331.596199
 21
-196.794304
 31
0.0
  0
LINE
  5
15B
100
AcDbEntity
  8
2
370
    50
100
AcDbLine
 10
-333.346199
 20
-196.794304
 30
0.0
 11
-321.346199
 21
-196.794304
 31
0.0
  0
LINE
  5
15C
100
AcDbEntity
  8
2
370
    50
100
AcDbLine
 10
-335.096199
 20
-195.783941
 30
0.0
 11
-335.096199
 21
-190.294304
 31
0.0
  0
LINE
  5
15D
100
AcDbEntity
  8
2
370
    50
100
AcDbLine
 10
-333.346199
 20
-196.794304
 30
0.0
 11
-335.096199
 21
-195.783941
 31
0.0
  0
LINE
  5
15E
100
AcDbEntity
  8
2
370
    50
100
AcDbLine
 10
-341.346199
 20
-189.794304
 30
0.0
 11
-341.346199
 21
-188.594304
 31
0.0
  0
LINE
  5
15F
100
AcDbEntity
  8
2
370
    50
100
AcDbLine
 10
-321.346199
 20
-190.294304
 30
0.0
 11
-335.666749
 21
-190.294304
 31
0.0
  0
LINE
  5
160
100
AcDbEntity
  8
2
370
    50
100
AcDbLine
 10
-341.346199
 20
-188.594304
 30
0.0
 11
-321.346199
 21
-188.594304
 31
0.0
  0
LINE
  5
161
100
AcDbEntity
  8
2
370
    50
100
AcDbLine
 10
-341.346199
 20
-189.794304
 30
0.0
 11
-321.346199
 21
-189.794304
 31
0.0
  0
ARC
  5
162
100
AcDbEntity
  8
2
370
    50
100
AcDbCircle
 10
-335.666749
 20
-185.294304
 30
0.0
 40
5.0
100
AcDbArc
 50
246.443536
 51
270.0
  0
ARC
  5
163
100
AcDbEntity
  8
2
370
    50
100
AcDbCircle
 10
-335.666749
 20
-193.094304
 30
0.0
 40
5.0
100
AcDbArc
 50
90.0
 51
113.556464
  0
ARC
  5
164
100
AcDbEntity
  8
2
370
    50
100
AcDbCircle
 10
-338.064665
 20
-190.794304
 30
0.0
 40
1.0
100
AcDbArc
 50
66.443536
 51
90.0
  0
ARC
  5
165
100
AcDbEntity
  8
2
370
    50
100
AcDbCircle
 10
-338.064665
 20
-187.594304
 30
0.0
 40
1.0
100
AcDbArc
 50
270.0
 51
293.556464
  0
LINE
  5
166
100
AcDbEntity
  8
2
370
    50
100
AcDbLine
 10
-328.346199
 20
-195.783941
 30
0.0
 11
-328.346199
 21
-190.294304
 31
0.0
  0
ARC
  5
167
100
AcDbEntity
  8
2
370
    50
100
AcDbCircle
 10
-321.346199
 20
-172.040411
 30
0.0
 40
24.753893
100
AcDbArc
 50
253.573579
 51
270.0
  0
ARC
  5
168
100
AcDbEntity
  8
2
370
    50
100
AcDbCircle
 10
-331.721199
 20
-190.652225
 30
0.0
 40
6.142079
100
AcDbArc
 50
236.668091
 51
303.331909
  0
ARC
  5
169
100
AcDbEntity
  8
2
370
    50
100
AcDbCircle
 10
-329.596199
 20
-174.044304
 30
0.0
 40
16.25
100
AcDbArc
 50
255.749967
 51
277.069714
  0
ARC
  5
16A
100
AcDbEntity
  8
2
370
    50
100
AcDbCircle
 10
-325.596199
 20
-174.044304
 30
0.0
 40
16.25
100
AcDbArc
 50
255.749967
 51
277.514045
  0
ARC
  5
16B
100
AcDbEntity
  8
2
370
    50
100
AcDbCircle
 10
-333.596199
 20
-174.044304
 30
0.0
 40
16.25
100
AcDbArc
 50
270.0
 51
277.069714
  0
ARC
  5
16C
100
AcDbEntity
  8
2
370
    50
100
AcDbCircle
 10
-325.596199
 20
-204.344304
 30
0.0
 40
16.25
100
AcDbArc
 50
82.485955
 51
104.250033
  0
ARC
  5
16D
100
AcDbEntity
  8
2
370
    50
100
AcDbCircle
 10
-329.596199
 20
-204.344304
 30
0.0
 40
16.25
100
AcDbArc
 50
82.930286
 51
104.250033
  0
ARC
  5
16E
100
AcDbEntity
  8
2
370
    50
100
AcDbCircle
 10
-333.596199
 20
-204.344304
 30
0.0
 40
16.25
100
AcDbArc
 50
82.930286
 51
90.0
  0
LINE
  5
16F
100
AcDbEntity
  8
2
370
    50
100
AcDbLine
 10
-332.845752
 20
-228.594349
 30
0.0
 11
-321.345752
 21
-228.594349
 31
0.0
  0
ARC
  5
170
100
AcDbEntity
  8
2
370
    50
100
AcDbCircle
 10
-319.070752
 20
-222.594349
 30
0.0
 40
15.025
100
AcDbArc
 50
156.463422
 51
203.536578
  0
LINE
  5
171
100
AcDbEntity
  8
2
370
    50
100
AcDbLine
 10
-332.845752
 20
-216.594349
 30
0.0
 11
-321.345752
 21
-216.594349
 31
0.0
  0
ELLIPSE
  5
172
100
AcDbEntity
  8
2
370
    50
100
AcDbEllipse
 10
-331.305044
 20
-222.594349
 30
0.0
 11
0.0
 21
6.0
 31
0.0
210
0.0
220
0.0
230
1.0
 40
0.458833
 41
0.0
 42
6.2831849999999996
  0
ELLIPSE
  5
173
100
AcDbEntity
  8
2
370
    50
100
AcDbEllipse
 10
-321.345752
 20
-222.594349
 30
0.0
 11
0.0
 21
6.0
 31
0.0
210
0.0
220
0.0
230
1.0
 40
0.926667
 41
0.0
 42
3.1415929999999999
  0
LINE
  5
174
100
AcDbEntity
  8
2
370
    50
100
AcDbLine
 10
-331.596199
 20
-186.594304
 30
0.0
 11
-331.596199
 21
-169.2941
 31
0.0
  0
LINE
  5
175
100
AcDbEntity
  8
2
370
    25
100
AcDbLine
 10
-330.596199
 20
-186.594304
 30
0.0
 11
-330.596199
 21
-169.2941
 31
0.0
  0
LINE
  5
176
100
AcDbEntity
  8
2
370
    25
100
AcDbLine
 10
-312.095304
 20
-186.594304
 30
0.0
 11
-312.095304
 21
-169.2941
 31
0.0
  0
LINE
  5
177
100
AcDbEntity
  8
2
370
    50
100
AcDbLine
 10
-311.095304
 20
-186.594304
 30
0.0
 11
-311.095304
 21
-169.2941
 31
0.0
  0
CIRCLE
  5
178
100
AcDbEntity
  8
2
370
    50
100
AcDbCircle
 10
230.075011
 20
-19.794768
 30
0.0
 40
12.0
  0
LINE
  5
179
100
AcDbEntity
  8
2
370
    50
100
AcDbLine
 10
218.629511
 20
-18.794768
 30
0.0
 11
241.520511
 21
-18.794768
 31
0.0
  0
LINE
  5
17A
100
AcDbEntity
  8
2
370
    50
100
AcDbLine
 10
218.629511
 20
-20.794768
 30
0.0
 11
241.520511
 21
-20.794768
 31
0.0
  0
POINT
  5
17B
100
AcDbEntity
  8
2
370
    50
100
AcDbPoint
 10
230.075163
 20
33.205581
 30
0.0
  0
LINE
  5
17C
100
AcDbEntity
  8
2
370
    50
100
AcDbLine
 10
252.075011
 20
-42.294768
 30
0.0
 11
252.075011
 21
28.52398
 31
0.0
  0
ARC
  5
17D
100
AcDbEntity
  8
2
370
    50
100
AcDbCircle
 10
256.786503
 20
24.808897
 30
0.0
 40
6.0
100
AcDbArc
 50
106.337571
 51
162.54951
  0
ARC
  5
17E
100
AcDbEntity
  8
2
370
    50
100
AcDbCircle
 10
256.786503
 20
41.602265
 30
0.0
 40
6.0
100
AcDbArc
 50
197.45049
 51
253.662429
  0
ARC
  5
17F
100
AcDbEntity
  8
2
370
    50
100
AcDbCircle
 10
254.325163
 20
33.205581
 30
0.0
 40
2.75
100
AcDbArc
 50
286.337571
 51
73.662429
  0
ARC
  5
180
100
AcDbEntity
  8
2
370
    50
100
AcDbCircle
 10
230.075163
 20
33.205581
 30
0.0
 40
22.0
100
AcDbArc
 50
205.376934
 51
342.54951
  0
LINE
  5
181
100
AcDbEntity
  8
2
370
    50
100
AcDbLine
 10
208.075011
 20
-8.294768
 30
0.0
 11
208.075011
 21
26.21784
 31
0.0
  0
LINE
  5
182
100
AcDbEntity
  8
2
370
    50
100
AcDbLine
 10
208.075011
 20
40.193322
 30
0.0
 11
208.075011
 21
80.221515
 31
0.0
  0
ARC
  5
183
100
AcDbEntity
  8
2
370
    50
100
AcDbCircle
 10
203.075163
 20
33.205581
 30
0.0
 40
6.0
100
AcDbArc
 50
90.0
 51
270.0
  0
LINE
  5
184
100
AcDbEntity
  8
2
370
    50
100
AcDbLine
 10
208.143451
 20
27.205581
 30
0.0
 11
203.075163
 21
27.205581
 31
0.0
  0
ARC
  5
185
100
AcDbEntity
  8
2
370
    50
100
AcDbCircle
 10
204.776942
 20
45.205581
 30
0.0
 40
6.0
100
AcDbArc
 50
270.0
 51
334.623066
  0
ARC
  5
186
100
AcDbEntity
  8
2
370
    50
100
AcDbCircle
 10
204.776942
 20
21.205581
 30
0.0
 40
6.0
100
AcDbArc
 50
25.376934
 51
90.0
  0
LINE
  5
187
100
AcDbEntity
  8
2
370
    50
100
AcDbLine
 10
208.143451
 20
39.205581
 30
0.0
 11
203.075163
 21
39.205581
 31
0.0
  0
CIRCLE
  5
188
100
AcDbEntity
  8
2
370
    50
100
AcDbCircle
 10
230.075163
 20
33.205581
 30
0.0
 40
19.0
  0
ARC
  5
189
100
AcDbEntity
  8
2
370
    50
100
AcDbCircle
 10
208.143451
 20
45.205581
 30
0.0
 40
6.0
100
AcDbArc
 50
270.0
 51
331.314598
  0
ARC
  5
18A
100
AcDbEntity
  8
2
370
    50
100
AcDbCircle
 10
208.143451
 20
21.205581
 30
0.0
 40
6.0
100
AcDbArc
 50
28.685402
 51
90.0
  0
LINE
  5
18B
100
AcDbEntity
  8
2
370
    50
100
AcDbLine
 10
254.757967
 20
35.955581
 30
0.0
 11
253.493905
 21
35.955581
 31
0.0
  0
LINE
  5
18C
100
AcDbEntity
  8
2
370
    50
100
AcDbLine
 10
254.757967
 20
30.455581
 30
0.0
 11
253.493905
 21
30.455581
 31
0.0
  0
ARC
  5
18D
100
AcDbEntity
  8
2
370
    50
100
AcDbCircle
 10
253.493905
 20
41.955581
 30
0.0
 40
6.0
100
AcDbArc
 50
200.487315
 51
270.0
  0
ARC
  5
18E
100
AcDbEntity
  8
2
370
    50
100
AcDbCircle
 10
253.493905
 20
24.455581
 30
0.0
 40
6.0
100
AcDbArc
 50
90.0
 51
159.512685
  0
CIRCLE
  5
18F
100
AcDbEntity
  8
2
370
    50
100
AcDbCircle
 10
230.075163
 20
33.205581
 30
0.0
 40
17.75
  0
LINE
  5
190
100
AcDbEntity
  8
2
370
    50
100
AcDbLine
 10
224.425163
 20
55.805581
 30
0.0
 11
224.425163
 21
54.773091
 31
0.0
  0
LINE
  5
191
100
AcDbEntity
  8
2
370
    50
100
AcDbLine
 10
235.725163
 20
55.805581
 30
0.0
 11
235.725163
 21
54.773091
 31
0.0
  0
LINE
  5
192
100
AcDbEntity
  8
2
370
    50
100
AcDbLine
 10
234.825163
 20
56.705581
 30
0.0
 11
225.325163
 21
56.705581
 31
0.0
  0
ARC
  5
193
100
AcDbEntity
  8
2
370
    50
100
AcDbCircle
 10
234.825163
 20
55.805581
 30
0.0
 40
0.9
100
AcDbArc
 50
0.0
 51
90.0
  0
ARC
  5
194
100
AcDbEntity
  8
2
370
    50
100
AcDbCircle
 10
225.325163
 20
55.805581
 30
0.0
 40
0.9
100
AcDbArc
 50
90.0
 51
180.0
  0
ARC
  5
195
100
AcDbEntity
  8
2
370
    50
100
AcDbCircle
 10
230.075163
 20
33.205581
 30
0.0
 40
22.0
100
AcDbArc
 50
17.45049
 51
74.33042
  0
ARC
  5
196
100
AcDbEntity
  8
2
370
    50
100
AcDbCircle
 10
230.075163
 20
33.205581
 30
0.0
 40
22.0
100
AcDbArc
 50
75.118652
 51
104.881348
  0
ARC
  5
197
100
AcDbEntity
  8
2
370
    50
100
AcDbCircle
 10
230.075163
 20
33.205581
 30
0.0
 40
22.0
100
AcDbArc
 50
105.66958
 51
154.623066
  0
ARC
  5
198
100
AcDbEntity
  8
2
370
    50
100
AcDbCircle
 10
236.125163
 20
54.773091
 30
0.0
 40
0.4
100
AcDbArc
 50
180.0
 51
254.33042
  0
ARC
  5
199
100
AcDbEntity
  8
2
370
    50
100
AcDbCircle
 10
224.025163
 20
54.773091
 30
0.0
 40
0.4
100
AcDbArc
 50
285.66958
 51
360.0
  0
LINE
  5
19A
100
AcDbEntity
  8
2
370
    50
100
AcDbLine
 10
226.025163
 20
61.100808
 30
0.0
 11
226.025163
 21
56.705581
 31
0.0
  0
LINE
  5
19B
100
AcDbEntity
  8
2
370
    50
100
AcDbLine
 10
234.125163
 20
61.100808
 30
0.0
 11
234.125163
 21
56.705581
 31
0.0
  0
ARC
  5
19C
100
AcDbEntity
  8
2
370
    50
100
AcDbCircle
 10
230.075163
 20
53.705033
 30
0.0
 40
9.0
100
AcDbArc
 50
67.588868
 51
112.411132
  0
ARC
  5
19D
100
AcDbEntity
  8
2
370
    50
100
AcDbCircle
 10
233.125163
 20
61.100808
 30
0.0
 40
1.0
100
AcDbArc
 50
0.0
 51
67.588868
  0
ARC
  5
19E
100
AcDbEntity
  8
2
370
    50
100
AcDbCircle
 10
227.025163
 20
61.100808
 30
0.0
 40
1.0
100
AcDbArc
 50
112.411132
 51
180.0
  0
LINE
  5
19F
100
AcDbEntity
  8
2
370
    50
100
AcDbLine
 10
-159.419335
 20
-84.794419
 30
0.0
 11
-178.523773
 21
-84.794419
 31
0.0
  0
LINE
  5
1A0
100
AcDbEntity
  8
2
370
    50
100
AcDbLine
 10
-159.419335
 20
-96.794419
 30
0.0
 11
-178.523773
 21
-96.794419
 31
0.0
  0
POINT
  5
1A1
100
AcDbEntity
  8
2
370
    50
100
AcDbPoint
 10
-159.419335
 20
-84.794419
 30
0.0
  0
POINT
  5
1A2
100
AcDbEntity
  8
2
370
    50
100
AcDbPoint
 10
-178.523773
 20
-65.023351
 30
0.0
  0
POINT
  5
1A3
100
AcDbEntity
  8
2
370
    50
100
AcDbPoint
 10
-184.094617
 20
-68.794967
 30
0.0
  0
POINT
  5
1A4
100
AcDbEntity
  8
2
370
    50
100
AcDbPoint
 10
-178.523773
 20
-84.794419
 30
0.0
  0
POINT
  5
1A5
100
AcDbEntity
  8
2
370
    50
100
AcDbPoint
 10
-154.346321
 20
-90.794419
 30
0.0
  0
ARC
  5
1A6
100
AcDbEntity
  8
2
370
    50
100
AcDbCircle
 10
-160.431015
 20
-90.794419
 30
0.0
 40
6.084694
100
AcDbArc
 50
279.570804
 51
80.429196
  0
ARC
  5
1A7
100
AcDbEntity
  8
2
370
    50
100
AcDbCircle
 10
-178.078087
 20
-90.794419
 30
0.0
 40
6.01653
100
AcDbArc
 50
94.248184
 51
274.248184
  0
LINE
  5
1A8
100
AcDbEntity
  8
2
370
    50
100
AcDbLine
 10
268.075011
 20
71.006062
 30
0.0
 11
281.87531
 21
71.006062
 31
0.0
  0
LINE
  5
1A9
100
AcDbEntity
  8
2
370
    50
100
AcDbLine
 10
268.075011
 20
49.406062
 30
0.0
 11
273.77531
 21
49.406062
 31
0.0
  0
ARC
  5
1AA
100
AcDbEntity
  8
2
370
    50
100
AcDbCircle
 10
281.87531
 20
56.006062
 30
0.0
 40
15.0
100
AcDbArc
 50
0.0
 51
90.0
  0
LINE
  5
1AB
100
AcDbEntity
  8
2
370
    50
100
AcDbLine
 10
296.87531
 20
45.206062
 30
0.0
 11
275.27531
 21
45.206062
 31
0.0
  0
POINT
  5
1AC
100
AcDbEntity
  8
2
370
    50
100
AcDbPoint
 10
-144.375549
 20
-90.794967
 30
0.0
  0
POINT
  5
1AD
100
AcDbEntity
  8
2
370
    50
100
AcDbPoint
 10
-345.721032
 20
-90.794419
 30
0.0
  0
LINE
  5
1AE
100
AcDbEntity
  8
2
370
    50
100
AcDbLine
 10
267.075011
 20
73.205232
 30
0.0
 11
267.075011
 21
47.205232
 31
0.0
  0
LINE
  5
1AF
100
AcDbEntity
  8
2
370
    50
100
AcDbLine
 10
177.175011
 20
14.206495
 30
0.0
 11
173.820663
 21
14.206495
 31
0.0
  0
ARC
  5
1B0
100
AcDbEntity
  8
2
370
    50
100
AcDbCircle
 10
326.175011
 20
39.425536
 30
0.0
 40
160.0
100
AcDbArc
 50
180.0
 51
187.004549
  0
LINE
  5
1B1
100
AcDbEntity
  8
2
370
    50
100
AcDbLine
 10
206.192464
 20
82.223646
 30
0.0
 11
189.900818
 21
82.508017
 31
0.0
  0
LINE
  5
1B2
100
AcDbEntity
  8
2
370
    50
100
AcDbLine
 10
199.567842
 20
38.073712
 30
0.0
 11
181.175011
 21
37.752664
 31
0.0
  0
LINE
  5
1B3
100
AcDbEntity
  8
2
370
    50
100
AcDbLine
 10
184.725011
 20
87.206495
 30
0.0
 11
175.625011
 21
87.206495
 31
0.0
  0
ARC
  5
1B4
100
AcDbEntity
  8
2
370
    50
100
AcDbCircle
 10
173.820663
 20
20.706495
 30
0.0
 40
6.5
100
AcDbArc
 50
187.004549
 51
270.0
  0
ARC
  5
1B5
100
AcDbEntity
  8
2
370
    50
100
AcDbCircle
 10
177.175011
 20
18.206495
 30
0.0
 40
4.0
100
AcDbArc
 50
270.0
 51
0.0
  0
ARC
  5
1B6
100
AcDbEntity
  8
2
370
    50
100
AcDbCircle
 10
172.675011
 20
79.206495
 30
0.0
 40
6.5
100
AcDbArc
 50
90.0
 51
180.0
  0
ARC
  5
1B7
100
AcDbEntity
  8
2
370
    50
100
AcDbCircle
 10
185.675011
 20
81.706495
 30
0.0
 40
4.0
100
AcDbArc
 50
15.846399
 51
79.351803
  0
LINE
  5
1B8
100
AcDbEntity
  8
2
370
    50
100
AcDbLine
 10
172.675011
 20
85.706495
 30
0.0
 11
173.767594
 21
85.706495
 31
0.0
  0
ARC
  5
1B9
100
AcDbEntity
  8
2
370
    50
100
AcDbCircle
 10
175.625011
 20
86.306495
 30
0.0
 40
0.9
100
AcDbArc
 50
90.0
 51
167.846803
  0
ARC
  5
1BA
100
AcDbEntity
  8
2
370
    50
100
AcDbCircle
 10
184.725011
 20
86.306495
 30
0.0
 40
0.9
100
AcDbArc
 50
9.509505
 51
90.0
  0
ARC
  5
1BB
100
AcDbEntity
  8
2
370
    50
100
AcDbCircle
 10
189.907799
 20
82.907957
 30
0.0
 40
0.4
100
AcDbArc
 50
195.846399
 51
269.0
  0
LINE
  5
1BC
100
AcDbEntity
  8
2
370
    50
100
AcDbLine
 10
166.175011
 20
41.606495
 30
0.0
 11
165.675011
 21
41.606495
 31
0.0
  0
LINE
  5
1BD
100
AcDbEntity
  8
2
370
    50
100
AcDbLine
 10
166.175011
 20
78.806495
 30
0.0
 11
165.675011
 21
78.806495
 31
0.0
  0
ARC
  5
1BE
100
AcDbEntity
  8
2
370
    50
100
AcDbCircle
 10
179.204239
 20
60.206495
 30
0.0
 40
23.0
100
AcDbArc
 50
126.031312
 51
233.968688
  0
ARC
  5
1BF
100
AcDbEntity
  8
2
370
    50
100
AcDbCircle
 10
186.598902
 20
86.620397
 30
0.0
 40
1.0
100
AcDbArc
 50
189.509505
 51
259.351803
  0
ARC
  5
1C0
100
AcDbEntity
  8
2
370
    50
100
AcDbCircle
 10
173.767594
 20
86.706495
 30
0.0
 40
1.0
100
AcDbArc
 50
270.0
 51
347.846803
  0
LINE
  5
1C1
100
AcDbEntity
  8
2
370
    50
100
AcDbLine
 10
207.175011
 20
39.705648
 30
0.0
 11
207.175011
 21
81.223798
 31
0.0
  0
LINE
  5
1C2
100
AcDbEntity
  8
2
370
    50
100
AcDbLine
 10
166.175011
 20
39.425536
 30
0.0
 11
166.175011
 21
60.206495
 31
0.0
  0
LINE
  5
1C3
100
AcDbEntity
  8
2
370
    50
100
AcDbLine
 10
166.175011
 20
60.206495
 30
0.0
 11
166.175011
 21
79.206495
 31
0.0
  0
LINE
  5
1C4
100
AcDbEntity
  8
2
370
    50
100
AcDbLine
 10
181.175011
 20
18.206495
 30
0.0
 11
181.175011
 21
73.860579
 31
0.0
  0
ARC
  5
1C5
100
AcDbEntity
  8
2
370
    50
100
AcDbCircle
 10
206.175011
 20
81.223798
 30
0.0
 40
1.0
100
AcDbArc
 50
0.0
 51
89.0
  0
POINT
  5
1C6
100
AcDbEntity
  8
2
370
    50
100
AcDbPoint
 10
230.07481
 20
-104.594349
 30
0.0
  0
ARC
  5
1C7
100
AcDbEntity
  8
2
370
    50
100
AcDbCircle
 10
273.77531
 20
47.906062
 30
0.0
 40
1.5
100
AcDbArc
 50
0.0
 51
90.0
  0
LINE
  5
1C8
100
AcDbEntity
  8
2
370
    50
100
AcDbLine
 10
218.629511
 20
-20.794768
 30
0.0
 11
218.629511
 21
-18.794768
 31
0.0
  0
LINE
  5
1C9
100
AcDbEntity
  8
2
370
    50
100
AcDbLine
 10
241.520511
 20
-20.794768
 30
0.0
 11
241.520511
 21
-18.794768
 31
0.0
  0
LINE
  5
1CA
100
AcDbEntity
  8
2
370
    50
100
AcDbLine
 10
296.87531
 20
45.206062
 30
0.0
 11
296.87531
 21
56.006062
 31
0.0
  0
LINE
  5
1CB
100
AcDbEntity
  8
2
370
    50
100
AcDbLine
 10
275.27531
 20
45.206062
 30
0.0
 11
275.27531
 21
47.906062
 31
0.0
  0
LINE
  5
1CC
100
AcDbEntity
  8
2
370
    50
100
AcDbLine
 10
207.175011
 20
73.606495
 30
0.0
 11
208.075011
 21
73.606495
 31
0.0
  0
LINE
  5
1CD
100
AcDbEntity
  8
2
370
    50
100
AcDbLine
 10
207.175011
 20
46.806495
 30
0.0
 11
208.075011
 21
46.806495
 31
0.0
  0
POINT
  5
1CE
100
AcDbEntity
  8
2
370
    50
100
AcDbPoint
 10
230.075011
 20
60.206026
 30
0.0
  0
POINT
  5
1CF
100
AcDbEntity
  8
2
370
    50
100
AcDbPoint
 10
230.075495
 20
60.206495
 30
0.0
  0
POINT
  5
1D0
100
AcDbEntity
  8
2
370
    50
100
AcDbPoint
 10
-274.845798
 20
-63.793645
 30
0.0
  0
ARC
  5
1D1
100
AcDbEntity
  8
2
370
    50
100
AcDbCircle
 10
-200.172859
 20
-105.437417
 30
0.0
 40
60.0
100
AcDbArc
 50
150.852617
 51
171.512406
  0
ARC
  5
1D2
100
AcDbEntity
  8
2
370
    50
100
AcDbCircle
 10
-349.519083
 20
-105.437417
 30
0.0
 40
60.0
100
AcDbArc
 50
8.487594
 51
29.147383
  0
ARC
  5
1D3
100
AcDbEntity
  8
2
370
    50
100
AcDbCircle
 10
-274.845971
 20
-94.293974
 30
0.0
 40
15.5
100
AcDbArc
 50
188.487594
 51
351.512406
  0
ARC
  5
1D4
100
AcDbEntity
  8
2
370
    50
100
AcDbCircle
 10
-274.845971
 20
-63.793974
 30
0.0
 40
25.5
100
AcDbArc
 50
330.852617
 51
209.147383
  0
CIRCLE
  5
1D5
100
AcDbEntity
  8
2
370
    50
100
AcDbCircle
 10
-274.845971
 20
-63.793974
 30
0.0
 40
17.75
  0
LINE
  5
1D6
100
AcDbEntity
  8
2
370
    50
100
AcDbLine
 10
-280.495971
 20
-37.693974
 30
0.0
 11
-280.495971
 21
-38.610497
 31
0.0
  0
LINE
  5
1D7
100
AcDbEntity
  8
2
370
    50
100
AcDbLine
 10
-269.195971
 20
-37.693974
 30
0.0
 11
-269.195971
 21
-38.610497
 31
0.0
  0
LINE
  5
1D8
100
AcDbEntity
  8
2
370
    50
100
AcDbLine
 10
-270.095971
 20
-36.793974
 30
0.0
 11
-279.595971
 21
-36.793974
 31
0.0
  0
ARC
  5
1D9
100
AcDbEntity
  8
2
370
    50
100
AcDbCircle
 10
-270.095971
 20
-37.693974
 30
0.0
 40
0.9
100
AcDbArc
 50
0.0
 51
90.0
  0
ARC
  5
1DA
100
AcDbEntity
  8
2
370
    50
100
AcDbCircle
 10
-279.595971
 20
-37.693974
 30
0.0
 40
0.9
100
AcDbArc
 50
90.0
 51
180.0
  0
LINE
  5
1DB
100
AcDbEntity
  8
2
370
    50
100
AcDbLine
 10
-278.895971
 20
-32.398747
 30
0.0
 11
-278.895971
 21
-36.793974
 31
0.0
  0
LINE
  5
1DC
100
AcDbEntity
  8
2
370
    50
100
AcDbLine
 10
-270.795971
 20
-32.398747
 30
0.0
 11
-270.795971
 21
-36.793974
 31
0.0
  0
ARC
  5
1DD
100
AcDbEntity
  8
2
370
    50
100
AcDbCircle
 10
-274.845971
 20
-39.794523
 30
0.0
 40
9.0
100
AcDbArc
 50
67.588868
 51
112.411132
  0
ARC
  5
1DE
100
AcDbEntity
  8
2
370
    50
100
AcDbCircle
 10
-271.795971
 20
-32.398747
 30
0.0
 40
1.0
100
AcDbArc
 50
0.0
 51
67.588868
  0
ARC
  5
1DF
100
AcDbEntity
  8
2
370
    50
100
AcDbCircle
 10
-277.895971
 20
-32.398747
 30
0.0
 40
1.0
100
AcDbArc
 50
112.411132
 51
180.0
  0
POINT
  5
1E0
100
AcDbEntity
  8
2
370
    50
100
AcDbPoint
 10
-274.846123
 20
-33.293529
 30
0.0
  0
POINT
  5
1E1
100
AcDbEntity
  8
2
370
    50
100
AcDbPoint
 10
-274.845639
 20
-33.29306
 30
0.0
  0
ARC
  5
1E2
100
AcDbEntity
  8
2
370
    50
100
AcDbCircle
 10
-268.795971
 20
-38.610497
 30
0.0
 40
0.4
100
AcDbArc
 50
180.0
 51
256.491434
  0
ARC
  5
1E3
100
AcDbEntity
  8
2
370
    50
100
AcDbCircle
 10
-280.895971
 20
-38.610497
 30
0.0
 40
0.4
100
AcDbArc
 50
283.508566
 51
360.0
  0
LINE
  5
1E4
100
AcDbEntity
  8
2
370
    50
100
AcDbLine
 10
-294.545971
 20
-39.794419
 30
0.0
 11
-283.464054
 21
-39.794419
 31
0.0
  0
LINE
  5
1E5
100
AcDbEntity
  8
2
370
    50
100
AcDbLine
 10
-266.227888
 20
-39.794419
 30
0.0
 11
-255.145971
 21
-39.794419
 31
0.0
  0
LINE
  5
1E6
100
AcDbEntity
  8
2
370
    50
100
AcDbLine
 10
165.675011
 20
78.806495
 30
0.0
 11
165.675011
 21
41.606495
 31
0.0
  0
ARC
  5
1E7
100
AcDbEntity
  8
2
370
    50
100
AcDbCircle
 10
187.697843
 20
82.280669
 30
0.0
 40
1.897258
100
AcDbArc
 50
270.0
 51
15.846399
  0
ARC
  5
1E8
100
AcDbEntity
  8
2
370
    50
100
AcDbCircle
 10
187.697843
 20
73.860579
 30
0.0
 40
6.522831
100
AcDbArc
 50
90.0
 51
180.0
  0
LINE
  5
1E9
100
AcDbEntity
  8
2
370
    25
100
AcDbLine
 10
185.421487
 20
85.637616
 30
0.0
 11
174.869138
 21
85.637616
 31
0.0
  0
LINE
  5
1EA
100
AcDbEntity
  8
2
370
    50
100
AcDbLine
 10
176.125011
 20
91.601723
 30
0.0
 11
176.125011
 21
87.206495
 31
0.0
  0
LINE
  5
1EB
100
AcDbEntity
  8
2
370
    50
100
AcDbLine
 10
184.225011
 20
91.601723
 30
0.0
 11
184.225011
 21
87.206495
 31
0.0
  0
ARC
  5
1EC
100
AcDbEntity
  8
2
370
    50
100
AcDbCircle
 10
180.175011
 20
84.205947
 30
0.0
 40
9.0
100
AcDbArc
 50
67.588868
 51
112.411132
  0
ARC
  5
1ED
100
AcDbEntity
  8
2
370
    50
100
AcDbCircle
 10
183.225011
 20
91.601723
 30
0.0
 40
1.0
100
AcDbArc
 50
0.0
 51
67.588868
  0
ARC
  5
1EE
100
AcDbEntity
  8
2
370
    50
100
AcDbCircle
 10
177.125011
 20
91.601723
 30
0.0
 40
1.0
100
AcDbArc
 50
112.411132
 51
180.0
  0
POINT
  5
1EF
100
AcDbEntity
  8
2
370
    50
100
AcDbPoint
 10
180.175343
 20
90.70741
 30
0.0
  0
POINT
  5
1F0
100
AcDbEntity
  8
2
370
    50
100
AcDbPoint
 10
156.204239
 20
60.206495
 30
0.0
  0
LINE
  5
1F1
100
AcDbEntity
  8
2
370
    50
100
AcDbLine
 10
-198.84628
 20
177.409465
 30
0.0
 11
-198.84628
 21
221.409465
 31
0.0
  0
LINE
  5
1F2
100
AcDbEntity
  8
2
370
    50
100
AcDbLine
 10
-341.845971
 20
177.409465
 30
0.0
 11
-341.845971
 21
221.409465
 31
0.0
  0
LINE
  5
1F3
100
AcDbEntity
  8
2
370
    50
100
AcDbLine
 10
-341.845971
 20
221.409465
 30
0.0
 11
-198.84628
 21
221.409465
 31
0.0
  0
ARC
  5
1F4
100
AcDbEntity
  8
2
370
    50
100
AcDbCircle
 10
-295.721032
 20
199.410013
 30
0.0
 40
50.0
100
AcDbArc
 50
157.294164
 51
202.705836
  0
LINE
  5
1F5
100
AcDbEntity
  8
2
370
    50
100
AcDbLine
 10
-198.84628
 20
215.009601
 30
0.0
 11
-198.346341
 21
215.009601
 31
0.0
  0
LINE
  5
1F6
100
AcDbEntity
  8
2
370
    50
100
AcDbLine
 10
-198.84628
 20
183.809601
 30
0.0
 11
-198.346341
 21
183.809601
 31
0.0
  0
LINE
  5
1F7
100
AcDbEntity
  8
2
370
    50
100
AcDbLine
 10
-197.346341
 20
177.409465
 30
0.0
 11
-184.094412
 21
177.409465
 31
0.0
  0
LINE
  5
1F8
100
AcDbEntity
  8
2
370
    50
100
AcDbLine
 10
-153.846341
 20
180.809465
 30
0.0
 11
-154.346341
 21
180.809465
 31
0.0
  0
LINE
  5
1F9
100
AcDbEntity
  8
2
370
    50
100
AcDbLine
 10
-153.846341
 20
218.009465
 30
0.0
 11
-154.346341
 21
218.009465
 31
0.0
  0
ARC
  5
1FA
100
AcDbEntity
  8
2
370
    50
100
AcDbCircle
 10
-167.375569
 20
199.409465
 30
0.0
 40
23.0
100
AcDbArc
 50
306.031312
 51
53.968688
  0
LINE
  5
1FB
100
AcDbEntity
  8
2
370
    25
100
AcDbLine
 10
-154.346341
 20
182.940123
 30
0.0
 11
-154.346341
 21
182.909465
 31
0.0
  0
ARC
  5
1FC
100
AcDbEntity
  8
2
370
    50
100
AcDbCircle
 10
-197.346341
 20
178.409465
 30
0.0
 40
1.0
100
AcDbArc
 50
180.0
 51
270.0
  0
ARC
  5
1FD
100
AcDbEntity
  8
2
370
    50
100
AcDbCircle
 10
-197.346341
 20
220.409465
 30
0.0
 40
1.0
100
AcDbArc
 50
90.0
 51
180.0
  0
LINE
  5
1FE
100
AcDbEntity
  8
2
370
    50
100
AcDbLine
 10
-197.346341
 20
221.409465
 30
0.0
 11
-182.059241
 21
221.409465
 31
0.0
  0
LINE
  5
1FF
100
AcDbEntity
  8
2
370
    50
100
AcDbLine
 10
-154.346341
 20
180.409465
 30
0.0
 11
-154.346341
 21
218.409465
 31
0.0
  0
LINE
  5
200
100
AcDbEntity
  8
2
370
    50
100
AcDbLine
 10
-198.346341
 20
178.409465
 30
0.0
 11
-198.346341
 21
220.409465
 31
0.0
  0
CIRCLE
  5
201
100
AcDbEntity
  8
2
370
    50
100
AcDbCircle
 10
-179.846341
 20
199.409481
 30
0.0
 40
4.25
  0
CIRCLE
  5
202
100
AcDbEntity
  8
2
370
    50
100
AcDbCircle
 10
-179.846341
 20
199.409481
 30
0.0
 40
5.45
  0
ARC
  5
203
100
AcDbEntity
  8
2
370
    50
100
AcDbCircle
 10
-167.396341
 20
208.409481
 30
0.0
 40
18.0
100
AcDbArc
 50
64.500936
 51
127.658526
  0
ARC
  5
204
100
AcDbEntity
  8
2
370
    50
100
AcDbCircle
 10
-163.952371
 20
215.63022
 30
0.0
 40
10.0
100
AcDbArc
 50
16.136372
 51
64.500936
  0
ARC
  5
205
100
AcDbEntity
  8
2
370
    50
100
AcDbCircle
 10
-167.846341
 20
177.909481
 30
0.0
 40
11.5
100
AcDbArc
 50
201.803806
 51
317.118942
  0
ARC
  5
206
100
AcDbEntity
  8
2
370
    50
100
AcDbCircle
 10
-174.074869
 20
183.69355
 30
0.0
 40
20.0
100
AcDbArc
 50
317.118942
 51
350.54899
  0
CIRCLE
  5
207
100
AcDbEntity
  8
2
370
    50
100
AcDbCircle
 10
-202.84628
 20
199.409481
 30
0.0
 40
2.0
  0
LINE
  5
208
100
AcDbEntity
  8
2
370
    50
100
AcDbLine
 10
-287.845971
 20
223.409465
 30
0.0
 11
-287.845971
 21
236.409465
 31
0.0
  0
LINE
  5
209
100
AcDbEntity
  8
2
370
    50
100
AcDbLine
 10
-261.845971
 20
223.409465
 30
0.0
 11
-261.845971
 21
236.409465
 31
0.0
  0
ARC
  5
20A
100
AcDbEntity
  8
2
370
    50
100
AcDbCircle
 10
-289.845971
 20
223.409465
 30
0.0
 40
2.0
100
AcDbArc
 50
270.0
 51
360.0
  0
ARC
  5
20B
100
AcDbEntity
  8
2
370
    50
100
AcDbCircle
 10
-259.845971
 20
223.409465
 30
0.0
 40
2.0
100
AcDbArc
 50
180.0
 51
270.0
  0
LINE
  5
20C
100
AcDbEntity
  8
2
370
    50
100
AcDbLine
 10
-286.845971
 20
237.409465
 30
0.0
 11
-262.845971
 21
237.409465
 31
0.0
  0
LINE
  5
20D
100
AcDbEntity
  8
2
370
    50
100
AcDbLine
 10
-287.845971
 20
236.409465
 30
0.0
 11
-286.845971
 21
237.409465
 31
0.0
  0
LINE
  5
20E
100
AcDbEntity
  8
2
370
    50
100
AcDbLine
 10
-261.845971
 20
236.409465
 30
0.0
 11
-262.845971
 21
237.409465
 31
0.0
  0
LINE
  5
20F
100
AcDbEntity
  8
2
370
    50
100
AcDbLine
 10
-287.845971
 20
236.409465
 30
0.0
 11
-261.845971
 21
236.409465
 31
0.0
  0
ARC
  5
210
100
AcDbEntity
  8
2
370
    50
100
AcDbCircle
 10
-274.845971
 20
255.409465
 30
0.0
 40
10.8
100
AcDbArc
 50
0.0
 51
180.0
  0
ARC
  5
211
100
AcDbEntity
  8
2
370
    50
100
AcDbCircle
 10
-274.845971
 20
255.409465
 30
0.0
 40
11.5
100
AcDbArc
 50
339.906033
 51
200.093967
  0
LINE
  5
212
100
AcDbEntity
  8
2
370
    50
100
AcDbLine
 10
-270.130788
 20
180.521345
 30
0.0
 11
-270.527244
 21
180.188679
 31
0.0
  0
ARC
  5
213
100
AcDbEntity
  8
2
370
    25
100
AcDbCircle
 10
-261.289012
 20
199.409465
 30
0.0
 40
50.0
100
AcDbArc
 50
158.671952
 51
202.105008
  0
ARC
  5
214
100
AcDbEntity
  8
2
370
    25
100
AcDbCircle
 10
-288.40293
 20
199.409465
 30
0.0
 40
50.0
100
AcDbArc
 50
344.300282
 51
21.328048
  0
LINE
  5
215
100
AcDbEntity
  8
2
370
    50
100
AcDbLine
 10
-341.845971
 20
177.409465
 30
0.0
 11
-258.681874
 21
177.409465
 31
0.0
  0
LINE
  5
216
100
AcDbEntity
  8
2
370
    50
100
AcDbLine
 10
-228.171555
 20
177.409465
 30
0.0
 11
-198.84628
 21
177.409465
 31
0.0
  0
LINE
  5
217
100
AcDbEntity
  8
2
370
    50
100
AcDbLine
 10
-295.863274
 20
176.509465
 30
0.0
 11
-257.396541
 21
176.509465
 31
0.0
  0
LINE
  5
218
100
AcDbEntity
  8
2
370
    50
100
AcDbLine
 10
-293.845971
 20
135.509465
 30
0.0
 11
-255.845971
 21
135.509465
 31
0.0
  0
LINE
  5
219
100
AcDbEntity
  8
2
370
    50
100
AcDbLine
 10
-300.345971
 20
142.009465
 30
0.0
 11
-300.345971
 21
145.509465
 31
0.0
  0
LINE
  5
21A
100
AcDbEntity
  8
2
370
    50
100
AcDbLine
 10
-249.345971
 20
142.009465
 30
0.0
 11
-249.345971
 21
145.509465
 31
0.0
  0
ARC
  5
21B
100
AcDbEntity
  8
2
370
    50
100
AcDbCircle
 10
-293.845971
 20
142.009465
 30
0.0
 40
6.5
100
AcDbArc
 50
180.0
 51
270.0
  0
ARC
  5
21C
100
AcDbEntity
  8
2
370
    50
100
AcDbCircle
 10
-255.845971
 20
142.009465
 30
0.0
 40
6.5
100
AcDbArc
 50
270.0
 51
0.0
  0
ARC
  5
21D
100
AcDbEntity
  8
2
370
    50
100
AcDbCircle
 10
-253.345971
 20
145.509465
 30
0.0
 40
4.0
100
AcDbArc
 50
0.0
 51
90.0
  0
ARC
  5
21E
100
AcDbEntity
  8
2
370
    50
100
AcDbCircle
 10
-296.345971
 20
145.509465
 30
0.0
 40
4.0
100
AcDbArc
 50
90.0
 51
180.0
  0
ARC
  5
21F
100
AcDbEntity
  8
2
370
    50
100
AcDbCircle
 10
-274.845971
 20
149.509465
 30
0.0
 40
9.5
100
AcDbArc
 50
17.235285
 51
162.764715
  0
LINE
  5
220
100
AcDbEntity
  8
2
370
    50
100
AcDbLine
 10
-296.345971
 20
149.509465
 30
0.0
 11
-287.739768
 21
149.509465
 31
0.0
  0
LINE
  5
221
100
AcDbEntity
  8
2
370
    50
100
AcDbLine
 10
-261.952174
 20
149.509465
 30
0.0
 11
-253.345971
 21
149.509465
 31
0.0
  0
ARC
  5
222
100
AcDbEntity
  8
2
370
    50
100
AcDbCircle
 10
-261.952174
 20
153.509465
 30
0.0
 40
4.0
100
AcDbArc
 50
197.235285
 51
270.0
  0
ARC
  5
223
100
AcDbEntity
  8
2
370
    50
100
AcDbCircle
 10
-287.739768
 20
153.509465
 30
0.0
 40
4.0
100
AcDbArc
 50
270.0
 51
342.764715
  0
LINE
  5
224
100
AcDbEntity
  8
2
370
    50
100
AcDbLine
 10
-296.863121
 20
175.526917
 30
0.0
 11
-297.319357
 21
149.389223
 31
0.0
  0
LINE
  5
225
100
AcDbEntity
  8
2
370
    50
100
AcDbLine
 10
-252.789665
 20
173.283695
 30
0.0
 11
-252.372585
 21
149.389223
 31
0.0
  0
ARC
  5
226
100
AcDbEntity
  8
2
370
    50
100
AcDbCircle
 10
-295.863274
 20
175.509465
 30
0.0
 40
1.0
100
AcDbArc
 50
90.0
 51
179.0
  0
LINE
  5
227
100
AcDbEntity
  8
2
370
    50
100
AcDbLine
 10
-288.245971
 20
176.509465
 30
0.0
 11
-288.245971
 21
177.409465
 31
0.0
  0
CIRCLE
  5
228
100
AcDbEntity
  8
2
370
    50
100
AcDbCircle
 10
-274.845971
 20
149.509465
 30
0.0
 40
4.05
  0
CIRCLE
  5
229
100
AcDbEntity
  8
2
370
    50
100
AcDbCircle
 10
-274.845971
 20
149.509465
 30
0.0
 40
5.45
  0
CIRCLE
  5
22A
100
AcDbEntity
  8
2
370
    50
100
AcDbCircle
 10
-274.845971
 20
149.509465
 30
0.0
 40
4.25
  0
LINE
  5
22B
100
AcDbEntity
  8
2
370
    50
100
AcDbLine
 10
-153.846341
 20
218.009465
 30
0.0
 11
-153.846341
 21
180.809465
 31
0.0
  0
LINE
  5
22C
100
AcDbEntity
  8
2
370
    50
100
AcDbLine
 10
-256.245971
 20
135.509465
 30
0.0
 11
-256.245971
 21
135.009465
 31
0.0
  0
LINE
  5
22D
100
AcDbEntity
  8
2
370
    50
100
AcDbLine
 10
-293.445971
 20
135.509465
 30
0.0
 11
-293.445971
 21
135.009465
 31
0.0
  0
ARC
  5
22E
100
AcDbEntity
  8
2
370
    50
100
AcDbCircle
 10
-274.845971
 20
148.538692
 30
0.0
 40
23.0
100
AcDbArc
 50
216.031312
 51
323.968688
  0
LINE
  5
22F
100
AcDbEntity
  8
2
370
    50
100
AcDbLine
 10
-293.445971
 20
135.009465
 30
0.0
 11
-256.245971
 21
135.009465
 31
0.0
  0
LINE
  5
230
100
AcDbEntity
  8
2
370
    50
100
AcDbLine
 10
211.513568
 20
-15.597114
 30
0.0
 11
208.075011
 21
-42.294768
 31
0.0
  0
ARC
  5
231
100
AcDbEntity
  8
2
370
    50
100
AcDbCircle
 10
204.075011
 20
-14.639056
 30
0.0
 40
7.5
100
AcDbArc
 50
352.660924
 51
57.769047
  0
LINE
  5
232
100
AcDbEntity
  8
2
370
    50
100
AcDbLine
 10
251.075011
 20
-45.2941
 30
0.0
 11
251.075011
 21
-42.2941
 31
0.0
  0
LINE
  5
233
100
AcDbEntity
  8
2
370
    50
100
AcDbLine
 10
209.075011
 20
-45.2941
 30
0.0
 11
209.075011
 21
-42.294768
 31
0.0
  0
ARC
  5
234
100
AcDbEntity
  8
2
370
    50
100
AcDbCircle
 10
-184.094412
 20
171.409465
 30
0.0
 40
6.0
100
AcDbArc
 50
21.803806
 51
90.0
  0
ARC
  5
235
100
AcDbEntity
  8
2
370
    50
100
AcDbCircle
 10
-182.059241
 20
227.409465
 30
0.0
 40
6.0
100
AcDbArc
 50
270.0
 51
307.658526
  0
LINE
  5
236
100
AcDbEntity
  8
2
370
    25
100
AcDbLine
 10
-179.335466
 20
220.409465
 30
0.0
 11
-164.881995
 21
220.409465
 31
0.0
  0
ARC
  5
237
100
AcDbEntity
  8
2
370
    25
100
AcDbCircle
 10
-164.881995
 20
201.409465
 30
0.0
 40
19.0
100
AcDbArc
 50
58.211669
 51
90.0
  0
LINE
  5
238
100
AcDbEntity
  8
2
370
    25
100
AcDbLine
 10
-179.335466
 20
178.409465
 30
0.0
 11
-164.881995
 21
178.409465
 31
0.0
  0
ARC
  5
239
100
AcDbEntity
  8
2
370
    25
100
AcDbCircle
 10
-164.881995
 20
197.409465
 30
0.0
 40
19.0
100
AcDbArc
 50
270.0
 51
301.788331
  0
ARC
  5
23A
100
AcDbEntity
  8
2
370
    50
100
AcDbCircle
 10
-247.384386
 20
-143.794355
 30
0.0
 40
50.0
100
AcDbArc
 50
346.11346
 51
13.88654
  0
ARC
  5
23B
100
AcDbEntity
  8
2
370
    50
100
AcDbCircle
 10
-293.307556
 20
-143.794355
 30
0.0
 40
50.0
100
AcDbArc
 50
166.11346
 51
193.88654
  0
POINT
  5
23C
100
AcDbEntity
  8
2
370
    50
100
AcDbPoint
 10
-274.845971
 20
199.409465
 30
0.0
  0
LINE
  5
23D
100
AcDbEntity
  8
2
370
    50
100
AcDbLine
 10
-169.873422
 20
113.088761
 30
0.0
 11
-157.828316
 21
130.290954
 31
0.0
  0
LINE
  5
23E
100
AcDbEntity
  8
2
370
    50
100
AcDbLine
 10
-168.808694
 20
111.122456
 30
0.0
 11
-147.142064
 21
95.951319
 31
0.0
  0
LINE
  5
23F
100
AcDbEntity
  8
2
370
    50
100
AcDbLine
 10
-155.616436
 20
129.962953
 30
0.0
 11
-133.949806
 21
114.791816
 31
0.0
  0
ARC
  5
240
100
AcDbEntity
  8
2
370
    50
100
AcDbCircle
 10
-126.169875
 20
95.305342
 30
0.0
 40
18.5
100
AcDbArc
 50
191.509642
 51
98.490358
  0
ARC
  5
241
100
AcDbEntity
  8
2
370
    50
100
AcDbCircle
 10
-129.934771
 20
120.52588
 30
0.0
 40
7.0
100
AcDbArc
 50
235.0
 51
278.490358
  0
ARC
  5
242
100
AcDbEntity
  8
2
370
    50
100
AcDbCircle
 10
-151.157099
 20
90.217254
 30
0.0
 40
7.0
100
AcDbArc
 50
11.509642
 51
55.0
  0
LINE
  5
243
100
AcDbEntity
  8
2
370
    50
100
AcDbLine
 10
-168.808694
 20
111.122456
 30
0.0
 11
-155.616436
 21
129.962953
 31
0.0
  0
LINE
  5
244
100
AcDbEntity
  8
2
370
    50
100
AcDbLine
 10
-168.808694
 20
111.122456
 30
0.0
 11
-169.873422
 21
113.088761
 31
0.0
  0
LINE
  5
245
100
AcDbEntity
  8
2
370
    50
100
AcDbLine
 10
-155.616436
 20
129.962953
 30
0.0
 11
-157.828316
 21
130.290954
 31
0.0
  0
ELLIPSE
  5
246
100
AcDbEntity
  8
2
370
    50
100
AcDbEllipse
 10
-138.849308
 20
84.646346
 30
0.0
 11
-5.1245599999999998
 21
6.1072129999999998
 31
0.0
210
0.0
220
0.0
230
1.0
 40
0.25135
 41
3.076479
 42
0.073504
  0
ELLIPSE
  5
247
100
AcDbEntity
  8
2
370
    50
100
AcDbEllipse
 10
-120.490317
 20
110.865702
 30
0.0
 11
7.4916049999999998
 21
-2.726721
 31
0.0
210
0.0
220
0.0
230
1.0
 40
0.25135
 41
3.0680890000000001
 42
0.065114
  0
LINE
  5
248
100
AcDbEntity
  8
2
370
    50
100
AcDbLine
 10
-277.473062
 20
179.885418
 30
0.0
 11
-292.294056
 21
190.26319
 31
0.0
  0
LINE
  5
249
100
AcDbEntity
  8
2
370
    50
100
AcDbLine
 10
-267.450151
 20
183.549079
 30
0.0
 11
-275.649107
 21
179.725843
 31
0.0
  0
LINE
  5
24A
100
AcDbEntity
  8
2
370
    50
100
AcDbLine
 10
-272.21888
 20
218.933511
 30
0.0
 11
-257.397887
 21
208.55574
 31
0.0
  0
LINE
  5
24B
100
AcDbEntity
  8
2
370
    50
100
AcDbLine
 10
-290.440746
 20
211.446615
 30
0.0
 11
-274.042835
 21
219.093087
 31
0.0
  0
LINE
  5
24C
100
AcDbEntity
  8
2
370
    50
100
AcDbLine
 10
-293.067837
 20
191.922569
 30
0.0
 11
-291.49092
 21
209.946812
 31
0.0
  0
ARC
  5
24D
100
AcDbEntity
  8
2
370
    50
100
AcDbCircle
 10
-274.845971
 20
199.409465
 30
0.0
 40
19.7
100
AcDbArc
 50
351.369764
 51
298.630236
  0
ARC
  5
24E
100
AcDbEntity
  8
2
370
    50
100
AcDbCircle
 10
-274.845971
 20
199.409465
 30
0.0
 40
8.75
100
AcDbArc
 50
55.0
 51
235.0
  0
LINE
  5
24F
100
AcDbEntity
  8
2
370
    50
100
AcDbLine
 10
-257.412564
 20
197.884239
 30
0.0
 11
-256.624105
 21
206.896361
 31
0.0
  0
ARC
  5
250
100
AcDbEntity
  8
2
370
    50
100
AcDbCircle
 10
-274.845971
 20
199.409465
 30
0.0
 40
12.25
100
AcDbArc
 50
10.584691
 51
279.415309
  0
LINE
  5
251
100
AcDbEntity
  8
2
370
    50
100
AcDbLine
 10
-158.832075
 20
128.857438
 30
0.0
 11
-269.827177
 21
206.577045
 31
0.0
  0
LINE
  5
252
100
AcDbEntity
  8
2
370
    50
100
AcDbLine
 10
-168.869663
 20
114.522277
 30
0.0
 11
-279.864765
 21
192.241884
 31
0.0
  0
POINT
  5
253
100
AcDbEntity
  8
2
370
    50
100
AcDbPoint
 10
-274.845873
 20
-39.794384
 30
0.0
  0
LINE
  5
254
100
AcDbEntity
  8
2
370
    50
100
AcDbLine
 10
-288.495873
 20
-17.794384
 30
0.0
 11
-261.195873
 21
-17.794384
 31
0.0
  0
ARC
  5
255
100
AcDbEntity
  8
2
370
    50
100
AcDbCircle
 10
-181.39417
 20
-23.42362
 30
0.0
 40
80.0
100
AcDbArc
 50
161.576823
 51
175.965022
  0
ARC
  5
256
100
AcDbEntity
  8
2
370
    50
100
AcDbCircle
 10
-274.845873
 20
7.705616
 30
0.0
 40
18.5
100
AcDbArc
 50
341.576823
 51
198.423177
  0
ARC
  5
257
100
AcDbEntity
  8
2
370
    50
100
AcDbCircle
 10
-368.297575
 20
-23.42362
 30
0.0
 40
80.0
100
AcDbArc
 50
4.034978
 51
18.423177
  0
ELLIPSE
  5
258
100
AcDbEntity
  8
2
370
    50
100
AcDbEllipse
 10
-290.849835
 20
11.978016
 30
0.0
 11
2.063409
 21
7.7007469999999998
 31
0.0
210
0.0
220
0.0
230
1.0
 40
0.25135
 41
3.076479
 42
0.073504
  0
ELLIPSE
  5
259
100
AcDbEntity
  8
2
370
    50
100
AcDbEllipse
 10
-258.841911
 20
11.978016
 30
0.0
 11
2.063409
 21
-7.7007469999999998
 31
0.0
210
0.0
220
0.0
230
1.0
 40
0.25135
 41
3.0680890000000001
 42
0.065114
  0
LINE
  5
25A
100
AcDbEntity
  8
2
370
    50
100
AcDbLine
 10
-286.84549
 20
-22.117052
 30
0.0
 11
-262.84549
 21
-22.117052
 31
0.0
  0
LINE
  5
25B
100
AcDbEntity
  8
2
370
    50
100
AcDbLine
 10
-261.34549
 20
-18.117052
 30
0.0
 11
-288.34549
 21
-18.117052
 31
0.0
  0
LINE
  5
25C
100
AcDbEntity
  8
2
370
    50
100
AcDbLine
 10
-262.84549
 20
-18.117052
 30
0.0
 11
-262.84549
 21
-17.794384
 31
0.0
  0
LINE
  5
25D
100
AcDbEntity
  8
2
370
    50
100
AcDbLine
 10
-286.84549
 20
-18.117052
 30
0.0
 11
-286.84549
 21
-17.794384
 31
0.0
  0
LINE
  5
25E
100
AcDbEntity
  8
2
370
    50
100
AcDbLine
 10
-262.595873
 20
-21.710056
 30
0.0
 11
-262.595873
 21
-19.117052
 31
0.0
  0
LINE
  5
25F
100
AcDbEntity
  8
2
370
    50
100
AcDbLine
 10
-287.095873
 20
-21.70874
 30
0.0
 11
-287.095873
 21
-19.117052
 31
0.0
  0
LINE
  5
260
100
AcDbEntity
  8
2
370
    50
100
AcDbLine
 10
-288.148505
 20
-19.117052
 30
0.0
 11
-287.095873
 21
-19.117052
 31
0.0
  0
LINE
  5
261
100
AcDbEntity
  8
2
370
    50
100
AcDbLine
 10
-262.595873
 20
-19.117052
 30
0.0
 11
-261.542476
 21
-19.117052
 31
0.0
  0
ARC
  5
262
100
AcDbEntity
  8
2
370
    50
100
AcDbCircle
 10
-271.242689
 20
-16.686853
 30
0.0
 40
10.0
100
AcDbArc
 50
327.110544
 51
329.846365
  0
ARC
  5
263
100
AcDbEntity
  8
2
370
    50
100
AcDbCircle
 10
-271.242689
 20
-16.686853
 30
0.0
 40
10.0
100
AcDbArc
 50
345.935152
 51
351.777366
  0
ARC
  5
264
100
AcDbEntity
  8
2
370
    50
100
AcDbCircle
 10
-278.448292
 20
-16.686853
 30
0.0
 40
10.0
100
AcDbArc
 50
188.222634
 51
194.064848
  0
ARC
  5
265
100
AcDbEntity
  8
2
370
    50
100
AcDbCircle
 10
-278.448292
 20
-16.686853
 30
0.0
 40
10.0
100
AcDbArc
 50
210.144911
 51
212.889456
  0
LINE
  5
266
100
AcDbEntity
  8
2
370
    50
100
AcDbLine
 10
-283.596046
 20
-22.117052
 30
0.0
 11
-283.596046
 21
-24.794313
 31
0.0
  0
LINE
  5
267
100
AcDbEntity
  8
2
370
    50
100
AcDbLine
 10
-266.096046
 20
-22.117052
 30
0.0
 11
-266.096046
 21
-24.794313
 31
0.0
  0
LINE
  5
268
100
AcDbEntity
  8
2
370
    50
100
AcDbLine
 10
-294.546046
 20
-37.794313
 30
0.0
 11
-294.546046
 21
-39.794313
 31
0.0
  0
LINE
  5
269
100
AcDbEntity
  8
2
370
    50
100
AcDbLine
 10
-255.146046
 20
-37.794313
 30
0.0
 11
-255.146046
 21
-39.794313
 31
0.0
  0
LINE
  5
26A
100
AcDbEntity
  8
2
370
    50
100
AcDbLine
 10
-255.146046
 20
-37.794313
 30
0.0
 11
-262.362925
 21
-25.294313
 31
0.0
  0
LINE
  5
26B
100
AcDbEntity
  8
2
370
    50
100
AcDbLine
 10
-294.546046
 20
-37.794313
 30
0.0
 11
-287.329168
 21
-25.294313
 31
0.0
  0
LINE
  5
26C
100
AcDbEntity
  8
2
370
    50
100
AcDbLine
 10
-264.742416
 20
-37.794313
 30
0.0
 11
-264.742416
 21
-39.794313
 31
0.0
  0
LINE
  5
26D
100
AcDbEntity
  8
2
370
    50
100
AcDbLine
 10
-284.949676
 20
-37.794313
 30
0.0
 11
-284.949676
 21
-39.794313
 31
0.0
  0
ARC
  5
26E
100
AcDbEntity
  8
2
370
    50
100
AcDbCircle
 10
-260.087547
 20
-38.73222
 30
0.0
 40
4.748419
100
AcDbArc
 50
30.0
 51
168.608037
  0
ARC
  5
26F
100
AcDbEntity
  8
2
370
    50
100
AcDbCircle
 10
-289.604545
 20
-38.73222
 30
0.0
 40
4.748419
100
AcDbArc
 50
11.391963
 51
150.0
  0
LINE
  5
270
100
AcDbEntity
  8
2
370
    50
100
AcDbLine
 10
-286.463142
 20
-24.794313
 30
0.0
 11
-263.22895
 21
-24.794313
 31
0.0
  0
ARC
  5
271
100
AcDbEntity
  8
2
370
    50
100
AcDbCircle
 10
-263.22895
 20
-25.794313
 30
0.0
 40
1.0
100
AcDbArc
 50
30.0
 51
90.0
  0
ARC
  5
272
100
AcDbEntity
  8
2
370
    50
100
AcDbCircle
 10
-286.463142
 20
-25.794313
 30
0.0
 40
1.0
100
AcDbArc
 50
90.0
 51
150.0
  0
LINE
  5
273
100
AcDbEntity
  8
2
370
    50
100
AcDbLine
 10
-261.445971
 20
176.509465
 30
0.0
 11
-261.445971
 21
177.409465
 31
0.0
  0
LINE
  5
274
100
AcDbEntity
  8
2
370
    50
100
AcDbLine
 10
210.375011
 20
86.205232
 30
0.0
 11
210.375011
 21
84.205232
 31
0.0
  0
LINE
  5
275
100
AcDbEntity
  8
2
370
    50
100
AcDbLine
 10
249.775011
 20
86.205232
 30
0.0
 11
249.775011
 21
84.205232
 31
0.0
  0
LINE
  5
276
100
AcDbEntity
  8
2
370
    50
100
AcDbLine
 10
218.457915
 20
99.205232
 30
0.0
 11
241.692108
 21
99.205232
 31
0.0
  0
LINE
  5
277
100
AcDbEntity
  8
2
370
    50
100
AcDbLine
 10
249.775011
 20
86.205232
 30
0.0
 11
242.558133
 21
98.705232
 31
0.0
  0
LINE
  5
278
100
AcDbEntity
  8
2
370
    50
100
AcDbLine
 10
210.375011
 20
86.205232
 30
0.0
 11
217.59189
 21
98.705232
 31
0.0
  0
LINE
  5
279
100
AcDbEntity
  8
2
370
    50
100
AcDbLine
 10
240.178641
 20
86.205232
 30
0.0
 11
240.178641
 21
84.205232
 31
0.0
  0
LINE
  5
27A
100
AcDbEntity
  8
2
370
    50
100
AcDbLine
 10
219.971382
 20
86.205232
 30
0.0
 11
219.971382
 21
84.205232
 31
0.0
  0
ARC
  5
27B
100
AcDbEntity
  8
2
370
    50
100
AcDbCircle
 10
230.075011
 20
74.715525
 30
0.0
 40
15.30022
100
AcDbArc
 50
48.672782
 51
131.327218
  0
ARC
  5
27C
100
AcDbEntity
  8
2
370
    50
100
AcDbCircle
 10
244.833511
 20
85.267325
 30
0.0
 40
4.748419
100
AcDbArc
 50
30.0
 51
168.608037
  0
ARC
  5
27D
100
AcDbEntity
  8
2
370
    50
100
AcDbCircle
 10
215.316512
 20
85.267325
 30
0.0
 40
4.748419
100
AcDbArc
 50
11.391963
 51
150.0
  0
ARC
  5
27E
100
AcDbEntity
  8
2
370
    50
100
AcDbCircle
 10
241.692108
 20
98.205232
 30
0.0
 40
1.0
100
AcDbArc
 50
30.0
 51
90.0
  0
ARC
  5
27F
100
AcDbEntity
  8
2
370
    50
100
AcDbCircle
 10
218.457915
 20
98.205232
 30
0.0
 40
1.0
100
AcDbArc
 50
90.0
 51
150.0
  0
LINE
  5
280
100
AcDbEntity
  8
2
370
    50
100
AcDbLine
 10
221.325145
 20
100.955697
 30
0.0
 11
221.325145
 21
99.205232
 31
0.0
  0
LINE
  5
281
100
AcDbEntity
  8
2
370
    50
100
AcDbLine
 10
238.825145
 20
100.955697
 30
0.0
 11
238.825145
 21
99.205232
 31
0.0
  0
LINE
  5
282
100
AcDbEntity
  8
2
370
    50
100
AcDbLine
 10
76.075145
 20
140.455697
 30
0.0
 11
199.325145
 21
140.455697
 31
0.0
  0
LINE
  5
283
100
AcDbEntity
  8
2
370
    50
100
AcDbLine
 10
76.075145
 20
122.955697
 30
0.0
 11
199.325145
 21
122.955697
 31
0.0
  0
LINE
  5
284
100
AcDbEntity
  8
2
370
    50
100
AcDbLine
 10
76.075145
 20
141.587663
 30
0.0
 11
76.075145
 21
121.823731
 31
0.0
  0
LINE
  5
285
100
AcDbEntity
  8
2
370
    50
100
AcDbLine
 10
47.625074
 20
143.205697
 30
0.0
 11
74.075145
 21
143.205697
 31
0.0
  0
LINE
  5
286
100
AcDbEntity
  8
2
370
    50
100
AcDbLine
 10
51.627596
 20
120.205697
 30
0.0
 11
74.075145
 21
120.205697
 31
0.0
  0
LINE
  5
287
100
AcDbEntity
  8
2
370
    50
100
AcDbLine
 10
74.075145
 20
143.205697
 30
0.0
 11
74.075145
 21
120.205697
 31
0.0
  0
LINE
  5
288
100
AcDbEntity
  8
2
370
    50
100
AcDbLine
 10
75.522359
 20
142.48209
 30
0.0
 11
74.075145
 21
143.205697
 31
0.0
  0
LINE
  5
289
100
AcDbEntity
  8
2
370
    50
100
AcDbLine
 10
75.522359
 20
120.929304
 30
0.0
 11
74.075145
 21
120.205697
 31
0.0
  0
ARC
  5
28A
100
AcDbEntity
  8
2
370
    50
100
AcDbCircle
 10
75.075145
 20
141.587663
 30
0.0
 40
1.0
100
AcDbArc
 50
360.0
 51
63.434949
  0
ARC
  5
28B
100
AcDbEntity
  8
2
370
    50
100
AcDbCircle
 10
75.075145
 20
121.823731
 30
0.0
 40
1.0
100
AcDbArc
 50
296.565051
 51
360.0
  0
ARC
  5
28C
100
AcDbEntity
  8
2
370
    50
100
AcDbCircle
 10
30.075145
 20
131.705697
 30
0.0
 40
18.5
100
AcDbArc
 50
46.509642
 51
198.423177
  0
LINE
  5
28D
100
AcDbEntity
  8
2
370
    50
100
AcDbLine
 10
16.425145
 20
106.205697
 30
0.0
 11
43.725145
 21
106.205697
 31
0.0
  0
ARC
  5
28E
100
AcDbEntity
  8
2
370
    50
100
AcDbCircle
 10
-63.376557
 20
100.576461
 30
0.0
 40
80.0
100
AcDbArc
 50
4.034978
 51
18.423177
  0
ARC
  5
28F
100
AcDbEntity
  8
2
370
    50
100
AcDbCircle
 10
123.526848
 20
100.576461
 30
0.0
 40
80.0
100
AcDbArc
 50
170.037521
 51
175.965022
  0
ARC
  5
290
100
AcDbEntity
  8
2
370
    50
100
AcDbCircle
 10
51.627596
 20
113.205697
 30
0.0
 40
7.0
100
AcDbArc
 50
90.0
 51
170.037521
  0
ARC
  5
291
100
AcDbEntity
  8
2
370
    50
100
AcDbCircle
 10
47.625074
 20
150.205697
 30
0.0
 40
7.0
100
AcDbArc
 50
226.509642
 51
270.0
  0
ARC
  5
292
100
AcDbEntity
  8
2
370
    50
100
AcDbCircle
 10
199.325145
 20
100.955697
 30
0.0
 40
22.0
100
AcDbArc
 50
0.0
 51
90.0
  0
ARC
  5
293
100
AcDbEntity
  8
2
370
    50
100
AcDbCircle
 10
199.325145
 20
100.955697
 30
0.0
 40
39.5
100
AcDbArc
 50
0.0
 51
90.0
  0
LINE
  5
294
100
AcDbEntity
  8
2
370
    50
100
AcDbLine
 10
18.614302
 20
102.205697
 30
0.0
 11
41.535721
 21
102.205697
 31
0.0
  0
ARC
  5
295
100
AcDbEntity
  8
2
370
    50
100
AcDbCircle
 10
33.874565
 20
107.928693
 30
0.0
 40
10.0
100
AcDbArc
 50
328.346742
 51
350.078448
  0
ARC
  5
296
100
AcDbEntity
  8
2
370
    50
100
AcDbCircle
 10
26.275457
 20
107.928693
 30
0.0
 40
10.0
100
AcDbArc
 50
189.921552
 51
211.653258
  0
ARC
  5
297
100
AcDbEntity
  8
2
370
    50
100
AcDbCircle
 10
41.535721
 20
103.205697
 30
0.0
 40
1.0
100
AcDbArc
 50
270.0
 51
328.346742
  0
ARC
  5
298
100
AcDbEntity
  8
2
370
    50
100
AcDbCircle
 10
18.614302
 20
103.205697
 30
0.0
 40
1.0
100
AcDbArc
 50
211.653258
 51
270.0
  0
ELLIPSE
  5
299
100
AcDbEntity
  8
2
370
    50
100
AcDbEllipse
 10
25.787958
 20
136.255697
 30
0.0
 11
8.25
 21
0.0
 31
0.0
210
0.0
220
0.0
230
1.0
 40
0.964545
 41
0.0
 42
6.2831849999999996
  0
POINT
  5
29A
100
AcDbEntity
  8
2
370
    50
100
AcDbPoint
 10
30.075011
 20
102.205697
 30
0.0
  0
POINT
  5
29B
100
AcDbEntity
  8
2
370
    50
100
AcDbPoint
 10
230.075011
 20
84.205232
 30
0.0
  0
POINT
  5
29C
100
AcDbEntity
  8
2
370
    50
100
AcDbPoint
 10
30.075145
 20
150.205697
 30
0.0
  0
POINT
  5
29D
100
AcDbEntity
  8
2
370
    50
100
AcDbPoint
 10
-274.845873
 20
26.205616
 30
0.0
  0
ARC
  5
29E
100
AcDbEntity
  8
2
370
    50
100
AcDbCircle
 10
-274.846046
 20
-49.284021
 30
0.0
 40
15.30022
100
AcDbArc
 50
48.672783
 51
74.650457
  0
ARC
  5
29F
100
AcDbEntity
  8
2
370
    50
100
AcDbCircle
 10
-274.846046
 20
-49.284021
 30
0.0
 40
15.30022
100
AcDbArc
 50
105.34896
 51
131.327218
  0
POINT
  5
2A0
100
AcDbEntity
  8
2
370
    50
100
AcDbPoint
 10
286.07531
 20
45.206062
 30
0.0
  0
LINE
  5
2A1
100
AcDbEntity
  8
2
370
    50
100
AcDbLine
 10
272.57531
 20
45.206062
 30
0.0
 11
299.57531
 21
45.206062
 31
0.0
  0
LINE
  5
2A2
100
AcDbEntity
  8
2
370
    50
100
AcDbLine
 10
296.07531
 20
-11.043058
 30
0.0
 11
296.07531
 21
17.581062
 31
0.0
  0
ARC
  5
2A3
100
AcDbEntity
  8
2
370
    50
100
AcDbCircle
 10
291.07531
 20
-17.734759
 30
0.0
 40
8.333333
100
AcDbArc
 50
53.130102
 51
126.869898
  0
ARC
  5
2A4
100
AcDbEntity
  8
2
370
    50
100
AcDbCircle
 10
281.07531
 20
-4.401425
 30
0.0
 40
8.333333
100
AcDbArc
 50
233.130102
 51
306.869898
  0
ARC
  5
2A5
100
AcDbEntity
  8
2
370
    50
100
AcDbCircle
 10
291.07531
 20
-4.401425
 30
0.0
 40
8.333333
100
AcDbArc
 50
233.130102
 51
306.869898
  0
LINE
  5
2A6
100
AcDbEntity
  8
2
370
    50
100
AcDbLine
 10
276.07531
 20
-11.08419
 30
0.0
 11
276.07531
 21
17.581062
 31
0.0
  0
LINE
  5
2A7
100
AcDbEntity
  8
2
370
    50
100
AcDbLine
 10
267.63781
 20
17.581062
 30
0.0
 11
304.51281
 21
17.581062
 31
0.0
  0
LINE
  5
2A8
100
AcDbEntity
  8
2
370
    50
100
AcDbLine
 10
268.76281
 20
28.331062
 30
0.0
 11
268.76281
 21
43.956062
 31
0.0
  0
LINE
  5
2A9
100
AcDbEntity
  8
2
370
    50
100
AcDbLine
 10
303.38781
 20
28.331062
 30
0.0
 11
303.38781
 21
43.956062
 31
0.0
  0
ARC
  5
2AA
100
AcDbEntity
  8
2
370
    50
100
AcDbCircle
 10
302.13781
 20
28.331062
 30
0.0
 40
1.25
100
AcDbArc
 50
270.0
 51
360.0
  0
ARC
  5
2AB
100
AcDbEntity
  8
2
370
    50
100
AcDbCircle
 10
270.01281
 20
28.331062
 30
0.0
 40
1.25
100
AcDbArc
 50
180.0
 51
270.0
  0
LINE
  5
2AC
100
AcDbEntity
  8
2
370
    50
100
AcDbLine
 10
289.20031
 20
18.831062
 30
0.0
 11
289.20031
 21
28.831062
 31
0.0
  0
LINE
  5
2AD
100
AcDbEntity
  8
2
370
    50
100
AcDbLine
 10
282.95031
 20
18.831062
 30
0.0
 11
282.95031
 21
28.831062
 31
0.0
  0
LINE
  5
2AE
100
AcDbEntity
  8
2
370
    50
100
AcDbLine
 10
266.38781
 20
18.831062
 30
0.0
 11
266.38781
 21
28.831062
 31
0.0
  0
LINE
  5
2AF
100
AcDbEntity
  8
2
370
    50
100
AcDbLine
 10
305.76281
 20
18.831062
 30
0.0
 11
305.76281
 21
28.831062
 31
0.0
  0
LINE
  5
2B0
100
AcDbEntity
  8
2
370
    50
100
AcDbLine
 10
270.13781
 20
17.581062
 30
0.0
 11
270.13781
 21
27.081062
 31
0.0
  0
LINE
  5
2B1
100
AcDbEntity
  8
2
370
    50
100
AcDbLine
 10
302.01281
 20
17.581062
 30
0.0
 11
302.01281
 21
27.081062
 31
0.0
  0
LINE
  5
2B2
100
AcDbEntity
  8
2
370
    50
100
AcDbLine
 10
304.51281
 20
30.081062
 30
0.0
 11
303.38781
 21
30.081062
 31
0.0
  0
LINE
  5
2B3
100
AcDbEntity
  8
2
370
    50
100
AcDbLine
 10
287.95031
 20
30.081062
 30
0.0
 11
284.20031
 21
30.081062
 31
0.0
  0
LINE
  5
2B4
100
AcDbEntity
  8
2
370
    50
100
AcDbLine
 10
302.13781
 20
27.081062
 30
0.0
 11
289.20031
 21
27.081062
 31
0.0
  0
LINE
  5
2B5
100
AcDbEntity
  8
2
370
    50
100
AcDbLine
 10
282.95031
 20
27.081062
 30
0.0
 11
270.01281
 21
27.081062
 31
0.0
  0
ARC
  5
2B6
100
AcDbEntity
  8
2
370
    50
100
AcDbCircle
 10
304.51281
 20
18.831062
 30
0.0
 40
1.25
100
AcDbArc
 50
270.0
 51
360.0
  0
ARC
  5
2B7
100
AcDbEntity
  8
2
370
    50
100
AcDbCircle
 10
304.51281
 20
28.831062
 30
0.0
 40
1.25
100
AcDbArc
 50
0.0
 51
90.0
  0
ARC
  5
2B8
100
AcDbEntity
  8
2
370
    50
100
AcDbCircle
 10
267.63781
 20
18.831062
 30
0.0
 40
1.25
100
AcDbArc
 50
180.0
 51
270.0
  0
ARC
  5
2B9
100
AcDbEntity
  8
2
370
    50
100
AcDbCircle
 10
284.20031
 20
28.831062
 30
0.0
 40
1.25
100
AcDbArc
 50
90.0
 51
180.0
  0
ARC
  5
2BA
100
AcDbEntity
  8
2
370
    50
100
AcDbCircle
 10
287.95031
 20
28.831062
 30
0.0
 40
1.25
100
AcDbArc
 50
0.0
 51
90.0
  0
ARC
  5
2BB
100
AcDbEntity
  8
2
370
    50
100
AcDbCircle
 10
287.95031
 20
18.831062
 30
0.0
 40
1.25
100
AcDbArc
 50
270.0
 51
0.0
  0
ARC
  5
2BC
100
AcDbEntity
  8
2
370
    50
100
AcDbCircle
 10
284.20031
 20
18.831062
 30
0.0
 40
1.25
100
AcDbArc
 50
180.0
 51
270.0
  0
LINE
  5
2BD
100
AcDbEntity
  8
2
370
    50
100
AcDbLine
 10
270.01281
 20
45.206062
 30
0.0
 11
302.13781
 21
45.206062
 31
0.0
  0
ARC
  5
2BE
100
AcDbEntity
  8
2
370
    50
100
AcDbCircle
 10
302.13781
 20
43.956062
 30
0.0
 40
1.25
100
AcDbArc
 50
0.0
 51
90.0
  0
ARC
  5
2BF
100
AcDbEntity
  8
2
370
    50
100
AcDbCircle
 10
270.01281
 20
43.956062
 30
0.0
 40
1.25
100
AcDbArc
 50
90.0
 51
180.0
  0
ARC
  5
2C0
100
AcDbEntity
  8
2
370
    50
100
AcDbCircle
 10
267.63781
 20
28.831062
 30
0.0
 40
1.25
100
AcDbArc
 50
90.0
 51
180.0
  0
LINE
  5
2C1
100
AcDbEntity
  8
2
370
    50
100
AcDbLine
 10
267.63781
 20
30.081062
 30
0.0
 11
268.76281
 21
30.081062
 31
0.0
  0
LINE
  5
2C2
100
AcDbEntity
  8
2
370
    50
100
AcDbLine
 10
-264.045971
 20
255.409465
 30
0.0
 11
-264.045971
 21
237.409465
 31
0.0
  0
LINE
  5
2C3
100
AcDbEntity
  8
2
370
    50
100
AcDbLine
 10
-285.645971
 20
255.409465
 30
0.0
 11
-285.645971
 21
237.409465
 31
0.0
  0
LINE
  5
2C4
100
AcDbEntity
  8
2
370
    50
100
AcDbLine
 10
-277.345971
 20
269.184442
 30
0.0
 11
-277.345971
 21
270.909465
 31
0.0
  0
LINE
  5
2C5
100
AcDbEntity
  8
2
370
    50
100
AcDbLine
 10
-272.345971
 20
269.184442
 30
0.0
 11
-272.345971
 21
270.909465
 31
0.0
  0
LINE
  5
2C6
100
AcDbEntity
  8
2
370
    50
100
AcDbLine
 10
-272.845971
 20
271.409465
 30
0.0
 11
-276.845971
 21
271.409465
 31
0.0
  0
ARC
  5
2C7
100
AcDbEntity
  8
2
370
    50
100
AcDbCircle
 10
-276.845971
 20
270.909465
 30
0.0
 40
0.5
100
AcDbArc
 50
90.0
 51
180.0
  0
ARC
  5
2C8
100
AcDbEntity
  8
2
370
    50
100
AcDbCircle
 10
-272.845971
 20
270.909465
 30
0.0
 40
0.5
100
AcDbArc
 50
360.0
 51
90.0
  0
ARC
  5
2C9
100
AcDbEntity
  8
2
370
    50
100
AcDbCircle
 10
-274.845971
 20
255.409465
 30
0.0
 40
14.0
100
AcDbArc
 50
320.482347
 51
219.517653
  0
LINE
  5
2CA
100
AcDbEntity
  8
2
370
    50
100
AcDbLine
 10
-288.620948
 20
252.909465
 30
0.0
 11
-290.345971
 21
252.909465
 31
0.0
  0
LINE
  5
2CB
100
AcDbEntity
  8
2
370
    50
100
AcDbLine
 10
-288.620948
 20
257.909465
 30
0.0
 11
-290.345971
 21
257.909465
 31
0.0
  0
LINE
  5
2CC
100
AcDbEntity
  8
2
370
    50
100
AcDbLine
 10
-290.845971
 20
257.409465
 30
0.0
 11
-290.845971
 21
253.409465
 31
0.0
  0
ARC
  5
2CD
100
AcDbEntity
  8
2
370
    50
100
AcDbCircle
 10
-290.345971
 20
253.409465
 30
0.0
 40
0.5
100
AcDbArc
 50
180.0
 51
270.0
  0
ARC
  5
2CE
100
AcDbEntity
  8
2
370
    50
100
AcDbCircle
 10
-290.345971
 20
257.409465
 30
0.0
 40
0.5
100
AcDbArc
 50
90.0
 51
180.0
  0
LINE
  5
2CF
100
AcDbEntity
  8
2
370
    50
100
AcDbLine
 10
-261.070994
 20
252.909465
 30
0.0
 11
-259.345971
 21
252.909465
 31
0.0
  0
LINE
  5
2D0
100
AcDbEntity
  8
2
370
    50
100
AcDbLine
 10
-261.070994
 20
257.909465
 30
0.0
 11
-259.345971
 21
257.909465
 31
0.0
  0
LINE
  5
2D1
100
AcDbEntity
  8
2
370
    50
100
AcDbLine
 10
-258.845971
 20
257.409465
 30
0.0
 11
-258.845971
 21
253.409465
 31
0.0
  0
ARC
  5
2D2
100
AcDbEntity
  8
2
370
    50
100
AcDbCircle
 10
-259.345971
 20
253.409465
 30
0.0
 40
0.5
100
AcDbArc
 50
270.0
 51
360.0
  0
ARC
  5
2D3
100
AcDbEntity
  8
2
370
    50
100
AcDbCircle
 10
-259.345971
 20
257.409465
 30
0.0
 40
0.5
100
AcDbArc
 50
0.0
 51
90.0
  0
TEXT
  5
2D4
100
AcDbEntity
  8
3
370
    50
100
AcDbText
 10
-180.450577
 20
-222.886022
 30
0.0
 40
7.0
  1
ＰＪ１／２
 72
     5
 11
-146.850577
 21
-222.886022
 31
0.0
100
AcDbText
  0
TEXT
  5
2D5
100
AcDbEntity
  8
3
370
    50
100
AcDbText
 10
-178.718864
 20
-231.542333
 30
0.0
 40
7.0
  1
給水栓ネジ
 72
     5
 11
-145.118864
 21
-231.542333
 31
0.0
100
AcDbText
  0
LWPOLYLINE
  5
2D6
100
AcDbEntity
  8
3
370
    25
100
AcDbPolyline
 90
        3
 70
     0
 10
-209.095743
 20
-203.470754
 10
-181.20166
 20
-223.88973
 10
-142.042625
 20
-223.88973
  0
LINE
  5
2DB
100
AcDbEntity
  8
3
370
    25
100
AcDbLine
 10
-205.97808
 20
-205.75294
 30
0.0
 11
-205.366569
 21
-204.917565
 31
0.0
  0
LINE
  5
2DC
100
AcDbEntity
  8
3
370
    25
100
AcDbLine
 10
-205.366569
 20
-204.917565
 30
0.0
 11
-209.095743
 21
-203.470754
 31
0.0
  0
LINE
  5
2DD
100
AcDbEntity
  8
3
370
    25
100
AcDbLine
 10
-209.095743
 20
-203.470754
 30
0.0
 11
-206.58959
 21
-206.588316
 31
0.0
  0
LINE
  5
2DE
100
AcDbEntity
  8
3
370
    25
100
AcDbLine
 10
-206.58959
 20
-206.588316
 30
0.0
 11
-205.97808
 21
-205.75294
 31
0.0
  0
TEXT
  5
2DF
100
AcDbEntity
  8
3
370
    50
100
AcDbText
 10
300.13002
 20
-197.395986
 30
0.0
 40
7.0
  1
外観寸法図
 72
     5
 11
333.73002
 21
-197.395986
 31
0.0
100
AcDbText
  0
DIMENSION
  5
2E0
100
AcDbEntity
  8
3
370
    25
100
AcDbDimension
  2
*D0
 10
-119.140495
 20
-90.794967
 30
0.0
 11
-135.140495
 21
-149.544693
 31
0.0
 71
     0
 72
     0
 41
0.0
 42
0.0
  3
Standard
100
AcDbAlignedDimension
 13
-198.845971
 23
-166.294419
 33
0.0
 14
-144.375549
 24
-90.794967
 34
0.0
 50
90.0
100
AcDbRotatedDimension
  0
DIMENSION
  5
2E1
100
AcDbEntity
  8
3
370
    25
100
AcDbDimension
  2
*D1
 10
-219.34619
 20
-250.380803
 30
0.0
 11
-270.345971
 21
-245.880803
 31
0.0
 71
     0
 72
     0
 41
0.0
 42
0.0
  3
Standard
100
AcDbAlignedDimension
 13
-321.345752
 23
-228.594349
 33
0.0
 14
-219.34619
 24
-228.594349
 34
0.0
100
AcDbRotatedDimension
  0
DIMENSION
  5
2E2
100
AcDbEntity
  8
3
370
    25
100
AcDbDimension
  2
*D2
 10
-198.84628
 20
38.022283
 30
0.0
 11
-270.346125
 21
42.522283
 31
0.0
 71
     0
 72
     0
 41
0.0
 42
0.0
  3
Standard
100
AcDbAlignedDimension
 13
-341.845971
 23
-68.794217
 33
0.0
 14
-198.84628
 24
-68.794217
 34
0.0
100
AcDbRotatedDimension
  0
DIMENSION
  5
2E3
100
AcDbEntity
  8
3
370
    25
100
AcDbDimension
  2
*D3
 10
-144.375549
 20
73.828555
 30
0.0
 11
-245.04829
 21
78.328555
 31
0.0
 71
     0
 72
     0
 41
0.0
 42
0.0
  3
Standard
100
AcDbAlignedDimension
 13
-345.721032
 23
-90.794419
 33
0.0
 14
-144.375549
 24
-90.794967
 34
0.0
100
AcDbRotatedDimension
  0
DIMENSION
  5
2E4
100
AcDbEntity
  8
3
370
    25
100
AcDbDimension
  2
*D4
 10
252.075011
 20
2.283473
 30
0.0
 11
275.075011
 21
7.783473
 31
0.0
 71
     0
 72
     0
 41
0.0
 42
0.0
  3
Standard
100
AcDbAlignedDimension
 13
208.075011
 23
2.613994
 33
0.0
 14
252.075011
 24
2.613994
 34
0.0
100
AcDbRotatedDimension
  0
DIMENSION
  5
2E5
100
AcDbEntity
  8
3
370
    25
100
AcDbDimension
  2
*D5
 10
230.07481
 20
-148.907155
 30
0.0
 11
193.139524
 21
-144.407155
 31
0.0
 71
     0
 72
     0
 41
0.0
 42
0.0
  3
Standard
100
AcDbAlignedDimension
 13
156.204239
 23
60.206495
 33
0.0
 14
230.07481
 24
-104.594349
 34
0.0
100
AcDbRotatedDimension
  0
DIMENSION
  5
2E6
100
AcDbEntity
  8
3
370
    25
100
AcDbDimension
  2
*D6
 10
115.693375
 20
-42.294768
 30
0.0
 11
99.693375
 21
-91.194768
 31
0.0
 71
     0
 72
     0
 41
0.0
 42
0.0
  3
Standard
100
AcDbAlignedDimension
 13
230.07481
 23
-98.094768
 33
0.0
 14
208.075011
 24
-42.294768
 34
0.0
 50
90.0
100
AcDbRotatedDimension
  0
DIMENSION
  5
2E7
100
AcDbEntity
  8
3
370
    25
100
AcDbDimension
  2
*D7
 10
115.693375
 20
60.206495
 30
0.0
 11
104.193375
 21
5.455864
 31
0.0
 71
     0
 72
     0
 41
0.0
 42
0.0
  3
Standard
100
AcDbAlignedDimension
 13
208.075011
 23
-42.294768
 33
0.0
 14
156.204239
 24
60.206495
 34
0.0
 50
90.0
100
AcDbRotatedDimension
  0
DIMENSION
  5
2E8
100
AcDbEntity
  8
3
370
    25
100
AcDbDimension
  2
*D8
 10
3.341782
 20
102.205697
 30
0.0
 11
-8.158218
 21
26.455465
 31
0.0
 71
     0
 72
     0
 41
0.0
 42
0.0
  3
Standard
100
AcDbAlignedDimension
 13
208.075011
 23
-42.294768
 33
0.0
 14
18.614302
 24
102.205697
 34
0.0
 50
90.0
100
AcDbRotatedDimension
  0
DIMENSION
  5
2E9
100
AcDbEntity
  8
3
370
    25
100
AcDbDimension
  2
*D9
 10
-23.955955
 20
150.205697
 30
0.0
 11
-35.455955
 21
50.455465
 31
0.0
 71
     0
 72
     0
 41
0.0
 42
0.0
  3
Standard
100
AcDbAlignedDimension
 13
208.075011
 23
-42.294768
 33
0.0
 14
30.075145
 24
150.205697
 34
0.0
 50
90.0
100
AcDbRotatedDimension
  0
DIMENSION
  5
2EA
100
AcDbEntity
  8
3
370
    25
100
AcDbDimension
  2
*D10
 10
-274.845873
 20
56.166606
 30
0.0
 11
-310.283452
 21
60.666606
 31
0.0
 71
     0
 72
     0
 41
0.0
 42
0.0
  3
Standard
100
AcDbAlignedDimension
 13
-345.721032
 23
-90.794419
 33
0.0
 14
-274.845873
 24
26.205616
 34
0.0
100
AcDbRotatedDimension
  0
DIMENSION
  5
2EB
100
AcDbEntity
  8
3
370
    25
100
AcDbDimension
  2
*D11
 10
-144.375549
 20
56.166606
 30
0.0
 11
-209.610711
 21
60.666606
 31
0.0
 71
     0
 72
     0
 41
0.0
 42
0.0
  3
Standard
100
AcDbAlignedDimension
 13
-274.845873
 23
56.166606
 33
0.0
 14
-144.375549
 24
-90.794967
 34
0.0
100
AcDbRotatedDimension
  0
DIMENSION
  5
2EC
100
AcDbEntity
  8
3
370
    25
100
AcDbDimension
  2
*D12
 10
252.075011
 20
-121.559209
 30
0.0
 11
230.075011
 21
-117.059209
 31
0.0
 71
     0
 72
     0
 41
0.0
 42
0.0
  3
Standard
100
AcDbAlignedDimension
 13
208.075011
 23
-42.294768
 33
0.0
 14
252.075011
 24
-42.294768
 34
0.0
100
AcDbRotatedDimension
  0
DIMENSION
  5
2ED
100
AcDbEntity
  8
3
370
    25
100
AcDbDimension
  2
*D13
 10
286.07531
 20
-134.713979
 30
0.0
 11
258.07506
 21
-130.213979
 31
0.0
 71
     0
 72
     0
 41
0.0
 42
0.0
  3
Standard
100
AcDbAlignedDimension
 13
230.07481
 23
-104.594349
 33
0.0
 14
286.07531
 24
45.206062
 34
0.0
100
AcDbRotatedDimension
  0
TEXT
  5
2EE
100
AcDbEntity
  8
3
370
    50
100
AcDbText
 10
260.91881
 20
-147.907155
 30
0.0
 40
7.0
  1
72
 41
2.0
 72
     5
 11
272.11881
 21
-147.907155
 31
0.0
100
AcDbText
  0
DIMENSION
  5
2EF
100
AcDbEntity
  8
3
370
    25
100
AcDbDimension
  2
*D14
 10
305.76281
 20
-148.907155
 30
0.0
 11
267.91881
 21
-146.907155
 31
0.0
 71
     0
 72
     0
 41
0.0
 42
0.0
  3
Standard
100
AcDbAlignedDimension
 13
230.07481
 23
-104.594349
 33
0.0
 14
305.76281
 24
18.831062
 34
0.0
100
AcDbRotatedDimension
  0
TEXT
  5
2F0
100
AcDbEntity
  8
3
370
    50
100
AcDbText
 10
18.075011
 20
178.10644
 30
0.0
 40
7.0
  1
200(E:240,T:300)
 41
2.0
 72
     5
 11
127.275011
 21
178.10644
 31
0.0
100
AcDbText
  0
DIMENSION
  5
2F1
100
AcDbEntity
  8
3
370
    25
100
AcDbDimension
  2
*D15
 10
230.075011
 20
176.10644
 30
0.0
 11
130.075011
 21
178.10644
 31
0.0
 71
     0
 72
     0
 41
0.0
 42
0.0
  3
Standard
100
AcDbAlignedDimension
 13
30.075011
 23
102.205697
 33
0.0
 14
230.075011
 24
84.205232
 34
0.0
100
AcDbRotatedDimension
  0
ENDSEC
  0
SECTION
  2
OBJECTS
  0
DICTIONARY
  5
3AD
100
AcDbDictionary
280
     0
281
     1
  3
ACAD_GROUP
350
3AE
  3
ACAD_MLINESTYLE
350
3AF
  0
DICTIONARY
  5
3AE
102
{ACAD_REACTORS
330
3AD
102
}
100
AcDbDictionary
280
     0
281
     1
  0
DICTIONARY
  5
3AF
102
{ACAD_REACTORS
330
3AD
102
}
100
AcDbDictionary
280
     0
281
     1
  3
Standard
350
3B0
  0
MLINESTYLE
  5
3B0
102
{ACAD_REACTORS
330
3AF
102
}
100
AcDbMlineStyle
  2
Standard
 70
     0
  3

 62
     0
 51
90.0
 52
90.0
 71
     2
 49
0.5
 62
   256
  6
ByLayer
 49
-0.5
 62
   256
  6
ByLayer
  0
ENDSEC
  0
EOF
