  0
SECTION
  2
HEADER
  9
$ACADVER
  1
AC1015
  9
$ACADMAINTVER
 70
     6
  9
$DWGCODEPAGE
  3
ANSI_932
  9
$INSBASE
 10
0.0
 20
0.0
 30
0.0
  9
$EXTMIN
 10
-841.0
 20
-594.0
 30
1.000000E+20
  9
$EXTMAX
 10
841.0
 20
594.0
 30
-1.000000E+20
  9
$LIMMIN
 10
-841.0
 20
-594.0
  9
$LIMMAX
 10
841.0
 20
594.0
  9
$ORTHOMODE
 70
     0
  9
$REGENMODE
 70
     1
  9
$FILLMODE
 70
     1
  9
$QTEXTMODE
 70
     0
  9
$MIRRTEXT
 70
     1
  9
$LTSCALE
 40
1.0
  9
$ATTMODE
 70
     1
  9
$TEXTSIZE
 40
0.2
  9
$TRACEWID
 40
0.05
  9
$TEXTSTYLE
  7
STANDARD
  9
$CLAYER
  8
0
  9
$CELTYPE
  6
CONTINUOUS
  9
$CECOLOR
 62
   256
  9
$CELTSCALE
 40
1.0
  9
$DISPSILH
 70
     0
  9
$DIMSCALE
 40
2.0
  9
$DIMASZ
 40
2.0
  9
$DIMEXO
 40
1.0
  9
$DIMDLI
 40
0.38
  9
$DIMRND
 40
0.0
  9
$DIMDLE
 40
0.0
  9
$DIMEXE
 40
2.0
  9
$DIMTP
 40
0.0
  9
$DIMTM
 40
0.0
  9
$DIMTXT
 40
3.5
  9
$DIMCEN
 40
0.09
  9
$DIMTSZ
 40
0.0
  9
$DIMTOL
 70
     0
  9
$DIMLIM
 70
     0
  9
$DIMTIH
 70
     0
  9
$DIMTOH
 70
     0
  9
$DIMSE1
 70
     0
  9
$DIMSE2
 70
     0
  9
$DIMTAD
 70
     1
  9
$DIMZIN
 70
     0
  9
$DIMBLK
  1

  9
$DIMASO
 70
     1
  9
$DIMSHO
 70
     1
  9
$DIMPOST
  1

  9
$DIMAPOST
  1

  9
$DIMALT
 70
     0
  9
$DIMALTD
 70
     2
  9
$DIMALTF
 40
25.4
  9
$DIMLFAC
 40
1.0
  9
$DIMTOFL
 70
     0
  9
$DIMTVP
 40
0.0
  9
$DIMTIX
 70
     0
  9
$DIMSOXD
 70
     0
  9
$DIMSAH
 70
     0
  9
$DIMBLK1
  1

  9
$DIMBLK2
  1

  9
$DIMSTYLE
  2
Standard
  9
$DIMCLRD
 70
     0
  9
$DIMCLRE
 70
     0
  9
$DIMCLRT
 70
     0
  9
$DIMTFAC
 40
1.0
  9
$DIMGAP
 40
0.5
  9
$DIMJUST
 70
     0
  9
$DIMSD1
 70
     0
  9
$DIMSD2
 70
     0
  9
$DIMTOLJ
 70
     1
  9
$DIMTZIN
 70
     0
  9
$DIMALTZ
 70
     0
  9
$DIMALTTZ
 70
     0
  9
$DIMUPT
 70
     0
  9
$DIMDEC
 70
     3
  9
$DIMTDEC
 70
     4
  9
$DIMALTU
 70
     2
  9
$DIMALTTD
 70
     2
  9
$DIMTXSTY
  7
STANDARD
  9
$DIMAUNIT
 70
     0
  9
$DIMADEC
 70
     0
  9
$DIMALTRND
 40
0.0
  9
$DIMAZIN
 70
     0
  9
$DIMDSEP
 70
     0
  9
$DIMATFIT
 70
     3
  9
$DIMFRAC
 70
     0
  9
$DIMLDRBLK
  1

  9
$DIMLUNIT
 70
     2
  9
$DIMLWD
 70
     0
  9
$DIMLWE
 70
     0
  9
$DIMTMOVE
 70
     0
  9
$LUNITS
 70
     2
  9
$LUPREC
 70
     4
  9
$SKETCHINC
 40
0.1
  9
$FILLETRAD
 40
0.0
  9
$AUNITS
 70
     0
  9
$AUPREC
 70
     0
  9
$MENU
  1
acad
  9
$ELEVATION
 40
0.0
  9
$PELEVATION
 40
0.0
  9
$THICKNESS
 40
0.0
  9
$LIMCHECK
 70
     0
  9
$CHAMFERA
 40
0.0
  9
$CHAMFERB
 40
0.0
  9
$CHAMFERC
 40
0.0
  9
$CHAMFERD
 40
0.0
  9
$SKPOLY
 70
     0
  9
$TDCREATE
 40
2453383.000000000
  9
$TDUCREATE
 40
0.000000000
  9
$TDUPDATE
 40
0.000000000
  9
$TDUUPDATE
 40
2447892.625000000
  9
$TDINDWG
 40
0.0000000000
  9
$TDUSRTIMER
 40
0.0000000000
  9
$USRTIMER
 70
     1
  9
$ANGBASE
 50
0.0
  9
$ANGDIR
 70
     0
  9
$PDMODE
 70
     0
  9
$PDSIZE
 40
0.0
  9
$PLINEWID
 40
0.0
  9
$SPLFRAME
 70
     0
  9
$SPLINETYPE
 70
     6
  9
$SPLINESEGS
 70
     8
  9
$HANDSEED
  5
25D
  9
$SURFTAB1
 70
     6
  9
$SURFTAB2
 70
     6
  9
$SURFTYPE
 70
     6
  9
$SURFU
 70
     6
  9
$SURFV
 70
     6
  9
$UCSBASE
  2

  9
$UCSNAME
  2

  9
$UCSORG
 10
0.0
 20
0.0
 30
0.0
  9
$UCSXDIR
 10
1.0
 20
0.0
 30
0.0
  9
$UCSYDIR
 10
0.0
 20
1.0
 30
0.0
  9
$UCSORTHOREF
  2

  9
$UCSORTHOVIEW
 70
     0
  9
$UCSORGTOP
 10
0.0
 20
0.0
 30
0.0
  9
$UCSORGBOTTOM
 10
0.0
 20
0.0
 30
0.0
  9
$UCSORGLEFT
 10
0.0
 20
0.0
 30
0.0
  9
$UCSORGRIGHT
 10
0.0
 20
0.0
 30
0.0
  9
$UCSORGFRONT
 10
0.0
 20
0.0
 30
0.0
  9
$UCSORGBACK
 10
0.0
 20
0.0
 30
0.0
  9
$PUCSBASE
  2

  9
$PUCSNAME
  2

  9
$PUCSORG
 10
0.0
 20
0.0
 30
0.0
  9
$PUCSXDIR
 10
1.0
 20
0.0
 30
0.0
  9
$PUCSYDIR
 10
0.0
 20
1.0
 30
0.0
  9
$PUCSORTHOREF
  2

  9
$PUCSORTHOVIEW
 70
     0
  9
$PUCSORGTOP
 10
0.0
 20
0.0
 30
0.0
  9
$PUCSORGBOTTOM
 10
0.0
 20
0.0
 30
0.0
  9
$PUCSORGLEFT
 10
0.0
 20
0.0
 30
0.0
  9
$PUCSORGRIGHT
 10
0.0
 20
0.0
 30
0.0
  9
$PUCSORGFRONT
 10
0.0
 20
0.0
 30
0.0
  9
$PUCSORGBACK
 10
0.0
 20
0.0
 30
0.0
  9
$USERI1
 70
     0
  9
$USERI2
 70
     0
  9
$USERI3
 70
     0
  9
$USERI4
 70
     0
  9
$USERI5
 70
     0
  9
$USERR1
 40
0.0
  9
$USERR2
 40
0.0
  9
$USERR3
 40
0.0
  9
$USERR4
 40
0.0
  9
$USERR5
 40
0.0
  9
$WORLDVIEW
 70
     1
  9
$SHADEDGE
 70
     3
  9
$SHADEDIF
 70
    70
  9
$TILEMODE
 70
     1
  9
$MAXACTVP
 70
    16
  9
$PINSBASE
 10
0.0
 20
0.0
 30
0.0
  9
$PLIMCHECK
 70
     0
  9
$PEXTMIN
 10
1.000000E+20
 20
1.000000E+20
 30
1.000000E+20
  9
$PEXTMAX
 10
-1.000000E+20
 20
-1.000000E+20
 30
-1.000000E+20
  9
$PLIMMIN
 10
0.0
 20
0.0
  9
$PLIMMAX
 10
12.0
 20
9.0
  9
$UNITMODE
 70
     0
  9
$VISRETAIN
 70
     0
  9
$PLINEGEN
 70
     1
  9
$PSLTSCALE
 70
     0
  9
$TREEDEPTH
 70
  3020
  9
$CMLSTYLE
  2
Standard
  9
$CMLJUST
 70
     0
  9
$CMLSCALE
 40
1.0
  9
$PROXYGRAPHICS
 70
     0
  9
$MEASUREMENT
 70
     0
  9
$CELWEIGHT
370
     0
  9
$ENDCAPS
280
     0
  9
$JOINSTYLE
280
     0
  9
$LWDISPLAY
290
     0
  9
$INSUNITS
 70
     0
  9
$HYPERLINKBASE
  1

  9
$STYLESHEET
  1

  9
$XEDIT
290
     1
  9
$CEPSNTYPE
380
     0
  9
$PSTYLEMODE
290
     1
  9
$FINGERPRINTGUID
  2

  9
$VERSIONGUID
  2

  9
$EXTNAMES
290
     1
  9
$PSVPSCALE
 40
0.0
  0
ENDSEC
  0
SECTION
  2
CLASSES
  0
CLASS
  1
LWPOLYLINE
  2
AcDbPolyline
  3
AutoCAD 2000
 90
        0
280
     0
281
     1
  0
CLASS
  1
IMAGE
  2
AcDbRasterImage
  3
ISM
 90
      127
280
     0
281
     1
  0
CLASS
  1
OLE2FRAME
  2
AcDbOle2Frame
  3
AutoCAD 2000
 90
        0
280
     0
281
     1
  0
CLASS
  1
HATCH
  2
AcDbHatch
  3
AutoCAD 2000
 90
        0
280
     0
281
     1
  0
CLASS
  1
DICTIONARYVAR
  2
AcDbDictionaryVar
  3
AutoCAD 2000
 90
        0
280
     0
281
     0
  0
CLASS
  1
RASTERVARIABLES
  2
AcDbRasterVariables
  3
ISM
 90
        0
280
     0
281
     0
  0
CLASS
  1
IMAGEDEF
  2
AcDbRasterImageDef
  3
ISM
 90
        0
280
     0
281
     0
  0
CLASS
  1
IMAGEDEF_REACTOR
  2
AcDbRasterImageDefReactor
  3
ISM
 90
        1
280
     0
281
     0
  0
CLASS
  1
IDBUFFER
  2
AcDbIdBuffer
  3
AutoCAD 2000
 90
        0
280
     0
281
     0
  0
CLASS
  1
SPATIAL_FILTER
  2
AcDbSpatialFilter
  3
AutoCAD 2000
 90
        0
280
     0
281
     0
  0
CLASS
  1
XRECORD
  2
AcDbXrecord
  3
AutoCAD 2000
 90
        0
280
     0
281
     0
  0
CLASS
  1
SORTENTSTABLE
  2
AcDbSortentsTable
  3
AutoCAD 2000
 90
        0
280
     0
281
     0
  0
CLASS
  1
LAYER_INDEX
  2
AcDbLayerIndex
  3
AutoCAD 2000
 90
        0
280
     0
281
     0
  0
CLASS
  1
SPATIAL_INDEX
  2
AcDbSpatialIndex
  3
AutoCAD 2000
 90
        0
280
     0
281
     0
  0
CLASS
  1
OBJECT_PTR
  2
CAseDLPNTableRecord
  3
"ASE-LPNTableRecord"
 90
        1
280
     0
281
     0
  0
CLASS
  1
LAYOUT
  2
AcDbLayout
  3
AutoCAD 2000
 90
        0
280
     0
281
     0
  0
CLASS
  1
PLOTSETTINGS
  2
AcDbPlotSettings
  3
AutoCAD 2000
 90
        0
280
     0
281
     0
  0
CLASS
  1
ACDBDICTIONARYWDFLT
  2
AcDbDictionaryWithDefault
  3
AutoCAD 2000
 90
        0
280
     0
281
     0
  0
CLASS
  1
ACDBPLACEHOLDER
  2
AcDbPlaceHolder
  3
AutoCAD 2000
 90
        0
280
     0
281
     0
  0
CLASS
  1
VBA_PROJECT
  2
AcDbVbaProject
  3
acadvba
 90
        0
280
     0
281
     0
  0
CLASS
  1
WIPEOUT
  2
AcDbWipeout
  3
WipeOut|AutoCAD Express Tool|expresstools@autodesk.com
 90
      127
280
     0
281
     1
  0
CLASS
  1
WIPEOUTVARIABLES
  2
AcDbWipeoutVariables
  3
WipeOut|AutoCAD Express Tool|expresstools@autodesk.com
 90
        0
280
     0
281
     0
  0
CLASS
  1
RTEXT
  2
RText
  3
RText|AutoCAD Express Tool|expresstools@autodesk.com
 90
        0
280
     0
281
     1
  0
CLASS
  1
ARCALIGNEDTEXT
  2
AcDbArcAlignedText
  3
ATEXT|AutoCAD Express Tool|expresstools@autodesk.com
 90
        0
280
     0
281
     1
  0
ENDSEC
  0
SECTION
  2
TABLES
  0
TABLE
  2
VPORT
  5
6
100
AcDbSymbolTable
 70
     1
  0
VPORT
  5
19
100
AcDbSymbolTableRecord
100
AcDbViewportTableRecord
  2
*ACTIVE
 70
     0
 10
0.0
 20
0.0
 11
1.0
 21
1.0
 12
0.0
 22
0.0
 13
0.0
 23
0.0
 14
1.0
 24
1.0
 15
0.0
 25
0.0
 16
0.0
 26
0.0
 36
1.0
 17
0.0
 27
0.0
 37
0.0
 40
1188.0
 41
1.415825
 42
50.0
 43
0.0
 44
0.0
 50
0.0
 51
0.0
 71
     0
 72
   500
 73
     1
 74
     1
 75
     0
 76
     0
 77
     0
 78
     0
281
     0
 65
     0
110
0.0
120
0.0
130
0.0
111
1.0
121
0.0
131
0.0
112
0.0
122
1.0
132
0.0
345
0
346
0
 79
     0
146
0.0
  0
ENDTAB
  0
TABLE
  2
LTYPE
  5
3
100
AcDbSymbolTable
 70
     9
  0
LTYPE
  5
C
100
AcDbSymbolTableRecord
100
AcDbLinetypeTableRecord
  2
ByBlock
 70
    64
  3

 72
    65
 73
     0
 40
0.0
  0
LTYPE
  5
D
100
AcDbSymbolTableRecord
100
AcDbLinetypeTableRecord
  2
ByLayer
 70
    64
  3

 72
    65
 73
     0
 40
0.0
  0
LTYPE
  5
E
100
AcDbSymbolTableRecord
100
AcDbLinetypeTableRecord
  2
CONTINUOUS
 70
     0
  3
Solid line
 72
    65
 73
     0
 40
0.0
  0
LTYPE
  5
F
100
AcDbSymbolTableRecord
100
AcDbLinetypeTableRecord
  2
DASHED
 70
     0
  3
__ __ __ __ __ __ __ __ __ __ __ __ __ __ __
 72
    65
 73
     2
 40
2.0
 49
1.2
 74
     0
 49
-0.8
 74
     0
  0
LTYPE
  5
10
100
AcDbSymbolTableRecord
100
AcDbLinetypeTableRecord
  2
CENTER
 70
     0
  3
____ _ ____ _ ____ _ ____ _ ____ _ ____ _ ____
 72
    65
 73
     4
 40
12.0
 49
9.0
 74
     0
 49
-1.0
 74
     0
 49
1.0
 74
     0
 49
-1.0
 74
     0
  0
LTYPE
  5
11
100
AcDbSymbolTableRecord
100
AcDbLinetypeTableRecord
  2
HIDDEN
 70
     0
  3
_ _ _ _ _ _ _ _ _ _ _ _ _ _ _ _ _ _ _ _ _ _ _
 72
    65
 73
     2
 40
3.2
 49
2.4
 74
     0
 49
-0.8
 74
     0
  0
LTYPE
  5
12
100
AcDbSymbolTableRecord
100
AcDbLinetypeTableRecord
  2
PHANTOM
 70
     0
  3
_____ _ _ _____ _ _ _____ _ _ _____ _ _ _____
 72
    65
 73
     6
 40
13.5
 49
9.0
 74
     0
 49
-1.0
 74
     0
 49
1.0
 74
     0
 49
-0.5
 74
     0
 49
1.0
 74
     0
 49
-1.0
 74
     0
  0
LTYPE
  5
13
100
AcDbSymbolTableRecord
100
AcDbLinetypeTableRecord
  2
DOT
 70
     0
  3
...............................................
 72
    65
 73
     2
 40
1.0
 49
0.5
 74
     0
 49
-0.5
 74
     0
  0
LTYPE
  5
14
100
AcDbSymbolTableRecord
100
AcDbLinetypeTableRecord
  2
DASHDOT
 70
     0
  3
__ . __ . __ . __ . __ . __ . __ . __ . __ . __
 72
    65
 73
     4
 40
8.0
 49
5.0
 74
     0
 49
-1.0
 74
     0
 49
1.0
 74
     0
 49
-1.0
 74
     0
  0
ENDTAB
  0
TABLE
  2
LAYER
  5
1
100
AcDbSymbolTable
 70
     4
  0
LAYER
  5
15
100
AcDbSymbolTableRecord
100
AcDbLayerTableRecord
  2
0
 70
     0
 62
     7
  6
CONTINUOUS
290
     1
370
    -3
390
0
  0
LAYER
  5
16
100
AcDbSymbolTableRecord
100
AcDbLayerTableRecord
  2
1
 70
     0
 62
     7
  6
CONTINUOUS
290
     1
370
    -3
390
0
  0
LAYER
  5
17
100
AcDbSymbolTableRecord
100
AcDbLayerTableRecord
  2
2
 70
     0
 62
     7
  6
CONTINUOUS
290
     1
370
    -3
390
0
  0
LAYER
  5
18
100
AcDbSymbolTableRecord
100
AcDbLayerTableRecord
  2
3
 70
     0
 62
     7
  6
CONTINUOUS
290
     1
370
    -3
390
0
  0
ENDTAB
  0
TABLE
  2
STYLE
  5
2
100
AcDbSymbolTable
 70
     1
  0
STYLE
  5
1B
100
AcDbSymbolTableRecord
100
AcDbTextStyleTableRecord
  2
STANDARD
 70
    64
 40
0.0
 41
1.0
 50
0.0
 71
     0
 42
1.0
  3
txt
  4
BIGFONT
  0
ENDTAB
  0
TABLE
  2
VIEW
  5
4
100
AcDbSymbolTable
 70
     0
  0
ENDTAB
  0
TABLE
  2
UCS
  5
5
100
AcDbSymbolTable
 70
     0
  0
ENDTAB
  0
TABLE
  2
APPID
  5
7
100
AcDbSymbolTable
 70
     1
  0
APPID
  5
1A
100
AcDbSymbolTableRecord
100
AcDbRegAppTableRecord
  2
ACAD
 70
     0
  0
ENDTAB
  0
TABLE
  2
DIMSTYLE
  5
8
100
AcDbSymbolTable
 70
     1
100
AcDbDimStyleTable
 71
     0
  0
DIMSTYLE
105
29
100
AcDbSymbolTableRecord
100
AcDbDimStyleTableRecord
  2
Standard
 70
     0
  3

  4

 40
2.0
 41
2.0
 42
1.0
 43
0.38
 44
2.0
 45
0.0
 46
0.0
 47
0.0
 48
0.0
 71
     0
 72
     0
 73
     0
 74
     0
 75
     0
 76
     0
 77
     1
 78
     0
 79
     0
140
3.5
141
0.09
142
0.0
143
25.4
144
1.0
145
0.0
146
1.0
147
0.5
148
0.0
170
     0
171
     2
172
     0
173
     0
174
     0
175
     0
176
     0
177
     0
178
     0
179
     0
271
     3
272
     4
273
     2
274
     2
275
     0
276
     0
277
     2
278
    46
279
     0
280
     0
281
     0
282
     0
283
     1
284
     0
285
     0
286
     0
288
     0
289
     3
340
1B
341
0
342
0
343
0
344
0
371
    -2
372
    -2
  0
ENDTAB
  0
TABLE
  2
BLOCK_RECORD
  5
24
100
AcDbSymbolTable
 70
     6
  0
BLOCK_RECORD
  5
22
100
AcDbSymbolTableRecord
100
AcDbBlockTableRecord
  2
*Model_Space
340
0
  0
BLOCK_RECORD
  5
23
100
AcDbSymbolTableRecord
100
AcDbBlockTableRecord
  2
*Paper_Space
340
0
  0
BLOCK_RECORD
  5
1C
100
AcDbSymbolTableRecord
100
AcDbBlockTableRecord
  2
*D0
340
0
  0
BLOCK_RECORD
  5
1D
100
AcDbSymbolTableRecord
100
AcDbBlockTableRecord
  2
*D1
340
0
  0
BLOCK_RECORD
  5
1E
100
AcDbSymbolTableRecord
100
AcDbBlockTableRecord
  2
*D2
340
0
  0
BLOCK_RECORD
  5
1F
100
AcDbSymbolTableRecord
100
AcDbBlockTableRecord
  2
*D3
340
0
  0
BLOCK_RECORD
  5
20
100
AcDbSymbolTableRecord
100
AcDbBlockTableRecord
  2
*D4
340
0
  0
BLOCK_RECORD
  5
21
100
AcDbSymbolTableRecord
100
AcDbBlockTableRecord
  2
*D5
340
0
  0
ENDTAB
  0
ENDSEC
  0
SECTION
  2
BLOCKS
  0
BLOCK
  5
25
100
AcDbEntity
  8
0
390
0
100
AcDbBlockBegin
  2
*Model_Space
 70
     0
 10
0.0
 20
0.0
 30
0.0
  3
*Model_Space
  1

  0
ENDBLK
  5
26
100
AcDbEntity
  8
0
390
0
100
AcDbBlockEnd
  0
BLOCK
  5
27
100
AcDbEntity
 67
     1
  8
0
390
0
100
AcDbBlockBegin
  2
*Paper_Space
 70
     0
 10
0.0
 20
0.0
 30
0.0
  3
*Paper_Space
  1

  0
ENDBLK
  5
28
100
AcDbEntity
 67
     1
  8
0
390
0
100
AcDbBlockEnd
  0
BLOCK
  5
213
100
AcDbEntity
  8
3
100
AcDbBlockBegin
  2
*D0
 70
     1
 10
0.0
 20
0.0
 30
0.0
  3
*D0
  1

  0
LINE
  5
214
100
AcDbEntity
  8
3
370
    25
100
AcDbLine
 10
-223.851909
 20
77.582352
 30
0.0
 11
-223.851909
 21
95.042973
 31
0.0
  0
LINE
  5
215
100
AcDbEntity
  8
3
370
    25
100
AcDbLine
 10
-223.851909
 20
93.042973
 30
0.0
 11
-219.988205
 21
92.007696
 31
0.0
  0
LINE
  5
216
100
AcDbEntity
  8
3
370
    25
100
AcDbLine
 10
-223.851909
 20
93.042973
 30
0.0
 11
-219.988205
 21
94.078249
 31
0.0
  0
LINE
  5
217
100
AcDbEntity
  8
3
370
    25
100
AcDbLine
 10
-219.988205
 20
92.007696
 30
0.0
 11
-219.988205
 21
94.078249
 31
0.0
  0
LINE
  5
218
100
AcDbEntity
  8
3
370
    25
100
AcDbLine
 10
-223.851909
 20
93.042973
 30
0.0
 11
-108.228442
 21
93.042973
 31
0.0
  0
LINE
  5
219
100
AcDbEntity
  8
3
370
    25
100
AcDbLine
 10
-108.228442
 20
93.042973
 30
0.0
 11
-112.092145
 21
94.078249
 31
0.0
  0
LINE
  5
21A
100
AcDbEntity
  8
3
370
    25
100
AcDbLine
 10
-108.228442
 20
93.042973
 30
0.0
 11
-112.092145
 21
92.007696
 31
0.0
  0
LINE
  5
21B
100
AcDbEntity
  8
3
370
    25
100
AcDbLine
 10
-112.092145
 20
94.078249
 30
0.0
 11
-112.092145
 21
92.007696
 31
0.0
  0
LINE
  5
21C
100
AcDbEntity
  8
3
370
    25
100
AcDbLine
 10
-108.228442
 20
122.031308
 30
0.0
 11
-108.228442
 21
91.042973
 31
0.0
  0
ENDBLK
  5
21D
100
AcDbEntity
  8
3
100
AcDbBlockEnd
  0
BLOCK
  5
21E
100
AcDbEntity
  8
3
100
AcDbBlockBegin
  2
*D1
 70
     1
 10
0.0
 20
0.0
 30
0.0
  3
*D1
  1

  0
TEXT
  5
21F
100
AcDbEntity
  8
3
370
    25
100
AcDbText
 10
-114.475395
 20
104.204796
 30
0.0
 40
6.0
  1
１５゜
 50
7.5
 72
     5
 11
-97.819122
 21
106.397636
 31
0.0
100
AcDbText
  0
LINE
  5
220
100
AcDbEntity
  8
3
370
    25
100
AcDbLine
 10
-108.228442
 20
122.031308
 30
0.0
 11
-108.228442
 21
100.648644
 31
0.0
  0
LINE
  5
221
100
AcDbEntity
  8
3
370
    25
100
AcDbLine
 10
-107.199906
 20
120.192761
 30
0.0
 11
-102.176563
 21
101.445389
 31
0.0
  0
LINE
  5
222
100
AcDbEntity
  8
3
370
    25
100
AcDbLine
 10
-108.228442
 20
102.648644
 30
0.0
 11
-111.982811
 21
104.028759
 31
0.0
  0
LINE
  5
223
100
AcDbEntity
  8
3
370
    25
100
AcDbLine
 10
-108.228442
 20
102.648644
 30
0.0
 11
-112.169878
 21
101.966674
 31
0.0
  0
LINE
  5
224
100
AcDbEntity
  8
3
370
    25
100
AcDbLine
 10
-111.982811
 20
104.028759
 30
0.0
 11
-112.169878
 21
101.966674
 31
0.0
  0
LINE
  5
225
100
AcDbEntity
  8
3
370
    25
100
AcDbLine
 10
-102.694201
 20
103.37724
 30
0.0
 11
-98.71056
 21
103.738627
 31
0.0
  0
LINE
  5
226
100
AcDbEntity
  8
3
370
    25
100
AcDbLine
 10
-102.694201
 20
103.37724
 30
0.0
 11
-99.42496
 21
105.682031
 31
0.0
  0
LINE
  5
227
100
AcDbEntity
  8
3
370
    25
100
AcDbLine
 10
-98.71056
 20
103.738627
 30
0.0
 11
-99.42496
 21
105.682031
 31
0.0
  0
ARC
  5
228
100
AcDbEntity
  8
3
370
    25
100
AcDbCircle
 10
-108.228442
 20
124.031308
 30
0.0
 40
21.382665
100
AcDbArc
 50
244.935986
 51
310.064014
  0
ENDBLK
  5
229
100
AcDbEntity
  8
3
100
AcDbBlockEnd
  0
BLOCK
  5
22A
100
AcDbEntity
  8
3
100
AcDbBlockBegin
  2
*D2
 70
     1
 10
0.0
 20
0.0
 30
0.0
  3
*D2
  1

  0
TEXT
  5
22B
100
AcDbEntity
  8
3
370
    25
100
AcDbText
 10
-149.551453
 20
-35.94573
 30
0.0
 40
6.0
  1
７０
 50
90.0
 72
     5
 11
-149.551453
 21
-25.14573
 31
0.0
100
AcDbText
  0
LINE
  5
22C
100
AcDbEntity
  8
3
370
    25
100
AcDbLine
 10
-199.351909
 20
-63.94573
 30
0.0
 11
-146.551453
 21
-63.94573
 31
0.0
  0
LINE
  5
22D
100
AcDbEntity
  8
3
370
    25
100
AcDbLine
 10
-148.551453
 20
-63.94573
 30
0.0
 11
-147.516176
 21
-60.082027
 31
0.0
  0
LINE
  5
22E
100
AcDbEntity
  8
3
370
    25
100
AcDbLine
 10
-148.551453
 20
-63.94573
 30
0.0
 11
-149.586729
 21
-60.082027
 31
0.0
  0
LINE
  5
22F
100
AcDbEntity
  8
3
370
    25
100
AcDbLine
 10
-147.516176
 20
-60.082027
 30
0.0
 11
-149.586729
 21
-60.082027
 31
0.0
  0
LINE
  5
230
100
AcDbEntity
  8
3
370
    25
100
AcDbLine
 10
-148.551453
 20
-63.94573
 30
0.0
 11
-148.551453
 21
6.05427
 31
0.0
  0
LINE
  5
231
100
AcDbEntity
  8
3
370
    25
100
AcDbLine
 10
-148.551453
 20
6.05427
 30
0.0
 11
-149.586729
 21
2.190567
 31
0.0
  0
LINE
  5
232
100
AcDbEntity
  8
3
370
    25
100
AcDbLine
 10
-148.551453
 20
6.05427
 30
0.0
 11
-147.516176
 21
2.190567
 31
0.0
  0
LINE
  5
233
100
AcDbEntity
  8
3
370
    25
100
AcDbLine
 10
-149.586729
 20
2.190567
 30
0.0
 11
-147.516176
 21
2.190567
 31
0.0
  0
LINE
  5
234
100
AcDbEntity
  8
3
370
    25
100
AcDbLine
 10
-159.699151
 20
6.05427
 30
0.0
 11
-146.551453
 21
6.05427
 31
0.0
  0
ENDBLK
  5
235
100
AcDbEntity
  8
3
100
AcDbBlockEnd
  0
BLOCK
  5
236
100
AcDbEntity
  8
3
100
AcDbBlockBegin
  2
*D3
 70
     1
 10
0.0
 20
0.0
 30
0.0
  3
*D3
  1

  0
TEXT
  5
237
100
AcDbEntity
  8
3
370
    25
100
AcDbText
 10
-240.619598
 20
-47.178066
 30
0.0
 40
6.0
  1
φ４６
 72
     5
 11
-223.819598
 21
-47.178066
 31
0.0
100
AcDbText
  0
LINE
  5
238
100
AcDbEntity
  8
3
370
    25
100
AcDbLine
 10
-247.869116
 20
-60.723728
 30
0.0
 11
-256.441446
 21
-46.211871
 31
0.0
  0
LINE
  5
239
100
AcDbEntity
  8
3
370
    25
100
AcDbLine
 10
-255.424239
 20
-47.933872
 30
0.0
 11
-251.560536
 21
-48.969148
 31
0.0
  0
LINE
  5
23A
100
AcDbEntity
  8
3
370
    25
100
AcDbLine
 10
-255.424239
 20
-47.933872
 30
0.0
 11
-251.560536
 21
-46.898596
 31
0.0
  0
LINE
  5
23B
100
AcDbEntity
  8
3
370
    25
100
AcDbLine
 10
-251.560536
 20
-48.969148
 30
0.0
 11
-251.560536
 21
-46.898596
 31
0.0
  0
LINE
  5
23C
100
AcDbEntity
  8
3
370
    25
100
AcDbLine
 10
-255.424239
 20
-47.933872
 30
0.0
 11
-209.424239
 21
-47.933872
 31
0.0
  0
LINE
  5
23D
100
AcDbEntity
  8
3
370
    25
100
AcDbLine
 10
-209.424239
 20
-47.933872
 30
0.0
 11
-213.287942
 21
-46.898596
 31
0.0
  0
LINE
  5
23E
100
AcDbEntity
  8
3
370
    25
100
AcDbLine
 10
-209.424239
 20
-47.933872
 30
0.0
 11
-213.287942
 21
-48.969148
 31
0.0
  0
LINE
  5
23F
100
AcDbEntity
  8
3
370
    25
100
AcDbLine
 10
-213.287942
 20
-46.898596
 30
0.0
 11
-213.287942
 21
-48.969148
 31
0.0
  0
LINE
  5
240
100
AcDbEntity
  8
3
370
    25
100
AcDbLine
 10
-201.869116
 20
-60.723728
 30
0.0
 11
-210.441446
 21
-46.211871
 31
0.0
  0
ENDBLK
  5
241
100
AcDbEntity
  8
3
100
AcDbBlockEnd
  0
BLOCK
  5
242
100
AcDbEntity
  8
3
100
AcDbBlockBegin
  2
*D4
 70
     1
 10
0.0
 20
0.0
 30
0.0
  3
*D4
  1

  0
LINE
  5
243
100
AcDbEntity
  8
3
370
    25
100
AcDbLine
 10
-248.351909
 20
-63.94573
 30
0.0
 11
-330.671112
 21
-63.94573
 31
0.0
  0
LINE
  5
244
100
AcDbEntity
  8
3
370
    25
100
AcDbLine
 10
-328.671112
 20
-63.94573
 30
0.0
 11
-327.635836
 21
-60.082027
 31
0.0
  0
LINE
  5
245
100
AcDbEntity
  8
3
370
    25
100
AcDbLine
 10
-328.671112
 20
-63.94573
 30
0.0
 11
-329.706388
 21
-60.082027
 31
0.0
  0
LINE
  5
246
100
AcDbEntity
  8
3
370
    25
100
AcDbLine
 10
-327.635836
 20
-60.082027
 30
0.0
 11
-329.706388
 21
-60.082027
 31
0.0
  0
LINE
  5
247
100
AcDbEntity
  8
3
370
    25
100
AcDbLine
 10
-328.671112
 20
-63.94573
 30
0.0
 11
-328.671112
 21
200.45427
 31
0.0
  0
LINE
  5
248
100
AcDbEntity
  8
3
370
    25
100
AcDbLine
 10
-328.671112
 20
200.45427
 30
0.0
 11
-329.706388
 21
196.590567
 31
0.0
  0
LINE
  5
249
100
AcDbEntity
  8
3
370
    25
100
AcDbLine
 10
-328.671112
 20
200.45427
 30
0.0
 11
-327.635836
 21
196.590567
 31
0.0
  0
LINE
  5
24A
100
AcDbEntity
  8
3
370
    25
100
AcDbLine
 10
-329.706388
 20
196.590567
 30
0.0
 11
-327.635836
 21
196.590567
 31
0.0
  0
LINE
  5
24B
100
AcDbEntity
  8
3
370
    25
100
AcDbLine
 10
-170.851909
 20
200.45427
 30
0.0
 11
-330.671112
 21
200.45427
 31
0.0
  0
ENDBLK
  5
24C
100
AcDbEntity
  8
3
100
AcDbBlockEnd
  0
BLOCK
  5
24D
100
AcDbEntity
  8
3
100
AcDbBlockBegin
  2
*D5
 70
     1
 10
0.0
 20
0.0
 30
0.0
  3
*D5
  1

  0
LINE
  5
24E
100
AcDbEntity
  8
3
370
    25
100
AcDbLine
 10
-199.351909
 20
-63.94573
 30
0.0
 11
-85.95459
 21
-63.94573
 31
0.0
  0
LINE
  5
24F
100
AcDbEntity
  8
3
370
    25
100
AcDbLine
 10
-87.95459
 20
-63.94573
 30
0.0
 11
-86.919314
 21
-60.082027
 31
0.0
  0
LINE
  5
250
100
AcDbEntity
  8
3
370
    25
100
AcDbLine
 10
-87.95459
 20
-63.94573
 30
0.0
 11
-88.989866
 21
-60.082027
 31
0.0
  0
LINE
  5
251
100
AcDbEntity
  8
3
370
    25
100
AcDbLine
 10
-86.919314
 20
-60.082027
 30
0.0
 11
-88.989866
 21
-60.082027
 31
0.0
  0
LINE
  5
252
100
AcDbEntity
  8
3
370
    25
100
AcDbLine
 10
-87.95459
 20
-63.94573
 30
0.0
 11
-87.95459
 21
124.031308
 31
0.0
  0
LINE
  5
253
100
AcDbEntity
  8
3
370
    25
100
AcDbLine
 10
-87.95459
 20
124.031308
 30
0.0
 11
-88.989866
 21
120.167605
 31
0.0
  0
LINE
  5
254
100
AcDbEntity
  8
3
370
    25
100
AcDbLine
 10
-87.95459
 20
124.031308
 30
0.0
 11
-86.919314
 21
120.167605
 31
0.0
  0
LINE
  5
255
100
AcDbEntity
  8
3
370
    25
100
AcDbLine
 10
-88.989866
 20
120.167605
 30
0.0
 11
-86.919314
 21
120.167605
 31
0.0
  0
LINE
  5
256
100
AcDbEntity
  8
3
370
    25
100
AcDbLine
 10
-106.228442
 20
124.031308
 30
0.0
 11
-85.95459
 21
124.031308
 31
0.0
  0
ENDBLK
  5
257
100
AcDbEntity
  8
3
100
AcDbBlockEnd
  0
ENDSEC
  0
SECTION
  2
ENTITIES
  0
LINE
  5
2A
100
AcDbEntity
  8
1
370
   100
100
AcDbLine
 10
-373.02157
 20
275.028767
 30
0.0
 11
394.982385
 21
275.028767
 31
0.0
  0
LINE
  5
2B
100
AcDbEntity
  8
1
370
   100
100
AcDbLine
 10
-373.02157
 20
275.028767
 30
0.0
 11
-373.02157
 21
-277.971881
 31
0.0
  0
LINE
  5
2C
100
AcDbEntity
  8
1
370
   100
100
AcDbLine
 10
-373.02157
 20
-277.971881
 30
0.0
 11
394.982385
 21
-277.971881
 31
0.0
  0
LINE
  5
2D
100
AcDbEntity
  8
1
370
   100
100
AcDbLine
 10
394.982385
 20
-277.971881
 30
0.0
 11
394.982385
 21
275.028767
 31
0.0
  0
TEXT
  5
2E
100
AcDbEntity
  8
1
370
    50
100
AcDbText
 10
359.628442
 20
-226.252857
 30
0.0
 40
6.0
  1
設計
 72
     5
 11
370.428442
 21
-226.252857
 31
0.0
100
AcDbText
  0
TEXT
  5
2F
100
AcDbEntity
  8
1
370
    50
100
AcDbText
 10
379.127478
 20
-226.099658
 30
0.0
 40
6.0
  1
製図
 72
     5
 11
389.927478
 21
-226.099658
 31
0.0
100
AcDbText
  0
TEXT
  5
30
100
AcDbEntity
  8
1
370
    50
100
AcDbText
 10
319.005745
 20
-226.252857
 30
0.0
 40
6.0
  1
承認
 72
     5
 11
329.805745
 21
-226.252857
 31
0.0
100
AcDbText
  0
TEXT
  5
31
100
AcDbEntity
  8
1
370
    50
100
AcDbText
 10
338.989679
 20
-226.19802
 30
0.0
 40
6.0
  1
検図
 72
     5
 11
349.789679
 21
-226.19802
 31
0.0
100
AcDbText
  0
LINE
  5
32
100
AcDbEntity
  8
1
370
    25
100
AcDbLine
 10
284.982385
 20
-227.971881
 30
0.0
 11
394.982385
 21
-227.971881
 31
0.0
  0
LINE
  5
33
100
AcDbEntity
  8
1
370
    25
100
AcDbLine
 10
342.482385
 20
-245.971881
 30
0.0
 11
342.482385
 21
-259.971881
 31
0.0
  0
TEXT
  5
34
100
AcDbEntity
  8
1
370
    50
100
AcDbText
 10
319.55159
 20
-256.012528
 30
0.0
 40
6.0
  1
日　付
 72
     5
 11
336.35159
 21
-256.012528
 31
0.0
100
AcDbText
  0
LINE
  5
35
100
AcDbEntity
  8
1
370
    50
100
AcDbLine
 10
40.982385
 20
-259.971881
 30
0.0
 11
394.982385
 21
-259.971881
 31
0.0
  0
TEXT
  5
36
100
AcDbEntity
  8
1
370
    50
100
AcDbText
 10
287.775011
 20
-256.322406
 30
0.0
 40
6.0
  1
第三角法
 72
     5
 11
310.575011
 21
-256.322406
 31
0.0
100
AcDbText
  0
TEXT
  5
37
100
AcDbEntity
  8
1
370
    50
100
AcDbText
 10
291.087419
 20
-225.99802
 30
0.0
 40
6.0
  1
尺　度
 72
     5
 11
307.887419
 21
-225.99802
 31
0.0
100
AcDbText
  0
LINE
  5
38
100
AcDbEntity
  8
1
370
   100
100
AcDbLine
 10
40.982385
 20
-217.971881
 30
0.0
 11
394.982385
 21
-217.971881
 31
0.0
  0
LINE
  5
39
100
AcDbEntity
  8
1
370
    50
100
AcDbLine
 10
211.982385
 20
-217.971881
 30
0.0
 11
211.982385
 21
-277.971881
 31
0.0
  0
LINE
  5
3A
100
AcDbEntity
  8
1
370
    25
100
AcDbLine
 10
374.982385
 20
-245.971881
 30
0.0
 11
374.982385
 21
-217.971881
 31
0.0
  0
LINE
  5
3B
100
AcDbEntity
  8
1
370
    25
100
AcDbLine
 10
354.982385
 20
-245.971881
 30
0.0
 11
354.982385
 21
-217.971881
 31
0.0
  0
LINE
  5
3C
100
AcDbEntity
  8
1
370
    25
100
AcDbLine
 10
334.982385
 20
-245.971881
 30
0.0
 11
334.982385
 21
-217.971881
 31
0.0
  0
LINE
  5
3D
100
AcDbEntity
  8
1
370
    50
100
AcDbLine
 10
284.982385
 20
-277.971881
 30
0.0
 11
284.982385
 21
-217.971881
 31
0.0
  0
LINE
  5
3E
100
AcDbEntity
  8
1
370
    50
100
AcDbLine
 10
189.982385
 20
-217.971881
 30
0.0
 11
189.982385
 21
-277.971881
 31
0.0
  0
LINE
  5
3F
100
AcDbEntity
  8
1
370
    50
100
AcDbLine
 10
62.982385
 20
-217.971881
 30
0.0
 11
62.982385
 21
-259.971881
 31
0.0
  0
LINE
  5
40
100
AcDbEntity
  8
1
370
    50
100
AcDbLine
 10
284.982385
 20
-245.971881
 30
0.0
 11
394.982385
 21
-245.971881
 31
0.0
  0
TEXT
  5
41
100
AcDbEntity
  8
1
370
    50
100
AcDbText
 10
287.101129
 20
-271.880939
 30
0.0
 40
6.0
  1
コードＮｏ
 41
0.9
 72
     5
 11
313.021129
 21
-271.880939
 31
0.0
100
AcDbText
  0
TEXT
  5
42
100
AcDbEntity
  8
1
370
   100
100
AcDbText
 10
52.886774
 20
-272.875659
 30
0.0
 40
8.0
  1
ミズタニバルブ工業株式会社
 41
1.2
 72
     5
 11
175.766774
 21
-272.875659
 31
0.0
100
AcDbText
  0
LINE
  5
43
100
AcDbEntity
  8
1
370
    50
100
AcDbLine
 10
40.982385
 20
-238.971881
 30
0.0
 11
284.982385
 21
-238.971881
 31
0.0
  0
LINE
  5
44
100
AcDbEntity
  8
1
370
    50
100
AcDbLine
 10
115.482385
 20
-238.971881
 30
0.0
 11
115.482385
 21
-259.971881
 31
0.0
  0
LINE
  5
45
100
AcDbEntity
  8
1
370
    50
100
AcDbLine
 10
137.482385
 20
-238.971881
 30
0.0
 11
137.482385
 21
-259.971881
 31
0.0
  0
LINE
  5
46
100
AcDbEntity
  8
1
370
    50
100
AcDbLine
 10
314.982385
 20
-277.971881
 30
0.0
 11
314.982385
 21
-217.971881
 31
0.0
  0
TEXT
  5
47
100
AcDbEntity
  8
1
370
    50
100
AcDbText
 10
345.098131
 20
-256.100293
 30
0.0
 40
6.0
  1
　　・　　・
 72
     5
 11
379.898131
 21
-256.100293
 31
0.0
100
AcDbText
  0
LINE
  5
48
100
AcDbEntity
  8
1
370
   100
100
AcDbLine
 10
40.982385
 20
-217.971881
 30
0.0
 11
40.982385
 21
-277.971881
 31
0.0
  0
TEXT
  5
49
100
AcDbEntity
  8
1
370
    50
100
AcDbText
 10
290.832582
 20
-240.013492
 30
0.0
 40
6.0
  1
　／ 
 72
     5
 11
301.632582
 21
-240.013492
 31
0.0
100
AcDbText
  0
TEXT
  5
4A
100
AcDbEntity
  8
1
370
    50
100
AcDbText
 10
193.904123
 20
-272.024909
 30
0.0
 40
6.0
  1
備 考 
 72
     5
 11
207.704123
 21
-272.024909
 31
0.0
100
AcDbText
  0
TEXT
  5
4B
100
AcDbEntity
  8
1
370
    50
100
AcDbText
 10
193.512534
 20
-230.89184
 30
0.0
 40
6.0
  1
仕 上
 72
     5
 11
207.312534
 21
-230.89184
 31
0.0
100
AcDbText
  0
TEXT
  5
4C
100
AcDbEntity
  8
1
370
    50
100
AcDbText
 10
193.447176
 20
-248.891666
 30
0.0
 40
6.0
  1
表 面
 72
     5
 11
207.247176
 21
-248.891666
 31
0.0
100
AcDbText
  0
TEXT
  5
4D
100
AcDbEntity
  8
1
370
    50
100
AcDbText
 10
193.447176
 20
-255.891666
 30
0.0
 40
6.0
  1
処 理
 72
     5
 11
207.247176
 21
-255.891666
 31
0.0
100
AcDbText
  0
TEXT
  5
4E
100
AcDbEntity
  8
1
370
    50
100
AcDbText
 10
44.79335
 20
-231.693399
 30
0.0
 40
6.0
  1
品 名
 72
     5
 11
58.59335
 21
-231.693399
 31
0.0
100
AcDbText
  0
TEXT
  5
4F
100
AcDbEntity
  8
1
370
    50
100
AcDbText
 10
44.397766
 20
-252.462534
 30
0.0
 40
6.0
  1
材 質
 72
     5
 11
58.197766
 21
-252.462534
 31
0.0
100
AcDbText
  0
TEXT
  5
50
100
AcDbEntity
  8
1
370
    50
100
AcDbText
 10
118.897766
 20
-252.462534
 30
0.0
 40
6.0
  1
規 格
 72
     5
 11
132.697766
 21
-252.462534
 31
0.0
100
AcDbText
  0
LINE
  5
51
100
AcDbEntity
  8
2
370
    25
  6
CENTER
100
AcDbLine
 10
-223.851909
 20
137.55427
 30
0.0
 11
-223.851909
 21
-141.450216
 31
0.0
  0
LINE
  5
52
100
AcDbEntity
  8
2
370
    50
100
AcDbLine
 10
-214.601909
 20
-13.94573
 30
0.0
 11
-214.601909
 21
-57.44573
 31
0.0
  0
LINE
  5
53
100
AcDbEntity
  8
2
370
    50
100
AcDbLine
 10
-233.101909
 20
-18.151876
 30
0.0
 11
-233.101909
 21
-57.44573
 31
0.0
  0
LINE
  5
54
100
AcDbEntity
  8
2
370
    50
100
AcDbLine
 10
-200.851909
 20
-62.44573
 30
0.0
 11
-200.851909
 21
-63.44573
 31
0.0
  0
LINE
  5
55
100
AcDbEntity
  8
2
370
    50
100
AcDbLine
 10
-246.851909
 20
-62.44573
 30
0.0
 11
-246.851909
 21
-63.44573
 31
0.0
  0
LINE
  5
56
100
AcDbEntity
  8
2
370
    50
100
AcDbLine
 10
-199.351909
 20
18.05427
 30
0.0
 11
-204.851909
 21
18.05427
 31
0.0
  0
ARC
  5
57
100
AcDbEntity
  8
2
370
    50
100
AcDbCircle
 10
-204.851909
 20
25.05427
 30
0.0
 40
7.0
100
AcDbArc
 50
180.0
 51
270.0
  0
ARC
  5
58
100
AcDbEntity
  8
2
370
    50
100
AcDbCircle
 10
-186.851909
 20
6.05427
 30
0.0
 40
50.0
100
AcDbArc
 50
168.745287
 51
197.612439
  0
ARC
  5
59
100
AcDbEntity
  8
2
370
    50
100
AcDbCircle
 10
-263.101909
 20
-18.151876
 30
0.0
 40
30.0
100
AcDbArc
 50
0.0
 51
17.612439
  0
ARC
  5
5A
100
AcDbEntity
  8
2
370
    50
100
AcDbCircle
 10
-237.851909
 20
16.203162
 30
0.0
 40
2.0
100
AcDbArc
 50
348.745287
 51
360.0
  0
LINE
  5
5B
100
AcDbEntity
  8
2
370
    50
100
AcDbLine
 10
-201.851909
 20
-61.44573
 30
0.0
 11
-223.851909
 21
-61.44573
 31
0.0
  0
LINE
  5
5C
100
AcDbEntity
  8
2
370
    50
100
AcDbLine
 10
-223.851909
 20
-61.44573
 30
0.0
 11
-245.851909
 21
-61.44573
 31
0.0
  0
LINE
  5
5D
100
AcDbEntity
  8
2
370
    50
100
AcDbLine
 10
-201.351909
 20
-63.94573
 30
0.0
 11
-223.851909
 21
-63.94573
 31
0.0
  0
LINE
  5
5E
100
AcDbEntity
  8
2
370
    50
100
AcDbLine
 10
-223.851909
 20
-63.94573
 30
0.0
 11
-246.351909
 21
-63.94573
 31
0.0
  0
ARC
  5
5F
100
AcDbEntity
  8
2
370
    50
100
AcDbCircle
 10
-237.101909
 20
-57.44573
 30
0.0
 40
4.0
100
AcDbArc
 50
270.0
 51
360.0
  0
ARC
  5
60
100
AcDbEntity
  8
2
370
    50
100
AcDbCircle
 10
-210.601909
 20
-57.44573
 30
0.0
 40
4.0
100
AcDbArc
 50
180.0
 51
270.0
  0
LINE
  5
61
100
AcDbEntity
  8
2
370
    50
100
AcDbLine
 10
-211.851909
 20
29.05427
 30
0.0
 11
-210.851909
 21
30.05427
 31
0.0
  0
LINE
  5
62
100
AcDbEntity
  8
2
370
    50
100
AcDbLine
 10
-235.851909
 20
29.05427
 30
0.0
 11
-236.851909
 21
30.05427
 31
0.0
  0
LINE
  5
63
100
AcDbEntity
  8
2
370
    50
100
AcDbLine
 10
-235.851909
 20
29.05427
 30
0.0
 11
-235.851909
 21
16.203162
 31
0.0
  0
LINE
  5
64
100
AcDbEntity
  8
2
370
    50
100
AcDbLine
 10
-211.851909
 20
29.05427
 30
0.0
 11
-211.851909
 21
25.05427
 31
0.0
  0
ARC
  5
65
100
AcDbEntity
  8
2
370
    50
100
AcDbCircle
 10
-245.851909
 20
-62.44573
 30
0.0
 40
1.0
100
AcDbArc
 50
90.0
 51
180.0
  0
ARC
  5
66
100
AcDbEntity
  8
2
370
    50
100
AcDbCircle
 10
-201.851909
 20
-62.44573
 30
0.0
 40
1.0
100
AcDbArc
 50
360.0
 51
90.0
  0
ARC
  5
67
100
AcDbEntity
  8
2
370
    50
100
AcDbCircle
 10
-206.601909
 20
-13.94573
 30
0.0
 40
8.0
100
AcDbArc
 50
90.0
 51
180.0
  0
LINE
  5
68
100
AcDbEntity
  8
2
370
    50
100
AcDbLine
 10
-246.351909
 20
-63.94573
 30
0.0
 11
-246.851909
 21
-63.44573
 31
0.0
  0
LINE
  5
69
100
AcDbEntity
  8
2
370
    50
100
AcDbLine
 10
-201.351909
 20
-63.94573
 30
0.0
 11
-200.851909
 21
-63.44573
 31
0.0
  0
LINE
  5
6A
100
AcDbEntity
  8
2
370
    25
  6
CENTER
100
AcDbLine
 10
88.535966
 20
207.77478
 30
0.0
 11
88.535966
 21
-131.44996
 31
0.0
  0
LINE
  5
6B
100
AcDbEntity
  8
2
370
    50
100
AcDbLine
 10
97.785966
 20
-14.82459
 30
0.0
 11
97.785966
 21
-57.445473
 31
0.0
  0
LINE
  5
6C
100
AcDbEntity
  8
2
370
    50
100
AcDbLine
 10
79.285966
 20
-14.82459
 30
0.0
 11
79.285966
 21
-57.445473
 31
0.0
  0
LINE
  5
6D
100
AcDbEntity
  8
2
370
    50
100
AcDbLine
 10
111.535966
 20
-62.445473
 30
0.0
 11
111.535966
 21
-63.445473
 31
0.0
  0
LINE
  5
6E
100
AcDbEntity
  8
2
370
    50
100
AcDbLine
 10
65.535966
 20
-62.445473
 30
0.0
 11
65.535966
 21
-63.445473
 31
0.0
  0
LINE
  5
6F
100
AcDbEntity
  8
2
370
    50
100
AcDbLine
 10
110.535966
 20
-61.445473
 30
0.0
 11
66.535966
 21
-61.445473
 31
0.0
  0
LINE
  5
70
100
AcDbEntity
  8
2
370
    50
100
AcDbLine
 10
111.035966
 20
-63.945473
 30
0.0
 11
66.035966
 21
-63.945473
 31
0.0
  0
ARC
  5
71
100
AcDbEntity
  8
2
370
    50
100
AcDbCircle
 10
75.285966
 20
-57.445473
 30
0.0
 40
4.0
100
AcDbArc
 50
270.0
 51
360.0
  0
ARC
  5
72
100
AcDbEntity
  8
2
370
    50
100
AcDbCircle
 10
101.785966
 20
-57.445473
 30
0.0
 40
4.0
100
AcDbArc
 50
180.0
 51
270.0
  0
LINE
  5
73
100
AcDbEntity
  8
2
370
    50
100
AcDbLine
 10
76.535966
 20
29.054527
 30
0.0
 11
76.535966
 21
13.269917
 31
0.0
  0
LINE
  5
74
100
AcDbEntity
  8
2
370
    50
100
AcDbLine
 10
100.535966
 20
29.054527
 30
0.0
 11
100.535966
 21
13.269917
 31
0.0
  0
ARC
  5
75
100
AcDbEntity
  8
2
370
    50
100
AcDbCircle
 10
66.535966
 20
-62.445473
 30
0.0
 40
1.0
100
AcDbArc
 50
90.0
 51
180.0
  0
ARC
  5
76
100
AcDbEntity
  8
2
370
    50
100
AcDbCircle
 10
110.535966
 20
-62.445473
 30
0.0
 40
1.0
100
AcDbArc
 50
360.0
 51
90.0
  0
LINE
  5
77
100
AcDbEntity
  8
2
370
    50
100
AcDbLine
 10
66.035966
 20
-63.945473
 30
0.0
 11
65.535966
 21
-63.445473
 31
0.0
  0
LINE
  5
78
100
AcDbEntity
  8
2
370
    50
100
AcDbLine
 10
111.035966
 20
-63.945473
 30
0.0
 11
111.535966
 21
-63.445473
 31
0.0
  0
LINE
  5
79
100
AcDbEntity
  8
2
370
    50
100
AcDbLine
 10
111.535966
 20
-63.445473
 30
0.0
 11
65.535966
 21
-63.445473
 31
0.0
  0
LINE
  5
7A
100
AcDbEntity
  8
2
370
    25
100
AcDbLine
 10
-199.351909
 20
17.45427
 30
0.0
 11
-199.851909
 21
17.45427
 31
0.0
  0
LINE
  5
7B
100
AcDbEntity
  8
2
370
    50
100
AcDbLine
 10
-199.851909
 20
17.45427
 30
0.0
 11
-200.451909
 21
18.05427
 31
0.0
  0
LINE
  5
7C
100
AcDbEntity
  8
2
370
    50
100
AcDbLine
 10
-199.851909
 20
-5.34573
 30
0.0
 11
-200.451909
 21
-5.94573
 31
0.0
  0
LINE
  5
7D
100
AcDbEntity
  8
2
370
    50
100
AcDbLine
 10
97.635966
 20
-67.445473
 30
0.0
 11
79.435966
 21
-67.445473
 31
0.0
  0
LINE
  5
7E
100
AcDbEntity
  8
2
370
    50
100
AcDbLine
 10
97.635966
 20
-67.445473
 30
0.0
 11
98.135966
 21
-66.945473
 31
0.0
  0
LINE
  5
7F
100
AcDbEntity
  8
2
370
    50
100
AcDbLine
 10
79.435966
 20
-67.445473
 30
0.0
 11
78.935966
 21
-66.945473
 31
0.0
  0
ARC
  5
80
100
AcDbEntity
  8
2
370
    50
100
AcDbCircle
 10
49.285966
 20
-14.82459
 30
0.0
 40
30.0
100
AcDbArc
 50
0.0
 51
8.787851
  0
ARC
  5
81
100
AcDbEntity
  8
2
370
    50
100
AcDbCircle
 10
127.785966
 20
-14.82459
 30
0.0
 40
30.0
100
AcDbArc
 50
171.212149
 51
180.0
  0
LINE
  5
82
100
AcDbEntity
  8
2
370
    25
100
AcDbLine
 10
-211.486909
 20
30.05427
 30
0.0
 11
-211.486909
 21
29.41927
 31
0.0
  0
LINE
  5
83
100
AcDbEntity
  8
2
370
    50
100
AcDbLine
 10
76.535966
 20
29.054527
 30
0.0
 11
75.535966
 21
30.054527
 31
0.0
  0
LINE
  5
84
100
AcDbEntity
  8
2
370
    50
100
AcDbLine
 10
100.535966
 20
29.054527
 30
0.0
 11
101.535966
 21
30.054527
 31
0.0
  0
LINE
  5
85
100
AcDbEntity
  8
2
370
    25
100
AcDbLine
 10
100.900966
 20
29.419527
 30
0.0
 11
100.900966
 21
30.054527
 31
0.0
  0
LINE
  5
86
100
AcDbEntity
  8
2
370
    25
100
AcDbLine
 10
76.170966
 20
30.054527
 30
0.0
 11
76.170966
 21
29.419527
 31
0.0
  0
LINE
  5
87
100
AcDbEntity
  8
2
370
    50
100
AcDbLine
 10
-206.539119
 20
-5.945976
 30
0.0
 11
-199.351909
 21
-5.945976
 31
0.0
  0
ARC
  5
88
100
AcDbEntity
  8
2
370
    50
100
AcDbCircle
 10
-195.851909
 20
-2.841633
 30
0.0
 40
5.0
100
AcDbArc
 50
225.572996
 51
314.427004
  0
LINE
  5
89
100
AcDbEntity
  8
2
370
    50
100
AcDbLine
 10
-199.351909
 20
-6.412347
 30
0.0
 11
-199.351909
 21
-5.945923
 31
0.0
  0
LINE
  5
8A
100
AcDbEntity
  8
2
370
    50
100
AcDbLine
 10
-199.852062
 20
-5.345884
 30
0.0
 11
-199.351909
 21
-5.345884
 31
0.0
  0
LINE
  5
8B
100
AcDbEntity
  8
2
370
    50
100
AcDbLine
 10
-231.751909
 20
40.05427
 30
0.0
 11
-231.751909
 21
41.096332
 31
0.0
  0
LINE
  5
8C
100
AcDbEntity
  8
2
370
    50
100
AcDbLine
 10
-237.601909
 20
30.05427
 30
0.0
 11
-223.851909
 21
30.05427
 31
0.0
  0
LINE
  5
8D
100
AcDbEntity
  8
2
370
    50
100
AcDbLine
 10
-210.101909
 20
30.05427
 30
0.0
 11
-223.851909
 21
30.05427
 31
0.0
  0
LINE
  5
8E
100
AcDbEntity
  8
2
370
    50
100
AcDbLine
 10
-234.351909
 20
40.05427
 30
0.0
 11
-223.851909
 21
40.05427
 31
0.0
  0
LINE
  5
8F
100
AcDbEntity
  8
2
370
    50
100
AcDbLine
 10
-237.851909
 20
30.333594
 30
0.0
 11
-237.851909
 21
38.019946
 31
0.0
  0
LINE
  5
90
100
AcDbEntity
  8
2
370
    50
100
AcDbLine
 10
-209.851909
 20
30.333594
 30
0.0
 11
-209.851909
 21
38.019946
 31
0.0
  0
LINE
  5
91
100
AcDbEntity
  8
2
370
    50
100
AcDbLine
 10
-223.851909
 20
40.05427
 30
0.0
 11
-213.351909
 21
40.05427
 31
0.0
  0
ARC
  5
92
100
AcDbEntity
  8
2
370
    50
100
AcDbCircle
 10
-233.276908
 20
34.17677
 30
0.0
 40
5.975001
100
AcDbArc
 50
100.364894
 51
139.968454
  0
ARC
  5
93
100
AcDbEntity
  8
2
370
    50
100
AcDbCircle
 10
-233.276908
 20
34.17677
 30
0.0
 40
5.975001
100
AcDbArc
 50
220.031546
 51
223.626783
  0
ARC
  5
94
100
AcDbEntity
  8
2
370
    50
100
AcDbCircle
 10
-214.42691
 20
34.17677
 30
0.0
 40
5.975001
100
AcDbArc
 50
316.373217
 51
319.968454
  0
ARC
  5
95
100
AcDbEntity
  8
2
370
    50
100
AcDbCircle
 10
-214.42691
 20
34.17677
 30
0.0
 40
5.975001
100
AcDbArc
 50
40.031546
 51
79.635106
  0
ARC
  5
96
100
AcDbEntity
  8
2
370
    50
100
AcDbCircle
 10
86.260966
 20
-120.445473
 30
0.0
 40
15.025
100
AcDbArc
 50
336.463422
 51
23.536578
  0
LINE
  5
97
100
AcDbEntity
  8
2
370
    50
100
AcDbLine
 10
100.035966
 20
-114.445473
 30
0.0
 11
77.035966
 21
-114.445473
 31
0.0
  0
ELLIPSE
  5
98
100
AcDbEntity
  8
2
370
    50
100
AcDbEllipse
 10
98.495258
 20
-120.445473
 30
0.0
 11
0.0
 21
6.0
 31
0.0
210
0.0
220
0.0
230
1.0
 40
0.458833
 41
0.0
 42
6.2831849999999996
  0
ELLIPSE
  5
99
100
AcDbEntity
  8
2
370
    50
100
AcDbEllipse
 10
88.535966
 20
-120.445473
 30
0.0
 11
0.0
 21
6.0
 31
0.0
210
0.0
220
0.0
230
1.0
 40
0.926667
 41
0.0
 42
6.2831849999999996
  0
LINE
  5
9A
100
AcDbEntity
  8
2
370
    50
100
AcDbLine
 10
100.035966
 20
-126.445473
 30
0.0
 11
77.035966
 21
-126.445473
 31
0.0
  0
ARC
  5
9B
100
AcDbEntity
  8
2
370
    50
100
AcDbCircle
 10
90.810966
 20
-120.445473
 30
0.0
 40
15.025
100
AcDbArc
 50
156.463422
 51
203.536578
  0
ELLIPSE
  5
9C
100
AcDbEntity
  8
2
370
    50
100
AcDbEllipse
 10
78.576674
 20
-120.445473
 30
0.0
 11
0.0
 21
6.0
 31
0.0
210
0.0
220
0.0
230
1.0
 40
0.458833
 41
0.0
 42
6.2831849999999996
  0
LINE
  5
9D
100
AcDbEntity
  8
2
370
    25
  6
CENTER
100
AcDbLine
 10
121.412368
 20
6.054527
 30
0.0
 11
54.282119
 21
6.054527
 31
0.0
  0
ARC
  5
9E
100
AcDbEntity
  8
2
370
    50
100
AcDbCircle
 10
78.884286
 20
34.369147
 30
0.0
 40
5.74832
100
AcDbArc
 50
98.486542
 51
228.64134
  0
ARC
  5
9F
100
AcDbEntity
  8
2
370
    50
100
AcDbCircle
 10
98.187645
 20
34.369147
 30
0.0
 40
5.74832
100
AcDbArc
 50
311.35866
 51
81.513458
  0
ELLIPSE
  5
A0
100
AcDbEntity
  8
2
370
    50
100
AcDbEllipse
 10
100.671519
 20
34.304527
 30
0.0
 11
0.0
 21
4.0
 31
0.0
210
0.0
220
0.0
230
1.0
 40
0.810375
 41
0.0
 42
6.2831849999999996
  0
ELLIPSE
  5
A1
100
AcDbEntity
  8
2
370
    50
100
AcDbEllipse
 10
76.400413
 20
34.304527
 30
0.0
 11
0.0
 21
4.0
 31
0.0
210
0.0
220
0.0
230
1.0
 40
0.810375
 41
0.0
 42
6.2831849999999996
  0
LINE
  5
A2
100
AcDbEntity
  8
2
370
    50
100
AcDbLine
 10
76.535966
 20
29.054527
 30
0.0
 11
82.211411
 21
29.054527
 31
0.0
  0
LINE
  5
A3
100
AcDbEntity
  8
2
370
    50
100
AcDbLine
 10
94.860521
 20
29.054527
 30
0.0
 11
100.535966
 21
29.054527
 31
0.0
  0
LINE
  5
A4
100
AcDbEntity
  8
2
370
    50
100
AcDbLine
 10
75.085966
 20
30.054527
 30
0.0
 11
82.055225
 21
30.054527
 31
0.0
  0
LINE
  5
A5
100
AcDbEntity
  8
2
370
    50
100
AcDbLine
 10
95.016707
 20
30.054527
 30
0.0
 11
101.985966
 21
30.054527
 31
0.0
  0
LINE
  5
A6
100
AcDbEntity
  8
2
370
    50
100
AcDbLine
 10
78.035966
 20
40.054527
 30
0.0
 11
88.535966
 21
40.054527
 31
0.0
  0
LINE
  5
A7
100
AcDbEntity
  8
2
370
    50
100
AcDbLine
 10
88.535966
 20
40.054527
 30
0.0
 11
99.035966
 21
40.054527
 31
0.0
  0
ELLIPSE
  5
A8
100
AcDbEntity
  8
2
370
    50
100
AcDbEllipse
 10
88.535966
 20
34.304527
 30
0.0
 11
6.4154999999999998
 21
0.0
 31
0.0
210
0.0
220
0.0
230
1.0
 40
0.62349
 41
5.939368
 42
1.5707960000000001
  0
ELLIPSE
  5
A9
100
AcDbEntity
  8
2
370
    50
100
AcDbEllipse
 10
88.535966
 20
34.304527
 30
0.0
 11
6.4154999999999998
 21
0.0
 31
0.0
210
0.0
220
0.0
230
1.0
 40
0.62349
 41
1.5707960000000001
 42
3.4854099999999999
  0
LINE
  5
AA
100
AcDbEntity
  8
2
370
    50
100
AcDbLine
 10
106.035966
 20
-81.445473
 30
0.0
 11
106.035966
 21
-79.945473
 31
0.0
  0
LINE
  5
AB
100
AcDbEntity
  8
2
370
    50
100
AcDbLine
 10
71.035966
 20
-79.945473
 30
0.0
 11
106.035966
 21
-79.945473
 31
0.0
  0
LINE
  5
AC
100
AcDbEntity
  8
2
370
    50
100
AcDbLine
 10
71.035966
 20
-81.445473
 30
0.0
 11
106.035966
 21
-81.445473
 31
0.0
  0
LINE
  5
AD
100
AcDbEntity
  8
2
370
    50
100
AcDbLine
 10
100.535966
 20
-90.145473
 30
0.0
 11
76.535966
 21
-90.145473
 31
0.0
  0
LINE
  5
AE
100
AcDbEntity
  8
2
370
    50
100
AcDbLine
 10
102.285966
 20
-89.13511
 30
0.0
 11
102.285966
 21
-83.645473
 31
0.0
  0
LINE
  5
AF
100
AcDbEntity
  8
2
370
    50
100
AcDbLine
 10
100.535966
 20
-90.145473
 30
0.0
 11
102.285966
 21
-89.13511
 31
0.0
  0
LINE
  5
B0
100
AcDbEntity
  8
2
370
    50
100
AcDbLine
 10
108.535966
 20
-83.145473
 30
0.0
 11
108.535966
 21
-81.945473
 31
0.0
  0
LINE
  5
B1
100
AcDbEntity
  8
2
370
    50
100
AcDbLine
 10
74.215415
 20
-83.645473
 30
0.0
 11
102.856516
 21
-83.645473
 31
0.0
  0
LINE
  5
B2
100
AcDbEntity
  8
2
370
    50
100
AcDbLine
 10
108.535966
 20
-81.945473
 30
0.0
 11
68.535966
 21
-81.945473
 31
0.0
  0
LINE
  5
B3
100
AcDbEntity
  8
2
370
    50
100
AcDbLine
 10
108.535966
 20
-83.145473
 30
0.0
 11
68.535966
 21
-83.145473
 31
0.0
  0
ARC
  5
B4
100
AcDbEntity
  8
2
370
    50
100
AcDbCircle
 10
102.856516
 20
-78.645473
 30
0.0
 40
5.0
100
AcDbArc
 50
270.0
 51
293.556464
  0
ARC
  5
B5
100
AcDbEntity
  8
2
370
    50
100
AcDbCircle
 10
102.856516
 20
-86.445473
 30
0.0
 40
5.0
100
AcDbArc
 50
66.443536
 51
90.0
  0
ARC
  5
B6
100
AcDbEntity
  8
2
370
    50
100
AcDbCircle
 10
105.254432
 20
-84.145473
 30
0.0
 40
1.0
100
AcDbArc
 50
90.0
 51
113.556464
  0
ARC
  5
B7
100
AcDbEntity
  8
2
370
    50
100
AcDbCircle
 10
105.254432
 20
-80.945473
 30
0.0
 40
1.0
100
AcDbArc
 50
246.443536
 51
270.0
  0
LINE
  5
B8
100
AcDbEntity
  8
2
370
    50
100
AcDbLine
 10
95.535966
 20
-89.13511
 30
0.0
 11
95.535966
 21
-83.645473
 31
0.0
  0
ARC
  5
B9
100
AcDbEntity
  8
2
370
    50
100
AcDbCircle
 10
88.535966
 20
-65.391581
 30
0.0
 40
24.753893
100
AcDbArc
 50
253.573579
 51
286.426421
  0
ARC
  5
BA
100
AcDbEntity
  8
2
370
    50
100
AcDbCircle
 10
98.910966
 20
-84.003394
 30
0.0
 40
6.142079
100
AcDbArc
 50
236.668091
 51
303.331909
  0
ARC
  5
BB
100
AcDbEntity
  8
2
370
    50
100
AcDbCircle
 10
88.535966
 20
-67.395473
 30
0.0
 40
16.25
100
AcDbArc
 50
270.0
 51
284.250033
  0
ARC
  5
BC
100
AcDbEntity
  8
2
370
    50
100
AcDbCircle
 10
96.785966
 20
-67.395473
 30
0.0
 40
16.25
100
AcDbArc
 50
262.930286
 51
284.250033
  0
ARC
  5
BD
100
AcDbEntity
  8
2
370
    50
100
AcDbCircle
 10
92.785966
 20
-67.395473
 30
0.0
 40
16.25
100
AcDbArc
 50
262.485955
 51
284.250033
  0
ARC
  5
BE
100
AcDbEntity
  8
2
370
    50
100
AcDbCircle
 10
100.785966
 20
-67.395473
 30
0.0
 40
16.25
100
AcDbArc
 50
262.930286
 51
270.0
  0
ARC
  5
BF
100
AcDbEntity
  8
2
370
    50
100
AcDbCircle
 10
88.535966
 20
-97.695473
 30
0.0
 40
16.25
100
AcDbArc
 50
75.749967
 51
90.0
  0
ARC
  5
C0
100
AcDbEntity
  8
2
370
    50
100
AcDbCircle
 10
92.785966
 20
-97.695473
 30
0.0
 40
16.25
100
AcDbArc
 50
75.749967
 51
97.514045
  0
ARC
  5
C1
100
AcDbEntity
  8
2
370
    50
100
AcDbCircle
 10
96.785966
 20
-97.695473
 30
0.0
 40
16.25
100
AcDbArc
 50
75.749967
 51
97.069714
  0
ARC
  5
C2
100
AcDbEntity
  8
2
370
    50
100
AcDbCircle
 10
100.785966
 20
-97.695473
 30
0.0
 40
16.25
100
AcDbArc
 50
90.0
 51
97.069714
  0
LINE
  5
C3
100
AcDbEntity
  8
2
370
    50
100
AcDbLine
 10
71.035966
 20
-81.445473
 30
0.0
 11
71.035966
 21
-79.945473
 31
0.0
  0
LINE
  5
C4
100
AcDbEntity
  8
2
370
    50
100
AcDbLine
 10
68.535966
 20
-83.145473
 30
0.0
 11
68.535966
 21
-81.945473
 31
0.0
  0
LINE
  5
C5
100
AcDbEntity
  8
2
370
    50
100
AcDbLine
 10
74.785966
 20
-89.13511
 30
0.0
 11
74.785966
 21
-83.645473
 31
0.0
  0
LINE
  5
C6
100
AcDbEntity
  8
2
370
    50
100
AcDbLine
 10
76.535966
 20
-90.145473
 30
0.0
 11
74.785966
 21
-89.13511
 31
0.0
  0
ARC
  5
C7
100
AcDbEntity
  8
2
370
    50
100
AcDbCircle
 10
78.160966
 20
-84.003394
 30
0.0
 40
6.142079
100
AcDbArc
 50
236.668091
 51
303.331909
  0
LINE
  5
C8
100
AcDbEntity
  8
2
370
    50
100
AcDbLine
 10
81.535966
 20
-89.13511
 30
0.0
 11
81.535966
 21
-83.645473
 31
0.0
  0
ARC
  5
C9
100
AcDbEntity
  8
2
370
    50
100
AcDbCircle
 10
74.215415
 20
-78.645473
 30
0.0
 40
5.0
100
AcDbArc
 50
246.443536
 51
270.0
  0
ARC
  5
CA
100
AcDbEntity
  8
2
370
    50
100
AcDbCircle
 10
74.215415
 20
-86.445473
 30
0.0
 40
5.0
100
AcDbArc
 50
90.0
 51
113.556464
  0
ARC
  5
CB
100
AcDbEntity
  8
2
370
    50
100
AcDbCircle
 10
88.535966
 20
-67.395473
 30
0.0
 40
16.25
100
AcDbArc
 50
255.749967
 51
270.0
  0
ARC
  5
CC
100
AcDbEntity
  8
2
370
    50
100
AcDbCircle
 10
80.285966
 20
-67.395473
 30
0.0
 40
16.25
100
AcDbArc
 50
255.749967
 51
277.069714
  0
ARC
  5
CD
100
AcDbEntity
  8
2
370
    50
100
AcDbCircle
 10
84.285966
 20
-67.395473
 30
0.0
 40
16.25
100
AcDbArc
 50
255.749967
 51
277.514045
  0
ARC
  5
CE
100
AcDbEntity
  8
2
370
    50
100
AcDbCircle
 10
76.285966
 20
-67.395473
 30
0.0
 40
16.25
100
AcDbArc
 50
270.0
 51
277.069714
  0
ARC
  5
CF
100
AcDbEntity
  8
2
370
    50
100
AcDbCircle
 10
88.535966
 20
-97.695473
 30
0.0
 40
16.25
100
AcDbArc
 50
90.0
 51
104.250033
  0
ARC
  5
D0
100
AcDbEntity
  8
2
370
    50
100
AcDbCircle
 10
84.285966
 20
-97.695473
 30
0.0
 40
16.25
100
AcDbArc
 50
82.485955
 51
104.250033
  0
ARC
  5
D1
100
AcDbEntity
  8
2
370
    50
100
AcDbCircle
 10
80.285966
 20
-97.695473
 30
0.0
 40
16.25
100
AcDbArc
 50
82.930286
 51
104.250033
  0
ARC
  5
D2
100
AcDbEntity
  8
2
370
    50
100
AcDbCircle
 10
76.285966
 20
-97.695473
 30
0.0
 40
16.25
100
AcDbArc
 50
82.930286
 51
90.0
  0
LINE
  5
D3
100
AcDbEntity
  8
2
370
    25
100
AcDbLine
 10
79.435966
 20
-114.445473
 30
0.0
 11
79.435966
 21
-90.145473
 31
0.0
  0
LINE
  5
D4
100
AcDbEntity
  8
2
370
    25
100
AcDbLine
 10
79.435966
 20
-79.945473
 30
0.0
 11
79.435966
 21
-67.445473
 31
0.0
  0
LINE
  5
D5
100
AcDbEntity
  8
2
370
    50
100
AcDbLine
 10
78.058466
 20
-114.445473
 30
0.0
 11
78.058466
 21
-90.145473
 31
0.0
  0
LINE
  5
D6
100
AcDbEntity
  8
2
370
    50
100
AcDbLine
 10
78.058466
 20
-79.945473
 30
0.0
 11
78.058466
 21
-66.945473
 31
0.0
  0
LINE
  5
D7
100
AcDbEntity
  8
2
370
    25
100
AcDbLine
 10
97.635966
 20
-114.445473
 30
0.0
 11
97.635966
 21
-90.145473
 31
0.0
  0
LINE
  5
D8
100
AcDbEntity
  8
2
370
    25
100
AcDbLine
 10
97.635966
 20
-79.945473
 30
0.0
 11
97.635966
 21
-67.445473
 31
0.0
  0
LINE
  5
D9
100
AcDbEntity
  8
2
370
    50
100
AcDbLine
 10
99.013466
 20
-114.445473
 30
0.0
 11
99.013466
 21
-90.145473
 31
0.0
  0
LINE
  5
DA
100
AcDbEntity
  8
2
370
    50
100
AcDbLine
 10
99.013466
 20
-79.945473
 30
0.0
 11
99.013466
 21
-66.945473
 31
0.0
  0
ARC
  5
DB
100
AcDbEntity
  8
2
370
    25
  6
CENTER
100
AcDbCircle
 10
-168.792099
 20
137.55427
 30
0.0
 40
55.0
100
AcDbArc
 50
15.0
 51
90.0
  0
ARC
  5
DC
100
AcDbEntity
  8
2
370
    25
  6
CENTER
100
AcDbCircle
 10
-168.851909
 20
137.55427
 30
0.0
 40
55.0
100
AcDbArc
 50
90.0
 51
180.0
  0
ARC
  5
DD
100
AcDbEntity
  8
2
370
    50
100
AcDbCircle
 10
-168.851909
 20
137.55427
 30
0.0
 40
62.9
100
AcDbArc
 50
90.0
 51
180.0
  0
ARC
  5
DE
100
AcDbEntity
  8
2
370
    50
100
AcDbCircle
 10
-168.851909
 20
137.55427
 30
0.0
 40
47.1
100
AcDbArc
 50
90.0
 51
180.0
  0
ARC
  5
DF
100
AcDbEntity
  8
2
370
    50
100
AcDbCircle
 10
-168.792099
 20
137.55427
 30
0.0
 40
62.9
100
AcDbArc
 50
15.0
 51
90.0
  0
ARC
  5
E0
100
AcDbEntity
  8
2
370
    50
100
AcDbCircle
 10
-168.792099
 20
137.55427
 30
0.0
 40
47.1
100
AcDbArc
 50
15.0
 51
90.0
  0
LINE
  5
E1
100
AcDbEntity
  8
2
370
    25
  6
CENTER
100
AcDbLine
 10
-107.717545
 20
122.124613
 30
0.0
 11
-115.666178
 21
151.789318
 31
0.0
  0
LINE
  5
E2
100
AcDbEntity
  8
2
370
    50
100
AcDbLine
 10
-105.903418
 20
145.877458
 30
0.0
 11
-108.035364
 21
153.833988
 31
0.0
  0
LINE
  5
E3
100
AcDbEntity
  8
2
370
    50
100
AcDbLine
 10
-121.165047
 20
141.788117
 30
0.0
 11
-123.296992
 21
149.744647
 31
0.0
  0
LINE
  5
E4
100
AcDbEntity
  8
2
370
    50
100
AcDbLine
 10
-215.951909
 20
40.05427
 30
0.0
 11
-215.951909
 21
137.55427
 31
0.0
  0
LINE
  5
E5
100
AcDbEntity
  8
2
370
    50
100
AcDbLine
 10
-231.751909
 20
40.05427
 30
0.0
 11
-231.751909
 21
137.55427
 31
0.0
  0
LINE
  5
E6
100
AcDbEntity
  8
2
370
    50
100
AcDbLine
 10
-122.130972
 20
141.529298
 30
0.0
 11
-104.937493
 21
146.136277
 31
0.0
  0
ARC
  5
E7
100
AcDbEntity
  8
2
370
    50
100
AcDbCircle
 10
-127.080771
 20
140.822549
 30
0.0
 40
5.0
100
AcDbArc
 50
336.706719
 51
8.125961
  0
ARC
  5
E8
100
AcDbEntity
  8
2
370
    50
100
AcDbCircle
 10
-100.297467
 20
147.999114
 30
0.0
 40
5.0
100
AcDbArc
 50
201.874039
 51
233.293281
  0
LINE
  5
E9
100
AcDbEntity
  8
2
370
    50
100
AcDbLine
 10
-97.603258
 20
126.878318
 30
0.0
 11
-118.853626
 21
121.184299
 31
0.0
  0
LINE
  5
EA
100
AcDbEntity
  8
2
370
    50
100
AcDbLine
 10
-101.296075
 20
144.523802
 30
0.0
 11
-124.478295
 21
138.312145
 31
0.0
  0
LINE
  5
EB
100
AcDbEntity
  8
2
370
    50
100
AcDbLine
 10
-120.078371
 20
121.891406
 30
0.0
 11
-124.478295
 21
138.312145
 31
0.0
  0
LINE
  5
EC
100
AcDbEntity
  8
2
370
    50
100
AcDbLine
 10
-96.896151
 20
128.103063
 30
0.0
 11
-101.296075
 21
144.523802
 31
0.0
  0
LINE
  5
ED
100
AcDbEntity
  8
2
370
    50
100
AcDbLine
 10
-96.896151
 20
128.103063
 30
0.0
 11
-120.078371
 21
121.891406
 31
0.0
  0
LINE
  5
EE
100
AcDbEntity
  8
2
370
    50
100
AcDbLine
 10
-120.078371
 20
121.891406
 30
0.0
 11
-118.853626
 21
121.184299
 31
0.0
  0
LINE
  5
EF
100
AcDbEntity
  8
2
370
    50
100
AcDbLine
 10
-96.896151
 20
128.103063
 30
0.0
 11
-97.603258
 21
126.878318
 31
0.0
  0
LINE
  5
F0
100
AcDbEntity
  8
2
370
    50
100
AcDbLine
 10
-187.351909
 20
1.30427
 30
0.0
 11
-180.601909
 21
1.30427
 31
0.0
  0
LINE
  5
F1
100
AcDbEntity
  8
2
370
    50
100
AcDbLine
 10
-187.351909
 20
10.80427
 30
0.0
 11
-180.601909
 21
10.80427
 31
0.0
  0
LINE
  5
F2
100
AcDbEntity
  8
2
370
    50
100
AcDbLine
 10
-179.851909
 20
2.05427
 30
0.0
 11
-179.352169
 21
2.05427
 31
0.0
  0
LINE
  5
F3
100
AcDbEntity
  8
2
370
    50
100
AcDbLine
 10
-179.851909
 20
10.05427
 30
0.0
 11
-179.352169
 21
10.05427
 31
0.0
  0
LINE
  5
F4
100
AcDbEntity
  8
2
370
    50
100
AcDbLine
 10
-179.851909
 20
10.05427
 30
0.0
 11
-180.601909
 21
10.80427
 31
0.0
  0
LINE
  5
F5
100
AcDbEntity
  8
2
370
    50
100
AcDbLine
 10
-179.851909
 20
2.05427
 30
0.0
 11
-180.601909
 21
1.30427
 31
0.0
  0
ARC
  5
F6
100
AcDbEntity
  8
2
370
    50
100
AcDbCircle
 10
-173.352169
 20
6.05427
 30
0.0
 40
10.0
100
AcDbArc
 50
309.521196
 51
50.478804
  0
LINE
  5
F7
100
AcDbEntity
  8
2
370
    50
100
AcDbLine
 10
-167.352169
 20
15.304211
 30
0.0
 11
-167.352169
 21
8.55427
 31
0.0
  0
LINE
  5
F8
100
AcDbEntity
  8
2
370
    50
100
AcDbLine
 10
-167.352169
 20
-2.431011
 30
0.0
 11
-167.352169
 21
-3.310055
 31
0.0
  0
ARC
  5
F9
100
AcDbEntity
  8
2
370
    50
100
AcDbCircle
 10
-166.352169
 20
-2.431011
 30
0.0
 40
1.0
100
AcDbArc
 50
129.521196
 51
180.0
  0
ARC
  5
FA
100
AcDbEntity
  8
2
370
    50
100
AcDbCircle
 10
-166.352169
 20
14.539551
 30
0.0
 40
1.0
100
AcDbArc
 50
180.0
 51
230.478804
  0
ARC
  5
FB
100
AcDbEntity
  8
2
370
    50
100
AcDbCircle
 10
-173.352169
 20
-18.44573
 30
0.0
 40
6.5
100
AcDbArc
 50
141.50005
 51
38.49995
  0
LINE
  5
FC
100
AcDbEntity
  8
2
370
    50
100
AcDbLine
 10
-169.352169
 20
-6.774157
 30
0.0
 11
-169.352169
 21
-11.286819
 31
0.0
  0
ARC
  5
FD
100
AcDbEntity
  8
2
370
    50
100
AcDbCircle
 10
-164.352169
 20
-11.286819
 30
0.0
 40
5.0
100
AcDbArc
 50
180.0
 51
218.49995
  0
ARC
  5
FE
100
AcDbEntity
  8
2
370
    50
100
AcDbCircle
 10
-182.352169
 20
-11.286819
 30
0.0
 40
5.0
100
AcDbArc
 50
321.50005
 51
360.0
  0
ARC
  5
FF
100
AcDbEntity
  8
2
370
    50
100
AcDbCircle
 10
-166.352169
 20
-6.774157
 30
0.0
 40
3.0
100
AcDbArc
 50
120.0
 51
180.0
  0
LINE
  5
100
100
AcDbEntity
  8
2
370
    50
100
AcDbLine
 10
-177.352169
 20
-6.774157
 30
0.0
 11
-177.352169
 21
-11.286819
 31
0.0
  0
ARC
  5
101
100
AcDbEntity
  8
2
370
    50
100
AcDbCircle
 10
-180.352169
 20
-6.774157
 30
0.0
 40
3.0
100
AcDbArc
 50
0.0
 51
60.0
  0
ARC
  5
102
100
AcDbEntity
  8
2
370
    50
100
AcDbCircle
 10
-168.352169
 20
-3.310055
 30
0.0
 40
1.0
100
AcDbArc
 50
300.0
 51
360.0
  0
ARC
  5
103
100
AcDbEntity
  8
2
370
    50
100
AcDbCircle
 10
-178.352169
 20
-3.310055
 30
0.0
 40
1.0
100
AcDbArc
 50
180.0
 51
240.0
  0
LINE
  5
104
100
AcDbEntity
  8
2
370
    50
100
AcDbLine
 10
-169.352169
 20
18.882697
 30
0.0
 11
-169.352169
 21
23.395359
 31
0.0
  0
ARC
  5
105
100
AcDbEntity
  8
2
370
    50
100
AcDbCircle
 10
-164.352169
 20
23.395359
 30
0.0
 40
5.0
100
AcDbArc
 50
141.50005
 51
180.0
  0
ARC
  5
106
100
AcDbEntity
  8
2
370
    50
100
AcDbCircle
 10
-182.352169
 20
23.395359
 30
0.0
 40
5.0
100
AcDbArc
 50
0.0
 51
38.49995
  0
ARC
  5
107
100
AcDbEntity
  8
2
370
    50
100
AcDbCircle
 10
-166.352169
 20
18.882697
 30
0.0
 40
3.0
100
AcDbArc
 50
180.0
 51
240.0
  0
LINE
  5
108
100
AcDbEntity
  8
2
370
    50
100
AcDbLine
 10
-177.352169
 20
18.882697
 30
0.0
 11
-177.352169
 21
23.395359
 31
0.0
  0
ARC
  5
109
100
AcDbEntity
  8
2
370
    50
100
AcDbCircle
 10
-180.352169
 20
18.882697
 30
0.0
 40
3.0
100
AcDbArc
 50
300.0
 51
360.0
  0
ARC
  5
10A
100
AcDbEntity
  8
2
370
    50
100
AcDbCircle
 10
-168.352169
 20
15.418596
 30
0.0
 40
1.0
100
AcDbArc
 50
0.0
 51
60.0
  0
ARC
  5
10B
100
AcDbEntity
  8
2
370
    50
100
AcDbCircle
 10
-178.352169
 20
15.418596
 30
0.0
 40
1.0
100
AcDbArc
 50
120.0
 51
180.0
  0
ARC
  5
10C
100
AcDbEntity
  8
2
370
    25
100
AcDbCircle
 10
-173.352169
 20
30.55427
 30
0.0
 40
6.5
100
AcDbArc
 50
231.99551
 51
306.25437
  0
ARC
  5
10D
100
AcDbEntity
  8
2
370
    50
100
AcDbCircle
 10
-173.352169
 20
30.55427
 30
0.0
 40
6.5
100
AcDbArc
 50
321.50005
 51
218.49995
  0
ARC
  5
10E
100
AcDbEntity
  8
2
370
    25
100
AcDbCircle
 10
-173.352169
 20
19.234897
 30
0.0
 40
4.015476
100
AcDbArc
 50
202.960687
 51
336.088649
  0
ARC
  5
10F
100
AcDbEntity
  8
2
370
    50
100
AcDbCircle
 10
-173.352169
 20
6.05427
 30
0.0
 40
6.5
100
AcDbArc
 50
0.0
 51
180.0
  0
LINE
  5
110
100
AcDbEntity
  8
2
370
    50
100
AcDbLine
 10
-179.352169
 20
15.304211
 30
0.0
 11
-179.352169
 21
8.55427
 31
0.0
  0
LINE
  5
111
100
AcDbEntity
  8
2
370
    50
100
AcDbLine
 10
-179.352169
 20
3.55427
 30
0.0
 11
-179.352169
 21
-3.310055
 31
0.0
  0
ARC
  5
112
100
AcDbEntity
  8
2
370
    50
100
AcDbCircle
 10
-173.352169
 20
6.05427
 30
0.0
 40
6.5
100
AcDbArc
 50
180.0
 51
360.0
  0
LINE
  5
113
100
AcDbEntity
  8
2
370
    50
100
AcDbLine
 10
-167.352169
 20
-3.195671
 30
0.0
 11
-167.352169
 21
3.55427
 31
0.0
  0
ARC
  5
114
100
AcDbEntity
  8
2
370
    25
100
AcDbCircle
 10
-173.352169
 20
-7.126357
 30
0.0
 40
4.015476
100
AcDbArc
 50
23.911351
 51
157.039313
  0
ARC
  5
115
100
AcDbEntity
  8
2
370
    25
100
AcDbCircle
 10
-173.352169
 20
-18.44573
 30
0.0
 40
6.5
100
AcDbArc
 50
53.74563
 51
128.00449
  0
LINE
  5
116
100
AcDbEntity
  8
2
370
    50
100
AcDbLine
 10
-180.601909
 20
10.80427
 30
0.0
 11
-180.601909
 21
1.30427
 31
0.0
  0
LINE
  5
117
100
AcDbEntity
  8
2
370
    50
100
AcDbLine
 10
-179.851909
 20
2.05427
 30
0.0
 11
-179.851909
 21
10.05427
 31
0.0
  0
POINT
  5
118
100
AcDbEntity
  8
2
370
    50
100
AcDbPoint
 10
88.535966
 20
40.054527
 30
0.0
  0
ARC
  5
119
100
AcDbEntity
  8
2
370
    25
100
AcDbCircle
 10
88.535966
 20
6.054527
 30
0.0
 40
10.0
100
AcDbArc
 50
68.357078
 51
112.196445
  0
ARC
  5
11A
100
AcDbEntity
  8
2
370
    50
100
AcDbCircle
 10
88.535966
 20
6.054527
 30
0.0
 40
10.0
100
AcDbArc
 50
122.392365
 51
145.150095
  0
ARC
  5
11B
100
AcDbEntity
  8
2
370
    50
100
AcDbCircle
 10
88.535966
 20
6.054527
 30
0.0
 40
10.0
100
AcDbArc
 50
214.849905
 51
235.150095
  0
ARC
  5
11C
100
AcDbEntity
  8
2
370
    50
100
AcDbCircle
 10
88.535966
 20
6.054527
 30
0.0
 40
10.0
100
AcDbArc
 50
304.849905
 51
325.150095
  0
ARC
  5
11D
100
AcDbEntity
  8
2
370
    50
100
AcDbCircle
 10
88.535966
 20
6.054527
 30
0.0
 40
10.0
100
AcDbArc
 50
34.849905
 51
57.607635
  0
ARC
  5
11E
100
AcDbEntity
  8
2
370
    25
100
AcDbCircle
 10
88.535966
 20
6.054527
 30
0.0
 40
10.0
100
AcDbArc
 50
158.357078
 51
202.196445
  0
ARC
  5
11F
100
AcDbEntity
  8
2
370
    25
100
AcDbCircle
 10
88.535966
 20
6.054527
 30
0.0
 40
10.0
100
AcDbArc
 50
248.357078
 51
292.196445
  0
ARC
  5
120
100
AcDbEntity
  8
2
370
    25
100
AcDbCircle
 10
88.535966
 20
6.054527
 30
0.0
 40
10.0
100
AcDbArc
 50
338.357078
 51
22.196445
  0
CIRCLE
  5
121
100
AcDbEntity
  8
2
370
    50
100
AcDbCircle
 10
88.535966
 20
6.054527
 30
0.0
 40
8.0
  0
ARC
  5
122
100
AcDbEntity
  8
2
370
    50
100
AcDbCircle
 10
113.035966
 20
6.054527
 30
0.0
 40
6.5
100
AcDbArc
 50
231.50005
 51
128.49995
  0
ARC
  5
123
100
AcDbEntity
  8
2
370
    25
100
AcDbCircle
 10
113.035966
 20
6.054527
 30
0.0
 40
6.5
100
AcDbArc
 50
146.415684
 51
210.454907
  0
ARC
  5
124
100
AcDbEntity
  8
2
370
    25
100
AcDbCircle
 10
88.535966
 20
30.554527
 30
0.0
 40
6.5
100
AcDbArc
 50
236.415684
 51
300.454907
  0
ARC
  5
125
100
AcDbEntity
  8
2
370
    25
100
AcDbCircle
 10
64.035966
 20
6.054527
 30
0.0
 40
6.5
100
AcDbArc
 50
326.415684
 51
30.454907
  0
ARC
  5
126
100
AcDbEntity
  8
2
370
    25
100
AcDbCircle
 10
88.535966
 20
-18.445473
 30
0.0
 40
6.5
100
AcDbArc
 50
56.415684
 51
120.454907
  0
LINE
  5
127
100
AcDbEntity
  8
2
370
    50
100
AcDbLine
 10
100.025091
 20
10.054527
 30
0.0
 11
105.877055
 21
10.054527
 31
0.0
  0
LINE
  5
128
100
AcDbEntity
  8
2
370
    50
100
AcDbLine
 10
100.025091
 20
2.054527
 30
0.0
 11
105.877055
 21
2.054527
 31
0.0
  0
ARC
  5
129
100
AcDbEntity
  8
2
370
    50
100
AcDbCircle
 10
105.877055
 20
15.054527
 30
0.0
 40
5.0
100
AcDbArc
 50
270.0
 51
308.49995
  0
ARC
  5
12A
100
AcDbEntity
  8
2
370
    50
100
AcDbCircle
 10
105.877055
 20
-2.945473
 30
0.0
 40
5.0
100
AcDbArc
 50
51.50005
 51
90.0
  0
ARC
  5
12B
100
AcDbEntity
  8
2
370
    50
100
AcDbCircle
 10
100.025091
 20
14.054527
 30
0.0
 40
4.0
100
AcDbArc
 50
214.849905
 51
270.0
  0
ARC
  5
12C
100
AcDbEntity
  8
2
370
    50
100
AcDbCircle
 10
100.025091
 20
-1.945473
 30
0.0
 40
4.0
100
AcDbArc
 50
90.0
 51
145.150095
  0
ARC
  5
12D
100
AcDbEntity
  8
2
370
    50
100
AcDbCircle
 10
88.535966
 20
30.554527
 30
0.0
 40
6.5
100
AcDbArc
 50
321.50005
 51
218.49995
  0
ARC
  5
12E
100
AcDbEntity
  8
2
370
    25
100
AcDbCircle
 10
88.535966
 20
30.554527
 30
0.0
 40
6.5
100
AcDbArc
 50
236.415684
 51
300.454907
  0
LINE
  5
12F
100
AcDbEntity
  8
2
370
    50
100
AcDbLine
 10
84.535966
 20
17.543652
 30
0.0
 11
84.535966
 21
23.395616
 31
0.0
  0
LINE
  5
130
100
AcDbEntity
  8
2
370
    50
100
AcDbLine
 10
92.535966
 20
17.543652
 30
0.0
 11
92.535966
 21
23.395616
 31
0.0
  0
ARC
  5
131
100
AcDbEntity
  8
2
370
    50
100
AcDbCircle
 10
79.535966
 20
23.395616
 30
0.0
 40
5.0
100
AcDbArc
 50
0.0
 51
38.49995
  0
ARC
  5
132
100
AcDbEntity
  8
2
370
    50
100
AcDbCircle
 10
97.535966
 20
23.395616
 30
0.0
 40
5.0
100
AcDbArc
 50
141.50005
 51
180.0
  0
ARC
  5
133
100
AcDbEntity
  8
2
370
    50
100
AcDbCircle
 10
80.535966
 20
17.543652
 30
0.0
 40
4.0
100
AcDbArc
 50
304.849905
 51
360.0
  0
ARC
  5
134
100
AcDbEntity
  8
2
370
    50
100
AcDbCircle
 10
96.535966
 20
17.543652
 30
0.0
 40
4.0
100
AcDbArc
 50
180.0
 51
235.150095
  0
ARC
  5
135
100
AcDbEntity
  8
2
370
    50
100
AcDbCircle
 10
64.035966
 20
6.054527
 30
0.0
 40
6.5
100
AcDbArc
 50
51.50005
 51
308.49995
  0
ARC
  5
136
100
AcDbEntity
  8
2
370
    25
100
AcDbCircle
 10
64.035966
 20
6.054527
 30
0.0
 40
6.5
100
AcDbArc
 50
326.415684
 51
30.454907
  0
LINE
  5
137
100
AcDbEntity
  8
2
370
    50
100
AcDbLine
 10
77.046841
 20
2.054527
 30
0.0
 11
71.194876
 21
2.054527
 31
0.0
  0
LINE
  5
138
100
AcDbEntity
  8
2
370
    50
100
AcDbLine
 10
77.046841
 20
10.054527
 30
0.0
 11
71.194876
 21
10.054527
 31
0.0
  0
ARC
  5
139
100
AcDbEntity
  8
2
370
    50
100
AcDbCircle
 10
71.194876
 20
-2.945473
 30
0.0
 40
5.0
100
AcDbArc
 50
90.0
 51
128.49995
  0
ARC
  5
13A
100
AcDbEntity
  8
2
370
    50
100
AcDbCircle
 10
71.194876
 20
15.054527
 30
0.0
 40
5.0
100
AcDbArc
 50
231.50005
 51
270.0
  0
ARC
  5
13B
100
AcDbEntity
  8
2
370
    50
100
AcDbCircle
 10
77.046841
 20
-1.945473
 30
0.0
 40
4.0
100
AcDbArc
 50
34.849905
 51
90.0
  0
ARC
  5
13C
100
AcDbEntity
  8
2
370
    50
100
AcDbCircle
 10
77.046841
 20
14.054527
 30
0.0
 40
4.0
100
AcDbArc
 50
270.0
 51
325.150095
  0
ARC
  5
13D
100
AcDbEntity
  8
2
370
    50
100
AcDbCircle
 10
88.535966
 20
-18.445473
 30
0.0
 40
6.5
100
AcDbArc
 50
141.50005
 51
38.49995
  0
ARC
  5
13E
100
AcDbEntity
  8
2
370
    25
100
AcDbCircle
 10
88.535966
 20
-18.445473
 30
0.0
 40
6.5
100
AcDbArc
 50
56.415684
 51
120.454907
  0
LINE
  5
13F
100
AcDbEntity
  8
2
370
    50
100
AcDbLine
 10
92.535966
 20
-5.434599
 30
0.0
 11
92.535966
 21
-11.286563
 31
0.0
  0
LINE
  5
140
100
AcDbEntity
  8
2
370
    50
100
AcDbLine
 10
84.535966
 20
-5.434599
 30
0.0
 11
84.535966
 21
-11.286563
 31
0.0
  0
ARC
  5
141
100
AcDbEntity
  8
2
370
    50
100
AcDbCircle
 10
97.535966
 20
-11.286563
 30
0.0
 40
5.0
100
AcDbArc
 50
180.0
 51
218.49995
  0
ARC
  5
142
100
AcDbEntity
  8
2
370
    50
100
AcDbCircle
 10
79.535966
 20
-11.286563
 30
0.0
 40
5.0
100
AcDbArc
 50
321.50005
 51
360.0
  0
ARC
  5
143
100
AcDbEntity
  8
2
370
    50
100
AcDbCircle
 10
96.535966
 20
-5.434599
 30
0.0
 40
4.0
100
AcDbArc
 50
124.849905
 51
180.0
  0
ARC
  5
144
100
AcDbEntity
  8
2
370
    50
100
AcDbCircle
 10
80.535966
 20
-5.434599
 30
0.0
 40
4.0
100
AcDbArc
 50
0.0
 51
55.150095
  0
ARC
  5
145
100
AcDbEntity
  8
2
370
    50
100
AcDbCircle
 10
-195.851909
 20
-2.841633
 30
0.0
 40
5.0
100
AcDbArc
 50
225.572996
 51
314.427004
  0
ARC
  5
146
100
AcDbEntity
  8
2
370
    50
100
AcDbCircle
 10
-195.851909
 20
15.016939
 30
0.0
 40
5.0
100
AcDbArc
 50
45.572996
 51
134.427004
  0
LINE
  5
147
100
AcDbEntity
  8
2
370
    50
100
AcDbLine
 10
-187.351909
 20
-0.008062
 30
0.0
 11
-192.351909
 21
-6.412347
 31
0.0
  0
LINE
  5
148
100
AcDbEntity
  8
2
370
    50
100
AcDbLine
 10
-187.351909
 20
11.991938
 30
0.0
 11
-192.351909
 21
18.587653
 31
0.0
  0
LINE
  5
149
100
AcDbEntity
  8
2
370
    50
100
AcDbLine
 10
-187.351909
 20
11.991938
 30
0.0
 11
-187.351909
 21
-0.008062
 31
0.0
  0
LINE
  5
14A
100
AcDbEntity
  8
2
370
    50
100
AcDbLine
 10
-199.351909
 20
18.587653
 30
0.0
 11
-199.351909
 21
-6.412347
 31
0.0
  0
LINE
  5
14B
100
AcDbEntity
  8
2
370
    50
100
AcDbLine
 10
99.784677
 20
-2.462134
 30
0.0
 11
92.535966
 21
-6.647179
 31
0.0
  0
LINE
  5
14C
100
AcDbEntity
  8
2
370
    50
100
AcDbLine
 10
84.535966
 20
-6.647179
 30
0.0
 11
77.287255
 21
-2.462134
 31
0.0
  0
LINE
  5
14D
100
AcDbEntity
  8
2
370
    50
100
AcDbLine
 10
77.287255
 20
14.571187
 30
0.0
 11
84.535966
 21
18.756232
 31
0.0
  0
LINE
  5
14E
100
AcDbEntity
  8
2
370
    50
100
AcDbLine
 10
92.535966
 20
18.756232
 30
0.0
 11
99.784677
 21
14.571187
 31
0.0
  0
LINE
  5
14F
100
AcDbEntity
  8
2
370
    50
100
AcDbLine
 10
77.287255
 20
-2.462134
 30
0.0
 11
75.535966
 21
0.571187
 31
0.0
  0
LINE
  5
150
100
AcDbEntity
  8
2
370
    50
100
AcDbLine
 10
75.535966
 20
11.537866
 30
0.0
 11
77.287255
 21
14.571187
 31
0.0
  0
LINE
  5
151
100
AcDbEntity
  8
2
370
    50
100
AcDbLine
 10
99.784677
 20
14.571187
 30
0.0
 11
101.535966
 21
11.537866
 31
0.0
  0
LINE
  5
152
100
AcDbEntity
  8
2
370
    50
100
AcDbLine
 10
101.535966
 20
0.571187
 30
0.0
 11
99.784677
 21
-2.462134
 31
0.0
  0
LINE
  5
153
100
AcDbEntity
  8
2
370
    25
100
AcDbLine
 10
-192.351909
 20
-5.786655
 30
0.0
 11
-192.351909
 21
17.895195
 31
0.0
  0
ELLIPSE
  5
154
100
AcDbEntity
  8
2
370
    50
100
AcDbEllipse
 10
-195.851909
 20
-5.20406
 30
0.0
 11
3.0707140000000002
 21
0.0
 31
0.0
210
0.0
220
0.0
230
1.0
 40
0.846082
 41
0.0
 42
6.2831849999999996
  0
ELLIPSE
  5
155
100
AcDbEntity
  8
2
370
    50
100
AcDbEllipse
 10
-195.851909
 20
6.05427
 30
0.0
 11
0.0
 21
-5.1961519999999997
 31
0.0
210
0.0
220
0.0
230
1.0
 40
0.563741
 41
0.0
 42
6.2831849999999996
  0
ELLIPSE
  5
156
100
AcDbEntity
  8
2
370
    50
100
AcDbEllipse
 10
-195.851909
 20
17.3126
 30
0.0
 11
-3.0707140000000002
 21
0.0
 31
0.0
210
0.0
220
0.0
230
1.0
 40
0.846082
 41
0.0
 42
6.2831849999999996
  0
LINE
  5
157
100
AcDbEntity
  8
2
370
    25
100
AcDbLine
 10
-199.851909
 20
18.05427
 30
0.0
 11
-199.851909
 21
-5.945976
 31
0.0
  0
ELLIPSE
  5
158
100
AcDbEntity
  8
2
370
    50
100
AcDbEllipse
 10
-216.852016
 20
34.28084
 30
0.0
 11
5.2365899999999996
 21
0.0
 31
0.0
210
0.0
220
0.0
230
1.0
 40
0.779251
 41
0.0
 42
6.2831849999999996
  0
ELLIPSE
  5
159
100
AcDbEntity
  8
2
370
    50
100
AcDbEllipse
 10
-230.852052
 20
34.28084
 30
0.0
 11
-5.2365899999999996
 21
0.0
 31
0.0
210
0.0
220
0.0
230
1.0
 40
0.779251
 41
0.0
 42
6.2831849999999996
  0
LINE
  5
15A
100
AcDbEntity
  8
2
370
    25
100
AcDbLine
 10
-236.216909
 20
30.05427
 30
0.0
 11
-236.216909
 21
29.41927
 31
0.0
  0
LINE
  5
15B
100
AcDbEntity
  8
2
370
    50
100
AcDbLine
 10
-235.851909
 20
29.05427
 30
0.0
 11
-211.851909
 21
29.05427
 31
0.0
  0
LINE
  5
15C
100
AcDbEntity
  8
2
370
    50
100
AcDbLine
 10
-214.751909
 20
-67.44573
 30
0.0
 11
-232.951909
 21
-67.44573
 31
0.0
  0
LINE
  5
15D
100
AcDbEntity
  8
2
370
    50
100
AcDbLine
 10
-214.751909
 20
-67.44573
 30
0.0
 11
-214.251909
 21
-66.94573
 31
0.0
  0
LINE
  5
15E
100
AcDbEntity
  8
2
370
    50
100
AcDbLine
 10
-232.951909
 20
-67.44573
 30
0.0
 11
-233.451909
 21
-66.94573
 31
0.0
  0
LINE
  5
15F
100
AcDbEntity
  8
2
370
    25
100
AcDbLine
 10
-232.951909
 20
-114.445907
 30
0.0
 11
-232.951909
 21
-90.145191
 31
0.0
  0
LINE
  5
160
100
AcDbEntity
  8
2
370
    25
100
AcDbLine
 10
-232.951909
 20
-79.94573
 30
0.0
 11
-232.951909
 21
-67.44573
 31
0.0
  0
LINE
  5
161
100
AcDbEntity
  8
2
370
    50
100
AcDbLine
 10
-234.329409
 20
-114.445907
 30
0.0
 11
-234.329409
 21
-90.145191
 31
0.0
  0
LINE
  5
162
100
AcDbEntity
  8
2
370
    50
100
AcDbLine
 10
-234.329409
 20
-79.94573
 30
0.0
 11
-234.329409
 21
-66.94573
 31
0.0
  0
LINE
  5
163
100
AcDbEntity
  8
2
370
    25
100
AcDbLine
 10
-214.751909
 20
-114.445907
 30
0.0
 11
-214.751909
 21
-90.145191
 31
0.0
  0
LINE
  5
164
100
AcDbEntity
  8
2
370
    25
100
AcDbLine
 10
-214.751909
 20
-79.94573
 30
0.0
 11
-214.751909
 21
-67.44573
 31
0.0
  0
LINE
  5
165
100
AcDbEntity
  8
2
370
    50
100
AcDbLine
 10
-213.374409
 20
-114.445907
 30
0.0
 11
-213.374409
 21
-90.145191
 31
0.0
  0
LINE
  5
166
100
AcDbEntity
  8
2
370
    50
100
AcDbLine
 10
-213.374409
 20
-79.94573
 30
0.0
 11
-213.374409
 21
-66.94573
 31
0.0
  0
LINE
  5
167
100
AcDbEntity
  8
2
370
    25
100
AcDbLine
 10
-246.851909
 20
-63.44573
 30
0.0
 11
-200.851909
 21
-63.44573
 31
0.0
  0
LINE
  5
168
100
AcDbEntity
  8
2
370
    50
100
AcDbLine
 10
-211.852085
 20
-90.145191
 30
0.0
 11
-223.851909
 21
-90.145191
 31
0.0
  0
LINE
  5
169
100
AcDbEntity
  8
2
370
    50
100
AcDbLine
 10
-203.852203
 20
-83.145294
 30
0.0
 11
-203.852203
 21
-81.945312
 31
0.0
  0
LINE
  5
16A
100
AcDbEntity
  8
2
370
    50
100
AcDbLine
 10
-209.531569
 20
-83.645287
 30
0.0
 11
-238.172248
 21
-83.645287
 31
0.0
  0
LINE
  5
16B
100
AcDbEntity
  8
2
370
    50
100
AcDbLine
 10
-203.852203
 20
-81.945312
 30
0.0
 11
-223.851909
 21
-81.945312
 31
0.0
  0
LINE
  5
16C
100
AcDbEntity
  8
2
370
    50
100
AcDbLine
 10
-203.852203
 20
-83.145294
 30
0.0
 11
-223.851909
 21
-83.145294
 31
0.0
  0
ARC
  5
16D
100
AcDbEntity
  8
2
370
    50
100
AcDbCircle
 10
-209.531569
 20
-78.645361
 30
0.0
 40
4.999926
100
AcDbArc
 50
270.0
 51
293.556464
  0
ARC
  5
16E
100
AcDbEntity
  8
2
370
    50
100
AcDbCircle
 10
-209.531569
 20
-86.445246
 30
0.0
 40
4.999926
100
AcDbArc
 50
66.443536
 51
90.0
  0
ARC
  5
16F
100
AcDbEntity
  8
2
370
    50
100
AcDbCircle
 10
-207.133689
 20
-84.14528
 30
0.0
 40
0.999985
100
AcDbArc
 50
90.0
 51
113.556464
  0
ARC
  5
170
100
AcDbEntity
  8
2
370
    50
100
AcDbCircle
 10
-207.133689
 20
-80.945327
 30
0.0
 40
0.999985
100
AcDbArc
 50
246.443536
 51
270.0
  0
ARC
  5
171
100
AcDbEntity
  8
2
370
    50
100
AcDbCircle
 10
-223.851909
 20
-67.395526
 30
0.0
 40
16.249761
100
AcDbArc
 50
270.0
 51
284.250033
  0
ARC
  5
172
100
AcDbEntity
  8
2
370
    50
100
AcDbCircle
 10
-215.60203
 20
-67.395526
 30
0.0
 40
16.249761
100
AcDbArc
 50
262.930286
 51
284.250033
  0
ARC
  5
173
100
AcDbEntity
  8
2
370
    50
100
AcDbCircle
 10
-219.601971
 20
-67.395526
 30
0.0
 40
16.249761
100
AcDbArc
 50
262.485955
 51
284.250033
  0
ARC
  5
174
100
AcDbEntity
  8
2
370
    50
100
AcDbCircle
 10
-211.602089
 20
-67.395526
 30
0.0
 40
16.249761
100
AcDbArc
 50
262.930286
 51
270.0
  0
ARC
  5
175
100
AcDbEntity
  8
2
370
    50
100
AcDbCircle
 10
-223.851909
 20
-97.69508
 30
0.0
 40
16.249761
100
AcDbArc
 50
75.749967
 51
90.0
  0
ARC
  5
176
100
AcDbEntity
  8
2
370
    50
100
AcDbCircle
 10
-219.601971
 20
-97.69508
 30
0.0
 40
16.249761
100
AcDbArc
 50
75.749967
 51
97.514045
  0
ARC
  5
177
100
AcDbEntity
  8
2
370
    50
100
AcDbCircle
 10
-215.60203
 20
-97.69508
 30
0.0
 40
16.249761
100
AcDbArc
 50
75.749967
 51
97.069714
  0
ARC
  5
178
100
AcDbEntity
  8
2
370
    50
100
AcDbCircle
 10
-211.602089
 20
-97.69508
 30
0.0
 40
16.249761
100
AcDbArc
 50
90.0
 51
97.069714
  0
LINE
  5
179
100
AcDbEntity
  8
2
370
    50
100
AcDbLine
 10
-235.851732
 20
-90.145191
 30
0.0
 11
-223.851909
 21
-90.145191
 31
0.0
  0
LINE
  5
17A
100
AcDbEntity
  8
2
370
    50
100
AcDbLine
 10
-243.851614
 20
-83.145294
 30
0.0
 11
-243.851614
 21
-81.945312
 31
0.0
  0
LINE
  5
17B
100
AcDbEntity
  8
2
370
    50
100
AcDbLine
 10
-243.851614
 20
-81.945312
 30
0.0
 11
-223.851909
 21
-81.945312
 31
0.0
  0
LINE
  5
17C
100
AcDbEntity
  8
2
370
    50
100
AcDbLine
 10
-243.851614
 20
-83.145294
 30
0.0
 11
-223.851909
 21
-83.145294
 31
0.0
  0
ARC
  5
17D
100
AcDbEntity
  8
2
370
    50
100
AcDbCircle
 10
-238.172248
 20
-78.645361
 30
0.0
 40
4.999926
100
AcDbArc
 50
246.443536
 51
270.0
  0
ARC
  5
17E
100
AcDbEntity
  8
2
370
    50
100
AcDbCircle
 10
-238.172248
 20
-86.445246
 30
0.0
 40
4.999926
100
AcDbArc
 50
90.0
 51
113.556464
  0
ARC
  5
17F
100
AcDbEntity
  8
2
370
    50
100
AcDbCircle
 10
-240.570129
 20
-84.14528
 30
0.0
 40
0.999985
100
AcDbArc
 50
66.443536
 51
90.0
  0
ARC
  5
180
100
AcDbEntity
  8
2
370
    50
100
AcDbCircle
 10
-240.570129
 20
-80.945327
 30
0.0
 40
0.999985
100
AcDbArc
 50
270.0
 51
293.556464
  0
ARC
  5
181
100
AcDbEntity
  8
2
370
    50
100
AcDbCircle
 10
-223.851909
 20
-67.395526
 30
0.0
 40
16.249761
100
AcDbArc
 50
255.749967
 51
270.0
  0
ARC
  5
182
100
AcDbEntity
  8
2
370
    50
100
AcDbCircle
 10
-232.101787
 20
-67.395526
 30
0.0
 40
16.249761
100
AcDbArc
 50
255.749967
 51
277.069714
  0
ARC
  5
183
100
AcDbEntity
  8
2
370
    50
100
AcDbCircle
 10
-228.101846
 20
-67.395526
 30
0.0
 40
16.249761
100
AcDbArc
 50
255.749967
 51
277.514045
  0
ARC
  5
184
100
AcDbEntity
  8
2
370
    50
100
AcDbCircle
 10
-236.101728
 20
-67.395526
 30
0.0
 40
16.249761
100
AcDbArc
 50
270.0
 51
277.069714
  0
ARC
  5
185
100
AcDbEntity
  8
2
370
    50
100
AcDbCircle
 10
-223.851909
 20
-97.69508
 30
0.0
 40
16.249761
100
AcDbArc
 50
90.0
 51
104.250033
  0
ARC
  5
186
100
AcDbEntity
  8
2
370
    50
100
AcDbCircle
 10
-228.101846
 20
-97.69508
 30
0.0
 40
16.249761
100
AcDbArc
 50
82.485955
 51
104.250033
  0
ARC
  5
187
100
AcDbEntity
  8
2
370
    50
100
AcDbCircle
 10
-232.101787
 20
-97.69508
 30
0.0
 40
16.249761
100
AcDbArc
 50
82.930286
 51
104.250033
  0
ARC
  5
188
100
AcDbEntity
  8
2
370
    50
100
AcDbCircle
 10
-236.101728
 20
-97.69508
 30
0.0
 40
16.249761
100
AcDbArc
 50
82.930286
 51
90.0
  0
LINE
  5
189
100
AcDbEntity
  8
2
370
    50
100
AcDbLine
 10
-223.851909
 20
-89.135206
 30
0.0
 11
-223.851909
 21
-83.645287
 31
0.0
  0
LINE
  5
18A
100
AcDbEntity
  8
2
370
    50
100
AcDbLine
 10
-235.851732
 20
-90.145191
 30
0.0
 11
-235.851732
 21
-83.645287
 31
0.0
  0
LINE
  5
18B
100
AcDbEntity
  8
2
370
    50
100
AcDbLine
 10
-211.852085
 20
-90.145191
 30
0.0
 11
-211.852085
 21
-83.643364
 31
0.0
  0
ARC
  5
18C
100
AcDbEntity
  8
2
370
    50
100
AcDbCircle
 10
-217.851997
 20
-71.818679
 30
0.0
 40
18.326512
100
AcDbArc
 50
250.889582
 51
289.110418
  0
ARC
  5
18D
100
AcDbEntity
  8
2
370
    50
100
AcDbCircle
 10
-229.85182
 20
-71.818679
 30
0.0
 40
18.326512
100
AcDbArc
 50
250.889582
 51
289.110418
  0
LINE
  5
18E
100
AcDbEntity
  8
2
370
    50
100
AcDbLine
 10
-212.352078
 20
-126.44573
 30
0.0
 11
-235.351739
 21
-126.44573
 31
0.0
  0
LINE
  5
18F
100
AcDbEntity
  8
2
370
    50
100
AcDbLine
 10
-212.352078
 20
-114.445907
 30
0.0
 11
-235.351739
 21
-114.445907
 31
0.0
  0
LINE
  5
190
100
AcDbEntity
  8
2
370
    50
100
AcDbLine
 10
-212.352078
 20
-126.44573
 30
0.0
 11
-212.352078
 21
-114.445907
 31
0.0
  0
LINE
  5
191
100
AcDbEntity
  8
2
370
    50
100
AcDbLine
 10
-235.351739
 20
-126.44573
 30
0.0
 11
-235.351739
 21
-114.445907
 31
0.0
  0
ELLIPSE
  5
192
100
AcDbEntity
  8
2
370
    50
100
AcDbEllipse
 10
-218.101993
 20
-120.445818
 30
0.0
 11
0.0
 21
5.9999120000000001
 31
0.0
210
0.0
220
0.0
230
1.0
 40
0.794667
 41
0.0
 42
6.2831849999999996
  0
ELLIPSE
  5
193
100
AcDbEntity
  8
2
370
    50
100
AcDbEllipse
 10
-229.601824
 20
-120.445818
 30
0.0
 11
0.0
 21
5.9999120000000001
 31
0.0
210
0.0
220
0.0
230
1.0
 40
0.794667
 41
0.0
 42
6.2831849999999996
  0
LINE
  5
194
100
AcDbEntity
  8
2
370
    50
100
AcDbLine
 10
-209.531569
 20
-81.44532
 30
0.0
 11
-211.602089
 21
-81.44532
 31
0.0
  0
LINE
  5
195
100
AcDbEntity
  8
2
370
    50
100
AcDbLine
 10
-238.172248
 20
-81.44532
 30
0.0
 11
-236.101728
 21
-81.44532
 31
0.0
  0
POINT
  5
196
100
AcDbEntity
  8
2
370
    50
100
AcDbPoint
 10
-223.851909
 20
-126.44573
 30
0.0
  0
LINE
  5
197
100
AcDbEntity
  8
2
370
    50
100
AcDbLine
 10
-241.351909
 20
-79.94573
 30
0.0
 11
-206.351909
 21
-79.94573
 31
0.0
  0
LINE
  5
198
100
AcDbEntity
  8
2
370
    50
100
AcDbLine
 10
-241.351909
 20
-81.44573
 30
0.0
 11
-241.351909
 21
-79.94573
 31
0.0
  0
LINE
  5
199
100
AcDbEntity
  8
2
370
    50
100
AcDbLine
 10
-206.351909
 20
-81.44573
 30
0.0
 11
-206.351909
 21
-79.94573
 31
0.0
  0
LINE
  5
19A
100
AcDbEntity
  8
2
370
    50
100
AcDbLine
 10
-241.351909
 20
-81.44573
 30
0.0
 11
-206.351909
 21
-81.44573
 31
0.0
  0
ARC
  5
19B
100
AcDbEntity
  8
2
370
    50
100
AcDbCircle
 10
49.285966
 20
-14.82498
 30
0.0
 40
30.0
100
AcDbArc
 50
0.0
 51
20.364135
  0
ARC
  5
19C
100
AcDbEntity
  8
2
370
    50
100
AcDbCircle
 10
127.785966
 20
-14.82498
 30
0.0
 40
30.0
100
AcDbArc
 50
159.635865
 51
180.0
  0
ARC
  5
19D
100
AcDbEntity
  8
2
370
    50
100
AcDbCircle
 10
71.535966
 20
6.054136
 30
0.0
 40
30.0
100
AcDbArc
 50
339.635865
 51
346.782468
  0
ARC
  5
19E
100
AcDbEntity
  8
2
370
    50
100
AcDbCircle
 10
105.535966
 20
6.054136
 30
0.0
 40
30.0
100
AcDbArc
 50
193.217532
 51
200.364135
  0
LINE
  5
19F
100
AcDbEntity
  8
2
370
    50
100
AcDbLine
 10
75.535966
 20
0.571187
 30
0.0
 11
75.535966
 21
2.054527
 31
0.0
  0
LINE
  5
1A0
100
AcDbEntity
  8
2
370
    50
100
AcDbLine
 10
75.535966
 20
10.054527
 30
0.0
 11
75.535966
 21
11.537866
 31
0.0
  0
LINE
  5
1A1
100
AcDbEntity
  8
2
370
    50
100
AcDbLine
 10
101.535966
 20
0.571187
 30
0.0
 11
101.535966
 21
2.054527
 31
0.0
  0
LINE
  5
1A2
100
AcDbEntity
  8
2
370
    50
100
AcDbLine
 10
101.535966
 20
10.054527
 30
0.0
 11
101.535966
 21
11.537866
 31
0.0
  0
ARC
  5
1A3
100
AcDbEntity
  8
2
370
    25
100
AcDbCircle
 10
88.535966
 20
6.054527
 30
0.0
 40
13.0
100
AcDbArc
 50
107.920213
 51
162.079787
  0
ARC
  5
1A4
100
AcDbEntity
  8
2
370
    25
100
AcDbCircle
 10
88.535966
 20
6.054527
 30
0.0
 40
13.0
100
AcDbArc
 50
197.920213
 51
252.079787
  0
ARC
  5
1A5
100
AcDbEntity
  8
2
370
    25
100
AcDbCircle
 10
88.535966
 20
6.054527
 30
0.0
 40
13.0
100
AcDbArc
 50
287.920213
 51
342.079787
  0
ARC
  5
1A6
100
AcDbEntity
  8
2
370
    25
100
AcDbCircle
 10
88.535966
 20
6.054527
 30
0.0
 40
13.0
100
AcDbArc
 50
17.920213
 51
72.079787
  0
ARC
  5
1A7
100
AcDbEntity
  8
2
370
    50
100
AcDbCircle
 10
88.535966
 20
192.55427
 30
0.0
 40
7.9
100
AcDbArc
 50
0.0
 51
180.0
  0
LINE
  5
1A8
100
AcDbEntity
  8
2
370
    50
100
AcDbLine
 10
100.535966
 20
141.417973
 30
0.0
 11
100.535966
 21
124.997234
 31
0.0
  0
LINE
  5
1A9
100
AcDbEntity
  8
2
370
    50
100
AcDbLine
 10
76.535966
 20
141.417973
 30
0.0
 11
76.535966
 21
124.997234
 31
0.0
  0
ELLIPSE
  5
1AA
100
AcDbEntity
  8
2
370
    50
100
AcDbEllipse
 10
88.535966
 20
141.417973
 30
0.0
 11
12.0
 21
0.0
 31
0.0
210
0.0
220
0.0
230
1.0
 40
0.258833
 41
0.0
 42
3.1415929999999999
  0
LINE
  5
1AB
100
AcDbEntity
  8
2
370
    50
100
AcDbLine
 10
80.635966
 20
40.054527
 30
0.0
 11
80.635966
 21
122.050208
 31
0.0
  0
LINE
  5
1AC
100
AcDbEntity
  8
2
370
    50
100
AcDbLine
 10
80.635966
 20
144.893635
 30
0.0
 11
80.635966
 21
192.55427
 31
0.0
  0
LINE
  5
1AD
100
AcDbEntity
  8
2
370
    50
100
AcDbLine
 10
96.435966
 20
40.054527
 30
0.0
 11
96.435966
 21
122.050208
 31
0.0
  0
LINE
  5
1AE
100
AcDbEntity
  8
2
370
    50
100
AcDbLine
 10
96.435966
 20
144.893635
 30
0.0
 11
96.435966
 21
192.55427
 31
0.0
  0
LINE
  5
1AF
100
AcDbEntity
  8
2
370
    50
100
AcDbLine
 10
97.435966
 20
143.832788
 30
0.0
 11
97.435966
 21
143.501381
 31
0.0
  0
LINE
  5
1B0
100
AcDbEntity
  8
2
370
    50
100
AcDbLine
 10
79.635966
 20
143.832788
 30
0.0
 11
79.635966
 21
143.501381
 31
0.0
  0
ELLIPSE
  5
1B1
100
AcDbEntity
  8
2
370
    50
100
AcDbEllipse
 10
88.535966
 20
143.832788
 30
0.0
 11
8.9000000000000004
 21
0.0
 31
0.0
210
0.0
220
0.0
230
1.0
 40
0.25882
 41
0.0
 42
3.1415929999999999
  0
ELLIPSE
  5
1B2
100
AcDbEntity
  8
2
370
    50
100
AcDbEllipse
 10
88.535966
 20
124.031308
 30
0.0
 11
11.0
 21
0.0
 31
0.0
210
0.0
220
0.0
230
1.0
 40
0.258818
 41
0.0
 42
6.2831849999999996
  0
LINE
  5
1B3
100
AcDbEntity
  8
2
370
    50
100
AcDbLine
 10
100.097072
 20
124.1649
 30
0.0
 11
99.133691
 21
123.268421
 31
0.0
  0
LINE
  5
1B4
100
AcDbEntity
  8
2
370
    50
100
AcDbLine
 10
76.97486
 20
124.1649
 30
0.0
 11
77.938241
 21
123.268421
 31
0.0
  0
ELLIPSE
  5
1B5
100
AcDbEntity
  8
2
370
    50
100
AcDbEllipse
 10
88.535966
 20
124.997234
 30
0.0
 11
12.0
 21
0.0
 31
0.0
210
0.0
220
0.0
230
1.0
 40
0.258833
 41
6.0118929999999997
 42
3.4128850000000002
  0
LINE
  5
1B6
100
AcDbEntity
  8
2
370
    25
  6
CENTER
100
AcDbLine
 10
-240.457826
 20
6.05427
 30
0.0
 11
-161.699151
 21
6.05427
 31
0.0
  0
LINE
  5
1B7
100
AcDbEntity
  8
2
370
    50
100
AcDbLine
 10
-243.351909
 20
-63.94573
 30
0.0
 11
-243.351909
 21
-66.94573
 31
0.0
  0
LINE
  5
1B8
100
AcDbEntity
  8
2
370
    50
100
AcDbLine
 10
-204.351909
 20
-63.94573
 30
0.0
 11
-204.351909
 21
-66.94573
 31
0.0
  0
LINE
  5
1B9
100
AcDbEntity
  8
2
370
    50
100
AcDbLine
 10
-204.351909
 20
-66.94573
 30
0.0
 11
-243.351909
 21
-66.94573
 31
0.0
  0
LINE
  5
1BA
100
AcDbEntity
  8
2
370
    50
100
AcDbLine
 10
108.035966
 20
-63.945473
 30
0.0
 11
108.035966
 21
-66.945473
 31
0.0
  0
LINE
  5
1BB
100
AcDbEntity
  8
2
370
    50
100
AcDbLine
 10
108.035966
 20
-66.945473
 30
0.0
 11
69.035966
 21
-66.945473
 31
0.0
  0
LINE
  5
1BC
100
AcDbEntity
  8
2
370
    50
100
AcDbLine
 10
69.035966
 20
-63.945473
 30
0.0
 11
69.035966
 21
-66.945473
 31
0.0
  0
POINT
  5
1BD
100
AcDbEntity
  8
2
370
    50
100
AcDbPoint
 10
-108.228442
 20
124.031308
 30
0.0
  0
POINT
  5
1BE
100
AcDbEntity
  8
2
370
    50
100
AcDbPoint
 10
-168.851909
 20
200.45427
 30
0.0
  0
HATCH
  5
1BF
100
AcDbEntity
  8
2
370
    25
100
AcDbHatch
 10
0.0
 20
0.0
 30
0.0
210
0.0
220
0.0
230
1.0
  2
_U
 70
     0
 71
     1
 91
        1
 92
        1
 93
        5
 72
     1
 10
-204.35190900000001
 20
-66.945729999999998
 11
-243.35190900000001
 21
-66.945729999999998
 72
     1
 10
-243.35190900000001
 20
-66.945729999999998
 11
-243.35190900000001
 21
-63.945729999999998
 72
     1
 10
-243.35190900000001
 20
-63.945729999999998
 11
-223.85190900000001
 21
-63.945729999999998
 72
     1
 10
-223.85190900000001
 20
-63.945729999999998
 11
-204.35190900000001
 21
-63.945729999999998
 72
     1
 10
-204.35190900000001
 20
-63.945729999999998
 11
-204.35190900000001
 21
-66.945729999999998
 97
        5
330
0
330
0
330
0
330
0
330
0
 75
     0
 76
     0
 52
45.0
 41
1.0
 77
     0
 78
     1
 53
45.0
 43
0.0
 44
0.0
 45
-1.4142140000000001
 46
1.4142140000000001
 79
     0
 98
        1
 10
0.0
 20
0.0
  0
HATCH
  5
1C0
100
AcDbEntity
  8
2
370
    25
100
AcDbHatch
 10
0.0
 20
0.0
 30
0.0
210
0.0
220
0.0
230
1.0
  2
_U
 70
     0
 71
     1
 91
        1
 92
        1
 93
        4
 72
     1
 10
-206.35190900000001
 20
-79.945729999999998
 11
-241.35190900000001
 21
-79.945729999999998
 72
     1
 10
-241.35190900000001
 20
-79.945729999999998
 11
-241.35190900000001
 21
-81.445729999999998
 72
     1
 10
-241.35190900000001
 20
-81.445729999999998
 11
-206.35190900000001
 21
-81.445729999999998
 72
     1
 10
-206.35190900000001
 20
-81.445729999999998
 11
-206.35190900000001
 21
-79.945729999999998
 97
        4
330
0
330
0
330
0
330
0
 75
     0
 76
     0
 52
45.0
 41
1.0
 77
     0
 78
     1
 53
45.0
 43
0.0
 44
0.0
 45
-1.4142140000000001
 46
1.4142140000000001
 79
     0
 98
        1
 10
0.0
 20
0.0
  0
HATCH
  5
1C1
100
AcDbEntity
  8
2
370
    25
100
AcDbHatch
 10
0.0
 20
0.0
 30
0.0
210
0.0
220
0.0
230
1.0
  2
_U
 70
     0
 71
     1
 91
        1
 92
        1
 93
        4
 72
     1
 10
108.035966
 20
-66.945473000000007
 11
69.035966000000002
 21
-66.945473000000007
 72
     1
 10
69.035966000000002
 20
-66.945473000000007
 11
69.035966000000002
 21
-63.945473
 72
     1
 10
69.035966000000002
 20
-63.945473
 11
108.035966
 21
-63.945473
 72
     1
 10
108.035966
 20
-63.945473
 11
108.035966
 21
-66.945473000000007
 97
        4
330
0
330
0
330
0
330
0
 75
     0
 76
     0
 52
45.0
 41
1.0
 77
     0
 78
     1
 53
45.0
 43
0.0
 44
0.0
 45
-1.4142140000000001
 46
1.4142140000000001
 79
     0
 98
        1
 10
0.0
 20
0.0
  0
HATCH
  5
1C2
100
AcDbEntity
  8
2
370
    25
100
AcDbHatch
 10
0.0
 20
0.0
 30
0.0
210
0.0
220
0.0
230
1.0
  2
_U
 70
     0
 71
     1
 91
        1
 92
        1
 93
        4
 72
     1
 10
106.035966
 20
-81.445473000000007
 11
106.035966
 21
-79.945473000000007
 72
     1
 10
106.035966
 20
-79.945473000000007
 11
71.035966000000002
 21
-79.945473000000007
 72
     1
 10
71.035966000000002
 20
-79.945473000000007
 11
71.035966000000002
 21
-81.445473000000007
 72
     1
 10
71.035966000000002
 20
-81.445473000000007
 11
106.035966
 21
-81.445473000000007
 97
        4
330
0
330
0
330
0
330
0
 75
     0
 76
     0
 52
45.0
 41
1.0
 77
     0
 78
     1
 53
45.0
 43
0.0
 44
0.0
 45
-1.4142140000000001
 46
1.4142140000000001
 79
     0
 98
        1
 10
0.0
 20
0.0
  0
POINT
  5
1C3
100
AcDbEntity
  8
2
370
    50
100
AcDbPoint
 10
-200.851909
 20
-62.44573
 30
0.0
  0
POINT
  5
1C4
100
AcDbEntity
  8
2
370
    50
100
AcDbPoint
 10
-246.851909
 20
-62.44573
 30
0.0
  0
TEXT
  5
1C5
100
AcDbEntity
  8
3
370
    50
100
AcDbText
 10
-176.540175
 20
94.042973
 30
0.0
 40
6.0
  1
１１５
 72
     5
 11
-159.740175
 21
94.042973
 31
0.0
100
AcDbText
  0
DIMENSION
  5
1C6
100
AcDbEntity
  8
3
370
    25
100
AcDbDimension
  2
*D0
 10
-108.228442
 20
93.042973
 30
0.0
 11
-166.040175
 21
95.042973
 31
0.0
 71
     0
 72
     0
 41
0.0
 42
0.0
  3
Standard
100
AcDbAlignedDimension
 13
-223.851909
 23
75.582352
 33
0.0
 14
-108.228442
 24
124.031308
 34
0.0
100
AcDbRotatedDimension
  0
DIMENSION
  5
1C7
100
AcDbEntity
  8
3
370
    25
100
AcDbDimension
  2
*D1
 10
-108.227889
 20
124.029243
 30
0.0
 11
-96.629388
 21
106.554267
 31
0.0
 70
     2
 71
     0
 72
     0
 41
0.0
 42
0.0
  3
Standard
100
AcDb2LineAngularDimension
 13
-108.228442
 23
124.02917
 33
0.0
 14
-108.228442
 24
124.031308
 34
0.0
 15
-108.228442
 25
124.031308
 35
0.0
 16
-105.437444
 26
102.831575
 36
0.0
1001
ACAD
1000
DSTYLE
1002
{
1070
   275
1070
     0
1070
   179
1070
     0
1002
}
  0
TEXT
  5
1C8
100
AcDbEntity
  8
3
370
    50
100
AcDbText
 10
-288.497635
 20
-103.128284
 30
0.0
 40
6.0
  1
ＰＪ１／２
 72
     5
 11
-259.697635
 21
-103.128284
 31
0.0
100
AcDbText
  0
DIMENSION
  5
1C9
100
AcDbEntity
  8
3
370
    25
100
AcDbDimension
  2
*D2
 10
-148.551453
 20
6.05427
 30
0.0
 11
-155.551453
 21
-29.94573
 31
0.0
 71
     0
 72
     0
 41
0.0
 42
0.0
  3
Standard
100
AcDbAlignedDimension
 13
-201.351909
 23
-63.94573
 33
0.0
 14
-161.699151
 24
6.05427
 34
0.0
 50
90.0
100
AcDbRotatedDimension
  0
TEXT
  5
1CA
100
AcDbEntity
  8
3
370
    50
100
AcDbText
 10
-272.555527
 20
-54.744473
 30
0.0
 40
6.0
  1
取付穴径　φ２２～２６
 50
90.0
 72
     5
 11
-272.555527
 21
10.055527
 31
0.0
100
AcDbText
  0
LINE
  5
1CB
100
AcDbEntity
  8
3
370
    25
100
AcDbLine
 10
-242.308182
 20
-79.94573
 30
0.0
 11
-283.209381
 21
-79.94573
 31
0.0
  0
LINE
  5
1CC
100
AcDbEntity
  8
3
370
    25
100
AcDbLine
 10
-281.209381
 20
-79.94573
 30
0.0
 11
-282.244657
 21
-83.809433
 31
0.0
  0
LINE
  5
1CD
100
AcDbEntity
  8
3
370
    25
100
AcDbLine
 10
-281.209381
 20
-79.94573
 30
0.0
 11
-280.174105
 21
-83.809433
 31
0.0
  0
LINE
  5
1CE
100
AcDbEntity
  8
3
370
    25
100
AcDbLine
 10
-282.244657
 20
-83.809433
 30
0.0
 11
-280.174105
 21
-83.809433
 31
0.0
  0
LINE
  5
1CF
100
AcDbEntity
  8
3
370
    25
100
AcDbLine
 10
-281.209381
 20
-89.94573
 30
0.0
 11
-281.209381
 21
20.646318
 31
0.0
  0
LINE
  5
1D0
100
AcDbEntity
  8
3
370
    25
100
AcDbLine
 10
-281.209381
 20
-63.94573
 30
0.0
 11
-280.174105
 21
-60.082027
 31
0.0
  0
LINE
  5
1D1
100
AcDbEntity
  8
3
370
    25
100
AcDbLine
 10
-281.209381
 20
-63.94573
 30
0.0
 11
-282.244657
 21
-60.082027
 31
0.0
  0
LINE
  5
1D2
100
AcDbEntity
  8
3
370
    25
100
AcDbLine
 10
-280.174105
 20
-60.082027
 30
0.0
 11
-282.244657
 21
-60.082027
 31
0.0
  0
LINE
  5
1D3
100
AcDbEntity
  8
3
370
    25
100
AcDbLine
 10
-268.351909
 20
-63.94573
 30
0.0
 11
-283.209381
 21
-63.94573
 31
0.0
  0
TEXT
  5
1D4
100
AcDbEntity
  8
3
370
    50
100
AcDbText
 10
-282.209381
 20
-55.94573
 30
0.0
 40
6.0
  1
０～３０
 50
90.0
 72
     5
 11
-282.209381
 21
-33.14573
 31
0.0
100
AcDbText
  0
LWPOLYLINE
  5
1D5
100
AcDbEntity
  8
3
370
    25
100
AcDbPolyline
 90
        3
 70
     0
 10
-234.329409
 20
-106.816074
 10
-252.789078
 20
-103.76894
 10
-287.34256
 20
-103.76894
  0
LINE
  5
1DA
100
AcDbEntity
  8
3
370
    25
100
AcDbLine
 10
-238.141525
 20
-106.186809
 30
0.0
 11
-238.310136
 21
-107.208262
 31
0.0
  0
LINE
  5
1DB
100
AcDbEntity
  8
3
370
    25
100
AcDbLine
 10
-238.310136
 20
-107.208262
 30
0.0
 11
-234.329409
 21
-106.816074
 31
0.0
  0
LINE
  5
1DC
100
AcDbEntity
  8
3
370
    25
100
AcDbLine
 10
-234.329409
 20
-106.816074
 30
0.0
 11
-237.972914
 21
-105.165356
 31
0.0
  0
LINE
  5
1DD
100
AcDbEntity
  8
3
370
    25
100
AcDbLine
 10
-237.972914
 20
-105.165356
 30
0.0
 11
-238.141525
 21
-106.186809
 31
0.0
  0
TEXT
  5
1DE
100
AcDbEntity
  8
3
370
    50
100
AcDbText
 10
-201.468933
 20
-136.113461
 30
0.0
 40
6.0
  1
２３六角
 72
     5
 11
-178.668933
 21
-136.113461
 31
0.0
100
AcDbText
  0
TEXT
  5
1DF
100
AcDbEntity
  8
3
370
    50
100
AcDbText
 10
-200.539444
 20
-96.020847
 30
0.0
 40
6.0
  1
２４六角
 72
     5
 11
-177.739444
 21
-96.020847
 31
0.0
100
AcDbText
  0
LWPOLYLINE
  5
1E0
100
AcDbEntity
  8
3
370
    25
100
AcDbPolyline
 90
        3
 70
     0
 10
-211.833755
 20
-88.104809
 10
-199.624817
 20
-96.559147
 10
-172.154716
 20
-96.559147
  0
LINE
  5
1E5
100
AcDbEntity
  8
3
370
    25
100
AcDbLine
 10
-208.657292
 20
-90.304418
 30
0.0
 11
-208.067908
 21
-89.453287
 31
0.0
  0
LINE
  5
1E6
100
AcDbEntity
  8
3
370
    25
100
AcDbLine
 10
-208.067908
 20
-89.453287
 30
0.0
 11
-211.833755
 21
-88.104809
 31
0.0
  0
LINE
  5
1E7
100
AcDbEntity
  8
3
370
    25
100
AcDbLine
 10
-211.833755
 20
-88.104809
 30
0.0
 11
-209.246675
 21
-91.155549
 31
0.0
  0
LINE
  5
1E8
100
AcDbEntity
  8
3
370
    25
100
AcDbLine
 10
-209.246675
 20
-91.155549
 30
0.0
 11
-208.657292
 21
-90.304418
 31
0.0
  0
LWPOLYLINE
  5
1E9
100
AcDbEntity
  8
3
370
    25
100
AcDbPolyline
 90
        3
 70
     0
 10
-212.327728
 20
-125.917904
 10
-201.078064
 20
-136.725536
 10
-172.561501
 20
-136.725536
  0
LINE
  5
1EE
100
AcDbEntity
  8
3
370
    25
100
AcDbLine
 10
-209.541486
 20
-128.594667
 30
0.0
 11
-208.82425
 21
-127.848095
 31
0.0
  0
LINE
  5
1EF
100
AcDbEntity
  8
3
370
    25
100
AcDbLine
 10
-208.82425
 20
-127.848095
 30
0.0
 11
-212.327728
 21
-125.917904
 31
0.0
  0
LINE
  5
1F0
100
AcDbEntity
  8
3
370
    25
100
AcDbLine
 10
-212.327728
 20
-125.917904
 30
0.0
 11
-210.258723
 21
-129.341238
 31
0.0
  0
LINE
  5
1F1
100
AcDbEntity
  8
3
370
    25
100
AcDbLine
 10
-210.258723
 20
-129.341238
 30
0.0
 11
-209.541486
 21
-128.594667
 31
0.0
  0
DIMENSION
  5
1F2
100
AcDbEntity
  8
3
370
    25
100
AcDbDimension
  2
*D3
 10
-209.424239
 20
-47.933872
 30
0.0
 11
-231.619598
 21
-44.178066
 31
0.0
 70
     1
 71
     0
 72
     0
 41
0.0
 42
0.0
 51
120.570861
  3
Standard
100
AcDbAlignedDimension
 13
-246.851909
 23
-62.44573
 33
0.0
 14
-200.851909
 24
-62.44573
 34
0.0
  0
TEXT
  5
1F3
100
AcDbEntity
  8
3
370
    50
100
AcDbText
 10
342.953888
 20
-255.581223
 30
0.0
 40
6.0
  1
０７　１１　１２
 72
     5
 11
389.753888
 21
-255.581223
 31
0.0
100
AcDbText
  0
TEXT
  5
1F4
100
AcDbEntity
  8
3
370
    50
100
AcDbText
 10
288.298523
 20
-240.024506
 30
0.0
 40
6.0
  1
１
 72
     5
 11
293.098523
 21
-240.024506
 31
0.0
100
AcDbText
  0
TEXT
  5
1F5
100
AcDbEntity
  8
3
370
    50
100
AcDbText
 10
303.191315
 20
-240.095032
 30
0.0
 40
6.0
  1
２
 72
     5
 11
307.991315
 21
-240.095032
 31
0.0
100
AcDbText
  0
TEXT
  5
1F6
100
AcDbEntity
  8
3
370
    50
100
AcDbText
 10
234.061356
 20
-273.029846
 30
0.0
 40
6.0
  1
外観寸法図
 72
     5
 11
262.861356
 21
-273.029846
 31
0.0
100
AcDbText
  0
LINE
  5
1F7
100
AcDbEntity
  8
3
370
    50
100
AcDbLine
 10
114.982385
 20
-202.971881
 30
0.0
 11
394.982385
 21
-202.971881
 31
0.0
  0
LINE
  5
1F8
100
AcDbEntity
  8
3
370
    50
100
AcDbLine
 10
114.982385
 20
-187.971881
 30
0.0
 11
394.982385
 21
-187.971881
 31
0.0
  0
LINE
  5
1F9
100
AcDbEntity
  8
3
370
    50
100
AcDbLine
 10
114.982385
 20
-172.971881
 30
0.0
 11
394.982385
 21
-172.971881
 31
0.0
  0
LINE
  5
1FA
100
AcDbEntity
  8
3
370
    50
100
AcDbLine
 10
114.982385
 20
-157.971881
 30
0.0
 11
394.982385
 21
-157.971881
 31
0.0
  0
LINE
  5
1FB
100
AcDbEntity
  8
3
370
    50
100
AcDbLine
 10
114.982385
 20
-147.971881
 30
0.0
 11
394.982385
 21
-147.971881
 31
0.0
  0
LINE
  5
1FC
100
AcDbEntity
  8
3
370
    50
100
AcDbLine
 10
194.982385
 20
-217.971881
 30
0.0
 11
194.982385
 21
-147.971881
 31
0.0
  0
LINE
  5
1FD
100
AcDbEntity
  8
3
370
    50
100
AcDbLine
 10
114.982385
 20
-217.971881
 30
0.0
 11
114.982385
 21
-147.971881
 31
0.0
  0
TEXT
  5
1FE
100
AcDbEntity
  8
3
370
    50
100
AcDbText
 10
135.329788
 20
-156.058945
 30
0.0
 40
7.0
  1
コードＮｏ.
 72
     5
 11
172.429788
 21
-156.058945
 31
0.0
100
AcDbText
  0
TEXT
  5
1FF
100
AcDbEntity
  8
3
370
    50
100
AcDbText
 10
237.912125
 20
-155.933502
 30
0.0
 40
7.0
  1
品　　　名
 72
     5
 11
271.512125
 21
-155.933502
 31
0.0
100
AcDbText
  0
TEXT
  5
200
100
AcDbEntity
  8
3
370
    50
100
AcDbText
 10
197.563507
 20
-168.413956
 30
0.0
 40
6.0
  1
Ｋ１３－１３ＳＰ
 72
     5
 11
244.363507
 21
-168.413956
 31
0.0
100
AcDbText
  0
TEXT
  5
201
100
AcDbEntity
  8
3
370
    50
100
AcDbText
 10
197.828583
 20
-183.517075
 30
0.0
 40
6.0
  1
Ｋ１３－１３ＳＰＢ
 72
     5
 11
250.628583
 21
-183.517075
 31
0.0
100
AcDbText
  0
LINE
  5
202
100
AcDbEntity
  8
3
370
    50
100
AcDbLine
 10
314.982385
 20
-217.971881
 30
0.0
 11
314.982385
 21
-147.971881
 31
0.0
  0
TEXT
  5
203
100
AcDbEntity
  8
3
370
    50
100
AcDbText
 10
197.456802
 20
-198.574356
 30
0.0
 40
6.0
  1
Ｋ１３－１３ＳＰＮＳ
 72
     5
 11
256.256802
 21
-198.574356
 31
0.0
100
AcDbText
  0
TEXT
  5
204
100
AcDbEntity
  8
3
370
    50
100
AcDbText
 10
197.563507
 20
-213.458313
 30
0.0
 40
6.0
  1
Ｋ１３－１３ＳＰＢＳ
 72
     5
 11
256.363507
 21
-213.458313
 31
0.0
100
AcDbText
  0
TEXT
  5
205
100
AcDbEntity
  8
3
370
    50
100
AcDbText
 10
342.183899
 20
-156.181046
 30
0.0
 40
7.0
  1
仕　　上
 72
     5
 11
368.783899
 21
-156.181046
 31
0.0
100
AcDbText
  0
TEXT
  5
206
100
AcDbEntity
  8
3
370
    50
100
AcDbText
 10
317.221252
 20
-168.789017
 30
0.0
 40
6.0
  1
ニッケル・クロムメッキ
 72
     5
 11
382.021252
 21
-168.789017
 31
0.0
100
AcDbText
  0
TEXT
  5
207
100
AcDbEntity
  8
3
370
    50
100
AcDbText
 10
317.504364
 20
-183.569672
 30
0.0
 40
6.0
  1
ブロンズ
 72
     5
 11
340.304364
 21
-183.569672
 31
0.0
100
AcDbText
  0
TEXT
  5
208
100
AcDbEntity
  8
3
370
    50
100
AcDbText
 10
317.504364
 20
-198.450577
 30
0.0
 40
6.0
  1
ニッケルサテン
 72
     5
 11
358.304364
 21
-198.450577
 31
0.0
100
AcDbText
  0
TEXT
  5
209
100
AcDbEntity
  8
3
370
    50
100
AcDbText
 10
317.726593
 20
-213.331497
 30
0.0
 40
6.0
  1
ブラックサテン
 72
     5
 11
358.526593
 21
-213.331497
 31
0.0
100
AcDbText
  0
TEXT
  5
20A
100
AcDbEntity
  8
3
370
    50
100
AcDbText
 10
76.657799
 20
-231.615204
 30
0.0
 40
6.0
  1
立水栓　１３（グーズネック形）
 72
     5
 11
165.457799
 21
-231.615204
 31
0.0
100
AcDbText
  0
TEXT
  5
20B
100
AcDbEntity
  8
3
370
    50
100
AcDbText
 10
134.001984
 20
-168.24408
 30
0.0
 40
6.0
  1
５０１３１７
 72
     5
 11
168.801984
 21
-168.24408
 31
0.0
100
AcDbText
  0
TEXT
  5
20C
100
AcDbEntity
  8
3
370
    50
100
AcDbText
 10
134.001984
 20
-183.24408
 30
0.0
 40
6.0
  1
５０１３１８
 72
     5
 11
168.801984
 21
-183.24408
 31
0.0
100
AcDbText
  0
TEXT
  5
20D
100
AcDbEntity
  8
3
370
    50
100
AcDbText
 10
134.001984
 20
-198.24408
 30
0.0
 40
6.0
  1
５０１３１９
 72
     5
 11
168.801984
 21
-198.24408
 31
0.0
100
AcDbText
  0
TEXT
  5
20E
100
AcDbEntity
  8
3
370
    50
100
AcDbText
 10
134.001984
 20
-213.24408
 30
0.0
 40
6.0
  1
５０１３２０
 72
     5
 11
168.801984
 21
-213.24408
 31
0.0
100
AcDbText
  0
TEXT
  5
20F
100
AcDbEntity
  8
3
370
    50
100
AcDbText
 10
-329.671112
 20
59.25427
 30
0.0
 40
6.0
  1
２６５
 50
90.0
 72
     5
 11
-329.671112
 21
76.05427
 31
0.0
100
AcDbText
  0
DIMENSION
  5
210
100
AcDbEntity
  8
3
370
    25
100
AcDbDimension
  2
*D4
 10
-328.671112
 20
200.45427
 30
0.0
 11
-331.171112
 21
68.25427
 31
0.0
 71
     0
 72
     0
 41
0.0
 42
0.0
  3
Standard
100
AcDbAlignedDimension
 13
-246.351909
 23
-63.94573
 33
0.0
 14
-168.851909
 24
200.45427
 34
0.0
 50
90.0
100
AcDbRotatedDimension
  0
TEXT
  5
211
100
AcDbEntity
  8
3
370
    50
100
AcDbText
 10
-88.95459
 20
19.542789
 30
0.0
 40
6.0
  1
１８８
 50
90.0
 72
     5
 11
-88.95459
 21
36.342789
 31
0.0
100
AcDbText
  0
DIMENSION
  5
212
100
AcDbEntity
  8
3
370
    25
100
AcDbDimension
  2
*D5
 10
-87.95459
 20
124.031308
 30
0.0
 11
-90.45459
 21
30.042789
 31
0.0
 71
     0
 72
     0
 41
0.0
 42
0.0
  3
Standard
100
AcDbAlignedDimension
 13
-201.351909
 23
-63.94573
 33
0.0
 14
-108.228442
 24
124.031308
 34
0.0
 50
90.0
100
AcDbRotatedDimension
  0
ENDSEC
  0
SECTION
  2
OBJECTS
  0
DICTIONARY
  5
258
100
AcDbDictionary
280
     0
281
     1
  3
ACAD_GROUP
350
259
  3
ACAD_MLINESTYLE
350
25A
  0
DICTIONARY
  5
259
102
{ACAD_REACTORS
330
258
102
}
100
AcDbDictionary
280
     0
281
     1
  0
DICTIONARY
  5
25A
102
{ACAD_REACTORS
330
258
102
}
100
AcDbDictionary
280
     0
281
     1
  3
Standard
350
25B
  0
MLINESTYLE
  5
25B
102
{ACAD_REACTORS
330
25A
102
}
100
AcDbMlineStyle
  2
Standard
 70
     0
  3

 62
     0
 51
90.0
 52
90.0
 71
     2
 49
0.5
 62
   256
  6
ByLayer
 49
-0.5
 62
   256
  6
ByLayer
  0
ENDSEC
  0
EOF
