  0
SECTION
  2
HEADER
  9
$ACADVER
  1
AC1015
  9
$ACADMAINTVER
 70
     6
  9
$DWGCODEPAGE
  3
ANSI_932
  9
$INSBASE
 10
0.0
 20
0.0
 30
0.0
  9
$EXTMIN
 10
-841.0
 20
-594.0
 30
1.000000E+20
  9
$EXTMAX
 10
841.0
 20
594.0
 30
-1.000000E+20
  9
$LIMMIN
 10
-841.0
 20
-594.0
  9
$LIMMAX
 10
841.0
 20
594.0
  9
$ORTHOMODE
 70
     0
  9
$REGENMODE
 70
     1
  9
$FILLMODE
 70
     1
  9
$QTEXTMODE
 70
     0
  9
$MIRRTEXT
 70
     1
  9
$LTSCALE
 40
1.0
  9
$ATTMODE
 70
     1
  9
$TEXTSIZE
 40
0.2
  9
$TRACEWID
 40
0.05
  9
$TEXTSTYLE
  7
STANDARD
  9
$CLAYER
  8
0
  9
$CELTYPE
  6
CONTINUOUS
  9
$CECOLOR
 62
   256
  9
$CELTSCALE
 40
1.0
  9
$DISPSILH
 70
     0
  9
$DIMSCALE
 40
2.0
  9
$DIMASZ
 40
2.0
  9
$DIMEXO
 40
1.0
  9
$DIMDLI
 40
0.38
  9
$DIMRND
 40
0.0
  9
$DIMDLE
 40
0.0
  9
$DIMEXE
 40
2.0
  9
$DIMTP
 40
0.0
  9
$DIMTM
 40
0.0
  9
$DIMTXT
 40
3.5
  9
$DIMCEN
 40
0.09
  9
$DIMTSZ
 40
0.0
  9
$DIMTOL
 70
     0
  9
$DIMLIM
 70
     0
  9
$DIMTIH
 70
     0
  9
$DIMTOH
 70
     0
  9
$DIMSE1
 70
     0
  9
$DIMSE2
 70
     0
  9
$DIMTAD
 70
     1
  9
$DIMZIN
 70
     0
  9
$DIMBLK
  1

  9
$DIMASO
 70
     1
  9
$DIMSHO
 70
     1
  9
$DIMPOST
  1

  9
$DIMAPOST
  1

  9
$DIMALT
 70
     0
  9
$DIMALTD
 70
     2
  9
$DIMALTF
 40
25.4
  9
$DIMLFAC
 40
1.0
  9
$DIMTOFL
 70
     0
  9
$DIMTVP
 40
0.0
  9
$DIMTIX
 70
     0
  9
$DIMSOXD
 70
     0
  9
$DIMSAH
 70
     0
  9
$DIMBLK1
  1

  9
$DIMBLK2
  1

  9
$DIMSTYLE
  2
Standard
  9
$DIMCLRD
 70
     0
  9
$DIMCLRE
 70
     0
  9
$DIMCLRT
 70
     0
  9
$DIMTFAC
 40
1.0
  9
$DIMGAP
 40
0.5
  9
$DIMJUST
 70
     0
  9
$DIMSD1
 70
     0
  9
$DIMSD2
 70
     0
  9
$DIMTOLJ
 70
     1
  9
$DIMTZIN
 70
     0
  9
$DIMALTZ
 70
     0
  9
$DIMALTTZ
 70
     0
  9
$DIMUPT
 70
     0
  9
$DIMDEC
 70
     3
  9
$DIMTDEC
 70
     4
  9
$DIMALTU
 70
     2
  9
$DIMALTTD
 70
     2
  9
$DIMTXSTY
  7
STANDARD
  9
$DIMAUNIT
 70
     0
  9
$DIMADEC
 70
     0
  9
$DIMALTRND
 40
0.0
  9
$DIMAZIN
 70
     0
  9
$DIMDSEP
 70
     0
  9
$DIMATFIT
 70
     3
  9
$DIMFRAC
 70
     0
  9
$DIMLDRBLK
  1

  9
$DIMLUNIT
 70
     2
  9
$DIMLWD
 70
     0
  9
$DIMLWE
 70
     0
  9
$DIMTMOVE
 70
     0
  9
$LUNITS
 70
     2
  9
$LUPREC
 70
     4
  9
$SKETCHINC
 40
0.1
  9
$FILLETRAD
 40
0.0
  9
$AUNITS
 70
     0
  9
$AUPREC
 70
     0
  9
$MENU
  1
acad
  9
$ELEVATION
 40
0.0
  9
$PELEVATION
 40
0.0
  9
$THICKNESS
 40
0.0
  9
$LIMCHECK
 70
     0
  9
$CHAMFERA
 40
0.0
  9
$CHAMFERB
 40
0.0
  9
$CHAMFERC
 40
0.0
  9
$CHAMFERD
 40
0.0
  9
$SKPOLY
 70
     0
  9
$TDCREATE
 40
2453383.000000000
  9
$TDUCREATE
 40
0.000000000
  9
$TDUPDATE
 40
0.000000000
  9
$TDUUPDATE
 40
2447892.625000000
  9
$TDINDWG
 40
0.0000000000
  9
$TDUSRTIMER
 40
0.0000000000
  9
$USRTIMER
 70
     1
  9
$ANGBASE
 50
0.0
  9
$ANGDIR
 70
     0
  9
$PDMODE
 70
     0
  9
$PDSIZE
 40
0.0
  9
$PLINEWID
 40
0.0
  9
$SPLFRAME
 70
     0
  9
$SPLINETYPE
 70
     6
  9
$SPLINESEGS
 70
     8
  9
$HANDSEED
  5
266
  9
$SURFTAB1
 70
     6
  9
$SURFTAB2
 70
     6
  9
$SURFTYPE
 70
     6
  9
$SURFU
 70
     6
  9
$SURFV
 70
     6
  9
$UCSBASE
  2

  9
$UCSNAME
  2

  9
$UCSORG
 10
0.0
 20
0.0
 30
0.0
  9
$UCSXDIR
 10
1.0
 20
0.0
 30
0.0
  9
$UCSYDIR
 10
0.0
 20
1.0
 30
0.0
  9
$UCSORTHOREF
  2

  9
$UCSORTHOVIEW
 70
     0
  9
$UCSORGTOP
 10
0.0
 20
0.0
 30
0.0
  9
$UCSORGBOTTOM
 10
0.0
 20
0.0
 30
0.0
  9
$UCSORGLEFT
 10
0.0
 20
0.0
 30
0.0
  9
$UCSORGRIGHT
 10
0.0
 20
0.0
 30
0.0
  9
$UCSORGFRONT
 10
0.0
 20
0.0
 30
0.0
  9
$UCSORGBACK
 10
0.0
 20
0.0
 30
0.0
  9
$PUCSBASE
  2

  9
$PUCSNAME
  2

  9
$PUCSORG
 10
0.0
 20
0.0
 30
0.0
  9
$PUCSXDIR
 10
1.0
 20
0.0
 30
0.0
  9
$PUCSYDIR
 10
0.0
 20
1.0
 30
0.0
  9
$PUCSORTHOREF
  2

  9
$PUCSORTHOVIEW
 70
     0
  9
$PUCSORGTOP
 10
0.0
 20
0.0
 30
0.0
  9
$PUCSORGBOTTOM
 10
0.0
 20
0.0
 30
0.0
  9
$PUCSORGLEFT
 10
0.0
 20
0.0
 30
0.0
  9
$PUCSORGRIGHT
 10
0.0
 20
0.0
 30
0.0
  9
$PUCSORGFRONT
 10
0.0
 20
0.0
 30
0.0
  9
$PUCSORGBACK
 10
0.0
 20
0.0
 30
0.0
  9
$USERI1
 70
     0
  9
$USERI2
 70
     0
  9
$USERI3
 70
     0
  9
$USERI4
 70
     0
  9
$USERI5
 70
     0
  9
$USERR1
 40
0.0
  9
$USERR2
 40
0.0
  9
$USERR3
 40
0.0
  9
$USERR4
 40
0.0
  9
$USERR5
 40
0.0
  9
$WORLDVIEW
 70
     1
  9
$SHADEDGE
 70
     3
  9
$SHADEDIF
 70
    70
  9
$TILEMODE
 70
     1
  9
$MAXACTVP
 70
    16
  9
$PINSBASE
 10
0.0
 20
0.0
 30
0.0
  9
$PLIMCHECK
 70
     0
  9
$PEXTMIN
 10
1.000000E+20
 20
1.000000E+20
 30
1.000000E+20
  9
$PEXTMAX
 10
-1.000000E+20
 20
-1.000000E+20
 30
-1.000000E+20
  9
$PLIMMIN
 10
0.0
 20
0.0
  9
$PLIMMAX
 10
12.0
 20
9.0
  9
$UNITMODE
 70
     0
  9
$VISRETAIN
 70
     0
  9
$PLINEGEN
 70
     1
  9
$PSLTSCALE
 70
     0
  9
$TREEDEPTH
 70
  3020
  9
$CMLSTYLE
  2
Standard
  9
$CMLJUST
 70
     0
  9
$CMLSCALE
 40
1.0
  9
$PROXYGRAPHICS
 70
     0
  9
$MEASUREMENT
 70
     0
  9
$CELWEIGHT
370
     0
  9
$ENDCAPS
280
     0
  9
$JOINSTYLE
280
     0
  9
$LWDISPLAY
290
     0
  9
$INSUNITS
 70
     0
  9
$HYPERLINKBASE
  1

  9
$STYLESHEET
  1

  9
$XEDIT
290
     1
  9
$CEPSNTYPE
380
     0
  9
$PSTYLEMODE
290
     1
  9
$FINGERPRINTGUID
  2

  9
$VERSIONGUID
  2

  9
$EXTNAMES
290
     1
  9
$PSVPSCALE
 40
0.0
  0
ENDSEC
  0
SECTION
  2
CLASSES
  0
CLASS
  1
LWPOLYLINE
  2
AcDbPolyline
  3
AutoCAD 2000
 90
        0
280
     0
281
     1
  0
CLASS
  1
IMAGE
  2
AcDbRasterImage
  3
ISM
 90
      127
280
     0
281
     1
  0
CLASS
  1
OLE2FRAME
  2
AcDbOle2Frame
  3
AutoCAD 2000
 90
        0
280
     0
281
     1
  0
CLASS
  1
HATCH
  2
AcDbHatch
  3
AutoCAD 2000
 90
        0
280
     0
281
     1
  0
CLASS
  1
DICTIONARYVAR
  2
AcDbDictionaryVar
  3
AutoCAD 2000
 90
        0
280
     0
281
     0
  0
CLASS
  1
RASTERVARIABLES
  2
AcDbRasterVariables
  3
ISM
 90
        0
280
     0
281
     0
  0
CLASS
  1
IMAGEDEF
  2
AcDbRasterImageDef
  3
ISM
 90
        0
280
     0
281
     0
  0
CLASS
  1
IMAGEDEF_REACTOR
  2
AcDbRasterImageDefReactor
  3
ISM
 90
        1
280
     0
281
     0
  0
CLASS
  1
IDBUFFER
  2
AcDbIdBuffer
  3
AutoCAD 2000
 90
        0
280
     0
281
     0
  0
CLASS
  1
SPATIAL_FILTER
  2
AcDbSpatialFilter
  3
AutoCAD 2000
 90
        0
280
     0
281
     0
  0
CLASS
  1
XRECORD
  2
AcDbXrecord
  3
AutoCAD 2000
 90
        0
280
     0
281
     0
  0
CLASS
  1
SORTENTSTABLE
  2
AcDbSortentsTable
  3
AutoCAD 2000
 90
        0
280
     0
281
     0
  0
CLASS
  1
LAYER_INDEX
  2
AcDbLayerIndex
  3
AutoCAD 2000
 90
        0
280
     0
281
     0
  0
CLASS
  1
SPATIAL_INDEX
  2
AcDbSpatialIndex
  3
AutoCAD 2000
 90
        0
280
     0
281
     0
  0
CLASS
  1
OBJECT_PTR
  2
CAseDLPNTableRecord
  3
"ASE-LPNTableRecord"
 90
        1
280
     0
281
     0
  0
CLASS
  1
LAYOUT
  2
AcDbLayout
  3
AutoCAD 2000
 90
        0
280
     0
281
     0
  0
CLASS
  1
PLOTSETTINGS
  2
AcDbPlotSettings
  3
AutoCAD 2000
 90
        0
280
     0
281
     0
  0
CLASS
  1
ACDBDICTIONARYWDFLT
  2
AcDbDictionaryWithDefault
  3
AutoCAD 2000
 90
        0
280
     0
281
     0
  0
CLASS
  1
ACDBPLACEHOLDER
  2
AcDbPlaceHolder
  3
AutoCAD 2000
 90
        0
280
     0
281
     0
  0
CLASS
  1
VBA_PROJECT
  2
AcDbVbaProject
  3
acadvba
 90
        0
280
     0
281
     0
  0
CLASS
  1
WIPEOUT
  2
AcDbWipeout
  3
WipeOut|AutoCAD Express Tool|expresstools@autodesk.com
 90
      127
280
     0
281
     1
  0
CLASS
  1
WIPEOUTVARIABLES
  2
AcDbWipeoutVariables
  3
WipeOut|AutoCAD Express Tool|expresstools@autodesk.com
 90
        0
280
     0
281
     0
  0
CLASS
  1
RTEXT
  2
RText
  3
RText|AutoCAD Express Tool|expresstools@autodesk.com
 90
        0
280
     0
281
     1
  0
CLASS
  1
ARCALIGNEDTEXT
  2
AcDbArcAlignedText
  3
ATEXT|AutoCAD Express Tool|expresstools@autodesk.com
 90
        0
280
     0
281
     1
  0
ENDSEC
  0
SECTION
  2
TABLES
  0
TABLE
  2
VPORT
  5
6
100
AcDbSymbolTable
 70
     1
  0
VPORT
  5
19
100
AcDbSymbolTableRecord
100
AcDbViewportTableRecord
  2
*ACTIVE
 70
     0
 10
0.0
 20
0.0
 11
1.0
 21
1.0
 12
0.0
 22
0.0
 13
0.0
 23
0.0
 14
1.0
 24
1.0
 15
0.0
 25
0.0
 16
0.0
 26
0.0
 36
1.0
 17
0.0
 27
0.0
 37
0.0
 40
1188.0
 41
1.415825
 42
50.0
 43
0.0
 44
0.0
 50
0.0
 51
0.0
 71
     0
 72
   500
 73
     1
 74
     1
 75
     0
 76
     0
 77
     0
 78
     0
281
     0
 65
     0
110
0.0
120
0.0
130
0.0
111
1.0
121
0.0
131
0.0
112
0.0
122
1.0
132
0.0
345
0
346
0
 79
     0
146
0.0
  0
ENDTAB
  0
TABLE
  2
LTYPE
  5
3
100
AcDbSymbolTable
 70
     9
  0
LTYPE
  5
C
100
AcDbSymbolTableRecord
100
AcDbLinetypeTableRecord
  2
ByBlock
 70
    64
  3

 72
    65
 73
     0
 40
0.0
  0
LTYPE
  5
D
100
AcDbSymbolTableRecord
100
AcDbLinetypeTableRecord
  2
ByLayer
 70
    64
  3

 72
    65
 73
     0
 40
0.0
  0
LTYPE
  5
E
100
AcDbSymbolTableRecord
100
AcDbLinetypeTableRecord
  2
CONTINUOUS
 70
     0
  3
Solid line
 72
    65
 73
     0
 40
0.0
  0
LTYPE
  5
F
100
AcDbSymbolTableRecord
100
AcDbLinetypeTableRecord
  2
DASHED
 70
     0
  3
__ __ __ __ __ __ __ __ __ __ __ __ __ __ __
 72
    65
 73
     2
 40
2.0
 49
1.2
 74
     0
 49
-0.8
 74
     0
  0
LTYPE
  5
10
100
AcDbSymbolTableRecord
100
AcDbLinetypeTableRecord
  2
CENTER
 70
     0
  3
____ _ ____ _ ____ _ ____ _ ____ _ ____ _ ____
 72
    65
 73
     4
 40
12.0
 49
9.0
 74
     0
 49
-1.0
 74
     0
 49
1.0
 74
     0
 49
-1.0
 74
     0
  0
LTYPE
  5
11
100
AcDbSymbolTableRecord
100
AcDbLinetypeTableRecord
  2
HIDDEN
 70
     0
  3
_ _ _ _ _ _ _ _ _ _ _ _ _ _ _ _ _ _ _ _ _ _ _
 72
    65
 73
     2
 40
3.2
 49
2.4
 74
     0
 49
-0.8
 74
     0
  0
LTYPE
  5
12
100
AcDbSymbolTableRecord
100
AcDbLinetypeTableRecord
  2
PHANTOM
 70
     0
  3
_____ _ _ _____ _ _ _____ _ _ _____ _ _ _____
 72
    65
 73
     6
 40
13.5
 49
9.0
 74
     0
 49
-1.0
 74
     0
 49
1.0
 74
     0
 49
-0.5
 74
     0
 49
1.0
 74
     0
 49
-1.0
 74
     0
  0
LTYPE
  5
13
100
AcDbSymbolTableRecord
100
AcDbLinetypeTableRecord
  2
DOT
 70
     0
  3
...............................................
 72
    65
 73
     2
 40
1.0
 49
0.5
 74
     0
 49
-0.5
 74
     0
  0
LTYPE
  5
14
100
AcDbSymbolTableRecord
100
AcDbLinetypeTableRecord
  2
DASHDOT
 70
     0
  3
__ . __ . __ . __ . __ . __ . __ . __ . __ . __
 72
    65
 73
     4
 40
8.0
 49
5.0
 74
     0
 49
-1.0
 74
     0
 49
1.0
 74
     0
 49
-1.0
 74
     0
  0
ENDTAB
  0
TABLE
  2
LAYER
  5
1
100
AcDbSymbolTable
 70
     4
  0
LAYER
  5
15
100
AcDbSymbolTableRecord
100
AcDbLayerTableRecord
  2
0
 70
     0
 62
     7
  6
CONTINUOUS
290
     1
370
    -3
390
0
  0
LAYER
  5
16
100
AcDbSymbolTableRecord
100
AcDbLayerTableRecord
  2
1
 70
     0
 62
     7
  6
CONTINUOUS
290
     1
370
    -3
390
0
  0
LAYER
  5
17
100
AcDbSymbolTableRecord
100
AcDbLayerTableRecord
  2
2
 70
     0
 62
     7
  6
CONTINUOUS
290
     1
370
    -3
390
0
  0
LAYER
  5
18
100
AcDbSymbolTableRecord
100
AcDbLayerTableRecord
  2
3
 70
     0
 62
     7
  6
CONTINUOUS
290
     1
370
    -3
390
0
  0
ENDTAB
  0
TABLE
  2
STYLE
  5
2
100
AcDbSymbolTable
 70
     1
  0
STYLE
  5
1B
100
AcDbSymbolTableRecord
100
AcDbTextStyleTableRecord
  2
STANDARD
 70
    64
 40
0.0
 41
1.0
 50
0.0
 71
     0
 42
1.0
  3
txt
  4
BIGFONT
  0
ENDTAB
  0
TABLE
  2
VIEW
  5
4
100
AcDbSymbolTable
 70
     0
  0
ENDTAB
  0
TABLE
  2
UCS
  5
5
100
AcDbSymbolTable
 70
     0
  0
ENDTAB
  0
TABLE
  2
APPID
  5
7
100
AcDbSymbolTable
 70
     1
  0
APPID
  5
1A
100
AcDbSymbolTableRecord
100
AcDbRegAppTableRecord
  2
ACAD
 70
     0
  0
ENDTAB
  0
TABLE
  2
DIMSTYLE
  5
8
100
AcDbSymbolTable
 70
     1
100
AcDbDimStyleTable
 71
     0
  0
DIMSTYLE
105
2E
100
AcDbSymbolTableRecord
100
AcDbDimStyleTableRecord
  2
Standard
 70
     0
  3

  4

 40
2.0
 41
2.0
 42
1.0
 43
0.38
 44
2.0
 45
0.0
 46
0.0
 47
0.0
 48
0.0
 71
     0
 72
     0
 73
     0
 74
     0
 75
     0
 76
     0
 77
     1
 78
     0
 79
     0
140
3.5
141
0.09
142
0.0
143
25.4
144
1.0
145
0.0
146
1.0
147
0.5
148
0.0
170
     0
171
     2
172
     0
173
     0
174
     0
175
     0
176
     0
177
     0
178
     0
179
     0
271
     3
272
     4
273
     2
274
     2
275
     0
276
     0
277
     2
278
    46
279
     0
280
     0
281
     0
282
     0
283
     1
284
     0
285
     0
286
     0
288
     0
289
     3
340
1B
341
0
342
0
343
0
344
0
371
    -2
372
    -2
  0
ENDTAB
  0
TABLE
  2
BLOCK_RECORD
  5
29
100
AcDbSymbolTable
 70
    11
  0
BLOCK_RECORD
  5
27
100
AcDbSymbolTableRecord
100
AcDbBlockTableRecord
  2
*Model_Space
340
0
  0
BLOCK_RECORD
  5
28
100
AcDbSymbolTableRecord
100
AcDbBlockTableRecord
  2
*Paper_Space
340
0
  0
BLOCK_RECORD
  5
1C
100
AcDbSymbolTableRecord
100
AcDbBlockTableRecord
  2
*D0
340
0
  0
BLOCK_RECORD
  5
1D
100
AcDbSymbolTableRecord
100
AcDbBlockTableRecord
  2
*D1
340
0
  0
BLOCK_RECORD
  5
1E
100
AcDbSymbolTableRecord
100
AcDbBlockTableRecord
  2
*D2
340
0
  0
BLOCK_RECORD
  5
1F
100
AcDbSymbolTableRecord
100
AcDbBlockTableRecord
  2
*D3
340
0
  0
BLOCK_RECORD
  5
20
100
AcDbSymbolTableRecord
100
AcDbBlockTableRecord
  2
*D4
340
0
  0
BLOCK_RECORD
  5
21
100
AcDbSymbolTableRecord
100
AcDbBlockTableRecord
  2
*D5
340
0
  0
BLOCK_RECORD
  5
22
100
AcDbSymbolTableRecord
100
AcDbBlockTableRecord
  2
*D6
340
0
  0
BLOCK_RECORD
  5
23
100
AcDbSymbolTableRecord
100
AcDbBlockTableRecord
  2
*D7
340
0
  0
BLOCK_RECORD
  5
24
100
AcDbSymbolTableRecord
100
AcDbBlockTableRecord
  2
*D8
340
0
  0
BLOCK_RECORD
  5
25
100
AcDbSymbolTableRecord
100
AcDbBlockTableRecord
  2
*D9
340
0
  0
BLOCK_RECORD
  5
26
100
AcDbSymbolTableRecord
100
AcDbBlockTableRecord
  2
*D10
340
0
  0
ENDTAB
  0
ENDSEC
  0
SECTION
  2
BLOCKS
  0
BLOCK
  5
2A
100
AcDbEntity
  8
0
390
0
100
AcDbBlockBegin
  2
*Model_Space
 70
     0
 10
0.0
 20
0.0
 30
0.0
  3
*Model_Space
  1

  0
ENDBLK
  5
2B
100
AcDbEntity
  8
0
390
0
100
AcDbBlockEnd
  0
BLOCK
  5
2C
100
AcDbEntity
 67
     1
  8
0
390
0
100
AcDbBlockBegin
  2
*Paper_Space
 70
     0
 10
0.0
 20
0.0
 30
0.0
  3
*Paper_Space
  1

  0
ENDBLK
  5
2D
100
AcDbEntity
 67
     1
  8
0
390
0
100
AcDbBlockEnd
  0
BLOCK
  5
1E2
100
AcDbEntity
  8
3
100
AcDbBlockBegin
  2
*D0
 70
     1
 10
0.0
 20
0.0
 30
0.0
  3
*D0
  1

  0
TEXT
  5
1E3
100
AcDbEntity
  8
3
370
    25
100
AcDbText
 10
-308.821533
 20
23.088563
 30
0.0
 40
7.0
  1
２９６
 50
90.0
 72
     5
 11
-308.821533
 21
42.688563
 31
0.0
100
AcDbText
  0
LINE
  5
1E4
100
AcDbEntity
  8
3
370
    25
100
AcDbLine
 10
-156.053877
 20
-114.361437
 30
0.0
 11
-309.821533
 21
-114.361437
 31
0.0
  0
LINE
  5
1E5
100
AcDbEntity
  8
3
370
    25
100
AcDbLine
 10
-307.821533
 20
-114.361437
 30
0.0
 11
-306.786257
 21
-110.497733
 31
0.0
  0
LINE
  5
1E6
100
AcDbEntity
  8
3
370
    25
100
AcDbLine
 10
-307.821533
 20
-114.361437
 30
0.0
 11
-308.856809
 21
-110.497733
 31
0.0
  0
LINE
  5
1E7
100
AcDbEntity
  8
3
370
    25
100
AcDbLine
 10
-306.786257
 20
-110.497733
 30
0.0
 11
-308.856809
 21
-110.497733
 31
0.0
  0
LINE
  5
1E8
100
AcDbEntity
  8
3
370
    25
100
AcDbLine
 10
-307.821533
 20
-114.361437
 30
0.0
 11
-307.821533
 21
181.538563
 31
0.0
  0
LINE
  5
1E9
100
AcDbEntity
  8
3
370
    25
100
AcDbLine
 10
-307.821533
 20
181.538563
 30
0.0
 11
-308.856809
 21
177.67486
 31
0.0
  0
LINE
  5
1EA
100
AcDbEntity
  8
3
370
    25
100
AcDbLine
 10
-307.821533
 20
181.538563
 30
0.0
 11
-306.786257
 21
177.67486
 31
0.0
  0
LINE
  5
1EB
100
AcDbEntity
  8
3
370
    25
100
AcDbLine
 10
-308.856809
 20
177.67486
 30
0.0
 11
-306.786257
 21
177.67486
 31
0.0
  0
LINE
  5
1EC
100
AcDbEntity
  8
3
370
    25
100
AcDbLine
 10
-211.0537
 20
181.538563
 30
0.0
 11
-309.821533
 21
181.538563
 31
0.0
  0
ENDBLK
  5
1ED
100
AcDbEntity
  8
3
100
AcDbBlockEnd
  0
BLOCK
  5
1EE
100
AcDbEntity
  8
3
100
AcDbBlockBegin
  2
*D1
 70
     1
 10
0.0
 20
0.0
 30
0.0
  3
*D1
  1

  0
TEXT
  5
1EF
100
AcDbEntity
  8
3
370
    25
100
AcDbText
 10
-241.748124
 20
192.763517
 30
0.0
 40
7.0
  1
２２゜
 50
79.0
 72
     5
 11
-238.008267
 21
212.00341
 31
0.0
100
AcDbText
  0
LINE
  5
1F0
100
AcDbEntity
  8
3
370
    25
100
AcDbLine
 10
-197.507315
 20
209.228672
 30
0.0
 11
-234.528099
 21
224.18604
 31
0.0
  0
LINE
  5
1F1
100
AcDbEntity
  8
3
370
    25
100
AcDbLine
 10
-211.0537
 20
181.538563
 30
0.0
 11
-242.817929
 21
181.538563
 31
0.0
  0
LINE
  5
1F2
100
AcDbEntity
  8
3
370
    25
100
AcDbLine
 10
-232.673731
 20
223.436827
 30
0.0
 11
-235.025455
 21
220.201182
 31
0.0
  0
LINE
  5
1F3
100
AcDbEntity
  8
3
370
    25
100
AcDbLine
 10
-232.673731
 20
223.436827
 30
0.0
 11
-233.092561
 21
219.458815
 31
0.0
  0
LINE
  5
1F4
100
AcDbEntity
  8
3
370
    25
100
AcDbLine
 10
-235.025455
 20
220.201182
 30
0.0
 11
-233.092561
 21
219.458815
 31
0.0
  0
LINE
  5
1F5
100
AcDbEntity
  8
3
370
    25
100
AcDbLine
 10
-240.817929
 20
181.538563
 30
0.0
 11
-239.716071
 21
185.383809
 31
0.0
  0
LINE
  5
1F6
100
AcDbEntity
  8
3
370
    25
100
AcDbLine
 10
-240.817929
 20
181.538563
 30
0.0
 11
-241.786315
 21
185.419572
 31
0.0
  0
LINE
  5
1F7
100
AcDbEntity
  8
3
370
    25
100
AcDbLine
 10
-239.716071
 20
185.383809
 30
0.0
 11
-241.786315
 21
185.419572
 31
0.0
  0
ARC
  5
1F8
100
AcDbEntity
  8
3
370
    25
100
AcDbCircle
 10
-128.97189
 20
181.538563
 30
0.0
 40
111.846038
100
AcDbArc
 50
158.0
 51
180.0
  0
ENDBLK
  5
1F9
100
AcDbEntity
  8
3
100
AcDbBlockEnd
  0
BLOCK
  5
1FA
100
AcDbEntity
  8
3
100
AcDbBlockBegin
  2
*D2
 70
     1
 10
0.0
 20
0.0
 30
0.0
  3
*D2
  1

  0
TEXT
  5
1FB
100
AcDbEntity
  8
3
370
    25
100
AcDbText
 10
-340.001862
 20
36.652663
 30
0.0
 40
7.0
  1
３２３
 50
90.0
 72
     5
 11
-340.001862
 21
56.252663
 31
0.0
100
AcDbText
  0
LINE
  5
1FC
100
AcDbEntity
  8
3
370
    25
100
AcDbLine
 10
-156.053877
 20
-114.361437
 30
0.0
 11
-341.001862
 21
-114.361437
 31
0.0
  0
LINE
  5
1FD
100
AcDbEntity
  8
3
370
    25
100
AcDbLine
 10
-339.001862
 20
-114.361437
 30
0.0
 11
-337.966585
 21
-110.497733
 31
0.0
  0
LINE
  5
1FE
100
AcDbEntity
  8
3
370
    25
100
AcDbLine
 10
-339.001862
 20
-114.361437
 30
0.0
 11
-340.037138
 21
-110.497733
 31
0.0
  0
LINE
  5
1FF
100
AcDbEntity
  8
3
370
    25
100
AcDbLine
 10
-337.966585
 20
-110.497733
 30
0.0
 11
-340.037138
 21
-110.497733
 31
0.0
  0
LINE
  5
200
100
AcDbEntity
  8
3
370
    25
100
AcDbLine
 10
-339.001862
 20
-114.361437
 30
0.0
 11
-339.001862
 21
208.666762
 31
0.0
  0
LINE
  5
201
100
AcDbEntity
  8
3
370
    25
100
AcDbLine
 10
-339.001862
 20
208.666762
 30
0.0
 11
-340.037138
 21
204.803059
 31
0.0
  0
LINE
  5
202
100
AcDbEntity
  8
3
370
    25
100
AcDbLine
 10
-339.001862
 20
208.666762
 30
0.0
 11
-337.966585
 21
204.803059
 31
0.0
  0
LINE
  5
203
100
AcDbEntity
  8
3
370
    25
100
AcDbLine
 10
-340.037138
 20
204.803059
 30
0.0
 11
-337.966585
 21
204.803059
 31
0.0
  0
LINE
  5
204
100
AcDbEntity
  8
3
370
    25
100
AcDbLine
 10
-198.116539
 20
208.666762
 30
0.0
 11
-341.001862
 21
208.666762
 31
0.0
  0
ENDBLK
  5
205
100
AcDbEntity
  8
3
100
AcDbBlockEnd
  0
BLOCK
  5
206
100
AcDbEntity
  8
3
100
AcDbBlockBegin
  2
*D3
 70
     1
 10
0.0
 20
0.0
 30
0.0
  3
*D3
  1

  0
TEXT
  5
207
100
AcDbEntity
  8
3
370
    25
100
AcDbText
 10
-271.939853
 20
75.32098
 30
0.0
 40
7.0
  1
２０゜
 50
350.0
 72
     5
 11
-252.637621
 21
71.917476
 31
0.0
100
AcDbText
  0
LINE
  5
208
100
AcDbEntity
  8
3
370
    25
100
AcDbLine
 10
-258.234505
 20
98.036903
 30
0.0
 11
-267.697462
 21
72.037642
 31
0.0
  0
LINE
  5
209
100
AcDbEntity
  8
3
370
    25
100
AcDbLine
 10
-256.368402
 20
99.53643
 30
0.0
 11
-256.368402
 21
70.040024
 31
0.0
  0
LINE
  5
20A
100
AcDbEntity
  8
3
370
    25
100
AcDbLine
 10
-267.013422
 20
73.917028
 30
0.0
 11
-263.600725
 21
71.830524
 31
0.0
  0
LINE
  5
20B
100
AcDbEntity
  8
3
370
    25
100
AcDbLine
 10
-267.013422
 20
73.917028
 30
0.0
 11
-263.014687
 21
73.816411
 31
0.0
  0
LINE
  5
20C
100
AcDbEntity
  8
3
370
    25
100
AcDbLine
 10
-263.600725
 20
71.830524
 30
0.0
 11
-263.014687
 21
73.816411
 31
0.0
  0
LINE
  5
20D
100
AcDbEntity
  8
3
370
    25
100
AcDbLine
 10
-256.368402
 20
72.040024
 30
0.0
 11
-260.160396
 21
73.313122
 31
0.0
  0
LINE
  5
20E
100
AcDbEntity
  8
3
370
    25
100
AcDbLine
 10
-256.368402
 20
72.040024
 30
0.0
 11
-260.288914
 21
71.246562
 31
0.0
  0
LINE
  5
20F
100
AcDbEntity
  8
3
370
    25
100
AcDbLine
 10
-260.160396
 20
73.313122
 30
0.0
 11
-260.288914
 21
71.246562
 31
0.0
  0
ARC
  5
210
100
AcDbEntity
  8
3
370
    25
100
AcDbCircle
 10
-256.368402
 20
103.163979
 30
0.0
 40
31.123956
100
AcDbArc
 50
250.0
 51
270.0
  0
ENDBLK
  5
211
100
AcDbEntity
  8
3
100
AcDbBlockEnd
  0
BLOCK
  5
212
100
AcDbEntity
  8
3
100
AcDbBlockBegin
  2
*D4
 70
     1
 10
0.0
 20
0.0
 30
0.0
  3
*D4
  1

  0
TEXT
  5
213
100
AcDbEntity
  8
3
370
    25
100
AcDbText
 10
-277.45462
 20
-16.098824
 30
0.0
 40
7.0
  1
２１８
 50
90.0
 72
     5
 11
-277.45462
 21
3.501176
 31
0.0
100
AcDbText
  0
LINE
  5
214
100
AcDbEntity
  8
3
370
    25
100
AcDbLine
 10
-156.053877
 20
-114.361437
 30
0.0
 11
-278.45462
 21
-114.361437
 31
0.0
  0
LINE
  5
215
100
AcDbEntity
  8
3
370
    25
100
AcDbLine
 10
-276.45462
 20
-114.361437
 30
0.0
 11
-275.419344
 21
-110.497733
 31
0.0
  0
LINE
  5
216
100
AcDbEntity
  8
3
370
    25
100
AcDbLine
 10
-276.45462
 20
-114.361437
 30
0.0
 11
-277.489897
 21
-110.497733
 31
0.0
  0
LINE
  5
217
100
AcDbEntity
  8
3
370
    25
100
AcDbLine
 10
-275.419344
 20
-110.497733
 30
0.0
 11
-277.489897
 21
-110.497733
 31
0.0
  0
LINE
  5
218
100
AcDbEntity
  8
3
370
    25
100
AcDbLine
 10
-276.45462
 20
-114.361437
 30
0.0
 11
-276.45462
 21
103.163789
 31
0.0
  0
LINE
  5
219
100
AcDbEntity
  8
3
370
    25
100
AcDbLine
 10
-276.45462
 20
103.163789
 30
0.0
 11
-277.489897
 21
99.300086
 31
0.0
  0
LINE
  5
21A
100
AcDbEntity
  8
3
370
    25
100
AcDbLine
 10
-276.45462
 20
103.163789
 30
0.0
 11
-275.419344
 21
99.300086
 31
0.0
  0
LINE
  5
21B
100
AcDbEntity
  8
3
370
    25
100
AcDbLine
 10
-277.489897
 20
99.300086
 30
0.0
 11
-275.419344
 21
99.300086
 31
0.0
  0
LINE
  5
21C
100
AcDbEntity
  8
3
370
    25
100
AcDbLine
 10
-258.368471
 20
103.163789
 30
0.0
 11
-278.45462
 21
103.163789
 31
0.0
  0
ENDBLK
  5
21D
100
AcDbEntity
  8
3
100
AcDbBlockEnd
  0
BLOCK
  5
21E
100
AcDbEntity
  8
3
100
AcDbBlockBegin
  2
*D5
 70
     1
 10
0.0
 20
0.0
 30
0.0
  3
*D5
  1

  0
TEXT
  5
21F
100
AcDbEntity
  8
3
370
    25
100
AcDbText
 10
-127.258436
 20
210.758682
 30
0.0
 40
7.0
  1
２６
 72
     5
 11
-114.658436
 21
210.758682
 31
0.0
100
AcDbText
  0
LINE
  5
220
100
AcDbEntity
  8
3
370
    25
100
AcDbLine
 10
-133.053877
 20
198.832687
 30
0.0
 11
-133.053877
 21
211.758682
 31
0.0
  0
LINE
  5
221
100
AcDbEntity
  8
3
370
    25
100
AcDbLine
 10
-133.053877
 20
209.758682
 30
0.0
 11
-129.190174
 21
208.723406
 31
0.0
  0
LINE
  5
222
100
AcDbEntity
  8
3
370
    25
100
AcDbLine
 10
-133.053877
 20
209.758682
 30
0.0
 11
-129.190174
 21
210.793958
 31
0.0
  0
LINE
  5
223
100
AcDbEntity
  8
3
370
    25
100
AcDbLine
 10
-129.190174
 20
208.723406
 30
0.0
 11
-129.190174
 21
210.793958
 31
0.0
  0
LINE
  5
224
100
AcDbEntity
  8
3
370
    25
100
AcDbLine
 10
-133.053877
 20
209.758682
 30
0.0
 11
-107.462995
 21
209.758682
 31
0.0
  0
LINE
  5
225
100
AcDbEntity
  8
3
370
    25
100
AcDbLine
 10
-107.462995
 20
209.758682
 30
0.0
 11
-111.326698
 21
210.793958
 31
0.0
  0
LINE
  5
226
100
AcDbEntity
  8
3
370
    25
100
AcDbLine
 10
-107.462995
 20
209.758682
 30
0.0
 11
-111.326698
 21
208.723406
 31
0.0
  0
LINE
  5
227
100
AcDbEntity
  8
3
370
    25
100
AcDbLine
 10
-111.326698
 20
210.793958
 30
0.0
 11
-111.326698
 21
208.723406
 31
0.0
  0
LINE
  5
228
100
AcDbEntity
  8
3
370
    25
100
AcDbLine
 10
-107.462995
 20
179.162544
 30
0.0
 11
-107.462995
 21
211.758682
 31
0.0
  0
ENDBLK
  5
229
100
AcDbEntity
  8
3
100
AcDbBlockEnd
  0
BLOCK
  5
22A
100
AcDbEntity
  8
3
100
AcDbBlockBegin
  2
*D6
 70
     1
 10
0.0
 20
0.0
 30
0.0
  3
*D6
  1

  0
TEXT
  5
22B
100
AcDbEntity
  8
3
370
    25
100
AcDbText
 10
-205.211174
 20
-155.290115
 30
0.0
 40
7.0
  1
１２３
 72
     5
 11
-185.611174
 21
-155.290115
 31
0.0
100
AcDbText
  0
LINE
  5
22C
100
AcDbEntity
  8
3
370
    25
100
AcDbLine
 10
-256.368471
 20
101.163789
 30
0.0
 11
-256.368471
 21
-158.290115
 31
0.0
  0
LINE
  5
22D
100
AcDbEntity
  8
3
370
    25
100
AcDbLine
 10
-256.368471
 20
-156.290115
 30
0.0
 11
-252.504768
 21
-157.325392
 31
0.0
  0
LINE
  5
22E
100
AcDbEntity
  8
3
370
    25
100
AcDbLine
 10
-256.368471
 20
-156.290115
 30
0.0
 11
-252.504768
 21
-155.254839
 31
0.0
  0
LINE
  5
22F
100
AcDbEntity
  8
3
370
    25
100
AcDbLine
 10
-252.504768
 20
-157.325392
 30
0.0
 11
-252.504768
 21
-155.254839
 31
0.0
  0
LINE
  5
230
100
AcDbEntity
  8
3
370
    25
100
AcDbLine
 10
-256.368471
 20
-156.290115
 30
0.0
 11
-133.053877
 21
-156.290115
 31
0.0
  0
LINE
  5
231
100
AcDbEntity
  8
3
370
    25
100
AcDbLine
 10
-133.053877
 20
-156.290115
 30
0.0
 11
-136.91758
 21
-155.254839
 31
0.0
  0
LINE
  5
232
100
AcDbEntity
  8
3
370
    25
100
AcDbLine
 10
-133.053877
 20
-156.290115
 30
0.0
 11
-136.91758
 21
-157.325392
 31
0.0
  0
LINE
  5
233
100
AcDbEntity
  8
3
370
    25
100
AcDbLine
 10
-136.91758
 20
-155.254839
 30
0.0
 11
-136.91758
 21
-157.325392
 31
0.0
  0
LINE
  5
234
100
AcDbEntity
  8
3
370
    25
100
AcDbLine
 10
-133.053877
 20
-171.07946
 30
0.0
 11
-133.053877
 21
-154.290115
 31
0.0
  0
ENDBLK
  5
235
100
AcDbEntity
  8
3
100
AcDbBlockEnd
  0
BLOCK
  5
236
100
AcDbEntity
  8
3
100
AcDbBlockBegin
  2
*D7
 70
     1
 10
0.0
 20
0.0
 30
0.0
  3
*D7
  1

  0
LINE
  5
237
100
AcDbEntity
  8
3
370
    25
100
AcDbLine
 10
-113.553877
 20
-129.361437
 30
0.0
 11
-50.159908
 21
-129.361437
 31
0.0
  0
LINE
  5
238
100
AcDbEntity
  8
3
370
    25
100
AcDbLine
 10
-52.159908
 20
-129.361437
 30
0.0
 11
-53.195184
 21
-133.22514
 31
0.0
  0
LINE
  5
239
100
AcDbEntity
  8
3
370
    25
100
AcDbLine
 10
-52.159908
 20
-129.361437
 30
0.0
 11
-51.124632
 21
-133.22514
 31
0.0
  0
LINE
  5
23A
100
AcDbEntity
  8
3
370
    25
100
AcDbLine
 10
-53.195184
 20
-133.22514
 30
0.0
 11
-51.124632
 21
-133.22514
 31
0.0
  0
LINE
  5
23B
100
AcDbEntity
  8
3
370
    25
100
AcDbLine
 10
-52.159908
 20
-139.361437
 30
0.0
 11
-52.159908
 21
-31.361437
 31
0.0
  0
LINE
  5
23C
100
AcDbEntity
  8
3
370
    25
100
AcDbLine
 10
-52.159908
 20
-116.361437
 30
0.0
 11
-51.124632
 21
-112.497733
 31
0.0
  0
LINE
  5
23D
100
AcDbEntity
  8
3
370
    25
100
AcDbLine
 10
-52.159908
 20
-116.361437
 30
0.0
 11
-53.195184
 21
-112.497733
 31
0.0
  0
LINE
  5
23E
100
AcDbEntity
  8
3
370
    25
100
AcDbLine
 10
-51.124632
 20
-112.497733
 30
0.0
 11
-53.195184
 21
-112.497733
 31
0.0
  0
LINE
  5
23F
100
AcDbEntity
  8
3
370
    25
100
AcDbLine
 10
-111.553877
 20
-116.361437
 30
0.0
 11
-50.159908
 21
-116.361437
 31
0.0
  0
ENDBLK
  5
240
100
AcDbEntity
  8
3
100
AcDbBlockEnd
  0
BLOCK
  5
241
100
AcDbEntity
  8
3
100
AcDbBlockBegin
  2
*D8
 70
     1
 10
0.0
 20
0.0
 30
0.0
  3
*D8
  1

  0
TEXT
  5
242
100
AcDbEntity
  8
3
370
    25
100
AcDbText
 10
-183.553877
 20
-55.521969
 30
0.0
 40
7.0
  1
φ４３
 72
     5
 11
-163.953877
 21
-55.521969
 31
0.0
100
AcDbText
  0
LINE
  5
243
100
AcDbEntity
  8
3
370
    25
100
AcDbLine
 10
-154.553877
 20
-107.361437
 30
0.0
 11
-154.553877
 21
-54.521969
 31
0.0
  0
LINE
  5
244
100
AcDbEntity
  8
3
370
    25
100
AcDbLine
 10
-154.553877
 20
-56.521969
 30
0.0
 11
-158.41758
 21
-55.486693
 31
0.0
  0
LINE
  5
245
100
AcDbEntity
  8
3
370
    25
100
AcDbLine
 10
-154.553877
 20
-56.521969
 30
0.0
 11
-158.41758
 21
-57.557245
 31
0.0
  0
LINE
  5
246
100
AcDbEntity
  8
3
370
    25
100
AcDbLine
 10
-158.41758
 20
-55.486693
 30
0.0
 11
-158.41758
 21
-57.557245
 31
0.0
  0
LINE
  5
247
100
AcDbEntity
  8
3
370
    25
100
AcDbLine
 10
-183.553877
 20
-56.521969
 30
0.0
 11
-101.553877
 21
-56.521969
 31
0.0
  0
LINE
  5
248
100
AcDbEntity
  8
3
370
    25
100
AcDbLine
 10
-111.553877
 20
-56.521969
 30
0.0
 11
-107.690174
 21
-57.557245
 31
0.0
  0
LINE
  5
249
100
AcDbEntity
  8
3
370
    25
100
AcDbLine
 10
-111.553877
 20
-56.521969
 30
0.0
 11
-107.690174
 21
-55.486693
 31
0.0
  0
LINE
  5
24A
100
AcDbEntity
  8
3
370
    25
100
AcDbLine
 10
-107.690174
 20
-57.557245
 30
0.0
 11
-107.690174
 21
-55.486693
 31
0.0
  0
LINE
  5
24B
100
AcDbEntity
  8
3
370
    25
100
AcDbLine
 10
-111.553877
 20
-107.361437
 30
0.0
 11
-111.553877
 21
-54.521969
 31
0.0
  0
ENDBLK
  5
24C
100
AcDbEntity
  8
3
100
AcDbBlockEnd
  0
BLOCK
  5
24D
100
AcDbEntity
  8
3
100
AcDbBlockBegin
  2
*D9
 70
     1
 10
0.0
 20
0.0
 30
0.0
  3
*D9
  1

  0
TEXT
  5
24E
100
AcDbEntity
  8
3
370
    25
100
AcDbText
 10
-203.35997
 20
79.638563
 30
0.0
 40
7.0
  1
φ２１
 50
90.0
 72
     5
 11
-203.35997
 21
99.238563
 31
0.0
100
AcDbText
  0
LINE
  5
24F
100
AcDbEntity
  8
3
370
    25
100
AcDbLine
 10
-202.35997
 20
108.638563
 30
0.0
 11
-203.395246
 21
104.77486
 31
0.0
  0
LINE
  5
250
100
AcDbEntity
  8
3
370
    25
100
AcDbLine
 10
-202.35997
 20
108.638563
 30
0.0
 11
-201.324694
 21
104.77486
 31
0.0
  0
LINE
  5
251
100
AcDbEntity
  8
3
370
    25
100
AcDbLine
 10
-203.395246
 20
104.77486
 30
0.0
 11
-201.324694
 21
104.77486
 31
0.0
  0
LINE
  5
252
100
AcDbEntity
  8
3
370
    25
100
AcDbLine
 10
-202.35997
 20
79.638563
 30
0.0
 11
-202.35997
 21
139.638563
 31
0.0
  0
LINE
  5
253
100
AcDbEntity
  8
3
370
    25
100
AcDbLine
 10
-202.35997
 20
129.638563
 30
0.0
 11
-201.324694
 21
133.502267
 31
0.0
  0
LINE
  5
254
100
AcDbEntity
  8
3
370
    25
100
AcDbLine
 10
-202.35997
 20
129.638563
 30
0.0
 11
-203.395246
 21
133.502267
 31
0.0
  0
LINE
  5
255
100
AcDbEntity
  8
3
370
    25
100
AcDbLine
 10
-201.324694
 20
133.502267
 30
0.0
 11
-203.395246
 21
133.502267
 31
0.0
  0
ENDBLK
  5
256
100
AcDbEntity
  8
3
100
AcDbBlockEnd
  0
BLOCK
  5
257
100
AcDbEntity
  8
3
100
AcDbBlockBegin
  2
*D10
 70
     1
 10
0.0
 20
0.0
 30
0.0
  3
*D10
  1

  0
TEXT
  5
258
100
AcDbEntity
  8
3
370
    25
100
AcDbText
 10
-107.553877
 20
142.89624
 30
0.0
 40
7.0
  1
φ３５
 72
     5
 11
-87.953877
 21
142.89624
 31
0.0
100
AcDbText
  0
LINE
  5
259
100
AcDbEntity
  8
3
370
    25
100
AcDbLine
 10
-150.553877
 20
141.89624
 30
0.0
 11
-154.41758
 21
142.931516
 31
0.0
  0
LINE
  5
25A
100
AcDbEntity
  8
3
370
    25
100
AcDbLine
 10
-150.553877
 20
141.89624
 30
0.0
 11
-154.41758
 21
140.860964
 31
0.0
  0
LINE
  5
25B
100
AcDbEntity
  8
3
370
    25
100
AcDbLine
 10
-154.41758
 20
142.931516
 30
0.0
 11
-154.41758
 21
140.860964
 31
0.0
  0
LINE
  5
25C
100
AcDbEntity
  8
3
370
    25
100
AcDbLine
 10
-160.553877
 20
141.89624
 30
0.0
 11
-86.553877
 21
141.89624
 31
0.0
  0
LINE
  5
25D
100
AcDbEntity
  8
3
370
    25
100
AcDbLine
 10
-115.553877
 20
141.89624
 30
0.0
 11
-111.690174
 21
140.860964
 31
0.0
  0
LINE
  5
25E
100
AcDbEntity
  8
3
370
    25
100
AcDbLine
 10
-115.553877
 20
141.89624
 30
0.0
 11
-111.690174
 21
142.931516
 31
0.0
  0
LINE
  5
25F
100
AcDbEntity
  8
3
370
    25
100
AcDbLine
 10
-111.690174
 20
140.860964
 30
0.0
 11
-111.690174
 21
142.931516
 31
0.0
  0
ENDBLK
  5
260
100
AcDbEntity
  8
3
100
AcDbBlockEnd
  0
ENDSEC
  0
SECTION
  2
ENTITIES
  0
LINE
  5
2F
100
AcDbEntity
  8
1
370
   100
100
AcDbLine
 10
-373.02157
 20
275.028767
 30
0.0
 11
394.982385
 21
275.028767
 31
0.0
  0
LINE
  5
30
100
AcDbEntity
  8
1
370
   100
100
AcDbLine
 10
-373.02157
 20
275.028767
 30
0.0
 11
-373.02157
 21
-277.971881
 31
0.0
  0
LINE
  5
31
100
AcDbEntity
  8
1
370
   100
100
AcDbLine
 10
-373.02157
 20
-277.971881
 30
0.0
 11
394.982385
 21
-277.971881
 31
0.0
  0
LINE
  5
32
100
AcDbEntity
  8
1
370
   100
100
AcDbLine
 10
394.982385
 20
-277.971881
 30
0.0
 11
394.982385
 21
275.028767
 31
0.0
  0
TEXT
  5
33
100
AcDbEntity
  8
1
370
    50
100
AcDbText
 10
359.628442
 20
-226.252857
 30
0.0
 40
6.0
  1
設計
 72
     5
 11
370.428442
 21
-226.252857
 31
0.0
100
AcDbText
  0
TEXT
  5
34
100
AcDbEntity
  8
1
370
    50
100
AcDbText
 10
379.127478
 20
-226.099658
 30
0.0
 40
6.0
  1
製図
 72
     5
 11
389.927478
 21
-226.099658
 31
0.0
100
AcDbText
  0
TEXT
  5
35
100
AcDbEntity
  8
1
370
    50
100
AcDbText
 10
319.005745
 20
-226.252857
 30
0.0
 40
6.0
  1
承認
 72
     5
 11
329.805745
 21
-226.252857
 31
0.0
100
AcDbText
  0
TEXT
  5
36
100
AcDbEntity
  8
1
370
    50
100
AcDbText
 10
338.989679
 20
-226.19802
 30
0.0
 40
6.0
  1
検図
 72
     5
 11
349.789679
 21
-226.19802
 31
0.0
100
AcDbText
  0
LINE
  5
37
100
AcDbEntity
  8
1
370
    25
100
AcDbLine
 10
284.982385
 20
-227.971881
 30
0.0
 11
394.982385
 21
-227.971881
 31
0.0
  0
LINE
  5
38
100
AcDbEntity
  8
1
370
    25
100
AcDbLine
 10
342.482385
 20
-245.971881
 30
0.0
 11
342.482385
 21
-259.971881
 31
0.0
  0
TEXT
  5
39
100
AcDbEntity
  8
1
370
    50
100
AcDbText
 10
319.55159
 20
-256.012528
 30
0.0
 40
6.0
  1
日　付
 72
     5
 11
336.35159
 21
-256.012528
 31
0.0
100
AcDbText
  0
LINE
  5
3A
100
AcDbEntity
  8
1
370
    50
100
AcDbLine
 10
40.982385
 20
-259.971881
 30
0.0
 11
394.982385
 21
-259.971881
 31
0.0
  0
TEXT
  5
3B
100
AcDbEntity
  8
1
370
    50
100
AcDbText
 10
287.775011
 20
-256.322406
 30
0.0
 40
6.0
  1
第三角法
 72
     5
 11
310.575011
 21
-256.322406
 31
0.0
100
AcDbText
  0
TEXT
  5
3C
100
AcDbEntity
  8
1
370
    50
100
AcDbText
 10
291.087419
 20
-225.99802
 30
0.0
 40
6.0
  1
尺　度
 72
     5
 11
307.887419
 21
-225.99802
 31
0.0
100
AcDbText
  0
LINE
  5
3D
100
AcDbEntity
  8
1
370
   100
100
AcDbLine
 10
40.982385
 20
-217.971881
 30
0.0
 11
394.982385
 21
-217.971881
 31
0.0
  0
LINE
  5
3E
100
AcDbEntity
  8
1
370
    50
100
AcDbLine
 10
211.982385
 20
-217.971881
 30
0.0
 11
211.982385
 21
-277.971881
 31
0.0
  0
LINE
  5
3F
100
AcDbEntity
  8
1
370
    25
100
AcDbLine
 10
374.982385
 20
-245.971881
 30
0.0
 11
374.982385
 21
-217.971881
 31
0.0
  0
LINE
  5
40
100
AcDbEntity
  8
1
370
    25
100
AcDbLine
 10
354.982385
 20
-245.971881
 30
0.0
 11
354.982385
 21
-217.971881
 31
0.0
  0
LINE
  5
41
100
AcDbEntity
  8
1
370
    25
100
AcDbLine
 10
334.982385
 20
-245.971881
 30
0.0
 11
334.982385
 21
-217.971881
 31
0.0
  0
LINE
  5
42
100
AcDbEntity
  8
1
370
    50
100
AcDbLine
 10
284.982385
 20
-277.971881
 30
0.0
 11
284.982385
 21
-217.971881
 31
0.0
  0
LINE
  5
43
100
AcDbEntity
  8
1
370
    50
100
AcDbLine
 10
189.982385
 20
-217.971881
 30
0.0
 11
189.982385
 21
-277.971881
 31
0.0
  0
LINE
  5
44
100
AcDbEntity
  8
1
370
    50
100
AcDbLine
 10
62.982385
 20
-217.971881
 30
0.0
 11
62.982385
 21
-259.971881
 31
0.0
  0
LINE
  5
45
100
AcDbEntity
  8
1
370
    50
100
AcDbLine
 10
284.982385
 20
-245.971881
 30
0.0
 11
394.982385
 21
-245.971881
 31
0.0
  0
TEXT
  5
46
100
AcDbEntity
  8
1
370
    50
100
AcDbText
 10
287.101129
 20
-271.880939
 30
0.0
 40
6.0
  1
コードＮｏ
 41
0.9
 72
     5
 11
313.021129
 21
-271.880939
 31
0.0
100
AcDbText
  0
TEXT
  5
47
100
AcDbEntity
  8
1
370
   100
100
AcDbText
 10
52.886774
 20
-272.875659
 30
0.0
 40
8.0
  1
ミズタニバルブ工業株式会社
 41
1.2
 72
     5
 11
175.766774
 21
-272.875659
 31
0.0
100
AcDbText
  0
LINE
  5
48
100
AcDbEntity
  8
1
370
    50
100
AcDbLine
 10
40.982385
 20
-238.971881
 30
0.0
 11
284.982385
 21
-238.971881
 31
0.0
  0
LINE
  5
49
100
AcDbEntity
  8
1
370
    50
100
AcDbLine
 10
115.482385
 20
-238.971881
 30
0.0
 11
115.482385
 21
-259.971881
 31
0.0
  0
LINE
  5
4A
100
AcDbEntity
  8
1
370
    50
100
AcDbLine
 10
137.482385
 20
-238.971881
 30
0.0
 11
137.482385
 21
-259.971881
 31
0.0
  0
LINE
  5
4B
100
AcDbEntity
  8
1
370
    50
100
AcDbLine
 10
314.982385
 20
-277.971881
 30
0.0
 11
314.982385
 21
-217.971881
 31
0.0
  0
TEXT
  5
4C
100
AcDbEntity
  8
1
370
    50
100
AcDbText
 10
345.098131
 20
-256.100293
 30
0.0
 40
6.0
  1
　　・　　・
 72
     5
 11
379.898131
 21
-256.100293
 31
0.0
100
AcDbText
  0
LINE
  5
4D
100
AcDbEntity
  8
1
370
   100
100
AcDbLine
 10
40.982385
 20
-217.971881
 30
0.0
 11
40.982385
 21
-277.971881
 31
0.0
  0
TEXT
  5
4E
100
AcDbEntity
  8
1
370
    50
100
AcDbText
 10
290.832582
 20
-240.013492
 30
0.0
 40
6.0
  1
　／ 
 72
     5
 11
301.632582
 21
-240.013492
 31
0.0
100
AcDbText
  0
TEXT
  5
4F
100
AcDbEntity
  8
1
370
    50
100
AcDbText
 10
193.904123
 20
-272.024909
 30
0.0
 40
6.0
  1
備 考 
 72
     5
 11
207.704123
 21
-272.024909
 31
0.0
100
AcDbText
  0
TEXT
  5
50
100
AcDbEntity
  8
1
370
    50
100
AcDbText
 10
193.512534
 20
-230.89184
 30
0.0
 40
6.0
  1
仕 上
 72
     5
 11
207.312534
 21
-230.89184
 31
0.0
100
AcDbText
  0
TEXT
  5
51
100
AcDbEntity
  8
1
370
    50
100
AcDbText
 10
193.447176
 20
-248.891666
 30
0.0
 40
6.0
  1
表 面
 72
     5
 11
207.247176
 21
-248.891666
 31
0.0
100
AcDbText
  0
TEXT
  5
52
100
AcDbEntity
  8
1
370
    50
100
AcDbText
 10
193.447176
 20
-255.891666
 30
0.0
 40
6.0
  1
処 理
 72
     5
 11
207.247176
 21
-255.891666
 31
0.0
100
AcDbText
  0
TEXT
  5
53
100
AcDbEntity
  8
1
370
    50
100
AcDbText
 10
44.79335
 20
-231.693399
 30
0.0
 40
6.0
  1
品 名
 72
     5
 11
58.59335
 21
-231.693399
 31
0.0
100
AcDbText
  0
TEXT
  5
54
100
AcDbEntity
  8
1
370
    50
100
AcDbText
 10
44.397766
 20
-252.462534
 30
0.0
 40
6.0
  1
材 質
 72
     5
 11
58.197766
 21
-252.462534
 31
0.0
100
AcDbText
  0
TEXT
  5
55
100
AcDbEntity
  8
1
370
    50
100
AcDbText
 10
118.897766
 20
-252.462534
 30
0.0
 40
6.0
  1
規 格
 72
     5
 11
132.697766
 21
-252.462534
 31
0.0
100
AcDbText
  0
LINE
  5
56
100
AcDbEntity
  8
2
370
    50
100
AcDbLine
 10
-116.053877
 20
159.138563
 30
0.0
 11
-150.053877
 21
159.138563
 31
0.0
  0
LINE
  5
57
100
AcDbEntity
  8
2
370
    50
100
AcDbLine
 10
-115.553877
 20
158.638563
 30
0.0
 11
-115.553877
 21
49.438563
 31
0.0
  0
LINE
  5
58
100
AcDbEntity
  8
2
370
    50
100
AcDbLine
 10
-115.553877
 20
158.638563
 30
0.0
 11
-116.053877
 21
159.138563
 31
0.0
  0
LINE
  5
59
100
AcDbEntity
  8
2
370
    50
100
AcDbLine
 10
-150.053877
 20
159.138563
 30
0.0
 11
-150.553877
 21
158.638563
 31
0.0
  0
LINE
  5
5A
100
AcDbEntity
  8
2
370
    50
100
AcDbLine
 10
-150.553877
 20
49.438563
 30
0.0
 11
-150.253877
 21
49.138563
 31
0.0
  0
LINE
  5
5B
100
AcDbEntity
  8
2
370
    50
100
AcDbLine
 10
-115.553877
 20
49.438563
 30
0.0
 11
-115.853877
 21
49.138563
 31
0.0
  0
LINE
  5
5C
100
AcDbEntity
  8
2
370
    50
100
AcDbLine
 10
-150.553877
 20
49.438563
 30
0.0
 11
-150.553877
 21
108.638563
 31
0.0
  0
LINE
  5
5D
100
AcDbEntity
  8
2
370
    50
100
AcDbLine
 10
-150.553877
 20
129.638563
 30
0.0
 11
-150.553877
 21
158.638563
 31
0.0
  0
LINE
  5
5E
100
AcDbEntity
  8
2
370
    50
100
AcDbLine
 10
-150.553877
 20
129.638563
 30
0.0
 11
-202.885415
 21
129.638563
 31
0.0
  0
LINE
  5
5F
100
AcDbEntity
  8
2
370
    50
100
AcDbLine
 10
-133.053877
 20
160.038563
 30
0.0
 11
-150.553877
 21
160.038563
 31
0.0
  0
LINE
  5
60
100
AcDbEntity
  8
2
370
    50
100
AcDbLine
 10
-116.553877
 20
185.538563
 30
0.0
 11
-149.553877
 21
185.538563
 31
0.0
  0
LINE
  5
61
100
AcDbEntity
  8
2
370
    50
100
AcDbLine
 10
-133.053877
 20
160.038563
 30
0.0
 11
-115.553877
 21
167.109022
 31
0.0
  0
LINE
  5
62
100
AcDbEntity
  8
2
370
    50
100
AcDbLine
 10
-150.553877
 20
160.038563
 30
0.0
 11
-150.553877
 21
173.338563
 31
0.0
  0
ARC
  5
63
100
AcDbEntity
  8
2
370
    50
100
AcDbCircle
 10
-116.553877
 20
184.538563
 30
0.0
 40
1.0
100
AcDbArc
 50
0.0
 51
90.0
  0
ARC
  5
64
100
AcDbEntity
  8
2
370
    50
100
AcDbCircle
 10
-149.553877
 20
184.538563
 30
0.0
 40
1.0
100
AcDbArc
 50
90.0
 51
180.0
  0
LINE
  5
65
100
AcDbEntity
  8
2
370
    50
100
AcDbLine
 10
-150.553877
 20
184.538563
 30
0.0
 11
-150.553877
 21
181.738563
 31
0.0
  0
ARC
  5
66
100
AcDbEntity
  8
2
370
    50
100
AcDbCircle
 10
-167.542402
 20
177.538563
 30
0.0
 40
17.5
100
AcDbArc
 50
346.11346
 51
360.0
  0
ARC
  5
67
100
AcDbEntity
  8
2
370
    50
100
AcDbCircle
 10
-167.542402
 20
177.538563
 30
0.0
 40
17.5
100
AcDbArc
 50
0.0
 51
13.88654
  0
ARC
  5
68
100
AcDbEntity
  8
2
370
    50
100
AcDbCircle
 10
-121.48208
 20
177.538563
 30
0.0
 40
8.0
100
AcDbArc
 50
0.0
 51
30.0
  0
LINE
  5
69
100
AcDbEntity
  8
2
370
    50
100
AcDbLine
 10
-114.553877
 20
181.538563
 30
0.0
 11
-115.553877
 21
181.538563
 31
0.0
  0
LINE
  5
6A
100
AcDbEntity
  8
2
370
    50
100
AcDbLine
 10
-115.553877
 20
180.788563
 30
0.0
 11
-115.553877
 21
181.538563
 31
0.0
  0
ARC
  5
6B
100
AcDbEntity
  8
2
370
    50
100
AcDbCircle
 10
-121.48208
 20
177.538563
 30
0.0
 40
8.0
100
AcDbArc
 50
330.0
 51
360.0
  0
LINE
  5
6C
100
AcDbEntity
  8
2
370
    50
100
AcDbLine
 10
-114.553877
 20
173.538563
 30
0.0
 11
-115.553877
 21
173.538563
 31
0.0
  0
LINE
  5
6D
100
AcDbEntity
  8
2
370
    50
100
AcDbLine
 10
-115.553877
 20
174.288563
 30
0.0
 11
-115.553877
 21
173.538563
 31
0.0
  0
LINE
  5
6E
100
AcDbEntity
  8
2
370
    50
100
AcDbLine
 10
-115.553877
 20
167.109022
 30
0.0
 11
-115.553877
 21
177.538563
 31
0.0
  0
LINE
  5
6F
100
AcDbEntity
  8
2
370
    50
100
AcDbLine
 10
-115.553877
 20
177.538563
 30
0.0
 11
-115.553877
 21
184.538563
 31
0.0
  0
LINE
  5
70
100
AcDbEntity
  8
2
370
    50
100
AcDbLine
 10
-209.0537
 20
173.538563
 30
0.0
 11
-150.505677
 21
173.538563
 31
0.0
  0
LINE
  5
71
100
AcDbEntity
  8
2
370
    50
100
AcDbLine
 10
-209.0537
 20
181.538563
 30
0.0
 11
-150.505677
 21
181.538563
 31
0.0
  0
LINE
  5
72
100
AcDbEntity
  8
2
370
    50
100
AcDbLine
 10
-209.5537
 20
174.038563
 30
0.0
 11
-209.5537
 21
181.038563
 31
0.0
  0
LINE
  5
73
100
AcDbEntity
  8
2
370
    50
100
AcDbLine
 10
-209.0537
 20
181.538563
 30
0.0
 11
-209.5537
 21
181.038563
 31
0.0
  0
LINE
  5
74
100
AcDbEntity
  8
2
370
    50
100
AcDbLine
 10
-209.5537
 20
174.038563
 30
0.0
 11
-209.0537
 21
173.538563
 31
0.0
  0
LINE
  5
75
100
AcDbEntity
  8
2
370
    25
100
AcDbLine
 10
-114.553877
 20
181.538563
 30
0.0
 11
-114.553877
 21
173.538563
 31
0.0
  0
POINT
  5
76
100
AcDbEntity
  8
2
370
    50
100
AcDbPoint
 10
-133.053877
 20
160.738563
 30
0.0
  0
LINE
  5
77
100
AcDbEntity
  8
2
370
    25
100
AcDbLine
 10
-115.553877
 20
158.638563
 30
0.0
 11
-150.553877
 21
158.638563
 31
0.0
  0
LINE
  5
78
100
AcDbEntity
  8
2
370
    25
100
AcDbLine
 10
-150.553877
 20
49.438563
 30
0.0
 11
-115.553877
 21
49.438563
 31
0.0
  0
LINE
  5
79
100
AcDbEntity
  8
2
370
    50
100
AcDbLine
 10
30.432024
 20
159.575578
 30
0.0
 11
47.432024
 21
159.575578
 31
0.0
  0
LINE
  5
7A
100
AcDbEntity
  8
2
370
    50
100
AcDbLine
 10
30.432024
 20
159.575578
 30
0.0
 11
13.432024
 21
159.575578
 31
0.0
  0
LINE
  5
7B
100
AcDbEntity
  8
2
370
    50
100
AcDbLine
 10
12.932024
 20
159.075578
 30
0.0
 11
12.932024
 21
49.875578
 31
0.0
  0
LINE
  5
7C
100
AcDbEntity
  8
2
370
    50
100
AcDbLine
 10
12.932024
 20
159.075578
 30
0.0
 11
13.432024
 21
159.575578
 31
0.0
  0
LINE
  5
7D
100
AcDbEntity
  8
2
370
    50
100
AcDbLine
 10
47.432024
 20
159.575578
 30
0.0
 11
47.932024
 21
159.075578
 31
0.0
  0
LINE
  5
7E
100
AcDbEntity
  8
2
370
    50
100
AcDbLine
 10
47.932024
 20
49.875578
 30
0.0
 11
47.632024
 21
49.575578
 31
0.0
  0
LINE
  5
7F
100
AcDbEntity
  8
2
370
    50
100
AcDbLine
 10
12.932024
 20
49.875578
 30
0.0
 11
13.232024
 21
49.575578
 31
0.0
  0
LINE
  5
80
100
AcDbEntity
  8
2
370
    50
100
AcDbLine
 10
47.932024
 20
49.875578
 30
0.0
 11
47.932024
 21
109.075578
 31
0.0
  0
LINE
  5
81
100
AcDbEntity
  8
2
370
    50
100
AcDbLine
 10
47.932024
 20
130.075578
 30
0.0
 11
47.932024
 21
159.075578
 31
0.0
  0
LINE
  5
82
100
AcDbEntity
  8
2
370
    50
100
AcDbLine
 10
30.432024
 20
160.475578
 30
0.0
 11
47.932024
 21
160.475578
 31
0.0
  0
LINE
  5
83
100
AcDbEntity
  8
2
370
    50
100
AcDbLine
 10
13.932024
 20
185.975578
 30
0.0
 11
46.932024
 21
185.975578
 31
0.0
  0
LINE
  5
84
100
AcDbEntity
  8
2
370
    50
100
AcDbLine
 10
30.432024
 20
160.475578
 30
0.0
 11
12.932024
 21
167.546037
 31
0.0
  0
LINE
  5
85
100
AcDbEntity
  8
2
370
    50
100
AcDbLine
 10
47.932024
 20
160.475578
 30
0.0
 11
47.932024
 21
173.775578
 31
0.0
  0
ARC
  5
86
100
AcDbEntity
  8
2
370
    50
100
AcDbCircle
 10
13.932024
 20
184.975578
 30
0.0
 40
1.0
100
AcDbArc
 50
90.0
 51
180.0
  0
ARC
  5
87
100
AcDbEntity
  8
2
370
    50
100
AcDbCircle
 10
46.932024
 20
184.975578
 30
0.0
 40
1.0
100
AcDbArc
 50
0.0
 51
90.0
  0
LINE
  5
88
100
AcDbEntity
  8
2
370
    50
100
AcDbLine
 10
47.932024
 20
184.975578
 30
0.0
 11
47.932024
 21
182.175578
 31
0.0
  0
ARC
  5
89
100
AcDbEntity
  8
2
370
    50
100
AcDbCircle
 10
64.92055
 20
177.975578
 30
0.0
 40
17.5
100
AcDbArc
 50
180.0
 51
193.88654
  0
ARC
  5
8A
100
AcDbEntity
  8
2
370
    50
100
AcDbCircle
 10
64.92055
 20
177.975578
 30
0.0
 40
17.5
100
AcDbArc
 50
166.11346
 51
180.0
  0
ARC
  5
8B
100
AcDbEntity
  8
2
370
    50
100
AcDbCircle
 10
18.860227
 20
177.975578
 30
0.0
 40
8.0
100
AcDbArc
 50
150.0
 51
180.0
  0
LINE
  5
8C
100
AcDbEntity
  8
2
370
    50
100
AcDbLine
 10
11.932024
 20
181.975578
 30
0.0
 11
12.932024
 21
181.975578
 31
0.0
  0
LINE
  5
8D
100
AcDbEntity
  8
2
370
    50
100
AcDbLine
 10
12.932024
 20
181.225578
 30
0.0
 11
12.932024
 21
181.975578
 31
0.0
  0
ARC
  5
8E
100
AcDbEntity
  8
2
370
    50
100
AcDbCircle
 10
18.860227
 20
177.975578
 30
0.0
 40
8.0
100
AcDbArc
 50
180.0
 51
210.0
  0
LINE
  5
8F
100
AcDbEntity
  8
2
370
    50
100
AcDbLine
 10
11.932024
 20
173.975578
 30
0.0
 11
12.932024
 21
173.975578
 31
0.0
  0
LINE
  5
90
100
AcDbEntity
  8
2
370
    50
100
AcDbLine
 10
12.932024
 20
174.725578
 30
0.0
 11
12.932024
 21
173.975578
 31
0.0
  0
LINE
  5
91
100
AcDbEntity
  8
2
370
    50
100
AcDbLine
 10
12.932024
 20
167.546037
 30
0.0
 11
12.932024
 21
177.975578
 31
0.0
  0
LINE
  5
92
100
AcDbEntity
  8
2
370
    50
100
AcDbLine
 10
12.932024
 20
177.975578
 30
0.0
 11
12.932024
 21
184.975578
 31
0.0
  0
LINE
  5
93
100
AcDbEntity
  8
2
370
    50
100
AcDbLine
 10
106.431847
 20
173.975578
 30
0.0
 11
47.883825
 21
173.975578
 31
0.0
  0
LINE
  5
94
100
AcDbEntity
  8
2
370
    50
100
AcDbLine
 10
106.431847
 20
181.975578
 30
0.0
 11
47.883825
 21
181.975578
 31
0.0
  0
LINE
  5
95
100
AcDbEntity
  8
2
370
    50
100
AcDbLine
 10
106.931847
 20
174.475578
 30
0.0
 11
106.931847
 21
181.475578
 31
0.0
  0
LINE
  5
96
100
AcDbEntity
  8
2
370
    50
100
AcDbLine
 10
106.431847
 20
181.975578
 30
0.0
 11
106.931847
 21
181.475578
 31
0.0
  0
LINE
  5
97
100
AcDbEntity
  8
2
370
    50
100
AcDbLine
 10
106.931847
 20
174.475578
 30
0.0
 11
106.431847
 21
173.975578
 31
0.0
  0
LINE
  5
98
100
AcDbEntity
  8
2
370
    25
100
AcDbLine
 10
11.932024
 20
181.975578
 30
0.0
 11
11.932024
 21
173.975578
 31
0.0
  0
LINE
  5
99
100
AcDbEntity
  8
2
370
    25
100
AcDbLine
 10
12.932024
 20
159.075578
 30
0.0
 11
47.932024
 21
159.075578
 31
0.0
  0
LINE
  5
9A
100
AcDbEntity
  8
2
370
    25
100
AcDbLine
 10
47.932024
 20
49.875578
 30
0.0
 11
12.932024
 21
49.875578
 31
0.0
  0
LINE
  5
9B
100
AcDbEntity
  8
2
370
    25
100
AcDbLine
 10
-209.0537
 20
181.538563
 30
0.0
 11
-209.0537
 21
173.538563
 31
0.0
  0
LINE
  5
9C
100
AcDbEntity
  8
2
370
    25
  6
DASHED
100
AcDbLine
 10
-198.6498
 20
201.061988
 30
0.0
 11
-153.931874
 21
182.994773
 31
0.0
  0
LINE
  5
9D
100
AcDbEntity
  8
2
370
    25
  6
DASHED
100
AcDbLine
 10
-195.652947
 20
208.479459
 30
0.0
 11
-144.477172
 21
187.803104
 31
0.0
  0
LINE
  5
9E
100
AcDbEntity
  8
2
370
    25
  6
DASHED
100
AcDbLine
 10
-198.926089
 20
201.712883
 30
0.0
 11
-196.303842
 21
208.20317
 31
0.0
  0
LINE
  5
9F
100
AcDbEntity
  8
2
370
    25
  6
DASHED
100
AcDbLine
 10
-195.652947
 20
208.479459
 30
0.0
 11
-196.303842
 21
208.20317
 31
0.0
  0
LINE
  5
A0
100
AcDbEntity
  8
2
370
    25
  6
DASHED
100
AcDbLine
 10
-198.926089
 20
201.712883
 30
0.0
 11
-198.6498
 21
201.061988
 31
0.0
  0
LINE
  5
A1
100
AcDbEntity
  8
2
370
    25
  6
DASHED
100
AcDbLine
 10
-195.652947
 20
208.479459
 30
0.0
 11
-198.6498
 21
201.061988
 31
0.0
  0
LINE
  5
A2
100
AcDbEntity
  8
2
370
    25
  6
DASHED
100
AcDbLine
 10
-108.390178
 20
177.537151
 30
0.0
 11
-111.640779
 21
178.850479
 31
0.0
  0
LINE
  5
A3
100
AcDbEntity
  8
2
370
    25
  6
DASHED
100
AcDbLine
 10
-116.888529
 20
160.038563
 30
0.0
 11
-114.381532
 21
160.038563
 31
0.0
  0
ARC
  5
A4
100
AcDbEntity
  8
2
370
    25
  6
DASHED
100
AcDbCircle
 10
-108.764785
 20
176.609967
 30
0.0
 40
1.0
100
AcDbArc
 50
338.0
 51
68.0
  0
ARC
  5
A5
100
AcDbEntity
  8
2
370
    25
  6
DASHED
100
AcDbCircle
 10
-115.956382
 20
171.965818
 30
0.0
 40
8.0
100
AcDbArc
 50
338.0
 51
8.0
  0
LINE
  5
A6
100
AcDbEntity
  8
2
370
    25
  6
DASHED
100
AcDbLine
 10
-108.034237
 20
173.079202
 30
0.0
 11
-108.961421
 21
173.453809
 31
0.0
  0
LINE
  5
A7
100
AcDbEntity
  8
2
370
    25
  6
DASHED
100
AcDbLine
 10
-109.242376
 20
172.758421
 30
0.0
 11
-108.961421
 21
173.453809
 31
0.0
  0
ARC
  5
A8
100
AcDbEntity
  8
2
370
    25
  6
DASHED
100
AcDbCircle
 10
-115.956382
 20
171.965818
 30
0.0
 40
8.0
100
AcDbArc
 50
308.0
 51
338.0
  0
LINE
  5
A9
100
AcDbEntity
  8
2
370
    25
  6
DASHED
100
AcDbLine
 10
-111.03109
 20
165.661732
 30
0.0
 11
-111.958274
 21
166.036338
 31
0.0
  0
LINE
  5
AA
100
AcDbEntity
  8
2
370
    25
  6
DASHED
100
AcDbLine
 10
-111.677319
 20
166.731726
 30
0.0
 11
-111.958274
 21
166.036338
 31
0.0
  0
LINE
  5
AB
100
AcDbEntity
  8
2
370
    25
  6
DASHED
100
AcDbLine
 10
-114.381532
 20
160.038563
 30
0.0
 11
-110.459847
 21
169.745074
 31
0.0
  0
LINE
  5
AC
100
AcDbEntity
  8
2
370
    25
  6
DASHED
100
AcDbLine
 10
-110.459847
 20
169.745074
 30
0.0
 11
-107.837601
 21
176.235361
 31
0.0
  0
LINE
  5
AD
100
AcDbEntity
  8
2
370
    25
  6
DASHED
100
AcDbLine
 10
-108.034237
 20
173.079202
 30
0.0
 11
-111.03109
 21
165.661732
 31
0.0
  0
ARC
  5
AE
100
AcDbEntity
  8
2
370
    50
100
AcDbCircle
 10
-91.552821
 20
158.879826
 30
0.0
 40
56.0
100
AcDbArc
 50
178.814366
 51
179.735275
  0
ARC
  5
AF
100
AcDbEntity
  8
2
370
    50
100
AcDbCircle
 10
-174.554933
 20
158.879826
 30
0.0
 40
56.0
100
AcDbArc
 50
0.264725
 51
7.022942
  0
ARC
  5
B0
100
AcDbEntity
  8
2
370
    50
100
AcDbCircle
 10
71.93308
 20
159.316841
 30
0.0
 40
56.0
100
AcDbArc
 50
172.977058
 51
179.735275
  0
ARC
  5
B1
100
AcDbEntity
  8
2
370
    50
100
AcDbCircle
 10
-11.069032
 20
159.316841
 30
0.0
 40
56.0
100
AcDbArc
 50
0.264725
 51
1.185634
  0
LINE
  5
B2
100
AcDbEntity
  8
2
370
    50
100
AcDbLine
 10
163.432024
 20
130.075578
 30
0.0
 11
47.932024
 21
130.075578
 31
0.0
  0
LINE
  5
B3
100
AcDbEntity
  8
2
370
    50
100
AcDbLine
 10
163.932024
 20
129.575578
 30
0.0
 11
163.932024
 21
109.575578
 31
0.0
  0
LINE
  5
B4
100
AcDbEntity
  8
2
370
    50
100
AcDbLine
 10
163.432024
 20
130.075578
 30
0.0
 11
163.932024
 21
129.575578
 31
0.0
  0
LINE
  5
B5
100
AcDbEntity
  8
2
370
    50
100
AcDbLine
 10
163.932024
 20
109.575578
 30
0.0
 11
163.432024
 21
109.075578
 31
0.0
  0
LINE
  5
B6
100
AcDbEntity
  8
2
370
    50
100
AcDbLine
 10
163.432024
 20
109.075578
 30
0.0
 11
161.597608
 21
109.075578
 31
0.0
  0
LINE
  5
B7
100
AcDbEntity
  8
2
370
    50
100
AcDbLine
 10
141.910319
 20
109.075578
 30
0.0
 11
47.932024
 21
109.075578
 31
0.0
  0
LINE
  5
B8
100
AcDbEntity
  8
2
370
    50
100
AcDbLine
 10
145.336369
 20
100.539724
 30
0.0
 11
153.746549
 21
103.600779
 31
0.0
  0
LINE
  5
B9
100
AcDbEntity
  8
2
370
    50
100
AcDbLine
 10
162.156867
 20
106.661884
 30
0.0
 11
153.747351
 21
103.60107
 31
0.0
  0
LINE
  5
BA
100
AcDbEntity
  8
2
370
    50
100
AcDbLine
 10
141.910319
 20
109.075578
 30
0.0
 11
144.951855
 21
100.719025
 31
0.0
  0
LINE
  5
BB
100
AcDbEntity
  8
2
370
    50
100
AcDbLine
 10
161.597608
 20
109.075578
 30
0.0
 11
162.336169
 21
107.046398
 31
0.0
  0
LINE
  5
BC
100
AcDbEntity
  8
2
370
    50
100
AcDbLine
 10
144.951855
 20
100.719025
 30
0.0
 11
145.336369
 21
100.539724
 31
0.0
  0
LINE
  5
BD
100
AcDbEntity
  8
2
370
    50
100
AcDbLine
 10
162.156867
 20
106.661884
 30
0.0
 11
162.336169
 21
107.046398
 31
0.0
  0
ARC
  5
BE
100
AcDbEntity
  8
2
370
    25
100
AcDbCircle
 10
61.932024
 20
119.575578
 30
0.0
 40
17.5
100
AcDbArc
 50
147.181108
 51
212.29933
  0
LINE
  5
BF
100
AcDbEntity
  8
2
370
    50
100
AcDbLine
 10
163.432024
 20
130.075578
 30
0.0
 11
163.432024
 21
109.075578
 31
0.0
  0
POINT
  5
C0
100
AcDbEntity
  8
2
370
    50
100
AcDbPoint
 10
151.523487
 20
109.708806
 30
0.0
  0
ARC
  5
C1
100
AcDbEntity
  8
2
370
    25
100
AcDbCircle
 10
149.740844
 20
106.222451
 30
0.0
 40
8.384128
100
AcDbArc
 50
90.0
 51
151.997723
  0
ARC
  5
C2
100
AcDbEntity
  8
2
370
    25
100
AcDbCircle
 10
149.740844
 20
99.13245
 30
0.0
 40
15.474128
100
AcDbArc
 50
45.451578
 51
90.0
  0
LINE
  5
C3
100
AcDbEntity
  8
2
370
    50
100
AcDbLine
 10
162.336169
 20
107.046398
 30
0.0
 11
144.951855
 21
100.719025
 31
0.0
  0
LINE
  5
C4
100
AcDbEntity
  8
2
370
    50
100
AcDbLine
 10
-266.053877
 20
129.638563
 30
0.0
 11
-150.553877
 21
129.638563
 31
0.0
  0
LINE
  5
C5
100
AcDbEntity
  8
2
370
    50
100
AcDbLine
 10
-266.553877
 20
129.138563
 30
0.0
 11
-266.553877
 21
109.138563
 31
0.0
  0
LINE
  5
C6
100
AcDbEntity
  8
2
370
    50
100
AcDbLine
 10
-266.053877
 20
129.638563
 30
0.0
 11
-266.553877
 21
129.138563
 31
0.0
  0
LINE
  5
C7
100
AcDbEntity
  8
2
370
    50
100
AcDbLine
 10
-266.553877
 20
109.138563
 30
0.0
 11
-266.053877
 21
108.638563
 31
0.0
  0
LINE
  5
C8
100
AcDbEntity
  8
2
370
    50
100
AcDbLine
 10
-266.053877
 20
108.638563
 30
0.0
 11
-264.219461
 21
108.638563
 31
0.0
  0
LINE
  5
C9
100
AcDbEntity
  8
2
370
    50
100
AcDbLine
 10
-244.532172
 20
108.638563
 30
0.0
 11
-150.553877
 21
108.638563
 31
0.0
  0
LINE
  5
CA
100
AcDbEntity
  8
2
370
    50
100
AcDbLine
 10
-247.958222
 20
100.102709
 30
0.0
 11
-256.368402
 21
103.163764
 31
0.0
  0
LINE
  5
CB
100
AcDbEntity
  8
2
370
    50
100
AcDbLine
 10
-264.77872
 20
106.224869
 30
0.0
 11
-256.369204
 21
103.164055
 31
0.0
  0
LINE
  5
CC
100
AcDbEntity
  8
2
370
    50
100
AcDbLine
 10
-244.532172
 20
108.638563
 30
0.0
 11
-247.573708
 21
100.28201
 31
0.0
  0
LINE
  5
CD
100
AcDbEntity
  8
2
370
    50
100
AcDbLine
 10
-264.219461
 20
108.638563
 30
0.0
 11
-264.958022
 21
106.609383
 31
0.0
  0
LINE
  5
CE
100
AcDbEntity
  8
2
370
    50
100
AcDbLine
 10
-247.573708
 20
100.28201
 30
0.0
 11
-247.958222
 21
100.102709
 31
0.0
  0
LINE
  5
CF
100
AcDbEntity
  8
2
370
    50
100
AcDbLine
 10
-264.77872
 20
106.224869
 30
0.0
 11
-264.958022
 21
106.609383
 31
0.0
  0
ARC
  5
D0
100
AcDbEntity
  8
2
370
    25
100
AcDbCircle
 10
-164.553877
 20
119.138563
 30
0.0
 40
17.5
100
AcDbArc
 50
327.181108
 51
32.29933
  0
LINE
  5
D1
100
AcDbEntity
  8
2
370
    50
100
AcDbLine
 10
-266.053877
 20
129.638563
 30
0.0
 11
-266.053877
 21
108.638563
 31
0.0
  0
ARC
  5
D2
100
AcDbEntity
  8
2
370
    25
100
AcDbCircle
 10
-252.362697
 20
105.785436
 30
0.0
 40
8.384128
100
AcDbArc
 50
27.774954
 51
90.0
  0
ARC
  5
D3
100
AcDbEntity
  8
2
370
    25
100
AcDbCircle
 10
-252.362697
 20
98.695435
 30
0.0
 40
15.474128
100
AcDbArc
 50
90.0
 51
136.713424
  0
LINE
  5
D4
100
AcDbEntity
  8
2
370
    50
100
AcDbLine
 10
-264.958022
 20
106.609383
 30
0.0
 11
-247.573708
 21
100.28201
 31
0.0
  0
POINT
  5
D5
100
AcDbEntity
  8
2
370
    50
100
AcDbPoint
 10
-133.053877
 20
49.138563
 30
0.0
  0
POINT
  5
D6
100
AcDbEntity
  8
2
370
    50
100
AcDbPoint
 10
30.432024
 20
49.575578
 30
0.0
  0
LINE
  5
D7
100
AcDbEntity
  8
2
370
    50
100
AcDbLine
 10
12.932024
 20
-130.424422
 30
0.0
 11
12.932024
 21
-128.924422
 31
0.0
  0
LINE
  5
D8
100
AcDbEntity
  8
2
370
    50
100
AcDbLine
 10
30.432024
 20
-130.424422
 30
0.0
 11
12.932024
 21
-130.424422
 31
0.0
  0
LINE
  5
D9
100
AcDbEntity
  8
2
370
    25
100
AcDbLine
 10
21.182024
 20
-158.924422
 30
0.0
 11
21.182024
 21
-139.124422
 31
0.0
  0
LINE
  5
DA
100
AcDbEntity
  8
2
370
    25
100
AcDbLine
 10
21.182024
 20
-128.924422
 30
0.0
 11
21.182024
 21
-115.92403
 31
0.0
  0
LINE
  5
DB
100
AcDbEntity
  8
2
370
    50
100
AcDbLine
 10
20.182024
 20
-128.924422
 30
0.0
 11
20.182024
 21
-115.92403
 31
0.0
  0
LINE
  5
DC
100
AcDbEntity
  8
2
370
    50
100
AcDbLine
 10
18.432024
 20
-139.124422
 30
0.0
 11
30.432024
 21
-139.124422
 31
0.0
  0
LINE
  5
DD
100
AcDbEntity
  8
2
370
    50
100
AcDbLine
 10
16.682024
 20
-138.114059
 30
0.0
 11
16.682024
 21
-132.624422
 31
0.0
  0
LINE
  5
DE
100
AcDbEntity
  8
2
370
    50
100
AcDbLine
 10
18.432024
 20
-139.124422
 30
0.0
 11
16.682024
 21
-138.114059
 31
0.0
  0
LINE
  5
DF
100
AcDbEntity
  8
2
370
    50
100
AcDbLine
 10
10.432024
 20
-132.124422
 30
0.0
 11
10.432024
 21
-130.924422
 31
0.0
  0
LINE
  5
E0
100
AcDbEntity
  8
2
370
    50
100
AcDbLine
 10
30.432024
 20
-132.624422
 30
0.0
 11
16.111473
 21
-132.624422
 31
0.0
  0
LINE
  5
E1
100
AcDbEntity
  8
2
370
    50
100
AcDbLine
 10
10.432024
 20
-130.924422
 30
0.0
 11
30.432024
 21
-130.924422
 31
0.0
  0
LINE
  5
E2
100
AcDbEntity
  8
2
370
    50
100
AcDbLine
 10
10.432024
 20
-132.124422
 30
0.0
 11
30.432024
 21
-132.124422
 31
0.0
  0
ARC
  5
E3
100
AcDbEntity
  8
2
370
    50
100
AcDbCircle
 10
16.111473
 20
-127.624422
 30
0.0
 40
5.0
100
AcDbArc
 50
246.443536
 51
270.0
  0
ARC
  5
E4
100
AcDbEntity
  8
2
370
    50
100
AcDbCircle
 10
16.111473
 20
-135.424422
 30
0.0
 40
5.0
100
AcDbArc
 50
90.0
 51
113.556464
  0
ARC
  5
E5
100
AcDbEntity
  8
2
370
    50
100
AcDbCircle
 10
13.713558
 20
-133.124422
 30
0.0
 40
1.0
100
AcDbArc
 50
66.443536
 51
90.0
  0
ARC
  5
E6
100
AcDbEntity
  8
2
370
    50
100
AcDbCircle
 10
13.713558
 20
-129.924422
 30
0.0
 40
1.0
100
AcDbArc
 50
270.0
 51
293.556464
  0
LINE
  5
E7
100
AcDbEntity
  8
2
370
    50
100
AcDbLine
 10
23.432024
 20
-138.114059
 30
0.0
 11
23.432024
 21
-132.624422
 31
0.0
  0
ARC
  5
E8
100
AcDbEntity
  8
2
370
    50
100
AcDbCircle
 10
30.432024
 20
-114.370529
 30
0.0
 40
24.753893
100
AcDbArc
 50
253.573579
 51
270.0
  0
ARC
  5
E9
100
AcDbEntity
  8
2
370
    50
100
AcDbCircle
 10
20.057024
 20
-132.982343
 30
0.0
 40
6.142079
100
AcDbArc
 50
236.668091
 51
303.331909
  0
ARC
  5
EA
100
AcDbEntity
  8
2
370
    50
100
AcDbCircle
 10
30.432024
 20
-116.374422
 30
0.0
 40
16.25
100
AcDbArc
 50
255.749967
 51
270.0
  0
ARC
  5
EB
100
AcDbEntity
  8
2
370
    50
100
AcDbCircle
 10
22.182024
 20
-116.374422
 30
0.0
 40
16.25
100
AcDbArc
 50
255.749967
 51
277.069714
  0
ARC
  5
EC
100
AcDbEntity
  8
2
370
    50
100
AcDbCircle
 10
26.182024
 20
-116.374422
 30
0.0
 40
16.25
100
AcDbArc
 50
255.749967
 51
277.514045
  0
ARC
  5
ED
100
AcDbEntity
  8
2
370
    50
100
AcDbCircle
 10
18.182024
 20
-116.374422
 30
0.0
 40
16.25
100
AcDbArc
 50
270.0
 51
277.069714
  0
ARC
  5
EE
100
AcDbEntity
  8
2
370
    50
100
AcDbCircle
 10
30.432024
 20
-146.674422
 30
0.0
 40
16.25
100
AcDbArc
 50
90.0
 51
104.250033
  0
ARC
  5
EF
100
AcDbEntity
  8
2
370
    50
100
AcDbCircle
 10
26.182024
 20
-146.674422
 30
0.0
 40
16.25
100
AcDbArc
 50
82.485955
 51
104.250033
  0
ARC
  5
F0
100
AcDbEntity
  8
2
370
    50
100
AcDbCircle
 10
22.182024
 20
-146.674422
 30
0.0
 40
16.25
100
AcDbArc
 50
82.930286
 51
104.250033
  0
ARC
  5
F1
100
AcDbEntity
  8
2
370
    50
100
AcDbCircle
 10
18.182024
 20
-146.674422
 30
0.0
 40
16.25
100
AcDbArc
 50
82.930286
 51
90.0
  0
LINE
  5
F2
100
AcDbEntity
  8
2
370
    50
100
AcDbLine
 10
18.932024
 20
-170.924422
 30
0.0
 11
30.432024
 21
-170.924422
 31
0.0
  0
ARC
  5
F3
100
AcDbEntity
  8
2
370
    50
100
AcDbCircle
 10
32.707024
 20
-164.924422
 30
0.0
 40
15.025
100
AcDbArc
 50
156.463422
 51
203.536578
  0
LINE
  5
F4
100
AcDbEntity
  8
2
370
    50
100
AcDbLine
 10
18.932024
 20
-158.924422
 30
0.0
 11
30.432024
 21
-158.924422
 31
0.0
  0
ELLIPSE
  5
F5
100
AcDbEntity
  8
2
370
    50
100
AcDbEllipse
 10
20.472732
 20
-164.924422
 30
0.0
 11
0.0
 21
6.0
 31
0.0
210
0.0
220
0.0
230
1.0
 40
0.458833
 41
0.0
 42
6.2831849999999996
  0
ELLIPSE
  5
F6
100
AcDbEntity
  8
2
370
    50
100
AcDbEllipse
 10
30.432024
 20
-164.924422
 30
0.0
 11
0.0
 21
6.0
 31
0.0
210
0.0
220
0.0
230
1.0
 40
0.926667
 41
0.0
 42
6.2831849999999996
  0
LINE
  5
F7
100
AcDbEntity
  8
2
370
    50
100
AcDbLine
 10
20.182024
 20
-158.924422
 30
0.0
 11
20.182024
 21
-139.124422
 31
0.0
  0
LINE
  5
F8
100
AcDbEntity
  8
2
370
    50
100
AcDbLine
 10
47.932024
 20
-130.424422
 30
0.0
 11
47.932024
 21
-128.924422
 31
0.0
  0
LINE
  5
F9
100
AcDbEntity
  8
2
370
    50
100
AcDbLine
 10
30.432024
 20
-130.424422
 30
0.0
 11
47.932024
 21
-130.424422
 31
0.0
  0
LINE
  5
FA
100
AcDbEntity
  8
2
370
    25
100
AcDbLine
 10
39.682024
 20
-158.924422
 30
0.0
 11
39.682024
 21
-139.124422
 31
0.0
  0
LINE
  5
FB
100
AcDbEntity
  8
2
370
    25
100
AcDbLine
 10
39.682024
 20
-128.924422
 30
0.0
 11
39.682024
 21
-115.92403
 31
0.0
  0
LINE
  5
FC
100
AcDbEntity
  8
2
370
    50
100
AcDbLine
 10
40.682024
 20
-128.924422
 30
0.0
 11
40.682024
 21
-115.92403
 31
0.0
  0
LINE
  5
FD
100
AcDbEntity
  8
2
370
    50
100
AcDbLine
 10
42.432024
 20
-139.124422
 30
0.0
 11
30.432024
 21
-139.124422
 31
0.0
  0
LINE
  5
FE
100
AcDbEntity
  8
2
370
    50
100
AcDbLine
 10
44.182024
 20
-138.114059
 30
0.0
 11
44.182024
 21
-132.624422
 31
0.0
  0
LINE
  5
FF
100
AcDbEntity
  8
2
370
    50
100
AcDbLine
 10
42.432024
 20
-139.124422
 30
0.0
 11
44.182024
 21
-138.114059
 31
0.0
  0
LINE
  5
100
100
AcDbEntity
  8
2
370
    50
100
AcDbLine
 10
50.432024
 20
-132.124422
 30
0.0
 11
50.432024
 21
-130.924422
 31
0.0
  0
LINE
  5
101
100
AcDbEntity
  8
2
370
    50
100
AcDbLine
 10
30.432024
 20
-132.624422
 30
0.0
 11
44.752575
 21
-132.624422
 31
0.0
  0
LINE
  5
102
100
AcDbEntity
  8
2
370
    50
100
AcDbLine
 10
50.432024
 20
-130.924422
 30
0.0
 11
30.432024
 21
-130.924422
 31
0.0
  0
LINE
  5
103
100
AcDbEntity
  8
2
370
    50
100
AcDbLine
 10
50.432024
 20
-132.124422
 30
0.0
 11
30.432024
 21
-132.124422
 31
0.0
  0
ARC
  5
104
100
AcDbEntity
  8
2
370
    50
100
AcDbCircle
 10
44.752575
 20
-127.624422
 30
0.0
 40
5.0
100
AcDbArc
 50
270.0
 51
293.556464
  0
ARC
  5
105
100
AcDbEntity
  8
2
370
    50
100
AcDbCircle
 10
44.752575
 20
-135.424422
 30
0.0
 40
5.0
100
AcDbArc
 50
66.443536
 51
90.0
  0
ARC
  5
106
100
AcDbEntity
  8
2
370
    50
100
AcDbCircle
 10
47.15049
 20
-133.124422
 30
0.0
 40
1.0
100
AcDbArc
 50
90.0
 51
113.556464
  0
ARC
  5
107
100
AcDbEntity
  8
2
370
    50
100
AcDbCircle
 10
47.15049
 20
-129.924422
 30
0.0
 40
1.0
100
AcDbArc
 50
246.443536
 51
270.0
  0
LINE
  5
108
100
AcDbEntity
  8
2
370
    50
100
AcDbLine
 10
37.432024
 20
-138.114059
 30
0.0
 11
37.432024
 21
-132.624422
 31
0.0
  0
ARC
  5
109
100
AcDbEntity
  8
2
370
    50
100
AcDbCircle
 10
30.432024
 20
-114.370529
 30
0.0
 40
24.753893
100
AcDbArc
 50
270.0
 51
286.426421
  0
ARC
  5
10A
100
AcDbEntity
  8
2
370
    50
100
AcDbCircle
 10
40.807024
 20
-132.982343
 30
0.0
 40
6.142079
100
AcDbArc
 50
236.668091
 51
303.331909
  0
ARC
  5
10B
100
AcDbEntity
  8
2
370
    50
100
AcDbCircle
 10
30.432024
 20
-116.374422
 30
0.0
 40
16.25
100
AcDbArc
 50
270.0
 51
284.250033
  0
ARC
  5
10C
100
AcDbEntity
  8
2
370
    50
100
AcDbCircle
 10
38.682024
 20
-116.374422
 30
0.0
 40
16.25
100
AcDbArc
 50
262.930286
 51
284.250033
  0
ARC
  5
10D
100
AcDbEntity
  8
2
370
    50
100
AcDbCircle
 10
34.682024
 20
-116.374422
 30
0.0
 40
16.25
100
AcDbArc
 50
262.485955
 51
284.250033
  0
ARC
  5
10E
100
AcDbEntity
  8
2
370
    50
100
AcDbCircle
 10
42.682024
 20
-116.374422
 30
0.0
 40
16.25
100
AcDbArc
 50
262.930286
 51
270.0
  0
ARC
  5
10F
100
AcDbEntity
  8
2
370
    50
100
AcDbCircle
 10
30.432024
 20
-146.674422
 30
0.0
 40
16.25
100
AcDbArc
 50
75.749967
 51
90.0
  0
ARC
  5
110
100
AcDbEntity
  8
2
370
    50
100
AcDbCircle
 10
34.682024
 20
-146.674422
 30
0.0
 40
16.25
100
AcDbArc
 50
75.749967
 51
97.514045
  0
ARC
  5
111
100
AcDbEntity
  8
2
370
    50
100
AcDbCircle
 10
38.682024
 20
-146.674422
 30
0.0
 40
16.25
100
AcDbArc
 50
75.749967
 51
97.069714
  0
ARC
  5
112
100
AcDbEntity
  8
2
370
    50
100
AcDbCircle
 10
42.682024
 20
-146.674422
 30
0.0
 40
16.25
100
AcDbArc
 50
90.0
 51
97.069714
  0
LINE
  5
113
100
AcDbEntity
  8
2
370
    50
100
AcDbLine
 10
41.932024
 20
-170.924422
 30
0.0
 11
30.432024
 21
-170.924422
 31
0.0
  0
ARC
  5
114
100
AcDbEntity
  8
2
370
    50
100
AcDbCircle
 10
28.157024
 20
-164.924422
 30
0.0
 40
15.025
100
AcDbArc
 50
336.463422
 51
23.536578
  0
LINE
  5
115
100
AcDbEntity
  8
2
370
    50
100
AcDbLine
 10
41.932024
 20
-158.924422
 30
0.0
 11
30.432024
 21
-158.924422
 31
0.0
  0
ELLIPSE
  5
116
100
AcDbEntity
  8
2
370
    50
100
AcDbEllipse
 10
40.391316
 20
-164.924422
 30
0.0
 11
0.0
 21
6.0
 31
0.0
210
0.0
220
0.0
230
1.0
 40
0.458833
 41
0.0
 42
6.2831849999999996
  0
LINE
  5
117
100
AcDbEntity
  8
2
370
    50
100
AcDbLine
 10
40.682024
 20
-158.924422
 30
0.0
 11
40.682024
 21
-139.124422
 31
0.0
  0
LINE
  5
118
100
AcDbEntity
  8
2
370
    50
100
AcDbLine
 10
47.932024
 20
-128.924422
 30
0.0
 11
12.932024
 21
-128.924422
 31
0.0
  0
LINE
  5
119
100
AcDbEntity
  8
2
370
    50
100
AcDbLine
 10
9.432024
 20
-108.424422
 30
0.0
 11
51.432024
 21
-108.424422
 31
0.0
  0
LINE
  5
11A
100
AcDbEntity
  8
2
370
    50
100
AcDbLine
 10
49.932024
 20
-113.924422
 30
0.0
 11
49.932024
 21
-115.924422
 31
0.0
  0
LINE
  5
11B
100
AcDbEntity
  8
2
370
    50
100
AcDbLine
 10
49.932024
 20
-115.924422
 30
0.0
 11
30.432024
 21
-115.924422
 31
0.0
  0
LINE
  5
11C
100
AcDbEntity
  8
2
370
    50
100
AcDbLine
 10
51.432024
 20
-113.924422
 30
0.0
 11
30.432024
 21
-113.924422
 31
0.0
  0
LINE
  5
11D
100
AcDbEntity
  8
2
370
    50
100
AcDbLine
 10
51.932024
 20
-113.424422
 30
0.0
 11
51.432024
 21
-113.924422
 31
0.0
  0
LINE
  5
11E
100
AcDbEntity
  8
2
370
    50
100
AcDbLine
 10
51.932024
 20
-108.924422
 30
0.0
 11
51.932024
 21
-113.424422
 31
0.0
  0
LINE
  5
11F
100
AcDbEntity
  8
2
370
    50
100
AcDbLine
 10
51.432024
 20
-108.424422
 30
0.0
 11
51.932024
 21
-108.924422
 31
0.0
  0
LINE
  5
120
100
AcDbEntity
  8
2
370
    50
100
AcDbLine
 10
9.432024
 20
-108.424422
 30
0.0
 11
8.932024
 21
-108.924422
 31
0.0
  0
LINE
  5
121
100
AcDbEntity
  8
2
370
    50
100
AcDbLine
 10
8.932024
 20
-108.924422
 30
0.0
 11
8.932024
 21
-113.424422
 31
0.0
  0
LINE
  5
122
100
AcDbEntity
  8
2
370
    50
100
AcDbLine
 10
8.932024
 20
-113.424422
 30
0.0
 11
9.432024
 21
-113.924422
 31
0.0
  0
LINE
  5
123
100
AcDbEntity
  8
2
370
    50
100
AcDbLine
 10
9.432024
 20
-113.924422
 30
0.0
 11
30.432024
 21
-113.924422
 31
0.0
  0
LINE
  5
124
100
AcDbEntity
  8
2
370
    50
100
AcDbLine
 10
10.932024
 20
-113.924422
 30
0.0
 11
10.932024
 21
-115.924422
 31
0.0
  0
LINE
  5
125
100
AcDbEntity
  8
2
370
    50
100
AcDbLine
 10
10.932024
 20
-115.924422
 30
0.0
 11
30.432024
 21
-115.924422
 31
0.0
  0
LINE
  5
126
100
AcDbEntity
  8
2
370
    25
100
AcDbLine
 10
8.932024
 20
-108.924422
 30
0.0
 11
51.932024
 21
-108.924422
 31
0.0
  0
LINE
  5
127
100
AcDbEntity
  8
2
370
    25
100
AcDbLine
 10
51.932024
 20
-113.424422
 30
0.0
 11
8.932024
 21
-113.424422
 31
0.0
  0
HATCH
  5
128
100
AcDbEntity
  8
2
370
    25
100
AcDbHatch
 10
0.0
 20
0.0
 30
0.0
210
0.0
220
0.0
230
1.0
  2
_U
 70
     0
 71
     1
 91
        1
 92
        1
 93
        6
 72
     1
 10
10.932024
 20
-115.92442200000001
 11
10.932024
 21
-113.92442200000001
 72
     1
 10
10.932024
 20
-113.92442200000001
 11
30.432023999999998
 21
-113.92442200000001
 72
     1
 10
30.432023999999998
 20
-113.92442200000001
 11
49.932023999999998
 21
-113.92442200000001
 72
     1
 10
49.932023999999998
 20
-113.92442200000001
 11
49.932023999999998
 21
-115.92442200000001
 72
     1
 10
49.932023999999998
 20
-115.92442200000001
 11
30.432023999999998
 21
-115.92442200000001
 72
     1
 10
30.432023999999998
 20
-115.92442200000001
 11
10.932024
 21
-115.92442200000001
 97
        6
330
0
330
0
330
0
330
0
330
0
330
0
 75
     0
 76
     0
 52
45.0
 41
1.0
 77
     0
 78
     1
 53
45.0
 43
0.0
 44
0.0
 45
-1.4142140000000001
 46
1.4142140000000001
 79
     0
 98
        1
 10
0.0
 20
0.0
  0
HATCH
  5
129
100
AcDbEntity
  8
2
370
    25
100
AcDbHatch
 10
0.0
 20
0.0
 30
0.0
210
0.0
220
0.0
230
1.0
  2
_U
 70
     0
 71
     1
 91
        1
 92
        1
 93
        5
 72
     1
 10
12.932024
 20
-128.92442199999999
 11
12.932024
 21
-130.42442199999999
 72
     1
 10
12.932024
 20
-130.42442199999999
 11
30.432023999999998
 21
-130.42442199999999
 72
     1
 10
30.432023999999998
 20
-130.42442199999999
 11
47.932023999999998
 21
-130.42442199999999
 72
     1
 10
47.932023999999998
 20
-130.42442199999999
 11
47.932023999999998
 21
-128.92442199999999
 72
     1
 10
47.932023999999998
 20
-128.92442199999999
 11
12.932024
 21
-128.92442199999999
 97
        5
330
0
330
0
330
0
330
0
330
0
 75
     0
 76
     0
 52
45.0
 41
1.0
 77
     0
 78
     1
 53
45.0
 43
0.0
 44
0.0
 45
-1.4142140000000001
 46
1.4142140000000001
 79
     0
 98
        1
 10
0.0
 20
0.0
  0
LINE
  5
12A
100
AcDbEntity
  8
2
370
    25
  6
CENTER
100
AcDbLine
 10
30.432024
 20
-172.642445
 30
0.0
 11
30.432024
 21
197.269702
 31
0.0
  0
LINE
  5
12B
100
AcDbEntity
  8
2
370
    50
100
AcDbLine
 10
9.432024
 20
-108.424422
 30
0.0
 11
51.432024
 21
-108.424422
 31
0.0
  0
LINE
  5
12C
100
AcDbEntity
  8
2
370
    50
100
AcDbLine
 10
47.632024
 20
49.575578
 30
0.0
 11
13.232024
 21
49.575578
 31
0.0
  0
LINE
  5
12D
100
AcDbEntity
  8
2
370
    50
100
AcDbLine
 10
12.932024
 20
49.275578
 30
0.0
 11
12.932024
 21
-108.124422
 31
0.0
  0
LINE
  5
12E
100
AcDbEntity
  8
2
370
    50
100
AcDbLine
 10
47.932024
 20
49.275578
 30
0.0
 11
47.932024
 21
-108.124422
 31
0.0
  0
LINE
  5
12F
100
AcDbEntity
  8
2
370
    50
100
AcDbLine
 10
47.632024
 20
49.575578
 30
0.0
 11
47.932024
 21
49.275578
 31
0.0
  0
LINE
  5
130
100
AcDbEntity
  8
2
370
    50
100
AcDbLine
 10
13.232024
 20
49.575578
 30
0.0
 11
12.932024
 21
49.275578
 31
0.0
  0
LINE
  5
131
100
AcDbEntity
  8
2
370
    25
100
AcDbLine
 10
47.932024
 20
49.275578
 30
0.0
 11
12.932024
 21
49.275578
 31
0.0
  0
LINE
  5
132
100
AcDbEntity
  8
2
370
    50
100
AcDbLine
 10
-150.553877
 20
-130.861437
 30
0.0
 11
-150.553877
 21
-129.361437
 31
0.0
  0
LINE
  5
133
100
AcDbEntity
  8
2
370
    50
100
AcDbLine
 10
-133.053877
 20
-130.861437
 30
0.0
 11
-150.553877
 21
-130.861437
 31
0.0
  0
LINE
  5
134
100
AcDbEntity
  8
2
370
    25
100
AcDbLine
 10
-142.303877
 20
-159.361437
 30
0.0
 11
-142.303877
 21
-139.561437
 31
0.0
  0
LINE
  5
135
100
AcDbEntity
  8
2
370
    25
100
AcDbLine
 10
-142.303877
 20
-129.361437
 30
0.0
 11
-142.303877
 21
-116.361045
 31
0.0
  0
LINE
  5
136
100
AcDbEntity
  8
2
370
    50
100
AcDbLine
 10
-143.303877
 20
-129.361437
 30
0.0
 11
-143.303877
 21
-116.361045
 31
0.0
  0
LINE
  5
137
100
AcDbEntity
  8
2
370
    50
100
AcDbLine
 10
-145.053877
 20
-139.561437
 30
0.0
 11
-133.053877
 21
-139.561437
 31
0.0
  0
LINE
  5
138
100
AcDbEntity
  8
2
370
    50
100
AcDbLine
 10
-146.803877
 20
-138.551074
 30
0.0
 11
-146.803877
 21
-133.061437
 31
0.0
  0
LINE
  5
139
100
AcDbEntity
  8
2
370
    50
100
AcDbLine
 10
-145.053877
 20
-139.561437
 30
0.0
 11
-146.803877
 21
-138.551074
 31
0.0
  0
LINE
  5
13A
100
AcDbEntity
  8
2
370
    50
100
AcDbLine
 10
-153.053877
 20
-132.561437
 30
0.0
 11
-153.053877
 21
-131.361437
 31
0.0
  0
LINE
  5
13B
100
AcDbEntity
  8
2
370
    50
100
AcDbLine
 10
-133.053877
 20
-133.061437
 30
0.0
 11
-147.374427
 21
-133.061437
 31
0.0
  0
LINE
  5
13C
100
AcDbEntity
  8
2
370
    50
100
AcDbLine
 10
-153.053877
 20
-131.361437
 30
0.0
 11
-133.053877
 21
-131.361437
 31
0.0
  0
LINE
  5
13D
100
AcDbEntity
  8
2
370
    50
100
AcDbLine
 10
-153.053877
 20
-132.561437
 30
0.0
 11
-133.053877
 21
-132.561437
 31
0.0
  0
ARC
  5
13E
100
AcDbEntity
  8
2
370
    50
100
AcDbCircle
 10
-147.374427
 20
-128.061437
 30
0.0
 40
5.0
100
AcDbArc
 50
246.443536
 51
270.0
  0
ARC
  5
13F
100
AcDbEntity
  8
2
370
    50
100
AcDbCircle
 10
-147.374427
 20
-135.861437
 30
0.0
 40
5.0
100
AcDbArc
 50
90.0
 51
113.556464
  0
ARC
  5
140
100
AcDbEntity
  8
2
370
    50
100
AcDbCircle
 10
-149.772343
 20
-133.561437
 30
0.0
 40
1.0
100
AcDbArc
 50
66.443536
 51
90.0
  0
ARC
  5
141
100
AcDbEntity
  8
2
370
    50
100
AcDbCircle
 10
-149.772343
 20
-130.361437
 30
0.0
 40
1.0
100
AcDbArc
 50
270.0
 51
293.556464
  0
LINE
  5
142
100
AcDbEntity
  8
2
370
    50
100
AcDbLine
 10
-140.053877
 20
-138.551074
 30
0.0
 11
-140.053877
 21
-133.061437
 31
0.0
  0
ARC
  5
143
100
AcDbEntity
  8
2
370
    50
100
AcDbCircle
 10
-133.053877
 20
-114.807544
 30
0.0
 40
24.753893
100
AcDbArc
 50
253.573579
 51
270.0
  0
ARC
  5
144
100
AcDbEntity
  8
2
370
    50
100
AcDbCircle
 10
-143.428877
 20
-133.419358
 30
0.0
 40
6.142079
100
AcDbArc
 50
236.668091
 51
303.331909
  0
ARC
  5
145
100
AcDbEntity
  8
2
370
    50
100
AcDbCircle
 10
-133.053877
 20
-116.811437
 30
0.0
 40
16.25
100
AcDbArc
 50
255.749967
 51
270.0
  0
ARC
  5
146
100
AcDbEntity
  8
2
370
    50
100
AcDbCircle
 10
-141.303877
 20
-116.811437
 30
0.0
 40
16.25
100
AcDbArc
 50
255.749967
 51
277.069714
  0
ARC
  5
147
100
AcDbEntity
  8
2
370
    50
100
AcDbCircle
 10
-137.303877
 20
-116.811437
 30
0.0
 40
16.25
100
AcDbArc
 50
255.749967
 51
277.514045
  0
ARC
  5
148
100
AcDbEntity
  8
2
370
    50
100
AcDbCircle
 10
-145.303877
 20
-116.811437
 30
0.0
 40
16.25
100
AcDbArc
 50
270.0
 51
277.069714
  0
ARC
  5
149
100
AcDbEntity
  8
2
370
    50
100
AcDbCircle
 10
-133.053877
 20
-147.111437
 30
0.0
 40
16.25
100
AcDbArc
 50
90.0
 51
104.250033
  0
ARC
  5
14A
100
AcDbEntity
  8
2
370
    50
100
AcDbCircle
 10
-137.303877
 20
-147.111437
 30
0.0
 40
16.25
100
AcDbArc
 50
82.485955
 51
104.250033
  0
ARC
  5
14B
100
AcDbEntity
  8
2
370
    50
100
AcDbCircle
 10
-141.303877
 20
-147.111437
 30
0.0
 40
16.25
100
AcDbArc
 50
82.930286
 51
104.250033
  0
ARC
  5
14C
100
AcDbEntity
  8
2
370
    50
100
AcDbCircle
 10
-145.303877
 20
-147.111437
 30
0.0
 40
16.25
100
AcDbArc
 50
82.930286
 51
90.0
  0
LINE
  5
14D
100
AcDbEntity
  8
2
370
    50
100
AcDbLine
 10
-144.553877
 20
-171.361437
 30
0.0
 11
-133.053877
 21
-171.361437
 31
0.0
  0
ARC
  5
14E
100
AcDbEntity
  8
2
370
    50
100
AcDbCircle
 10
-130.778877
 20
-165.361437
 30
0.0
 40
15.025
100
AcDbArc
 50
156.463422
 51
203.536578
  0
LINE
  5
14F
100
AcDbEntity
  8
2
370
    50
100
AcDbLine
 10
-144.553877
 20
-159.361437
 30
0.0
 11
-133.053877
 21
-159.361437
 31
0.0
  0
ELLIPSE
  5
150
100
AcDbEntity
  8
2
370
    50
100
AcDbEllipse
 10
-143.013169
 20
-165.361437
 30
0.0
 11
0.0
 21
6.0
 31
0.0
210
0.0
220
0.0
230
1.0
 40
0.458833
 41
0.0
 42
6.2831849999999996
  0
ELLIPSE
  5
151
100
AcDbEntity
  8
2
370
    50
100
AcDbEllipse
 10
-133.053877
 20
-165.361437
 30
0.0
 11
0.0
 21
6.0
 31
0.0
210
0.0
220
0.0
230
1.0
 40
0.926667
 41
0.0
 42
6.2831849999999996
  0
LINE
  5
152
100
AcDbEntity
  8
2
370
    50
100
AcDbLine
 10
-143.303877
 20
-159.361437
 30
0.0
 11
-143.303877
 21
-139.561437
 31
0.0
  0
LINE
  5
153
100
AcDbEntity
  8
2
370
    50
100
AcDbLine
 10
-115.553877
 20
-130.861437
 30
0.0
 11
-115.553877
 21
-129.361437
 31
0.0
  0
LINE
  5
154
100
AcDbEntity
  8
2
370
    50
100
AcDbLine
 10
-133.053877
 20
-130.861437
 30
0.0
 11
-115.553877
 21
-130.861437
 31
0.0
  0
LINE
  5
155
100
AcDbEntity
  8
2
370
    25
100
AcDbLine
 10
-123.803877
 20
-159.361437
 30
0.0
 11
-123.803877
 21
-139.561437
 31
0.0
  0
LINE
  5
156
100
AcDbEntity
  8
2
370
    25
100
AcDbLine
 10
-123.803877
 20
-129.361437
 30
0.0
 11
-123.803877
 21
-116.361045
 31
0.0
  0
LINE
  5
157
100
AcDbEntity
  8
2
370
    50
100
AcDbLine
 10
-122.803877
 20
-129.361437
 30
0.0
 11
-122.803877
 21
-116.361045
 31
0.0
  0
LINE
  5
158
100
AcDbEntity
  8
2
370
    50
100
AcDbLine
 10
-121.053877
 20
-139.561437
 30
0.0
 11
-133.053877
 21
-139.561437
 31
0.0
  0
LINE
  5
159
100
AcDbEntity
  8
2
370
    50
100
AcDbLine
 10
-119.303877
 20
-138.551074
 30
0.0
 11
-119.303877
 21
-133.061437
 31
0.0
  0
LINE
  5
15A
100
AcDbEntity
  8
2
370
    50
100
AcDbLine
 10
-121.053877
 20
-139.561437
 30
0.0
 11
-119.303877
 21
-138.551074
 31
0.0
  0
LINE
  5
15B
100
AcDbEntity
  8
2
370
    50
100
AcDbLine
 10
-113.053877
 20
-132.561437
 30
0.0
 11
-113.053877
 21
-131.361437
 31
0.0
  0
LINE
  5
15C
100
AcDbEntity
  8
2
370
    50
100
AcDbLine
 10
-133.053877
 20
-133.061437
 30
0.0
 11
-118.733326
 21
-133.061437
 31
0.0
  0
LINE
  5
15D
100
AcDbEntity
  8
2
370
    50
100
AcDbLine
 10
-113.053877
 20
-131.361437
 30
0.0
 11
-133.053877
 21
-131.361437
 31
0.0
  0
LINE
  5
15E
100
AcDbEntity
  8
2
370
    50
100
AcDbLine
 10
-113.053877
 20
-132.561437
 30
0.0
 11
-133.053877
 21
-132.561437
 31
0.0
  0
ARC
  5
15F
100
AcDbEntity
  8
2
370
    50
100
AcDbCircle
 10
-118.733326
 20
-128.061437
 30
0.0
 40
5.0
100
AcDbArc
 50
270.0
 51
293.556464
  0
ARC
  5
160
100
AcDbEntity
  8
2
370
    50
100
AcDbCircle
 10
-118.733326
 20
-135.861437
 30
0.0
 40
5.0
100
AcDbArc
 50
66.443536
 51
90.0
  0
ARC
  5
161
100
AcDbEntity
  8
2
370
    50
100
AcDbCircle
 10
-116.335411
 20
-133.561437
 30
0.0
 40
1.0
100
AcDbArc
 50
90.0
 51
113.556464
  0
ARC
  5
162
100
AcDbEntity
  8
2
370
    50
100
AcDbCircle
 10
-116.335411
 20
-130.361437
 30
0.0
 40
1.0
100
AcDbArc
 50
246.443536
 51
270.0
  0
LINE
  5
163
100
AcDbEntity
  8
2
370
    50
100
AcDbLine
 10
-126.053877
 20
-138.551074
 30
0.0
 11
-126.053877
 21
-133.061437
 31
0.0
  0
ARC
  5
164
100
AcDbEntity
  8
2
370
    50
100
AcDbCircle
 10
-133.053877
 20
-114.807544
 30
0.0
 40
24.753893
100
AcDbArc
 50
270.0
 51
286.426421
  0
ARC
  5
165
100
AcDbEntity
  8
2
370
    50
100
AcDbCircle
 10
-122.678877
 20
-133.419358
 30
0.0
 40
6.142079
100
AcDbArc
 50
236.668091
 51
303.331909
  0
ARC
  5
166
100
AcDbEntity
  8
2
370
    50
100
AcDbCircle
 10
-133.053877
 20
-116.811437
 30
0.0
 40
16.25
100
AcDbArc
 50
270.0
 51
284.250033
  0
ARC
  5
167
100
AcDbEntity
  8
2
370
    50
100
AcDbCircle
 10
-124.803877
 20
-116.811437
 30
0.0
 40
16.25
100
AcDbArc
 50
262.930286
 51
284.250033
  0
ARC
  5
168
100
AcDbEntity
  8
2
370
    50
100
AcDbCircle
 10
-128.803877
 20
-116.811437
 30
0.0
 40
16.25
100
AcDbArc
 50
262.485955
 51
284.250033
  0
ARC
  5
169
100
AcDbEntity
  8
2
370
    50
100
AcDbCircle
 10
-120.803877
 20
-116.811437
 30
0.0
 40
16.25
100
AcDbArc
 50
262.930286
 51
270.0
  0
ARC
  5
16A
100
AcDbEntity
  8
2
370
    50
100
AcDbCircle
 10
-133.053877
 20
-147.111437
 30
0.0
 40
16.25
100
AcDbArc
 50
75.749967
 51
90.0
  0
ARC
  5
16B
100
AcDbEntity
  8
2
370
    50
100
AcDbCircle
 10
-128.803877
 20
-147.111437
 30
0.0
 40
16.25
100
AcDbArc
 50
75.749967
 51
97.514045
  0
ARC
  5
16C
100
AcDbEntity
  8
2
370
    50
100
AcDbCircle
 10
-124.803877
 20
-147.111437
 30
0.0
 40
16.25
100
AcDbArc
 50
75.749967
 51
97.069714
  0
ARC
  5
16D
100
AcDbEntity
  8
2
370
    50
100
AcDbCircle
 10
-120.803877
 20
-147.111437
 30
0.0
 40
16.25
100
AcDbArc
 50
90.0
 51
97.069714
  0
LINE
  5
16E
100
AcDbEntity
  8
2
370
    50
100
AcDbLine
 10
-121.553877
 20
-171.361437
 30
0.0
 11
-133.053877
 21
-171.361437
 31
0.0
  0
ARC
  5
16F
100
AcDbEntity
  8
2
370
    50
100
AcDbCircle
 10
-135.328877
 20
-165.361437
 30
0.0
 40
15.025
100
AcDbArc
 50
336.463422
 51
23.536578
  0
LINE
  5
170
100
AcDbEntity
  8
2
370
    50
100
AcDbLine
 10
-121.553877
 20
-159.361437
 30
0.0
 11
-133.053877
 21
-159.361437
 31
0.0
  0
ELLIPSE
  5
171
100
AcDbEntity
  8
2
370
    50
100
AcDbEllipse
 10
-123.094585
 20
-165.361437
 30
0.0
 11
0.0
 21
6.0
 31
0.0
210
0.0
220
0.0
230
1.0
 40
0.458833
 41
0.0
 42
6.2831849999999996
  0
LINE
  5
172
100
AcDbEntity
  8
2
370
    50
100
AcDbLine
 10
-122.803877
 20
-159.361437
 30
0.0
 11
-122.803877
 21
-139.561437
 31
0.0
  0
LINE
  5
173
100
AcDbEntity
  8
2
370
    50
100
AcDbLine
 10
-115.553877
 20
-129.361437
 30
0.0
 11
-150.553877
 21
-129.361437
 31
0.0
  0
LINE
  5
174
100
AcDbEntity
  8
2
370
    50
100
AcDbLine
 10
-154.053877
 20
-108.861437
 30
0.0
 11
-112.053877
 21
-108.861437
 31
0.0
  0
LINE
  5
175
100
AcDbEntity
  8
2
370
    50
100
AcDbLine
 10
-113.553877
 20
-114.361437
 30
0.0
 11
-113.553877
 21
-116.361437
 31
0.0
  0
LINE
  5
176
100
AcDbEntity
  8
2
370
    50
100
AcDbLine
 10
-113.553877
 20
-116.361437
 30
0.0
 11
-133.053877
 21
-116.361437
 31
0.0
  0
LINE
  5
177
100
AcDbEntity
  8
2
370
    50
100
AcDbLine
 10
-112.053877
 20
-114.361437
 30
0.0
 11
-133.053877
 21
-114.361437
 31
0.0
  0
LINE
  5
178
100
AcDbEntity
  8
2
370
    50
100
AcDbLine
 10
-111.553877
 20
-113.861437
 30
0.0
 11
-112.053877
 21
-114.361437
 31
0.0
  0
LINE
  5
179
100
AcDbEntity
  8
2
370
    50
100
AcDbLine
 10
-111.553877
 20
-109.361437
 30
0.0
 11
-111.553877
 21
-113.861437
 31
0.0
  0
LINE
  5
17A
100
AcDbEntity
  8
2
370
    50
100
AcDbLine
 10
-112.053877
 20
-108.861437
 30
0.0
 11
-111.553877
 21
-109.361437
 31
0.0
  0
LINE
  5
17B
100
AcDbEntity
  8
2
370
    50
100
AcDbLine
 10
-154.053877
 20
-108.861437
 30
0.0
 11
-154.553877
 21
-109.361437
 31
0.0
  0
LINE
  5
17C
100
AcDbEntity
  8
2
370
    50
100
AcDbLine
 10
-154.553877
 20
-109.361437
 30
0.0
 11
-154.553877
 21
-113.861437
 31
0.0
  0
LINE
  5
17D
100
AcDbEntity
  8
2
370
    50
100
AcDbLine
 10
-154.553877
 20
-113.861437
 30
0.0
 11
-154.053877
 21
-114.361437
 31
0.0
  0
LINE
  5
17E
100
AcDbEntity
  8
2
370
    50
100
AcDbLine
 10
-154.053877
 20
-114.361437
 30
0.0
 11
-133.053877
 21
-114.361437
 31
0.0
  0
LINE
  5
17F
100
AcDbEntity
  8
2
370
    50
100
AcDbLine
 10
-152.553877
 20
-114.361437
 30
0.0
 11
-152.553877
 21
-116.361437
 31
0.0
  0
LINE
  5
180
100
AcDbEntity
  8
2
370
    50
100
AcDbLine
 10
-152.553877
 20
-116.361437
 30
0.0
 11
-133.053877
 21
-116.361437
 31
0.0
  0
LINE
  5
181
100
AcDbEntity
  8
2
370
    25
100
AcDbLine
 10
-154.553877
 20
-109.361437
 30
0.0
 11
-111.553877
 21
-109.361437
 31
0.0
  0
LINE
  5
182
100
AcDbEntity
  8
2
370
    25
100
AcDbLine
 10
-111.553877
 20
-113.861437
 30
0.0
 11
-154.553877
 21
-113.861437
 31
0.0
  0
HATCH
  5
183
100
AcDbEntity
  8
2
370
    25
100
AcDbHatch
 10
0.0
 20
0.0
 30
0.0
210
0.0
220
0.0
230
1.0
  2
_U
 70
     0
 71
     1
 91
        1
 92
        1
 93
        6
 72
     1
 10
-152.553877
 20
-116.361437
 11
-152.553877
 21
-114.361437
 72
     1
 10
-152.553877
 20
-114.361437
 11
-133.053877
 21
-114.361437
 72
     1
 10
-133.053877
 20
-114.361437
 11
-113.553877
 21
-114.361437
 72
     1
 10
-113.553877
 20
-114.361437
 11
-113.553877
 21
-116.361437
 72
     1
 10
-113.553877
 20
-116.361437
 11
-133.053877
 21
-116.361437
 72
     1
 10
-133.053877
 20
-116.361437
 11
-152.553877
 21
-116.361437
 97
        6
330
0
330
0
330
0
330
0
330
0
330
0
 75
     0
 76
     0
 52
45.0
 41
1.0
 77
     0
 78
     1
 53
45.0
 43
0.0
 44
0.0
 45
-1.4142140000000001
 46
1.4142140000000001
 79
     0
 98
        1
 10
0.0
 20
0.0
  0
HATCH
  5
184
100
AcDbEntity
  8
2
370
    25
100
AcDbHatch
 10
0.0
 20
0.0
 30
0.0
210
0.0
220
0.0
230
1.0
  2
_U
 70
     0
 71
     1
 91
        1
 92
        1
 93
        5
 72
     1
 10
-150.553877
 20
-129.361437
 11
-150.553877
 21
-130.861437
 72
     1
 10
-150.553877
 20
-130.861437
 11
-133.053877
 21
-130.861437
 72
     1
 10
-133.053877
 20
-130.861437
 11
-115.553877
 21
-130.861437
 72
     1
 10
-115.553877
 20
-130.861437
 11
-115.553877
 21
-129.361437
 72
     1
 10
-115.553877
 20
-129.361437
 11
-150.553877
 21
-129.361437
 97
        5
330
0
330
0
330
0
330
0
330
0
 75
     0
 76
     0
 52
45.0
 41
1.0
 77
     0
 78
     1
 53
45.0
 43
0.0
 44
0.0
 45
-1.4142140000000001
 46
1.4142140000000001
 79
     0
 98
        1
 10
0.0
 20
0.0
  0
LINE
  5
185
100
AcDbEntity
  8
2
370
    25
  6
CENTER
100
AcDbLine
 10
-133.053877
 20
-173.07946
 30
0.0
 11
-133.053877
 21
196.832687
 31
0.0
  0
LINE
  5
186
100
AcDbEntity
  8
2
370
    50
100
AcDbLine
 10
-154.053877
 20
-108.861437
 30
0.0
 11
-112.053877
 21
-108.861437
 31
0.0
  0
LINE
  5
187
100
AcDbEntity
  8
2
370
    50
100
AcDbLine
 10
-150.553877
 20
48.838563
 30
0.0
 11
-150.553877
 21
-108.561437
 31
0.0
  0
LINE
  5
188
100
AcDbEntity
  8
2
370
    50
100
AcDbLine
 10
-115.553877
 20
48.838563
 30
0.0
 11
-115.553877
 21
-108.561437
 31
0.0
  0
LINE
  5
189
100
AcDbEntity
  8
2
370
    25
100
AcDbLine
 10
-115.553877
 20
48.838563
 30
0.0
 11
-150.553877
 21
48.838563
 31
0.0
  0
LINE
  5
18A
100
AcDbEntity
  8
2
370
    50
100
AcDbLine
 10
-150.253877
 20
49.138563
 30
0.0
 11
-150.553877
 21
48.838563
 31
0.0
  0
LINE
  5
18B
100
AcDbEntity
  8
2
370
    50
100
AcDbLine
 10
-115.853877
 20
49.138563
 30
0.0
 11
-115.553877
 21
48.838563
 31
0.0
  0
LINE
  5
18C
100
AcDbEntity
  8
2
370
    50
100
AcDbLine
 10
-115.853877
 20
49.138563
 30
0.0
 11
-150.253877
 21
49.138563
 31
0.0
  0
LINE
  5
18D
100
AcDbEntity
  8
2
370
    50
100
AcDbLine
 10
47.932024
 20
-108.124422
 30
0.0
 11
47.632024
 21
-108.424422
 31
0.0
  0
LINE
  5
18E
100
AcDbEntity
  8
2
370
    50
100
AcDbLine
 10
12.932024
 20
-108.124422
 30
0.0
 11
13.232024
 21
-108.424422
 31
0.0
  0
LINE
  5
18F
100
AcDbEntity
  8
2
370
    50
100
AcDbLine
 10
-150.553877
 20
-108.561437
 30
0.0
 11
-150.253877
 21
-108.861437
 31
0.0
  0
LINE
  5
190
100
AcDbEntity
  8
2
370
    50
100
AcDbLine
 10
-115.553877
 20
-108.561437
 30
0.0
 11
-115.853877
 21
-108.861437
 31
0.0
  0
LINE
  5
191
100
AcDbEntity
  8
2
370
    25
100
AcDbLine
 10
-115.553877
 20
-108.561437
 30
0.0
 11
-150.553877
 21
-108.561437
 31
0.0
  0
LINE
  5
192
100
AcDbEntity
  8
2
370
    25
100
AcDbLine
 10
47.932024
 20
-108.124422
 30
0.0
 11
12.932024
 21
-108.124422
 31
0.0
  0
LINE
  5
193
100
AcDbEntity
  8
2
370
    25
  6
CENTER
100
AcDbLine
 10
-251.3752
 20
116.882687
 30
0.0
 11
-257.550465
 21
99.916289
 31
0.0
  0
DIMENSION
  5
194
100
AcDbEntity
  8
3
370
    25
100
AcDbDimension
  2
*D0
 10
-307.821533
 20
181.538563
 30
0.0
 11
-319.321533
 21
30.088563
 31
0.0
 71
     0
 72
     0
 41
0.0
 42
0.0
  3
Standard
100
AcDbAlignedDimension
 13
-154.053877
 23
-114.361437
 33
0.0
 14
-209.0537
 24
181.538563
 34
0.0
 50
90.0
100
AcDbRotatedDimension
  0
DIMENSION
  5
195
100
AcDbEntity
  8
3
370
    25
100
AcDbDimension
  2
*D1
 10
-177.289471
 20
181.538563
 30
0.0
 11
-237.741135
 21
213.377688
 31
0.0
 70
     2
 71
     0
 72
     0
 41
0.0
 42
0.0
  3
Standard
100
AcDb2LineAngularDimension
 13
-158.632163
 23
193.522091
 33
0.0
 14
-128.97189
 24
181.538563
 34
0.0
 15
-128.97189
 25
181.538563
 35
0.0
 16
-238.763002
 26
202.879794
 36
0.0
1001
ACAD
1000
DSTYLE
1002
{
1070
   275
1070
     0
1070
   179
1070
     0
1002
}
  0
POINT
  5
196
100
AcDbEntity
  8
3
370
    50
100
AcDbPoint
 10
-196.116539
 20
208.666762
 30
0.0
  0
DIMENSION
  5
197
100
AcDbEntity
  8
3
370
    25
100
AcDbDimension
  2
*D2
 10
-339.001862
 20
208.666762
 30
0.0
 11
-350.501862
 21
43.652663
 31
0.0
 71
     0
 72
     0
 41
0.0
 42
0.0
  3
Standard
100
AcDbAlignedDimension
 13
-154.053877
 23
-114.361437
 33
0.0
 14
-196.116539
 24
208.666762
 34
0.0
 50
90.0
100
AcDbRotatedDimension
  0
DIMENSION
  5
198
100
AcDbEntity
  8
3
370
    25
100
AcDbDimension
  2
*D3
 10
-256.368402
 20
103.160867
 30
0.0
 11
-251.25889
 21
71.674368
 31
0.0
 70
     2
 71
     0
 72
     0
 41
0.0
 42
0.0
  3
Standard
100
AcDb2LineAngularDimension
 13
-256.369466
 23
103.161054
 33
0.0
 14
-256.368402
 24
103.163979
 34
0.0
 15
-256.368402
 25
103.163979
 35
0.0
 16
-261.77302
 26
72.512866
 36
0.0
1001
ACAD
1000
DSTYLE
1002
{
1070
   275
1070
     0
1070
   179
1070
     0
1002
}
  0
TEXT
  5
199
100
AcDbEntity
  8
3
370
    50
100
AcDbText
 10
-195.165833
 20
218.980621
 30
0.0
 40
7.0
  1
吐水
 72
     5
 11
-182.565833
 21
218.980621
 31
0.0
100
AcDbText
  0
TEXT
  5
19A
100
AcDbEntity
  8
3
370
    50
100
AcDbText
 10
-228.198227
 20
162.02533
 30
0.0
 40
7.0
  1
止水
 72
     5
 11
-215.598227
 21
162.02533
 31
0.0
100
AcDbText
  0
POINT
  5
19B
100
AcDbEntity
  8
3
370
    50
100
AcDbPoint
 10
-256.368471
 20
103.163789
 30
0.0
  0
DIMENSION
  5
19C
100
AcDbEntity
  8
3
370
    25
100
AcDbDimension
  2
*D4
 10
-276.45462
 20
103.163789
 30
0.0
 11
-287.95462
 21
-9.098824
 31
0.0
 71
     0
 72
     0
 41
0.0
 42
0.0
  3
Standard
100
AcDbAlignedDimension
 13
-154.053877
 23
-114.361437
 33
0.0
 14
-256.368471
 24
103.163789
 34
0.0
 50
90.0
100
AcDbRotatedDimension
  0
POINT
  5
19D
100
AcDbEntity
  8
3
370
    50
100
AcDbPoint
 10
-107.462995
 20
177.162544
 30
0.0
  0
DIMENSION
  5
19E
100
AcDbEntity
  8
3
370
    25
100
AcDbDimension
  2
*D5
 10
-107.462995
 20
209.758682
 30
0.0
 11
-120.258436
 21
214.258682
 31
0.0
 71
     0
 72
     0
 41
0.0
 42
0.0
  3
Standard
100
AcDbAlignedDimension
 13
-133.053877
 23
196.832687
 33
0.0
 14
-107.462995
 24
177.162544
 34
0.0
100
AcDbRotatedDimension
  0
DIMENSION
  5
19F
100
AcDbEntity
  8
3
370
    25
100
AcDbDimension
  2
*D6
 10
-133.053877
 20
-156.290115
 30
0.0
 11
-194.711174
 21
-151.790115
 31
0.0
 71
     0
 72
     0
 41
0.0
 42
0.0
  3
Standard
100
AcDbAlignedDimension
 13
-256.368471
 23
103.163789
 33
0.0
 14
-133.053877
 24
-173.07946
 34
0.0
100
AcDbRotatedDimension
  0
TEXT
  5
1A0
100
AcDbEntity
  8
3
370
    50
100
AcDbText
 10
-103.075067
 20
-156.658847
 30
0.0
 40
7.0
  1
ＰＪ１／２
 72
     5
 11
-69.475067
 21
-156.658847
 31
0.0
100
AcDbText
  0
LWPOLYLINE
  5
1A1
100
AcDbEntity
  8
3
370
    25
100
AcDbPolyline
 90
        3
 70
     0
 10
-122.803877
 20
-149.354519
 10
-103.727617
 20
-157.441448
 10
-69.404207
 20
-157.441448
  0
LINE
  5
1A6
100
AcDbEntity
  8
3
370
    25
100
AcDbLine
 10
-119.246618
 20
-150.862534
 30
0.0
 11
-118.842546
 21
-149.90937
 31
0.0
  0
LINE
  5
1A7
100
AcDbEntity
  8
3
370
    25
100
AcDbLine
 10
-118.842546
 20
-149.90937
 30
0.0
 11
-122.803877
 21
-149.354519
 31
0.0
  0
LINE
  5
1A8
100
AcDbEntity
  8
3
370
    25
100
AcDbLine
 10
-122.803877
 20
-149.354519
 30
0.0
 11
-119.65069
 21
-151.815699
 31
0.0
  0
LINE
  5
1A9
100
AcDbEntity
  8
3
370
    25
100
AcDbLine
 10
-119.65069
 20
-151.815699
 30
0.0
 11
-119.246618
 21
-150.862534
 31
0.0
  0
TEXT
  5
1AA
100
AcDbEntity
  8
3
370
    50
100
AcDbText
 10
-190.358713
 20
-144.35075
 30
0.0
 40
7.0
  1
２４六角
 72
     5
 11
-163.758713
 21
-144.35075
 31
0.0
100
AcDbText
  0
LWPOLYLINE
  5
1AB
100
AcDbEntity
  8
3
370
    25
100
AcDbPolyline
 90
        2
 70
     0
 10
-145.219362
 20
-136.043987
 10
-161.125612
 20
-140.626995
  0
LINE
  5
1AF
100
AcDbEntity
  8
3
370
    25
100
AcDbLine
 10
-148.932031
 20
-137.113704
 30
0.0
 11
-148.645401
 21
-138.108511
 31
0.0
  0
LINE
  5
1B0
100
AcDbEntity
  8
3
370
    25
100
AcDbLine
 10
-148.645401
 20
-138.108511
 30
0.0
 11
-145.219362
 21
-136.043987
 31
0.0
  0
LINE
  5
1B1
100
AcDbEntity
  8
3
370
    25
100
AcDbLine
 10
-145.219362
 20
-136.043987
 30
0.0
 11
-149.218661
 21
-136.118898
 31
0.0
  0
LINE
  5
1B2
100
AcDbEntity
  8
3
370
    25
100
AcDbLine
 10
-149.218661
 20
-136.118898
 30
0.0
 11
-148.932031
 21
-137.113704
 31
0.0
  0
TEXT
  5
1B3
100
AcDbEntity
  8
3
370
    50
100
AcDbText
 10
-185.056627
 20
-179.221859
 30
0.0
 40
7.0
  1
２３六角
 72
     5
 11
-158.456627
 21
-179.221859
 31
0.0
100
AcDbText
  0
LWPOLYLINE
  5
1B4
100
AcDbEntity
  8
3
370
    25
100
AcDbPolyline
 90
        2
 70
     0
 10
-143.499727
 20
-165.90237
 10
-156.253465
 20
-175.641338
  0
LINE
  5
1B8
100
AcDbEntity
  8
3
370
    25
100
AcDbLine
 10
-146.570503
 20
-168.247266
 30
0.0
 11
-145.94219
 21
-169.070078
 31
0.0
  0
LINE
  5
1B9
100
AcDbEntity
  8
3
370
    25
100
AcDbLine
 10
-145.94219
 20
-169.070078
 30
0.0
 11
-143.499727
 21
-165.90237
 31
0.0
  0
LINE
  5
1BA
100
AcDbEntity
  8
3
370
    25
100
AcDbLine
 10
-143.499727
 20
-165.90237
 30
0.0
 11
-147.198816
 21
-167.424454
 31
0.0
  0
LINE
  5
1BB
100
AcDbEntity
  8
3
370
    25
100
AcDbLine
 10
-147.198816
 20
-167.424454
 30
0.0
 11
-146.570503
 21
-168.247266
 31
0.0
  0
TEXT
  5
1BC
100
AcDbEntity
  8
3
370
    50
100
AcDbText
 10
-43.586345
 20
-108.053225
 30
0.0
 40
7.0
  1
取付穴径　φ２２～２６
 50
90.0
 72
     5
 11
-43.586345
 21
-32.453225
 31
0.0
100
AcDbText
  0
TEXT
  5
1BD
100
AcDbEntity
  8
3
370
    50
100
AcDbText
 10
-53.159908
 20
-108.361437
 30
0.0
 40
7.0
  1
天板厚サ　０～３０ｍｍ
 50
90.0
 72
     5
 11
-53.159908
 21
-32.761437
 31
0.0
100
AcDbText
  0
DIMENSION
  5
1BE
100
AcDbEntity
  8
3
370
    25
100
AcDbDimension
  2
*D7
 10
-52.159908
 20
-116.361437
 30
0.0
 11
-54.659908
 21
-73.861437
 31
0.0
 71
     0
 72
     0
 41
0.0
 42
0.0
  3
Standard
100
AcDbAlignedDimension
 13
-115.553877
 23
-129.361437
 33
0.0
 14
-113.553877
 24
-116.361437
 34
0.0
 50
90.0
100
AcDbRotatedDimension
  0
LINE
  5
1BF
100
AcDbEntity
  8
3
370
    50
100
AcDbLine
 10
116.800108
 20
-153.971881
 30
0.0
 11
116.800108
 21
-217.971881
 31
0.0
  0
LINE
  5
1C0
100
AcDbEntity
  8
3
370
    50
100
AcDbLine
 10
116.800108
 20
-201.971881
 30
0.0
 11
394.982385
 21
-201.971881
 31
0.0
  0
LINE
  5
1C1
100
AcDbEntity
  8
3
370
    50
100
AcDbLine
 10
116.800108
 20
-185.971881
 30
0.0
 11
394.982385
 21
-185.971881
 31
0.0
  0
LINE
  5
1C2
100
AcDbEntity
  8
3
370
    50
100
AcDbLine
 10
116.800108
 20
-169.971881
 30
0.0
 11
394.982385
 21
-169.971881
 31
0.0
  0
LINE
  5
1C3
100
AcDbEntity
  8
3
370
    50
100
AcDbLine
 10
251.876814
 20
-217.971881
 30
0.0
 11
251.876814
 21
-169.971881
 31
0.0
  0
LINE
  5
1C4
100
AcDbEntity
  8
3
370
    50
100
AcDbLine
 10
314.982385
 20
-169.971881
 30
0.0
 11
314.982385
 21
-217.971881
 31
0.0
  0
LINE
  5
1C5
100
AcDbEntity
  8
3
370
    50
100
AcDbLine
 10
116.800108
 20
-185.971881
 30
0.0
 11
394.982385
 21
-185.971881
 31
0.0
  0
LINE
  5
1C6
100
AcDbEntity
  8
3
370
    50
100
AcDbLine
 10
116.800108
 20
-169.971881
 30
0.0
 11
394.982385
 21
-169.971881
 31
0.0
  0
LINE
  5
1C7
100
AcDbEntity
  8
3
370
    50
100
AcDbLine
 10
116.800108
 20
-153.971881
 30
0.0
 11
394.982385
 21
-153.971881
 31
0.0
  0
TEXT
  5
1C8
100
AcDbEntity
  8
3
370
    50
100
AcDbText
 10
125.949206
 20
-165.763784
 30
0.0
 40
7.0
  1
コードＮｏ
 72
     5
 11
159.549206
 21
-165.763784
 31
0.0
100
AcDbText
  0
TEXT
  5
1C9
100
AcDbEntity
  8
3
370
    50
100
AcDbText
 10
200.415681
 20
-165.94042
 30
0.0
 40
7.0
  1
品　番
 72
     5
 11
220.015681
 21
-165.94042
 31
0.0
100
AcDbText
  0
TEXT
  5
1CA
100
AcDbEntity
  8
3
370
    50
100
AcDbText
 10
268.518659
 20
-165.784048
 30
0.0
 40
7.0
  1
品　　名
 72
     5
 11
295.118659
 21
-165.784048
 31
0.0
100
AcDbText
  0
LINE
  5
1CB
100
AcDbEntity
  8
3
370
    50
100
AcDbLine
 10
251.876814
 20
-201.971881
 30
0.0
 11
251.876814
 21
-153.971881
 31
0.0
  0
LINE
  5
1CC
100
AcDbEntity
  8
3
370
    50
100
AcDbLine
 10
169.61783
 20
-217.971881
 30
0.0
 11
169.61783
 21
-153.971881
 31
0.0
  0
LINE
  5
1CD
100
AcDbEntity
  8
3
370
    50
100
AcDbLine
 10
314.982385
 20
-153.971881
 30
0.0
 11
314.982385
 21
-201.971881
 31
0.0
  0
TEXT
  5
1CE
100
AcDbEntity
  8
3
370
    50
100
AcDbText
 10
331.624231
 20
-165.784048
 30
0.0
 40
7.0
  1
 　備　　考
 72
     5
 11
368.724231
 21
-165.784048
 31
0.0
100
AcDbText
  0
TEXT
  5
1CF
100
AcDbEntity
  8
3
370
    50
100
AcDbText
 10
256.738729
 20
-213.148794
 30
0.0
 40
7.0
  1
立水栓
 72
     5
 11
276.338729
 21
-213.148794
 31
0.0
100
AcDbText
  0
TEXT
  5
1D0
100
AcDbEntity
  8
3
370
    50
100
AcDbText
 10
319.86738
 20
-197.920324
 30
0.0
 40
7.0
  1
焼付塗装（黒色）
 72
     5
 11
374.46738
 21
-197.920324
 31
0.0
100
AcDbText
  0
TEXT
  5
1D1
100
AcDbEntity
  8
3
370
    50
100
AcDbText
 10
256.738729
 20
-197.148794
 30
0.0
 40
7.0
  1
立水栓
 72
     5
 11
276.338729
 21
-197.148794
 31
0.0
100
AcDbText
  0
TEXT
  5
1D2
100
AcDbEntity
  8
3
370
    50
100
AcDbText
 10
256.738729
 20
-181.148794
 30
0.0
 40
7.0
  1
立水栓
 72
     5
 11
276.338729
 21
-181.148794
 31
0.0
100
AcDbText
  0
TEXT
  5
1D3
100
AcDbEntity
  8
3
370
    50
100
AcDbText
 10
319.86738
 20
-181.920324
 30
0.0
 40
7.0
  1
焼付塗装（白色）
 72
     5
 11
374.46738
 21
-181.920324
 31
0.0
100
AcDbText
  0
TEXT
  5
1D4
100
AcDbEntity
  8
3
370
    50
100
AcDbText
 10
319.844301
 20
-213.148794
 30
0.0
 40
7.0
  1
ニッケルクロムメッキ
 72
     5
 11
388.444301
 21
-213.148794
 31
0.0
100
AcDbText
  0
TEXT
  5
1D5
100
AcDbEntity
  8
3
370
    50
100
AcDbText
 10
122.105837
 20
-212.180044
 30
0.0
 40
7.0
  1
５０２２２８
 72
     5
 11
162.705837
 21
-212.180044
 31
0.0
100
AcDbText
  0
TEXT
  5
1D6
100
AcDbEntity
  8
3
370
    50
100
AcDbText
 10
122.105837
 20
-196.180044
 30
0.0
 40
7.0
  1
５０２２２９
 72
     5
 11
162.705837
 21
-196.180044
 31
0.0
100
AcDbText
  0
TEXT
  5
1D7
100
AcDbEntity
  8
3
370
    50
100
AcDbText
 10
122.105837
 20
-180.180044
 30
0.0
 40
7.0
  1
５０２２３０
 72
     5
 11
162.705837
 21
-180.180044
 31
0.0
100
AcDbText
  0
TEXT
  5
1D8
100
AcDbEntity
  8
3
370
    50
100
AcDbText
 10
172.200082
 20
-181.107397
 30
0.0
 40
7.0
  1
ＭＬ０５４Ｌ－ＷＨ
 72
     5
 11
233.800082
 21
-181.107397
 31
0.0
100
AcDbText
  0
TEXT
  5
1D9
100
AcDbEntity
  8
3
370
    50
100
AcDbText
 10
172.200082
 20
-197.107397
 30
0.0
 40
7.0
  1
ＭＬ０５４Ｌ－ＢＬ
 72
     5
 11
233.800082
 21
-197.107397
 31
0.0
100
AcDbText
  0
TEXT
  5
1DA
100
AcDbEntity
  8
3
370
    50
100
AcDbText
 10
172.200082
 20
-213.107397
 30
0.0
 40
7.0
  1
ＭＬ０５４Ｌ
 72
     5
 11
212.800082
 21
-213.107397
 31
0.0
100
AcDbText
  0
TEXT
  5
1DB
100
AcDbEntity
  8
3
370
    50
100
AcDbText
 10
345.098131
 20
-256.100293
 30
0.0
 40
6.0
  1
１９　０５　３１
 72
     5
 11
391.898131
 21
-256.100293
 31
0.0
100
AcDbText
  0
TEXT
  5
1DC
100
AcDbEntity
  8
3
370
    50
100
AcDbText
 10
290.832582
 20
-240.013492
 30
0.0
 40
6.0
  1
１　２
 72
     5
 11
307.632582
 21
-240.013492
 31
0.0
100
AcDbText
  0
DIMENSION
  5
1DD
100
AcDbEntity
  8
3
370
    25
100
AcDbDimension
  2
*D8
 10
-111.553877
 20
-56.521969
 30
0.0
 11
-173.053877
 21
-52.021969
 31
0.0
 71
     0
 72
     0
 41
0.0
 42
0.0
  3
Standard
100
AcDbAlignedDimension
 13
-154.553877
 23
-109.361437
 33
0.0
 14
-111.553877
 24
-109.361437
 34
0.0
100
AcDbRotatedDimension
  0
DIMENSION
  5
1DE
100
AcDbEntity
  8
3
370
    25
100
AcDbDimension
  2
*D9
 10
-202.35997
 20
129.638563
 30
0.0
 11
-213.85997
 21
86.638563
 31
0.0
 71
     0
 72
     0
 41
0.0
 42
0.0
  3
Standard
100
AcDbAlignedDimension
 13
-202.35997
 23
108.638563
 33
0.0
 14
-202.35997
 24
129.638563
 34
0.0
 50
90.0
100
AcDbRotatedDimension
  0
DIMENSION
  5
1DF
100
AcDbEntity
  8
3
370
    25
100
AcDbDimension
  2
*D10
 10
-115.553877
 20
141.89624
 30
0.0
 11
-97.053877
 21
146.39624
 31
0.0
 71
     0
 72
     0
 41
0.0
 42
0.0
  3
Standard
100
AcDbAlignedDimension
 13
-150.553877
 23
141.89624
 33
0.0
 14
-115.553877
 24
141.89624
 34
0.0
100
AcDbRotatedDimension
  0
TEXT
  5
1E0
100
AcDbEntity
  8
3
370
    50
100
AcDbText
 10
231.849396
 20
-272.471375
 30
0.0
 40
7.0
  1
外観寸法図
 72
     5
 11
265.449396
 21
-272.471375
 31
0.0
100
AcDbText
  0
LINE
  5
1E1
100
AcDbEntity
  8
3
370
    25
  6
CENTER
100
AcDbLine
 10
193.54895
 20
119.575578
 30
0.0
 11
23.958271
 21
119.575578
 31
0.0
  0
ENDSEC
  0
SECTION
  2
OBJECTS
  0
DICTIONARY
  5
261
100
AcDbDictionary
280
     0
281
     1
  3
ACAD_GROUP
350
262
  3
ACAD_MLINESTYLE
350
263
  0
DICTIONARY
  5
262
102
{ACAD_REACTORS
330
261
102
}
100
AcDbDictionary
280
     0
281
     1
  0
DICTIONARY
  5
263
102
{ACAD_REACTORS
330
261
102
}
100
AcDbDictionary
280
     0
281
     1
  3
Standard
350
264
  0
MLINESTYLE
  5
264
102
{ACAD_REACTORS
330
263
102
}
100
AcDbMlineStyle
  2
Standard
 70
     0
  3

 62
     0
 51
90.0
 52
90.0
 71
     2
 49
0.5
 62
   256
  6
ByLayer
 49
-0.5
 62
   256
  6
ByLayer
  0
ENDSEC
  0
EOF
