  0
SECTION
  2
HEADER
  9
$ACADVER
  1
AC1015
  9
$ACADMAINTVER
 70
     6
  9
$DWGCODEPAGE
  3
ANSI_932
  9
$INSBASE
 10
0.0
 20
0.0
 30
0.0
  9
$EXTMIN
 10
-420.0
 20
-297.0
 30
1.000000E+20
  9
$EXTMAX
 10
420.0
 20
297.0
 30
-1.000000E+20
  9
$LIMMIN
 10
-420.0
 20
-297.0
  9
$LIMMAX
 10
420.0
 20
297.0
  9
$ORTHOMODE
 70
     0
  9
$REGENMODE
 70
     1
  9
$FILLMODE
 70
     1
  9
$QTEXTMODE
 70
     0
  9
$MIRRTEXT
 70
     1
  9
$LTSCALE
 40
1.0
  9
$ATTMODE
 70
     1
  9
$TEXTSIZE
 40
0.2
  9
$TRACEWID
 40
0.05
  9
$TEXTSTYLE
  7
STANDARD
  9
$CLAYER
  8
0
  9
$CELTYPE
  6
CONTINUOUS
  9
$CECOLOR
 62
   256
  9
$CELTSCALE
 40
1.0
  9
$DISPSILH
 70
     0
  9
$DIMSCALE
 40
2.0
  9
$DIMASZ
 40
2.0
  9
$DIMEXO
 40
1.0
  9
$DIMDLI
 40
0.38
  9
$DIMRND
 40
0.0
  9
$DIMDLE
 40
0.0
  9
$DIMEXE
 40
2.0
  9
$DIMTP
 40
0.0
  9
$DIMTM
 40
0.0
  9
$DIMTXT
 40
3.5
  9
$DIMCEN
 40
0.09
  9
$DIMTSZ
 40
0.0
  9
$DIMTOL
 70
     0
  9
$DIMLIM
 70
     0
  9
$DIMTIH
 70
     0
  9
$DIMTOH
 70
     0
  9
$DIMSE1
 70
     0
  9
$DIMSE2
 70
     0
  9
$DIMTAD
 70
     1
  9
$DIMZIN
 70
     0
  9
$DIMBLK
  1

  9
$DIMASO
 70
     1
  9
$DIMSHO
 70
     1
  9
$DIMPOST
  1

  9
$DIMAPOST
  1

  9
$DIMALT
 70
     0
  9
$DIMALTD
 70
     2
  9
$DIMALTF
 40
25.4
  9
$DIMLFAC
 40
1.0
  9
$DIMTOFL
 70
     0
  9
$DIMTVP
 40
0.0
  9
$DIMTIX
 70
     0
  9
$DIMSOXD
 70
     0
  9
$DIMSAH
 70
     0
  9
$DIMBLK1
  1

  9
$DIMBLK2
  1

  9
$DIMSTYLE
  2
Standard
  9
$DIMCLRD
 70
     0
  9
$DIMCLRE
 70
     0
  9
$DIMCLRT
 70
     0
  9
$DIMTFAC
 40
1.0
  9
$DIMGAP
 40
0.5
  9
$DIMJUST
 70
     0
  9
$DIMSD1
 70
     0
  9
$DIMSD2
 70
     0
  9
$DIMTOLJ
 70
     1
  9
$DIMTZIN
 70
     0
  9
$DIMALTZ
 70
     0
  9
$DIMALTTZ
 70
     0
  9
$DIMUPT
 70
     0
  9
$DIMDEC
 70
     3
  9
$DIMTDEC
 70
     4
  9
$DIMALTU
 70
     2
  9
$DIMALTTD
 70
     2
  9
$DIMTXSTY
  7
STANDARD
  9
$DIMAUNIT
 70
     0
  9
$DIMADEC
 70
     0
  9
$DIMALTRND
 40
0.0
  9
$DIMAZIN
 70
     0
  9
$DIMDSEP
 70
     0
  9
$DIMATFIT
 70
     3
  9
$DIMFRAC
 70
     0
  9
$DIMLDRBLK
  1

  9
$DIMLUNIT
 70
     2
  9
$DIMLWD
 70
     0
  9
$DIMLWE
 70
     0
  9
$DIMTMOVE
 70
     0
  9
$LUNITS
 70
     2
  9
$LUPREC
 70
     4
  9
$SKETCHINC
 40
0.1
  9
$FILLETRAD
 40
0.0
  9
$AUNITS
 70
     0
  9
$AUPREC
 70
     0
  9
$MENU
  1
acad
  9
$ELEVATION
 40
0.0
  9
$PELEVATION
 40
0.0
  9
$THICKNESS
 40
0.0
  9
$LIMCHECK
 70
     0
  9
$CHAMFERA
 40
0.0
  9
$CHAMFERB
 40
0.0
  9
$CHAMFERC
 40
0.0
  9
$CHAMFERD
 40
0.0
  9
$SKPOLY
 70
     0
  9
$TDCREATE
 40
2454289.000000000
  9
$TDUCREATE
 40
0.000000000
  9
$TDUPDATE
 40
0.000000000
  9
$TDUUPDATE
 40
2447892.625000000
  9
$TDINDWG
 40
0.0000000000
  9
$TDUSRTIMER
 40
0.0000000000
  9
$USRTIMER
 70
     1
  9
$ANGBASE
 50
0.0
  9
$ANGDIR
 70
     0
  9
$PDMODE
 70
     0
  9
$PDSIZE
 40
0.0
  9
$PLINEWID
 40
0.0
  9
$SPLFRAME
 70
     0
  9
$SPLINETYPE
 70
     6
  9
$SPLINESEGS
 70
     8
  9
$HANDSEED
  5
2E5
  9
$SURFTAB1
 70
     6
  9
$SURFTAB2
 70
     6
  9
$SURFTYPE
 70
     6
  9
$SURFU
 70
     6
  9
$SURFV
 70
     6
  9
$UCSBASE
  2

  9
$UCSNAME
  2

  9
$UCSORG
 10
0.0
 20
0.0
 30
0.0
  9
$UCSXDIR
 10
1.0
 20
0.0
 30
0.0
  9
$UCSYDIR
 10
0.0
 20
1.0
 30
0.0
  9
$UCSORTHOREF
  2

  9
$UCSORTHOVIEW
 70
     0
  9
$UCSORGTOP
 10
0.0
 20
0.0
 30
0.0
  9
$UCSORGBOTTOM
 10
0.0
 20
0.0
 30
0.0
  9
$UCSORGLEFT
 10
0.0
 20
0.0
 30
0.0
  9
$UCSORGRIGHT
 10
0.0
 20
0.0
 30
0.0
  9
$UCSORGFRONT
 10
0.0
 20
0.0
 30
0.0
  9
$UCSORGBACK
 10
0.0
 20
0.0
 30
0.0
  9
$PUCSBASE
  2

  9
$PUCSNAME
  2

  9
$PUCSORG
 10
0.0
 20
0.0
 30
0.0
  9
$PUCSXDIR
 10
1.0
 20
0.0
 30
0.0
  9
$PUCSYDIR
 10
0.0
 20
1.0
 30
0.0
  9
$PUCSORTHOREF
  2

  9
$PUCSORTHOVIEW
 70
     0
  9
$PUCSORGTOP
 10
0.0
 20
0.0
 30
0.0
  9
$PUCSORGBOTTOM
 10
0.0
 20
0.0
 30
0.0
  9
$PUCSORGLEFT
 10
0.0
 20
0.0
 30
0.0
  9
$PUCSORGRIGHT
 10
0.0
 20
0.0
 30
0.0
  9
$PUCSORGFRONT
 10
0.0
 20
0.0
 30
0.0
  9
$PUCSORGBACK
 10
0.0
 20
0.0
 30
0.0
  9
$USERI1
 70
     0
  9
$USERI2
 70
     0
  9
$USERI3
 70
     0
  9
$USERI4
 70
     0
  9
$USERI5
 70
     0
  9
$USERR1
 40
0.0
  9
$USERR2
 40
0.0
  9
$USERR3
 40
0.0
  9
$USERR4
 40
0.0
  9
$USERR5
 40
0.0
  9
$WORLDVIEW
 70
     1
  9
$SHADEDGE
 70
     3
  9
$SHADEDIF
 70
    70
  9
$TILEMODE
 70
     1
  9
$MAXACTVP
 70
    16
  9
$PINSBASE
 10
0.0
 20
0.0
 30
0.0
  9
$PLIMCHECK
 70
     0
  9
$PEXTMIN
 10
1.000000E+20
 20
1.000000E+20
 30
1.000000E+20
  9
$PEXTMAX
 10
-1.000000E+20
 20
-1.000000E+20
 30
-1.000000E+20
  9
$PLIMMIN
 10
0.0
 20
0.0
  9
$PLIMMAX
 10
12.0
 20
9.0
  9
$UNITMODE
 70
     0
  9
$VISRETAIN
 70
     0
  9
$PLINEGEN
 70
     1
  9
$PSLTSCALE
 70
     0
  9
$TREEDEPTH
 70
  3020
  9
$CMLSTYLE
  2
Standard
  9
$CMLJUST
 70
     0
  9
$CMLSCALE
 40
1.0
  9
$PROXYGRAPHICS
 70
     0
  9
$MEASUREMENT
 70
     0
  9
$CELWEIGHT
370
     0
  9
$ENDCAPS
280
     0
  9
$JOINSTYLE
280
     0
  9
$LWDISPLAY
290
     0
  9
$INSUNITS
 70
     0
  9
$HYPERLINKBASE
  1

  9
$STYLESHEET
  1

  9
$XEDIT
290
     1
  9
$CEPSNTYPE
380
     0
  9
$PSTYLEMODE
290
     1
  9
$FINGERPRINTGUID
  2

  9
$VERSIONGUID
  2

  9
$EXTNAMES
290
     1
  9
$PSVPSCALE
 40
0.0
  0
ENDSEC
  0
SECTION
  2
CLASSES
  0
CLASS
  1
LWPOLYLINE
  2
AcDbPolyline
  3
AutoCAD 2000
 90
        0
280
     0
281
     1
  0
CLASS
  1
IMAGE
  2
AcDbRasterImage
  3
ISM
 90
      127
280
     0
281
     1
  0
CLASS
  1
OLE2FRAME
  2
AcDbOle2Frame
  3
AutoCAD 2000
 90
        0
280
     0
281
     1
  0
CLASS
  1
HATCH
  2
AcDbHatch
  3
AutoCAD 2000
 90
        0
280
     0
281
     1
  0
CLASS
  1
DICTIONARYVAR
  2
AcDbDictionaryVar
  3
AutoCAD 2000
 90
        0
280
     0
281
     0
  0
CLASS
  1
RASTERVARIABLES
  2
AcDbRasterVariables
  3
ISM
 90
        0
280
     0
281
     0
  0
CLASS
  1
IMAGEDEF
  2
AcDbRasterImageDef
  3
ISM
 90
        0
280
     0
281
     0
  0
CLASS
  1
IMAGEDEF_REACTOR
  2
AcDbRasterImageDefReactor
  3
ISM
 90
        1
280
     0
281
     0
  0
CLASS
  1
IDBUFFER
  2
AcDbIdBuffer
  3
AutoCAD 2000
 90
        0
280
     0
281
     0
  0
CLASS
  1
SPATIAL_FILTER
  2
AcDbSpatialFilter
  3
AutoCAD 2000
 90
        0
280
     0
281
     0
  0
CLASS
  1
XRECORD
  2
AcDbXrecord
  3
AutoCAD 2000
 90
        0
280
     0
281
     0
  0
CLASS
  1
SORTENTSTABLE
  2
AcDbSortentsTable
  3
AutoCAD 2000
 90
        0
280
     0
281
     0
  0
CLASS
  1
LAYER_INDEX
  2
AcDbLayerIndex
  3
AutoCAD 2000
 90
        0
280
     0
281
     0
  0
CLASS
  1
SPATIAL_INDEX
  2
AcDbSpatialIndex
  3
AutoCAD 2000
 90
        0
280
     0
281
     0
  0
CLASS
  1
OBJECT_PTR
  2
CAseDLPNTableRecord
  3
"ASE-LPNTableRecord"
 90
        1
280
     0
281
     0
  0
CLASS
  1
LAYOUT
  2
AcDbLayout
  3
AutoCAD 2000
 90
        0
280
     0
281
     0
  0
CLASS
  1
PLOTSETTINGS
  2
AcDbPlotSettings
  3
AutoCAD 2000
 90
        0
280
     0
281
     0
  0
CLASS
  1
ACDBDICTIONARYWDFLT
  2
AcDbDictionaryWithDefault
  3
AutoCAD 2000
 90
        0
280
     0
281
     0
  0
CLASS
  1
ACDBPLACEHOLDER
  2
AcDbPlaceHolder
  3
AutoCAD 2000
 90
        0
280
     0
281
     0
  0
CLASS
  1
VBA_PROJECT
  2
AcDbVbaProject
  3
acadvba
 90
        0
280
     0
281
     0
  0
CLASS
  1
WIPEOUT
  2
AcDbWipeout
  3
WipeOut|AutoCAD Express Tool|expresstools@autodesk.com
 90
      127
280
     0
281
     1
  0
CLASS
  1
WIPEOUTVARIABLES
  2
AcDbWipeoutVariables
  3
WipeOut|AutoCAD Express Tool|expresstools@autodesk.com
 90
        0
280
     0
281
     0
  0
CLASS
  1
RTEXT
  2
RText
  3
RText|AutoCAD Express Tool|expresstools@autodesk.com
 90
        0
280
     0
281
     1
  0
CLASS
  1
ARCALIGNEDTEXT
  2
AcDbArcAlignedText
  3
ATEXT|AutoCAD Express Tool|expresstools@autodesk.com
 90
        0
280
     0
281
     1
  0
ENDSEC
  0
SECTION
  2
TABLES
  0
TABLE
  2
VPORT
  5
6
100
AcDbSymbolTable
 70
     1
  0
VPORT
  5
19
100
AcDbSymbolTableRecord
100
AcDbViewportTableRecord
  2
*ACTIVE
 70
     0
 10
0.0
 20
0.0
 11
1.0
 21
1.0
 12
0.0
 22
0.0
 13
0.0
 23
0.0
 14
1.0
 24
1.0
 15
0.0
 25
0.0
 16
0.0
 26
0.0
 36
1.0
 17
0.0
 27
0.0
 37
0.0
 40
594.0
 41
1.414141
 42
50.0
 43
0.0
 44
0.0
 50
0.0
 51
0.0
 71
     0
 72
   500
 73
     1
 74
     1
 75
     0
 76
     0
 77
     0
 78
     0
281
     0
 65
     0
110
0.0
120
0.0
130
0.0
111
1.0
121
0.0
131
0.0
112
0.0
122
1.0
132
0.0
345
0
346
0
 79
     0
146
0.0
  0
ENDTAB
  0
TABLE
  2
LTYPE
  5
3
100
AcDbSymbolTable
 70
     9
  0
LTYPE
  5
C
100
AcDbSymbolTableRecord
100
AcDbLinetypeTableRecord
  2
ByBlock
 70
    64
  3

 72
    65
 73
     0
 40
0.0
  0
LTYPE
  5
D
100
AcDbSymbolTableRecord
100
AcDbLinetypeTableRecord
  2
ByLayer
 70
    64
  3

 72
    65
 73
     0
 40
0.0
  0
LTYPE
  5
E
100
AcDbSymbolTableRecord
100
AcDbLinetypeTableRecord
  2
CONTINUOUS
 70
     0
  3
Solid line
 72
    65
 73
     0
 40
0.0
  0
LTYPE
  5
F
100
AcDbSymbolTableRecord
100
AcDbLinetypeTableRecord
  2
DASHED
 70
     0
  3
__ __ __ __ __ __ __ __ __ __ __ __ __ __ __
 72
    65
 73
     2
 40
2.0
 49
1.2
 74
     0
 49
-0.8
 74
     0
  0
LTYPE
  5
10
100
AcDbSymbolTableRecord
100
AcDbLinetypeTableRecord
  2
CENTER
 70
     0
  3
____ _ ____ _ ____ _ ____ _ ____ _ ____ _ ____
 72
    65
 73
     4
 40
12.0
 49
9.0
 74
     0
 49
-1.0
 74
     0
 49
1.0
 74
     0
 49
-1.0
 74
     0
  0
LTYPE
  5
11
100
AcDbSymbolTableRecord
100
AcDbLinetypeTableRecord
  2
HIDDEN
 70
     0
  3
_ _ _ _ _ _ _ _ _ _ _ _ _ _ _ _ _ _ _ _ _ _ _
 72
    65
 73
     2
 40
3.2
 49
2.4
 74
     0
 49
-0.8
 74
     0
  0
LTYPE
  5
12
100
AcDbSymbolTableRecord
100
AcDbLinetypeTableRecord
  2
PHANTOM
 70
     0
  3
_____ _ _ _____ _ _ _____ _ _ _____ _ _ _____
 72
    65
 73
     6
 40
13.5
 49
9.0
 74
     0
 49
-1.0
 74
     0
 49
1.0
 74
     0
 49
-0.5
 74
     0
 49
1.0
 74
     0
 49
-1.0
 74
     0
  0
LTYPE
  5
13
100
AcDbSymbolTableRecord
100
AcDbLinetypeTableRecord
  2
DOT
 70
     0
  3
...............................................
 72
    65
 73
     2
 40
1.0
 49
0.5
 74
     0
 49
-0.5
 74
     0
  0
LTYPE
  5
14
100
AcDbSymbolTableRecord
100
AcDbLinetypeTableRecord
  2
DASHDOT
 70
     0
  3
__ . __ . __ . __ . __ . __ . __ . __ . __ . __
 72
    65
 73
     4
 40
8.0
 49
5.0
 74
     0
 49
-1.0
 74
     0
 49
1.0
 74
     0
 49
-1.0
 74
     0
  0
ENDTAB
  0
TABLE
  2
LAYER
  5
1
100
AcDbSymbolTable
 70
     4
  0
LAYER
  5
15
100
AcDbSymbolTableRecord
100
AcDbLayerTableRecord
  2
0
 70
     0
 62
     7
  6
CONTINUOUS
290
     1
370
    -3
390
0
  0
LAYER
  5
16
100
AcDbSymbolTableRecord
100
AcDbLayerTableRecord
  2
1
 70
     0
 62
     7
  6
CONTINUOUS
290
     1
370
    -3
390
0
  0
LAYER
  5
17
100
AcDbSymbolTableRecord
100
AcDbLayerTableRecord
  2
2
 70
     0
 62
     7
  6
CONTINUOUS
290
     1
370
    -3
390
0
  0
LAYER
  5
18
100
AcDbSymbolTableRecord
100
AcDbLayerTableRecord
  2
3
 70
     0
 62
     7
  6
CONTINUOUS
290
     1
370
    -3
390
0
  0
ENDTAB
  0
TABLE
  2
STYLE
  5
2
100
AcDbSymbolTable
 70
     1
  0
STYLE
  5
1B
100
AcDbSymbolTableRecord
100
AcDbTextStyleTableRecord
  2
STANDARD
 70
    64
 40
0.0
 41
1.0
 50
0.0
 71
     0
 42
1.0
  3
txt
  4
BIGFONT
  0
ENDTAB
  0
TABLE
  2
VIEW
  5
4
100
AcDbSymbolTable
 70
     0
  0
ENDTAB
  0
TABLE
  2
UCS
  5
5
100
AcDbSymbolTable
 70
     0
  0
ENDTAB
  0
TABLE
  2
APPID
  5
7
100
AcDbSymbolTable
 70
     1
  0
APPID
  5
1A
100
AcDbSymbolTableRecord
100
AcDbRegAppTableRecord
  2
ACAD
 70
     0
  0
ENDTAB
  0
TABLE
  2
DIMSTYLE
  5
8
100
AcDbSymbolTable
 70
     1
100
AcDbDimStyleTable
 71
     0
  0
DIMSTYLE
105
2E
100
AcDbSymbolTableRecord
100
AcDbDimStyleTableRecord
  2
Standard
 70
     0
  3

  4

 40
2.0
 41
2.0
 42
1.0
 43
0.38
 44
2.0
 45
0.0
 46
0.0
 47
0.0
 48
0.0
 71
     0
 72
     0
 73
     0
 74
     0
 75
     0
 76
     0
 77
     1
 78
     0
 79
     0
140
3.5
141
0.09
142
0.0
143
25.4
144
1.0
145
0.0
146
1.0
147
0.5
148
0.0
170
     0
171
     2
172
     0
173
     0
174
     0
175
     0
176
     0
177
     0
178
     0
179
     0
271
     3
272
     4
273
     2
274
     2
275
     0
276
     0
277
     2
278
    46
279
     0
280
     0
281
     0
282
     0
283
     1
284
     0
285
     0
286
     0
288
     0
289
     3
340
1B
341
0
342
0
343
0
344
0
371
    -2
372
    -2
  0
ENDTAB
  0
TABLE
  2
BLOCK_RECORD
  5
29
100
AcDbSymbolTable
 70
    11
  0
BLOCK_RECORD
  5
27
100
AcDbSymbolTableRecord
100
AcDbBlockTableRecord
  2
*Model_Space
340
0
  0
BLOCK_RECORD
  5
28
100
AcDbSymbolTableRecord
100
AcDbBlockTableRecord
  2
*Paper_Space
340
0
  0
BLOCK_RECORD
  5
1C
100
AcDbSymbolTableRecord
100
AcDbBlockTableRecord
  2
*D0
340
0
  0
BLOCK_RECORD
  5
1D
100
AcDbSymbolTableRecord
100
AcDbBlockTableRecord
  2
*D1
340
0
  0
BLOCK_RECORD
  5
1E
100
AcDbSymbolTableRecord
100
AcDbBlockTableRecord
  2
*D2
340
0
  0
BLOCK_RECORD
  5
1F
100
AcDbSymbolTableRecord
100
AcDbBlockTableRecord
  2
*D3
340
0
  0
BLOCK_RECORD
  5
20
100
AcDbSymbolTableRecord
100
AcDbBlockTableRecord
  2
*D4
340
0
  0
BLOCK_RECORD
  5
21
100
AcDbSymbolTableRecord
100
AcDbBlockTableRecord
  2
*D5
340
0
  0
BLOCK_RECORD
  5
22
100
AcDbSymbolTableRecord
100
AcDbBlockTableRecord
  2
*D6
340
0
  0
BLOCK_RECORD
  5
23
100
AcDbSymbolTableRecord
100
AcDbBlockTableRecord
  2
*D7
340
0
  0
BLOCK_RECORD
  5
24
100
AcDbSymbolTableRecord
100
AcDbBlockTableRecord
  2
*D8
340
0
  0
BLOCK_RECORD
  5
25
100
AcDbSymbolTableRecord
100
AcDbBlockTableRecord
  2
*D9
340
0
  0
BLOCK_RECORD
  5
26
100
AcDbSymbolTableRecord
100
AcDbBlockTableRecord
  2
*D10
340
0
  0
ENDTAB
  0
ENDSEC
  0
SECTION
  2
BLOCKS
  0
BLOCK
  5
2A
100
AcDbEntity
  8
0
390
0
100
AcDbBlockBegin
  2
*Model_Space
 70
     0
 10
0.0
 20
0.0
 30
0.0
  3
*Model_Space
  1

  0
ENDBLK
  5
2B
100
AcDbEntity
  8
0
390
0
100
AcDbBlockEnd
  0
BLOCK
  5
2C
100
AcDbEntity
 67
     1
  8
0
390
0
100
AcDbBlockBegin
  2
*Paper_Space
 70
     0
 10
0.0
 20
0.0
 30
0.0
  3
*Paper_Space
  1

  0
ENDBLK
  5
2D
100
AcDbEntity
 67
     1
  8
0
390
0
100
AcDbBlockEnd
  0
BLOCK
  5
261
100
AcDbEntity
  8
3
100
AcDbBlockBegin
  2
*D0
 70
     1
 10
0.0
 20
0.0
 30
0.0
  3
*D0
  1

  0
LINE
  5
262
100
AcDbEntity
  8
3
370
    25
100
AcDbLine
 10
71.111408
 20
91.141037
 30
0.0
 11
71.111408
 21
105.210464
 31
0.0
  0
LINE
  5
263
100
AcDbEntity
  8
3
370
    25
100
AcDbLine
 10
71.111408
 20
103.210464
 30
0.0
 11
74.975112
 21
102.175188
 31
0.0
  0
LINE
  5
264
100
AcDbEntity
  8
3
370
    25
100
AcDbLine
 10
71.111408
 20
103.210464
 30
0.0
 11
74.975112
 21
104.245741
 31
0.0
  0
LINE
  5
265
100
AcDbEntity
  8
3
370
    25
100
AcDbLine
 10
74.975112
 20
102.175188
 30
0.0
 11
74.975112
 21
104.245741
 31
0.0
  0
LINE
  5
266
100
AcDbEntity
  8
3
370
    25
100
AcDbLine
 10
71.111408
 20
103.210464
 30
0.0
 11
96.702291
 21
103.210464
 31
0.0
  0
LINE
  5
267
100
AcDbEntity
  8
3
370
    25
100
AcDbLine
 10
96.702291
 20
103.210464
 30
0.0
 11
92.838587
 21
104.245741
 31
0.0
  0
LINE
  5
268
100
AcDbEntity
  8
3
370
    25
100
AcDbLine
 10
96.702291
 20
103.210464
 30
0.0
 11
92.838587
 21
102.175188
 31
0.0
  0
LINE
  5
269
100
AcDbEntity
  8
3
370
    25
100
AcDbLine
 10
92.838587
 20
104.245741
 30
0.0
 11
92.838587
 21
102.175188
 31
0.0
  0
LINE
  5
26A
100
AcDbEntity
  8
3
370
    25
100
AcDbLine
 10
96.702291
 20
81.129964
 30
0.0
 11
96.702291
 21
105.210464
 31
0.0
  0
ENDBLK
  5
26B
100
AcDbEntity
  8
3
100
AcDbBlockEnd
  0
BLOCK
  5
26C
100
AcDbEntity
  8
3
100
AcDbBlockBegin
  2
*D1
 70
     1
 10
0.0
 20
0.0
 30
0.0
  3
*D1
  1

  0
TEXT
  5
26D
100
AcDbEntity
  8
3
370
    25
100
AcDbText
 10
-19.672157
 20
91.249453
 30
0.0
 40
7.0
  1
２２゜
 50
79.0
 72
     5
 11
-15.932301
 21
110.489346
 31
0.0
100
AcDbText
  0
LINE
  5
26E
100
AcDbEntity
  8
3
370
    25
100
AcDbLine
 10
6.65797
 20
111.196092
 30
0.0
 11
-13.445501
 21
119.318422
 31
0.0
  0
LINE
  5
26F
100
AcDbEntity
  8
3
370
    25
100
AcDbLine
 10
-6.888415
 20
83.505983
 30
0.0
 11
-20.406733
 21
83.505983
 31
0.0
  0
LINE
  5
270
100
AcDbEntity
  8
3
370
    25
100
AcDbLine
 10
-11.591133
 20
118.569208
 30
0.0
 11
-13.931947
 21
115.325662
 31
0.0
  0
LINE
  5
271
100
AcDbEntity
  8
3
370
    25
100
AcDbLine
 10
-11.591133
 20
118.569208
 30
0.0
 11
-11.996564
 21
114.589808
 31
0.0
  0
LINE
  5
272
100
AcDbEntity
  8
3
370
    25
100
AcDbLine
 10
-13.931947
 20
115.325662
 30
0.0
 11
-11.996564
 21
114.589808
 31
0.0
  0
LINE
  5
273
100
AcDbEntity
  8
3
370
    25
100
AcDbLine
 10
-18.406733
 20
83.505983
 30
0.0
 11
-17.291933
 21
87.347496
 31
0.0
  0
LINE
  5
274
100
AcDbEntity
  8
3
370
    25
100
AcDbLine
 10
-18.406733
 20
83.505983
 30
0.0
 11
-19.362044
 21
87.390231
 31
0.0
  0
LINE
  5
275
100
AcDbEntity
  8
3
370
    25
100
AcDbLine
 10
-17.291933
 20
87.347496
 30
0.0
 11
-19.362044
 21
87.390231
 31
0.0
  0
ARC
  5
276
100
AcDbEntity
  8
3
370
    25
100
AcDbCircle
 10
75.193395
 20
83.505983
 30
0.0
 40
93.600128
100
AcDbArc
 50
158.0
 51
180.0
  0
ENDBLK
  5
277
100
AcDbEntity
  8
3
100
AcDbBlockEnd
  0
BLOCK
  5
278
100
AcDbEntity
  8
3
100
AcDbBlockBegin
  2
*D2
 70
     1
 10
0.0
 20
0.0
 30
0.0
  3
*D2
  1

  0
TEXT
  5
279
100
AcDbEntity
  8
3
370
    25
100
AcDbText
 10
96.611408
 20
45.626221
 30
0.0
 40
7.0
  1
φ３５
 72
     5
 11
116.211408
 21
45.626221
 31
0.0
100
AcDbText
  0
LINE
  5
27A
100
AcDbEntity
  8
3
370
    25
100
AcDbLine
 10
53.611408
 20
44.626221
 30
0.0
 11
49.747705
 21
45.661497
 31
0.0
  0
LINE
  5
27B
100
AcDbEntity
  8
3
370
    25
100
AcDbLine
 10
53.611408
 20
44.626221
 30
0.0
 11
49.747705
 21
43.590945
 31
0.0
  0
LINE
  5
27C
100
AcDbEntity
  8
3
370
    25
100
AcDbLine
 10
49.747705
 20
45.661497
 30
0.0
 11
49.747705
 21
43.590945
 31
0.0
  0
LINE
  5
27D
100
AcDbEntity
  8
3
370
    25
100
AcDbLine
 10
43.611408
 20
44.626221
 30
0.0
 11
117.611408
 21
44.626221
 31
0.0
  0
LINE
  5
27E
100
AcDbEntity
  8
3
370
    25
100
AcDbLine
 10
88.611408
 20
44.626221
 30
0.0
 11
92.475112
 21
43.590945
 31
0.0
  0
LINE
  5
27F
100
AcDbEntity
  8
3
370
    25
100
AcDbLine
 10
88.611408
 20
44.626221
 30
0.0
 11
92.475112
 21
45.661497
 31
0.0
  0
LINE
  5
280
100
AcDbEntity
  8
3
370
    25
100
AcDbLine
 10
92.475112
 20
43.590945
 30
0.0
 11
92.475112
 21
45.661497
 31
0.0
  0
ENDBLK
  5
281
100
AcDbEntity
  8
3
100
AcDbBlockEnd
  0
BLOCK
  5
282
100
AcDbEntity
  8
3
100
AcDbBlockBegin
  2
*D3
 70
     1
 10
0.0
 20
0.0
 30
0.0
  3
*D3
  1

  0
TEXT
  5
283
100
AcDbEntity
  8
3
370
    25
100
AcDbText
 10
2.411232
 20
-18.594017
 30
0.0
 40
7.0
  1
φ２１
 50
90.0
 72
     5
 11
2.411232
 21
1.005983
 31
0.0
100
AcDbText
  0
LINE
  5
284
100
AcDbEntity
  8
3
370
    25
100
AcDbLine
 10
51.611408
 20
31.405983
 30
0.0
 11
1.411232
 21
31.405983
 31
0.0
  0
LINE
  5
285
100
AcDbEntity
  8
3
370
    25
100
AcDbLine
 10
3.411232
 20
31.405983
 30
0.0
 11
4.446508
 21
35.269687
 31
0.0
  0
LINE
  5
286
100
AcDbEntity
  8
3
370
    25
100
AcDbLine
 10
3.411232
 20
31.405983
 30
0.0
 11
2.375956
 21
35.269687
 31
0.0
  0
LINE
  5
287
100
AcDbEntity
  8
3
370
    25
100
AcDbLine
 10
4.446508
 20
35.269687
 30
0.0
 11
2.375956
 21
35.269687
 31
0.0
  0
LINE
  5
288
100
AcDbEntity
  8
3
370
    25
100
AcDbLine
 10
3.411232
 20
41.405983
 30
0.0
 11
3.411232
 21
-18.594017
 31
0.0
  0
LINE
  5
289
100
AcDbEntity
  8
3
370
    25
100
AcDbLine
 10
3.411232
 20
10.405983
 30
0.0
 11
2.375956
 21
6.54228
 31
0.0
  0
LINE
  5
28A
100
AcDbEntity
  8
3
370
    25
100
AcDbLine
 10
3.411232
 20
10.405983
 30
0.0
 11
4.446508
 21
6.54228
 31
0.0
  0
LINE
  5
28B
100
AcDbEntity
  8
3
370
    25
100
AcDbLine
 10
2.375956
 20
6.54228
 30
0.0
 11
4.446508
 21
6.54228
 31
0.0
  0
LINE
  5
28C
100
AcDbEntity
  8
3
370
    25
100
AcDbLine
 10
51.611408
 20
10.405983
 30
0.0
 11
1.411232
 21
10.405983
 31
0.0
  0
ENDBLK
  5
28D
100
AcDbEntity
  8
3
100
AcDbBlockEnd
  0
BLOCK
  5
28E
100
AcDbEntity
  8
3
100
AcDbBlockBegin
  2
*D4
 70
     1
 10
0.0
 20
0.0
 30
0.0
  3
*D4
  1

  0
TEXT
  5
28F
100
AcDbEntity
  8
3
370
    25
100
AcDbText
 10
-67.514127
 20
-21.434362
 30
0.0
 40
7.0
  1
２０゜
 50
350.0
 72
     5
 11
-48.211895
 21
-24.837866
 31
0.0
100
AcDbText
  0
LINE
  5
290
100
AcDbEntity
  8
3
370
    25
100
AcDbLine
 10
-52.887226
 20
3.051823
 30
0.0
 11
-63.01914
 21
-24.785382
 31
0.0
  0
LINE
  5
291
100
AcDbEntity
  8
3
370
    25
100
AcDbLine
 10
-52.203186
 20
2.931209
 30
0.0
 11
-52.203186
 21
-26.692526
 31
0.0
  0
LINE
  5
292
100
AcDbEntity
  8
3
370
    25
100
AcDbLine
 10
-62.3351
 20
-22.905997
 30
0.0
 11
-58.915848
 21
-24.981741
 31
0.0
  0
LINE
  5
293
100
AcDbEntity
  8
3
370
    25
100
AcDbLine
 10
-62.3351
 20
-22.905997
 30
0.0
 11
-58.336069
 21
-22.994018
 31
0.0
  0
LINE
  5
294
100
AcDbEntity
  8
3
370
    25
100
AcDbLine
 10
-58.915848
 20
-24.981741
 30
0.0
 11
-58.336069
 21
-22.994018
 31
0.0
  0
LINE
  5
295
100
AcDbEntity
  8
3
370
    25
100
AcDbLine
 10
-52.203186
 20
-24.692526
 30
0.0
 11
-55.991151
 21
-23.40749
 31
0.0
  0
LINE
  5
296
100
AcDbEntity
  8
3
370
    25
100
AcDbLine
 10
-52.203186
 20
-24.692526
 30
0.0
 11
-56.126178
 21
-25.473635
 31
0.0
  0
LINE
  5
297
100
AcDbEntity
  8
3
370
    25
100
AcDbLine
 10
-55.991151
 20
-23.40749
 30
0.0
 11
-56.126178
 21
-25.473635
 31
0.0
  0
ARC
  5
298
100
AcDbEntity
  8
3
370
    25
100
AcDbCircle
 10
-52.203186
 20
4.931209
 30
0.0
 40
29.623735
100
AcDbArc
 50
250.0
 51
270.0
  0
ENDBLK
  5
299
100
AcDbEntity
  8
3
100
AcDbBlockEnd
  0
BLOCK
  5
29A
100
AcDbEntity
  8
3
100
AcDbBlockBegin
  2
*D5
 70
     1
 10
0.0
 20
0.0
 30
0.0
  3
*D5
  1

  0
TEXT
  5
29B
100
AcDbEntity
  8
3
370
    25
100
AcDbText
 10
-79.110764
 20
-31.831417
 30
0.0
 40
7.0
  1
６０
 50
90.0
 72
     5
 11
-79.110764
 21
-19.231417
 31
0.0
100
AcDbText
  0
LINE
  5
29C
100
AcDbEntity
  8
3
370
    25
100
AcDbLine
 10
48.111408
 20
-54.594017
 30
0.0
 11
-80.110764
 21
-54.594017
 31
0.0
  0
LINE
  5
29D
100
AcDbEntity
  8
3
370
    25
100
AcDbLine
 10
-78.110764
 20
-54.594017
 30
0.0
 11
-77.075487
 21
-50.730313
 31
0.0
  0
LINE
  5
29E
100
AcDbEntity
  8
3
370
    25
100
AcDbLine
 10
-78.110764
 20
-54.594017
 30
0.0
 11
-79.14604
 21
-50.730313
 31
0.0
  0
LINE
  5
29F
100
AcDbEntity
  8
3
370
    25
100
AcDbLine
 10
-77.075487
 20
-50.730313
 30
0.0
 11
-79.14604
 21
-50.730313
 31
0.0
  0
LINE
  5
2A0
100
AcDbEntity
  8
3
370
    25
100
AcDbLine
 10
-78.110764
 20
-54.594017
 30
0.0
 11
-78.110764
 21
4.931183
 31
0.0
  0
LINE
  5
2A1
100
AcDbEntity
  8
3
370
    25
100
AcDbLine
 10
-78.110764
 20
4.931183
 30
0.0
 11
-79.14604
 21
1.06748
 31
0.0
  0
LINE
  5
2A2
100
AcDbEntity
  8
3
370
    25
100
AcDbLine
 10
-78.110764
 20
4.931183
 30
0.0
 11
-77.075487
 21
1.06748
 31
0.0
  0
LINE
  5
2A3
100
AcDbEntity
  8
3
370
    25
100
AcDbLine
 10
-79.14604
 20
1.06748
 30
0.0
 11
-77.075487
 21
1.06748
 31
0.0
  0
LINE
  5
2A4
100
AcDbEntity
  8
3
370
    25
100
AcDbLine
 10
-54.203117
 20
4.931183
 30
0.0
 11
-80.110764
 21
4.931183
 31
0.0
  0
ENDBLK
  5
2A5
100
AcDbEntity
  8
3
100
AcDbBlockEnd
  0
BLOCK
  5
2A6
100
AcDbEntity
  8
3
100
AcDbBlockBegin
  2
*D6
 70
     1
 10
0.0
 20
0.0
 30
0.0
  3
*D6
  1

  0
TEXT
  5
2A7
100
AcDbEntity
  8
3
370
    25
100
AcDbText
 10
-102.393021
 20
3.855983
 30
0.0
 40
7.0
  1
１３８
 50
90.0
 72
     5
 11
-102.393021
 21
23.455983
 31
0.0
100
AcDbText
  0
LINE
  5
2A8
100
AcDbEntity
  8
3
370
    25
100
AcDbLine
 10
48.111408
 20
-54.594017
 30
0.0
 11
-103.393021
 21
-54.594017
 31
0.0
  0
LINE
  5
2A9
100
AcDbEntity
  8
3
370
    25
100
AcDbLine
 10
-101.393021
 20
-54.594017
 30
0.0
 11
-100.357744
 21
-50.730313
 31
0.0
  0
LINE
  5
2AA
100
AcDbEntity
  8
3
370
    25
100
AcDbLine
 10
-101.393021
 20
-54.594017
 30
0.0
 11
-102.428297
 21
-50.730313
 31
0.0
  0
LINE
  5
2AB
100
AcDbEntity
  8
3
370
    25
100
AcDbLine
 10
-100.357744
 20
-50.730313
 30
0.0
 11
-102.428297
 21
-50.730313
 31
0.0
  0
LINE
  5
2AC
100
AcDbEntity
  8
3
370
    25
100
AcDbLine
 10
-101.393021
 20
-54.594017
 30
0.0
 11
-101.393021
 21
83.305983
 31
0.0
  0
LINE
  5
2AD
100
AcDbEntity
  8
3
370
    25
100
AcDbLine
 10
-101.393021
 20
83.305983
 30
0.0
 11
-102.428297
 21
79.44228
 31
0.0
  0
LINE
  5
2AE
100
AcDbEntity
  8
3
370
    25
100
AcDbLine
 10
-101.393021
 20
83.305983
 30
0.0
 11
-100.357744
 21
79.44228
 31
0.0
  0
LINE
  5
2AF
100
AcDbEntity
  8
3
370
    25
100
AcDbLine
 10
-102.428297
 20
79.44228
 30
0.0
 11
-100.357744
 21
79.44228
 31
0.0
  0
LINE
  5
2B0
100
AcDbEntity
  8
3
370
    25
100
AcDbLine
 10
-6.888415
 20
83.305983
 30
0.0
 11
-103.393021
 21
83.305983
 31
0.0
  0
ENDBLK
  5
2B1
100
AcDbEntity
  8
3
100
AcDbBlockEnd
  0
BLOCK
  5
2B2
100
AcDbEntity
  8
3
100
AcDbBlockBegin
  2
*D7
 70
     1
 10
0.0
 20
0.0
 30
0.0
  3
*D7
  1

  0
TEXT
  5
2B3
100
AcDbEntity
  8
3
370
    25
100
AcDbText
 10
-126.164124
 20
17.520083
 30
0.0
 40
7.0
  1
１６５
 50
90.0
 72
     5
 11
-126.164124
 21
37.120083
 31
0.0
100
AcDbText
  0
LINE
  5
2B4
100
AcDbEntity
  8
3
370
    25
100
AcDbLine
 10
48.111408
 20
-54.594017
 30
0.0
 11
-127.164124
 21
-54.594017
 31
0.0
  0
LINE
  5
2B5
100
AcDbEntity
  8
3
370
    25
100
AcDbLine
 10
-125.164124
 20
-54.594017
 30
0.0
 11
-124.128847
 21
-50.730313
 31
0.0
  0
LINE
  5
2B6
100
AcDbEntity
  8
3
370
    25
100
AcDbLine
 10
-125.164124
 20
-54.594017
 30
0.0
 11
-126.1994
 21
-50.730313
 31
0.0
  0
LINE
  5
2B7
100
AcDbEntity
  8
3
370
    25
100
AcDbLine
 10
-124.128847
 20
-50.730313
 30
0.0
 11
-126.1994
 21
-50.730313
 31
0.0
  0
LINE
  5
2B8
100
AcDbEntity
  8
3
370
    25
100
AcDbLine
 10
-125.164124
 20
-54.594017
 30
0.0
 11
-125.164124
 21
110.634182
 31
0.0
  0
LINE
  5
2B9
100
AcDbEntity
  8
3
370
    25
100
AcDbLine
 10
-125.164124
 20
110.634182
 30
0.0
 11
-126.1994
 21
106.770479
 31
0.0
  0
LINE
  5
2BA
100
AcDbEntity
  8
3
370
    25
100
AcDbLine
 10
-125.164124
 20
110.634182
 30
0.0
 11
-124.128847
 21
106.770479
 31
0.0
  0
LINE
  5
2BB
100
AcDbEntity
  8
3
370
    25
100
AcDbLine
 10
-126.1994
 20
106.770479
 30
0.0
 11
-124.128847
 21
106.770479
 31
0.0
  0
LINE
  5
2BC
100
AcDbEntity
  8
3
370
    25
100
AcDbLine
 10
6.048746
 20
110.634182
 30
0.0
 11
-127.164124
 21
110.634182
 31
0.0
  0
ENDBLK
  5
2BD
100
AcDbEntity
  8
3
100
AcDbBlockEnd
  0
BLOCK
  5
2BE
100
AcDbEntity
  8
3
100
AcDbBlockBegin
  2
*D8
 70
     1
 10
0.0
 20
0.0
 30
0.0
  3
*D8
  1

  0
LINE
  5
2BF
100
AcDbEntity
  8
3
370
    25
100
AcDbLine
 10
90.611408
 20
-69.594017
 30
0.0
 11
154.005377
 21
-69.594017
 31
0.0
  0
LINE
  5
2C0
100
AcDbEntity
  8
3
370
    25
100
AcDbLine
 10
152.005377
 20
-69.594017
 30
0.0
 11
150.970101
 21
-73.45772
 31
0.0
  0
LINE
  5
2C1
100
AcDbEntity
  8
3
370
    25
100
AcDbLine
 10
152.005377
 20
-69.594017
 30
0.0
 11
153.040653
 21
-73.45772
 31
0.0
  0
LINE
  5
2C2
100
AcDbEntity
  8
3
370
    25
100
AcDbLine
 10
150.970101
 20
-73.45772
 30
0.0
 11
153.040653
 21
-73.45772
 31
0.0
  0
LINE
  5
2C3
100
AcDbEntity
  8
3
370
    25
100
AcDbLine
 10
152.005377
 20
-79.594017
 30
0.0
 11
152.005377
 21
28.405983
 31
0.0
  0
LINE
  5
2C4
100
AcDbEntity
  8
3
370
    25
100
AcDbLine
 10
152.005377
 20
-56.594017
 30
0.0
 11
153.040653
 21
-52.730313
 31
0.0
  0
LINE
  5
2C5
100
AcDbEntity
  8
3
370
    25
100
AcDbLine
 10
152.005377
 20
-56.594017
 30
0.0
 11
150.970101
 21
-52.730313
 31
0.0
  0
LINE
  5
2C6
100
AcDbEntity
  8
3
370
    25
100
AcDbLine
 10
153.040653
 20
-52.730313
 30
0.0
 11
150.970101
 21
-52.730313
 31
0.0
  0
LINE
  5
2C7
100
AcDbEntity
  8
3
370
    25
100
AcDbLine
 10
92.611408
 20
-56.594017
 30
0.0
 11
154.005377
 21
-56.594017
 31
0.0
  0
ENDBLK
  5
2C8
100
AcDbEntity
  8
3
100
AcDbBlockEnd
  0
BLOCK
  5
2C9
100
AcDbEntity
  8
3
100
AcDbBlockBegin
  2
*D9
 70
     1
 10
0.0
 20
0.0
 30
0.0
  3
*D9
  1

  0
TEXT
  5
2CA
100
AcDbEntity
  8
3
370
    25
100
AcDbText
 10
20.611408
 20
-17.919142
 30
0.0
 40
7.0
  1
φ４３
 72
     5
 11
40.211408
 21
-17.919142
 31
0.0
100
AcDbText
  0
LINE
  5
2CB
100
AcDbEntity
  8
3
370
    25
100
AcDbLine
 10
92.611408
 20
-47.594017
 30
0.0
 11
92.611408
 21
-16.919142
 31
0.0
  0
LINE
  5
2CC
100
AcDbEntity
  8
3
370
    25
100
AcDbLine
 10
92.611408
 20
-18.919142
 30
0.0
 11
96.475112
 21
-19.954418
 31
0.0
  0
LINE
  5
2CD
100
AcDbEntity
  8
3
370
    25
100
AcDbLine
 10
92.611408
 20
-18.919142
 30
0.0
 11
96.475112
 21
-17.883866
 31
0.0
  0
LINE
  5
2CE
100
AcDbEntity
  8
3
370
    25
100
AcDbLine
 10
96.475112
 20
-19.954418
 30
0.0
 11
96.475112
 21
-17.883866
 31
0.0
  0
LINE
  5
2CF
100
AcDbEntity
  8
3
370
    25
100
AcDbLine
 10
102.611408
 20
-18.919142
 30
0.0
 11
20.611408
 21
-18.919142
 31
0.0
  0
LINE
  5
2D0
100
AcDbEntity
  8
3
370
    25
100
AcDbLine
 10
49.611408
 20
-18.919142
 30
0.0
 11
45.747705
 21
-17.883866
 31
0.0
  0
LINE
  5
2D1
100
AcDbEntity
  8
3
370
    25
100
AcDbLine
 10
49.611408
 20
-18.919142
 30
0.0
 11
45.747705
 21
-19.954418
 31
0.0
  0
LINE
  5
2D2
100
AcDbEntity
  8
3
370
    25
100
AcDbLine
 10
45.747705
 20
-17.883866
 30
0.0
 11
45.747705
 21
-19.954418
 31
0.0
  0
LINE
  5
2D3
100
AcDbEntity
  8
3
370
    25
100
AcDbLine
 10
49.611408
 20
-47.594017
 30
0.0
 11
49.611408
 21
-16.919142
 31
0.0
  0
ENDBLK
  5
2D4
100
AcDbEntity
  8
3
100
AcDbBlockEnd
  0
BLOCK
  5
2D5
100
AcDbEntity
  8
3
100
AcDbBlockBegin
  2
*D10
 70
     1
 10
0.0
 20
0.0
 30
0.0
  3
*D10
  1

  0
TEXT
  5
2D6
100
AcDbEntity
  8
3
370
    25
100
AcDbText
 10
-1.045854
 20
-95.424896
 30
0.0
 40
7.0
  1
１２３
 72
     5
 11
18.554146
 21
-95.424896
 31
0.0
100
AcDbText
  0
LINE
  5
2D7
100
AcDbEntity
  8
3
370
    25
100
AcDbLine
 10
-52.203117
 20
2.931183
 30
0.0
 11
-52.203117
 21
-98.424896
 31
0.0
  0
LINE
  5
2D8
100
AcDbEntity
  8
3
370
    25
100
AcDbLine
 10
-52.203117
 20
-96.424896
 30
0.0
 11
-48.339413
 21
-97.460172
 31
0.0
  0
LINE
  5
2D9
100
AcDbEntity
  8
3
370
    25
100
AcDbLine
 10
-52.203117
 20
-96.424896
 30
0.0
 11
-48.339413
 21
-95.38962
 31
0.0
  0
LINE
  5
2DA
100
AcDbEntity
  8
3
370
    25
100
AcDbLine
 10
-48.339413
 20
-97.460172
 30
0.0
 11
-48.339413
 21
-95.38962
 31
0.0
  0
LINE
  5
2DB
100
AcDbEntity
  8
3
370
    25
100
AcDbLine
 10
-52.203117
 20
-96.424896
 30
0.0
 11
71.111408
 21
-96.424896
 31
0.0
  0
LINE
  5
2DC
100
AcDbEntity
  8
3
370
    25
100
AcDbLine
 10
71.111408
 20
-96.424896
 30
0.0
 11
67.247705
 21
-95.38962
 31
0.0
  0
LINE
  5
2DD
100
AcDbEntity
  8
3
370
    25
100
AcDbLine
 10
71.111408
 20
-96.424896
 30
0.0
 11
67.247705
 21
-97.460172
 31
0.0
  0
LINE
  5
2DE
100
AcDbEntity
  8
3
370
    25
100
AcDbLine
 10
67.247705
 20
-95.38962
 30
0.0
 11
67.247705
 21
-97.460172
 31
0.0
  0
ENDBLK
  5
2DF
100
AcDbEntity
  8
3
100
AcDbBlockEnd
  0
ENDSEC
  0
SECTION
  2
ENTITIES
  0
LINE
  5
2F
100
AcDbEntity
  8
1
370
   100
100
AcDbLine
 10
-373.02157
 20
275.028767
 30
0.0
 11
394.982385
 21
275.028767
 31
0.0
  0
LINE
  5
30
100
AcDbEntity
  8
1
370
   100
100
AcDbLine
 10
-373.02157
 20
275.028767
 30
0.0
 11
-373.02157
 21
-277.971881
 31
0.0
  0
LINE
  5
31
100
AcDbEntity
  8
1
370
   100
100
AcDbLine
 10
-373.02157
 20
-277.971881
 30
0.0
 11
394.982385
 21
-277.971881
 31
0.0
  0
LINE
  5
32
100
AcDbEntity
  8
1
370
   100
100
AcDbLine
 10
394.982385
 20
-277.971881
 30
0.0
 11
394.982385
 21
275.028767
 31
0.0
  0
TEXT
  5
33
100
AcDbEntity
  8
1
370
    50
100
AcDbText
 10
359.628442
 20
-226.252857
 30
0.0
 40
6.0
  1
設計
 72
     5
 11
370.428442
 21
-226.252857
 31
0.0
100
AcDbText
  0
TEXT
  5
34
100
AcDbEntity
  8
1
370
    50
100
AcDbText
 10
379.127478
 20
-226.099658
 30
0.0
 40
6.0
  1
製図
 72
     5
 11
389.927478
 21
-226.099658
 31
0.0
100
AcDbText
  0
TEXT
  5
35
100
AcDbEntity
  8
1
370
    50
100
AcDbText
 10
319.005745
 20
-226.252857
 30
0.0
 40
6.0
  1
承認
 72
     5
 11
329.805745
 21
-226.252857
 31
0.0
100
AcDbText
  0
TEXT
  5
36
100
AcDbEntity
  8
1
370
    50
100
AcDbText
 10
338.989679
 20
-226.19802
 30
0.0
 40
6.0
  1
検図
 72
     5
 11
349.789679
 21
-226.19802
 31
0.0
100
AcDbText
  0
LINE
  5
37
100
AcDbEntity
  8
1
370
    25
100
AcDbLine
 10
284.982385
 20
-227.971881
 30
0.0
 11
394.982385
 21
-227.971881
 31
0.0
  0
LINE
  5
38
100
AcDbEntity
  8
1
370
    25
100
AcDbLine
 10
342.482385
 20
-245.971881
 30
0.0
 11
342.482385
 21
-259.971881
 31
0.0
  0
TEXT
  5
39
100
AcDbEntity
  8
1
370
    50
100
AcDbText
 10
319.55159
 20
-256.012528
 30
0.0
 40
6.0
  1
日　付
 72
     5
 11
336.35159
 21
-256.012528
 31
0.0
100
AcDbText
  0
LINE
  5
3A
100
AcDbEntity
  8
1
370
    50
100
AcDbLine
 10
40.982385
 20
-259.971881
 30
0.0
 11
394.982385
 21
-259.971881
 31
0.0
  0
TEXT
  5
3B
100
AcDbEntity
  8
1
370
    50
100
AcDbText
 10
287.775011
 20
-256.322406
 30
0.0
 40
6.0
  1
第三角法
 72
     5
 11
310.575011
 21
-256.322406
 31
0.0
100
AcDbText
  0
TEXT
  5
3C
100
AcDbEntity
  8
1
370
    50
100
AcDbText
 10
291.087419
 20
-225.99802
 30
0.0
 40
6.0
  1
尺　度
 72
     5
 11
307.887419
 21
-225.99802
 31
0.0
100
AcDbText
  0
LINE
  5
3D
100
AcDbEntity
  8
1
370
   100
100
AcDbLine
 10
40.982385
 20
-217.971881
 30
0.0
 11
394.982385
 21
-217.971881
 31
0.0
  0
LINE
  5
3E
100
AcDbEntity
  8
1
370
    50
100
AcDbLine
 10
211.982385
 20
-217.971881
 30
0.0
 11
211.982385
 21
-277.971881
 31
0.0
  0
LINE
  5
3F
100
AcDbEntity
  8
1
370
    25
100
AcDbLine
 10
374.982385
 20
-245.971881
 30
0.0
 11
374.982385
 21
-217.971881
 31
0.0
  0
LINE
  5
40
100
AcDbEntity
  8
1
370
    25
100
AcDbLine
 10
354.982385
 20
-245.971881
 30
0.0
 11
354.982385
 21
-217.971881
 31
0.0
  0
LINE
  5
41
100
AcDbEntity
  8
1
370
    25
100
AcDbLine
 10
334.982385
 20
-245.971881
 30
0.0
 11
334.982385
 21
-217.971881
 31
0.0
  0
LINE
  5
42
100
AcDbEntity
  8
1
370
    50
100
AcDbLine
 10
284.982385
 20
-277.971881
 30
0.0
 11
284.982385
 21
-217.971881
 31
0.0
  0
LINE
  5
43
100
AcDbEntity
  8
1
370
    50
100
AcDbLine
 10
189.982385
 20
-217.971881
 30
0.0
 11
189.982385
 21
-277.971881
 31
0.0
  0
LINE
  5
44
100
AcDbEntity
  8
1
370
    50
100
AcDbLine
 10
62.982385
 20
-217.971881
 30
0.0
 11
62.982385
 21
-259.971881
 31
0.0
  0
LINE
  5
45
100
AcDbEntity
  8
1
370
    50
100
AcDbLine
 10
284.982385
 20
-245.971881
 30
0.0
 11
394.982385
 21
-245.971881
 31
0.0
  0
TEXT
  5
46
100
AcDbEntity
  8
1
370
    50
100
AcDbText
 10
287.101129
 20
-271.880939
 30
0.0
 40
6.0
  1
コードＮｏ
 41
0.9
 72
     5
 11
313.021129
 21
-271.880939
 31
0.0
100
AcDbText
  0
TEXT
  5
47
100
AcDbEntity
  8
1
370
   100
100
AcDbText
 10
52.886774
 20
-272.875659
 30
0.0
 40
8.0
  1
ミズタニバルブ工業株式会社
 41
1.2
 72
     5
 11
175.766774
 21
-272.875659
 31
0.0
100
AcDbText
  0
LINE
  5
48
100
AcDbEntity
  8
1
370
    50
100
AcDbLine
 10
40.982385
 20
-238.971881
 30
0.0
 11
284.982385
 21
-238.971881
 31
0.0
  0
LINE
  5
49
100
AcDbEntity
  8
1
370
    50
100
AcDbLine
 10
115.482385
 20
-238.971881
 30
0.0
 11
115.482385
 21
-259.971881
 31
0.0
  0
LINE
  5
4A
100
AcDbEntity
  8
1
370
    50
100
AcDbLine
 10
137.482385
 20
-238.971881
 30
0.0
 11
137.482385
 21
-259.971881
 31
0.0
  0
LINE
  5
4B
100
AcDbEntity
  8
1
370
    50
100
AcDbLine
 10
314.982385
 20
-277.971881
 30
0.0
 11
314.982385
 21
-217.971881
 31
0.0
  0
TEXT
  5
4C
100
AcDbEntity
  8
1
370
    50
100
AcDbText
 10
345.098131
 20
-256.100293
 30
0.0
 40
6.0
  1
　　・　　・
 72
     5
 11
379.898131
 21
-256.100293
 31
0.0
100
AcDbText
  0
LINE
  5
4D
100
AcDbEntity
  8
1
370
   100
100
AcDbLine
 10
40.982385
 20
-217.971881
 30
0.0
 11
40.982385
 21
-277.971881
 31
0.0
  0
TEXT
  5
4E
100
AcDbEntity
  8
1
370
    50
100
AcDbText
 10
290.832582
 20
-240.013492
 30
0.0
 40
6.0
  1
　／ 
 72
     5
 11
301.632582
 21
-240.013492
 31
0.0
100
AcDbText
  0
TEXT
  5
4F
100
AcDbEntity
  8
1
370
    50
100
AcDbText
 10
193.904123
 20
-272.024909
 30
0.0
 40
6.0
  1
備 考 
 72
     5
 11
207.704123
 21
-272.024909
 31
0.0
100
AcDbText
  0
TEXT
  5
50
100
AcDbEntity
  8
1
370
    50
100
AcDbText
 10
193.512534
 20
-230.89184
 30
0.0
 40
6.0
  1
仕 上
 72
     5
 11
207.312534
 21
-230.89184
 31
0.0
100
AcDbText
  0
TEXT
  5
51
100
AcDbEntity
  8
1
370
    50
100
AcDbText
 10
193.447176
 20
-248.891666
 30
0.0
 40
6.0
  1
表 面
 72
     5
 11
207.247176
 21
-248.891666
 31
0.0
100
AcDbText
  0
TEXT
  5
52
100
AcDbEntity
  8
1
370
    50
100
AcDbText
 10
193.447176
 20
-255.891666
 30
0.0
 40
6.0
  1
処 理
 72
     5
 11
207.247176
 21
-255.891666
 31
0.0
100
AcDbText
  0
TEXT
  5
53
100
AcDbEntity
  8
1
370
    50
100
AcDbText
 10
44.79335
 20
-231.693399
 30
0.0
 40
6.0
  1
品 名
 72
     5
 11
58.59335
 21
-231.693399
 31
0.0
100
AcDbText
  0
TEXT
  5
54
100
AcDbEntity
  8
1
370
    50
100
AcDbText
 10
44.397766
 20
-252.462534
 30
0.0
 40
6.0
  1
材 質
 72
     5
 11
58.197766
 21
-252.462534
 31
0.0
100
AcDbText
  0
TEXT
  5
55
100
AcDbEntity
  8
1
370
    50
100
AcDbText
 10
118.897766
 20
-252.462534
 30
0.0
 40
6.0
  1
規 格
 72
     5
 11
132.697766
 21
-252.462534
 31
0.0
100
AcDbText
  0
LINE
  5
56
100
AcDbEntity
  8
2
370
    50
100
AcDbLine
 10
88.111408
 20
60.905983
 30
0.0
 11
54.111408
 21
60.905983
 31
0.0
  0
LINE
  5
57
100
AcDbEntity
  8
2
370
    50
100
AcDbLine
 10
88.611408
 20
60.405983
 30
0.0
 11
88.611408
 21
-48.794017
 31
0.0
  0
LINE
  5
58
100
AcDbEntity
  8
2
370
    50
100
AcDbLine
 10
88.611408
 20
60.405983
 30
0.0
 11
88.111408
 21
60.905983
 31
0.0
  0
LINE
  5
59
100
AcDbEntity
  8
2
370
    50
100
AcDbLine
 10
54.111408
 20
60.905983
 30
0.0
 11
53.611408
 21
60.405983
 31
0.0
  0
LINE
  5
5A
100
AcDbEntity
  8
2
370
    50
100
AcDbLine
 10
53.611408
 20
-48.794017
 30
0.0
 11
53.911408
 21
-49.094017
 31
0.0
  0
LINE
  5
5B
100
AcDbEntity
  8
2
370
    50
100
AcDbLine
 10
88.611408
 20
-48.794017
 30
0.0
 11
88.311408
 21
-49.094017
 31
0.0
  0
LINE
  5
5C
100
AcDbEntity
  8
2
370
    50
100
AcDbLine
 10
53.611408
 20
-48.794017
 30
0.0
 11
53.611408
 21
10.405983
 31
0.0
  0
LINE
  5
5D
100
AcDbEntity
  8
2
370
    50
100
AcDbLine
 10
53.611408
 20
31.405983
 30
0.0
 11
53.611408
 21
60.405983
 31
0.0
  0
LINE
  5
5E
100
AcDbEntity
  8
2
370
    50
100
AcDbLine
 10
53.611408
 20
31.405983
 30
0.0
 11
1.27987
 21
31.405983
 31
0.0
  0
LINE
  5
5F
100
AcDbEntity
  8
2
370
    50
100
AcDbLine
 10
71.111408
 20
61.805983
 30
0.0
 11
53.611408
 21
61.805983
 31
0.0
  0
LINE
  5
60
100
AcDbEntity
  8
2
370
    50
100
AcDbLine
 10
87.611408
 20
87.305983
 30
0.0
 11
54.611408
 21
87.305983
 31
0.0
  0
LINE
  5
61
100
AcDbEntity
  8
2
370
    50
100
AcDbLine
 10
71.111408
 20
61.805983
 30
0.0
 11
88.611408
 21
68.876442
 31
0.0
  0
LINE
  5
62
100
AcDbEntity
  8
2
370
    50
100
AcDbLine
 10
53.611408
 20
61.805983
 30
0.0
 11
53.611408
 21
75.105983
 31
0.0
  0
ARC
  5
63
100
AcDbEntity
  8
2
370
    50
100
AcDbCircle
 10
87.611408
 20
86.305983
 30
0.0
 40
1.0
100
AcDbArc
 50
0.0
 51
90.0
  0
ARC
  5
64
100
AcDbEntity
  8
2
370
    50
100
AcDbCircle
 10
54.611408
 20
86.305983
 30
0.0
 40
1.0
100
AcDbArc
 50
90.0
 51
180.0
  0
LINE
  5
65
100
AcDbEntity
  8
2
370
    50
100
AcDbLine
 10
53.611408
 20
86.305983
 30
0.0
 11
53.611408
 21
83.505983
 31
0.0
  0
ARC
  5
66
100
AcDbEntity
  8
2
370
    50
100
AcDbCircle
 10
36.622883
 20
79.305983
 30
0.0
 40
17.5
100
AcDbArc
 50
346.11346
 51
360.0
  0
ARC
  5
67
100
AcDbEntity
  8
2
370
    50
100
AcDbCircle
 10
36.622883
 20
79.305983
 30
0.0
 40
17.5
100
AcDbArc
 50
0.0
 51
13.88654
  0
ARC
  5
68
100
AcDbEntity
  8
2
370
    50
100
AcDbCircle
 10
82.683205
 20
79.305983
 30
0.0
 40
8.0
100
AcDbArc
 50
0.0
 51
30.0
  0
LINE
  5
69
100
AcDbEntity
  8
2
370
    50
100
AcDbLine
 10
89.611408
 20
83.305983
 30
0.0
 11
88.611408
 21
83.305983
 31
0.0
  0
LINE
  5
6A
100
AcDbEntity
  8
2
370
    50
100
AcDbLine
 10
88.611408
 20
82.555983
 30
0.0
 11
88.611408
 21
83.305983
 31
0.0
  0
ARC
  5
6B
100
AcDbEntity
  8
2
370
    50
100
AcDbCircle
 10
82.683205
 20
79.305983
 30
0.0
 40
8.0
100
AcDbArc
 50
330.0
 51
360.0
  0
LINE
  5
6C
100
AcDbEntity
  8
2
370
    50
100
AcDbLine
 10
89.611408
 20
75.305983
 30
0.0
 11
88.611408
 21
75.305983
 31
0.0
  0
LINE
  5
6D
100
AcDbEntity
  8
2
370
    50
100
AcDbLine
 10
88.611408
 20
76.055983
 30
0.0
 11
88.611408
 21
75.305983
 31
0.0
  0
LINE
  5
6E
100
AcDbEntity
  8
2
370
    50
100
AcDbLine
 10
88.611408
 20
68.876442
 30
0.0
 11
88.611408
 21
79.305983
 31
0.0
  0
LINE
  5
6F
100
AcDbEntity
  8
2
370
    50
100
AcDbLine
 10
88.611408
 20
79.305983
 30
0.0
 11
88.611408
 21
86.305983
 31
0.0
  0
LINE
  5
70
100
AcDbEntity
  8
2
370
    50
100
AcDbLine
 10
-4.888415
 20
75.305983
 30
0.0
 11
53.659608
 21
75.305983
 31
0.0
  0
LINE
  5
71
100
AcDbEntity
  8
2
370
    50
100
AcDbLine
 10
-4.888415
 20
83.305983
 30
0.0
 11
53.659608
 21
83.305983
 31
0.0
  0
LINE
  5
72
100
AcDbEntity
  8
2
370
    50
100
AcDbLine
 10
-5.388415
 20
75.805983
 30
0.0
 11
-5.388415
 21
82.805983
 31
0.0
  0
LINE
  5
73
100
AcDbEntity
  8
2
370
    50
100
AcDbLine
 10
-4.888415
 20
83.305983
 30
0.0
 11
-5.388415
 21
82.805983
 31
0.0
  0
LINE
  5
74
100
AcDbEntity
  8
2
370
    50
100
AcDbLine
 10
-5.388415
 20
75.805983
 30
0.0
 11
-4.888415
 21
75.305983
 31
0.0
  0
LINE
  5
75
100
AcDbEntity
  8
2
370
    25
100
AcDbLine
 10
89.611408
 20
83.305983
 30
0.0
 11
89.611408
 21
75.305983
 31
0.0
  0
POINT
  5
76
100
AcDbEntity
  8
2
370
    50
100
AcDbPoint
 10
71.111408
 20
62.505983
 30
0.0
  0
LINE
  5
77
100
AcDbEntity
  8
2
370
    25
100
AcDbLine
 10
88.611408
 20
60.405983
 30
0.0
 11
53.611408
 21
60.405983
 31
0.0
  0
LINE
  5
78
100
AcDbEntity
  8
2
370
    25
100
AcDbLine
 10
53.611408
 20
-48.794017
 30
0.0
 11
88.611408
 21
-48.794017
 31
0.0
  0
LINE
  5
79
100
AcDbEntity
  8
2
370
    50
100
AcDbLine
 10
205.777599
 20
60.905983
 30
0.0
 11
222.777599
 21
60.905983
 31
0.0
  0
LINE
  5
7A
100
AcDbEntity
  8
2
370
    50
100
AcDbLine
 10
205.777599
 20
60.905983
 30
0.0
 11
188.777599
 21
60.905983
 31
0.0
  0
LINE
  5
7B
100
AcDbEntity
  8
2
370
    50
100
AcDbLine
 10
188.277599
 20
60.405983
 30
0.0
 11
188.277599
 21
-48.794017
 31
0.0
  0
LINE
  5
7C
100
AcDbEntity
  8
2
370
    50
100
AcDbLine
 10
188.277599
 20
60.405983
 30
0.0
 11
188.777599
 21
60.905983
 31
0.0
  0
LINE
  5
7D
100
AcDbEntity
  8
2
370
    50
100
AcDbLine
 10
222.777599
 20
60.905983
 30
0.0
 11
223.277599
 21
60.405983
 31
0.0
  0
LINE
  5
7E
100
AcDbEntity
  8
2
370
    50
100
AcDbLine
 10
223.277599
 20
-48.794017
 30
0.0
 11
222.977599
 21
-49.094017
 31
0.0
  0
LINE
  5
7F
100
AcDbEntity
  8
2
370
    50
100
AcDbLine
 10
188.277599
 20
-48.794017
 30
0.0
 11
188.577599
 21
-49.094017
 31
0.0
  0
LINE
  5
80
100
AcDbEntity
  8
2
370
    50
100
AcDbLine
 10
223.277599
 20
-48.794017
 30
0.0
 11
223.277599
 21
10.405983
 31
0.0
  0
LINE
  5
81
100
AcDbEntity
  8
2
370
    50
100
AcDbLine
 10
223.277599
 20
31.405983
 30
0.0
 11
223.277599
 21
60.405983
 31
0.0
  0
LINE
  5
82
100
AcDbEntity
  8
2
370
    50
100
AcDbLine
 10
205.777599
 20
61.805983
 30
0.0
 11
223.277599
 21
61.805983
 31
0.0
  0
LINE
  5
83
100
AcDbEntity
  8
2
370
    50
100
AcDbLine
 10
189.277599
 20
87.305983
 30
0.0
 11
222.277599
 21
87.305983
 31
0.0
  0
LINE
  5
84
100
AcDbEntity
  8
2
370
    50
100
AcDbLine
 10
205.777599
 20
61.805983
 30
0.0
 11
188.277599
 21
68.876442
 31
0.0
  0
LINE
  5
85
100
AcDbEntity
  8
2
370
    50
100
AcDbLine
 10
223.277599
 20
61.805983
 30
0.0
 11
223.277599
 21
75.105983
 31
0.0
  0
ARC
  5
86
100
AcDbEntity
  8
2
370
    50
100
AcDbCircle
 10
189.277599
 20
86.305983
 30
0.0
 40
1.0
100
AcDbArc
 50
90.0
 51
180.0
  0
ARC
  5
87
100
AcDbEntity
  8
2
370
    50
100
AcDbCircle
 10
222.277599
 20
86.305983
 30
0.0
 40
1.0
100
AcDbArc
 50
0.0
 51
90.0
  0
LINE
  5
88
100
AcDbEntity
  8
2
370
    50
100
AcDbLine
 10
223.277599
 20
86.305983
 30
0.0
 11
223.277599
 21
83.505983
 31
0.0
  0
ARC
  5
89
100
AcDbEntity
  8
2
370
    50
100
AcDbCircle
 10
240.266125
 20
79.305983
 30
0.0
 40
17.5
100
AcDbArc
 50
180.0
 51
193.88654
  0
ARC
  5
8A
100
AcDbEntity
  8
2
370
    50
100
AcDbCircle
 10
240.266125
 20
79.305983
 30
0.0
 40
17.5
100
AcDbArc
 50
166.11346
 51
180.0
  0
ARC
  5
8B
100
AcDbEntity
  8
2
370
    50
100
AcDbCircle
 10
194.205803
 20
79.305983
 30
0.0
 40
8.0
100
AcDbArc
 50
150.0
 51
180.0
  0
LINE
  5
8C
100
AcDbEntity
  8
2
370
    50
100
AcDbLine
 10
187.277599
 20
83.305983
 30
0.0
 11
188.277599
 21
83.305983
 31
0.0
  0
LINE
  5
8D
100
AcDbEntity
  8
2
370
    50
100
AcDbLine
 10
188.277599
 20
82.555983
 30
0.0
 11
188.277599
 21
83.305983
 31
0.0
  0
ARC
  5
8E
100
AcDbEntity
  8
2
370
    50
100
AcDbCircle
 10
194.205803
 20
79.305983
 30
0.0
 40
8.0
100
AcDbArc
 50
180.0
 51
210.0
  0
LINE
  5
8F
100
AcDbEntity
  8
2
370
    50
100
AcDbLine
 10
187.277599
 20
75.305983
 30
0.0
 11
188.277599
 21
75.305983
 31
0.0
  0
LINE
  5
90
100
AcDbEntity
  8
2
370
    50
100
AcDbLine
 10
188.277599
 20
76.055983
 30
0.0
 11
188.277599
 21
75.305983
 31
0.0
  0
LINE
  5
91
100
AcDbEntity
  8
2
370
    50
100
AcDbLine
 10
188.277599
 20
68.876442
 30
0.0
 11
188.277599
 21
79.305983
 31
0.0
  0
LINE
  5
92
100
AcDbEntity
  8
2
370
    50
100
AcDbLine
 10
188.277599
 20
79.305983
 30
0.0
 11
188.277599
 21
86.305983
 31
0.0
  0
LINE
  5
93
100
AcDbEntity
  8
2
370
    50
100
AcDbLine
 10
281.777422
 20
75.305983
 30
0.0
 11
223.2294
 21
75.305983
 31
0.0
  0
LINE
  5
94
100
AcDbEntity
  8
2
370
    50
100
AcDbLine
 10
281.777422
 20
83.305983
 30
0.0
 11
223.2294
 21
83.305983
 31
0.0
  0
LINE
  5
95
100
AcDbEntity
  8
2
370
    50
100
AcDbLine
 10
282.277422
 20
75.805983
 30
0.0
 11
282.277422
 21
82.805983
 31
0.0
  0
LINE
  5
96
100
AcDbEntity
  8
2
370
    50
100
AcDbLine
 10
281.777422
 20
83.305983
 30
0.0
 11
282.277422
 21
82.805983
 31
0.0
  0
LINE
  5
97
100
AcDbEntity
  8
2
370
    50
100
AcDbLine
 10
282.277422
 20
75.805983
 30
0.0
 11
281.777422
 21
75.305983
 31
0.0
  0
LINE
  5
98
100
AcDbEntity
  8
2
370
    25
100
AcDbLine
 10
187.277599
 20
83.305983
 30
0.0
 11
187.277599
 21
75.305983
 31
0.0
  0
LINE
  5
99
100
AcDbEntity
  8
2
370
    25
100
AcDbLine
 10
188.277599
 20
60.405983
 30
0.0
 11
223.277599
 21
60.405983
 31
0.0
  0
LINE
  5
9A
100
AcDbEntity
  8
2
370
    25
100
AcDbLine
 10
223.277599
 20
-48.794017
 30
0.0
 11
188.277599
 21
-48.794017
 31
0.0
  0
LINE
  5
9B
100
AcDbEntity
  8
2
370
    25
100
AcDbLine
 10
-4.888415
 20
83.305983
 30
0.0
 11
-4.888415
 21
75.305983
 31
0.0
  0
LINE
  5
9C
100
AcDbEntity
  8
2
370
    25
  6
DASHED
100
AcDbLine
 10
5.515485
 20
102.829408
 30
0.0
 11
50.233411
 21
84.762193
 31
0.0
  0
LINE
  5
9D
100
AcDbEntity
  8
2
370
    25
  6
DASHED
100
AcDbLine
 10
8.512338
 20
110.246879
 30
0.0
 11
59.688114
 21
89.570523
 31
0.0
  0
LINE
  5
9E
100
AcDbEntity
  8
2
370
    25
  6
DASHED
100
AcDbLine
 10
5.239197
 20
103.480303
 30
0.0
 11
7.861443
 21
109.97059
 31
0.0
  0
LINE
  5
9F
100
AcDbEntity
  8
2
370
    25
  6
DASHED
100
AcDbLine
 10
8.512338
 20
110.246879
 30
0.0
 11
7.861443
 21
109.97059
 31
0.0
  0
LINE
  5
A0
100
AcDbEntity
  8
2
370
    25
  6
DASHED
100
AcDbLine
 10
5.239197
 20
103.480303
 30
0.0
 11
5.515485
 21
102.829408
 31
0.0
  0
LINE
  5
A1
100
AcDbEntity
  8
2
370
    25
  6
DASHED
100
AcDbLine
 10
8.512338
 20
110.246879
 30
0.0
 11
5.515485
 21
102.829408
 31
0.0
  0
LINE
  5
A2
100
AcDbEntity
  8
2
370
    25
  6
DASHED
100
AcDbLine
 10
95.775107
 20
79.304571
 30
0.0
 11
92.524506
 21
80.617899
 31
0.0
  0
LINE
  5
A3
100
AcDbEntity
  8
2
370
    25
  6
DASHED
100
AcDbLine
 10
87.276756
 20
61.805983
 30
0.0
 11
89.783753
 21
61.805983
 31
0.0
  0
ARC
  5
A4
100
AcDbEntity
  8
2
370
    25
  6
DASHED
100
AcDbCircle
 10
95.4005
 20
78.377387
 30
0.0
 40
1.0
100
AcDbArc
 50
338.0
 51
68.0
  0
ARC
  5
A5
100
AcDbEntity
  8
2
370
    25
  6
DASHED
100
AcDbCircle
 10
88.208903
 20
73.733237
 30
0.0
 40
8.0
100
AcDbArc
 50
338.0
 51
8.0
  0
LINE
  5
A6
100
AcDbEntity
  8
2
370
    25
  6
DASHED
100
AcDbLine
 10
96.131048
 20
74.846622
 30
0.0
 11
95.203864
 21
75.221229
 31
0.0
  0
LINE
  5
A7
100
AcDbEntity
  8
2
370
    25
  6
DASHED
100
AcDbLine
 10
94.922909
 20
74.525841
 30
0.0
 11
95.203864
 21
75.221229
 31
0.0
  0
ARC
  5
A8
100
AcDbEntity
  8
2
370
    25
  6
DASHED
100
AcDbCircle
 10
88.208903
 20
73.733237
 30
0.0
 40
8.0
100
AcDbArc
 50
308.0
 51
338.0
  0
LINE
  5
A9
100
AcDbEntity
  8
2
370
    25
  6
DASHED
100
AcDbLine
 10
93.134195
 20
67.429151
 30
0.0
 11
92.207011
 21
67.803758
 31
0.0
  0
LINE
  5
AA
100
AcDbEntity
  8
2
370
    25
  6
DASHED
100
AcDbLine
 10
92.487966
 20
68.499146
 30
0.0
 11
92.207011
 21
67.803758
 31
0.0
  0
LINE
  5
AB
100
AcDbEntity
  8
2
370
    25
  6
DASHED
100
AcDbLine
 10
89.783753
 20
61.805983
 30
0.0
 11
93.705438
 21
71.512493
 31
0.0
  0
LINE
  5
AC
100
AcDbEntity
  8
2
370
    25
  6
DASHED
100
AcDbLine
 10
93.705438
 20
71.512493
 30
0.0
 11
96.327684
 21
78.00278
 31
0.0
  0
LINE
  5
AD
100
AcDbEntity
  8
2
370
    25
  6
DASHED
100
AcDbLine
 10
96.131048
 20
74.846622
 30
0.0
 11
93.134195
 21
67.429151
 31
0.0
  0
ARC
  5
AE
100
AcDbEntity
  8
2
370
    50
100
AcDbCircle
 10
112.612464
 20
60.647246
 30
0.0
 40
56.0
100
AcDbArc
 50
178.814366
 51
179.735275
  0
ARC
  5
AF
100
AcDbEntity
  8
2
370
    50
100
AcDbCircle
 10
29.610352
 20
60.647246
 30
0.0
 40
56.0
100
AcDbArc
 50
0.264725
 51
7.022942
  0
ARC
  5
B0
100
AcDbEntity
  8
2
370
    50
100
AcDbCircle
 10
247.278655
 20
60.647246
 30
0.0
 40
56.0
100
AcDbArc
 50
172.977058
 51
179.735275
  0
ARC
  5
B1
100
AcDbEntity
  8
2
370
    50
100
AcDbCircle
 10
164.276543
 20
60.647246
 30
0.0
 40
56.0
100
AcDbArc
 50
0.264725
 51
1.185634
  0
LINE
  5
B2
100
AcDbEntity
  8
2
370
    50
100
AcDbLine
 10
338.777599
 20
31.405983
 30
0.0
 11
223.277599
 21
31.405983
 31
0.0
  0
LINE
  5
B3
100
AcDbEntity
  8
2
370
    50
100
AcDbLine
 10
339.277599
 20
30.905983
 30
0.0
 11
339.277599
 21
10.905983
 31
0.0
  0
LINE
  5
B4
100
AcDbEntity
  8
2
370
    50
100
AcDbLine
 10
338.777599
 20
31.405983
 30
0.0
 11
339.277599
 21
30.905983
 31
0.0
  0
LINE
  5
B5
100
AcDbEntity
  8
2
370
    50
100
AcDbLine
 10
339.277599
 20
10.905983
 30
0.0
 11
338.777599
 21
10.405983
 31
0.0
  0
LINE
  5
B6
100
AcDbEntity
  8
2
370
    50
100
AcDbLine
 10
338.777599
 20
10.405983
 30
0.0
 11
336.943183
 21
10.405983
 31
0.0
  0
LINE
  5
B7
100
AcDbEntity
  8
2
370
    50
100
AcDbLine
 10
317.255894
 20
10.405983
 30
0.0
 11
223.277599
 21
10.405983
 31
0.0
  0
LINE
  5
B8
100
AcDbEntity
  8
2
370
    50
100
AcDbLine
 10
320.681945
 20
1.870128
 30
0.0
 11
329.092124
 21
4.931183
 31
0.0
  0
LINE
  5
B9
100
AcDbEntity
  8
2
370
    50
100
AcDbLine
 10
337.502443
 20
7.992289
 30
0.0
 11
329.092926
 21
4.931475
 31
0.0
  0
LINE
  5
BA
100
AcDbEntity
  8
2
370
    50
100
AcDbLine
 10
317.255894
 20
10.405983
 30
0.0
 11
320.297431
 21
2.04943
 31
0.0
  0
LINE
  5
BB
100
AcDbEntity
  8
2
370
    50
100
AcDbLine
 10
336.943183
 20
10.405983
 30
0.0
 11
337.681744
 21
8.376803
 31
0.0
  0
LINE
  5
BC
100
AcDbEntity
  8
2
370
    50
100
AcDbLine
 10
320.297431
 20
2.04943
 30
0.0
 11
320.681945
 21
1.870128
 31
0.0
  0
LINE
  5
BD
100
AcDbEntity
  8
2
370
    50
100
AcDbLine
 10
337.502443
 20
7.992289
 30
0.0
 11
337.681744
 21
8.376803
 31
0.0
  0
ARC
  5
BE
100
AcDbEntity
  8
2
370
    25
100
AcDbCircle
 10
237.277599
 20
20.905983
 30
0.0
 40
17.5
100
AcDbArc
 50
147.181108
 51
212.29933
  0
LINE
  5
BF
100
AcDbEntity
  8
2
370
    50
100
AcDbLine
 10
338.777599
 20
31.405983
 30
0.0
 11
338.777599
 21
10.405983
 31
0.0
  0
POINT
  5
C0
100
AcDbEntity
  8
2
370
    50
100
AcDbPoint
 10
326.869063
 20
11.039211
 30
0.0
  0
ARC
  5
C1
100
AcDbEntity
  8
2
370
    25
100
AcDbCircle
 10
325.086419
 20
7.552855
 30
0.0
 40
8.384128
100
AcDbArc
 50
90.0
 51
151.997723
  0
ARC
  5
C2
100
AcDbEntity
  8
2
370
    25
100
AcDbCircle
 10
325.086419
 20
0.462855
 30
0.0
 40
15.474128
100
AcDbArc
 50
45.451578
 51
90.0
  0
LINE
  5
C3
100
AcDbEntity
  8
2
370
    50
100
AcDbLine
 10
337.681744
 20
8.376803
 30
0.0
 11
320.297431
 21
2.04943
 31
0.0
  0
LINE
  5
C4
100
AcDbEntity
  8
2
370
    50
100
AcDbLine
 10
-61.888592
 20
31.405983
 30
0.0
 11
53.611408
 21
31.405983
 31
0.0
  0
LINE
  5
C5
100
AcDbEntity
  8
2
370
    50
100
AcDbLine
 10
-62.388592
 20
30.905983
 30
0.0
 11
-62.388592
 21
10.905983
 31
0.0
  0
LINE
  5
C6
100
AcDbEntity
  8
2
370
    50
100
AcDbLine
 10
-61.888592
 20
31.405983
 30
0.0
 11
-62.388592
 21
30.905983
 31
0.0
  0
LINE
  5
C7
100
AcDbEntity
  8
2
370
    50
100
AcDbLine
 10
-62.388592
 20
10.905983
 30
0.0
 11
-61.888592
 21
10.405983
 31
0.0
  0
LINE
  5
C8
100
AcDbEntity
  8
2
370
    50
100
AcDbLine
 10
-61.888592
 20
10.405983
 30
0.0
 11
-60.054175
 21
10.405983
 31
0.0
  0
LINE
  5
C9
100
AcDbEntity
  8
2
370
    50
100
AcDbLine
 10
-40.366887
 20
10.405983
 30
0.0
 11
53.611408
 21
10.405983
 31
0.0
  0
LINE
  5
CA
100
AcDbEntity
  8
2
370
    50
100
AcDbLine
 10
-43.792937
 20
1.870128
 30
0.0
 11
-52.203117
 21
4.931183
 31
0.0
  0
LINE
  5
CB
100
AcDbEntity
  8
2
370
    50
100
AcDbLine
 10
-60.613435
 20
7.992289
 30
0.0
 11
-52.203918
 21
4.931475
 31
0.0
  0
LINE
  5
CC
100
AcDbEntity
  8
2
370
    50
100
AcDbLine
 10
-40.366887
 20
10.405983
 30
0.0
 11
-43.408423
 21
2.04943
 31
0.0
  0
LINE
  5
CD
100
AcDbEntity
  8
2
370
    50
100
AcDbLine
 10
-60.054175
 20
10.405983
 30
0.0
 11
-60.792737
 21
8.376803
 31
0.0
  0
LINE
  5
CE
100
AcDbEntity
  8
2
370
    50
100
AcDbLine
 10
-43.408423
 20
2.04943
 30
0.0
 11
-43.792937
 21
1.870128
 31
0.0
  0
LINE
  5
CF
100
AcDbEntity
  8
2
370
    50
100
AcDbLine
 10
-60.613435
 20
7.992289
 30
0.0
 11
-60.792737
 21
8.376803
 31
0.0
  0
ARC
  5
D0
100
AcDbEntity
  8
2
370
    25
100
AcDbCircle
 10
39.611408
 20
20.905983
 30
0.0
 40
17.5
100
AcDbArc
 50
327.181108
 51
32.29933
  0
LINE
  5
D1
100
AcDbEntity
  8
2
370
    50
100
AcDbLine
 10
-61.888592
 20
31.405983
 30
0.0
 11
-61.888592
 21
10.405983
 31
0.0
  0
ARC
  5
D2
100
AcDbEntity
  8
2
370
    25
100
AcDbCircle
 10
-48.197412
 20
7.552855
 30
0.0
 40
8.384128
100
AcDbArc
 50
27.774954
 51
90.0
  0
ARC
  5
D3
100
AcDbEntity
  8
2
370
    25
100
AcDbCircle
 10
-48.197412
 20
0.462855
 30
0.0
 40
15.474128
100
AcDbArc
 50
90.0
 51
136.713424
  0
LINE
  5
D4
100
AcDbEntity
  8
2
370
    50
100
AcDbLine
 10
-60.792737
 20
8.376803
 30
0.0
 11
-43.408423
 21
2.04943
 31
0.0
  0
POINT
  5
D5
100
AcDbEntity
  8
2
370
    50
100
AcDbPoint
 10
71.111408
 20
-49.094017
 30
0.0
  0
LINE
  5
D6
100
AcDbEntity
  8
2
370
    50
100
AcDbLine
 10
53.611408
 20
-71.094017
 30
0.0
 11
53.611408
 21
-69.594017
 31
0.0
  0
LINE
  5
D7
100
AcDbEntity
  8
2
370
    50
100
AcDbLine
 10
71.111408
 20
-71.094017
 30
0.0
 11
53.611408
 21
-71.094017
 31
0.0
  0
LINE
  5
D8
100
AcDbEntity
  8
2
370
    25
100
AcDbLine
 10
61.861408
 20
-99.594017
 30
0.0
 11
61.861408
 21
-79.794017
 31
0.0
  0
LINE
  5
D9
100
AcDbEntity
  8
2
370
    25
100
AcDbLine
 10
61.861408
 20
-69.594017
 30
0.0
 11
61.861408
 21
-56.593625
 31
0.0
  0
LINE
  5
DA
100
AcDbEntity
  8
2
370
    50
100
AcDbLine
 10
60.861408
 20
-69.594017
 30
0.0
 11
60.861408
 21
-56.593625
 31
0.0
  0
LINE
  5
DB
100
AcDbEntity
  8
2
370
    50
100
AcDbLine
 10
59.111408
 20
-79.794017
 30
0.0
 11
71.111408
 21
-79.794017
 31
0.0
  0
LINE
  5
DC
100
AcDbEntity
  8
2
370
    50
100
AcDbLine
 10
57.361408
 20
-78.783654
 30
0.0
 11
57.361408
 21
-73.294017
 31
0.0
  0
LINE
  5
DD
100
AcDbEntity
  8
2
370
    50
100
AcDbLine
 10
59.111408
 20
-79.794017
 30
0.0
 11
57.361408
 21
-78.783654
 31
0.0
  0
LINE
  5
DE
100
AcDbEntity
  8
2
370
    50
100
AcDbLine
 10
51.111408
 20
-72.794017
 30
0.0
 11
51.111408
 21
-71.594017
 31
0.0
  0
LINE
  5
DF
100
AcDbEntity
  8
2
370
    50
100
AcDbLine
 10
71.111408
 20
-73.294017
 30
0.0
 11
56.790858
 21
-73.294017
 31
0.0
  0
LINE
  5
E0
100
AcDbEntity
  8
2
370
    50
100
AcDbLine
 10
51.111408
 20
-71.594017
 30
0.0
 11
71.111408
 21
-71.594017
 31
0.0
  0
LINE
  5
E1
100
AcDbEntity
  8
2
370
    50
100
AcDbLine
 10
51.111408
 20
-72.794017
 30
0.0
 11
71.111408
 21
-72.794017
 31
0.0
  0
ARC
  5
E2
100
AcDbEntity
  8
2
370
    50
100
AcDbCircle
 10
56.790858
 20
-68.294017
 30
0.0
 40
5.0
100
AcDbArc
 50
246.443536
 51
270.0
  0
ARC
  5
E3
100
AcDbEntity
  8
2
370
    50
100
AcDbCircle
 10
56.790858
 20
-76.094017
 30
0.0
 40
5.0
100
AcDbArc
 50
90.0
 51
113.556464
  0
ARC
  5
E4
100
AcDbEntity
  8
2
370
    50
100
AcDbCircle
 10
54.392942
 20
-73.794017
 30
0.0
 40
1.0
100
AcDbArc
 50
66.443536
 51
90.0
  0
ARC
  5
E5
100
AcDbEntity
  8
2
370
    50
100
AcDbCircle
 10
54.392942
 20
-70.594017
 30
0.0
 40
1.0
100
AcDbArc
 50
270.0
 51
293.556464
  0
LINE
  5
E6
100
AcDbEntity
  8
2
370
    50
100
AcDbLine
 10
64.111408
 20
-78.783654
 30
0.0
 11
64.111408
 21
-73.294017
 31
0.0
  0
ARC
  5
E7
100
AcDbEntity
  8
2
370
    50
100
AcDbCircle
 10
71.111408
 20
-55.040124
 30
0.0
 40
24.753893
100
AcDbArc
 50
253.573579
 51
270.0
  0
ARC
  5
E8
100
AcDbEntity
  8
2
370
    50
100
AcDbCircle
 10
60.736408
 20
-73.651938
 30
0.0
 40
6.142079
100
AcDbArc
 50
236.668091
 51
303.331909
  0
ARC
  5
E9
100
AcDbEntity
  8
2
370
    50
100
AcDbCircle
 10
71.111408
 20
-57.044017
 30
0.0
 40
16.25
100
AcDbArc
 50
255.749967
 51
270.0
  0
ARC
  5
EA
100
AcDbEntity
  8
2
370
    50
100
AcDbCircle
 10
62.861408
 20
-57.044017
 30
0.0
 40
16.25
100
AcDbArc
 50
255.749967
 51
277.069714
  0
ARC
  5
EB
100
AcDbEntity
  8
2
370
    50
100
AcDbCircle
 10
66.861408
 20
-57.044017
 30
0.0
 40
16.25
100
AcDbArc
 50
255.749967
 51
277.514045
  0
ARC
  5
EC
100
AcDbEntity
  8
2
370
    50
100
AcDbCircle
 10
58.861408
 20
-57.044017
 30
0.0
 40
16.25
100
AcDbArc
 50
270.0
 51
277.069714
  0
ARC
  5
ED
100
AcDbEntity
  8
2
370
    50
100
AcDbCircle
 10
71.111408
 20
-87.344017
 30
0.0
 40
16.25
100
AcDbArc
 50
90.0
 51
104.250033
  0
ARC
  5
EE
100
AcDbEntity
  8
2
370
    50
100
AcDbCircle
 10
66.861408
 20
-87.344017
 30
0.0
 40
16.25
100
AcDbArc
 50
82.485955
 51
104.250033
  0
ARC
  5
EF
100
AcDbEntity
  8
2
370
    50
100
AcDbCircle
 10
62.861408
 20
-87.344017
 30
0.0
 40
16.25
100
AcDbArc
 50
82.930286
 51
104.250033
  0
ARC
  5
F0
100
AcDbEntity
  8
2
370
    50
100
AcDbCircle
 10
58.861408
 20
-87.344017
 30
0.0
 40
16.25
100
AcDbArc
 50
82.930286
 51
90.0
  0
LINE
  5
F1
100
AcDbEntity
  8
2
370
    50
100
AcDbLine
 10
59.611408
 20
-111.594017
 30
0.0
 11
71.111408
 21
-111.594017
 31
0.0
  0
ARC
  5
F2
100
AcDbEntity
  8
2
370
    50
100
AcDbCircle
 10
73.386408
 20
-105.594017
 30
0.0
 40
15.025
100
AcDbArc
 50
156.463422
 51
203.536578
  0
LINE
  5
F3
100
AcDbEntity
  8
2
370
    50
100
AcDbLine
 10
59.611408
 20
-99.594017
 30
0.0
 11
71.111408
 21
-99.594017
 31
0.0
  0
ELLIPSE
  5
F4
100
AcDbEntity
  8
2
370
    50
100
AcDbEllipse
 10
61.152116
 20
-105.594017
 30
0.0
 11
0.0
 21
6.0
 31
0.0
210
0.0
220
0.0
230
1.0
 40
0.458833
 41
0.0
 42
6.2831849999999996
  0
ELLIPSE
  5
F5
100
AcDbEntity
  8
2
370
    50
100
AcDbEllipse
 10
71.111408
 20
-105.594017
 30
0.0
 11
0.0
 21
6.0
 31
0.0
210
0.0
220
0.0
230
1.0
 40
0.926667
 41
0.0
 42
6.2831849999999996
  0
LINE
  5
F6
100
AcDbEntity
  8
2
370
    50
100
AcDbLine
 10
60.861408
 20
-99.594017
 30
0.0
 11
60.861408
 21
-79.794017
 31
0.0
  0
LINE
  5
F7
100
AcDbEntity
  8
2
370
    50
100
AcDbLine
 10
88.611408
 20
-71.094017
 30
0.0
 11
88.611408
 21
-69.594017
 31
0.0
  0
LINE
  5
F8
100
AcDbEntity
  8
2
370
    50
100
AcDbLine
 10
71.111408
 20
-71.094017
 30
0.0
 11
88.611408
 21
-71.094017
 31
0.0
  0
LINE
  5
F9
100
AcDbEntity
  8
2
370
    25
100
AcDbLine
 10
80.361408
 20
-99.594017
 30
0.0
 11
80.361408
 21
-79.794017
 31
0.0
  0
LINE
  5
FA
100
AcDbEntity
  8
2
370
    25
100
AcDbLine
 10
80.361408
 20
-69.594017
 30
0.0
 11
80.361408
 21
-56.593625
 31
0.0
  0
LINE
  5
FB
100
AcDbEntity
  8
2
370
    50
100
AcDbLine
 10
81.361408
 20
-69.594017
 30
0.0
 11
81.361408
 21
-56.593625
 31
0.0
  0
LINE
  5
FC
100
AcDbEntity
  8
2
370
    50
100
AcDbLine
 10
83.111408
 20
-79.794017
 30
0.0
 11
71.111408
 21
-79.794017
 31
0.0
  0
LINE
  5
FD
100
AcDbEntity
  8
2
370
    50
100
AcDbLine
 10
84.861408
 20
-78.783654
 30
0.0
 11
84.861408
 21
-73.294017
 31
0.0
  0
LINE
  5
FE
100
AcDbEntity
  8
2
370
    50
100
AcDbLine
 10
83.111408
 20
-79.794017
 30
0.0
 11
84.861408
 21
-78.783654
 31
0.0
  0
LINE
  5
FF
100
AcDbEntity
  8
2
370
    50
100
AcDbLine
 10
91.111408
 20
-72.794017
 30
0.0
 11
91.111408
 21
-71.594017
 31
0.0
  0
LINE
  5
100
100
AcDbEntity
  8
2
370
    50
100
AcDbLine
 10
71.111408
 20
-73.294017
 30
0.0
 11
85.431959
 21
-73.294017
 31
0.0
  0
LINE
  5
101
100
AcDbEntity
  8
2
370
    50
100
AcDbLine
 10
91.111408
 20
-71.594017
 30
0.0
 11
71.111408
 21
-71.594017
 31
0.0
  0
LINE
  5
102
100
AcDbEntity
  8
2
370
    50
100
AcDbLine
 10
91.111408
 20
-72.794017
 30
0.0
 11
71.111408
 21
-72.794017
 31
0.0
  0
ARC
  5
103
100
AcDbEntity
  8
2
370
    50
100
AcDbCircle
 10
85.431959
 20
-68.294017
 30
0.0
 40
5.0
100
AcDbArc
 50
270.0
 51
293.556464
  0
ARC
  5
104
100
AcDbEntity
  8
2
370
    50
100
AcDbCircle
 10
85.431959
 20
-76.094017
 30
0.0
 40
5.0
100
AcDbArc
 50
66.443536
 51
90.0
  0
ARC
  5
105
100
AcDbEntity
  8
2
370
    50
100
AcDbCircle
 10
87.829875
 20
-73.794017
 30
0.0
 40
1.0
100
AcDbArc
 50
90.0
 51
113.556464
  0
ARC
  5
106
100
AcDbEntity
  8
2
370
    50
100
AcDbCircle
 10
87.829875
 20
-70.594017
 30
0.0
 40
1.0
100
AcDbArc
 50
246.443536
 51
270.0
  0
LINE
  5
107
100
AcDbEntity
  8
2
370
    50
100
AcDbLine
 10
78.111408
 20
-78.783654
 30
0.0
 11
78.111408
 21
-73.294017
 31
0.0
  0
ARC
  5
108
100
AcDbEntity
  8
2
370
    50
100
AcDbCircle
 10
71.111408
 20
-55.040124
 30
0.0
 40
24.753893
100
AcDbArc
 50
270.0
 51
286.426421
  0
ARC
  5
109
100
AcDbEntity
  8
2
370
    50
100
AcDbCircle
 10
81.486408
 20
-73.651938
 30
0.0
 40
6.142079
100
AcDbArc
 50
236.668091
 51
303.331909
  0
ARC
  5
10A
100
AcDbEntity
  8
2
370
    50
100
AcDbCircle
 10
71.111408
 20
-57.044017
 30
0.0
 40
16.25
100
AcDbArc
 50
270.0
 51
284.250033
  0
ARC
  5
10B
100
AcDbEntity
  8
2
370
    50
100
AcDbCircle
 10
79.361408
 20
-57.044017
 30
0.0
 40
16.25
100
AcDbArc
 50
262.930286
 51
284.250033
  0
ARC
  5
10C
100
AcDbEntity
  8
2
370
    50
100
AcDbCircle
 10
75.361408
 20
-57.044017
 30
0.0
 40
16.25
100
AcDbArc
 50
262.485955
 51
284.250033
  0
ARC
  5
10D
100
AcDbEntity
  8
2
370
    50
100
AcDbCircle
 10
83.361408
 20
-57.044017
 30
0.0
 40
16.25
100
AcDbArc
 50
262.930286
 51
270.0
  0
ARC
  5
10E
100
AcDbEntity
  8
2
370
    50
100
AcDbCircle
 10
71.111408
 20
-87.344017
 30
0.0
 40
16.25
100
AcDbArc
 50
75.749967
 51
90.0
  0
ARC
  5
10F
100
AcDbEntity
  8
2
370
    50
100
AcDbCircle
 10
75.361408
 20
-87.344017
 30
0.0
 40
16.25
100
AcDbArc
 50
75.749967
 51
97.514045
  0
ARC
  5
110
100
AcDbEntity
  8
2
370
    50
100
AcDbCircle
 10
79.361408
 20
-87.344017
 30
0.0
 40
16.25
100
AcDbArc
 50
75.749967
 51
97.069714
  0
ARC
  5
111
100
AcDbEntity
  8
2
370
    50
100
AcDbCircle
 10
83.361408
 20
-87.344017
 30
0.0
 40
16.25
100
AcDbArc
 50
90.0
 51
97.069714
  0
LINE
  5
112
100
AcDbEntity
  8
2
370
    50
100
AcDbLine
 10
82.611408
 20
-111.594017
 30
0.0
 11
71.111408
 21
-111.594017
 31
0.0
  0
ARC
  5
113
100
AcDbEntity
  8
2
370
    50
100
AcDbCircle
 10
68.836408
 20
-105.594017
 30
0.0
 40
15.025
100
AcDbArc
 50
336.463422
 51
23.536578
  0
LINE
  5
114
100
AcDbEntity
  8
2
370
    50
100
AcDbLine
 10
82.611408
 20
-99.594017
 30
0.0
 11
71.111408
 21
-99.594017
 31
0.0
  0
ELLIPSE
  5
115
100
AcDbEntity
  8
2
370
    50
100
AcDbEllipse
 10
81.0707
 20
-105.594017
 30
0.0
 11
0.0
 21
6.0
 31
0.0
210
0.0
220
0.0
230
1.0
 40
0.458833
 41
0.0
 42
6.2831849999999996
  0
LINE
  5
116
100
AcDbEntity
  8
2
370
    50
100
AcDbLine
 10
81.361408
 20
-99.594017
 30
0.0
 11
81.361408
 21
-79.794017
 31
0.0
  0
LINE
  5
117
100
AcDbEntity
  8
2
370
    50
100
AcDbLine
 10
88.611408
 20
-69.594017
 30
0.0
 11
53.611408
 21
-69.594017
 31
0.0
  0
LINE
  5
118
100
AcDbEntity
  8
2
370
    50
100
AcDbLine
 10
50.111408
 20
-49.094017
 30
0.0
 11
92.111408
 21
-49.094017
 31
0.0
  0
LINE
  5
119
100
AcDbEntity
  8
2
370
    50
100
AcDbLine
 10
90.611408
 20
-54.594017
 30
0.0
 11
90.611408
 21
-56.594017
 31
0.0
  0
LINE
  5
11A
100
AcDbEntity
  8
2
370
    50
100
AcDbLine
 10
90.611408
 20
-56.594017
 30
0.0
 11
71.111408
 21
-56.594017
 31
0.0
  0
LINE
  5
11B
100
AcDbEntity
  8
2
370
    50
100
AcDbLine
 10
92.111408
 20
-54.594017
 30
0.0
 11
71.111408
 21
-54.594017
 31
0.0
  0
LINE
  5
11C
100
AcDbEntity
  8
2
370
    50
100
AcDbLine
 10
92.611408
 20
-54.094017
 30
0.0
 11
92.111408
 21
-54.594017
 31
0.0
  0
LINE
  5
11D
100
AcDbEntity
  8
2
370
    50
100
AcDbLine
 10
92.611408
 20
-49.594017
 30
0.0
 11
92.611408
 21
-54.094017
 31
0.0
  0
LINE
  5
11E
100
AcDbEntity
  8
2
370
    50
100
AcDbLine
 10
92.111408
 20
-49.094017
 30
0.0
 11
92.611408
 21
-49.594017
 31
0.0
  0
LINE
  5
11F
100
AcDbEntity
  8
2
370
    50
100
AcDbLine
 10
50.111408
 20
-49.094017
 30
0.0
 11
49.611408
 21
-49.594017
 31
0.0
  0
LINE
  5
120
100
AcDbEntity
  8
2
370
    50
100
AcDbLine
 10
49.611408
 20
-49.594017
 30
0.0
 11
49.611408
 21
-54.094017
 31
0.0
  0
LINE
  5
121
100
AcDbEntity
  8
2
370
    50
100
AcDbLine
 10
49.611408
 20
-54.094017
 30
0.0
 11
50.111408
 21
-54.594017
 31
0.0
  0
LINE
  5
122
100
AcDbEntity
  8
2
370
    50
100
AcDbLine
 10
50.111408
 20
-54.594017
 30
0.0
 11
71.111408
 21
-54.594017
 31
0.0
  0
LINE
  5
123
100
AcDbEntity
  8
2
370
    50
100
AcDbLine
 10
51.611408
 20
-54.594017
 30
0.0
 11
51.611408
 21
-56.594017
 31
0.0
  0
LINE
  5
124
100
AcDbEntity
  8
2
370
    50
100
AcDbLine
 10
51.611408
 20
-56.594017
 30
0.0
 11
71.111408
 21
-56.594017
 31
0.0
  0
LINE
  5
125
100
AcDbEntity
  8
2
370
    25
100
AcDbLine
 10
49.611408
 20
-49.594017
 30
0.0
 11
92.611408
 21
-49.594017
 31
0.0
  0
LINE
  5
126
100
AcDbEntity
  8
2
370
    25
100
AcDbLine
 10
92.611408
 20
-54.094017
 30
0.0
 11
49.611408
 21
-54.094017
 31
0.0
  0
HATCH
  5
127
100
AcDbEntity
  8
2
370
    25
100
AcDbHatch
 10
0.0
 20
0.0
 30
0.0
210
0.0
220
0.0
230
1.0
  2
_U
 70
     0
 71
     1
 91
        1
 92
        1
 93
        6
 72
     1
 10
51.611407999999997
 20
-56.594017000000001
 11
51.611407999999997
 21
-54.594017000000001
 72
     1
 10
51.611407999999997
 20
-54.594017000000001
 11
71.111407999999997
 21
-54.594017000000001
 72
     1
 10
71.111407999999997
 20
-54.594017000000001
 11
90.611407999999997
 21
-54.594017000000001
 72
     1
 10
90.611407999999997
 20
-54.594017000000001
 11
90.611407999999997
 21
-56.594017000000001
 72
     1
 10
90.611407999999997
 20
-56.594017000000001
 11
71.111407999999997
 21
-56.594017000000001
 72
     1
 10
71.111407999999997
 20
-56.594017000000001
 11
51.611407999999997
 21
-56.594017000000001
 97
        6
330
0
330
0
330
0
330
0
330
0
330
0
 75
     0
 76
     0
 52
45.0
 41
1.0
 77
     0
 78
     1
 53
45.0
 43
0.0
 44
0.0
 45
-1.4142140000000001
 46
1.4142140000000001
 79
     0
 98
        1
 10
0.0
 20
0.0
  0
HATCH
  5
128
100
AcDbEntity
  8
2
370
    25
100
AcDbHatch
 10
0.0
 20
0.0
 30
0.0
210
0.0
220
0.0
230
1.0
  2
_U
 70
     0
 71
     1
 91
        1
 92
        1
 93
        5
 72
     1
 10
53.611407999999997
 20
-69.594016999999994
 11
53.611407999999997
 21
-71.094016999999994
 72
     1
 10
53.611407999999997
 20
-71.094016999999994
 11
71.111407999999997
 21
-71.094016999999994
 72
     1
 10
71.111407999999997
 20
-71.094016999999994
 11
88.611407999999997
 21
-71.094016999999994
 72
     1
 10
88.611407999999997
 20
-71.094016999999994
 11
88.611407999999997
 21
-69.594016999999994
 72
     1
 10
88.611407999999997
 20
-69.594016999999994
 11
53.611407999999997
 21
-69.594016999999994
 97
        5
330
0
330
0
330
0
330
0
330
0
 75
     0
 76
     0
 52
45.0
 41
1.0
 77
     0
 78
     1
 53
45.0
 43
0.0
 44
0.0
 45
-1.4142140000000001
 46
1.4142140000000001
 79
     0
 98
        1
 10
0.0
 20
0.0
  0
POINT
  5
129
100
AcDbEntity
  8
2
370
    50
100
AcDbPoint
 10
205.777599
 20
-49.094017
 30
0.0
  0
LINE
  5
12A
100
AcDbEntity
  8
2
370
    50
100
AcDbLine
 10
188.277599
 20
-71.094017
 30
0.0
 11
188.277599
 21
-69.594017
 31
0.0
  0
LINE
  5
12B
100
AcDbEntity
  8
2
370
    50
100
AcDbLine
 10
205.777599
 20
-71.094017
 30
0.0
 11
188.277599
 21
-71.094017
 31
0.0
  0
LINE
  5
12C
100
AcDbEntity
  8
2
370
    25
100
AcDbLine
 10
196.527599
 20
-99.594017
 30
0.0
 11
196.527599
 21
-79.794017
 31
0.0
  0
LINE
  5
12D
100
AcDbEntity
  8
2
370
    25
100
AcDbLine
 10
196.527599
 20
-69.594017
 30
0.0
 11
196.527599
 21
-56.593625
 31
0.0
  0
LINE
  5
12E
100
AcDbEntity
  8
2
370
    50
100
AcDbLine
 10
195.527599
 20
-69.594017
 30
0.0
 11
195.527599
 21
-56.593625
 31
0.0
  0
LINE
  5
12F
100
AcDbEntity
  8
2
370
    50
100
AcDbLine
 10
193.777599
 20
-79.794017
 30
0.0
 11
205.777599
 21
-79.794017
 31
0.0
  0
LINE
  5
130
100
AcDbEntity
  8
2
370
    50
100
AcDbLine
 10
192.027599
 20
-78.783654
 30
0.0
 11
192.027599
 21
-73.294017
 31
0.0
  0
LINE
  5
131
100
AcDbEntity
  8
2
370
    50
100
AcDbLine
 10
193.777599
 20
-79.794017
 30
0.0
 11
192.027599
 21
-78.783654
 31
0.0
  0
LINE
  5
132
100
AcDbEntity
  8
2
370
    50
100
AcDbLine
 10
185.777599
 20
-72.794017
 30
0.0
 11
185.777599
 21
-71.594017
 31
0.0
  0
LINE
  5
133
100
AcDbEntity
  8
2
370
    50
100
AcDbLine
 10
205.777599
 20
-73.294017
 30
0.0
 11
191.457049
 21
-73.294017
 31
0.0
  0
LINE
  5
134
100
AcDbEntity
  8
2
370
    50
100
AcDbLine
 10
185.777599
 20
-71.594017
 30
0.0
 11
205.777599
 21
-71.594017
 31
0.0
  0
LINE
  5
135
100
AcDbEntity
  8
2
370
    50
100
AcDbLine
 10
185.777599
 20
-72.794017
 30
0.0
 11
205.777599
 21
-72.794017
 31
0.0
  0
ARC
  5
136
100
AcDbEntity
  8
2
370
    50
100
AcDbCircle
 10
191.457049
 20
-68.294017
 30
0.0
 40
5.0
100
AcDbArc
 50
246.443536
 51
270.0
  0
ARC
  5
137
100
AcDbEntity
  8
2
370
    50
100
AcDbCircle
 10
191.457049
 20
-76.094017
 30
0.0
 40
5.0
100
AcDbArc
 50
90.0
 51
113.556464
  0
ARC
  5
138
100
AcDbEntity
  8
2
370
    50
100
AcDbCircle
 10
189.059133
 20
-73.794017
 30
0.0
 40
1.0
100
AcDbArc
 50
66.443536
 51
90.0
  0
ARC
  5
139
100
AcDbEntity
  8
2
370
    50
100
AcDbCircle
 10
189.059133
 20
-70.594017
 30
0.0
 40
1.0
100
AcDbArc
 50
270.0
 51
293.556464
  0
LINE
  5
13A
100
AcDbEntity
  8
2
370
    50
100
AcDbLine
 10
198.777599
 20
-78.783654
 30
0.0
 11
198.777599
 21
-73.294017
 31
0.0
  0
ARC
  5
13B
100
AcDbEntity
  8
2
370
    50
100
AcDbCircle
 10
205.777599
 20
-55.040124
 30
0.0
 40
24.753893
100
AcDbArc
 50
253.573579
 51
270.0
  0
ARC
  5
13C
100
AcDbEntity
  8
2
370
    50
100
AcDbCircle
 10
195.402599
 20
-73.651938
 30
0.0
 40
6.142079
100
AcDbArc
 50
236.668091
 51
303.331909
  0
ARC
  5
13D
100
AcDbEntity
  8
2
370
    50
100
AcDbCircle
 10
205.777599
 20
-57.044017
 30
0.0
 40
16.25
100
AcDbArc
 50
255.749967
 51
270.0
  0
ARC
  5
13E
100
AcDbEntity
  8
2
370
    50
100
AcDbCircle
 10
197.527599
 20
-57.044017
 30
0.0
 40
16.25
100
AcDbArc
 50
255.749967
 51
277.069714
  0
ARC
  5
13F
100
AcDbEntity
  8
2
370
    50
100
AcDbCircle
 10
201.527599
 20
-57.044017
 30
0.0
 40
16.25
100
AcDbArc
 50
255.749967
 51
277.514045
  0
ARC
  5
140
100
AcDbEntity
  8
2
370
    50
100
AcDbCircle
 10
193.527599
 20
-57.044017
 30
0.0
 40
16.25
100
AcDbArc
 50
270.0
 51
277.069714
  0
ARC
  5
141
100
AcDbEntity
  8
2
370
    50
100
AcDbCircle
 10
205.777599
 20
-87.344017
 30
0.0
 40
16.25
100
AcDbArc
 50
90.0
 51
104.250033
  0
ARC
  5
142
100
AcDbEntity
  8
2
370
    50
100
AcDbCircle
 10
201.527599
 20
-87.344017
 30
0.0
 40
16.25
100
AcDbArc
 50
82.485955
 51
104.250033
  0
ARC
  5
143
100
AcDbEntity
  8
2
370
    50
100
AcDbCircle
 10
197.527599
 20
-87.344017
 30
0.0
 40
16.25
100
AcDbArc
 50
82.930286
 51
104.250033
  0
ARC
  5
144
100
AcDbEntity
  8
2
370
    50
100
AcDbCircle
 10
193.527599
 20
-87.344017
 30
0.0
 40
16.25
100
AcDbArc
 50
82.930286
 51
90.0
  0
LINE
  5
145
100
AcDbEntity
  8
2
370
    50
100
AcDbLine
 10
194.277599
 20
-111.594017
 30
0.0
 11
205.777599
 21
-111.594017
 31
0.0
  0
ARC
  5
146
100
AcDbEntity
  8
2
370
    50
100
AcDbCircle
 10
208.052599
 20
-105.594017
 30
0.0
 40
15.025
100
AcDbArc
 50
156.463422
 51
203.536578
  0
LINE
  5
147
100
AcDbEntity
  8
2
370
    50
100
AcDbLine
 10
194.277599
 20
-99.594017
 30
0.0
 11
205.777599
 21
-99.594017
 31
0.0
  0
ELLIPSE
  5
148
100
AcDbEntity
  8
2
370
    50
100
AcDbEllipse
 10
195.818307
 20
-105.594017
 30
0.0
 11
0.0
 21
6.0
 31
0.0
210
0.0
220
0.0
230
1.0
 40
0.458833
 41
0.0
 42
6.2831849999999996
  0
ELLIPSE
  5
149
100
AcDbEntity
  8
2
370
    50
100
AcDbEllipse
 10
205.777599
 20
-105.594017
 30
0.0
 11
0.0
 21
6.0
 31
0.0
210
0.0
220
0.0
230
1.0
 40
0.926667
 41
0.0
 42
6.2831849999999996
  0
LINE
  5
14A
100
AcDbEntity
  8
2
370
    50
100
AcDbLine
 10
195.527599
 20
-99.594017
 30
0.0
 11
195.527599
 21
-79.794017
 31
0.0
  0
LINE
  5
14B
100
AcDbEntity
  8
2
370
    50
100
AcDbLine
 10
223.277599
 20
-71.094017
 30
0.0
 11
223.277599
 21
-69.594017
 31
0.0
  0
LINE
  5
14C
100
AcDbEntity
  8
2
370
    50
100
AcDbLine
 10
205.777599
 20
-71.094017
 30
0.0
 11
223.277599
 21
-71.094017
 31
0.0
  0
LINE
  5
14D
100
AcDbEntity
  8
2
370
    25
100
AcDbLine
 10
215.027599
 20
-99.594017
 30
0.0
 11
215.027599
 21
-79.794017
 31
0.0
  0
LINE
  5
14E
100
AcDbEntity
  8
2
370
    25
100
AcDbLine
 10
215.027599
 20
-69.594017
 30
0.0
 11
215.027599
 21
-56.593625
 31
0.0
  0
LINE
  5
14F
100
AcDbEntity
  8
2
370
    50
100
AcDbLine
 10
216.027599
 20
-69.594017
 30
0.0
 11
216.027599
 21
-56.593625
 31
0.0
  0
LINE
  5
150
100
AcDbEntity
  8
2
370
    50
100
AcDbLine
 10
217.777599
 20
-79.794017
 30
0.0
 11
205.777599
 21
-79.794017
 31
0.0
  0
LINE
  5
151
100
AcDbEntity
  8
2
370
    50
100
AcDbLine
 10
219.527599
 20
-78.783654
 30
0.0
 11
219.527599
 21
-73.294017
 31
0.0
  0
LINE
  5
152
100
AcDbEntity
  8
2
370
    50
100
AcDbLine
 10
217.777599
 20
-79.794017
 30
0.0
 11
219.527599
 21
-78.783654
 31
0.0
  0
LINE
  5
153
100
AcDbEntity
  8
2
370
    50
100
AcDbLine
 10
225.777599
 20
-72.794017
 30
0.0
 11
225.777599
 21
-71.594017
 31
0.0
  0
LINE
  5
154
100
AcDbEntity
  8
2
370
    50
100
AcDbLine
 10
205.777599
 20
-73.294017
 30
0.0
 11
220.09815
 21
-73.294017
 31
0.0
  0
LINE
  5
155
100
AcDbEntity
  8
2
370
    50
100
AcDbLine
 10
225.777599
 20
-71.594017
 30
0.0
 11
205.777599
 21
-71.594017
 31
0.0
  0
LINE
  5
156
100
AcDbEntity
  8
2
370
    50
100
AcDbLine
 10
225.777599
 20
-72.794017
 30
0.0
 11
205.777599
 21
-72.794017
 31
0.0
  0
ARC
  5
157
100
AcDbEntity
  8
2
370
    50
100
AcDbCircle
 10
220.09815
 20
-68.294017
 30
0.0
 40
5.0
100
AcDbArc
 50
270.0
 51
293.556464
  0
ARC
  5
158
100
AcDbEntity
  8
2
370
    50
100
AcDbCircle
 10
220.09815
 20
-76.094017
 30
0.0
 40
5.0
100
AcDbArc
 50
66.443536
 51
90.0
  0
ARC
  5
159
100
AcDbEntity
  8
2
370
    50
100
AcDbCircle
 10
222.496066
 20
-73.794017
 30
0.0
 40
1.0
100
AcDbArc
 50
90.0
 51
113.556464
  0
ARC
  5
15A
100
AcDbEntity
  8
2
370
    50
100
AcDbCircle
 10
222.496066
 20
-70.594017
 30
0.0
 40
1.0
100
AcDbArc
 50
246.443536
 51
270.0
  0
LINE
  5
15B
100
AcDbEntity
  8
2
370
    50
100
AcDbLine
 10
212.777599
 20
-78.783654
 30
0.0
 11
212.777599
 21
-73.294017
 31
0.0
  0
ARC
  5
15C
100
AcDbEntity
  8
2
370
    50
100
AcDbCircle
 10
205.777599
 20
-55.040124
 30
0.0
 40
24.753893
100
AcDbArc
 50
270.0
 51
286.426421
  0
ARC
  5
15D
100
AcDbEntity
  8
2
370
    50
100
AcDbCircle
 10
216.152599
 20
-73.651938
 30
0.0
 40
6.142079
100
AcDbArc
 50
236.668091
 51
303.331909
  0
ARC
  5
15E
100
AcDbEntity
  8
2
370
    50
100
AcDbCircle
 10
205.777599
 20
-57.044017
 30
0.0
 40
16.25
100
AcDbArc
 50
270.0
 51
284.250033
  0
ARC
  5
15F
100
AcDbEntity
  8
2
370
    50
100
AcDbCircle
 10
214.027599
 20
-57.044017
 30
0.0
 40
16.25
100
AcDbArc
 50
262.930286
 51
284.250033
  0
ARC
  5
160
100
AcDbEntity
  8
2
370
    50
100
AcDbCircle
 10
210.027599
 20
-57.044017
 30
0.0
 40
16.25
100
AcDbArc
 50
262.485955
 51
284.250033
  0
ARC
  5
161
100
AcDbEntity
  8
2
370
    50
100
AcDbCircle
 10
218.027599
 20
-57.044017
 30
0.0
 40
16.25
100
AcDbArc
 50
262.930286
 51
270.0
  0
ARC
  5
162
100
AcDbEntity
  8
2
370
    50
100
AcDbCircle
 10
205.777599
 20
-87.344017
 30
0.0
 40
16.25
100
AcDbArc
 50
75.749967
 51
90.0
  0
ARC
  5
163
100
AcDbEntity
  8
2
370
    50
100
AcDbCircle
 10
210.027599
 20
-87.344017
 30
0.0
 40
16.25
100
AcDbArc
 50
75.749967
 51
97.514045
  0
ARC
  5
164
100
AcDbEntity
  8
2
370
    50
100
AcDbCircle
 10
214.027599
 20
-87.344017
 30
0.0
 40
16.25
100
AcDbArc
 50
75.749967
 51
97.069714
  0
ARC
  5
165
100
AcDbEntity
  8
2
370
    50
100
AcDbCircle
 10
218.027599
 20
-87.344017
 30
0.0
 40
16.25
100
AcDbArc
 50
90.0
 51
97.069714
  0
LINE
  5
166
100
AcDbEntity
  8
2
370
    50
100
AcDbLine
 10
217.277599
 20
-111.594017
 30
0.0
 11
205.777599
 21
-111.594017
 31
0.0
  0
ARC
  5
167
100
AcDbEntity
  8
2
370
    50
100
AcDbCircle
 10
203.502599
 20
-105.594017
 30
0.0
 40
15.025
100
AcDbArc
 50
336.463422
 51
23.536578
  0
LINE
  5
168
100
AcDbEntity
  8
2
370
    50
100
AcDbLine
 10
217.277599
 20
-99.594017
 30
0.0
 11
205.777599
 21
-99.594017
 31
0.0
  0
ELLIPSE
  5
169
100
AcDbEntity
  8
2
370
    50
100
AcDbEllipse
 10
215.736891
 20
-105.594017
 30
0.0
 11
0.0
 21
6.0
 31
0.0
210
0.0
220
0.0
230
1.0
 40
0.458833
 41
0.0
 42
6.2831849999999996
  0
LINE
  5
16A
100
AcDbEntity
  8
2
370
    50
100
AcDbLine
 10
216.027599
 20
-99.594017
 30
0.0
 11
216.027599
 21
-79.794017
 31
0.0
  0
LINE
  5
16B
100
AcDbEntity
  8
2
370
    50
100
AcDbLine
 10
223.277599
 20
-69.594017
 30
0.0
 11
188.277599
 21
-69.594017
 31
0.0
  0
LINE
  5
16C
100
AcDbEntity
  8
2
370
    50
100
AcDbLine
 10
184.777599
 20
-49.094017
 30
0.0
 11
226.777599
 21
-49.094017
 31
0.0
  0
LINE
  5
16D
100
AcDbEntity
  8
2
370
    50
100
AcDbLine
 10
225.277599
 20
-54.594017
 30
0.0
 11
225.277599
 21
-56.594017
 31
0.0
  0
LINE
  5
16E
100
AcDbEntity
  8
2
370
    50
100
AcDbLine
 10
225.277599
 20
-56.594017
 30
0.0
 11
205.777599
 21
-56.594017
 31
0.0
  0
LINE
  5
16F
100
AcDbEntity
  8
2
370
    50
100
AcDbLine
 10
226.777599
 20
-54.594017
 30
0.0
 11
205.777599
 21
-54.594017
 31
0.0
  0
LINE
  5
170
100
AcDbEntity
  8
2
370
    50
100
AcDbLine
 10
227.277599
 20
-54.094017
 30
0.0
 11
226.777599
 21
-54.594017
 31
0.0
  0
LINE
  5
171
100
AcDbEntity
  8
2
370
    50
100
AcDbLine
 10
227.277599
 20
-49.594017
 30
0.0
 11
227.277599
 21
-54.094017
 31
0.0
  0
LINE
  5
172
100
AcDbEntity
  8
2
370
    50
100
AcDbLine
 10
226.777599
 20
-49.094017
 30
0.0
 11
227.277599
 21
-49.594017
 31
0.0
  0
LINE
  5
173
100
AcDbEntity
  8
2
370
    50
100
AcDbLine
 10
184.777599
 20
-49.094017
 30
0.0
 11
184.277599
 21
-49.594017
 31
0.0
  0
LINE
  5
174
100
AcDbEntity
  8
2
370
    50
100
AcDbLine
 10
184.277599
 20
-49.594017
 30
0.0
 11
184.277599
 21
-54.094017
 31
0.0
  0
LINE
  5
175
100
AcDbEntity
  8
2
370
    50
100
AcDbLine
 10
184.277599
 20
-54.094017
 30
0.0
 11
184.777599
 21
-54.594017
 31
0.0
  0
LINE
  5
176
100
AcDbEntity
  8
2
370
    50
100
AcDbLine
 10
184.777599
 20
-54.594017
 30
0.0
 11
205.777599
 21
-54.594017
 31
0.0
  0
LINE
  5
177
100
AcDbEntity
  8
2
370
    50
100
AcDbLine
 10
186.277599
 20
-54.594017
 30
0.0
 11
186.277599
 21
-56.594017
 31
0.0
  0
LINE
  5
178
100
AcDbEntity
  8
2
370
    50
100
AcDbLine
 10
186.277599
 20
-56.594017
 30
0.0
 11
205.777599
 21
-56.594017
 31
0.0
  0
LINE
  5
179
100
AcDbEntity
  8
2
370
    25
100
AcDbLine
 10
184.277599
 20
-49.594017
 30
0.0
 11
227.277599
 21
-49.594017
 31
0.0
  0
LINE
  5
17A
100
AcDbEntity
  8
2
370
    25
100
AcDbLine
 10
227.277599
 20
-54.094017
 30
0.0
 11
184.277599
 21
-54.094017
 31
0.0
  0
HATCH
  5
17B
100
AcDbEntity
  8
2
370
    25
100
AcDbHatch
 10
0.0
 20
0.0
 30
0.0
210
0.0
220
0.0
230
1.0
  2
_U
 70
     0
 71
     1
 91
        1
 92
        1
 93
        6
 72
     1
 10
186.27759900000001
 20
-56.594017000000001
 11
186.27759900000001
 21
-54.594017000000001
 72
     1
 10
186.27759900000001
 20
-54.594017000000001
 11
205.77759900000001
 21
-54.594017000000001
 72
     1
 10
205.77759900000001
 20
-54.594017000000001
 11
225.27759900000001
 21
-54.594017000000001
 72
     1
 10
225.27759900000001
 20
-54.594017000000001
 11
225.27759900000001
 21
-56.594017000000001
 72
     1
 10
225.27759900000001
 20
-56.594017000000001
 11
205.77759900000001
 21
-56.594017000000001
 72
     1
 10
205.77759900000001
 20
-56.594017000000001
 11
186.27759900000001
 21
-56.594017000000001
 97
        6
330
0
330
0
330
0
330
0
330
0
330
0
 75
     0
 76
     0
 52
45.0
 41
1.0
 77
     0
 78
     1
 53
45.0
 43
0.0
 44
0.0
 45
-1.4142140000000001
 46
1.4142140000000001
 79
     0
 98
        1
 10
0.0
 20
0.0
  0
HATCH
  5
17C
100
AcDbEntity
  8
2
370
    25
100
AcDbHatch
 10
0.0
 20
0.0
 30
0.0
210
0.0
220
0.0
230
1.0
  2
_U
 70
     0
 71
     1
 91
        1
 92
        1
 93
        5
 72
     1
 10
188.27759900000001
 20
-69.594016999999994
 11
188.27759900000001
 21
-71.094016999999994
 72
     1
 10
188.27759900000001
 20
-71.094016999999994
 11
205.77759900000001
 21
-71.094016999999994
 72
     1
 10
205.77759900000001
 20
-71.094016999999994
 11
223.27759900000001
 21
-71.094016999999994
 72
     1
 10
223.27759900000001
 20
-71.094016999999994
 11
223.27759900000001
 21
-69.594016999999994
 72
     1
 10
223.27759900000001
 20
-69.594016999999994
 11
188.27759900000001
 21
-69.594016999999994
 97
        5
330
0
330
0
330
0
330
0
330
0
 75
     0
 76
     0
 52
45.0
 41
1.0
 77
     0
 78
     1
 53
45.0
 43
0.0
 44
0.0
 45
-1.4142140000000001
 46
1.4142140000000001
 79
     0
 98
        1
 10
0.0
 20
0.0
  0
LINE
  5
17D
100
AcDbEntity
  8
2
370
    25
  6
CENTER
100
AcDbLine
 10
71.111408
 20
-113.31204
 30
0.0
 11
71.111408
 21
89.430756
 31
0.0
  0
LINE
  5
17E
100
AcDbEntity
  8
2
370
    25
  6
CENTER
100
AcDbLine
 10
205.777599
 20
-113.31204
 30
0.0
 11
205.777599
 21
89.430756
 31
0.0
  0
LINE
  5
17F
100
AcDbEntity
  8
2
370
    50
100
AcDbLine
 10
-256.245565
 20
87.303882
 30
0.0
 11
-289.245565
 21
87.303882
 31
0.0
  0
LINE
  5
180
100
AcDbEntity
  8
2
370
    50
100
AcDbLine
 10
-290.245565
 20
86.303882
 30
0.0
 11
-290.245565
 21
61.803882
 31
0.0
  0
LINE
  5
181
100
AcDbEntity
  8
2
370
    50
100
AcDbLine
 10
-255.245565
 20
86.303882
 30
0.0
 11
-255.245565
 21
61.803882
 31
0.0
  0
ARC
  5
182
100
AcDbEntity
  8
2
370
    50
100
AcDbCircle
 10
-289.245565
 20
86.303882
 30
0.0
 40
1.0
100
AcDbArc
 50
90.0
 51
180.0
  0
ARC
  5
183
100
AcDbEntity
  8
2
370
    50
100
AcDbCircle
 10
-256.245565
 20
86.303882
 30
0.0
 40
1.0
100
AcDbArc
 50
0.0
 51
90.0
  0
LINE
  5
184
100
AcDbEntity
  8
2
370
    50
100
AcDbLine
 10
-255.245565
 20
61.803882
 30
0.0
 11
-290.245565
 21
61.803882
 31
0.0
  0
CIRCLE
  5
185
100
AcDbEntity
  8
2
370
    50
100
AcDbCircle
 10
-272.745565
 20
79.303882
 30
0.0
 40
4.0
  0
CIRCLE
  5
186
100
AcDbEntity
  8
2
370
    25
100
AcDbCircle
 10
-272.745565
 20
79.303882
 30
0.0
 40
3.5
  0
LINE
  5
187
100
AcDbEntity
  8
2
370
    50
100
AcDbLine
 10
-255.745565
 20
60.903882
 30
0.0
 11
-289.745565
 21
60.903882
 31
0.0
  0
LINE
  5
188
100
AcDbEntity
  8
2
370
    50
100
AcDbLine
 10
-255.245565
 20
60.403882
 30
0.0
 11
-255.245565
 21
-48.796118
 31
0.0
  0
LINE
  5
189
100
AcDbEntity
  8
2
370
    50
100
AcDbLine
 10
-255.245565
 20
60.403882
 30
0.0
 11
-255.745565
 21
60.903882
 31
0.0
  0
LINE
  5
18A
100
AcDbEntity
  8
2
370
    50
100
AcDbLine
 10
-289.745565
 20
60.903882
 30
0.0
 11
-290.245565
 21
60.403882
 31
0.0
  0
LINE
  5
18B
100
AcDbEntity
  8
2
370
    25
100
AcDbLine
 10
-255.245565
 20
60.403882
 30
0.0
 11
-290.245565
 21
60.403882
 31
0.0
  0
LINE
  5
18C
100
AcDbEntity
  8
2
370
    50
100
AcDbLine
 10
-290.245565
 20
-48.796118
 30
0.0
 11
-289.945565
 21
-49.096118
 31
0.0
  0
LINE
  5
18D
100
AcDbEntity
  8
2
370
    50
100
AcDbLine
 10
-255.245565
 20
-48.796118
 30
0.0
 11
-255.545565
 21
-49.096118
 31
0.0
  0
LINE
  5
18E
100
AcDbEntity
  8
2
370
    50
100
AcDbLine
 10
-290.245565
 20
-48.796118
 30
0.0
 11
-290.245565
 21
60.403882
 31
0.0
  0
LINE
  5
18F
100
AcDbEntity
  8
2
370
    25
100
AcDbLine
 10
-290.245565
 20
-48.796118
 30
0.0
 11
-255.245565
 21
-48.796118
 31
0.0
  0
LINE
  5
190
100
AcDbEntity
  8
2
370
    25
  6
CENTER
100
AcDbLine
 10
97.34894
 20
200.004261
 30
0.0
 11
-65.040617
 21
200.004261
 31
0.0
  0
CIRCLE
  5
191
100
AcDbEntity
  8
2
370
    50
100
AcDbCircle
 10
71.162565
 20
200.004261
 30
0.0
 40
17.5
  0
LINE
  5
192
100
AcDbEntity
  8
2
370
    50
100
AcDbLine
 10
54.12584
 20
196.004261
 30
0.0
 11
-4.837258
 21
196.004261
 31
0.0
  0
LINE
  5
193
100
AcDbEntity
  8
2
370
    50
100
AcDbLine
 10
54.12584
 20
204.004261
 30
0.0
 11
-4.837258
 21
204.004261
 31
0.0
  0
LINE
  5
194
100
AcDbEntity
  8
2
370
    50
100
AcDbLine
 10
-5.337258
 20
196.504261
 30
0.0
 11
-5.337258
 21
203.504261
 31
0.0
  0
LINE
  5
195
100
AcDbEntity
  8
2
370
    50
100
AcDbLine
 10
-4.837258
 20
204.004261
 30
0.0
 11
-5.337258
 21
203.504261
 31
0.0
  0
LINE
  5
196
100
AcDbEntity
  8
2
370
    50
100
AcDbLine
 10
-4.837258
 20
196.004261
 30
0.0
 11
-5.337258
 21
196.504261
 31
0.0
  0
LINE
  5
197
100
AcDbEntity
  8
2
370
    50
100
AcDbLine
 10
-4.837258
 20
204.004261
 30
0.0
 11
-4.837258
 21
196.004261
 31
0.0
  0
LINE
  5
198
100
AcDbEntity
  8
2
370
    25
  6
CENTER
100
AcDbLine
 10
71.162565
 20
174.852955
 30
0.0
 11
71.162565
 21
225.257405
 31
0.0
  0
POINT
  5
199
100
AcDbEntity
  8
2
370
    50
100
AcDbPoint
 10
71.162565
 20
200.004261
 30
0.0
  0
LINE
  5
19A
100
AcDbEntity
  8
2
370
    50
100
AcDbLine
 10
89.662565
 20
204.004261
 30
0.0
 11
88.19929
 21
204.004261
 31
0.0
  0
LINE
  5
19B
100
AcDbEntity
  8
2
370
    25
100
AcDbLine
 10
89.662565
 20
204.004261
 30
0.0
 11
89.662565
 21
196.004261
 31
0.0
  0
ARC
  5
19C
100
AcDbEntity
  8
2
370
    50
100
AcDbCircle
 10
82.734362
 20
200.004261
 30
0.0
 40
8.0
100
AcDbArc
 50
0.0
 51
30.0
  0
ARC
  5
19D
100
AcDbEntity
  8
2
370
    50
100
AcDbCircle
 10
82.734362
 20
200.004261
 30
0.0
 40
8.0
100
AcDbArc
 50
330.0
 51
360.0
  0
LINE
  5
19E
100
AcDbEntity
  8
2
370
    50
100
AcDbLine
 10
89.662565
 20
196.004261
 30
0.0
 11
88.19929
 21
196.004261
 31
0.0
  0
ARC
  5
19F
100
AcDbEntity
  8
2
370
    50
100
AcDbCircle
 10
-231.244509
 20
60.645144
 30
0.0
 40
56.0
100
AcDbArc
 50
178.814366
 51
179.735275
  0
ARC
  5
1A0
100
AcDbEntity
  8
2
370
    50
100
AcDbCircle
 10
-314.246621
 20
60.645144
 30
0.0
 40
56.0
100
AcDbArc
 50
0.264725
 51
1.185634
  0
LINE
  5
1A1
100
AcDbEntity
  8
2
370
    50
100
AcDbLine
 10
57.162258
 20
189.50467
 30
0.0
 11
-61.837862
 21
189.50467
 31
0.0
  0
LINE
  5
1A2
100
AcDbEntity
  8
2
370
    50
100
AcDbLine
 10
57.162872
 20
210.50467
 30
0.0
 11
-61.837862
 21
210.50467
 31
0.0
  0
LINE
  5
1A3
100
AcDbEntity
  8
2
370
    50
100
AcDbLine
 10
-62.337862
 20
210.00467
 30
0.0
 11
-62.337862
 21
190.00467
 31
0.0
  0
LINE
  5
1A4
100
AcDbEntity
  8
2
370
    50
100
AcDbLine
 10
-61.837862
 20
189.50467
 30
0.0
 11
-62.337862
 21
190.00467
 31
0.0
  0
LINE
  5
1A5
100
AcDbEntity
  8
2
370
    50
100
AcDbLine
 10
-61.837862
 20
210.50467
 30
0.0
 11
-62.337862
 21
210.00467
 31
0.0
  0
LINE
  5
1A6
100
AcDbEntity
  8
2
370
    50
100
AcDbLine
 10
-61.837862
 20
210.50467
 30
0.0
 11
-61.837862
 21
189.50467
 31
0.0
  0
CIRCLE
  5
1A7
100
AcDbEntity
  8
2
370
    50
100
AcDbCircle
 10
-272.745565
 20
20.903882
 30
0.0
 40
10.5
  0
LINE
  5
1A8
100
AcDbEntity
  8
2
370
    50
100
AcDbLine
 10
-263.495565
 20
15.93523
 30
0.0
 11
-263.495565
 21
5.211015
 31
0.0
  0
LINE
  5
1A9
100
AcDbEntity
  8
2
370
    50
100
AcDbLine
 10
-281.995565
 20
15.93523
 30
0.0
 11
-281.995565
 21
5.211015
 31
0.0
  0
LINE
  5
1AA
100
AcDbEntity
  8
2
370
    50
100
AcDbLine
 10
-264.130018
 20
4.059527
 30
0.0
 11
-264.409441
 21
3.814965
 31
0.0
  0
LINE
  5
1AB
100
AcDbEntity
  8
2
370
    50
100
AcDbLine
 10
-281.361113
 20
4.059527
 30
0.0
 11
-281.08169
 21
3.814965
 31
0.0
  0
ELLIPSE
  5
1AC
100
AcDbEntity
  8
2
370
    50
100
AcDbEllipse
 10
-272.745565
 20
4.929107
 30
0.0
 11
8.9499999999999993
 21
0.0
 31
0.0
210
0.0
220
0.0
230
1.0
 40
0.34202
 41
0.0
 42
6.2831849999999996
  0
ELLIPSE
  5
1AD
100
AcDbEntity
  8
2
370
    50
100
AcDbEllipse
 10
-272.745565
 20
5.211015
 30
0.0
 11
9.25
 21
0.0
 31
0.0
210
0.0
220
0.0
230
1.0
 40
0.34202
 41
5.9106579999999997
 42
3.5141200000000001
  0
ELLIPSE
  5
1AE
100
AcDbEntity
  8
2
370
    50
100
AcDbEllipse
 10
-272.745565
 20
4.929107
 30
0.0
 11
8.3499999999999996
 21
0.0
 31
0.0
210
0.0
220
0.0
230
1.0
 40
0.34202
 41
0.0
 42
6.2831849999999996
  0
CIRCLE
  5
1AF
100
AcDbEntity
  8
2
370
    50
100
AcDbCircle
 10
-272.745565
 20
20.903882
 30
0.0
 40
10.0
  0
LINE
  5
1B0
100
AcDbEntity
  8
2
370
    50
100
AcDbLine
 10
-290.245565
 20
55.403882
 30
0.0
 11
-290.245565
 21
35.403882
 31
0.0
  0
LINE
  5
1B1
100
AcDbEntity
  8
2
370
    50
100
AcDbLine
 10
-289.945565
 20
-49.096118
 30
0.0
 11
-255.545565
 21
-49.096118
 31
0.0
  0
LINE
  5
1B2
100
AcDbEntity
  8
2
370
    25
  6
CENTER
100
AcDbLine
 10
-272.745565
 20
-116.183907
 30
0.0
 11
-272.745565
 21
93.861542
 31
0.0
  0
POINT
  5
1B3
100
AcDbEntity
  8
2
370
    50
100
AcDbPoint
 10
-272.745565
 20
-49.096118
 30
0.0
  0
LINE
  5
1B4
100
AcDbEntity
  8
2
370
    50
100
AcDbLine
 10
-255.245565
 20
60.403882
 30
0.0
 11
-255.245565
 21
-48.796118
 31
0.0
  0
LINE
  5
1B5
100
AcDbEntity
  8
2
370
    50
100
AcDbLine
 10
-290.245565
 20
-48.796118
 30
0.0
 11
-289.945565
 21
-49.096118
 31
0.0
  0
LINE
  5
1B6
100
AcDbEntity
  8
2
370
    50
100
AcDbLine
 10
-255.245565
 20
-48.796118
 30
0.0
 11
-255.545565
 21
-49.096118
 31
0.0
  0
LINE
  5
1B7
100
AcDbEntity
  8
2
370
    50
100
AcDbLine
 10
-290.245565
 20
-48.796118
 30
0.0
 11
-290.245565
 21
10.403882
 31
0.0
  0
LINE
  5
1B8
100
AcDbEntity
  8
2
370
    25
100
AcDbLine
 10
-290.245565
 20
-48.796118
 30
0.0
 11
-255.245565
 21
-48.796118
 31
0.0
  0
POINT
  5
1B9
100
AcDbEntity
  8
2
370
    50
100
AcDbPoint
 10
-272.745565
 20
-49.096118
 30
0.0
  0
LINE
  5
1BA
100
AcDbEntity
  8
2
370
    50
100
AcDbLine
 10
-290.245565
 20
-71.096118
 30
0.0
 11
-290.245565
 21
-69.596118
 31
0.0
  0
LINE
  5
1BB
100
AcDbEntity
  8
2
370
    50
100
AcDbLine
 10
-272.745565
 20
-71.096118
 30
0.0
 11
-290.245565
 21
-71.096118
 31
0.0
  0
LINE
  5
1BC
100
AcDbEntity
  8
2
370
    25
100
AcDbLine
 10
-281.995565
 20
-99.596118
 30
0.0
 11
-281.995565
 21
-79.796118
 31
0.0
  0
LINE
  5
1BD
100
AcDbEntity
  8
2
370
    25
100
AcDbLine
 10
-281.995565
 20
-69.596118
 30
0.0
 11
-281.995565
 21
-56.595727
 31
0.0
  0
LINE
  5
1BE
100
AcDbEntity
  8
2
370
    50
100
AcDbLine
 10
-282.995565
 20
-69.596118
 30
0.0
 11
-282.995565
 21
-56.595727
 31
0.0
  0
LINE
  5
1BF
100
AcDbEntity
  8
2
370
    50
100
AcDbLine
 10
-284.745565
 20
-79.796118
 30
0.0
 11
-272.745565
 21
-79.796118
 31
0.0
  0
LINE
  5
1C0
100
AcDbEntity
  8
2
370
    50
100
AcDbLine
 10
-286.495565
 20
-78.785755
 30
0.0
 11
-286.495565
 21
-73.296118
 31
0.0
  0
LINE
  5
1C1
100
AcDbEntity
  8
2
370
    50
100
AcDbLine
 10
-284.745565
 20
-79.796118
 30
0.0
 11
-286.495565
 21
-78.785755
 31
0.0
  0
LINE
  5
1C2
100
AcDbEntity
  8
2
370
    50
100
AcDbLine
 10
-292.745565
 20
-72.796118
 30
0.0
 11
-292.745565
 21
-71.596118
 31
0.0
  0
LINE
  5
1C3
100
AcDbEntity
  8
2
370
    50
100
AcDbLine
 10
-272.745565
 20
-73.296118
 30
0.0
 11
-287.066116
 21
-73.296118
 31
0.0
  0
LINE
  5
1C4
100
AcDbEntity
  8
2
370
    50
100
AcDbLine
 10
-292.745565
 20
-71.596118
 30
0.0
 11
-272.745565
 21
-71.596118
 31
0.0
  0
LINE
  5
1C5
100
AcDbEntity
  8
2
370
    50
100
AcDbLine
 10
-292.745565
 20
-72.796118
 30
0.0
 11
-272.745565
 21
-72.796118
 31
0.0
  0
ARC
  5
1C6
100
AcDbEntity
  8
2
370
    50
100
AcDbCircle
 10
-287.066116
 20
-68.296118
 30
0.0
 40
5.0
100
AcDbArc
 50
246.443536
 51
270.0
  0
ARC
  5
1C7
100
AcDbEntity
  8
2
370
    50
100
AcDbCircle
 10
-287.066116
 20
-76.096118
 30
0.0
 40
5.0
100
AcDbArc
 50
90.0
 51
113.556464
  0
ARC
  5
1C8
100
AcDbEntity
  8
2
370
    50
100
AcDbCircle
 10
-289.464032
 20
-73.796118
 30
0.0
 40
1.0
100
AcDbArc
 50
66.443536
 51
90.0
  0
ARC
  5
1C9
100
AcDbEntity
  8
2
370
    50
100
AcDbCircle
 10
-289.464032
 20
-70.596118
 30
0.0
 40
1.0
100
AcDbArc
 50
270.0
 51
293.556464
  0
LINE
  5
1CA
100
AcDbEntity
  8
2
370
    50
100
AcDbLine
 10
-279.745565
 20
-78.785755
 30
0.0
 11
-279.745565
 21
-73.296118
 31
0.0
  0
ARC
  5
1CB
100
AcDbEntity
  8
2
370
    50
100
AcDbCircle
 10
-272.745565
 20
-55.042226
 30
0.0
 40
24.753893
100
AcDbArc
 50
253.573579
 51
270.0
  0
ARC
  5
1CC
100
AcDbEntity
  8
2
370
    50
100
AcDbCircle
 10
-283.120565
 20
-73.654039
 30
0.0
 40
6.142079
100
AcDbArc
 50
236.668091
 51
303.331909
  0
ARC
  5
1CD
100
AcDbEntity
  8
2
370
    50
100
AcDbCircle
 10
-272.745565
 20
-57.046118
 30
0.0
 40
16.25
100
AcDbArc
 50
255.749967
 51
270.0
  0
ARC
  5
1CE
100
AcDbEntity
  8
2
370
    50
100
AcDbCircle
 10
-280.995565
 20
-57.046118
 30
0.0
 40
16.25
100
AcDbArc
 50
255.749967
 51
277.069714
  0
ARC
  5
1CF
100
AcDbEntity
  8
2
370
    50
100
AcDbCircle
 10
-276.995565
 20
-57.046118
 30
0.0
 40
16.25
100
AcDbArc
 50
255.749967
 51
277.514045
  0
ARC
  5
1D0
100
AcDbEntity
  8
2
370
    50
100
AcDbCircle
 10
-284.995565
 20
-57.046118
 30
0.0
 40
16.25
100
AcDbArc
 50
270.0
 51
277.069714
  0
ARC
  5
1D1
100
AcDbEntity
  8
2
370
    50
100
AcDbCircle
 10
-272.745565
 20
-87.346118
 30
0.0
 40
16.25
100
AcDbArc
 50
90.0
 51
104.250033
  0
ARC
  5
1D2
100
AcDbEntity
  8
2
370
    50
100
AcDbCircle
 10
-276.995565
 20
-87.346118
 30
0.0
 40
16.25
100
AcDbArc
 50
82.485955
 51
104.250033
  0
ARC
  5
1D3
100
AcDbEntity
  8
2
370
    50
100
AcDbCircle
 10
-280.995565
 20
-87.346118
 30
0.0
 40
16.25
100
AcDbArc
 50
82.930286
 51
104.250033
  0
ARC
  5
1D4
100
AcDbEntity
  8
2
370
    50
100
AcDbCircle
 10
-284.995565
 20
-87.346118
 30
0.0
 40
16.25
100
AcDbArc
 50
82.930286
 51
90.0
  0
LINE
  5
1D5
100
AcDbEntity
  8
2
370
    50
100
AcDbLine
 10
-284.245565
 20
-111.596118
 30
0.0
 11
-272.745565
 21
-111.596118
 31
0.0
  0
ARC
  5
1D6
100
AcDbEntity
  8
2
370
    50
100
AcDbCircle
 10
-270.470565
 20
-105.596118
 30
0.0
 40
15.025
100
AcDbArc
 50
156.463422
 51
203.536578
  0
LINE
  5
1D7
100
AcDbEntity
  8
2
370
    50
100
AcDbLine
 10
-284.245565
 20
-99.596118
 30
0.0
 11
-272.745565
 21
-99.596118
 31
0.0
  0
ELLIPSE
  5
1D8
100
AcDbEntity
  8
2
370
    50
100
AcDbEllipse
 10
-282.704858
 20
-105.596118
 30
0.0
 11
0.0
 21
6.0
 31
0.0
210
0.0
220
0.0
230
1.0
 40
0.458833
 41
0.0
 42
6.2831849999999996
  0
ELLIPSE
  5
1D9
100
AcDbEntity
  8
2
370
    50
100
AcDbEllipse
 10
-272.745565
 20
-105.596118
 30
0.0
 11
0.0
 21
6.0
 31
0.0
210
0.0
220
0.0
230
1.0
 40
0.926667
 41
0.0
 42
6.2831849999999996
  0
LINE
  5
1DA
100
AcDbEntity
  8
2
370
    50
100
AcDbLine
 10
-282.995565
 20
-99.596118
 30
0.0
 11
-282.995565
 21
-79.796118
 31
0.0
  0
LINE
  5
1DB
100
AcDbEntity
  8
2
370
    50
100
AcDbLine
 10
-255.245565
 20
-71.096118
 30
0.0
 11
-255.245565
 21
-69.596118
 31
0.0
  0
LINE
  5
1DC
100
AcDbEntity
  8
2
370
    50
100
AcDbLine
 10
-272.745565
 20
-71.096118
 30
0.0
 11
-255.245565
 21
-71.096118
 31
0.0
  0
LINE
  5
1DD
100
AcDbEntity
  8
2
370
    25
100
AcDbLine
 10
-263.495565
 20
-99.596118
 30
0.0
 11
-263.495565
 21
-79.796118
 31
0.0
  0
LINE
  5
1DE
100
AcDbEntity
  8
2
370
    25
100
AcDbLine
 10
-263.495565
 20
-69.596118
 30
0.0
 11
-263.495565
 21
-56.595727
 31
0.0
  0
LINE
  5
1DF
100
AcDbEntity
  8
2
370
    50
100
AcDbLine
 10
-262.495565
 20
-69.596118
 30
0.0
 11
-262.495565
 21
-56.595727
 31
0.0
  0
LINE
  5
1E0
100
AcDbEntity
  8
2
370
    50
100
AcDbLine
 10
-260.745565
 20
-79.796118
 30
0.0
 11
-272.745565
 21
-79.796118
 31
0.0
  0
LINE
  5
1E1
100
AcDbEntity
  8
2
370
    50
100
AcDbLine
 10
-258.995565
 20
-78.785755
 30
0.0
 11
-258.995565
 21
-73.296118
 31
0.0
  0
LINE
  5
1E2
100
AcDbEntity
  8
2
370
    50
100
AcDbLine
 10
-260.745565
 20
-79.796118
 30
0.0
 11
-258.995565
 21
-78.785755
 31
0.0
  0
LINE
  5
1E3
100
AcDbEntity
  8
2
370
    50
100
AcDbLine
 10
-252.745565
 20
-72.796118
 30
0.0
 11
-252.745565
 21
-71.596118
 31
0.0
  0
LINE
  5
1E4
100
AcDbEntity
  8
2
370
    50
100
AcDbLine
 10
-272.745565
 20
-73.296118
 30
0.0
 11
-258.425015
 21
-73.296118
 31
0.0
  0
LINE
  5
1E5
100
AcDbEntity
  8
2
370
    50
100
AcDbLine
 10
-252.745565
 20
-71.596118
 30
0.0
 11
-272.745565
 21
-71.596118
 31
0.0
  0
LINE
  5
1E6
100
AcDbEntity
  8
2
370
    50
100
AcDbLine
 10
-252.745565
 20
-72.796118
 30
0.0
 11
-272.745565
 21
-72.796118
 31
0.0
  0
ARC
  5
1E7
100
AcDbEntity
  8
2
370
    50
100
AcDbCircle
 10
-258.425015
 20
-68.296118
 30
0.0
 40
5.0
100
AcDbArc
 50
270.0
 51
293.556464
  0
ARC
  5
1E8
100
AcDbEntity
  8
2
370
    50
100
AcDbCircle
 10
-258.425015
 20
-76.096118
 30
0.0
 40
5.0
100
AcDbArc
 50
66.443536
 51
90.0
  0
ARC
  5
1E9
100
AcDbEntity
  8
2
370
    50
100
AcDbCircle
 10
-256.027099
 20
-73.796118
 30
0.0
 40
1.0
100
AcDbArc
 50
90.0
 51
113.556464
  0
ARC
  5
1EA
100
AcDbEntity
  8
2
370
    50
100
AcDbCircle
 10
-256.027099
 20
-70.596118
 30
0.0
 40
1.0
100
AcDbArc
 50
246.443536
 51
270.0
  0
LINE
  5
1EB
100
AcDbEntity
  8
2
370
    50
100
AcDbLine
 10
-265.745565
 20
-78.785755
 30
0.0
 11
-265.745565
 21
-73.296118
 31
0.0
  0
ARC
  5
1EC
100
AcDbEntity
  8
2
370
    50
100
AcDbCircle
 10
-272.745565
 20
-55.042226
 30
0.0
 40
24.753893
100
AcDbArc
 50
270.0
 51
286.426421
  0
ARC
  5
1ED
100
AcDbEntity
  8
2
370
    50
100
AcDbCircle
 10
-262.370565
 20
-73.654039
 30
0.0
 40
6.142079
100
AcDbArc
 50
236.668091
 51
303.331909
  0
ARC
  5
1EE
100
AcDbEntity
  8
2
370
    50
100
AcDbCircle
 10
-272.745565
 20
-57.046118
 30
0.0
 40
16.25
100
AcDbArc
 50
270.0
 51
284.250033
  0
ARC
  5
1EF
100
AcDbEntity
  8
2
370
    50
100
AcDbCircle
 10
-264.495565
 20
-57.046118
 30
0.0
 40
16.25
100
AcDbArc
 50
262.930286
 51
284.250033
  0
ARC
  5
1F0
100
AcDbEntity
  8
2
370
    50
100
AcDbCircle
 10
-268.495565
 20
-57.046118
 30
0.0
 40
16.25
100
AcDbArc
 50
262.485955
 51
284.250033
  0
ARC
  5
1F1
100
AcDbEntity
  8
2
370
    50
100
AcDbCircle
 10
-260.495565
 20
-57.046118
 30
0.0
 40
16.25
100
AcDbArc
 50
262.930286
 51
270.0
  0
ARC
  5
1F2
100
AcDbEntity
  8
2
370
    50
100
AcDbCircle
 10
-272.745565
 20
-87.346118
 30
0.0
 40
16.25
100
AcDbArc
 50
75.749967
 51
90.0
  0
ARC
  5
1F3
100
AcDbEntity
  8
2
370
    50
100
AcDbCircle
 10
-268.495565
 20
-87.346118
 30
0.0
 40
16.25
100
AcDbArc
 50
75.749967
 51
97.514045
  0
ARC
  5
1F4
100
AcDbEntity
  8
2
370
    50
100
AcDbCircle
 10
-264.495565
 20
-87.346118
 30
0.0
 40
16.25
100
AcDbArc
 50
75.749967
 51
97.069714
  0
ARC
  5
1F5
100
AcDbEntity
  8
2
370
    50
100
AcDbCircle
 10
-260.495565
 20
-87.346118
 30
0.0
 40
16.25
100
AcDbArc
 50
90.0
 51
97.069714
  0
LINE
  5
1F6
100
AcDbEntity
  8
2
370
    50
100
AcDbLine
 10
-261.245565
 20
-111.596118
 30
0.0
 11
-272.745565
 21
-111.596118
 31
0.0
  0
ARC
  5
1F7
100
AcDbEntity
  8
2
370
    50
100
AcDbCircle
 10
-275.020565
 20
-105.596118
 30
0.0
 40
15.025
100
AcDbArc
 50
336.463422
 51
23.536578
  0
LINE
  5
1F8
100
AcDbEntity
  8
2
370
    50
100
AcDbLine
 10
-261.245565
 20
-99.596118
 30
0.0
 11
-272.745565
 21
-99.596118
 31
0.0
  0
ELLIPSE
  5
1F9
100
AcDbEntity
  8
2
370
    50
100
AcDbEllipse
 10
-262.786273
 20
-105.596118
 30
0.0
 11
0.0
 21
6.0
 31
0.0
210
0.0
220
0.0
230
1.0
 40
0.458833
 41
0.0
 42
6.2831849999999996
  0
LINE
  5
1FA
100
AcDbEntity
  8
2
370
    50
100
AcDbLine
 10
-262.495565
 20
-99.596118
 30
0.0
 11
-262.495565
 21
-79.796118
 31
0.0
  0
LINE
  5
1FB
100
AcDbEntity
  8
2
370
    50
100
AcDbLine
 10
-255.245565
 20
-69.596118
 30
0.0
 11
-290.245565
 21
-69.596118
 31
0.0
  0
LINE
  5
1FC
100
AcDbEntity
  8
2
370
    50
100
AcDbLine
 10
-293.745565
 20
-49.096118
 30
0.0
 11
-251.745565
 21
-49.096118
 31
0.0
  0
LINE
  5
1FD
100
AcDbEntity
  8
2
370
    50
100
AcDbLine
 10
-253.245565
 20
-54.596118
 30
0.0
 11
-253.245565
 21
-56.596118
 31
0.0
  0
LINE
  5
1FE
100
AcDbEntity
  8
2
370
    50
100
AcDbLine
 10
-253.245565
 20
-56.596118
 30
0.0
 11
-272.745565
 21
-56.596118
 31
0.0
  0
LINE
  5
1FF
100
AcDbEntity
  8
2
370
    50
100
AcDbLine
 10
-251.745565
 20
-54.596118
 30
0.0
 11
-272.745565
 21
-54.596118
 31
0.0
  0
LINE
  5
200
100
AcDbEntity
  8
2
370
    50
100
AcDbLine
 10
-251.245565
 20
-54.096118
 30
0.0
 11
-251.745565
 21
-54.596118
 31
0.0
  0
LINE
  5
201
100
AcDbEntity
  8
2
370
    50
100
AcDbLine
 10
-251.245565
 20
-49.596118
 30
0.0
 11
-251.245565
 21
-54.096118
 31
0.0
  0
LINE
  5
202
100
AcDbEntity
  8
2
370
    50
100
AcDbLine
 10
-251.745565
 20
-49.096118
 30
0.0
 11
-251.245565
 21
-49.596118
 31
0.0
  0
LINE
  5
203
100
AcDbEntity
  8
2
370
    50
100
AcDbLine
 10
-293.745565
 20
-49.096118
 30
0.0
 11
-294.245565
 21
-49.596118
 31
0.0
  0
LINE
  5
204
100
AcDbEntity
  8
2
370
    50
100
AcDbLine
 10
-294.245565
 20
-49.596118
 30
0.0
 11
-294.245565
 21
-54.096118
 31
0.0
  0
LINE
  5
205
100
AcDbEntity
  8
2
370
    50
100
AcDbLine
 10
-294.245565
 20
-54.096118
 30
0.0
 11
-293.745565
 21
-54.596118
 31
0.0
  0
LINE
  5
206
100
AcDbEntity
  8
2
370
    50
100
AcDbLine
 10
-293.745565
 20
-54.596118
 30
0.0
 11
-272.745565
 21
-54.596118
 31
0.0
  0
LINE
  5
207
100
AcDbEntity
  8
2
370
    50
100
AcDbLine
 10
-292.245565
 20
-54.596118
 30
0.0
 11
-292.245565
 21
-56.596118
 31
0.0
  0
LINE
  5
208
100
AcDbEntity
  8
2
370
    50
100
AcDbLine
 10
-292.245565
 20
-56.596118
 30
0.0
 11
-272.745565
 21
-56.596118
 31
0.0
  0
LINE
  5
209
100
AcDbEntity
  8
2
370
    25
100
AcDbLine
 10
-294.245565
 20
-49.596118
 30
0.0
 11
-251.245565
 21
-49.596118
 31
0.0
  0
LINE
  5
20A
100
AcDbEntity
  8
2
370
    25
100
AcDbLine
 10
-251.245565
 20
-54.096118
 30
0.0
 11
-294.245565
 21
-54.096118
 31
0.0
  0
HATCH
  5
20B
100
AcDbEntity
  8
2
370
    25
100
AcDbHatch
 10
0.0
 20
0.0
 30
0.0
210
0.0
220
0.0
230
1.0
  2
_U
 70
     0
 71
     1
 91
        1
 92
        1
 93
        6
 72
     1
 10
-292.245565
 20
-56.596117999999997
 11
-292.245565
 21
-54.596117999999997
 72
     1
 10
-292.245565
 20
-54.596117999999997
 11
-272.745565
 21
-54.596117999999997
 72
     1
 10
-272.745565
 20
-54.596117999999997
 11
-253.245565
 21
-54.596117999999997
 72
     1
 10
-253.245565
 20
-54.596117999999997
 11
-253.245565
 21
-56.596117999999997
 72
     1
 10
-253.245565
 20
-56.596117999999997
 11
-272.745565
 21
-56.596117999999997
 72
     1
 10
-272.745565
 20
-56.596117999999997
 11
-292.245565
 21
-56.596117999999997
 97
        6
330
0
330
0
330
0
330
0
330
0
330
0
 75
     0
 76
     0
 52
45.0
 41
1.0
 77
     0
 78
     1
 53
45.0
 43
0.0
 44
0.0
 45
-1.4142140000000001
 46
1.4142140000000001
 79
     0
 98
        1
 10
0.0
 20
0.0
  0
HATCH
  5
20C
100
AcDbEntity
  8
2
370
    25
100
AcDbHatch
 10
0.0
 20
0.0
 30
0.0
210
0.0
220
0.0
230
1.0
  2
_U
 70
     0
 71
     1
 91
        1
 92
        1
 93
        5
 72
     1
 10
-290.245565
 20
-69.596118000000004
 11
-290.245565
 21
-71.096118000000004
 72
     1
 10
-290.245565
 20
-71.096118000000004
 11
-272.745565
 21
-71.096118000000004
 72
     1
 10
-272.745565
 20
-71.096118000000004
 11
-255.245565
 21
-71.096118000000004
 72
     1
 10
-255.245565
 20
-71.096118000000004
 11
-255.245565
 21
-69.596118000000004
 72
     1
 10
-255.245565
 20
-69.596118000000004
 11
-290.245565
 21
-69.596118000000004
 97
        5
330
0
330
0
330
0
330
0
330
0
 75
     0
 76
     0
 52
45.0
 41
1.0
 77
     0
 78
     1
 53
45.0
 43
0.0
 44
0.0
 45
-1.4142140000000001
 46
1.4142140000000001
 79
     0
 98
        1
 10
0.0
 20
0.0
  0
ARC
  5
20D
100
AcDbEntity
  8
2
370
    50
100
AcDbCircle
 10
71.162565
 20
200.004261
 30
0.0
 40
21.5
100
AcDbArc
 50
209.232391
 51
150.765111
  0
ARC
  5
20E
100
AcDbEntity
  8
2
370
    50
100
AcDbCircle
 10
71.162565
 20
200.004261
 30
0.0
 40
21.2
100
AcDbArc
 50
209.687142
 51
150.310313
  0
TEXT
  5
20F
100
AcDbEntity
  8
3
370
    50
100
AcDbText
 10
288.787354
 20
-240.051102
 30
0.0
 40
7.0
  1
１
 72
     5
 11
294.387354
 21
-240.051102
 31
0.0
100
AcDbText
  0
TEXT
  5
210
100
AcDbEntity
  8
3
370
    50
100
AcDbText
 10
303.428314
 20
-240.051102
 30
0.0
 40
7.0
  1
２
 72
     5
 11
309.028314
 21
-240.051102
 31
0.0
100
AcDbText
  0
TEXT
  5
211
100
AcDbEntity
  8
3
370
    50
100
AcDbText
 10
-3.129818
 20
65.345345
 30
0.0
 40
7.0
  1
止水
 72
     5
 11
9.470182
 21
65.345345
 31
0.0
100
AcDbText
  0
TEXT
  5
212
100
AcDbEntity
  8
3
370
    50
100
AcDbText
 10
34.393726
 20
103.598244
 30
0.0
 40
7.0
  1
吐水
 72
     5
 11
46.993726
 21
103.598244
 31
0.0
100
AcDbText
  0
POINT
  5
213
100
AcDbEntity
  8
3
370
    50
100
AcDbPoint
 10
8.048746
 20
110.634182
 30
0.0
  0
POINT
  5
214
100
AcDbEntity
  8
3
370
    50
100
AcDbPoint
 10
96.702291
 20
79.129964
 30
0.0
  0
TEXT
  5
215
100
AcDbEntity
  8
3
370
    50
100
AcDbText
 10
76.906849
 20
104.210464
 30
0.0
 40
7.0
  1
２６
 72
     5
 11
89.506849
 21
104.210464
 31
0.0
100
AcDbText
  0
DIMENSION
  5
216
100
AcDbEntity
  8
3
370
    25
100
AcDbDimension
  2
*D0
 10
96.702291
 20
103.210464
 30
0.0
 11
83.906849
 21
105.210464
 31
0.0
 71
     0
 72
     0
 41
0.0
 42
0.0
  3
Standard
100
AcDbAlignedDimension
 13
71.111408
 23
89.141037
 33
0.0
 14
96.702291
 24
79.129964
 34
0.0
100
AcDbRotatedDimension
  0
DIMENSION
  5
217
100
AcDbEntity
  8
3
370
    25
100
AcDbDimension
  2
*D1
 10
8.629904
 20
83.505983
 30
0.0
 11
-15.665168
 21
111.863624
 31
0.0
 70
     2
 71
     0
 72
     0
 41
0.0
 42
0.0
  3
Standard
100
AcDb2LineAngularDimension
 13
28.615809
 23
102.32455
 33
0.0
 14
75.193395
 24
83.505983
 34
0.0
 15
75.193395
 25
83.505983
 35
0.0
 16
-16.687035
 26
101.36573
 36
0.0
1001
ACAD
1000
DSTYLE
1002
{
1070
   275
1070
     0
1070
   179
1070
     0
1002
}
  0
DIMENSION
  5
218
100
AcDbEntity
  8
3
370
    25
100
AcDbDimension
  2
*D2
 10
88.611408
 20
44.626221
 30
0.0
 11
107.111408
 21
49.126221
 31
0.0
 70
     1
 71
     0
 72
     0
 41
0.0
 42
0.0
  3
Standard
100
AcDbAlignedDimension
 13
53.611408
 23
44.626221
 33
0.0
 14
88.611408
 24
44.626221
 34
0.0
  0
DIMENSION
  5
219
100
AcDbEntity
  8
3
370
    25
100
AcDbDimension
  2
*D3
 10
3.411232
 20
10.405983
 30
0.0
 11
-8.088768
 21
-11.594017
 31
0.0
 70
     1
 71
     0
 72
     0
 41
0.0
 42
0.0
  3
Standard
100
AcDbAlignedDimension
 13
53.611408
 23
31.405983
 33
0.0
 14
53.611408
 24
10.405983
 34
0.0
 50
270.0
  0
POINT
  5
21A
100
AcDbEntity
  8
3
370
    50
100
AcDbPoint
 10
-52.203186
 20
4.931209
 30
0.0
  0
DIMENSION
  5
21B
100
AcDbEntity
  8
3
370
    25
100
AcDbDimension
  2
*D4
 10
-52.203186
 20
4.928246
 30
0.0
 11
-46.833164
 21
-25.080973
 31
0.0
 70
     2
 71
     0
 72
     0
 41
0.0
 42
0.0
  3
Standard
100
AcDb2LineAngularDimension
 13
-52.204199
 23
4.928425
 33
0.0
 14
-52.203186
 24
4.931209
 34
0.0
 15
-52.203186
 25
4.931209
 35
0.0
 16
-57.347294
 26
-24.242475
 36
0.0
1001
ACAD
1000
DSTYLE
1002
{
1070
   275
1070
     0
1070
   179
1070
     0
1002
}
  0
TEXT
  5
21C
100
AcDbEntity
  8
3
370
    50
100
AcDbText
 10
101.090218
 20
-96.891428
 30
0.0
 40
7.0
  1
ＰＪ１／２
 72
     5
 11
134.690218
 21
-96.891428
 31
0.0
100
AcDbText
  0
LWPOLYLINE
  5
21D
100
AcDbEntity
  8
3
370
    25
100
AcDbPolyline
 90
        3
 70
     0
 10
81.361408
 20
-89.587099
 10
100.437668
 20
-97.674028
 10
134.761078
 20
-97.674028
  0
LINE
  5
222
100
AcDbEntity
  8
3
370
    25
100
AcDbLine
 10
84.918667
 20
-91.095115
 30
0.0
 11
85.322739
 21
-90.14195
 31
0.0
  0
LINE
  5
223
100
AcDbEntity
  8
3
370
    25
100
AcDbLine
 10
85.322739
 20
-90.14195
 30
0.0
 11
81.361408
 21
-89.587099
 31
0.0
  0
LINE
  5
224
100
AcDbEntity
  8
3
370
    25
100
AcDbLine
 10
81.361408
 20
-89.587099
 30
0.0
 11
84.514596
 21
-92.048279
 31
0.0
  0
LINE
  5
225
100
AcDbEntity
  8
3
370
    25
100
AcDbLine
 10
84.514596
 20
-92.048279
 30
0.0
 11
84.918667
 21
-91.095115
 31
0.0
  0
TEXT
  5
226
100
AcDbEntity
  8
3
370
    50
100
AcDbText
 10
13.806572
 20
-84.58333
 30
0.0
 40
7.0
  1
２４六角
 72
     5
 11
40.406572
 21
-84.58333
 31
0.0
100
AcDbText
  0
LWPOLYLINE
  5
227
100
AcDbEntity
  8
3
370
    25
100
AcDbPolyline
 90
        2
 70
     0
 10
58.945923
 20
-76.276567
 10
43.039673
 20
-80.859575
  0
LINE
  5
22B
100
AcDbEntity
  8
3
370
    25
100
AcDbLine
 10
55.233254
 20
-77.346284
 30
0.0
 11
55.519884
 21
-78.341091
 31
0.0
  0
LINE
  5
22C
100
AcDbEntity
  8
3
370
    25
100
AcDbLine
 10
55.519884
 20
-78.341091
 30
0.0
 11
58.945923
 21
-76.276567
 31
0.0
  0
LINE
  5
22D
100
AcDbEntity
  8
3
370
    25
100
AcDbLine
 10
58.945923
 20
-76.276567
 30
0.0
 11
54.946625
 21
-76.351478
 31
0.0
  0
LINE
  5
22E
100
AcDbEntity
  8
3
370
    25
100
AcDbLine
 10
54.946625
 20
-76.351478
 30
0.0
 11
55.233254
 21
-77.346284
 31
0.0
  0
TEXT
  5
22F
100
AcDbEntity
  8
3
370
    50
100
AcDbText
 10
19.108658
 20
-119.454439
 30
0.0
 40
7.0
  1
２３六角
 72
     5
 11
45.708658
 21
-119.454439
 31
0.0
100
AcDbText
  0
LWPOLYLINE
  5
230
100
AcDbEntity
  8
3
370
    25
100
AcDbPolyline
 90
        2
 70
     0
 10
60.665558
 20
-106.13495
 10
47.91182
 20
-115.873918
  0
LINE
  5
234
100
AcDbEntity
  8
3
370
    25
100
AcDbLine
 10
57.594782
 20
-108.479846
 30
0.0
 11
58.223095
 21
-109.302658
 31
0.0
  0
LINE
  5
235
100
AcDbEntity
  8
3
370
    25
100
AcDbLine
 10
58.223095
 20
-109.302658
 30
0.0
 11
60.665558
 21
-106.13495
 31
0.0
  0
LINE
  5
236
100
AcDbEntity
  8
3
370
    25
100
AcDbLine
 10
60.665558
 20
-106.13495
 30
0.0
 11
56.966469
 21
-107.657034
 31
0.0
  0
LINE
  5
237
100
AcDbEntity
  8
3
370
    25
100
AcDbLine
 10
56.966469
 20
-107.657034
 30
0.0
 11
57.594782
 21
-108.479846
 31
0.0
  0
DIMENSION
  5
238
100
AcDbEntity
  8
3
370
    25
100
AcDbDimension
  2
*D5
 10
-78.110764
 20
4.931183
 30
0.0
 11
-86.110764
 21
-24.831417
 31
0.0
 71
     0
 72
     0
 41
0.0
 42
0.0
  3
Standard
100
AcDbAlignedDimension
 13
50.111408
 23
-54.594017
 33
0.0
 14
-52.203117
 24
4.931183
 34
0.0
 50
90.0
100
AcDbRotatedDimension
  0
DIMENSION
  5
239
100
AcDbEntity
  8
3
370
    25
100
AcDbDimension
  2
*D6
 10
-101.393021
 20
83.305983
 30
0.0
 11
-112.893021
 21
10.855983
 31
0.0
 71
     0
 72
     0
 41
0.0
 42
0.0
  3
Standard
100
AcDbAlignedDimension
 13
50.111408
 23
-54.594017
 33
0.0
 14
-4.888415
 24
83.305983
 34
0.0
 50
90.0
100
AcDbRotatedDimension
  0
DIMENSION
  5
23A
100
AcDbEntity
  8
3
370
    25
100
AcDbDimension
  2
*D7
 10
-125.164124
 20
110.634182
 30
0.0
 11
-136.664124
 21
24.520083
 31
0.0
 71
     0
 72
     0
 41
0.0
 42
0.0
  3
Standard
100
AcDbAlignedDimension
 13
50.111408
 23
-54.594017
 33
0.0
 14
8.048746
 24
110.634182
 34
0.0
 50
90.0
100
AcDbRotatedDimension
  0
TEXT
  5
23B
100
AcDbEntity
  8
3
370
    50
100
AcDbText
 10
160.57894
 20
-48.285806
 30
0.0
 40
7.0
  1
取付穴径　φ２２～２６
 50
90.0
 72
     5
 11
160.57894
 21
27.314194
 31
0.0
100
AcDbText
  0
TEXT
  5
23C
100
AcDbEntity
  8
3
370
    50
100
AcDbText
 10
151.005377
 20
-48.594017
 30
0.0
 40
7.0
  1
天板厚サ　０～３０ｍｍ
 50
90.0
 72
     5
 11
151.005377
 21
27.005983
 31
0.0
100
AcDbText
  0
DIMENSION
  5
23D
100
AcDbEntity
  8
3
370
    25
100
AcDbDimension
  2
*D8
 10
152.005377
 20
-56.594017
 30
0.0
 11
149.505377
 21
-14.094017
 31
0.0
 71
     0
 72
     0
 41
0.0
 42
0.0
  3
Standard
100
AcDbAlignedDimension
 13
88.611408
 23
-69.594017
 33
0.0
 14
90.611408
 24
-56.594017
 34
0.0
 50
90.0
100
AcDbRotatedDimension
  0
DIMENSION
  5
23E
100
AcDbEntity
  8
3
370
    25
100
AcDbDimension
  2
*D9
 10
49.611408
 20
-18.919142
 30
0.0
 11
31.111408
 21
-14.419142
 31
0.0
 70
     1
 71
     0
 72
     0
 41
0.0
 42
0.0
  3
Standard
100
AcDbAlignedDimension
 13
92.611408
 23
-49.594017
 33
0.0
 14
49.611408
 24
-49.594017
 34
0.0
  0
POINT
  5
23F
100
AcDbEntity
  8
3
370
    50
100
AcDbPoint
 10
71.111408
 20
-113.31204
 30
0.0
  0
DIMENSION
  5
240
100
AcDbEntity
  8
3
370
    25
100
AcDbDimension
  2
*D10
 10
71.111408
 20
-96.424896
 30
0.0
 11
9.454146
 21
-91.924896
 31
0.0
 71
     0
 72
     0
 41
0.0
 42
0.0
  3
Standard
100
AcDbAlignedDimension
 13
-52.203117
 23
4.931183
 33
0.0
 14
71.111408
 24
-96.424896
 34
0.0
100
AcDbRotatedDimension
  0
TEXT
  5
241
100
AcDbEntity
  8
3
370
    50
100
AcDbText
 10
344.962616
 20
-255.481873
 30
0.0
 40
6.0
  1
１８　１１　　１
 72
     5
 11
391.762616
 21
-255.481873
 31
0.0
100
AcDbText
  0
TEXT
  5
242
100
AcDbEntity
  8
3
370
   100
100
AcDbText
 10
223.886774
 20
-272.875659
 30
0.0
 40
8.0
  1
外観寸法図
 41
1.2
 72
     5
 11
269.966774
 21
-272.875659
 31
0.0
100
AcDbText
  0
LINE
  5
243
100
AcDbEntity
  8
3
370
    50
100
AcDbLine
 10
137.982385
 20
-169.971881
 30
0.0
 11
137.982385
 21
-217.971881
 31
0.0
  0
LINE
  5
244
100
AcDbEntity
  8
3
370
    50
100
AcDbLine
 10
137.982385
 20
-201.971881
 30
0.0
 11
394.982385
 21
-201.971881
 31
0.0
  0
LINE
  5
245
100
AcDbEntity
  8
3
370
    50
100
AcDbLine
 10
137.982385
 20
-185.971881
 30
0.0
 11
394.982385
 21
-185.971881
 31
0.0
  0
LINE
  5
246
100
AcDbEntity
  8
3
370
    50
100
AcDbLine
 10
137.982385
 20
-169.971881
 30
0.0
 11
394.982385
 21
-169.971881
 31
0.0
  0
LINE
  5
247
100
AcDbEntity
  8
3
370
    50
100
AcDbLine
 10
251.876814
 20
-217.971881
 30
0.0
 11
251.876814
 21
-169.971881
 31
0.0
  0
LINE
  5
248
100
AcDbEntity
  8
3
370
    50
100
AcDbLine
 10
190.800108
 20
-217.971881
 30
0.0
 11
190.800108
 21
-169.971881
 31
0.0
  0
LINE
  5
249
100
AcDbEntity
  8
3
370
    50
100
AcDbLine
 10
314.982385
 20
-169.971881
 30
0.0
 11
314.982385
 21
-217.971881
 31
0.0
  0
LINE
  5
24A
100
AcDbEntity
  8
3
370
    50
100
AcDbLine
 10
137.982385
 20
-153.971881
 30
0.0
 11
137.982385
 21
-201.971881
 31
0.0
  0
LINE
  5
24B
100
AcDbEntity
  8
3
370
    50
100
AcDbLine
 10
137.982385
 20
-185.971881
 30
0.0
 11
394.982385
 21
-185.971881
 31
0.0
  0
LINE
  5
24C
100
AcDbEntity
  8
3
370
    50
100
AcDbLine
 10
137.982385
 20
-169.971881
 30
0.0
 11
394.982385
 21
-169.971881
 31
0.0
  0
LINE
  5
24D
100
AcDbEntity
  8
3
370
    50
100
AcDbLine
 10
137.982385
 20
-153.971881
 30
0.0
 11
394.982385
 21
-153.971881
 31
0.0
  0
TEXT
  5
24E
100
AcDbEntity
  8
3
370
    50
100
AcDbText
 10
147.131484
 20
-165.763784
 30
0.0
 40
7.0
  1
コードＮｏ
 72
     5
 11
180.731484
 21
-165.763784
 31
0.0
100
AcDbText
  0
TEXT
  5
24F
100
AcDbEntity
  8
3
370
    50
100
AcDbText
 10
209.627348
 20
-165.224798
 30
0.0
 40
7.0
  1
品　番
 72
     5
 11
229.227348
 21
-165.224798
 31
0.0
100
AcDbText
  0
TEXT
  5
250
100
AcDbEntity
  8
3
370
    50
100
AcDbText
 10
268.518659
 20
-165.784048
 30
0.0
 40
7.0
  1
品　　名
 72
     5
 11
295.118659
 21
-165.784048
 31
0.0
100
AcDbText
  0
LINE
  5
251
100
AcDbEntity
  8
3
370
    50
100
AcDbLine
 10
251.876814
 20
-201.971881
 30
0.0
 11
251.876814
 21
-153.971881
 31
0.0
  0
LINE
  5
252
100
AcDbEntity
  8
3
370
    50
100
AcDbLine
 10
190.800108
 20
-201.971881
 30
0.0
 11
190.800108
 21
-153.971881
 31
0.0
  0
LINE
  5
253
100
AcDbEntity
  8
3
370
    50
100
AcDbLine
 10
314.982385
 20
-153.971881
 30
0.0
 11
314.982385
 21
-201.971881
 31
0.0
  0
TEXT
  5
254
100
AcDbEntity
  8
3
370
    50
100
AcDbText
 10
331.624231
 20
-165.784048
 30
0.0
 40
7.0
  1
 　備　　考
 72
     5
 11
368.724231
 21
-165.784048
 31
0.0
100
AcDbText
  0
TEXT
  5
255
100
AcDbEntity
  8
3
370
    50
100
AcDbText
 10
143.288115
 20
-212.180044
 30
0.0
 40
7.0
  1
５０２２２５
 72
     5
 11
183.888115
 21
-212.180044
 31
0.0
100
AcDbText
  0
TEXT
  5
256
100
AcDbEntity
  8
3
370
    50
100
AcDbText
 10
193.38236
 20
-213.107397
 30
0.0
 40
7.0
  1
ＭＬ０５４
 72
     5
 11
226.98236
 21
-213.107397
 31
0.0
100
AcDbText
  0
TEXT
  5
257
100
AcDbEntity
  8
3
370
    50
100
AcDbText
 10
256.738729
 20
-213.148794
 30
0.0
 40
7.0
  1
立水栓
 72
     5
 11
276.338729
 21
-213.148794
 31
0.0
100
AcDbText
  0
TEXT
  5
258
100
AcDbEntity
  8
3
370
    50
100
AcDbText
 10
319.86738
 20
-197.920324
 30
0.0
 40
7.0
  1
焼付塗装（黒色）
 72
     5
 11
374.46738
 21
-197.920324
 31
0.0
100
AcDbText
  0
TEXT
  5
259
100
AcDbEntity
  8
3
370
    50
100
AcDbText
 10
256.738729
 20
-197.148794
 30
0.0
 40
7.0
  1
立水栓
 72
     5
 11
276.338729
 21
-197.148794
 31
0.0
100
AcDbText
  0
TEXT
  5
25A
100
AcDbEntity
  8
3
370
    50
100
AcDbText
 10
256.738729
 20
-181.148794
 30
0.0
 40
7.0
  1
立水栓
 72
     5
 11
276.338729
 21
-181.148794
 31
0.0
100
AcDbText
  0
TEXT
  5
25B
100
AcDbEntity
  8
3
370
    50
100
AcDbText
 10
319.86738
 20
-181.920324
 30
0.0
 40
7.0
  1
焼付塗装（白色）
 72
     5
 11
374.46738
 21
-181.920324
 31
0.0
100
AcDbText
  0
TEXT
  5
25C
100
AcDbEntity
  8
3
370
    50
100
AcDbText
 10
143.288115
 20
-196.180044
 30
0.0
 40
7.0
  1
５０２２２６
 72
     5
 11
183.888115
 21
-196.180044
 31
0.0
100
AcDbText
  0
TEXT
  5
25D
100
AcDbEntity
  8
3
370
    50
100
AcDbText
 10
143.288115
 20
-180.180044
 30
0.0
 40
7.0
  1
５０２２２７
 72
     5
 11
183.888115
 21
-180.180044
 31
0.0
100
AcDbText
  0
TEXT
  5
25E
100
AcDbEntity
  8
3
370
    50
100
AcDbText
 10
193.38236
 20
-181.107397
 30
0.0
 40
7.0
  1
ＭＬ０５４－ＷＨ
 72
     5
 11
247.98236
 21
-181.107397
 31
0.0
100
AcDbText
  0
TEXT
  5
25F
100
AcDbEntity
  8
3
370
    50
100
AcDbText
 10
193.38236
 20
-197.107397
 30
0.0
 40
7.0
  1
ＭＬ０５４－ＢＬ
 72
     5
 11
247.98236
 21
-197.107397
 31
0.0
100
AcDbText
  0
TEXT
  5
260
100
AcDbEntity
  8
3
370
    50
100
AcDbText
 10
319.844301
 20
-213.148794
 30
0.0
 40
7.0
  1
ニッケルクロムメッキ
 72
     5
 11
388.444301
 21
-213.148794
 31
0.0
100
AcDbText
  0
ENDSEC
  0
SECTION
  2
OBJECTS
  0
DICTIONARY
  5
2E0
100
AcDbDictionary
280
     0
281
     1
  3
ACAD_GROUP
350
2E1
  3
ACAD_MLINESTYLE
350
2E2
  0
DICTIONARY
  5
2E1
102
{ACAD_REACTORS
330
2E0
102
}
100
AcDbDictionary
280
     0
281
     1
  0
DICTIONARY
  5
2E2
102
{ACAD_REACTORS
330
2E0
102
}
100
AcDbDictionary
280
     0
281
     1
  3
Standard
350
2E3
  0
MLINESTYLE
  5
2E3
102
{ACAD_REACTORS
330
2E2
102
}
100
AcDbMlineStyle
  2
Standard
 70
     0
  3

 62
     0
 51
90.0
 52
90.0
 71
     2
 49
0.5
 62
   256
  6
ByLayer
 49
-0.5
 62
   256
  6
ByLayer
  0
ENDSEC
  0
EOF
