  0
SECTION
  2
HEADER
  9
$ACADVER
  1
AC1015
  9
$ACADMAINTVER
 70
     6
  9
$DWGCODEPAGE
  3
ANSI_932
  9
$INSBASE
 10
0.0
 20
0.0
 30
0.0
  9
$EXTMIN
 10
-420.0
 20
-297.0
 30
1.000000E+20
  9
$EXTMAX
 10
420.0
 20
297.0
 30
-1.000000E+20
  9
$LIMMIN
 10
-420.0
 20
-297.0
  9
$LIMMAX
 10
420.0
 20
297.0
  9
$ORTHOMODE
 70
     0
  9
$REGENMODE
 70
     1
  9
$FILLMODE
 70
     1
  9
$QTEXTMODE
 70
     0
  9
$MIRRTEXT
 70
     1
  9
$LTSCALE
 40
1.0
  9
$ATTMODE
 70
     1
  9
$TEXTSIZE
 40
0.2
  9
$TRACEWID
 40
0.05
  9
$TEXTSTYLE
  7
STANDARD
  9
$CLAYER
  8
0
  9
$CELTYPE
  6
CONTINUOUS
  9
$CECOLOR
 62
   256
  9
$CELTSCALE
 40
1.0
  9
$DISPSILH
 70
     0
  9
$DIMSCALE
 40
2.0
  9
$DIMASZ
 40
2.0
  9
$DIMEXO
 40
1.0
  9
$DIMDLI
 40
0.38
  9
$DIMRND
 40
0.0
  9
$DIMDLE
 40
0.0
  9
$DIMEXE
 40
2.0
  9
$DIMTP
 40
0.0
  9
$DIMTM
 40
0.0
  9
$DIMTXT
 40
3.5
  9
$DIMCEN
 40
0.09
  9
$DIMTSZ
 40
0.0
  9
$DIMTOL
 70
     0
  9
$DIMLIM
 70
     0
  9
$DIMTIH
 70
     0
  9
$DIMTOH
 70
     0
  9
$DIMSE1
 70
     0
  9
$DIMSE2
 70
     0
  9
$DIMTAD
 70
     1
  9
$DIMZIN
 70
     0
  9
$DIMBLK
  1

  9
$DIMASO
 70
     1
  9
$DIMSHO
 70
     1
  9
$DIMPOST
  1

  9
$DIMAPOST
  1

  9
$DIMALT
 70
     0
  9
$DIMALTD
 70
     2
  9
$DIMALTF
 40
25.4
  9
$DIMLFAC
 40
1.0
  9
$DIMTOFL
 70
     0
  9
$DIMTVP
 40
0.0
  9
$DIMTIX
 70
     0
  9
$DIMSOXD
 70
     0
  9
$DIMSAH
 70
     0
  9
$DIMBLK1
  1

  9
$DIMBLK2
  1

  9
$DIMSTYLE
  2
Standard
  9
$DIMCLRD
 70
     0
  9
$DIMCLRE
 70
     0
  9
$DIMCLRT
 70
     0
  9
$DIMTFAC
 40
1.0
  9
$DIMGAP
 40
0.5
  9
$DIMJUST
 70
     0
  9
$DIMSD1
 70
     0
  9
$DIMSD2
 70
     0
  9
$DIMTOLJ
 70
     1
  9
$DIMTZIN
 70
     0
  9
$DIMALTZ
 70
     0
  9
$DIMALTTZ
 70
     0
  9
$DIMUPT
 70
     0
  9
$DIMDEC
 70
     3
  9
$DIMTDEC
 70
     4
  9
$DIMALTU
 70
     2
  9
$DIMALTTD
 70
     2
  9
$DIMTXSTY
  7
STANDARD
  9
$DIMAUNIT
 70
     0
  9
$DIMADEC
 70
     0
  9
$DIMALTRND
 40
0.0
  9
$DIMAZIN
 70
     0
  9
$DIMDSEP
 70
     0
  9
$DIMATFIT
 70
     3
  9
$DIMFRAC
 70
     0
  9
$DIMLDRBLK
  1

  9
$DIMLUNIT
 70
     2
  9
$DIMLWD
 70
     0
  9
$DIMLWE
 70
     0
  9
$DIMTMOVE
 70
     0
  9
$LUNITS
 70
     2
  9
$LUPREC
 70
     4
  9
$SKETCHINC
 40
0.1
  9
$FILLETRAD
 40
0.0
  9
$AUNITS
 70
     0
  9
$AUPREC
 70
     0
  9
$MENU
  1
acad
  9
$ELEVATION
 40
0.0
  9
$PELEVATION
 40
0.0
  9
$THICKNESS
 40
0.0
  9
$LIMCHECK
 70
     0
  9
$CHAMFERA
 40
0.0
  9
$CHAMFERB
 40
0.0
  9
$CHAMFERC
 40
0.0
  9
$CHAMFERD
 40
0.0
  9
$SKPOLY
 70
     0
  9
$TDCREATE
 40
2454289.000000000
  9
$TDUCREATE
 40
0.000000000
  9
$TDUPDATE
 40
0.000000000
  9
$TDUUPDATE
 40
2447892.625000000
  9
$TDINDWG
 40
0.0000000000
  9
$TDUSRTIMER
 40
0.0000000000
  9
$USRTIMER
 70
     1
  9
$ANGBASE
 50
0.0
  9
$ANGDIR
 70
     0
  9
$PDMODE
 70
     0
  9
$PDSIZE
 40
0.0
  9
$PLINEWID
 40
0.0
  9
$SPLFRAME
 70
     0
  9
$SPLINETYPE
 70
     6
  9
$SPLINESEGS
 70
     8
  9
$HANDSEED
  5
21A
  9
$SURFTAB1
 70
     6
  9
$SURFTAB2
 70
     6
  9
$SURFTYPE
 70
     6
  9
$SURFU
 70
     6
  9
$SURFV
 70
     6
  9
$UCSBASE
  2

  9
$UCSNAME
  2

  9
$UCSORG
 10
0.0
 20
0.0
 30
0.0
  9
$UCSXDIR
 10
1.0
 20
0.0
 30
0.0
  9
$UCSYDIR
 10
0.0
 20
1.0
 30
0.0
  9
$UCSORTHOREF
  2

  9
$UCSORTHOVIEW
 70
     0
  9
$UCSORGTOP
 10
0.0
 20
0.0
 30
0.0
  9
$UCSORGBOTTOM
 10
0.0
 20
0.0
 30
0.0
  9
$UCSORGLEFT
 10
0.0
 20
0.0
 30
0.0
  9
$UCSORGRIGHT
 10
0.0
 20
0.0
 30
0.0
  9
$UCSORGFRONT
 10
0.0
 20
0.0
 30
0.0
  9
$UCSORGBACK
 10
0.0
 20
0.0
 30
0.0
  9
$PUCSBASE
  2

  9
$PUCSNAME
  2

  9
$PUCSORG
 10
0.0
 20
0.0
 30
0.0
  9
$PUCSXDIR
 10
1.0
 20
0.0
 30
0.0
  9
$PUCSYDIR
 10
0.0
 20
1.0
 30
0.0
  9
$PUCSORTHOREF
  2

  9
$PUCSORTHOVIEW
 70
     0
  9
$PUCSORGTOP
 10
0.0
 20
0.0
 30
0.0
  9
$PUCSORGBOTTOM
 10
0.0
 20
0.0
 30
0.0
  9
$PUCSORGLEFT
 10
0.0
 20
0.0
 30
0.0
  9
$PUCSORGRIGHT
 10
0.0
 20
0.0
 30
0.0
  9
$PUCSORGFRONT
 10
0.0
 20
0.0
 30
0.0
  9
$PUCSORGBACK
 10
0.0
 20
0.0
 30
0.0
  9
$USERI1
 70
     0
  9
$USERI2
 70
     0
  9
$USERI3
 70
     0
  9
$USERI4
 70
     0
  9
$USERI5
 70
     0
  9
$USERR1
 40
0.0
  9
$USERR2
 40
0.0
  9
$USERR3
 40
0.0
  9
$USERR4
 40
0.0
  9
$USERR5
 40
0.0
  9
$WORLDVIEW
 70
     1
  9
$SHADEDGE
 70
     3
  9
$SHADEDIF
 70
    70
  9
$TILEMODE
 70
     1
  9
$MAXACTVP
 70
    16
  9
$PINSBASE
 10
0.0
 20
0.0
 30
0.0
  9
$PLIMCHECK
 70
     0
  9
$PEXTMIN
 10
1.000000E+20
 20
1.000000E+20
 30
1.000000E+20
  9
$PEXTMAX
 10
-1.000000E+20
 20
-1.000000E+20
 30
-1.000000E+20
  9
$PLIMMIN
 10
0.0
 20
0.0
  9
$PLIMMAX
 10
12.0
 20
9.0
  9
$UNITMODE
 70
     0
  9
$VISRETAIN
 70
     0
  9
$PLINEGEN
 70
     1
  9
$PSLTSCALE
 70
     0
  9
$TREEDEPTH
 70
  3020
  9
$CMLSTYLE
  2
Standard
  9
$CMLJUST
 70
     0
  9
$CMLSCALE
 40
1.0
  9
$PROXYGRAPHICS
 70
     0
  9
$MEASUREMENT
 70
     0
  9
$CELWEIGHT
370
     0
  9
$ENDCAPS
280
     0
  9
$JOINSTYLE
280
     0
  9
$LWDISPLAY
290
     0
  9
$INSUNITS
 70
     0
  9
$HYPERLINKBASE
  1

  9
$STYLESHEET
  1

  9
$XEDIT
290
     1
  9
$CEPSNTYPE
380
     0
  9
$PSTYLEMODE
290
     1
  9
$FINGERPRINTGUID
  2

  9
$VERSIONGUID
  2

  9
$EXTNAMES
290
     1
  9
$PSVPSCALE
 40
0.0
  0
ENDSEC
  0
SECTION
  2
CLASSES
  0
CLASS
  1
LWPOLYLINE
  2
AcDbPolyline
  3
AutoCAD 2000
 90
        0
280
     0
281
     1
  0
CLASS
  1
IMAGE
  2
AcDbRasterImage
  3
ISM
 90
      127
280
     0
281
     1
  0
CLASS
  1
OLE2FRAME
  2
AcDbOle2Frame
  3
AutoCAD 2000
 90
        0
280
     0
281
     1
  0
CLASS
  1
HATCH
  2
AcDbHatch
  3
AutoCAD 2000
 90
        0
280
     0
281
     1
  0
CLASS
  1
DICTIONARYVAR
  2
AcDbDictionaryVar
  3
AutoCAD 2000
 90
        0
280
     0
281
     0
  0
CLASS
  1
RASTERVARIABLES
  2
AcDbRasterVariables
  3
ISM
 90
        0
280
     0
281
     0
  0
CLASS
  1
IMAGEDEF
  2
AcDbRasterImageDef
  3
ISM
 90
        0
280
     0
281
     0
  0
CLASS
  1
IMAGEDEF_REACTOR
  2
AcDbRasterImageDefReactor
  3
ISM
 90
        1
280
     0
281
     0
  0
CLASS
  1
IDBUFFER
  2
AcDbIdBuffer
  3
AutoCAD 2000
 90
        0
280
     0
281
     0
  0
CLASS
  1
SPATIAL_FILTER
  2
AcDbSpatialFilter
  3
AutoCAD 2000
 90
        0
280
     0
281
     0
  0
CLASS
  1
XRECORD
  2
AcDbXrecord
  3
AutoCAD 2000
 90
        0
280
     0
281
     0
  0
CLASS
  1
SORTENTSTABLE
  2
AcDbSortentsTable
  3
AutoCAD 2000
 90
        0
280
     0
281
     0
  0
CLASS
  1
LAYER_INDEX
  2
AcDbLayerIndex
  3
AutoCAD 2000
 90
        0
280
     0
281
     0
  0
CLASS
  1
SPATIAL_INDEX
  2
AcDbSpatialIndex
  3
AutoCAD 2000
 90
        0
280
     0
281
     0
  0
CLASS
  1
OBJECT_PTR
  2
CAseDLPNTableRecord
  3
"ASE-LPNTableRecord"
 90
        1
280
     0
281
     0
  0
CLASS
  1
LAYOUT
  2
AcDbLayout
  3
AutoCAD 2000
 90
        0
280
     0
281
     0
  0
CLASS
  1
PLOTSETTINGS
  2
AcDbPlotSettings
  3
AutoCAD 2000
 90
        0
280
     0
281
     0
  0
CLASS
  1
ACDBDICTIONARYWDFLT
  2
AcDbDictionaryWithDefault
  3
AutoCAD 2000
 90
        0
280
     0
281
     0
  0
CLASS
  1
ACDBPLACEHOLDER
  2
AcDbPlaceHolder
  3
AutoCAD 2000
 90
        0
280
     0
281
     0
  0
CLASS
  1
VBA_PROJECT
  2
AcDbVbaProject
  3
acadvba
 90
        0
280
     0
281
     0
  0
CLASS
  1
WIPEOUT
  2
AcDbWipeout
  3
WipeOut|AutoCAD Express Tool|expresstools@autodesk.com
 90
      127
280
     0
281
     1
  0
CLASS
  1
WIPEOUTVARIABLES
  2
AcDbWipeoutVariables
  3
WipeOut|AutoCAD Express Tool|expresstools@autodesk.com
 90
        0
280
     0
281
     0
  0
CLASS
  1
RTEXT
  2
RText
  3
RText|AutoCAD Express Tool|expresstools@autodesk.com
 90
        0
280
     0
281
     1
  0
CLASS
  1
ARCALIGNEDTEXT
  2
AcDbArcAlignedText
  3
ATEXT|AutoCAD Express Tool|expresstools@autodesk.com
 90
        0
280
     0
281
     1
  0
ENDSEC
  0
SECTION
  2
TABLES
  0
TABLE
  2
VPORT
  5
6
100
AcDbSymbolTable
 70
     1
  0
VPORT
  5
19
100
AcDbSymbolTableRecord
100
AcDbViewportTableRecord
  2
*ACTIVE
 70
     0
 10
0.0
 20
0.0
 11
1.0
 21
1.0
 12
0.0
 22
0.0
 13
0.0
 23
0.0
 14
1.0
 24
1.0
 15
0.0
 25
0.0
 16
0.0
 26
0.0
 36
1.0
 17
0.0
 27
0.0
 37
0.0
 40
594.0
 41
1.414141
 42
50.0
 43
0.0
 44
0.0
 50
0.0
 51
0.0
 71
     0
 72
   500
 73
     1
 74
     1
 75
     0
 76
     0
 77
     0
 78
     0
281
     0
 65
     0
110
0.0
120
0.0
130
0.0
111
1.0
121
0.0
131
0.0
112
0.0
122
1.0
132
0.0
345
0
346
0
 79
     0
146
0.0
  0
ENDTAB
  0
TABLE
  2
LTYPE
  5
3
100
AcDbSymbolTable
 70
     9
  0
LTYPE
  5
C
100
AcDbSymbolTableRecord
100
AcDbLinetypeTableRecord
  2
ByBlock
 70
    64
  3

 72
    65
 73
     0
 40
0.0
  0
LTYPE
  5
D
100
AcDbSymbolTableRecord
100
AcDbLinetypeTableRecord
  2
ByLayer
 70
    64
  3

 72
    65
 73
     0
 40
0.0
  0
LTYPE
  5
E
100
AcDbSymbolTableRecord
100
AcDbLinetypeTableRecord
  2
CONTINUOUS
 70
     0
  3
Solid line
 72
    65
 73
     0
 40
0.0
  0
LTYPE
  5
F
100
AcDbSymbolTableRecord
100
AcDbLinetypeTableRecord
  2
DASHED
 70
     0
  3
__ __ __ __ __ __ __ __ __ __ __ __ __ __ __
 72
    65
 73
     2
 40
2.0
 49
1.2
 74
     0
 49
-0.8
 74
     0
  0
LTYPE
  5
10
100
AcDbSymbolTableRecord
100
AcDbLinetypeTableRecord
  2
CENTER
 70
     0
  3
____ _ ____ _ ____ _ ____ _ ____ _ ____ _ ____
 72
    65
 73
     4
 40
12.0
 49
9.0
 74
     0
 49
-1.0
 74
     0
 49
1.0
 74
     0
 49
-1.0
 74
     0
  0
LTYPE
  5
11
100
AcDbSymbolTableRecord
100
AcDbLinetypeTableRecord
  2
HIDDEN
 70
     0
  3
_ _ _ _ _ _ _ _ _ _ _ _ _ _ _ _ _ _ _ _ _ _ _
 72
    65
 73
     2
 40
3.2
 49
2.4
 74
     0
 49
-0.8
 74
     0
  0
LTYPE
  5
12
100
AcDbSymbolTableRecord
100
AcDbLinetypeTableRecord
  2
PHANTOM
 70
     0
  3
_____ _ _ _____ _ _ _____ _ _ _____ _ _ _____
 72
    65
 73
     6
 40
13.5
 49
9.0
 74
     0
 49
-1.0
 74
     0
 49
1.0
 74
     0
 49
-0.5
 74
     0
 49
1.0
 74
     0
 49
-1.0
 74
     0
  0
LTYPE
  5
13
100
AcDbSymbolTableRecord
100
AcDbLinetypeTableRecord
  2
DOT
 70
     0
  3
...............................................
 72
    65
 73
     2
 40
1.0
 49
0.5
 74
     0
 49
-0.5
 74
     0
  0
LTYPE
  5
14
100
AcDbSymbolTableRecord
100
AcDbLinetypeTableRecord
  2
DASHDOT
 70
     0
  3
__ . __ . __ . __ . __ . __ . __ . __ . __ . __
 72
    65
 73
     4
 40
8.0
 49
5.0
 74
     0
 49
-1.0
 74
     0
 49
1.0
 74
     0
 49
-1.0
 74
     0
  0
ENDTAB
  0
TABLE
  2
LAYER
  5
1
100
AcDbSymbolTable
 70
     4
  0
LAYER
  5
15
100
AcDbSymbolTableRecord
100
AcDbLayerTableRecord
  2
0
 70
     0
 62
     7
  6
CONTINUOUS
290
     1
370
    -3
390
0
  0
LAYER
  5
16
100
AcDbSymbolTableRecord
100
AcDbLayerTableRecord
  2
1
 70
     0
 62
     7
  6
CONTINUOUS
290
     1
370
    -3
390
0
  0
LAYER
  5
17
100
AcDbSymbolTableRecord
100
AcDbLayerTableRecord
  2
2
 70
     0
 62
     7
  6
CONTINUOUS
290
     1
370
    -3
390
0
  0
LAYER
  5
18
100
AcDbSymbolTableRecord
100
AcDbLayerTableRecord
  2
3
 70
     0
 62
     7
  6
CONTINUOUS
290
     1
370
    -3
390
0
  0
ENDTAB
  0
TABLE
  2
STYLE
  5
2
100
AcDbSymbolTable
 70
     1
  0
STYLE
  5
1B
100
AcDbSymbolTableRecord
100
AcDbTextStyleTableRecord
  2
STANDARD
 70
    64
 40
0.0
 41
1.0
 50
0.0
 71
     0
 42
1.0
  3
txt
  4
BIGFONT
  0
ENDTAB
  0
TABLE
  2
VIEW
  5
4
100
AcDbSymbolTable
 70
     0
  0
ENDTAB
  0
TABLE
  2
UCS
  5
5
100
AcDbSymbolTable
 70
     0
  0
ENDTAB
  0
TABLE
  2
APPID
  5
7
100
AcDbSymbolTable
 70
     1
  0
APPID
  5
1A
100
AcDbSymbolTableRecord
100
AcDbRegAppTableRecord
  2
ACAD
 70
     0
  0
ENDTAB
  0
TABLE
  2
DIMSTYLE
  5
8
100
AcDbSymbolTable
 70
     1
100
AcDbDimStyleTable
 71
     0
  0
DIMSTYLE
105
2B
100
AcDbSymbolTableRecord
100
AcDbDimStyleTableRecord
  2
Standard
 70
     0
  3

  4

 40
2.0
 41
2.0
 42
1.0
 43
0.38
 44
2.0
 45
0.0
 46
0.0
 47
0.0
 48
0.0
 71
     0
 72
     0
 73
     0
 74
     0
 75
     0
 76
     0
 77
     1
 78
     0
 79
     0
140
3.5
141
0.09
142
0.0
143
25.4
144
1.0
145
0.0
146
1.0
147
0.5
148
0.0
170
     0
171
     2
172
     0
173
     0
174
     0
175
     0
176
     0
177
     0
178
     0
179
     0
271
     3
272
     4
273
     2
274
     2
275
     0
276
     0
277
     2
278
    46
279
     0
280
     0
281
     0
282
     0
283
     1
284
     0
285
     0
286
     0
288
     0
289
     3
340
1B
341
0
342
0
343
0
344
0
371
    -2
372
    -2
  0
ENDTAB
  0
TABLE
  2
BLOCK_RECORD
  5
26
100
AcDbSymbolTable
 70
     8
  0
BLOCK_RECORD
  5
24
100
AcDbSymbolTableRecord
100
AcDbBlockTableRecord
  2
*Model_Space
340
0
  0
BLOCK_RECORD
  5
25
100
AcDbSymbolTableRecord
100
AcDbBlockTableRecord
  2
*Paper_Space
340
0
  0
BLOCK_RECORD
  5
1C
100
AcDbSymbolTableRecord
100
AcDbBlockTableRecord
  2
*D0
340
0
  0
BLOCK_RECORD
  5
1D
100
AcDbSymbolTableRecord
100
AcDbBlockTableRecord
  2
*D1
340
0
  0
BLOCK_RECORD
  5
1E
100
AcDbSymbolTableRecord
100
AcDbBlockTableRecord
  2
*D2
340
0
  0
BLOCK_RECORD
  5
1F
100
AcDbSymbolTableRecord
100
AcDbBlockTableRecord
  2
*D3
340
0
  0
BLOCK_RECORD
  5
20
100
AcDbSymbolTableRecord
100
AcDbBlockTableRecord
  2
*D4
340
0
  0
BLOCK_RECORD
  5
21
100
AcDbSymbolTableRecord
100
AcDbBlockTableRecord
  2
*D5
340
0
  0
BLOCK_RECORD
  5
22
100
AcDbSymbolTableRecord
100
AcDbBlockTableRecord
  2
*D6
340
0
  0
BLOCK_RECORD
  5
23
100
AcDbSymbolTableRecord
100
AcDbBlockTableRecord
  2
*D7
340
0
  0
ENDTAB
  0
ENDSEC
  0
SECTION
  2
BLOCKS
  0
BLOCK
  5
27
100
AcDbEntity
  8
0
390
0
100
AcDbBlockBegin
  2
*Model_Space
 70
     0
 10
0.0
 20
0.0
 30
0.0
  3
*Model_Space
  1

  0
ENDBLK
  5
28
100
AcDbEntity
  8
0
390
0
100
AcDbBlockEnd
  0
BLOCK
  5
29
100
AcDbEntity
 67
     1
  8
0
390
0
100
AcDbBlockBegin
  2
*Paper_Space
 70
     0
 10
0.0
 20
0.0
 30
0.0
  3
*Paper_Space
  1

  0
ENDBLK
  5
2A
100
AcDbEntity
 67
     1
  8
0
390
0
100
AcDbBlockEnd
  0
BLOCK
  5
1BA
100
AcDbEntity
  8
3
100
AcDbBlockBegin
  2
*D0
 70
     1
 10
0.0
 20
0.0
 30
0.0
  3
*D0
  1

  0
TEXT
  5
1BB
100
AcDbEntity
  8
3
370
    25
100
AcDbText
 10
-74.021744
 20
-4.015356
 30
0.0
 40
7.0
  1
１３１
 50
90.0
 72
     5
 11
-74.021744
 21
15.584644
 31
0.0
100
AcDbText
  0
LINE
  5
1BC
100
AcDbEntity
  8
3
370
    25
100
AcDbLine
 10
-102.868556
 20
-59.065356
 30
0.0
 11
-71.021744
 21
-59.065356
 31
0.0
  0
LINE
  5
1BD
100
AcDbEntity
  8
3
370
    25
100
AcDbLine
 10
-73.021744
 20
-59.065356
 30
0.0
 11
-71.986468
 21
-55.201653
 31
0.0
  0
LINE
  5
1BE
100
AcDbEntity
  8
3
370
    25
100
AcDbLine
 10
-73.021744
 20
-59.065356
 30
0.0
 11
-74.05702
 21
-55.201653
 31
0.0
  0
LINE
  5
1BF
100
AcDbEntity
  8
3
370
    25
100
AcDbLine
 10
-71.986468
 20
-55.201653
 30
0.0
 11
-74.05702
 21
-55.201653
 31
0.0
  0
LINE
  5
1C0
100
AcDbEntity
  8
3
370
    25
100
AcDbLine
 10
-73.021744
 20
-59.065356
 30
0.0
 11
-73.021744
 21
72.034644
 31
0.0
  0
LINE
  5
1C1
100
AcDbEntity
  8
3
370
    25
100
AcDbLine
 10
-73.021744
 20
72.034644
 30
0.0
 11
-74.05702
 21
68.170941
 31
0.0
  0
LINE
  5
1C2
100
AcDbEntity
  8
3
370
    25
100
AcDbLine
 10
-73.021744
 20
72.034644
 30
0.0
 11
-71.986468
 21
68.170941
 31
0.0
  0
LINE
  5
1C3
100
AcDbEntity
  8
3
370
    25
100
AcDbLine
 10
-74.05702
 20
68.170941
 30
0.0
 11
-71.986468
 21
68.170941
 31
0.0
  0
LINE
  5
1C4
100
AcDbEntity
  8
3
370
    25
100
AcDbLine
 10
-107.468556
 20
72.034644
 30
0.0
 11
-71.021744
 21
72.034644
 31
0.0
  0
ENDBLK
  5
1C5
100
AcDbEntity
  8
3
100
AcDbBlockEnd
  0
BLOCK
  5
1C6
100
AcDbEntity
  8
3
100
AcDbBlockBegin
  2
*D1
 70
     1
 10
0.0
 20
0.0
 30
0.0
  3
*D1
  1

  0
LINE
  5
1C7
100
AcDbEntity
  8
3
370
    25
100
AcDbLine
 10
-106.368556
 20
-74.065356
 30
0.0
 11
-42.974586
 21
-74.065356
 31
0.0
  0
LINE
  5
1C8
100
AcDbEntity
  8
3
370
    25
100
AcDbLine
 10
-44.974586
 20
-74.065356
 30
0.0
 11
-46.009863
 21
-77.929059
 31
0.0
  0
LINE
  5
1C9
100
AcDbEntity
  8
3
370
    25
100
AcDbLine
 10
-44.974586
 20
-74.065356
 30
0.0
 11
-43.93931
 21
-77.929059
 31
0.0
  0
LINE
  5
1CA
100
AcDbEntity
  8
3
370
    25
100
AcDbLine
 10
-46.009863
 20
-77.929059
 30
0.0
 11
-43.93931
 21
-77.929059
 31
0.0
  0
LINE
  5
1CB
100
AcDbEntity
  8
3
370
    25
100
AcDbLine
 10
-44.974586
 20
-84.065356
 30
0.0
 11
-44.974586
 21
23.934644
 31
0.0
  0
LINE
  5
1CC
100
AcDbEntity
  8
3
370
    25
100
AcDbLine
 10
-44.974586
 20
-61.065356
 30
0.0
 11
-43.93931
 21
-57.201653
 31
0.0
  0
LINE
  5
1CD
100
AcDbEntity
  8
3
370
    25
100
AcDbLine
 10
-44.974586
 20
-61.065356
 30
0.0
 11
-46.009863
 21
-57.201653
 31
0.0
  0
LINE
  5
1CE
100
AcDbEntity
  8
3
370
    25
100
AcDbLine
 10
-43.93931
 20
-57.201653
 30
0.0
 11
-46.009863
 21
-57.201653
 31
0.0
  0
LINE
  5
1CF
100
AcDbEntity
  8
3
370
    25
100
AcDbLine
 10
-104.368556
 20
-61.065356
 30
0.0
 11
-42.974586
 21
-61.065356
 31
0.0
  0
ENDBLK
  5
1D0
100
AcDbEntity
  8
3
100
AcDbBlockEnd
  0
BLOCK
  5
1D1
100
AcDbEntity
  8
3
100
AcDbBlockBegin
  2
*D2
 70
     1
 10
0.0
 20
0.0
 30
0.0
  3
*D2
  1

  0
TEXT
  5
1D2
100
AcDbEntity
  8
3
370
    25
100
AcDbText
 10
-176.368556
 20
-20.722893
 30
0.0
 40
7.0
  1
φ４３
 72
     5
 11
-156.768556
 21
-20.722893
 31
0.0
100
AcDbText
  0
LINE
  5
1D3
100
AcDbEntity
  8
3
370
    25
100
AcDbLine
 10
-104.368556
 20
-52.065356
 30
0.0
 11
-104.368556
 21
-19.722893
 31
0.0
  0
LINE
  5
1D4
100
AcDbEntity
  8
3
370
    25
100
AcDbLine
 10
-104.368556
 20
-21.722893
 30
0.0
 11
-100.504852
 21
-22.758169
 31
0.0
  0
LINE
  5
1D5
100
AcDbEntity
  8
3
370
    25
100
AcDbLine
 10
-104.368556
 20
-21.722893
 30
0.0
 11
-100.504852
 21
-20.687617
 31
0.0
  0
LINE
  5
1D6
100
AcDbEntity
  8
3
370
    25
100
AcDbLine
 10
-100.504852
 20
-22.758169
 30
0.0
 11
-100.504852
 21
-20.687617
 31
0.0
  0
LINE
  5
1D7
100
AcDbEntity
  8
3
370
    25
100
AcDbLine
 10
-94.368556
 20
-21.722893
 30
0.0
 11
-176.368556
 21
-21.722893
 31
0.0
  0
LINE
  5
1D8
100
AcDbEntity
  8
3
370
    25
100
AcDbLine
 10
-147.368556
 20
-21.722893
 30
0.0
 11
-151.232259
 21
-20.687617
 31
0.0
  0
LINE
  5
1D9
100
AcDbEntity
  8
3
370
    25
100
AcDbLine
 10
-147.368556
 20
-21.722893
 30
0.0
 11
-151.232259
 21
-22.758169
 31
0.0
  0
LINE
  5
1DA
100
AcDbEntity
  8
3
370
    25
100
AcDbLine
 10
-151.232259
 20
-20.687617
 30
0.0
 11
-151.232259
 21
-22.758169
 31
0.0
  0
LINE
  5
1DB
100
AcDbEntity
  8
3
370
    25
100
AcDbLine
 10
-147.368556
 20
-52.065356
 30
0.0
 11
-147.368556
 21
-19.722893
 31
0.0
  0
ENDBLK
  5
1DC
100
AcDbEntity
  8
3
100
AcDbBlockEnd
  0
BLOCK
  5
1DD
100
AcDbEntity
  8
3
100
AcDbBlockBegin
  2
*D3
 70
     1
 10
0.0
 20
0.0
 30
0.0
  3
*D3
  1

  0
LINE
  5
1DE
100
AcDbEntity
  8
3
370
    25
100
AcDbLine
 10
-142.868556
 20
30.494926
 30
0.0
 11
-146.732259
 21
31.530203
 31
0.0
  0
LINE
  5
1DF
100
AcDbEntity
  8
3
370
    25
100
AcDbLine
 10
-142.868556
 20
30.494926
 30
0.0
 11
-146.732259
 21
29.45965
 31
0.0
  0
LINE
  5
1E0
100
AcDbEntity
  8
3
370
    25
100
AcDbLine
 10
-146.732259
 20
31.530203
 30
0.0
 11
-146.732259
 21
29.45965
 31
0.0
  0
LINE
  5
1E1
100
AcDbEntity
  8
3
370
    25
100
AcDbLine
 10
-171.868556
 20
30.494926
 30
0.0
 11
-98.868556
 21
30.494926
 31
0.0
  0
LINE
  5
1E2
100
AcDbEntity
  8
3
370
    25
100
AcDbLine
 10
-108.868556
 20
30.494926
 30
0.0
 11
-105.004852
 21
29.45965
 31
0.0
  0
LINE
  5
1E3
100
AcDbEntity
  8
3
370
    25
100
AcDbLine
 10
-108.868556
 20
30.494926
 30
0.0
 11
-105.004852
 21
31.530203
 31
0.0
  0
LINE
  5
1E4
100
AcDbEntity
  8
3
370
    25
100
AcDbLine
 10
-105.004852
 20
29.45965
 30
0.0
 11
-105.004852
 21
31.530203
 31
0.0
  0
ENDBLK
  5
1E5
100
AcDbEntity
  8
3
100
AcDbBlockEnd
  0
BLOCK
  5
1E6
100
AcDbEntity
  8
3
100
AcDbBlockBegin
  2
*D4
 70
     1
 10
0.0
 20
0.0
 30
0.0
  3
*D4
  1

  0
TEXT
  5
1E7
100
AcDbEntity
  8
3
370
    25
100
AcDbText
 10
-165.687527
 20
127.719507
 30
0.0
 40
7.0
  1
９０゜
 50
315.0
 72
     5
 11
-151.828234
 21
113.860214
 31
0.0
100
AcDbText
  0
LINE
  5
1E8
100
AcDbEntity
  8
3
370
    25
100
AcDbLine
 10
-170.900064
 20
152.689236
 30
0.0
 11
-170.681085
 21
152.689236
 31
0.0
  0
LINE
  5
1E9
100
AcDbEntity
  8
3
370
    25
100
AcDbLine
 10
-125.868556
 20
107.028869
 30
0.0
 11
-125.868556
 21
103.876706
 31
0.0
  0
LINE
  5
1EA
100
AcDbEntity
  8
3
370
    25
100
AcDbLine
 10
-172.681085
 20
152.689236
 30
0.0
 11
-173.556032
 21
148.7861
 31
0.0
  0
LINE
  5
1EB
100
AcDbEntity
  8
3
370
    25
100
AcDbLine
 10
-172.681085
 20
152.689236
 30
0.0
 11
-171.487244
 21
148.871547
 31
0.0
  0
LINE
  5
1EC
100
AcDbEntity
  8
3
370
    25
100
AcDbLine
 10
-173.556032
 20
148.7861
 30
0.0
 11
-171.487244
 21
148.871547
 31
0.0
  0
LINE
  5
1ED
100
AcDbEntity
  8
3
370
    25
100
AcDbLine
 10
-125.868556
 20
105.876706
 30
0.0
 11
-129.686244
 21
107.070547
 31
0.0
  0
LINE
  5
1EE
100
AcDbEntity
  8
3
370
    25
100
AcDbLine
 10
-125.868556
 20
105.876706
 30
0.0
 11
-129.771691
 21
105.001759
 31
0.0
  0
LINE
  5
1EF
100
AcDbEntity
  8
3
370
    25
100
AcDbLine
 10
-129.686244
 20
107.070547
 30
0.0
 11
-129.771691
 21
105.001759
 31
0.0
  0
ARC
  5
1F0
100
AcDbEntity
  8
3
370
    25
100
AcDbCircle
 10
-125.868556
 20
152.689236
 30
0.0
 40
46.812529
100
AcDbArc
 50
180.0
 51
270.0
  0
ENDBLK
  5
1F1
100
AcDbEntity
  8
3
100
AcDbBlockEnd
  0
BLOCK
  5
1F2
100
AcDbEntity
  8
3
100
AcDbBlockBegin
  2
*D5
 70
     1
 10
0.0
 20
0.0
 30
0.0
  3
*D5
  1

  0
TEXT
  5
1F3
100
AcDbEntity
  8
3
370
    25
100
AcDbText
 10
-197.775818
 20
-98.653908
 30
0.0
 40
7.0
  1
１２３
 72
     5
 11
-178.175818
 21
-98.653908
 31
0.0
100
AcDbText
  0
LINE
  5
1F4
100
AcDbEntity
  8
3
370
    25
100
AcDbLine
 10
-248.68308
 20
-3.540156
 30
0.0
 11
-248.68308
 21
-101.653908
 31
0.0
  0
LINE
  5
1F5
100
AcDbEntity
  8
3
370
    25
100
AcDbLine
 10
-248.68308
 20
-99.653908
 30
0.0
 11
-244.819377
 21
-100.689184
 31
0.0
  0
LINE
  5
1F6
100
AcDbEntity
  8
3
370
    25
100
AcDbLine
 10
-248.68308
 20
-99.653908
 30
0.0
 11
-244.819377
 21
-98.618632
 31
0.0
  0
LINE
  5
1F7
100
AcDbEntity
  8
3
370
    25
100
AcDbLine
 10
-244.819377
 20
-100.689184
 30
0.0
 11
-244.819377
 21
-98.618632
 31
0.0
  0
LINE
  5
1F8
100
AcDbEntity
  8
3
370
    25
100
AcDbLine
 10
-248.68308
 20
-99.653908
 30
0.0
 11
-125.868556
 21
-99.653908
 31
0.0
  0
LINE
  5
1F9
100
AcDbEntity
  8
3
370
    25
100
AcDbLine
 10
-125.868556
 20
-99.653908
 30
0.0
 11
-129.732259
 21
-98.618632
 31
0.0
  0
LINE
  5
1FA
100
AcDbEntity
  8
3
370
    25
100
AcDbLine
 10
-125.868556
 20
-99.653908
 30
0.0
 11
-129.732259
 21
-100.689184
 31
0.0
  0
LINE
  5
1FB
100
AcDbEntity
  8
3
370
    25
100
AcDbLine
 10
-129.732259
 20
-98.618632
 30
0.0
 11
-129.732259
 21
-100.689184
 31
0.0
  0
ENDBLK
  5
1FC
100
AcDbEntity
  8
3
100
AcDbBlockEnd
  0
BLOCK
  5
1FD
100
AcDbEntity
  8
3
100
AcDbBlockBegin
  2
*D6
 70
     1
 10
0.0
 20
0.0
 30
0.0
  3
*D6
  1

  0
TEXT
  5
1FE
100
AcDbEntity
  8
3
370
    25
100
AcDbText
 10
-287.6651
 20
-37.302756
 30
0.0
 40
7.0
  1
５８
 50
90.0
 72
     5
 11
-287.6651
 21
-24.702756
 31
0.0
100
AcDbText
  0
LINE
  5
1FF
100
AcDbEntity
  8
3
370
    25
100
AcDbLine
 10
-148.868556
 20
-59.065356
 30
0.0
 11
-288.6651
 21
-59.065356
 31
0.0
  0
LINE
  5
200
100
AcDbEntity
  8
3
370
    25
100
AcDbLine
 10
-286.6651
 20
-59.065356
 30
0.0
 11
-285.629824
 21
-55.201653
 31
0.0
  0
LINE
  5
201
100
AcDbEntity
  8
3
370
    25
100
AcDbLine
 10
-286.6651
 20
-59.065356
 30
0.0
 11
-287.700376
 21
-55.201653
 31
0.0
  0
LINE
  5
202
100
AcDbEntity
  8
3
370
    25
100
AcDbLine
 10
-285.629824
 20
-55.201653
 30
0.0
 11
-287.700376
 21
-55.201653
 31
0.0
  0
LINE
  5
203
100
AcDbEntity
  8
3
370
    25
100
AcDbLine
 10
-286.6651
 20
-59.065356
 30
0.0
 11
-286.6651
 21
-1.540156
 31
0.0
  0
LINE
  5
204
100
AcDbEntity
  8
3
370
    25
100
AcDbLine
 10
-286.6651
 20
-1.540156
 30
0.0
 11
-287.700376
 21
-5.403859
 31
0.0
  0
LINE
  5
205
100
AcDbEntity
  8
3
370
    25
100
AcDbLine
 10
-286.6651
 20
-1.540156
 30
0.0
 11
-285.629824
 21
-5.403859
 31
0.0
  0
LINE
  5
206
100
AcDbEntity
  8
3
370
    25
100
AcDbLine
 10
-287.700376
 20
-5.403859
 30
0.0
 11
-285.629824
 21
-5.403859
 31
0.0
  0
LINE
  5
207
100
AcDbEntity
  8
3
370
    25
100
AcDbLine
 10
-250.68308
 20
-1.540156
 30
0.0
 11
-288.6651
 21
-1.540156
 31
0.0
  0
ENDBLK
  5
208
100
AcDbEntity
  8
3
100
AcDbBlockEnd
  0
BLOCK
  5
209
100
AcDbEntity
  8
3
100
AcDbBlockBegin
  2
*D7
 70
     1
 10
0.0
 20
0.0
 30
0.0
  3
*D7
  1

  0
TEXT
  5
20A
100
AcDbEntity
  8
3
370
    25
100
AcDbText
 10
-262.848412
 20
-21.40844
 30
0.0
 40
7.0
  1
２０゜
 50
350.0
 72
     5
 11
-243.54618
 21
-24.811944
 31
0.0
100
AcDbText
  0
LINE
  5
20B
100
AcDbEntity
  8
3
370
    25
100
AcDbLine
 10
-249.36719
 20
-3.419516
 30
0.0
 11
-257.242626
 21
-25.057098
 31
0.0
  0
LINE
  5
20C
100
AcDbEntity
  8
3
370
    25
100
AcDbLine
 10
-248.68308
 20
-3.540156
 30
0.0
 11
-248.68308
 21
-26.566377
 31
0.0
  0
LINE
  5
20D
100
AcDbEntity
  8
3
370
    25
100
AcDbLine
 10
-256.558586
 20
-23.177713
 30
0.0
 11
-259.631156
 21
-20.616598
 31
0.0
  0
LINE
  5
20E
100
AcDbEntity
  8
3
370
    25
100
AcDbLine
 10
-256.558586
 20
-23.177713
 30
0.0
 11
-260.500067
 21
-22.496007
 31
0.0
  0
LINE
  5
20F
100
AcDbEntity
  8
3
370
    25
100
AcDbLine
 10
-259.631156
 20
-20.616598
 30
0.0
 11
-260.500067
 21
-22.496007
 31
0.0
  0
LINE
  5
210
100
AcDbEntity
  8
3
370
    25
100
AcDbLine
 10
-248.68308
 20
-24.566377
 30
0.0
 11
-244.746142
 21
-25.273849
 31
0.0
  0
LINE
  5
211
100
AcDbEntity
  8
3
370
    25
100
AcDbLine
 10
-248.68308
 20
-24.566377
 30
0.0
 11
-244.919856
 21
-23.210597
 31
0.0
  0
LINE
  5
212
100
AcDbEntity
  8
3
370
    25
100
AcDbLine
 10
-244.746142
 20
-25.273849
 30
0.0
 11
-244.919856
 21
-23.210597
 31
0.0
  0
ARC
  5
213
100
AcDbEntity
  8
3
370
    25
100
AcDbCircle
 10
-248.68308
 20
-1.53994
 30
0.0
 40
23.026436
100
AcDbArc
 50
226.525492
 51
293.474508
  0
ENDBLK
  5
214
100
AcDbEntity
  8
3
100
AcDbBlockEnd
  0
ENDSEC
  0
SECTION
  2
ENTITIES
  0
LINE
  5
2C
100
AcDbEntity
  8
1
370
   100
100
AcDbLine
 10
-373.02157
 20
275.028767
 30
0.0
 11
394.982385
 21
275.028767
 31
0.0
  0
LINE
  5
2D
100
AcDbEntity
  8
1
370
   100
100
AcDbLine
 10
-373.02157
 20
275.028767
 30
0.0
 11
-373.02157
 21
-277.971881
 31
0.0
  0
LINE
  5
2E
100
AcDbEntity
  8
1
370
   100
100
AcDbLine
 10
-373.02157
 20
-277.971881
 30
0.0
 11
394.982385
 21
-277.971881
 31
0.0
  0
LINE
  5
2F
100
AcDbEntity
  8
1
370
   100
100
AcDbLine
 10
394.982385
 20
-277.971881
 30
0.0
 11
394.982385
 21
275.028767
 31
0.0
  0
TEXT
  5
30
100
AcDbEntity
  8
1
370
    50
100
AcDbText
 10
359.628442
 20
-226.252857
 30
0.0
 40
6.0
  1
設計
 72
     5
 11
370.428442
 21
-226.252857
 31
0.0
100
AcDbText
  0
TEXT
  5
31
100
AcDbEntity
  8
1
370
    50
100
AcDbText
 10
379.127478
 20
-226.099658
 30
0.0
 40
6.0
  1
製図
 72
     5
 11
389.927478
 21
-226.099658
 31
0.0
100
AcDbText
  0
TEXT
  5
32
100
AcDbEntity
  8
1
370
    50
100
AcDbText
 10
319.005745
 20
-226.252857
 30
0.0
 40
6.0
  1
承認
 72
     5
 11
329.805745
 21
-226.252857
 31
0.0
100
AcDbText
  0
TEXT
  5
33
100
AcDbEntity
  8
1
370
    50
100
AcDbText
 10
338.989679
 20
-226.19802
 30
0.0
 40
6.0
  1
検図
 72
     5
 11
349.789679
 21
-226.19802
 31
0.0
100
AcDbText
  0
LINE
  5
34
100
AcDbEntity
  8
1
370
    25
100
AcDbLine
 10
284.982385
 20
-227.971881
 30
0.0
 11
394.982385
 21
-227.971881
 31
0.0
  0
LINE
  5
35
100
AcDbEntity
  8
1
370
    25
100
AcDbLine
 10
342.482385
 20
-245.971881
 30
0.0
 11
342.482385
 21
-259.971881
 31
0.0
  0
TEXT
  5
36
100
AcDbEntity
  8
1
370
    50
100
AcDbText
 10
319.55159
 20
-256.012528
 30
0.0
 40
6.0
  1
日　付
 72
     5
 11
336.35159
 21
-256.012528
 31
0.0
100
AcDbText
  0
LINE
  5
37
100
AcDbEntity
  8
1
370
    50
100
AcDbLine
 10
40.982385
 20
-259.971881
 30
0.0
 11
394.982385
 21
-259.971881
 31
0.0
  0
TEXT
  5
38
100
AcDbEntity
  8
1
370
    50
100
AcDbText
 10
287.775011
 20
-256.322406
 30
0.0
 40
6.0
  1
第三角法
 72
     5
 11
310.575011
 21
-256.322406
 31
0.0
100
AcDbText
  0
TEXT
  5
39
100
AcDbEntity
  8
1
370
    50
100
AcDbText
 10
291.087419
 20
-225.99802
 30
0.0
 40
6.0
  1
尺　度
 72
     5
 11
307.887419
 21
-225.99802
 31
0.0
100
AcDbText
  0
LINE
  5
3A
100
AcDbEntity
  8
1
370
   100
100
AcDbLine
 10
40.982385
 20
-217.971881
 30
0.0
 11
394.982385
 21
-217.971881
 31
0.0
  0
LINE
  5
3B
100
AcDbEntity
  8
1
370
    50
100
AcDbLine
 10
211.982385
 20
-217.971881
 30
0.0
 11
211.982385
 21
-277.971881
 31
0.0
  0
LINE
  5
3C
100
AcDbEntity
  8
1
370
    25
100
AcDbLine
 10
374.982385
 20
-245.971881
 30
0.0
 11
374.982385
 21
-217.971881
 31
0.0
  0
LINE
  5
3D
100
AcDbEntity
  8
1
370
    25
100
AcDbLine
 10
354.982385
 20
-245.971881
 30
0.0
 11
354.982385
 21
-217.971881
 31
0.0
  0
LINE
  5
3E
100
AcDbEntity
  8
1
370
    25
100
AcDbLine
 10
334.982385
 20
-245.971881
 30
0.0
 11
334.982385
 21
-217.971881
 31
0.0
  0
LINE
  5
3F
100
AcDbEntity
  8
1
370
    50
100
AcDbLine
 10
284.982385
 20
-277.971881
 30
0.0
 11
284.982385
 21
-217.971881
 31
0.0
  0
LINE
  5
40
100
AcDbEntity
  8
1
370
    50
100
AcDbLine
 10
189.982385
 20
-217.971881
 30
0.0
 11
189.982385
 21
-277.971881
 31
0.0
  0
LINE
  5
41
100
AcDbEntity
  8
1
370
    50
100
AcDbLine
 10
62.982385
 20
-217.971881
 30
0.0
 11
62.982385
 21
-259.971881
 31
0.0
  0
LINE
  5
42
100
AcDbEntity
  8
1
370
    50
100
AcDbLine
 10
284.982385
 20
-245.971881
 30
0.0
 11
394.982385
 21
-245.971881
 31
0.0
  0
TEXT
  5
43
100
AcDbEntity
  8
1
370
    50
100
AcDbText
 10
287.101129
 20
-271.880939
 30
0.0
 40
6.0
  1
コードＮｏ
 41
0.9
 72
     5
 11
313.021129
 21
-271.880939
 31
0.0
100
AcDbText
  0
TEXT
  5
44
100
AcDbEntity
  8
1
370
   100
100
AcDbText
 10
52.886774
 20
-272.875659
 30
0.0
 40
8.0
  1
ミズタニバルブ工業株式会社
 41
1.2
 72
     5
 11
175.766774
 21
-272.875659
 31
0.0
100
AcDbText
  0
LINE
  5
45
100
AcDbEntity
  8
1
370
    50
100
AcDbLine
 10
40.982385
 20
-238.971881
 30
0.0
 11
284.982385
 21
-238.971881
 31
0.0
  0
LINE
  5
46
100
AcDbEntity
  8
1
370
    50
100
AcDbLine
 10
115.482385
 20
-238.971881
 30
0.0
 11
115.482385
 21
-259.971881
 31
0.0
  0
LINE
  5
47
100
AcDbEntity
  8
1
370
    50
100
AcDbLine
 10
137.482385
 20
-238.971881
 30
0.0
 11
137.482385
 21
-259.971881
 31
0.0
  0
LINE
  5
48
100
AcDbEntity
  8
1
370
    50
100
AcDbLine
 10
314.982385
 20
-277.971881
 30
0.0
 11
314.982385
 21
-217.971881
 31
0.0
  0
TEXT
  5
49
100
AcDbEntity
  8
1
370
    50
100
AcDbText
 10
345.098131
 20
-256.100293
 30
0.0
 40
6.0
  1
　　・　　・
 72
     5
 11
379.898131
 21
-256.100293
 31
0.0
100
AcDbText
  0
LINE
  5
4A
100
AcDbEntity
  8
1
370
   100
100
AcDbLine
 10
40.982385
 20
-217.971881
 30
0.0
 11
40.982385
 21
-277.971881
 31
0.0
  0
TEXT
  5
4B
100
AcDbEntity
  8
1
370
    50
100
AcDbText
 10
290.832582
 20
-240.013492
 30
0.0
 40
6.0
  1
　／ 
 72
     5
 11
301.632582
 21
-240.013492
 31
0.0
100
AcDbText
  0
TEXT
  5
4C
100
AcDbEntity
  8
1
370
    50
100
AcDbText
 10
193.904123
 20
-272.024909
 30
0.0
 40
6.0
  1
備 考 
 72
     5
 11
207.704123
 21
-272.024909
 31
0.0
100
AcDbText
  0
TEXT
  5
4D
100
AcDbEntity
  8
1
370
    50
100
AcDbText
 10
193.512534
 20
-230.89184
 30
0.0
 40
6.0
  1
仕 上
 72
     5
 11
207.312534
 21
-230.89184
 31
0.0
100
AcDbText
  0
TEXT
  5
4E
100
AcDbEntity
  8
1
370
    50
100
AcDbText
 10
193.447176
 20
-248.891666
 30
0.0
 40
6.0
  1
表 面
 72
     5
 11
207.247176
 21
-248.891666
 31
0.0
100
AcDbText
  0
TEXT
  5
4F
100
AcDbEntity
  8
1
370
    50
100
AcDbText
 10
193.447176
 20
-255.891666
 30
0.0
 40
6.0
  1
処 理
 72
     5
 11
207.247176
 21
-255.891666
 31
0.0
100
AcDbText
  0
TEXT
  5
50
100
AcDbEntity
  8
1
370
    50
100
AcDbText
 10
44.79335
 20
-231.693399
 30
0.0
 40
6.0
  1
品 名
 72
     5
 11
58.59335
 21
-231.693399
 31
0.0
100
AcDbText
  0
TEXT
  5
51
100
AcDbEntity
  8
1
370
    50
100
AcDbText
 10
44.397766
 20
-252.462534
 30
0.0
 40
6.0
  1
材 質
 72
     5
 11
58.197766
 21
-252.462534
 31
0.0
100
AcDbText
  0
TEXT
  5
52
100
AcDbEntity
  8
1
370
    50
100
AcDbText
 10
118.897766
 20
-252.462534
 30
0.0
 40
6.0
  1
規 格
 72
     5
 11
132.697766
 21
-252.462534
 31
0.0
100
AcDbText
  0
POINT
  5
53
100
AcDbEntity
  8
2
370
    50
100
AcDbPoint
 10
119.710204
 20
-48.065356
 30
0.0
  0
POINT
  5
54
100
AcDbEntity
  8
2
370
    50
100
AcDbPoint
 10
119.710204
 20
-48.065356
 30
0.0
  0
POINT
  5
55
100
AcDbEntity
  8
2
370
    50
100
AcDbPoint
 10
119.710204
 20
-48.065356
 30
0.0
  0
LINE
  5
56
100
AcDbEntity
  8
2
370
    50
100
AcDbLine
 10
-108.368556
 20
-75.565356
 30
0.0
 11
-108.368556
 21
-74.065356
 31
0.0
  0
LINE
  5
57
100
AcDbEntity
  8
2
370
    50
100
AcDbLine
 10
-125.868556
 20
-75.565356
 30
0.0
 11
-108.368556
 21
-75.565356
 31
0.0
  0
LINE
  5
58
100
AcDbEntity
  8
2
370
    25
100
AcDbLine
 10
-116.618556
 20
-104.065356
 30
0.0
 11
-116.618556
 21
-84.265356
 31
0.0
  0
LINE
  5
59
100
AcDbEntity
  8
2
370
    25
100
AcDbLine
 10
-116.618556
 20
-74.065356
 30
0.0
 11
-116.618556
 21
-61.064964
 31
0.0
  0
LINE
  5
5A
100
AcDbEntity
  8
2
370
    50
100
AcDbLine
 10
-115.618556
 20
-74.065356
 30
0.0
 11
-115.618556
 21
-61.064964
 31
0.0
  0
LINE
  5
5B
100
AcDbEntity
  8
2
370
    50
100
AcDbLine
 10
-113.868556
 20
-84.265356
 30
0.0
 11
-125.868556
 21
-84.265356
 31
0.0
  0
LINE
  5
5C
100
AcDbEntity
  8
2
370
    50
100
AcDbLine
 10
-112.118556
 20
-83.254993
 30
0.0
 11
-112.118556
 21
-77.765356
 31
0.0
  0
LINE
  5
5D
100
AcDbEntity
  8
2
370
    50
100
AcDbLine
 10
-113.868556
 20
-84.265356
 30
0.0
 11
-112.118556
 21
-83.254993
 31
0.0
  0
LINE
  5
5E
100
AcDbEntity
  8
2
370
    50
100
AcDbLine
 10
-105.868556
 20
-77.265356
 30
0.0
 11
-105.868556
 21
-76.065356
 31
0.0
  0
LINE
  5
5F
100
AcDbEntity
  8
2
370
    50
100
AcDbLine
 10
-125.868556
 20
-77.765356
 30
0.0
 11
-111.548005
 21
-77.765356
 31
0.0
  0
LINE
  5
60
100
AcDbEntity
  8
2
370
    50
100
AcDbLine
 10
-105.868556
 20
-76.065356
 30
0.0
 11
-125.868556
 21
-76.065356
 31
0.0
  0
LINE
  5
61
100
AcDbEntity
  8
2
370
    50
100
AcDbLine
 10
-105.868556
 20
-77.265356
 30
0.0
 11
-125.868556
 21
-77.265356
 31
0.0
  0
ARC
  5
62
100
AcDbEntity
  8
2
370
    50
100
AcDbCircle
 10
-111.548005
 20
-72.765356
 30
0.0
 40
5.0
100
AcDbArc
 50
270.0
 51
293.556464
  0
ARC
  5
63
100
AcDbEntity
  8
2
370
    50
100
AcDbCircle
 10
-111.548005
 20
-80.565356
 30
0.0
 40
5.0
100
AcDbArc
 50
66.443536
 51
90.0
  0
ARC
  5
64
100
AcDbEntity
  8
2
370
    50
100
AcDbCircle
 10
-109.150089
 20
-78.265356
 30
0.0
 40
1.0
100
AcDbArc
 50
90.0
 51
113.556464
  0
ARC
  5
65
100
AcDbEntity
  8
2
370
    50
100
AcDbCircle
 10
-109.150089
 20
-75.065356
 30
0.0
 40
1.0
100
AcDbArc
 50
246.443536
 51
270.0
  0
LINE
  5
66
100
AcDbEntity
  8
2
370
    50
100
AcDbLine
 10
-118.868556
 20
-83.254993
 30
0.0
 11
-118.868556
 21
-77.765356
 31
0.0
  0
ARC
  5
67
100
AcDbEntity
  8
2
370
    50
100
AcDbCircle
 10
-125.868556
 20
-59.511463
 30
0.0
 40
24.753893
100
AcDbArc
 50
270.0
 51
286.426421
  0
ARC
  5
68
100
AcDbEntity
  8
2
370
    50
100
AcDbCircle
 10
-115.493556
 20
-78.123277
 30
0.0
 40
6.142079
100
AcDbArc
 50
236.668091
 51
303.331909
  0
ARC
  5
69
100
AcDbEntity
  8
2
370
    50
100
AcDbCircle
 10
-125.868556
 20
-61.515356
 30
0.0
 40
16.25
100
AcDbArc
 50
270.0
 51
284.250033
  0
ARC
  5
6A
100
AcDbEntity
  8
2
370
    50
100
AcDbCircle
 10
-117.618556
 20
-61.515356
 30
0.0
 40
16.25
100
AcDbArc
 50
262.930286
 51
284.250033
  0
ARC
  5
6B
100
AcDbEntity
  8
2
370
    50
100
AcDbCircle
 10
-121.618556
 20
-61.515356
 30
0.0
 40
16.25
100
AcDbArc
 50
262.485955
 51
284.250033
  0
ARC
  5
6C
100
AcDbEntity
  8
2
370
    50
100
AcDbCircle
 10
-113.618556
 20
-61.515356
 30
0.0
 40
16.25
100
AcDbArc
 50
262.930286
 51
270.0
  0
ARC
  5
6D
100
AcDbEntity
  8
2
370
    50
100
AcDbCircle
 10
-125.868556
 20
-91.815356
 30
0.0
 40
16.25
100
AcDbArc
 50
75.749967
 51
90.0
  0
ARC
  5
6E
100
AcDbEntity
  8
2
370
    50
100
AcDbCircle
 10
-121.618556
 20
-91.815356
 30
0.0
 40
16.25
100
AcDbArc
 50
75.749967
 51
97.514045
  0
ARC
  5
6F
100
AcDbEntity
  8
2
370
    50
100
AcDbCircle
 10
-117.618556
 20
-91.815356
 30
0.0
 40
16.25
100
AcDbArc
 50
75.749967
 51
97.069714
  0
ARC
  5
70
100
AcDbEntity
  8
2
370
    50
100
AcDbCircle
 10
-113.618556
 20
-91.815356
 30
0.0
 40
16.25
100
AcDbArc
 50
90.0
 51
97.069714
  0
LINE
  5
71
100
AcDbEntity
  8
2
370
    50
100
AcDbLine
 10
-114.368556
 20
-116.065356
 30
0.0
 11
-125.868556
 21
-116.065356
 31
0.0
  0
ARC
  5
72
100
AcDbEntity
  8
2
370
    50
100
AcDbCircle
 10
-128.143556
 20
-110.065356
 30
0.0
 40
15.025
100
AcDbArc
 50
336.463422
 51
23.536578
  0
LINE
  5
73
100
AcDbEntity
  8
2
370
    50
100
AcDbLine
 10
-114.368556
 20
-104.065356
 30
0.0
 11
-125.868556
 21
-104.065356
 31
0.0
  0
ELLIPSE
  5
74
100
AcDbEntity
  8
2
370
    50
100
AcDbEllipse
 10
-115.909263
 20
-110.065356
 30
0.0
 11
0.0
 21
6.0
 31
0.0
210
0.0
220
0.0
230
1.0
 40
0.458833
 41
0.0
 42
6.2831849999999996
  0
ELLIPSE
  5
75
100
AcDbEntity
  8
2
370
    50
100
AcDbEllipse
 10
-125.868556
 20
-110.065356
 30
0.0
 11
0.0
 21
6.0
 31
0.0
210
0.0
220
0.0
230
1.0
 40
0.926667
 41
0.0
 42
6.2831849999999996
  0
LINE
  5
76
100
AcDbEntity
  8
2
370
    50
100
AcDbLine
 10
-115.618556
 20
-104.065356
 30
0.0
 11
-115.618556
 21
-84.265356
 31
0.0
  0
LINE
  5
77
100
AcDbEntity
  8
2
370
    50
100
AcDbLine
 10
-143.368556
 20
-75.565356
 30
0.0
 11
-143.368556
 21
-74.065356
 31
0.0
  0
LINE
  5
78
100
AcDbEntity
  8
2
370
    50
100
AcDbLine
 10
-125.868556
 20
-75.565356
 30
0.0
 11
-143.368556
 21
-75.565356
 31
0.0
  0
LINE
  5
79
100
AcDbEntity
  8
2
370
    25
100
AcDbLine
 10
-135.118556
 20
-104.065356
 30
0.0
 11
-135.118556
 21
-84.265356
 31
0.0
  0
LINE
  5
7A
100
AcDbEntity
  8
2
370
    25
100
AcDbLine
 10
-135.118556
 20
-74.065356
 30
0.0
 11
-135.118556
 21
-61.064964
 31
0.0
  0
LINE
  5
7B
100
AcDbEntity
  8
2
370
    50
100
AcDbLine
 10
-136.118556
 20
-74.065356
 30
0.0
 11
-136.118556
 21
-61.064964
 31
0.0
  0
LINE
  5
7C
100
AcDbEntity
  8
2
370
    50
100
AcDbLine
 10
-137.868556
 20
-84.265356
 30
0.0
 11
-125.868556
 21
-84.265356
 31
0.0
  0
LINE
  5
7D
100
AcDbEntity
  8
2
370
    50
100
AcDbLine
 10
-139.618556
 20
-83.254993
 30
0.0
 11
-139.618556
 21
-77.765356
 31
0.0
  0
LINE
  5
7E
100
AcDbEntity
  8
2
370
    50
100
AcDbLine
 10
-137.868556
 20
-84.265356
 30
0.0
 11
-139.618556
 21
-83.254993
 31
0.0
  0
LINE
  5
7F
100
AcDbEntity
  8
2
370
    50
100
AcDbLine
 10
-145.868556
 20
-77.265356
 30
0.0
 11
-145.868556
 21
-76.065356
 31
0.0
  0
LINE
  5
80
100
AcDbEntity
  8
2
370
    50
100
AcDbLine
 10
-125.868556
 20
-77.765356
 30
0.0
 11
-140.189106
 21
-77.765356
 31
0.0
  0
LINE
  5
81
100
AcDbEntity
  8
2
370
    50
100
AcDbLine
 10
-145.868556
 20
-76.065356
 30
0.0
 11
-125.868556
 21
-76.065356
 31
0.0
  0
LINE
  5
82
100
AcDbEntity
  8
2
370
    50
100
AcDbLine
 10
-145.868556
 20
-77.265356
 30
0.0
 11
-125.868556
 21
-77.265356
 31
0.0
  0
ARC
  5
83
100
AcDbEntity
  8
2
370
    50
100
AcDbCircle
 10
-140.189106
 20
-72.765356
 30
0.0
 40
5.0
100
AcDbArc
 50
246.443536
 51
270.0
  0
ARC
  5
84
100
AcDbEntity
  8
2
370
    50
100
AcDbCircle
 10
-140.189106
 20
-80.565356
 30
0.0
 40
5.0
100
AcDbArc
 50
90.0
 51
113.556464
  0
ARC
  5
85
100
AcDbEntity
  8
2
370
    50
100
AcDbCircle
 10
-142.587022
 20
-78.265356
 30
0.0
 40
1.0
100
AcDbArc
 50
66.443536
 51
90.0
  0
ARC
  5
86
100
AcDbEntity
  8
2
370
    50
100
AcDbCircle
 10
-142.587022
 20
-75.065356
 30
0.0
 40
1.0
100
AcDbArc
 50
270.0
 51
293.556464
  0
LINE
  5
87
100
AcDbEntity
  8
2
370
    50
100
AcDbLine
 10
-132.868556
 20
-83.254993
 30
0.0
 11
-132.868556
 21
-77.765356
 31
0.0
  0
ARC
  5
88
100
AcDbEntity
  8
2
370
    50
100
AcDbCircle
 10
-125.868556
 20
-59.511463
 30
0.0
 40
24.753893
100
AcDbArc
 50
253.573579
 51
270.0
  0
ARC
  5
89
100
AcDbEntity
  8
2
370
    50
100
AcDbCircle
 10
-136.243556
 20
-78.123277
 30
0.0
 40
6.142079
100
AcDbArc
 50
236.668091
 51
303.331909
  0
ARC
  5
8A
100
AcDbEntity
  8
2
370
    50
100
AcDbCircle
 10
-125.868556
 20
-61.515356
 30
0.0
 40
16.25
100
AcDbArc
 50
255.749967
 51
270.0
  0
ARC
  5
8B
100
AcDbEntity
  8
2
370
    50
100
AcDbCircle
 10
-134.118556
 20
-61.515356
 30
0.0
 40
16.25
100
AcDbArc
 50
255.749967
 51
277.069714
  0
ARC
  5
8C
100
AcDbEntity
  8
2
370
    50
100
AcDbCircle
 10
-130.118556
 20
-61.515356
 30
0.0
 40
16.25
100
AcDbArc
 50
255.749967
 51
277.514045
  0
ARC
  5
8D
100
AcDbEntity
  8
2
370
    50
100
AcDbCircle
 10
-138.118556
 20
-61.515356
 30
0.0
 40
16.25
100
AcDbArc
 50
270.0
 51
277.069714
  0
ARC
  5
8E
100
AcDbEntity
  8
2
370
    50
100
AcDbCircle
 10
-125.868556
 20
-91.815356
 30
0.0
 40
16.25
100
AcDbArc
 50
90.0
 51
104.250033
  0
ARC
  5
8F
100
AcDbEntity
  8
2
370
    50
100
AcDbCircle
 10
-130.118556
 20
-91.815356
 30
0.0
 40
16.25
100
AcDbArc
 50
82.485955
 51
104.250033
  0
ARC
  5
90
100
AcDbEntity
  8
2
370
    50
100
AcDbCircle
 10
-134.118556
 20
-91.815356
 30
0.0
 40
16.25
100
AcDbArc
 50
82.930286
 51
104.250033
  0
ARC
  5
91
100
AcDbEntity
  8
2
370
    50
100
AcDbCircle
 10
-138.118556
 20
-91.815356
 30
0.0
 40
16.25
100
AcDbArc
 50
82.930286
 51
90.0
  0
LINE
  5
92
100
AcDbEntity
  8
2
370
    50
100
AcDbLine
 10
-137.368556
 20
-116.065356
 30
0.0
 11
-125.868556
 21
-116.065356
 31
0.0
  0
ARC
  5
93
100
AcDbEntity
  8
2
370
    50
100
AcDbCircle
 10
-123.593556
 20
-110.065356
 30
0.0
 40
15.025
100
AcDbArc
 50
156.463422
 51
203.536578
  0
LINE
  5
94
100
AcDbEntity
  8
2
370
    50
100
AcDbLine
 10
-137.368556
 20
-104.065356
 30
0.0
 11
-125.868556
 21
-104.065356
 31
0.0
  0
ELLIPSE
  5
95
100
AcDbEntity
  8
2
370
    50
100
AcDbEllipse
 10
-135.827848
 20
-110.065356
 30
0.0
 11
0.0
 21
6.0
 31
0.0
210
0.0
220
0.0
230
1.0
 40
0.458833
 41
0.0
 42
6.2831849999999996
  0
LINE
  5
96
100
AcDbEntity
  8
2
370
    50
100
AcDbLine
 10
-136.118556
 20
-104.065356
 30
0.0
 11
-136.118556
 21
-84.265356
 31
0.0
  0
LINE
  5
97
100
AcDbEntity
  8
2
370
    50
100
AcDbLine
 10
-143.368556
 20
-74.065356
 30
0.0
 11
-108.368556
 21
-74.065356
 31
0.0
  0
LINE
  5
98
100
AcDbEntity
  8
2
370
    50
100
AcDbLine
 10
-104.868556
 20
-53.565356
 30
0.0
 11
-146.868556
 21
-53.565356
 31
0.0
  0
LINE
  5
99
100
AcDbEntity
  8
2
370
    50
100
AcDbLine
 10
-108.868556
 20
37.434644
 30
0.0
 11
-108.868556
 21
-53.065356
 31
0.0
  0
LINE
  5
9A
100
AcDbEntity
  8
2
370
    50
100
AcDbLine
 10
-125.868556
 20
37.934644
 30
0.0
 11
-142.368556
 21
37.934644
 31
0.0
  0
LINE
  5
9B
100
AcDbEntity
  8
2
370
    50
100
AcDbLine
 10
-142.368556
 20
37.934644
 30
0.0
 11
-142.868556
 21
37.434644
 31
0.0
  0
LINE
  5
9C
100
AcDbEntity
  8
2
370
    50
100
AcDbLine
 10
-139.868556
 20
37.934644
 30
0.0
 11
-139.868556
 21
39.034644
 31
0.0
  0
LINE
  5
9D
100
AcDbEntity
  8
2
370
    50
100
AcDbLine
 10
-142.868556
 20
-53.065356
 30
0.0
 11
-142.868556
 21
3.934644
 31
0.0
  0
LINE
  5
9E
100
AcDbEntity
  8
2
370
    50
100
AcDbLine
 10
-142.868556
 20
24.934644
 30
0.0
 11
-142.868556
 21
37.434644
 31
0.0
  0
LINE
  5
9F
100
AcDbEntity
  8
2
370
    50
100
AcDbLine
 10
-108.868556
 20
-53.065356
 30
0.0
 11
-109.368556
 21
-53.565356
 31
0.0
  0
LINE
  5
A0
100
AcDbEntity
  8
2
370
    50
100
AcDbLine
 10
-142.868556
 20
-53.065356
 30
0.0
 11
-142.368556
 21
-53.565356
 31
0.0
  0
LINE
  5
A1
100
AcDbEntity
  8
2
370
    50
100
AcDbLine
 10
-111.868556
 20
37.934644
 30
0.0
 11
-111.868556
 21
39.034644
 31
0.0
  0
LINE
  5
A2
100
AcDbEntity
  8
2
370
    50
100
AcDbLine
 10
-125.868556
 20
37.934644
 30
0.0
 11
-109.368556
 21
37.934644
 31
0.0
  0
LINE
  5
A3
100
AcDbEntity
  8
2
370
    50
100
AcDbLine
 10
-109.368556
 20
37.934644
 30
0.0
 11
-108.868556
 21
37.434644
 31
0.0
  0
LINE
  5
A4
100
AcDbEntity
  8
2
370
    25
100
AcDbLine
 10
-142.868556
 20
37.434644
 30
0.0
 11
-108.868556
 21
37.434644
 31
0.0
  0
LINE
  5
A5
100
AcDbEntity
  8
2
370
    50
100
AcDbLine
 10
-145.368556
 20
-59.065356
 30
0.0
 11
-145.368556
 21
-61.065356
 31
0.0
  0
LINE
  5
A6
100
AcDbEntity
  8
2
370
    50
100
AcDbLine
 10
-145.368556
 20
-61.065356
 30
0.0
 11
-125.868556
 21
-61.065356
 31
0.0
  0
LINE
  5
A7
100
AcDbEntity
  8
2
370
    50
100
AcDbLine
 10
-146.868556
 20
-59.065356
 30
0.0
 11
-125.868556
 21
-59.065356
 31
0.0
  0
LINE
  5
A8
100
AcDbEntity
  8
2
370
    50
100
AcDbLine
 10
-147.368556
 20
-58.565356
 30
0.0
 11
-146.868556
 21
-59.065356
 31
0.0
  0
LINE
  5
A9
100
AcDbEntity
  8
2
370
    50
100
AcDbLine
 10
-147.368556
 20
-54.065356
 30
0.0
 11
-147.368556
 21
-58.565356
 31
0.0
  0
LINE
  5
AA
100
AcDbEntity
  8
2
370
    50
100
AcDbLine
 10
-146.868556
 20
-53.565356
 30
0.0
 11
-147.368556
 21
-54.065356
 31
0.0
  0
LINE
  5
AB
100
AcDbEntity
  8
2
370
    50
100
AcDbLine
 10
-104.868556
 20
-53.565356
 30
0.0
 11
-104.368556
 21
-54.065356
 31
0.0
  0
LINE
  5
AC
100
AcDbEntity
  8
2
370
    50
100
AcDbLine
 10
-104.368556
 20
-54.065356
 30
0.0
 11
-104.368556
 21
-58.565356
 31
0.0
  0
LINE
  5
AD
100
AcDbEntity
  8
2
370
    50
100
AcDbLine
 10
-104.368556
 20
-58.565356
 30
0.0
 11
-104.868556
 21
-59.065356
 31
0.0
  0
LINE
  5
AE
100
AcDbEntity
  8
2
370
    50
100
AcDbLine
 10
-104.868556
 20
-59.065356
 30
0.0
 11
-125.868556
 21
-59.065356
 31
0.0
  0
LINE
  5
AF
100
AcDbEntity
  8
2
370
    50
100
AcDbLine
 10
-106.368556
 20
-59.065356
 30
0.0
 11
-106.368556
 21
-61.065356
 31
0.0
  0
LINE
  5
B0
100
AcDbEntity
  8
2
370
    50
100
AcDbLine
 10
-106.368556
 20
-61.065356
 30
0.0
 11
-125.868556
 21
-61.065356
 31
0.0
  0
LINE
  5
B1
100
AcDbEntity
  8
2
370
    25
100
AcDbLine
 10
-142.868556
 20
-53.065356
 30
0.0
 11
-108.868556
 21
-53.065356
 31
0.0
  0
LINE
  5
B2
100
AcDbEntity
  8
2
370
    25
100
AcDbLine
 10
-104.368556
 20
-54.065356
 30
0.0
 11
-147.368556
 21
-54.065356
 31
0.0
  0
LINE
  5
B3
100
AcDbEntity
  8
2
370
    25
100
AcDbLine
 10
-147.368556
 20
-58.565356
 30
0.0
 11
-104.368556
 21
-58.565356
 31
0.0
  0
LINE
  5
B4
100
AcDbEntity
  8
2
370
    25
  6
CENTER
100
AcDbLine
 10
-125.868556
 20
-117.78338
 30
0.0
 11
-125.868556
 21
75.428276
 31
0.0
  0
HATCH
  5
B5
100
AcDbEntity
  8
2
370
    25
100
AcDbHatch
 10
0.0
 20
0.0
 30
0.0
210
0.0
220
0.0
230
1.0
  2
_U
 70
     0
 71
     1
 91
        1
 92
        1
 93
        6
 72
     1
 10
-106.368556
 20
-61.065356000000001
 11
-106.368556
 21
-59.065356000000001
 72
     1
 10
-106.368556
 20
-59.065356000000001
 11
-125.868556
 21
-59.065356000000001
 72
     1
 10
-125.868556
 20
-59.065356000000001
 11
-145.36855600000001
 21
-59.065356000000001
 72
     1
 10
-145.36855600000001
 20
-59.065356000000001
 11
-145.36855600000001
 21
-61.065356000000001
 72
     1
 10
-145.36855600000001
 20
-61.065356000000001
 11
-125.868556
 21
-61.065356000000001
 72
     1
 10
-125.868556
 20
-61.065356000000001
 11
-106.368556
 21
-61.065356000000001
 97
        6
330
0
330
0
330
0
330
0
330
0
330
0
 75
     0
 76
     0
 52
45.0
 41
1.0
 77
     0
 78
     1
 53
45.0
 43
0.0
 44
0.0
 45
-1.4142140000000001
 46
1.4142140000000001
 79
     0
 98
        1
 10
0.0
 20
0.0
  0
HATCH
  5
B6
100
AcDbEntity
  8
2
370
    25
100
AcDbHatch
 10
0.0
 20
0.0
 30
0.0
210
0.0
220
0.0
230
1.0
  2
_U
 70
     0
 71
     1
 91
        1
 92
        1
 93
        5
 72
     1
 10
-108.368556
 20
-74.065355999999994
 11
-108.368556
 21
-75.565355999999994
 72
     1
 10
-108.368556
 20
-75.565355999999994
 11
-125.868556
 21
-75.565355999999994
 72
     1
 10
-125.868556
 20
-75.565355999999994
 11
-143.36855600000001
 21
-75.565355999999994
 72
     1
 10
-143.36855600000001
 20
-75.565355999999994
 11
-143.36855600000001
 21
-74.065355999999994
 72
     1
 10
-143.36855600000001
 20
-74.065355999999994
 11
-108.368556
 21
-74.065355999999994
 97
        5
330
0
330
0
330
0
330
0
330
0
 75
     0
 76
     0
 52
45.0
 41
1.0
 77
     0
 78
     1
 53
45.0
 43
0.0
 44
0.0
 45
-1.4142140000000001
 46
1.4142140000000001
 79
     0
 98
        1
 10
0.0
 20
0.0
  0
LINE
  5
B7
100
AcDbEntity
  8
2
370
    50
100
AcDbLine
 10
-142.402158
 20
156.189236
 30
0.0
 11
-166.268556
 21
156.189236
 31
0.0
  0
LINE
  5
B8
100
AcDbEntity
  8
2
370
    50
100
AcDbLine
 10
-142.402158
 20
149.189236
 30
0.0
 11
-166.268556
 21
149.189236
 31
0.0
  0
LINE
  5
B9
100
AcDbEntity
  8
2
370
    50
100
AcDbLine
 10
-166.768556
 20
149.689236
 30
0.0
 11
-166.768556
 21
155.689236
 31
0.0
  0
LINE
  5
BA
100
AcDbEntity
  8
2
370
    50
100
AcDbLine
 10
-166.268556
 20
156.189236
 30
0.0
 11
-166.768556
 21
155.689236
 31
0.0
  0
LINE
  5
BB
100
AcDbEntity
  8
2
370
    50
100
AcDbLine
 10
-166.268556
 20
149.189236
 30
0.0
 11
-166.768556
 21
149.689236
 31
0.0
  0
LINE
  5
BC
100
AcDbEntity
  8
2
370
    25
100
AcDbLine
 10
-166.268556
 20
156.189236
 30
0.0
 11
-166.268556
 21
149.189236
 31
0.0
  0
POINT
  5
BD
100
AcDbEntity
  8
2
370
    50
100
AcDbPoint
 10
-125.868556
 20
152.689236
 30
0.0
  0
LINE
  5
BE
100
AcDbEntity
  8
2
370
    25
  6
DASHED
100
AcDbLine
 10
-129.368556
 20
136.053431
 30
0.0
 11
-129.368556
 21
112.189236
 31
0.0
  0
LINE
  5
BF
100
AcDbEntity
  8
2
370
    25
  6
DASHED
100
AcDbLine
 10
-129.368556
 20
112.189236
 30
0.0
 11
-122.368556
 21
112.189236
 31
0.0
  0
LINE
  5
C0
100
AcDbEntity
  8
2
370
    25
  6
DASHED
100
AcDbLine
 10
-122.368556
 20
136.053431
 30
0.0
 11
-122.368556
 21
112.189236
 31
0.0
  0
LINE
  5
C1
100
AcDbEntity
  8
2
370
    25
  6
DASHED
100
AcDbLine
 10
-122.868556
 20
111.689236
 30
0.0
 11
-128.868556
 21
111.689236
 31
0.0
  0
LINE
  5
C2
100
AcDbEntity
  8
2
370
    25
  6
DASHED
100
AcDbLine
 10
-129.368556
 20
112.189236
 30
0.0
 11
-128.868556
 21
111.689236
 31
0.0
  0
LINE
  5
C3
100
AcDbEntity
  8
2
370
    25
  6
DASHED
100
AcDbLine
 10
-122.368556
 20
112.189236
 30
0.0
 11
-122.868556
 21
111.689236
 31
0.0
  0
ARC
  5
C4
100
AcDbEntity
  8
2
370
    25
100
AcDbCircle
 10
-125.868556
 20
152.689236
 30
0.0
 40
21.0
100
AcDbArc
 50
209.998711
 51
149.998711
  0
ARC
  5
C5
100
AcDbEntity
  8
2
370
    50
100
AcDbCircle
 10
-125.868556
 20
152.689236
 30
0.0
 40
21.5
100
AcDbArc
 50
209.232391
 51
150.765111
  0
LINE
  5
C6
100
AcDbEntity
  8
2
370
    25
  6
CENTER
100
AcDbLine
 10
-263.307861
 20
152.689236
 30
0.0
 11
-103.368556
 21
152.689236
 31
0.0
  0
LINE
  5
C7
100
AcDbEntity
  8
2
370
    25
  6
CENTER
100
AcDbLine
 10
-125.868556
 20
107.542126
 30
0.0
 11
-125.868556
 21
175.189236
 31
0.0
  0
CIRCLE
  5
C8
100
AcDbEntity
  8
2
370
    50
100
AcDbCircle
 10
-125.868556
 20
152.689236
 30
0.0
 40
16.9
  0
CIRCLE
  5
C9
100
AcDbEntity
  8
2
370
    50
100
AcDbCircle
 10
-125.868556
 20
152.689236
 30
0.0
 40
14.75
  0
CIRCLE
  5
CA
100
AcDbEntity
  8
2
370
    50
100
AcDbCircle
 10
-125.868556
 20
152.689236
 30
0.0
 40
14.45
  0
LINE
  5
CB
100
AcDbEntity
  8
2
370
    50
100
AcDbLine
 10
-111.171617
 20
155.689236
 30
0.0
 11
-109.236959
 21
155.689236
 31
0.0
  0
LINE
  5
CC
100
AcDbEntity
  8
2
370
    50
100
AcDbLine
 10
-111.171617
 20
149.689236
 30
0.0
 11
-109.236959
 21
149.689236
 31
0.0
  0
ARC
  5
CD
100
AcDbEntity
  8
2
370
    50
100
AcDbCircle
 10
-125.868556
 20
152.689236
 30
0.0
 40
16.4
100
AcDbArc
 50
10.540286
 51
349.459714
  0
ARC
  5
CE
100
AcDbEntity
  8
2
370
    50
100
AcDbCircle
 10
-125.868556
 20
152.689236
 30
0.0
 40
15.3
100
AcDbArc
 50
11.307729
 51
348.692271
  0
ARC
  5
CF
100
AcDbEntity
  8
2
370
    50
100
AcDbCircle
 10
-125.868556
 20
152.689236
 30
0.0
 40
15.0
100
AcDbArc
 50
11.536959
 51
348.463041
  0
LINE
  5
D0
100
AcDbEntity
  8
2
370
    50
100
AcDbLine
 10
-108.968556
 20
39.534644
 30
0.0
 11
-109.468556
 21
39.034644
 31
0.0
  0
LINE
  5
D1
100
AcDbEntity
  8
2
370
    50
100
AcDbLine
 10
-108.968556
 20
39.534644
 30
0.0
 11
-108.968556
 21
71.534644
 31
0.0
  0
LINE
  5
D2
100
AcDbEntity
  8
2
370
    50
100
AcDbLine
 10
-142.268556
 20
39.034644
 30
0.0
 11
-109.468556
 21
39.034644
 31
0.0
  0
LINE
  5
D3
100
AcDbEntity
  8
2
370
    50
100
AcDbLine
 10
-142.768556
 20
39.534644
 30
0.0
 11
-142.268556
 21
39.034644
 31
0.0
  0
LINE
  5
D4
100
AcDbEntity
  8
2
370
    50
100
AcDbLine
 10
-109.468556
 20
72.034644
 30
0.0
 11
-142.268556
 21
72.034644
 31
0.0
  0
LINE
  5
D5
100
AcDbEntity
  8
2
370
    50
100
AcDbLine
 10
-108.968556
 20
71.534644
 30
0.0
 11
-109.468556
 21
72.034644
 31
0.0
  0
LINE
  5
D6
100
AcDbEntity
  8
2
370
    50
100
AcDbLine
 10
-142.268556
 20
72.034644
 30
0.0
 11
-142.768556
 21
71.534644
 31
0.0
  0
LINE
  5
D7
100
AcDbEntity
  8
2
370
    50
100
AcDbLine
 10
-142.768556
 20
39.534644
 30
0.0
 11
-142.768556
 21
54.834644
 31
0.0
  0
LINE
  5
D8
100
AcDbEntity
  8
2
370
    50
100
AcDbLine
 10
-142.768556
 20
62.234644
 30
0.0
 11
-142.768556
 21
71.534644
 31
0.0
  0
LINE
  5
D9
100
AcDbEntity
  8
2
370
    50
100
AcDbLine
 10
-166.268556
 20
62.034644
 30
0.0
 11
-142.72495
 21
62.034644
 31
0.0
  0
LINE
  5
DA
100
AcDbEntity
  8
2
370
    50
100
AcDbLine
 10
-166.268556
 20
55.034644
 30
0.0
 11
-142.72495
 21
55.034644
 31
0.0
  0
LINE
  5
DB
100
AcDbEntity
  8
2
370
    50
100
AcDbLine
 10
-166.768556
 20
61.534644
 30
0.0
 11
-166.768556
 21
55.534644
 31
0.0
  0
LINE
  5
DC
100
AcDbEntity
  8
2
370
    50
100
AcDbLine
 10
-166.268556
 20
62.034644
 30
0.0
 11
-166.768556
 21
61.534644
 31
0.0
  0
LINE
  5
DD
100
AcDbEntity
  8
2
370
    50
100
AcDbLine
 10
-166.268556
 20
55.034644
 30
0.0
 11
-166.768556
 21
55.534644
 31
0.0
  0
LINE
  5
DE
100
AcDbEntity
  8
2
370
    50
100
AcDbLine
 10
-108.968556
 20
71.534644
 30
0.0
 11
-142.768556
 21
71.534644
 31
0.0
  0
LINE
  5
DF
100
AcDbEntity
  8
2
370
    50
100
AcDbLine
 10
-108.968556
 20
39.534644
 30
0.0
 11
-142.768556
 21
39.534644
 31
0.0
  0
ARC
  5
E0
100
AcDbEntity
  8
2
370
    50
100
AcDbCircle
 10
-159.258553
 20
58.534644
 30
0.0
 40
16.9
100
AcDbArc
 50
347.353517
 51
12.646483
  0
LINE
  5
E1
100
AcDbEntity
  8
2
370
    50
100
AcDbLine
 10
-166.268556
 20
62.034644
 30
0.0
 11
-166.268556
 21
55.034644
 31
0.0
  0
POINT
  5
E2
100
AcDbEntity
  8
2
370
    50
100
AcDbPoint
 10
-125.868556
 20
-48.065356
 30
0.0
  0
POINT
  5
E3
100
AcDbEntity
  8
2
370
    50
100
AcDbPoint
 10
-125.868556
 20
-48.065356
 30
0.0
  0
LINE
  5
E4
100
AcDbEntity
  8
2
370
    50
100
AcDbLine
 10
102.210204
 20
-75.565356
 30
0.0
 11
102.210204
 21
-74.065356
 31
0.0
  0
LINE
  5
E5
100
AcDbEntity
  8
2
370
    50
100
AcDbLine
 10
119.710204
 20
-75.565356
 30
0.0
 11
102.210204
 21
-75.565356
 31
0.0
  0
LINE
  5
E6
100
AcDbEntity
  8
2
370
    25
100
AcDbLine
 10
110.460204
 20
-104.065356
 30
0.0
 11
110.460204
 21
-84.265356
 31
0.0
  0
LINE
  5
E7
100
AcDbEntity
  8
2
370
    25
100
AcDbLine
 10
110.460204
 20
-74.065356
 30
0.0
 11
110.460204
 21
-61.064964
 31
0.0
  0
LINE
  5
E8
100
AcDbEntity
  8
2
370
    50
100
AcDbLine
 10
109.460204
 20
-74.065356
 30
0.0
 11
109.460204
 21
-61.064964
 31
0.0
  0
LINE
  5
E9
100
AcDbEntity
  8
2
370
    50
100
AcDbLine
 10
107.710204
 20
-84.265356
 30
0.0
 11
119.710204
 21
-84.265356
 31
0.0
  0
LINE
  5
EA
100
AcDbEntity
  8
2
370
    50
100
AcDbLine
 10
105.960204
 20
-83.254993
 30
0.0
 11
105.960204
 21
-77.765356
 31
0.0
  0
LINE
  5
EB
100
AcDbEntity
  8
2
370
    50
100
AcDbLine
 10
107.710204
 20
-84.265356
 30
0.0
 11
105.960204
 21
-83.254993
 31
0.0
  0
LINE
  5
EC
100
AcDbEntity
  8
2
370
    50
100
AcDbLine
 10
99.710204
 20
-77.265356
 30
0.0
 11
99.710204
 21
-76.065356
 31
0.0
  0
LINE
  5
ED
100
AcDbEntity
  8
2
370
    50
100
AcDbLine
 10
119.710204
 20
-77.765356
 30
0.0
 11
105.389653
 21
-77.765356
 31
0.0
  0
LINE
  5
EE
100
AcDbEntity
  8
2
370
    50
100
AcDbLine
 10
99.710204
 20
-76.065356
 30
0.0
 11
119.710204
 21
-76.065356
 31
0.0
  0
LINE
  5
EF
100
AcDbEntity
  8
2
370
    50
100
AcDbLine
 10
99.710204
 20
-77.265356
 30
0.0
 11
119.710204
 21
-77.265356
 31
0.0
  0
ARC
  5
F0
100
AcDbEntity
  8
2
370
    50
100
AcDbCircle
 10
105.389653
 20
-72.765356
 30
0.0
 40
5.0
100
AcDbArc
 50
246.443536
 51
270.0
  0
ARC
  5
F1
100
AcDbEntity
  8
2
370
    50
100
AcDbCircle
 10
105.389653
 20
-80.565356
 30
0.0
 40
5.0
100
AcDbArc
 50
90.0
 51
113.556464
  0
ARC
  5
F2
100
AcDbEntity
  8
2
370
    50
100
AcDbCircle
 10
102.991737
 20
-78.265356
 30
0.0
 40
1.0
100
AcDbArc
 50
66.443536
 51
90.0
  0
ARC
  5
F3
100
AcDbEntity
  8
2
370
    50
100
AcDbCircle
 10
102.991737
 20
-75.065356
 30
0.0
 40
1.0
100
AcDbArc
 50
270.0
 51
293.556464
  0
LINE
  5
F4
100
AcDbEntity
  8
2
370
    50
100
AcDbLine
 10
112.710204
 20
-83.254993
 30
0.0
 11
112.710204
 21
-77.765356
 31
0.0
  0
ARC
  5
F5
100
AcDbEntity
  8
2
370
    50
100
AcDbCircle
 10
119.710204
 20
-59.511463
 30
0.0
 40
24.753893
100
AcDbArc
 50
253.573579
 51
270.0
  0
ARC
  5
F6
100
AcDbEntity
  8
2
370
    50
100
AcDbCircle
 10
109.335204
 20
-78.123277
 30
0.0
 40
6.142079
100
AcDbArc
 50
236.668091
 51
303.331909
  0
ARC
  5
F7
100
AcDbEntity
  8
2
370
    50
100
AcDbCircle
 10
119.710204
 20
-61.515356
 30
0.0
 40
16.25
100
AcDbArc
 50
255.749967
 51
270.0
  0
ARC
  5
F8
100
AcDbEntity
  8
2
370
    50
100
AcDbCircle
 10
111.460204
 20
-61.515356
 30
0.0
 40
16.25
100
AcDbArc
 50
255.749967
 51
277.069714
  0
ARC
  5
F9
100
AcDbEntity
  8
2
370
    50
100
AcDbCircle
 10
115.460204
 20
-61.515356
 30
0.0
 40
16.25
100
AcDbArc
 50
255.749967
 51
277.514045
  0
ARC
  5
FA
100
AcDbEntity
  8
2
370
    50
100
AcDbCircle
 10
107.460204
 20
-61.515356
 30
0.0
 40
16.25
100
AcDbArc
 50
270.0
 51
277.069714
  0
ARC
  5
FB
100
AcDbEntity
  8
2
370
    50
100
AcDbCircle
 10
119.710204
 20
-91.815356
 30
0.0
 40
16.25
100
AcDbArc
 50
90.0
 51
104.250033
  0
ARC
  5
FC
100
AcDbEntity
  8
2
370
    50
100
AcDbCircle
 10
115.460204
 20
-91.815356
 30
0.0
 40
16.25
100
AcDbArc
 50
82.485955
 51
104.250033
  0
ARC
  5
FD
100
AcDbEntity
  8
2
370
    50
100
AcDbCircle
 10
111.460204
 20
-91.815356
 30
0.0
 40
16.25
100
AcDbArc
 50
82.930286
 51
104.250033
  0
ARC
  5
FE
100
AcDbEntity
  8
2
370
    50
100
AcDbCircle
 10
107.460204
 20
-91.815356
 30
0.0
 40
16.25
100
AcDbArc
 50
82.930286
 51
90.0
  0
LINE
  5
FF
100
AcDbEntity
  8
2
370
    50
100
AcDbLine
 10
108.210204
 20
-116.065356
 30
0.0
 11
119.710204
 21
-116.065356
 31
0.0
  0
ARC
  5
100
100
AcDbEntity
  8
2
370
    50
100
AcDbCircle
 10
121.985204
 20
-110.065356
 30
0.0
 40
15.025
100
AcDbArc
 50
156.463422
 51
203.536578
  0
LINE
  5
101
100
AcDbEntity
  8
2
370
    50
100
AcDbLine
 10
108.210204
 20
-104.065356
 30
0.0
 11
119.710204
 21
-104.065356
 31
0.0
  0
ELLIPSE
  5
102
100
AcDbEntity
  8
2
370
    50
100
AcDbEllipse
 10
109.750911
 20
-110.065356
 30
0.0
 11
0.0
 21
6.0
 31
0.0
210
0.0
220
0.0
230
1.0
 40
0.458833
 41
0.0
 42
6.2831849999999996
  0
ELLIPSE
  5
103
100
AcDbEntity
  8
2
370
    50
100
AcDbEllipse
 10
119.710204
 20
-110.065356
 30
0.0
 11
0.0
 21
6.0
 31
0.0
210
0.0
220
0.0
230
1.0
 40
0.926667
 41
0.0
 42
6.2831849999999996
  0
LINE
  5
104
100
AcDbEntity
  8
2
370
    50
100
AcDbLine
 10
109.460204
 20
-104.065356
 30
0.0
 11
109.460204
 21
-84.265356
 31
0.0
  0
LINE
  5
105
100
AcDbEntity
  8
2
370
    50
100
AcDbLine
 10
137.210204
 20
-75.565356
 30
0.0
 11
137.210204
 21
-74.065356
 31
0.0
  0
LINE
  5
106
100
AcDbEntity
  8
2
370
    50
100
AcDbLine
 10
119.710204
 20
-75.565356
 30
0.0
 11
137.210204
 21
-75.565356
 31
0.0
  0
LINE
  5
107
100
AcDbEntity
  8
2
370
    25
100
AcDbLine
 10
128.960204
 20
-104.065356
 30
0.0
 11
128.960204
 21
-84.265356
 31
0.0
  0
LINE
  5
108
100
AcDbEntity
  8
2
370
    25
100
AcDbLine
 10
128.960204
 20
-74.065356
 30
0.0
 11
128.960204
 21
-61.064964
 31
0.0
  0
LINE
  5
109
100
AcDbEntity
  8
2
370
    50
100
AcDbLine
 10
129.960204
 20
-74.065356
 30
0.0
 11
129.960204
 21
-61.064964
 31
0.0
  0
LINE
  5
10A
100
AcDbEntity
  8
2
370
    50
100
AcDbLine
 10
131.710204
 20
-84.265356
 30
0.0
 11
119.710204
 21
-84.265356
 31
0.0
  0
LINE
  5
10B
100
AcDbEntity
  8
2
370
    50
100
AcDbLine
 10
133.460204
 20
-83.254993
 30
0.0
 11
133.460204
 21
-77.765356
 31
0.0
  0
LINE
  5
10C
100
AcDbEntity
  8
2
370
    50
100
AcDbLine
 10
131.710204
 20
-84.265356
 30
0.0
 11
133.460204
 21
-83.254993
 31
0.0
  0
LINE
  5
10D
100
AcDbEntity
  8
2
370
    50
100
AcDbLine
 10
139.710204
 20
-77.265356
 30
0.0
 11
139.710204
 21
-76.065356
 31
0.0
  0
LINE
  5
10E
100
AcDbEntity
  8
2
370
    50
100
AcDbLine
 10
119.710204
 20
-77.765356
 30
0.0
 11
134.030754
 21
-77.765356
 31
0.0
  0
LINE
  5
10F
100
AcDbEntity
  8
2
370
    50
100
AcDbLine
 10
139.710204
 20
-76.065356
 30
0.0
 11
119.710204
 21
-76.065356
 31
0.0
  0
LINE
  5
110
100
AcDbEntity
  8
2
370
    50
100
AcDbLine
 10
139.710204
 20
-77.265356
 30
0.0
 11
119.710204
 21
-77.265356
 31
0.0
  0
ARC
  5
111
100
AcDbEntity
  8
2
370
    50
100
AcDbCircle
 10
134.030754
 20
-72.765356
 30
0.0
 40
5.0
100
AcDbArc
 50
270.0
 51
293.556464
  0
ARC
  5
112
100
AcDbEntity
  8
2
370
    50
100
AcDbCircle
 10
134.030754
 20
-80.565356
 30
0.0
 40
5.0
100
AcDbArc
 50
66.443536
 51
90.0
  0
ARC
  5
113
100
AcDbEntity
  8
2
370
    50
100
AcDbCircle
 10
136.42867
 20
-78.265356
 30
0.0
 40
1.0
100
AcDbArc
 50
90.0
 51
113.556464
  0
ARC
  5
114
100
AcDbEntity
  8
2
370
    50
100
AcDbCircle
 10
136.42867
 20
-75.065356
 30
0.0
 40
1.0
100
AcDbArc
 50
246.443536
 51
270.0
  0
LINE
  5
115
100
AcDbEntity
  8
2
370
    50
100
AcDbLine
 10
126.710204
 20
-83.254993
 30
0.0
 11
126.710204
 21
-77.765356
 31
0.0
  0
ARC
  5
116
100
AcDbEntity
  8
2
370
    50
100
AcDbCircle
 10
119.710204
 20
-59.511463
 30
0.0
 40
24.753893
100
AcDbArc
 50
270.0
 51
286.426421
  0
ARC
  5
117
100
AcDbEntity
  8
2
370
    50
100
AcDbCircle
 10
130.085204
 20
-78.123277
 30
0.0
 40
6.142079
100
AcDbArc
 50
236.668091
 51
303.331909
  0
ARC
  5
118
100
AcDbEntity
  8
2
370
    50
100
AcDbCircle
 10
119.710204
 20
-61.515356
 30
0.0
 40
16.25
100
AcDbArc
 50
270.0
 51
284.250033
  0
ARC
  5
119
100
AcDbEntity
  8
2
370
    50
100
AcDbCircle
 10
127.960204
 20
-61.515356
 30
0.0
 40
16.25
100
AcDbArc
 50
262.930286
 51
284.250033
  0
ARC
  5
11A
100
AcDbEntity
  8
2
370
    50
100
AcDbCircle
 10
123.960204
 20
-61.515356
 30
0.0
 40
16.25
100
AcDbArc
 50
262.485955
 51
284.250033
  0
ARC
  5
11B
100
AcDbEntity
  8
2
370
    50
100
AcDbCircle
 10
131.960204
 20
-61.515356
 30
0.0
 40
16.25
100
AcDbArc
 50
262.930286
 51
270.0
  0
ARC
  5
11C
100
AcDbEntity
  8
2
370
    50
100
AcDbCircle
 10
119.710204
 20
-91.815356
 30
0.0
 40
16.25
100
AcDbArc
 50
75.749967
 51
90.0
  0
ARC
  5
11D
100
AcDbEntity
  8
2
370
    50
100
AcDbCircle
 10
123.960204
 20
-91.815356
 30
0.0
 40
16.25
100
AcDbArc
 50
75.749967
 51
97.514045
  0
ARC
  5
11E
100
AcDbEntity
  8
2
370
    50
100
AcDbCircle
 10
127.960204
 20
-91.815356
 30
0.0
 40
16.25
100
AcDbArc
 50
75.749967
 51
97.069714
  0
ARC
  5
11F
100
AcDbEntity
  8
2
370
    50
100
AcDbCircle
 10
131.960204
 20
-91.815356
 30
0.0
 40
16.25
100
AcDbArc
 50
90.0
 51
97.069714
  0
LINE
  5
120
100
AcDbEntity
  8
2
370
    50
100
AcDbLine
 10
131.210204
 20
-116.065356
 30
0.0
 11
119.710204
 21
-116.065356
 31
0.0
  0
ARC
  5
121
100
AcDbEntity
  8
2
370
    50
100
AcDbCircle
 10
117.435204
 20
-110.065356
 30
0.0
 40
15.025
100
AcDbArc
 50
336.463422
 51
23.536578
  0
LINE
  5
122
100
AcDbEntity
  8
2
370
    50
100
AcDbLine
 10
131.210204
 20
-104.065356
 30
0.0
 11
119.710204
 21
-104.065356
 31
0.0
  0
ELLIPSE
  5
123
100
AcDbEntity
  8
2
370
    50
100
AcDbEllipse
 10
129.669496
 20
-110.065356
 30
0.0
 11
0.0
 21
6.0
 31
0.0
210
0.0
220
0.0
230
1.0
 40
0.458833
 41
0.0
 42
6.2831849999999996
  0
LINE
  5
124
100
AcDbEntity
  8
2
370
    50
100
AcDbLine
 10
129.960204
 20
-104.065356
 30
0.0
 11
129.960204
 21
-84.265356
 31
0.0
  0
LINE
  5
125
100
AcDbEntity
  8
2
370
    50
100
AcDbLine
 10
137.210204
 20
-74.065356
 30
0.0
 11
102.210204
 21
-74.065356
 31
0.0
  0
LINE
  5
126
100
AcDbEntity
  8
2
370
    50
100
AcDbLine
 10
98.710204
 20
-53.565356
 30
0.0
 11
140.710204
 21
-53.565356
 31
0.0
  0
LINE
  5
127
100
AcDbEntity
  8
2
370
    50
100
AcDbLine
 10
102.710204
 20
37.434644
 30
0.0
 11
102.710204
 21
-53.065356
 31
0.0
  0
LINE
  5
128
100
AcDbEntity
  8
2
370
    50
100
AcDbLine
 10
119.710204
 20
37.934644
 30
0.0
 11
136.210204
 21
37.934644
 31
0.0
  0
LINE
  5
129
100
AcDbEntity
  8
2
370
    50
100
AcDbLine
 10
136.210204
 20
37.934644
 30
0.0
 11
136.710204
 21
37.434644
 31
0.0
  0
LINE
  5
12A
100
AcDbEntity
  8
2
370
    50
100
AcDbLine
 10
133.710204
 20
37.934644
 30
0.0
 11
133.710204
 21
39.034644
 31
0.0
  0
LINE
  5
12B
100
AcDbEntity
  8
2
370
    50
100
AcDbLine
 10
136.710204
 20
-53.065356
 30
0.0
 11
136.710204
 21
3.934644
 31
0.0
  0
LINE
  5
12C
100
AcDbEntity
  8
2
370
    50
100
AcDbLine
 10
136.710204
 20
24.934644
 30
0.0
 11
136.710204
 21
37.434644
 31
0.0
  0
LINE
  5
12D
100
AcDbEntity
  8
2
370
    50
100
AcDbLine
 10
102.710204
 20
-53.065356
 30
0.0
 11
103.210204
 21
-53.565356
 31
0.0
  0
LINE
  5
12E
100
AcDbEntity
  8
2
370
    50
100
AcDbLine
 10
136.710204
 20
-53.065356
 30
0.0
 11
136.210204
 21
-53.565356
 31
0.0
  0
LINE
  5
12F
100
AcDbEntity
  8
2
370
    50
100
AcDbLine
 10
105.710204
 20
37.934644
 30
0.0
 11
105.710204
 21
39.034644
 31
0.0
  0
LINE
  5
130
100
AcDbEntity
  8
2
370
    50
100
AcDbLine
 10
119.710204
 20
37.934644
 30
0.0
 11
103.210204
 21
37.934644
 31
0.0
  0
LINE
  5
131
100
AcDbEntity
  8
2
370
    50
100
AcDbLine
 10
103.210204
 20
37.934644
 30
0.0
 11
102.710204
 21
37.434644
 31
0.0
  0
LINE
  5
132
100
AcDbEntity
  8
2
370
    25
100
AcDbLine
 10
136.710204
 20
37.434644
 30
0.0
 11
102.710204
 21
37.434644
 31
0.0
  0
LINE
  5
133
100
AcDbEntity
  8
2
370
    50
100
AcDbLine
 10
139.210204
 20
-59.065356
 30
0.0
 11
139.210204
 21
-61.065356
 31
0.0
  0
LINE
  5
134
100
AcDbEntity
  8
2
370
    50
100
AcDbLine
 10
139.210204
 20
-61.065356
 30
0.0
 11
119.710204
 21
-61.065356
 31
0.0
  0
LINE
  5
135
100
AcDbEntity
  8
2
370
    50
100
AcDbLine
 10
140.710204
 20
-59.065356
 30
0.0
 11
119.710204
 21
-59.065356
 31
0.0
  0
LINE
  5
136
100
AcDbEntity
  8
2
370
    50
100
AcDbLine
 10
141.210204
 20
-58.565356
 30
0.0
 11
140.710204
 21
-59.065356
 31
0.0
  0
LINE
  5
137
100
AcDbEntity
  8
2
370
    50
100
AcDbLine
 10
141.210204
 20
-54.065356
 30
0.0
 11
141.210204
 21
-58.565356
 31
0.0
  0
LINE
  5
138
100
AcDbEntity
  8
2
370
    50
100
AcDbLine
 10
140.710204
 20
-53.565356
 30
0.0
 11
141.210204
 21
-54.065356
 31
0.0
  0
LINE
  5
139
100
AcDbEntity
  8
2
370
    50
100
AcDbLine
 10
98.710204
 20
-53.565356
 30
0.0
 11
98.210204
 21
-54.065356
 31
0.0
  0
LINE
  5
13A
100
AcDbEntity
  8
2
370
    50
100
AcDbLine
 10
98.210204
 20
-54.065356
 30
0.0
 11
98.210204
 21
-58.565356
 31
0.0
  0
LINE
  5
13B
100
AcDbEntity
  8
2
370
    50
100
AcDbLine
 10
98.210204
 20
-58.565356
 30
0.0
 11
98.710204
 21
-59.065356
 31
0.0
  0
LINE
  5
13C
100
AcDbEntity
  8
2
370
    50
100
AcDbLine
 10
98.710204
 20
-59.065356
 30
0.0
 11
119.710204
 21
-59.065356
 31
0.0
  0
LINE
  5
13D
100
AcDbEntity
  8
2
370
    50
100
AcDbLine
 10
100.210204
 20
-59.065356
 30
0.0
 11
100.210204
 21
-61.065356
 31
0.0
  0
LINE
  5
13E
100
AcDbEntity
  8
2
370
    50
100
AcDbLine
 10
100.210204
 20
-61.065356
 30
0.0
 11
119.710204
 21
-61.065356
 31
0.0
  0
LINE
  5
13F
100
AcDbEntity
  8
2
370
    25
100
AcDbLine
 10
136.710204
 20
-53.065356
 30
0.0
 11
102.710204
 21
-53.065356
 31
0.0
  0
LINE
  5
140
100
AcDbEntity
  8
2
370
    25
100
AcDbLine
 10
98.210204
 20
-54.065356
 30
0.0
 11
141.210204
 21
-54.065356
 31
0.0
  0
LINE
  5
141
100
AcDbEntity
  8
2
370
    25
100
AcDbLine
 10
141.210204
 20
-58.565356
 30
0.0
 11
98.210204
 21
-58.565356
 31
0.0
  0
HATCH
  5
142
100
AcDbEntity
  8
2
370
    25
100
AcDbHatch
 10
0.0
 20
0.0
 30
0.0
210
0.0
220
0.0
230
1.0
  2
_U
 70
     0
 71
     1
 91
        1
 92
        1
 93
        6
 72
     1
 10
100.210204
 20
-61.065356000000001
 11
100.210204
 21
-59.065356000000001
 72
     1
 10
100.210204
 20
-59.065356000000001
 11
119.710204
 21
-59.065356000000001
 72
     1
 10
119.710204
 20
-59.065356000000001
 11
139.210204
 21
-59.065356000000001
 72
     1
 10
139.210204
 20
-59.065356000000001
 11
139.210204
 21
-61.065356000000001
 72
     1
 10
139.210204
 20
-61.065356000000001
 11
119.710204
 21
-61.065356000000001
 72
     1
 10
119.710204
 20
-61.065356000000001
 11
100.210204
 21
-61.065356000000001
 97
        6
330
0
330
0
330
0
330
0
330
0
330
0
 75
     0
 76
     0
 52
45.0
 41
1.0
 77
     0
 78
     1
 53
45.0
 43
0.0
 44
0.0
 45
-1.4142140000000001
 46
1.4142140000000001
 79
     0
 98
        1
 10
0.0
 20
0.0
  0
HATCH
  5
143
100
AcDbEntity
  8
2
370
    25
100
AcDbHatch
 10
0.0
 20
0.0
 30
0.0
210
0.0
220
0.0
230
1.0
  2
_U
 70
     0
 71
     1
 91
        1
 92
        1
 93
        5
 72
     1
 10
102.210204
 20
-74.065355999999994
 11
102.210204
 21
-75.565355999999994
 72
     1
 10
102.210204
 20
-75.565355999999994
 11
119.710204
 21
-75.565355999999994
 72
     1
 10
119.710204
 20
-75.565355999999994
 11
137.210204
 21
-75.565355999999994
 72
     1
 10
137.210204
 20
-75.565355999999994
 11
137.210204
 21
-74.065355999999994
 72
     1
 10
137.210204
 20
-74.065355999999994
 11
102.210204
 21
-74.065355999999994
 97
        5
330
0
330
0
330
0
330
0
330
0
 75
     0
 76
     0
 52
45.0
 41
1.0
 77
     0
 78
     1
 53
45.0
 43
0.0
 44
0.0
 45
-1.4142140000000001
 46
1.4142140000000001
 79
     0
 98
        1
 10
0.0
 20
0.0
  0
LINE
  5
144
100
AcDbEntity
  8
2
370
    50
100
AcDbLine
 10
102.810204
 20
39.534644
 30
0.0
 11
103.310204
 21
39.034644
 31
0.0
  0
LINE
  5
145
100
AcDbEntity
  8
2
370
    50
100
AcDbLine
 10
102.810204
 20
39.534644
 30
0.0
 11
102.810204
 21
71.534644
 31
0.0
  0
LINE
  5
146
100
AcDbEntity
  8
2
370
    50
100
AcDbLine
 10
136.110204
 20
39.034644
 30
0.0
 11
103.310204
 21
39.034644
 31
0.0
  0
LINE
  5
147
100
AcDbEntity
  8
2
370
    50
100
AcDbLine
 10
136.610204
 20
39.534644
 30
0.0
 11
136.110204
 21
39.034644
 31
0.0
  0
LINE
  5
148
100
AcDbEntity
  8
2
370
    50
100
AcDbLine
 10
103.310204
 20
72.034644
 30
0.0
 11
136.110204
 21
72.034644
 31
0.0
  0
LINE
  5
149
100
AcDbEntity
  8
2
370
    50
100
AcDbLine
 10
102.810204
 20
71.534644
 30
0.0
 11
103.310204
 21
72.034644
 31
0.0
  0
LINE
  5
14A
100
AcDbEntity
  8
2
370
    50
100
AcDbLine
 10
136.110204
 20
72.034644
 30
0.0
 11
136.610204
 21
71.534644
 31
0.0
  0
LINE
  5
14B
100
AcDbEntity
  8
2
370
    50
100
AcDbLine
 10
136.610204
 20
39.534644
 30
0.0
 11
136.610204
 21
54.834644
 31
0.0
  0
LINE
  5
14C
100
AcDbEntity
  8
2
370
    50
100
AcDbLine
 10
136.610204
 20
62.234644
 30
0.0
 11
136.610204
 21
71.534644
 31
0.0
  0
LINE
  5
14D
100
AcDbEntity
  8
2
370
    50
100
AcDbLine
 10
160.110204
 20
62.034644
 30
0.0
 11
136.566598
 21
62.034644
 31
0.0
  0
LINE
  5
14E
100
AcDbEntity
  8
2
370
    50
100
AcDbLine
 10
160.110204
 20
55.034644
 30
0.0
 11
136.566598
 21
55.034644
 31
0.0
  0
LINE
  5
14F
100
AcDbEntity
  8
2
370
    50
100
AcDbLine
 10
160.610204
 20
61.534644
 30
0.0
 11
160.610204
 21
55.534644
 31
0.0
  0
LINE
  5
150
100
AcDbEntity
  8
2
370
    50
100
AcDbLine
 10
160.110204
 20
62.034644
 30
0.0
 11
160.610204
 21
61.534644
 31
0.0
  0
LINE
  5
151
100
AcDbEntity
  8
2
370
    50
100
AcDbLine
 10
160.110204
 20
55.034644
 30
0.0
 11
160.610204
 21
55.534644
 31
0.0
  0
LINE
  5
152
100
AcDbEntity
  8
2
370
    50
100
AcDbLine
 10
102.810204
 20
71.534644
 30
0.0
 11
136.610204
 21
71.534644
 31
0.0
  0
LINE
  5
153
100
AcDbEntity
  8
2
370
    50
100
AcDbLine
 10
102.810204
 20
39.534644
 30
0.0
 11
136.610204
 21
39.534644
 31
0.0
  0
ARC
  5
154
100
AcDbEntity
  8
2
370
    50
100
AcDbCircle
 10
153.100201
 20
58.534644
 30
0.0
 40
16.9
100
AcDbArc
 50
167.353517
 51
192.646483
  0
LINE
  5
155
100
AcDbEntity
  8
2
370
    50
100
AcDbLine
 10
160.110204
 20
62.034644
 30
0.0
 11
160.110204
 21
55.034644
 31
0.0
  0
POINT
  5
156
100
AcDbEntity
  8
2
370
    50
100
AcDbPoint
 10
119.710204
 20
-48.065356
 30
0.0
  0
POINT
  5
157
100
AcDbEntity
  8
2
370
    50
100
AcDbPoint
 10
252.710204
 20
14.434644
 30
0.0
  0
LINE
  5
158
100
AcDbEntity
  8
2
370
    50
100
AcDbLine
 10
252.210204
 20
24.934644
 30
0.0
 11
136.710204
 21
24.934644
 31
0.0
  0
LINE
  5
159
100
AcDbEntity
  8
2
370
    50
100
AcDbLine
 10
252.710204
 20
24.434644
 30
0.0
 11
252.710204
 21
4.434644
 31
0.0
  0
LINE
  5
15A
100
AcDbEntity
  8
2
370
    50
100
AcDbLine
 10
252.210204
 20
24.934644
 30
0.0
 11
252.710204
 21
24.434644
 31
0.0
  0
LINE
  5
15B
100
AcDbEntity
  8
2
370
    50
100
AcDbLine
 10
252.710204
 20
4.434644
 30
0.0
 11
252.210204
 21
3.934644
 31
0.0
  0
LINE
  5
15C
100
AcDbEntity
  8
2
370
    50
100
AcDbLine
 10
252.210204
 20
3.934644
 30
0.0
 11
250.375787
 21
3.934644
 31
0.0
  0
LINE
  5
15D
100
AcDbEntity
  8
2
370
    50
100
AcDbLine
 10
230.63529
 20
3.934644
 30
0.0
 11
136.710204
 21
3.934644
 31
0.0
  0
LINE
  5
15E
100
AcDbEntity
  8
2
370
    50
100
AcDbLine
 10
234.114549
 20
-4.601211
 30
0.0
 11
242.524729
 21
-1.540156
 31
0.0
  0
LINE
  5
15F
100
AcDbEntity
  8
2
370
    50
100
AcDbLine
 10
250.935047
 20
1.52095
 30
0.0
 11
242.52553
 21
-1.539864
 31
0.0
  0
LINE
  5
160
100
AcDbEntity
  8
2
370
    50
100
AcDbLine
 10
230.662009
 20
4.007422
 30
0.0
 11
233.730035
 21
-4.421909
 31
0.0
  0
LINE
  5
161
100
AcDbEntity
  8
2
370
    50
100
AcDbLine
 10
250.375787
 20
3.934644
 30
0.0
 11
251.114349
 21
1.905463
 31
0.0
  0
LINE
  5
162
100
AcDbEntity
  8
2
370
    50
100
AcDbLine
 10
233.730035
 20
-4.421909
 30
0.0
 11
234.114549
 21
-4.601211
 31
0.0
  0
LINE
  5
163
100
AcDbEntity
  8
2
370
    50
100
AcDbLine
 10
250.935047
 20
1.52095
 30
0.0
 11
251.114349
 21
1.905463
 31
0.0
  0
ARC
  5
164
100
AcDbEntity
  8
2
370
    25
100
AcDbCircle
 10
150.710204
 20
14.434644
 30
0.0
 40
17.5
100
AcDbArc
 50
147.181108
 51
212.29933
  0
LINE
  5
165
100
AcDbEntity
  8
2
370
    50
100
AcDbLine
 10
252.210204
 20
24.934644
 30
0.0
 11
252.210204
 21
3.934644
 31
0.0
  0
POINT
  5
166
100
AcDbEntity
  8
2
370
    50
100
AcDbPoint
 10
240.301667
 20
4.567871
 30
0.0
  0
ARC
  5
167
100
AcDbEntity
  8
2
370
    25
100
AcDbCircle
 10
238.519024
 20
1.081516
 30
0.0
 40
8.384128
100
AcDbArc
 50
90.0
 51
151.997723
  0
ARC
  5
168
100
AcDbEntity
  8
2
370
    25
100
AcDbCircle
 10
238.519024
 20
-6.008485
 30
0.0
 40
15.474128
100
AcDbArc
 50
45.451578
 51
90.0
  0
LINE
  5
169
100
AcDbEntity
  8
2
370
    50
100
AcDbLine
 10
251.114349
 20
1.905463
 30
0.0
 11
233.730035
 21
-4.421909
 31
0.0
  0
POINT
  5
16A
100
AcDbEntity
  8
2
370
    50
100
AcDbPoint
 10
-258.868556
 20
14.434644
 30
0.0
  0
LINE
  5
16B
100
AcDbEntity
  8
2
370
    50
100
AcDbLine
 10
-258.368556
 20
24.934644
 30
0.0
 11
-142.868556
 21
24.934644
 31
0.0
  0
LINE
  5
16C
100
AcDbEntity
  8
2
370
    50
100
AcDbLine
 10
-258.868556
 20
24.434644
 30
0.0
 11
-258.868556
 21
4.434644
 31
0.0
  0
LINE
  5
16D
100
AcDbEntity
  8
2
370
    50
100
AcDbLine
 10
-258.368556
 20
24.934644
 30
0.0
 11
-258.868556
 21
24.434644
 31
0.0
  0
LINE
  5
16E
100
AcDbEntity
  8
2
370
    50
100
AcDbLine
 10
-258.868556
 20
4.434644
 30
0.0
 11
-258.368556
 21
3.934644
 31
0.0
  0
LINE
  5
16F
100
AcDbEntity
  8
2
370
    50
100
AcDbLine
 10
-258.368556
 20
3.934644
 30
0.0
 11
-256.534139
 21
3.934644
 31
0.0
  0
LINE
  5
170
100
AcDbEntity
  8
2
370
    50
100
AcDbLine
 10
-236.84685
 20
3.934644
 30
0.0
 11
-142.868556
 21
3.934644
 31
0.0
  0
LINE
  5
171
100
AcDbEntity
  8
2
370
    50
100
AcDbLine
 10
-240.272901
 20
-4.601211
 30
0.0
 11
-248.68308
 21
-1.540156
 31
0.0
  0
LINE
  5
172
100
AcDbEntity
  8
2
370
    50
100
AcDbLine
 10
-257.093399
 20
1.52095
 30
0.0
 11
-248.683882
 21
-1.539864
 31
0.0
  0
LINE
  5
173
100
AcDbEntity
  8
2
370
    50
100
AcDbLine
 10
-236.84685
 20
3.934644
 30
0.0
 11
-239.888387
 21
-4.421909
 31
0.0
  0
LINE
  5
174
100
AcDbEntity
  8
2
370
    50
100
AcDbLine
 10
-256.534139
 20
3.934644
 30
0.0
 11
-257.2727
 21
1.905463
 31
0.0
  0
LINE
  5
175
100
AcDbEntity
  8
2
370
    50
100
AcDbLine
 10
-239.888387
 20
-4.421909
 30
0.0
 11
-240.272901
 21
-4.601211
 31
0.0
  0
LINE
  5
176
100
AcDbEntity
  8
2
370
    50
100
AcDbLine
 10
-257.093399
 20
1.52095
 30
0.0
 11
-257.2727
 21
1.905463
 31
0.0
  0
ARC
  5
177
100
AcDbEntity
  8
2
370
    25
100
AcDbCircle
 10
-156.868556
 20
14.434644
 30
0.0
 40
17.5
100
AcDbArc
 50
327.70067
 51
32.818892
  0
LINE
  5
178
100
AcDbEntity
  8
2
370
    50
100
AcDbLine
 10
-258.368556
 20
24.934644
 30
0.0
 11
-258.368556
 21
3.934644
 31
0.0
  0
ARC
  5
179
100
AcDbEntity
  8
2
370
    25
100
AcDbCircle
 10
-244.677375
 20
1.081516
 30
0.0
 40
8.384128
100
AcDbArc
 50
28.002277
 51
90.0
  0
ARC
  5
17A
100
AcDbEntity
  8
2
370
    25
100
AcDbCircle
 10
-244.677375
 20
-6.008485
 30
0.0
 40
15.474128
100
AcDbArc
 50
90.0
 51
134.548422
  0
LINE
  5
17B
100
AcDbEntity
  8
2
370
    50
100
AcDbLine
 10
-257.2727
 20
1.905463
 30
0.0
 11
-239.888387
 21
-4.421909
 31
0.0
  0
POINT
  5
17C
100
AcDbEntity
  8
2
370
    50
100
AcDbPoint
 10
-258.868556
 20
152.689236
 30
0.0
  0
LINE
  5
17D
100
AcDbEntity
  8
2
370
    50
100
AcDbLine
 10
-139.111236
 20
142.189645
 30
0.0
 11
-258.368556
 21
142.189645
 31
0.0
  0
LINE
  5
17E
100
AcDbEntity
  8
2
370
    50
100
AcDbLine
 10
-139.110587
 20
163.189645
 30
0.0
 11
-258.368556
 21
163.189645
 31
0.0
  0
LINE
  5
17F
100
AcDbEntity
  8
2
370
    50
100
AcDbLine
 10
-258.868556
 20
162.689645
 30
0.0
 11
-258.868556
 21
142.689645
 31
0.0
  0
LINE
  5
180
100
AcDbEntity
  8
2
370
    50
100
AcDbLine
 10
-258.368556
 20
142.189645
 30
0.0
 11
-258.868556
 21
142.689645
 31
0.0
  0
LINE
  5
181
100
AcDbEntity
  8
2
370
    50
100
AcDbLine
 10
-258.368556
 20
163.189645
 30
0.0
 11
-258.868556
 21
162.689645
 31
0.0
  0
LINE
  5
182
100
AcDbEntity
  8
2
370
    50
100
AcDbLine
 10
-258.368556
 20
163.189645
 30
0.0
 11
-258.368556
 21
142.189645
 31
0.0
  0
POINT
  5
183
100
AcDbEntity
  8
2
370
    50
100
AcDbPoint
 10
-248.68308
 20
-1.540156
 30
0.0
  0
TEXT
  5
184
100
AcDbEntity
  8
3
370
    50
100
AcDbText
 10
65.574945
 20
-227.817829
 30
0.0
 40
7.0
  1
立水栓　
 72
     5
 11
85.174945
 21
-227.817829
 31
0.0
100
AcDbText
  0
TEXT
  5
185
100
AcDbEntity
  8
3
370
    50
100
AcDbText
 10
226.850147
 20
-272.76662
 30
0.0
 40
7.0
  1
外観寸法図
 72
     5
 11
260.450147
 21
-272.76662
 31
0.0
100
AcDbText
  0
TEXT
  5
186
100
AcDbEntity
  8
3
370
    50
100
AcDbText
 10
290.832582
 20
-240.013492
 30
0.0
 40
6.0
  1
１　２
 72
     5
 11
307.632582
 21
-240.013492
 31
0.0
100
AcDbText
  0
POINT
  5
187
100
AcDbEntity
  8
3
370
    50
100
AcDbPoint
 10
394.982385
 20
-277.971881
 30
0.0
  0
DIMENSION
  5
188
100
AcDbEntity
  8
3
370
    25
100
AcDbDimension
  2
*D0
 10
-73.021744
 20
72.034644
 30
0.0
 11
-84.521744
 21
2.984644
 31
0.0
 71
     0
 72
     0
 41
0.0
 42
0.0
  3
Standard
100
AcDbAlignedDimension
 13
-104.868556
 23
-59.065356
 33
0.0
 14
-109.468556
 24
72.034644
 34
0.0
 50
90.0
100
AcDbRotatedDimension
  0
TEXT
  5
189
100
AcDbEntity
  8
3
370
    50
100
AcDbText
 10
-36.401024
 20
-52.757145
 30
0.0
 40
7.0
  1
取付穴径　φ２２～２６
 50
90.0
 72
     5
 11
-36.401024
 21
22.842855
 31
0.0
100
AcDbText
  0
TEXT
  5
18A
100
AcDbEntity
  8
3
370
    50
100
AcDbText
 10
-45.974586
 20
-53.065356
 30
0.0
 40
7.0
  1
天板厚サ　０～３０ｍｍ
 50
90.0
 72
     5
 11
-45.974586
 21
22.534644
 31
0.0
100
AcDbText
  0
DIMENSION
  5
18B
100
AcDbEntity
  8
3
370
    25
100
AcDbDimension
  2
*D1
 10
-44.974586
 20
-61.065356
 30
0.0
 11
-47.474586
 21
-18.565356
 31
0.0
 71
     0
 72
     0
 41
0.0
 42
0.0
  3
Standard
100
AcDbAlignedDimension
 13
-108.368556
 23
-74.065356
 33
0.0
 14
-106.368556
 24
-61.065356
 34
0.0
 50
90.0
100
AcDbRotatedDimension
  0
TEXT
  5
18C
100
AcDbEntity
  8
3
370
    50
100
AcDbText
 10
-95.889746
 20
-101.362767
 30
0.0
 40
7.0
  1
ＰＪ１／２
 72
     5
 11
-62.289746
 21
-101.362767
 31
0.0
100
AcDbText
  0
LWPOLYLINE
  5
18D
100
AcDbEntity
  8
3
370
    25
100
AcDbPolyline
 90
        3
 70
     0
 10
-115.618556
 20
-94.058438
 10
-96.542296
 20
-102.145367
 10
-62.218886
 20
-102.145367
  0
LINE
  5
192
100
AcDbEntity
  8
3
370
    25
100
AcDbLine
 10
-112.061297
 20
-95.566454
 30
0.0
 11
-111.657225
 21
-94.613289
 31
0.0
  0
LINE
  5
193
100
AcDbEntity
  8
3
370
    25
100
AcDbLine
 10
-111.657225
 20
-94.613289
 30
0.0
 11
-115.618556
 21
-94.058438
 31
0.0
  0
LINE
  5
194
100
AcDbEntity
  8
3
370
    25
100
AcDbLine
 10
-115.618556
 20
-94.058438
 30
0.0
 11
-112.465368
 21
-96.519619
 31
0.0
  0
LINE
  5
195
100
AcDbEntity
  8
3
370
    25
100
AcDbLine
 10
-112.465368
 20
-96.519619
 30
0.0
 11
-112.061297
 21
-95.566454
 31
0.0
  0
TEXT
  5
196
100
AcDbEntity
  8
3
370
    50
100
AcDbText
 10
-183.173392
 20
-89.054669
 30
0.0
 40
7.0
  1
２４六角
 72
     5
 11
-156.573392
 21
-89.054669
 31
0.0
100
AcDbText
  0
LWPOLYLINE
  5
197
100
AcDbEntity
  8
3
370
    25
100
AcDbPolyline
 90
        2
 70
     0
 10
-138.034041
 20
-80.747906
 10
-153.940291
 20
-85.330914
  0
LINE
  5
19B
100
AcDbEntity
  8
3
370
    25
100
AcDbLine
 10
-141.746709
 20
-81.817624
 30
0.0
 11
-141.460079
 21
-82.81243
 31
0.0
  0
LINE
  5
19C
100
AcDbEntity
  8
3
370
    25
100
AcDbLine
 10
-141.460079
 20
-82.81243
 30
0.0
 11
-138.034041
 21
-80.747906
 31
0.0
  0
LINE
  5
19D
100
AcDbEntity
  8
3
370
    25
100
AcDbLine
 10
-138.034041
 20
-80.747906
 30
0.0
 11
-142.033339
 21
-80.822817
 31
0.0
  0
LINE
  5
19E
100
AcDbEntity
  8
3
370
    25
100
AcDbLine
 10
-142.033339
 20
-80.822817
 30
0.0
 11
-141.746709
 21
-81.817624
 31
0.0
  0
TEXT
  5
19F
100
AcDbEntity
  8
3
370
    50
100
AcDbText
 10
-177.871306
 20
-123.925778
 30
0.0
 40
7.0
  1
２３六角
 72
     5
 11
-151.271306
 21
-123.925778
 31
0.0
100
AcDbText
  0
LWPOLYLINE
  5
1A0
100
AcDbEntity
  8
3
370
    25
100
AcDbPolyline
 90
        2
 70
     0
 10
-136.314406
 20
-110.60629
 10
-149.068144
 20
-120.345257
  0
LINE
  5
1A4
100
AcDbEntity
  8
3
370
    25
100
AcDbLine
 10
-139.385182
 20
-112.951186
 30
0.0
 11
-138.756869
 21
-113.773998
 31
0.0
  0
LINE
  5
1A5
100
AcDbEntity
  8
3
370
    25
100
AcDbLine
 10
-138.756869
 20
-113.773998
 30
0.0
 11
-136.314406
 21
-110.60629
 31
0.0
  0
LINE
  5
1A6
100
AcDbEntity
  8
3
370
    25
100
AcDbLine
 10
-136.314406
 20
-110.60629
 30
0.0
 11
-140.013495
 21
-112.128374
 31
0.0
  0
LINE
  5
1A7
100
AcDbEntity
  8
3
370
    25
100
AcDbLine
 10
-140.013495
 20
-112.128374
 30
0.0
 11
-139.385182
 21
-112.951186
 31
0.0
  0
TEXT
  5
1A8
100
AcDbEntity
  8
3
370
    50
100
AcDbText
 10
-171.868556
 20
31.494926
 30
0.0
 40
7.0
  1
φ３４
 72
     5
 11
-152.268556
 21
31.494926
 31
0.0
100
AcDbText
  0
DIMENSION
  5
1A9
100
AcDbEntity
  8
3
370
    25
100
AcDbDimension
  2
*D2
 10
-147.368556
 20
-21.722893
 30
0.0
 11
-165.868556
 21
-17.222893
 31
0.0
 70
     1
 71
     0
 72
     0
 41
0.0
 42
0.0
  3
Standard
100
AcDbAlignedDimension
 13
-104.368556
 23
-54.065356
 33
0.0
 14
-147.368556
 24
-54.065356
 34
0.0
  0
DIMENSION
  5
1AA
100
AcDbEntity
  8
3
370
    25
100
AcDbDimension
  2
*D3
 10
-108.868556
 20
30.494926
 30
0.0
 11
-125.868556
 21
32.494926
 31
0.0
 70
     1
 71
     0
 72
     0
 41
0.0
 42
0.0
  3
Standard
100
AcDbAlignedDimension
 13
-142.868556
 23
30.494926
 33
0.0
 14
-108.868556
 24
30.494926
 34
0.0
  0
TEXT
  5
1AB
100
AcDbEntity
  8
3
370
    50
100
AcDbText
 10
-117.186722
 20
108.711857
 30
0.0
 40
6.999667
  1
吐水
 72
     5
 11
-104.587321
 21
108.711857
 31
0.0
100
AcDbText
  0
DIMENSION
  5
1AC
100
AcDbEntity
  8
3
370
    25
100
AcDbDimension
  2
*D4
 10
-125.868556
 20
112.181032
 30
0.0
 11
-150.838284
 21
112.870264
 31
0.0
 70
     2
 71
     0
 72
     0
 41
0.0
 42
0.0
  3
Standard
100
AcDb2LineAngularDimension
 13
-173.119042
 23
152.689236
 33
0.0
 14
-125.868556
 24
152.689236
 34
0.0
 15
-125.868556
 25
152.689236
 35
0.0
 16
-158.970012
 26
119.587779
 36
0.0
1001
ACAD
1000
DSTYLE
1002
{
1070
   275
1070
     0
1070
   179
1070
     0
1002
}
  0
TEXT
  5
1AD
100
AcDbEntity
  8
3
370
    50
100
AcDbText
 10
-183.670894
 20
154.655132
 30
0.0
 40
6.999667
  1
止水
 72
     5
 11
-171.071494
 21
154.655132
 31
0.0
100
AcDbText
  0
TEXT
  5
1AE
100
AcDbEntity
  8
3
370
    50
100
AcDbText
 10
-127.482544
 20
206.048779
 30
0.0
 40
7.0
  1
＊ハンドル位置ハ製造上ノ誤差ニヨリ
 72
     5
 11
-9.882544
 21
206.048779
 31
0.0
100
AcDbText
  0
TEXT
  5
1AF
100
AcDbEntity
  8
3
370
    50
100
AcDbText
 10
-127.482544
 20
206.048779
 30
0.0
 40
7.0
  1
＊ハンドル位置ハ製造上ノ誤差ニヨリ
 72
     5
 11
-9.882544
 21
206.048779
 31
0.0
100
AcDbText
  0
TEXT
  5
1B0
100
AcDbEntity
  8
3
370
    50
100
AcDbText
 10
-120.482544
 20
198.048779
 30
0.0
 40
7.0
  1
左図ニ示シタ止水位置ノヨウニパイ
 72
     5
 11
-9.882544
 21
198.048779
 31
0.0
100
AcDbText
  0
TEXT
  5
1B1
100
AcDbEntity
  8
3
370
    50
100
AcDbText
 10
-120.482544
 20
190.048779
 30
0.0
 40
7.0
  1
プノ真上ニコナイコトガアリマス
 72
     5
 11
-16.882544
 21
190.048779
 31
0.0
100
AcDbText
  0
TEXT
  5
1B2
100
AcDbEntity
  8
3
370
    50
100
AcDbText
 10
-120.482544
 20
198.048779
 30
0.0
 40
7.0
  1
左図ニ示シタ止水位置ノヨウニパイ
 72
     5
 11
-9.882544
 21
198.048779
 31
0.0
100
AcDbText
  0
TEXT
  5
1B3
100
AcDbEntity
  8
3
370
    50
100
AcDbText
 10
-120.482544
 20
190.048779
 30
0.0
 40
7.0
  1
プノ真上ニコナイコトガアリマス
 72
     5
 11
-16.882544
 21
190.048779
 31
0.0
100
AcDbText
  0
TEXT
  5
1B4
100
AcDbEntity
  8
3
370
    50
100
AcDbText
 10
336.070276
 20
-271.880939
 30
0.0
 40
6.4
  1
５０２２２１
 72
     5
 11
373.190276
 21
-271.880939
 31
0.0
100
AcDbText
  0
TEXT
  5
1B5
100
AcDbEntity
  8
3
370
    50
100
AcDbText
 10
65.002039
 20
-235.834186
 30
0.0
 40
7.0
  1
ＭＬ０５３
 72
     5
 11
98.602039
 21
-235.834186
 31
0.0
100
AcDbText
  0
TEXT
  5
1B6
100
AcDbEntity
  8
3
370
    50
100
AcDbText
 10
345.098131
 20
-256.100293
 30
0.0
 40
6.0
  1
１６　　４　２０
 72
     5
 11
391.898131
 21
-256.100293
 31
0.0
100
AcDbText
  0
DIMENSION
  5
1B7
100
AcDbEntity
  8
3
370
    25
100
AcDbDimension
  2
*D5
 10
-125.868556
 20
-99.653908
 30
0.0
 11
-187.275818
 21
-95.153908
 31
0.0
 71
     0
 72
     0
 41
0.0
 42
0.0
  3
Standard
100
AcDbAlignedDimension
 13
-248.68308
 23
-1.540156
 33
0.0
 14
-125.868556
 24
-99.653908
 34
0.0
100
AcDbRotatedDimension
  0
DIMENSION
  5
1B8
100
AcDbEntity
  8
3
370
    25
100
AcDbDimension
  2
*D6
 10
-286.6651
 20
-1.540156
 30
0.0
 11
-294.6651
 21
-30.302756
 31
0.0
 71
     0
 72
     0
 41
0.0
 42
0.0
  3
Standard
100
AcDbAlignedDimension
 13
-146.868556
 23
-59.065356
 33
0.0
 14
-248.68308
 24
-1.540156
 34
0.0
 50
90.0
100
AcDbRotatedDimension
  0
DIMENSION
  5
1B9
100
AcDbEntity
  8
3
370
    25
100
AcDbDimension
  2
*D7
 10
-248.68308
 20
-1.542243
 30
0.0
 11
-242.16745
 21
-25.055051
 31
0.0
 70
     2
 71
     0
 72
     0
 41
0.0
 42
0.0
  3
Standard
100
AcDb2LineAngularDimension
 13
-248.683868
 23
-1.542104
 33
0.0
 14
-248.68308
 24
-1.53994
 34
0.0
 15
-248.68308
 25
-1.53994
 35
0.0
 16
-252.681579
 26
-24.216553
 36
0.0
1001
ACAD
1000
DSTYLE
1002
{
1070
   275
1070
     0
1070
   179
1070
     0
1002
}
  0
ENDSEC
  0
SECTION
  2
OBJECTS
  0
DICTIONARY
  5
215
100
AcDbDictionary
280
     0
281
     1
  3
ACAD_GROUP
350
216
  3
ACAD_MLINESTYLE
350
217
  0
DICTIONARY
  5
216
102
{ACAD_REACTORS
330
215
102
}
100
AcDbDictionary
280
     0
281
     1
  0
DICTIONARY
  5
217
102
{ACAD_REACTORS
330
215
102
}
100
AcDbDictionary
280
     0
281
     1
  3
Standard
350
218
  0
MLINESTYLE
  5
218
102
{ACAD_REACTORS
330
217
102
}
100
AcDbMlineStyle
  2
Standard
 70
     0
  3

 62
     0
 51
90.0
 52
90.0
 71
     2
 49
0.5
 62
   256
  6
ByLayer
 49
-0.5
 62
   256
  6
ByLayer
  0
ENDSEC
  0
EOF
