  0
SECTION
  2
HEADER
  9
$ACADVER
  1
AC1015
  9
$ACADMAINTVER
 70
     6
  9
$DWGCODEPAGE
  3
ANSI_932
  9
$INSBASE
 10
0.0
 20
0.0
 30
0.0
  9
$EXTMIN
 10
-420.0
 20
-297.0
 30
1.000000E+20
  9
$EXTMAX
 10
420.0
 20
297.0
 30
-1.000000E+20
  9
$LIMMIN
 10
-420.0
 20
-297.0
  9
$LIMMAX
 10
420.0
 20
297.0
  9
$ORTHOMODE
 70
     0
  9
$REGENMODE
 70
     1
  9
$FILLMODE
 70
     1
  9
$QTEXTMODE
 70
     0
  9
$MIRRTEXT
 70
     1
  9
$LTSCALE
 40
1.0
  9
$ATTMODE
 70
     1
  9
$TEXTSIZE
 40
0.2
  9
$TRACEWID
 40
0.05
  9
$TEXTSTYLE
  7
STANDARD
  9
$CLAYER
  8
0
  9
$CELTYPE
  6
CONTINUOUS
  9
$CECOLOR
 62
   256
  9
$CELTSCALE
 40
1.0
  9
$DISPSILH
 70
     0
  9
$DIMSCALE
 40
2.0
  9
$DIMASZ
 40
2.0
  9
$DIMEXO
 40
1.0
  9
$DIMDLI
 40
0.38
  9
$DIMRND
 40
0.0
  9
$DIMDLE
 40
0.0
  9
$DIMEXE
 40
2.0
  9
$DIMTP
 40
0.0
  9
$DIMTM
 40
0.0
  9
$DIMTXT
 40
3.5
  9
$DIMCEN
 40
0.09
  9
$DIMTSZ
 40
0.0
  9
$DIMTOL
 70
     0
  9
$DIMLIM
 70
     0
  9
$DIMTIH
 70
     0
  9
$DIMTOH
 70
     0
  9
$DIMSE1
 70
     0
  9
$DIMSE2
 70
     0
  9
$DIMTAD
 70
     1
  9
$DIMZIN
 70
     0
  9
$DIMBLK
  1

  9
$DIMASO
 70
     1
  9
$DIMSHO
 70
     1
  9
$DIMPOST
  1

  9
$DIMAPOST
  1

  9
$DIMALT
 70
     0
  9
$DIMALTD
 70
     2
  9
$DIMALTF
 40
25.4
  9
$DIMLFAC
 40
1.0
  9
$DIMTOFL
 70
     0
  9
$DIMTVP
 40
0.0
  9
$DIMTIX
 70
     0
  9
$DIMSOXD
 70
     0
  9
$DIMSAH
 70
     0
  9
$DIMBLK1
  1

  9
$DIMBLK2
  1

  9
$DIMSTYLE
  2
Standard
  9
$DIMCLRD
 70
     0
  9
$DIMCLRE
 70
     0
  9
$DIMCLRT
 70
     0
  9
$DIMTFAC
 40
1.0
  9
$DIMGAP
 40
0.5
  9
$DIMJUST
 70
     0
  9
$DIMSD1
 70
     0
  9
$DIMSD2
 70
     0
  9
$DIMTOLJ
 70
     1
  9
$DIMTZIN
 70
     0
  9
$DIMALTZ
 70
     0
  9
$DIMALTTZ
 70
     0
  9
$DIMUPT
 70
     0
  9
$DIMDEC
 70
     3
  9
$DIMTDEC
 70
     4
  9
$DIMALTU
 70
     2
  9
$DIMALTTD
 70
     2
  9
$DIMTXSTY
  7
STANDARD
  9
$DIMAUNIT
 70
     0
  9
$DIMADEC
 70
     0
  9
$DIMALTRND
 40
0.0
  9
$DIMAZIN
 70
     0
  9
$DIMDSEP
 70
     0
  9
$DIMATFIT
 70
     3
  9
$DIMFRAC
 70
     0
  9
$DIMLDRBLK
  1

  9
$DIMLUNIT
 70
     2
  9
$DIMLWD
 70
     0
  9
$DIMLWE
 70
     0
  9
$DIMTMOVE
 70
     0
  9
$LUNITS
 70
     2
  9
$LUPREC
 70
     4
  9
$SKETCHINC
 40
0.1
  9
$FILLETRAD
 40
0.0
  9
$AUNITS
 70
     0
  9
$AUPREC
 70
     0
  9
$MENU
  1
acad
  9
$ELEVATION
 40
0.0
  9
$PELEVATION
 40
0.0
  9
$THICKNESS
 40
0.0
  9
$LIMCHECK
 70
     0
  9
$CHAMFERA
 40
0.0
  9
$CHAMFERB
 40
0.0
  9
$CHAMFERC
 40
0.0
  9
$CHAMFERD
 40
0.0
  9
$SKPOLY
 70
     0
  9
$TDCREATE
 40
2454289.000000000
  9
$TDUCREATE
 40
0.000000000
  9
$TDUPDATE
 40
0.000000000
  9
$TDUUPDATE
 40
2447892.625000000
  9
$TDINDWG
 40
0.0000000000
  9
$TDUSRTIMER
 40
0.0000000000
  9
$USRTIMER
 70
     1
  9
$ANGBASE
 50
0.0
  9
$ANGDIR
 70
     0
  9
$PDMODE
 70
     0
  9
$PDSIZE
 40
0.0
  9
$PLINEWID
 40
0.0
  9
$SPLFRAME
 70
     0
  9
$SPLINETYPE
 70
     6
  9
$SPLINESEGS
 70
     8
  9
$HANDSEED
  5
251
  9
$SURFTAB1
 70
     6
  9
$SURFTAB2
 70
     6
  9
$SURFTYPE
 70
     6
  9
$SURFU
 70
     6
  9
$SURFV
 70
     6
  9
$UCSBASE
  2

  9
$UCSNAME
  2

  9
$UCSORG
 10
0.0
 20
0.0
 30
0.0
  9
$UCSXDIR
 10
1.0
 20
0.0
 30
0.0
  9
$UCSYDIR
 10
0.0
 20
1.0
 30
0.0
  9
$UCSORTHOREF
  2

  9
$UCSORTHOVIEW
 70
     0
  9
$UCSORGTOP
 10
0.0
 20
0.0
 30
0.0
  9
$UCSORGBOTTOM
 10
0.0
 20
0.0
 30
0.0
  9
$UCSORGLEFT
 10
0.0
 20
0.0
 30
0.0
  9
$UCSORGRIGHT
 10
0.0
 20
0.0
 30
0.0
  9
$UCSORGFRONT
 10
0.0
 20
0.0
 30
0.0
  9
$UCSORGBACK
 10
0.0
 20
0.0
 30
0.0
  9
$PUCSBASE
  2

  9
$PUCSNAME
  2

  9
$PUCSORG
 10
0.0
 20
0.0
 30
0.0
  9
$PUCSXDIR
 10
1.0
 20
0.0
 30
0.0
  9
$PUCSYDIR
 10
0.0
 20
1.0
 30
0.0
  9
$PUCSORTHOREF
  2

  9
$PUCSORTHOVIEW
 70
     0
  9
$PUCSORGTOP
 10
0.0
 20
0.0
 30
0.0
  9
$PUCSORGBOTTOM
 10
0.0
 20
0.0
 30
0.0
  9
$PUCSORGLEFT
 10
0.0
 20
0.0
 30
0.0
  9
$PUCSORGRIGHT
 10
0.0
 20
0.0
 30
0.0
  9
$PUCSORGFRONT
 10
0.0
 20
0.0
 30
0.0
  9
$PUCSORGBACK
 10
0.0
 20
0.0
 30
0.0
  9
$USERI1
 70
     0
  9
$USERI2
 70
     0
  9
$USERI3
 70
     0
  9
$USERI4
 70
     0
  9
$USERI5
 70
     0
  9
$USERR1
 40
0.0
  9
$USERR2
 40
0.0
  9
$USERR3
 40
0.0
  9
$USERR4
 40
0.0
  9
$USERR5
 40
0.0
  9
$WORLDVIEW
 70
     1
  9
$SHADEDGE
 70
     3
  9
$SHADEDIF
 70
    70
  9
$TILEMODE
 70
     1
  9
$MAXACTVP
 70
    16
  9
$PINSBASE
 10
0.0
 20
0.0
 30
0.0
  9
$PLIMCHECK
 70
     0
  9
$PEXTMIN
 10
1.000000E+20
 20
1.000000E+20
 30
1.000000E+20
  9
$PEXTMAX
 10
-1.000000E+20
 20
-1.000000E+20
 30
-1.000000E+20
  9
$PLIMMIN
 10
0.0
 20
0.0
  9
$PLIMMAX
 10
12.0
 20
9.0
  9
$UNITMODE
 70
     0
  9
$VISRETAIN
 70
     0
  9
$PLINEGEN
 70
     1
  9
$PSLTSCALE
 70
     0
  9
$TREEDEPTH
 70
  3020
  9
$CMLSTYLE
  2
Standard
  9
$CMLJUST
 70
     0
  9
$CMLSCALE
 40
1.0
  9
$PROXYGRAPHICS
 70
     0
  9
$MEASUREMENT
 70
     0
  9
$CELWEIGHT
370
     0
  9
$ENDCAPS
280
     0
  9
$JOINSTYLE
280
     0
  9
$LWDISPLAY
290
     0
  9
$INSUNITS
 70
     0
  9
$HYPERLINKBASE
  1

  9
$STYLESHEET
  1

  9
$XEDIT
290
     1
  9
$CEPSNTYPE
380
     0
  9
$PSTYLEMODE
290
     1
  9
$FINGERPRINTGUID
  2

  9
$VERSIONGUID
  2

  9
$EXTNAMES
290
     1
  9
$PSVPSCALE
 40
0.0
  0
ENDSEC
  0
SECTION
  2
CLASSES
  0
CLASS
  1
LWPOLYLINE
  2
AcDbPolyline
  3
AutoCAD 2000
 90
        0
280
     0
281
     1
  0
CLASS
  1
IMAGE
  2
AcDbRasterImage
  3
ISM
 90
      127
280
     0
281
     1
  0
CLASS
  1
OLE2FRAME
  2
AcDbOle2Frame
  3
AutoCAD 2000
 90
        0
280
     0
281
     1
  0
CLASS
  1
HATCH
  2
AcDbHatch
  3
AutoCAD 2000
 90
        0
280
     0
281
     1
  0
CLASS
  1
DICTIONARYVAR
  2
AcDbDictionaryVar
  3
AutoCAD 2000
 90
        0
280
     0
281
     0
  0
CLASS
  1
RASTERVARIABLES
  2
AcDbRasterVariables
  3
ISM
 90
        0
280
     0
281
     0
  0
CLASS
  1
IMAGEDEF
  2
AcDbRasterImageDef
  3
ISM
 90
        0
280
     0
281
     0
  0
CLASS
  1
IMAGEDEF_REACTOR
  2
AcDbRasterImageDefReactor
  3
ISM
 90
        1
280
     0
281
     0
  0
CLASS
  1
IDBUFFER
  2
AcDbIdBuffer
  3
AutoCAD 2000
 90
        0
280
     0
281
     0
  0
CLASS
  1
SPATIAL_FILTER
  2
AcDbSpatialFilter
  3
AutoCAD 2000
 90
        0
280
     0
281
     0
  0
CLASS
  1
XRECORD
  2
AcDbXrecord
  3
AutoCAD 2000
 90
        0
280
     0
281
     0
  0
CLASS
  1
SORTENTSTABLE
  2
AcDbSortentsTable
  3
AutoCAD 2000
 90
        0
280
     0
281
     0
  0
CLASS
  1
LAYER_INDEX
  2
AcDbLayerIndex
  3
AutoCAD 2000
 90
        0
280
     0
281
     0
  0
CLASS
  1
SPATIAL_INDEX
  2
AcDbSpatialIndex
  3
AutoCAD 2000
 90
        0
280
     0
281
     0
  0
CLASS
  1
OBJECT_PTR
  2
CAseDLPNTableRecord
  3
"ASE-LPNTableRecord"
 90
        1
280
     0
281
     0
  0
CLASS
  1
LAYOUT
  2
AcDbLayout
  3
AutoCAD 2000
 90
        0
280
     0
281
     0
  0
CLASS
  1
PLOTSETTINGS
  2
AcDbPlotSettings
  3
AutoCAD 2000
 90
        0
280
     0
281
     0
  0
CLASS
  1
ACDBDICTIONARYWDFLT
  2
AcDbDictionaryWithDefault
  3
AutoCAD 2000
 90
        0
280
     0
281
     0
  0
CLASS
  1
ACDBPLACEHOLDER
  2
AcDbPlaceHolder
  3
AutoCAD 2000
 90
        0
280
     0
281
     0
  0
CLASS
  1
VBA_PROJECT
  2
AcDbVbaProject
  3
acadvba
 90
        0
280
     0
281
     0
  0
CLASS
  1
WIPEOUT
  2
AcDbWipeout
  3
WipeOut|AutoCAD Express Tool|expresstools@autodesk.com
 90
      127
280
     0
281
     1
  0
CLASS
  1
WIPEOUTVARIABLES
  2
AcDbWipeoutVariables
  3
WipeOut|AutoCAD Express Tool|expresstools@autodesk.com
 90
        0
280
     0
281
     0
  0
CLASS
  1
RTEXT
  2
RText
  3
RText|AutoCAD Express Tool|expresstools@autodesk.com
 90
        0
280
     0
281
     1
  0
CLASS
  1
ARCALIGNEDTEXT
  2
AcDbArcAlignedText
  3
ATEXT|AutoCAD Express Tool|expresstools@autodesk.com
 90
        0
280
     0
281
     1
  0
ENDSEC
  0
SECTION
  2
TABLES
  0
TABLE
  2
VPORT
  5
6
100
AcDbSymbolTable
 70
     1
  0
VPORT
  5
19
100
AcDbSymbolTableRecord
100
AcDbViewportTableRecord
  2
*ACTIVE
 70
     0
 10
0.0
 20
0.0
 11
1.0
 21
1.0
 12
0.0
 22
0.0
 13
0.0
 23
0.0
 14
1.0
 24
1.0
 15
0.0
 25
0.0
 16
0.0
 26
0.0
 36
1.0
 17
0.0
 27
0.0
 37
0.0
 40
594.0
 41
1.414141
 42
50.0
 43
0.0
 44
0.0
 50
0.0
 51
0.0
 71
     0
 72
   500
 73
     1
 74
     1
 75
     0
 76
     0
 77
     0
 78
     0
281
     0
 65
     0
110
0.0
120
0.0
130
0.0
111
1.0
121
0.0
131
0.0
112
0.0
122
1.0
132
0.0
345
0
346
0
 79
     0
146
0.0
  0
ENDTAB
  0
TABLE
  2
LTYPE
  5
3
100
AcDbSymbolTable
 70
     9
  0
LTYPE
  5
C
100
AcDbSymbolTableRecord
100
AcDbLinetypeTableRecord
  2
ByBlock
 70
    64
  3

 72
    65
 73
     0
 40
0.0
  0
LTYPE
  5
D
100
AcDbSymbolTableRecord
100
AcDbLinetypeTableRecord
  2
ByLayer
 70
    64
  3

 72
    65
 73
     0
 40
0.0
  0
LTYPE
  5
E
100
AcDbSymbolTableRecord
100
AcDbLinetypeTableRecord
  2
CONTINUOUS
 70
     0
  3
Solid line
 72
    65
 73
     0
 40
0.0
  0
LTYPE
  5
F
100
AcDbSymbolTableRecord
100
AcDbLinetypeTableRecord
  2
DASHED
 70
     0
  3
__ __ __ __ __ __ __ __ __ __ __ __ __ __ __
 72
    65
 73
     2
 40
2.0
 49
1.2
 74
     0
 49
-0.8
 74
     0
  0
LTYPE
  5
10
100
AcDbSymbolTableRecord
100
AcDbLinetypeTableRecord
  2
CENTER
 70
     0
  3
____ _ ____ _ ____ _ ____ _ ____ _ ____ _ ____
 72
    65
 73
     4
 40
12.0
 49
9.0
 74
     0
 49
-1.0
 74
     0
 49
1.0
 74
     0
 49
-1.0
 74
     0
  0
LTYPE
  5
11
100
AcDbSymbolTableRecord
100
AcDbLinetypeTableRecord
  2
HIDDEN
 70
     0
  3
_ _ _ _ _ _ _ _ _ _ _ _ _ _ _ _ _ _ _ _ _ _ _
 72
    65
 73
     2
 40
3.2
 49
2.4
 74
     0
 49
-0.8
 74
     0
  0
LTYPE
  5
12
100
AcDbSymbolTableRecord
100
AcDbLinetypeTableRecord
  2
PHANTOM
 70
     0
  3
_____ _ _ _____ _ _ _____ _ _ _____ _ _ _____
 72
    65
 73
     6
 40
13.5
 49
9.0
 74
     0
 49
-1.0
 74
     0
 49
1.0
 74
     0
 49
-0.5
 74
     0
 49
1.0
 74
     0
 49
-1.0
 74
     0
  0
LTYPE
  5
13
100
AcDbSymbolTableRecord
100
AcDbLinetypeTableRecord
  2
DOT
 70
     0
  3
...............................................
 72
    65
 73
     2
 40
1.0
 49
0.5
 74
     0
 49
-0.5
 74
     0
  0
LTYPE
  5
14
100
AcDbSymbolTableRecord
100
AcDbLinetypeTableRecord
  2
DASHDOT
 70
     0
  3
__ . __ . __ . __ . __ . __ . __ . __ . __ . __
 72
    65
 73
     4
 40
8.0
 49
5.0
 74
     0
 49
-1.0
 74
     0
 49
1.0
 74
     0
 49
-1.0
 74
     0
  0
ENDTAB
  0
TABLE
  2
LAYER
  5
1
100
AcDbSymbolTable
 70
     4
  0
LAYER
  5
15
100
AcDbSymbolTableRecord
100
AcDbLayerTableRecord
  2
0
 70
     0
 62
     7
  6
CONTINUOUS
290
     1
370
    -3
390
0
  0
LAYER
  5
16
100
AcDbSymbolTableRecord
100
AcDbLayerTableRecord
  2
1
 70
     0
 62
     7
  6
CONTINUOUS
290
     1
370
    -3
390
0
  0
LAYER
  5
17
100
AcDbSymbolTableRecord
100
AcDbLayerTableRecord
  2
2
 70
     0
 62
     7
  6
CONTINUOUS
290
     1
370
    -3
390
0
  0
LAYER
  5
18
100
AcDbSymbolTableRecord
100
AcDbLayerTableRecord
  2
3
 70
     0
 62
     7
  6
CONTINUOUS
290
     1
370
    -3
390
0
  0
ENDTAB
  0
TABLE
  2
STYLE
  5
2
100
AcDbSymbolTable
 70
     1
  0
STYLE
  5
1B
100
AcDbSymbolTableRecord
100
AcDbTextStyleTableRecord
  2
STANDARD
 70
    64
 40
0.0
 41
1.0
 50
0.0
 71
     0
 42
1.0
  3
txt
  4
BIGFONT
  0
ENDTAB
  0
TABLE
  2
VIEW
  5
4
100
AcDbSymbolTable
 70
     0
  0
ENDTAB
  0
TABLE
  2
UCS
  5
5
100
AcDbSymbolTable
 70
     0
  0
ENDTAB
  0
TABLE
  2
APPID
  5
7
100
AcDbSymbolTable
 70
     1
  0
APPID
  5
1A
100
AcDbSymbolTableRecord
100
AcDbRegAppTableRecord
  2
ACAD
 70
     0
  0
ENDTAB
  0
TABLE
  2
DIMSTYLE
  5
8
100
AcDbSymbolTable
 70
     1
100
AcDbDimStyleTable
 71
     0
  0
DIMSTYLE
105
2C
100
AcDbSymbolTableRecord
100
AcDbDimStyleTableRecord
  2
Standard
 70
     0
  3

  4

 40
2.0
 41
2.0
 42
1.0
 43
0.38
 44
2.0
 45
0.0
 46
0.0
 47
0.0
 48
0.0
 71
     0
 72
     0
 73
     0
 74
     0
 75
     0
 76
     0
 77
     1
 78
     0
 79
     0
140
3.5
141
0.09
142
0.0
143
25.4
144
1.0
145
0.0
146
1.0
147
0.5
148
0.0
170
     0
171
     2
172
     0
173
     0
174
     0
175
     0
176
     0
177
     0
178
     0
179
     0
271
     3
272
     4
273
     2
274
     2
275
     0
276
     0
277
     2
278
    46
279
     0
280
     0
281
     0
282
     0
283
     1
284
     0
285
     0
286
     0
288
     0
289
     3
340
1B
341
0
342
0
343
0
344
0
371
    -2
372
    -2
  0
ENDTAB
  0
TABLE
  2
BLOCK_RECORD
  5
27
100
AcDbSymbolTable
 70
     9
  0
BLOCK_RECORD
  5
25
100
AcDbSymbolTableRecord
100
AcDbBlockTableRecord
  2
*Model_Space
340
0
  0
BLOCK_RECORD
  5
26
100
AcDbSymbolTableRecord
100
AcDbBlockTableRecord
  2
*Paper_Space
340
0
  0
BLOCK_RECORD
  5
1C
100
AcDbSymbolTableRecord
100
AcDbBlockTableRecord
  2
*D0
340
0
  0
BLOCK_RECORD
  5
1D
100
AcDbSymbolTableRecord
100
AcDbBlockTableRecord
  2
*D1
340
0
  0
BLOCK_RECORD
  5
1E
100
AcDbSymbolTableRecord
100
AcDbBlockTableRecord
  2
*D2
340
0
  0
BLOCK_RECORD
  5
1F
100
AcDbSymbolTableRecord
100
AcDbBlockTableRecord
  2
*D3
340
0
  0
BLOCK_RECORD
  5
20
100
AcDbSymbolTableRecord
100
AcDbBlockTableRecord
  2
*D4
340
0
  0
BLOCK_RECORD
  5
21
100
AcDbSymbolTableRecord
100
AcDbBlockTableRecord
  2
*D5
340
0
  0
BLOCK_RECORD
  5
22
100
AcDbSymbolTableRecord
100
AcDbBlockTableRecord
  2
*D6
340
0
  0
BLOCK_RECORD
  5
23
100
AcDbSymbolTableRecord
100
AcDbBlockTableRecord
  2
*D7
340
0
  0
BLOCK_RECORD
  5
24
100
AcDbSymbolTableRecord
100
AcDbBlockTableRecord
  2
*D8
340
0
  0
ENDTAB
  0
ENDSEC
  0
SECTION
  2
BLOCKS
  0
BLOCK
  5
28
100
AcDbEntity
  8
0
390
0
100
AcDbBlockBegin
  2
*Model_Space
 70
     0
 10
0.0
 20
0.0
 30
0.0
  3
*Model_Space
  1

  0
ENDBLK
  5
29
100
AcDbEntity
  8
0
390
0
100
AcDbBlockEnd
  0
BLOCK
  5
2A
100
AcDbEntity
 67
     1
  8
0
390
0
100
AcDbBlockBegin
  2
*Paper_Space
 70
     0
 10
0.0
 20
0.0
 30
0.0
  3
*Paper_Space
  1

  0
ENDBLK
  5
2B
100
AcDbEntity
 67
     1
  8
0
390
0
100
AcDbBlockEnd
  0
BLOCK
  5
1E9
100
AcDbEntity
  8
3
100
AcDbBlockBegin
  2
*D0
 70
     1
 10
0.0
 20
0.0
 30
0.0
  3
*D0
  1

  0
LINE
  5
1EA
100
AcDbEntity
  8
3
370
    25
100
AcDbLine
 10
-95.547663
 20
165.4245
 30
0.0
 11
-95.547663
 21
162.628064
 31
0.0
  0
LINE
  5
1EB
100
AcDbEntity
  8
3
370
    25
100
AcDbLine
 10
-142.004465
 20
211.084867
 30
0.0
 11
-142.878178
 21
207.181455
 31
0.0
  0
LINE
  5
1EC
100
AcDbEntity
  8
3
370
    25
100
AcDbLine
 10
-142.004465
 20
211.084867
 30
0.0
 11
-140.809417
 21
207.267556
 31
0.0
  0
LINE
  5
1ED
100
AcDbEntity
  8
3
370
    25
100
AcDbLine
 10
-142.878178
 20
207.181455
 30
0.0
 11
-140.809417
 21
207.267556
 31
0.0
  0
LINE
  5
1EE
100
AcDbEntity
  8
3
370
    25
100
AcDbLine
 10
-95.547663
 20
164.628064
 30
0.0
 11
-99.364973
 21
165.823113
 31
0.0
  0
LINE
  5
1EF
100
AcDbEntity
  8
3
370
    25
100
AcDbLine
 10
-95.547663
 20
164.628064
 30
0.0
 11
-99.451075
 21
163.754351
 31
0.0
  0
LINE
  5
1F0
100
AcDbEntity
  8
3
370
    25
100
AcDbLine
 10
-99.364973
 20
165.823113
 30
0.0
 11
-99.451075
 21
163.754351
 31
0.0
  0
ARC
  5
1F1
100
AcDbEntity
  8
3
370
    25
100
AcDbCircle
 10
-95.547663
 20
211.084867
 30
0.0
 40
46.456802
100
AcDbArc
 50
180.0
 51
270.0
  0
ENDBLK
  5
1F2
100
AcDbEntity
  8
3
100
AcDbBlockEnd
  0
BLOCK
  5
1F3
100
AcDbEntity
  8
3
100
AcDbBlockBegin
  2
*D1
 70
     1
 10
0.0
 20
0.0
 30
0.0
  3
*D1
  1

  0
TEXT
  5
1F4
100
AcDbEntity
  8
3
370
    25
100
AcDbText
 10
-135.115097
 20
186.366675
 30
0.0
 40
7.0
  1
９０゜
 50
315.0
 72
     5
 11
-121.255804
 21
172.507382
 31
0.0
100
AcDbText
  0
LINE
  5
1F5
100
AcDbEntity
  8
3
370
    25
100
AcDbLine
 10
-95.547663
 20
165.4245
 30
0.0
 11
-95.547663
 21
162.628064
 31
0.0
  0
LINE
  5
1F6
100
AcDbEntity
  8
3
370
    25
100
AcDbLine
 10
-142.004465
 20
211.084867
 30
0.0
 11
-142.878178
 21
207.181455
 31
0.0
  0
LINE
  5
1F7
100
AcDbEntity
  8
3
370
    25
100
AcDbLine
 10
-142.004465
 20
211.084867
 30
0.0
 11
-140.809417
 21
207.267556
 31
0.0
  0
LINE
  5
1F8
100
AcDbEntity
  8
3
370
    25
100
AcDbLine
 10
-142.878178
 20
207.181455
 30
0.0
 11
-140.809417
 21
207.267556
 31
0.0
  0
LINE
  5
1F9
100
AcDbEntity
  8
3
370
    25
100
AcDbLine
 10
-95.547663
 20
164.628064
 30
0.0
 11
-99.364973
 21
165.823113
 31
0.0
  0
LINE
  5
1FA
100
AcDbEntity
  8
3
370
    25
100
AcDbLine
 10
-95.547663
 20
164.628064
 30
0.0
 11
-99.451075
 21
163.754351
 31
0.0
  0
LINE
  5
1FB
100
AcDbEntity
  8
3
370
    25
100
AcDbLine
 10
-99.364973
 20
165.823113
 30
0.0
 11
-99.451075
 21
163.754351
 31
0.0
  0
ARC
  5
1FC
100
AcDbEntity
  8
3
370
    25
100
AcDbCircle
 10
-95.547663
 20
211.084867
 30
0.0
 40
46.456802
100
AcDbArc
 50
180.0
 51
270.0
  0
ENDBLK
  5
1FD
100
AcDbEntity
  8
3
100
AcDbBlockEnd
  0
BLOCK
  5
1FE
100
AcDbEntity
  8
3
100
AcDbBlockBegin
  2
*D2
 70
     1
 10
0.0
 20
0.0
 30
0.0
  3
*D2
  1

  0
LINE
  5
1FF
100
AcDbEntity
  8
3
370
    25
100
AcDbLine
 10
-78.547663
 20
63.383105
 30
0.0
 11
-74.683959
 21
62.347829
 31
0.0
  0
LINE
  5
200
100
AcDbEntity
  8
3
370
    25
100
AcDbLine
 10
-78.547663
 20
63.383105
 30
0.0
 11
-74.683959
 21
64.418382
 31
0.0
  0
LINE
  5
201
100
AcDbEntity
  8
3
370
    25
100
AcDbLine
 10
-74.683959
 20
62.347829
 30
0.0
 11
-74.683959
 21
64.418382
 31
0.0
  0
LINE
  5
202
100
AcDbEntity
  8
3
370
    25
100
AcDbLine
 10
-68.547663
 20
63.383105
 30
0.0
 11
-141.547663
 21
63.383105
 31
0.0
  0
LINE
  5
203
100
AcDbEntity
  8
3
370
    25
100
AcDbLine
 10
-112.547663
 20
63.383105
 30
0.0
 11
-116.411366
 21
64.418382
 31
0.0
  0
LINE
  5
204
100
AcDbEntity
  8
3
370
    25
100
AcDbLine
 10
-112.547663
 20
63.383105
 30
0.0
 11
-116.411366
 21
62.347829
 31
0.0
  0
LINE
  5
205
100
AcDbEntity
  8
3
370
    25
100
AcDbLine
 10
-116.411366
 20
64.418382
 30
0.0
 11
-116.411366
 21
62.347829
 31
0.0
  0
ENDBLK
  5
206
100
AcDbEntity
  8
3
100
AcDbBlockEnd
  0
BLOCK
  5
207
100
AcDbEntity
  8
3
100
AcDbBlockBegin
  2
*D3
 70
     1
 10
0.0
 20
0.0
 30
0.0
  3
*D3
  1

  0
TEXT
  5
208
100
AcDbEntity
  8
3
370
    25
100
AcDbText
 10
-225.678996
 20
40.603826
 30
0.0
 40
7.0
  1
４０゜
 50
340.0
 72
     5
 11
-207.26102
 21
33.900231
 31
0.0
100
AcDbText
  0
LINE
  5
209
100
AcDbEntity
  8
3
370
    25
100
AcDbLine
 10
-208.180204
 20
62.119763
 30
0.0
 11
-226.791305
 21
39.939916
 31
0.0
  0
LINE
  5
20A
100
AcDbEntity
  8
3
370
    25
100
AcDbLine
 10
-205.520125
 20
63.289921
 30
0.0
 11
-205.520125
 21
32.19784
 31
0.0
  0
LINE
  5
20B
100
AcDbEntity
  8
3
370
    25
100
AcDbLine
 10
-225.50573
 20
41.472005
 30
0.0
 11
-223.012271
 21
38.344281
 31
0.0
  0
LINE
  5
20C
100
AcDbEntity
  8
3
370
    25
100
AcDbLine
 10
-225.50573
 20
41.472005
 30
0.0
 11
-221.782468
 21
40.010046
 31
0.0
  0
LINE
  5
20D
100
AcDbEntity
  8
3
370
    25
100
AcDbLine
 10
-223.012271
 20
38.344281
 30
0.0
 11
-221.782468
 21
40.010046
 31
0.0
  0
LINE
  5
20E
100
AcDbEntity
  8
3
370
    25
100
AcDbLine
 10
-205.520125
 20
34.19784
 30
0.0
 11
-209.312038
 21
35.47118
 31
0.0
  0
LINE
  5
20F
100
AcDbEntity
  8
3
370
    25
100
AcDbLine
 10
-205.520125
 20
34.19784
 30
0.0
 11
-209.440689
 21
33.404629
 31
0.0
  0
LINE
  5
210
100
AcDbEntity
  8
3
370
    25
100
AcDbLine
 10
-209.312038
 20
35.47118
 30
0.0
 11
-209.440689
 21
33.404629
 31
0.0
  0
ARC
  5
211
100
AcDbEntity
  8
3
370
    25
100
AcDbCircle
 10
-205.520125
 20
65.289921
 30
0.0
 40
31.092081
100
AcDbArc
 50
230.0
 51
270.0
  0
ENDBLK
  5
212
100
AcDbEntity
  8
3
100
AcDbBlockEnd
  0
BLOCK
  5
213
100
AcDbEntity
  8
3
100
AcDbBlockBegin
  2
*D4
 70
     1
 10
0.0
 20
0.0
 30
0.0
  3
*D4
  1

  0
TEXT
  5
214
100
AcDbEntity
  8
3
370
    25
100
AcDbText
 10
-161.033894
 20
-27.970689
 30
0.0
 40
7.0
  1
１１０
 72
     5
 11
-141.433894
 21
-27.970689
 31
0.0
100
AcDbText
  0
LINE
  5
215
100
AcDbEntity
  8
3
370
    25
100
AcDbLine
 10
-118.547663
 20
-134.669725
 30
0.0
 11
-245.056898
 21
-134.669725
 31
0.0
  0
LINE
  5
216
100
AcDbEntity
  8
3
370
    25
100
AcDbLine
 10
-243.056898
 20
-134.669725
 30
0.0
 11
-242.021622
 21
-130.806022
 31
0.0
  0
LINE
  5
217
100
AcDbEntity
  8
3
370
    25
100
AcDbLine
 10
-243.056898
 20
-134.669725
 30
0.0
 11
-244.092174
 21
-130.806022
 31
0.0
  0
LINE
  5
218
100
AcDbEntity
  8
3
370
    25
100
AcDbLine
 10
-242.021622
 20
-130.806022
 30
0.0
 11
-244.092174
 21
-130.806022
 31
0.0
  0
LINE
  5
219
100
AcDbEntity
  8
3
370
    25
100
AcDbLine
 10
-243.056898
 20
-134.669725
 30
0.0
 11
-243.056898
 21
65.289921
 31
0.0
  0
LINE
  5
21A
100
AcDbEntity
  8
3
370
    25
100
AcDbLine
 10
-243.056898
 20
65.289921
 30
0.0
 11
-244.092174
 21
61.426218
 31
0.0
  0
LINE
  5
21B
100
AcDbEntity
  8
3
370
    25
100
AcDbLine
 10
-243.056898
 20
65.289921
 30
0.0
 11
-242.021622
 21
61.426218
 31
0.0
  0
LINE
  5
21C
100
AcDbEntity
  8
3
370
    25
100
AcDbLine
 10
-244.092174
 20
61.426218
 30
0.0
 11
-242.021622
 21
61.426218
 31
0.0
  0
LINE
  5
21D
100
AcDbEntity
  8
3
370
    25
100
AcDbLine
 10
-207.520125
 20
65.289921
 30
0.0
 11
-245.056898
 21
65.289921
 31
0.0
  0
ENDBLK
  5
21E
100
AcDbEntity
  8
3
100
AcDbBlockEnd
  0
BLOCK
  5
21F
100
AcDbEntity
  8
3
100
AcDbBlockBegin
  2
*D5
 70
     1
 10
0.0
 20
0.0
 30
0.0
  3
*D5
  1

  0
LINE
  5
220
100
AcDbEntity
  8
3
370
    25
100
AcDbLine
 10
-205.520125
 20
63.289921
 30
0.0
 11
-205.520125
 21
-30.970689
 31
0.0
  0
LINE
  5
221
100
AcDbEntity
  8
3
370
    25
100
AcDbLine
 10
-205.520125
 20
-28.970689
 30
0.0
 11
-201.656422
 21
-30.005965
 31
0.0
  0
LINE
  5
222
100
AcDbEntity
  8
3
370
    25
100
AcDbLine
 10
-205.520125
 20
-28.970689
 30
0.0
 11
-201.656422
 21
-27.935413
 31
0.0
  0
LINE
  5
223
100
AcDbEntity
  8
3
370
    25
100
AcDbLine
 10
-201.656422
 20
-30.005965
 30
0.0
 11
-201.656422
 21
-27.935413
 31
0.0
  0
LINE
  5
224
100
AcDbEntity
  8
3
370
    25
100
AcDbLine
 10
-205.520125
 20
-28.970689
 30
0.0
 11
-95.547663
 21
-28.970689
 31
0.0
  0
LINE
  5
225
100
AcDbEntity
  8
3
370
    25
100
AcDbLine
 10
-95.547663
 20
-28.970689
 30
0.0
 11
-99.411366
 21
-27.935413
 31
0.0
  0
LINE
  5
226
100
AcDbEntity
  8
3
370
    25
100
AcDbLine
 10
-95.547663
 20
-28.970689
 30
0.0
 11
-99.411366
 21
-30.005965
 31
0.0
  0
LINE
  5
227
100
AcDbEntity
  8
3
370
    25
100
AcDbLine
 10
-99.411366
 20
-27.935413
 30
0.0
 11
-99.411366
 21
-30.005965
 31
0.0
  0
ENDBLK
  5
228
100
AcDbEntity
  8
3
100
AcDbBlockEnd
  0
BLOCK
  5
229
100
AcDbEntity
  8
3
100
AcDbBlockBegin
  2
*D6
 70
     1
 10
0.0
 20
0.0
 30
0.0
  3
*D6
  1

  0
TEXT
  5
22A
100
AcDbEntity
  8
3
370
    25
100
AcDbText
 10
-16.111486
 20
0.380275
 30
0.0
 40
7.0
  1
２９１
 50
90.0
 72
     5
 11
-16.111486
 21
19.980275
 31
0.0
100
AcDbText
  0
LINE
  5
22B
100
AcDbEntity
  8
3
370
    25
100
AcDbLine
 10
-72.547663
 20
-134.669725
 30
0.0
 11
-13.111486
 21
-134.669725
 31
0.0
  0
LINE
  5
22C
100
AcDbEntity
  8
3
370
    25
100
AcDbLine
 10
-15.111486
 20
-134.669725
 30
0.0
 11
-14.07621
 21
-130.806022
 31
0.0
  0
LINE
  5
22D
100
AcDbEntity
  8
3
370
    25
100
AcDbLine
 10
-15.111486
 20
-134.669725
 30
0.0
 11
-16.146763
 21
-130.806022
 31
0.0
  0
LINE
  5
22E
100
AcDbEntity
  8
3
370
    25
100
AcDbLine
 10
-14.07621
 20
-130.806022
 30
0.0
 11
-16.146763
 21
-130.806022
 31
0.0
  0
LINE
  5
22F
100
AcDbEntity
  8
3
370
    25
100
AcDbLine
 10
-15.111486
 20
-134.669725
 30
0.0
 11
-15.111486
 21
156.430275
 31
0.0
  0
LINE
  5
230
100
AcDbEntity
  8
3
370
    25
100
AcDbLine
 10
-15.111486
 20
156.430275
 30
0.0
 11
-16.146763
 21
152.566571
 31
0.0
  0
LINE
  5
231
100
AcDbEntity
  8
3
370
    25
100
AcDbLine
 10
-15.111486
 20
156.430275
 30
0.0
 11
-14.07621
 21
152.566571
 31
0.0
  0
LINE
  5
232
100
AcDbEntity
  8
3
370
    25
100
AcDbLine
 10
-16.146763
 20
152.566571
 30
0.0
 11
-14.07621
 21
152.566571
 31
0.0
  0
LINE
  5
233
100
AcDbEntity
  8
3
370
    25
100
AcDbLine
 10
-77.147663
 20
156.430275
 30
0.0
 11
-13.111486
 21
156.430275
 31
0.0
  0
ENDBLK
  5
234
100
AcDbEntity
  8
3
100
AcDbBlockEnd
  0
BLOCK
  5
235
100
AcDbEntity
  8
3
100
AcDbBlockBegin
  2
*D7
 70
     1
 10
0.0
 20
0.0
 30
0.0
  3
*D7
  1

  0
LINE
  5
236
100
AcDbEntity
  8
3
370
    25
100
AcDbLine
 10
-76.047663
 20
-149.669725
 30
0.0
 11
-37.155889
 21
-149.669725
 31
0.0
  0
LINE
  5
237
100
AcDbEntity
  8
3
370
    25
100
AcDbLine
 10
-39.155889
 20
-149.669725
 30
0.0
 11
-40.191166
 21
-153.533429
 31
0.0
  0
LINE
  5
238
100
AcDbEntity
  8
3
370
    25
100
AcDbLine
 10
-39.155889
 20
-149.669725
 30
0.0
 11
-38.120613
 21
-153.533429
 31
0.0
  0
LINE
  5
239
100
AcDbEntity
  8
3
370
    25
100
AcDbLine
 10
-40.191166
 20
-153.533429
 30
0.0
 11
-38.120613
 21
-153.533429
 31
0.0
  0
LINE
  5
23A
100
AcDbEntity
  8
3
370
    25
100
AcDbLine
 10
-39.155889
 20
-159.669725
 30
0.0
 11
-39.155889
 21
-49.669725
 31
0.0
  0
LINE
  5
23B
100
AcDbEntity
  8
3
370
    25
100
AcDbLine
 10
-39.155889
 20
-134.669725
 30
0.0
 11
-38.120613
 21
-130.806022
 31
0.0
  0
LINE
  5
23C
100
AcDbEntity
  8
3
370
    25
100
AcDbLine
 10
-39.155889
 20
-134.669725
 30
0.0
 11
-40.191166
 21
-130.806022
 31
0.0
  0
LINE
  5
23D
100
AcDbEntity
  8
3
370
    25
100
AcDbLine
 10
-38.120613
 20
-130.806022
 30
0.0
 11
-40.191166
 21
-130.806022
 31
0.0
  0
LINE
  5
23E
100
AcDbEntity
  8
3
370
    25
100
AcDbLine
 10
-72.547663
 20
-134.669725
 30
0.0
 11
-37.155889
 21
-134.669725
 31
0.0
  0
ENDBLK
  5
23F
100
AcDbEntity
  8
3
100
AcDbBlockEnd
  0
BLOCK
  5
240
100
AcDbEntity
  8
3
100
AcDbBlockBegin
  2
*D8
 70
     1
 10
0.0
 20
0.0
 30
0.0
  3
*D8
  1

  0
TEXT
  5
241
100
AcDbEntity
  8
3
370
    25
100
AcDbText
 10
-146.047663
 20
-89.635194
 30
0.0
 40
7.0
  1
φ４３
 72
     5
 11
-126.447663
 21
-89.635194
 31
0.0
100
AcDbText
  0
LINE
  5
242
100
AcDbEntity
  8
3
370
    25
100
AcDbLine
 10
-74.047663
 20
-127.669725
 30
0.0
 11
-74.047663
 21
-88.635194
 31
0.0
  0
LINE
  5
243
100
AcDbEntity
  8
3
370
    25
100
AcDbLine
 10
-74.047663
 20
-90.635194
 30
0.0
 11
-70.183959
 21
-91.67047
 31
0.0
  0
LINE
  5
244
100
AcDbEntity
  8
3
370
    25
100
AcDbLine
 10
-74.047663
 20
-90.635194
 30
0.0
 11
-70.183959
 21
-89.599918
 31
0.0
  0
LINE
  5
245
100
AcDbEntity
  8
3
370
    25
100
AcDbLine
 10
-70.183959
 20
-91.67047
 30
0.0
 11
-70.183959
 21
-89.599918
 31
0.0
  0
LINE
  5
246
100
AcDbEntity
  8
3
370
    25
100
AcDbLine
 10
-64.047663
 20
-90.635194
 30
0.0
 11
-146.047663
 21
-90.635194
 31
0.0
  0
LINE
  5
247
100
AcDbEntity
  8
3
370
    25
100
AcDbLine
 10
-117.047663
 20
-90.635194
 30
0.0
 11
-120.911366
 21
-89.599918
 31
0.0
  0
LINE
  5
248
100
AcDbEntity
  8
3
370
    25
100
AcDbLine
 10
-117.047663
 20
-90.635194
 30
0.0
 11
-120.911366
 21
-91.67047
 31
0.0
  0
LINE
  5
249
100
AcDbEntity
  8
3
370
    25
100
AcDbLine
 10
-120.911366
 20
-89.599918
 30
0.0
 11
-120.911366
 21
-91.67047
 31
0.0
  0
LINE
  5
24A
100
AcDbEntity
  8
3
370
    25
100
AcDbLine
 10
-117.047663
 20
-127.669725
 30
0.0
 11
-117.047663
 21
-88.635194
 31
0.0
  0
ENDBLK
  5
24B
100
AcDbEntity
  8
3
100
AcDbBlockEnd
  0
ENDSEC
  0
SECTION
  2
ENTITIES
  0
LINE
  5
2D
100
AcDbEntity
  8
1
370
   100
100
AcDbLine
 10
-373.02157
 20
275.028767
 30
0.0
 11
394.982385
 21
275.028767
 31
0.0
  0
LINE
  5
2E
100
AcDbEntity
  8
1
370
   100
100
AcDbLine
 10
-373.02157
 20
275.028767
 30
0.0
 11
-373.02157
 21
-277.971881
 31
0.0
  0
LINE
  5
2F
100
AcDbEntity
  8
1
370
   100
100
AcDbLine
 10
-373.02157
 20
-277.971881
 30
0.0
 11
394.982385
 21
-277.971881
 31
0.0
  0
LINE
  5
30
100
AcDbEntity
  8
1
370
   100
100
AcDbLine
 10
394.982385
 20
-277.971881
 30
0.0
 11
394.982385
 21
275.028767
 31
0.0
  0
TEXT
  5
31
100
AcDbEntity
  8
1
370
    50
100
AcDbText
 10
359.628442
 20
-226.252857
 30
0.0
 40
6.0
  1
設計
 72
     5
 11
370.428442
 21
-226.252857
 31
0.0
100
AcDbText
  0
TEXT
  5
32
100
AcDbEntity
  8
1
370
    50
100
AcDbText
 10
379.127478
 20
-226.099658
 30
0.0
 40
6.0
  1
製図
 72
     5
 11
389.927478
 21
-226.099658
 31
0.0
100
AcDbText
  0
TEXT
  5
33
100
AcDbEntity
  8
1
370
    50
100
AcDbText
 10
319.005745
 20
-226.252857
 30
0.0
 40
6.0
  1
承認
 72
     5
 11
329.805745
 21
-226.252857
 31
0.0
100
AcDbText
  0
TEXT
  5
34
100
AcDbEntity
  8
1
370
    50
100
AcDbText
 10
338.989679
 20
-226.19802
 30
0.0
 40
6.0
  1
検図
 72
     5
 11
349.789679
 21
-226.19802
 31
0.0
100
AcDbText
  0
LINE
  5
35
100
AcDbEntity
  8
1
370
    25
100
AcDbLine
 10
284.982385
 20
-227.971881
 30
0.0
 11
394.982385
 21
-227.971881
 31
0.0
  0
LINE
  5
36
100
AcDbEntity
  8
1
370
    25
100
AcDbLine
 10
342.482385
 20
-245.971881
 30
0.0
 11
342.482385
 21
-259.971881
 31
0.0
  0
TEXT
  5
37
100
AcDbEntity
  8
1
370
    50
100
AcDbText
 10
319.55159
 20
-256.012528
 30
0.0
 40
6.0
  1
日　付
 72
     5
 11
336.35159
 21
-256.012528
 31
0.0
100
AcDbText
  0
LINE
  5
38
100
AcDbEntity
  8
1
370
    50
100
AcDbLine
 10
40.982385
 20
-259.971881
 30
0.0
 11
394.982385
 21
-259.971881
 31
0.0
  0
TEXT
  5
39
100
AcDbEntity
  8
1
370
    50
100
AcDbText
 10
287.775011
 20
-256.322406
 30
0.0
 40
6.0
  1
第三角法
 72
     5
 11
310.575011
 21
-256.322406
 31
0.0
100
AcDbText
  0
TEXT
  5
3A
100
AcDbEntity
  8
1
370
    50
100
AcDbText
 10
291.087419
 20
-225.99802
 30
0.0
 40
6.0
  1
尺　度
 72
     5
 11
307.887419
 21
-225.99802
 31
0.0
100
AcDbText
  0
LINE
  5
3B
100
AcDbEntity
  8
1
370
   100
100
AcDbLine
 10
40.982385
 20
-217.971881
 30
0.0
 11
394.982385
 21
-217.971881
 31
0.0
  0
LINE
  5
3C
100
AcDbEntity
  8
1
370
    50
100
AcDbLine
 10
211.982385
 20
-217.971881
 30
0.0
 11
211.982385
 21
-277.971881
 31
0.0
  0
LINE
  5
3D
100
AcDbEntity
  8
1
370
    25
100
AcDbLine
 10
374.982385
 20
-245.971881
 30
0.0
 11
374.982385
 21
-217.971881
 31
0.0
  0
LINE
  5
3E
100
AcDbEntity
  8
1
370
    25
100
AcDbLine
 10
354.982385
 20
-245.971881
 30
0.0
 11
354.982385
 21
-217.971881
 31
0.0
  0
LINE
  5
3F
100
AcDbEntity
  8
1
370
    25
100
AcDbLine
 10
334.982385
 20
-245.971881
 30
0.0
 11
334.982385
 21
-217.971881
 31
0.0
  0
LINE
  5
40
100
AcDbEntity
  8
1
370
    50
100
AcDbLine
 10
284.982385
 20
-277.971881
 30
0.0
 11
284.982385
 21
-217.971881
 31
0.0
  0
LINE
  5
41
100
AcDbEntity
  8
1
370
    50
100
AcDbLine
 10
189.982385
 20
-217.971881
 30
0.0
 11
189.982385
 21
-277.971881
 31
0.0
  0
LINE
  5
42
100
AcDbEntity
  8
1
370
    50
100
AcDbLine
 10
62.982385
 20
-217.971881
 30
0.0
 11
62.982385
 21
-259.971881
 31
0.0
  0
LINE
  5
43
100
AcDbEntity
  8
1
370
    50
100
AcDbLine
 10
284.982385
 20
-245.971881
 30
0.0
 11
394.982385
 21
-245.971881
 31
0.0
  0
TEXT
  5
44
100
AcDbEntity
  8
1
370
    50
100
AcDbText
 10
287.101129
 20
-271.880939
 30
0.0
 40
6.0
  1
コードＮｏ
 41
0.9
 72
     5
 11
313.021129
 21
-271.880939
 31
0.0
100
AcDbText
  0
TEXT
  5
45
100
AcDbEntity
  8
1
370
   100
100
AcDbText
 10
52.886774
 20
-272.875659
 30
0.0
 40
8.0
  1
ミズタニバルブ工業株式会社
 41
1.2
 72
     5
 11
175.766774
 21
-272.875659
 31
0.0
100
AcDbText
  0
LINE
  5
46
100
AcDbEntity
  8
1
370
    50
100
AcDbLine
 10
40.982385
 20
-238.971881
 30
0.0
 11
284.982385
 21
-238.971881
 31
0.0
  0
LINE
  5
47
100
AcDbEntity
  8
1
370
    50
100
AcDbLine
 10
115.482385
 20
-238.971881
 30
0.0
 11
115.482385
 21
-259.971881
 31
0.0
  0
LINE
  5
48
100
AcDbEntity
  8
1
370
    50
100
AcDbLine
 10
137.482385
 20
-238.971881
 30
0.0
 11
137.482385
 21
-259.971881
 31
0.0
  0
LINE
  5
49
100
AcDbEntity
  8
1
370
    50
100
AcDbLine
 10
314.982385
 20
-277.971881
 30
0.0
 11
314.982385
 21
-217.971881
 31
0.0
  0
TEXT
  5
4A
100
AcDbEntity
  8
1
370
    50
100
AcDbText
 10
345.098131
 20
-256.100293
 30
0.0
 40
6.0
  1
　　・　　・
 72
     5
 11
379.898131
 21
-256.100293
 31
0.0
100
AcDbText
  0
LINE
  5
4B
100
AcDbEntity
  8
1
370
   100
100
AcDbLine
 10
40.982385
 20
-217.971881
 30
0.0
 11
40.982385
 21
-277.971881
 31
0.0
  0
TEXT
  5
4C
100
AcDbEntity
  8
1
370
    50
100
AcDbText
 10
290.832582
 20
-240.013492
 30
0.0
 40
6.0
  1
　／ 
 72
     5
 11
301.632582
 21
-240.013492
 31
0.0
100
AcDbText
  0
TEXT
  5
4D
100
AcDbEntity
  8
1
370
    50
100
AcDbText
 10
193.904123
 20
-272.024909
 30
0.0
 40
6.0
  1
備 考 
 72
     5
 11
207.704123
 21
-272.024909
 31
0.0
100
AcDbText
  0
TEXT
  5
4E
100
AcDbEntity
  8
1
370
    50
100
AcDbText
 10
193.512534
 20
-230.89184
 30
0.0
 40
6.0
  1
仕 上
 72
     5
 11
207.312534
 21
-230.89184
 31
0.0
100
AcDbText
  0
TEXT
  5
4F
100
AcDbEntity
  8
1
370
    50
100
AcDbText
 10
193.447176
 20
-248.891666
 30
0.0
 40
6.0
  1
表 面
 72
     5
 11
207.247176
 21
-248.891666
 31
0.0
100
AcDbText
  0
TEXT
  5
50
100
AcDbEntity
  8
1
370
    50
100
AcDbText
 10
193.447176
 20
-255.891666
 30
0.0
 40
6.0
  1
処 理
 72
     5
 11
207.247176
 21
-255.891666
 31
0.0
100
AcDbText
  0
TEXT
  5
51
100
AcDbEntity
  8
1
370
    50
100
AcDbText
 10
44.79335
 20
-231.693399
 30
0.0
 40
6.0
  1
品 名
 72
     5
 11
58.59335
 21
-231.693399
 31
0.0
100
AcDbText
  0
TEXT
  5
52
100
AcDbEntity
  8
1
370
    50
100
AcDbText
 10
44.397766
 20
-252.462534
 30
0.0
 40
6.0
  1
材 質
 72
     5
 11
58.197766
 21
-252.462534
 31
0.0
100
AcDbText
  0
TEXT
  5
53
100
AcDbEntity
  8
1
370
    50
100
AcDbText
 10
118.897766
 20
-252.462534
 30
0.0
 40
6.0
  1
規 格
 72
     5
 11
132.697766
 21
-252.462534
 31
0.0
100
AcDbText
  0
LINE
  5
54
100
AcDbEntity
  8
2
370
    50
100
AcDbLine
 10
-78.047663
 20
-151.169725
 30
0.0
 11
-78.047663
 21
-149.669725
 31
0.0
  0
LINE
  5
55
100
AcDbEntity
  8
2
370
    50
100
AcDbLine
 10
-95.547663
 20
-151.169725
 30
0.0
 11
-78.047663
 21
-151.169725
 31
0.0
  0
LINE
  5
56
100
AcDbEntity
  8
2
370
    25
100
AcDbLine
 10
-86.297663
 20
-179.669725
 30
0.0
 11
-86.297663
 21
-159.869725
 31
0.0
  0
LINE
  5
57
100
AcDbEntity
  8
2
370
    25
100
AcDbLine
 10
-86.297663
 20
-149.669725
 30
0.0
 11
-86.297663
 21
-136.669333
 31
0.0
  0
LINE
  5
58
100
AcDbEntity
  8
2
370
    50
100
AcDbLine
 10
-85.297663
 20
-149.669725
 30
0.0
 11
-85.297663
 21
-136.669333
 31
0.0
  0
LINE
  5
59
100
AcDbEntity
  8
2
370
    50
100
AcDbLine
 10
-83.547663
 20
-159.869725
 30
0.0
 11
-95.547663
 21
-159.869725
 31
0.0
  0
LINE
  5
5A
100
AcDbEntity
  8
2
370
    50
100
AcDbLine
 10
-81.797663
 20
-158.859362
 30
0.0
 11
-81.797663
 21
-153.369725
 31
0.0
  0
LINE
  5
5B
100
AcDbEntity
  8
2
370
    50
100
AcDbLine
 10
-83.547663
 20
-159.869725
 30
0.0
 11
-81.797663
 21
-158.859362
 31
0.0
  0
LINE
  5
5C
100
AcDbEntity
  8
2
370
    50
100
AcDbLine
 10
-75.547663
 20
-152.869725
 30
0.0
 11
-75.547663
 21
-151.669725
 31
0.0
  0
LINE
  5
5D
100
AcDbEntity
  8
2
370
    50
100
AcDbLine
 10
-95.547663
 20
-153.369725
 30
0.0
 11
-81.227112
 21
-153.369725
 31
0.0
  0
LINE
  5
5E
100
AcDbEntity
  8
2
370
    50
100
AcDbLine
 10
-75.547663
 20
-151.669725
 30
0.0
 11
-95.547663
 21
-151.669725
 31
0.0
  0
LINE
  5
5F
100
AcDbEntity
  8
2
370
    50
100
AcDbLine
 10
-75.547663
 20
-152.869725
 30
0.0
 11
-95.547663
 21
-152.869725
 31
0.0
  0
ARC
  5
60
100
AcDbEntity
  8
2
370
    50
100
AcDbCircle
 10
-81.227112
 20
-148.369725
 30
0.0
 40
5.0
100
AcDbArc
 50
270.0
 51
293.556464
  0
ARC
  5
61
100
AcDbEntity
  8
2
370
    50
100
AcDbCircle
 10
-81.227112
 20
-156.169725
 30
0.0
 40
5.0
100
AcDbArc
 50
66.443536
 51
90.0
  0
ARC
  5
62
100
AcDbEntity
  8
2
370
    50
100
AcDbCircle
 10
-78.829196
 20
-153.869725
 30
0.0
 40
1.0
100
AcDbArc
 50
90.0
 51
113.556464
  0
ARC
  5
63
100
AcDbEntity
  8
2
370
    50
100
AcDbCircle
 10
-78.829196
 20
-150.669725
 30
0.0
 40
1.0
100
AcDbArc
 50
246.443536
 51
270.0
  0
LINE
  5
64
100
AcDbEntity
  8
2
370
    50
100
AcDbLine
 10
-88.547663
 20
-158.859362
 30
0.0
 11
-88.547663
 21
-153.369725
 31
0.0
  0
ARC
  5
65
100
AcDbEntity
  8
2
370
    50
100
AcDbCircle
 10
-95.547663
 20
-135.115832
 30
0.0
 40
24.753893
100
AcDbArc
 50
270.0
 51
286.426421
  0
ARC
  5
66
100
AcDbEntity
  8
2
370
    50
100
AcDbCircle
 10
-85.172663
 20
-153.727646
 30
0.0
 40
6.142079
100
AcDbArc
 50
236.668091
 51
303.331909
  0
ARC
  5
67
100
AcDbEntity
  8
2
370
    50
100
AcDbCircle
 10
-95.547663
 20
-137.119725
 30
0.0
 40
16.25
100
AcDbArc
 50
270.0
 51
284.250033
  0
ARC
  5
68
100
AcDbEntity
  8
2
370
    50
100
AcDbCircle
 10
-87.297663
 20
-137.119725
 30
0.0
 40
16.25
100
AcDbArc
 50
262.930286
 51
284.250033
  0
ARC
  5
69
100
AcDbEntity
  8
2
370
    50
100
AcDbCircle
 10
-91.297663
 20
-137.119725
 30
0.0
 40
16.25
100
AcDbArc
 50
262.485955
 51
284.250033
  0
ARC
  5
6A
100
AcDbEntity
  8
2
370
    50
100
AcDbCircle
 10
-83.297663
 20
-137.119725
 30
0.0
 40
16.25
100
AcDbArc
 50
262.930286
 51
270.0
  0
ARC
  5
6B
100
AcDbEntity
  8
2
370
    50
100
AcDbCircle
 10
-95.547663
 20
-167.419725
 30
0.0
 40
16.25
100
AcDbArc
 50
75.749967
 51
90.0
  0
ARC
  5
6C
100
AcDbEntity
  8
2
370
    50
100
AcDbCircle
 10
-91.297663
 20
-167.419725
 30
0.0
 40
16.25
100
AcDbArc
 50
75.749967
 51
97.514045
  0
ARC
  5
6D
100
AcDbEntity
  8
2
370
    50
100
AcDbCircle
 10
-87.297663
 20
-167.419725
 30
0.0
 40
16.25
100
AcDbArc
 50
75.749967
 51
97.069714
  0
ARC
  5
6E
100
AcDbEntity
  8
2
370
    50
100
AcDbCircle
 10
-83.297663
 20
-167.419725
 30
0.0
 40
16.25
100
AcDbArc
 50
90.0
 51
97.069714
  0
LINE
  5
6F
100
AcDbEntity
  8
2
370
    50
100
AcDbLine
 10
-84.047663
 20
-191.669725
 30
0.0
 11
-95.547663
 21
-191.669725
 31
0.0
  0
ARC
  5
70
100
AcDbEntity
  8
2
370
    50
100
AcDbCircle
 10
-97.822663
 20
-185.669725
 30
0.0
 40
15.025
100
AcDbArc
 50
336.463422
 51
23.536578
  0
LINE
  5
71
100
AcDbEntity
  8
2
370
    50
100
AcDbLine
 10
-84.047663
 20
-179.669725
 30
0.0
 11
-95.547663
 21
-179.669725
 31
0.0
  0
ELLIPSE
  5
72
100
AcDbEntity
  8
2
370
    50
100
AcDbEllipse
 10
-85.588371
 20
-185.669725
 30
0.0
 11
0.0
 21
6.0
 31
0.0
210
0.0
220
0.0
230
1.0
 40
0.458833
 41
0.0
 42
6.2831849999999996
  0
ELLIPSE
  5
73
100
AcDbEntity
  8
2
370
    50
100
AcDbEllipse
 10
-95.547663
 20
-185.669725
 30
0.0
 11
0.0
 21
6.0
 31
0.0
210
0.0
220
0.0
230
1.0
 40
0.926667
 41
0.0
 42
6.2831849999999996
  0
LINE
  5
74
100
AcDbEntity
  8
2
370
    50
100
AcDbLine
 10
-85.297663
 20
-179.669725
 30
0.0
 11
-85.297663
 21
-159.869725
 31
0.0
  0
LINE
  5
75
100
AcDbEntity
  8
2
370
    50
100
AcDbLine
 10
-113.047663
 20
-151.169725
 30
0.0
 11
-113.047663
 21
-149.669725
 31
0.0
  0
LINE
  5
76
100
AcDbEntity
  8
2
370
    50
100
AcDbLine
 10
-95.547663
 20
-151.169725
 30
0.0
 11
-113.047663
 21
-151.169725
 31
0.0
  0
LINE
  5
77
100
AcDbEntity
  8
2
370
    25
100
AcDbLine
 10
-104.797663
 20
-179.669725
 30
0.0
 11
-104.797663
 21
-159.869725
 31
0.0
  0
LINE
  5
78
100
AcDbEntity
  8
2
370
    25
100
AcDbLine
 10
-104.797663
 20
-149.669725
 30
0.0
 11
-104.797663
 21
-136.669333
 31
0.0
  0
LINE
  5
79
100
AcDbEntity
  8
2
370
    50
100
AcDbLine
 10
-105.797663
 20
-149.669725
 30
0.0
 11
-105.797663
 21
-136.669333
 31
0.0
  0
LINE
  5
7A
100
AcDbEntity
  8
2
370
    50
100
AcDbLine
 10
-107.547663
 20
-159.869725
 30
0.0
 11
-95.547663
 21
-159.869725
 31
0.0
  0
LINE
  5
7B
100
AcDbEntity
  8
2
370
    50
100
AcDbLine
 10
-109.297663
 20
-158.859362
 30
0.0
 11
-109.297663
 21
-153.369725
 31
0.0
  0
LINE
  5
7C
100
AcDbEntity
  8
2
370
    50
100
AcDbLine
 10
-107.547663
 20
-159.869725
 30
0.0
 11
-109.297663
 21
-158.859362
 31
0.0
  0
LINE
  5
7D
100
AcDbEntity
  8
2
370
    50
100
AcDbLine
 10
-115.547663
 20
-152.869725
 30
0.0
 11
-115.547663
 21
-151.669725
 31
0.0
  0
LINE
  5
7E
100
AcDbEntity
  8
2
370
    50
100
AcDbLine
 10
-95.547663
 20
-153.369725
 30
0.0
 11
-109.868213
 21
-153.369725
 31
0.0
  0
LINE
  5
7F
100
AcDbEntity
  8
2
370
    50
100
AcDbLine
 10
-115.547663
 20
-151.669725
 30
0.0
 11
-95.547663
 21
-151.669725
 31
0.0
  0
LINE
  5
80
100
AcDbEntity
  8
2
370
    50
100
AcDbLine
 10
-115.547663
 20
-152.869725
 30
0.0
 11
-95.547663
 21
-152.869725
 31
0.0
  0
ARC
  5
81
100
AcDbEntity
  8
2
370
    50
100
AcDbCircle
 10
-109.868213
 20
-148.369725
 30
0.0
 40
5.0
100
AcDbArc
 50
246.443536
 51
270.0
  0
ARC
  5
82
100
AcDbEntity
  8
2
370
    50
100
AcDbCircle
 10
-109.868213
 20
-156.169725
 30
0.0
 40
5.0
100
AcDbArc
 50
90.0
 51
113.556464
  0
ARC
  5
83
100
AcDbEntity
  8
2
370
    50
100
AcDbCircle
 10
-112.266129
 20
-153.869725
 30
0.0
 40
1.0
100
AcDbArc
 50
66.443536
 51
90.0
  0
ARC
  5
84
100
AcDbEntity
  8
2
370
    50
100
AcDbCircle
 10
-112.266129
 20
-150.669725
 30
0.0
 40
1.0
100
AcDbArc
 50
270.0
 51
293.556464
  0
LINE
  5
85
100
AcDbEntity
  8
2
370
    50
100
AcDbLine
 10
-102.547663
 20
-158.859362
 30
0.0
 11
-102.547663
 21
-153.369725
 31
0.0
  0
ARC
  5
86
100
AcDbEntity
  8
2
370
    50
100
AcDbCircle
 10
-95.547663
 20
-135.115832
 30
0.0
 40
24.753893
100
AcDbArc
 50
253.573579
 51
270.0
  0
ARC
  5
87
100
AcDbEntity
  8
2
370
    50
100
AcDbCircle
 10
-105.922663
 20
-153.727646
 30
0.0
 40
6.142079
100
AcDbArc
 50
236.668091
 51
303.331909
  0
ARC
  5
88
100
AcDbEntity
  8
2
370
    50
100
AcDbCircle
 10
-95.547663
 20
-137.119725
 30
0.0
 40
16.25
100
AcDbArc
 50
255.749967
 51
270.0
  0
ARC
  5
89
100
AcDbEntity
  8
2
370
    50
100
AcDbCircle
 10
-103.797663
 20
-137.119725
 30
0.0
 40
16.25
100
AcDbArc
 50
255.749967
 51
277.069714
  0
ARC
  5
8A
100
AcDbEntity
  8
2
370
    50
100
AcDbCircle
 10
-99.797663
 20
-137.119725
 30
0.0
 40
16.25
100
AcDbArc
 50
255.749967
 51
277.514045
  0
ARC
  5
8B
100
AcDbEntity
  8
2
370
    50
100
AcDbCircle
 10
-107.797663
 20
-137.119725
 30
0.0
 40
16.25
100
AcDbArc
 50
270.0
 51
277.069714
  0
ARC
  5
8C
100
AcDbEntity
  8
2
370
    50
100
AcDbCircle
 10
-95.547663
 20
-167.419725
 30
0.0
 40
16.25
100
AcDbArc
 50
90.0
 51
104.250033
  0
ARC
  5
8D
100
AcDbEntity
  8
2
370
    50
100
AcDbCircle
 10
-99.797663
 20
-167.419725
 30
0.0
 40
16.25
100
AcDbArc
 50
82.485955
 51
104.250033
  0
ARC
  5
8E
100
AcDbEntity
  8
2
370
    50
100
AcDbCircle
 10
-103.797663
 20
-167.419725
 30
0.0
 40
16.25
100
AcDbArc
 50
82.930286
 51
104.250033
  0
ARC
  5
8F
100
AcDbEntity
  8
2
370
    50
100
AcDbCircle
 10
-107.797663
 20
-167.419725
 30
0.0
 40
16.25
100
AcDbArc
 50
82.930286
 51
90.0
  0
LINE
  5
90
100
AcDbEntity
  8
2
370
    50
100
AcDbLine
 10
-107.047663
 20
-191.669725
 30
0.0
 11
-95.547663
 21
-191.669725
 31
0.0
  0
ARC
  5
91
100
AcDbEntity
  8
2
370
    50
100
AcDbCircle
 10
-93.272663
 20
-185.669725
 30
0.0
 40
15.025
100
AcDbArc
 50
156.463422
 51
203.536578
  0
LINE
  5
92
100
AcDbEntity
  8
2
370
    50
100
AcDbLine
 10
-107.047663
 20
-179.669725
 30
0.0
 11
-95.547663
 21
-179.669725
 31
0.0
  0
ELLIPSE
  5
93
100
AcDbEntity
  8
2
370
    50
100
AcDbEllipse
 10
-105.506955
 20
-185.669725
 30
0.0
 11
0.0
 21
6.0
 31
0.0
210
0.0
220
0.0
230
1.0
 40
0.458833
 41
0.0
 42
6.2831849999999996
  0
LINE
  5
94
100
AcDbEntity
  8
2
370
    50
100
AcDbLine
 10
-105.797663
 20
-179.669725
 30
0.0
 11
-105.797663
 21
-159.869725
 31
0.0
  0
LINE
  5
95
100
AcDbEntity
  8
2
370
    50
100
AcDbLine
 10
-113.047663
 20
-149.669725
 30
0.0
 11
-78.047663
 21
-149.669725
 31
0.0
  0
LINE
  5
96
100
AcDbEntity
  8
2
370
    50
100
AcDbLine
 10
-79.047663
 20
30.830275
 30
0.0
 11
-112.047663
 21
30.830275
 31
0.0
  0
LINE
  5
97
100
AcDbEntity
  8
2
370
    50
100
AcDbLine
 10
-78.547663
 20
121.830275
 30
0.0
 11
-78.547663
 21
31.330275
 31
0.0
  0
LINE
  5
98
100
AcDbEntity
  8
2
370
    50
100
AcDbLine
 10
-95.547663
 20
122.330275
 30
0.0
 11
-112.047663
 21
122.330275
 31
0.0
  0
LINE
  5
99
100
AcDbEntity
  8
2
370
    50
100
AcDbLine
 10
-112.047663
 20
122.330275
 30
0.0
 11
-112.547663
 21
121.830275
 31
0.0
  0
LINE
  5
9A
100
AcDbEntity
  8
2
370
    50
100
AcDbLine
 10
-109.547663
 20
122.330275
 30
0.0
 11
-109.547663
 21
123.430275
 31
0.0
  0
LINE
  5
9B
100
AcDbEntity
  8
2
370
    50
100
AcDbLine
 10
-112.547663
 20
31.330275
 30
0.0
 11
-112.547663
 21
90.330275
 31
0.0
  0
LINE
  5
9C
100
AcDbEntity
  8
2
370
    50
100
AcDbLine
 10
-112.547663
 20
109.330275
 30
0.0
 11
-112.547663
 21
121.830275
 31
0.0
  0
LINE
  5
9D
100
AcDbEntity
  8
2
370
    50
100
AcDbLine
 10
-78.547663
 20
31.330275
 30
0.0
 11
-79.047663
 21
30.830275
 31
0.0
  0
LINE
  5
9E
100
AcDbEntity
  8
2
370
    50
100
AcDbLine
 10
-112.547663
 20
31.330275
 30
0.0
 11
-112.047663
 21
30.830275
 31
0.0
  0
LINE
  5
9F
100
AcDbEntity
  8
2
370
    50
100
AcDbLine
 10
-81.547663
 20
122.330275
 30
0.0
 11
-81.547663
 21
123.430275
 31
0.0
  0
LINE
  5
A0
100
AcDbEntity
  8
2
370
    50
100
AcDbLine
 10
-95.547663
 20
122.330275
 30
0.0
 11
-79.047663
 21
122.330275
 31
0.0
  0
LINE
  5
A1
100
AcDbEntity
  8
2
370
    50
100
AcDbLine
 10
-79.047663
 20
122.330275
 30
0.0
 11
-78.547663
 21
121.830275
 31
0.0
  0
LINE
  5
A2
100
AcDbEntity
  8
2
370
    50
100
AcDbLine
 10
-112.547663
 20
109.330275
 30
0.0
 11
-162.548097
 21
109.330275
 31
0.0
  0
LINE
  5
A3
100
AcDbEntity
  8
2
370
    50
100
AcDbLine
 10
-112.547663
 20
90.330275
 30
0.0
 11
-162.548097
 21
90.330275
 31
0.0
  0
LINE
  5
A4
100
AcDbEntity
  8
2
370
    50
100
AcDbLine
 10
-192.806853
 20
95.220385
 30
0.0
 11
-199.234729
 21
87.559941
 31
0.0
  0
LINE
  5
A5
100
AcDbEntity
  8
2
370
    50
100
AcDbLine
 10
-178.252009
 20
83.007421
 30
0.0
 11
-184.679885
 21
75.346976
 31
0.0
  0
LINE
  5
A6
100
AcDbEntity
  8
2
370
    25
  6
CENTER
100
AcDbLine
 10
-162.548097
 20
99.830275
 30
0.0
 11
-95.547663
 21
99.830275
 31
0.0
  0
ARC
  5
A7
100
AcDbEntity
  8
2
370
    25
  6
CENTER
100
AcDbCircle
 10
-162.548097
 20
69.830275
 30
0.0
 40
30.0
100
AcDbArc
 50
90.0
 51
140.0
  0
ARC
  5
A8
100
AcDbEntity
  8
2
370
    50
100
AcDbCircle
 10
-162.548097
 20
69.830275
 30
0.0
 40
39.5
100
AcDbArc
 50
90.0
 51
140.0
  0
ARC
  5
A9
100
AcDbEntity
  8
2
370
    50
100
AcDbCircle
 10
-162.548097
 20
69.830275
 30
0.0
 40
20.5
100
AcDbArc
 50
90.0
 51
140.0
  0
LINE
  5
AA
100
AcDbEntity
  8
2
370
    50
100
AcDbLine
 10
-184.679885
 20
75.346976
 30
0.0
 11
-191.957307
 21
81.453459
 31
0.0
  0
LINE
  5
AB
100
AcDbEntity
  8
2
370
    50
100
AcDbLine
 10
-191.957307
 20
81.453459
 30
0.0
 11
-199.234729
 21
87.559941
 31
0.0
  0
LINE
  5
AC
100
AcDbEntity
  8
2
370
    50
100
AcDbLine
 10
-198.688679
 20
59.818738
 30
0.0
 11
-212.094457
 21
71.067521
 31
0.0
  0
LINE
  5
AD
100
AcDbEntity
  8
2
370
    50
100
AcDbLine
 10
-185.449905
 20
74.818233
 30
0.0
 11
-197.984263
 21
59.880367
 31
0.0
  0
LINE
  5
AE
100
AcDbEntity
  8
2
370
    50
100
AcDbLine
 10
-199.621727
 20
86.709804
 30
0.0
 11
-212.156085
 21
71.771937
 31
0.0
  0
ARC
  5
AF
100
AcDbEntity
  8
2
370
    50
100
AcDbCircle
 10
-211.773063
 20
71.450544
 30
0.0
 40
0.5
100
AcDbArc
 50
140.0
 51
230.0
  0
LINE
  5
B0
100
AcDbEntity
  8
2
370
    50
100
AcDbLine
 10
-185.449905
 20
74.818233
 30
0.0
 11
-192.535816
 21
80.764019
 31
0.0
  0
LINE
  5
B1
100
AcDbEntity
  8
2
370
    50
100
AcDbLine
 10
-192.535816
 20
80.764019
 30
0.0
 11
-199.621727
 21
86.709804
 31
0.0
  0
LINE
  5
B2
100
AcDbEntity
  8
2
370
    50
100
AcDbLine
 10
-186.153899
 20
75.408955
 30
0.0
 11
-185.896784
 21
75.715373
 31
0.0
  0
LINE
  5
B3
100
AcDbEntity
  8
2
370
    50
100
AcDbLine
 10
-185.001278
 20
74.963954
 30
0.0
 11
-192.278701
 21
81.070436
 31
0.0
  0
LINE
  5
B4
100
AcDbEntity
  8
2
370
    50
100
AcDbLine
 10
-198.660617
 20
86.4255
 30
0.0
 11
-198.917732
 21
86.119082
 31
0.0
  0
LINE
  5
B5
100
AcDbEntity
  8
2
370
    50
100
AcDbLine
 10
-192.278701
 20
81.070436
 30
0.0
 11
-199.556123
 21
87.176919
 31
0.0
  0
LINE
  5
B6
100
AcDbEntity
  8
2
370
    50
100
AcDbLine
 10
-199.234729
 20
87.559941
 30
0.0
 11
-199.556123
 21
87.176919
 31
0.0
  0
LINE
  5
B7
100
AcDbEntity
  8
2
370
    50
100
AcDbLine
 10
-184.679885
 20
75.346976
 30
0.0
 11
-185.001278
 21
74.963954
 31
0.0
  0
LINE
  5
B8
100
AcDbEntity
  8
2
370
    50
100
AcDbLine
 10
-184.679885
 20
75.346976
 30
0.0
 11
-185.254418
 21
75.829067
 31
0.0
  0
LINE
  5
B9
100
AcDbEntity
  8
2
370
    50
100
AcDbLine
 10
-199.234729
 20
87.559941
 30
0.0
 11
-198.660196
 21
87.07785
 31
0.0
  0
LINE
  5
BA
100
AcDbEntity
  8
2
370
    25
  6
CENTER
100
AcDbLine
 10
-185.529431
 20
89.113903
 30
0.0
 11
-206.894629
 21
63.651852
 31
0.0
  0
ARC
  5
BB
100
AcDbEntity
  8
2
370
    25
100
AcDbCircle
 10
-119.072663
 20
99.830275
 30
0.0
 40
11.525
100
AcDbArc
 50
304.482919
 51
55.517081
  0
LINE
  5
BC
100
AcDbEntity
  8
2
370
    25
100
AcDbLine
 10
-112.547663
 20
121.830275
 30
0.0
 11
-78.547663
 21
121.830275
 31
0.0
  0
LINE
  5
BD
100
AcDbEntity
  8
2
370
    50
100
AcDbLine
 10
-115.047663
 20
-134.669725
 30
0.0
 11
-115.047663
 21
-136.669725
 31
0.0
  0
LINE
  5
BE
100
AcDbEntity
  8
2
370
    50
100
AcDbLine
 10
-115.047663
 20
-136.669725
 30
0.0
 11
-95.547663
 21
-136.669725
 31
0.0
  0
LINE
  5
BF
100
AcDbEntity
  8
2
370
    50
100
AcDbLine
 10
-116.547663
 20
-134.669725
 30
0.0
 11
-95.547663
 21
-134.669725
 31
0.0
  0
LINE
  5
C0
100
AcDbEntity
  8
2
370
    50
100
AcDbLine
 10
-117.047663
 20
-134.169725
 30
0.0
 11
-116.547663
 21
-134.669725
 31
0.0
  0
LINE
  5
C1
100
AcDbEntity
  8
2
370
    50
100
AcDbLine
 10
-117.047663
 20
-129.669725
 30
0.0
 11
-117.047663
 21
-134.169725
 31
0.0
  0
LINE
  5
C2
100
AcDbEntity
  8
2
370
    50
100
AcDbLine
 10
-116.547663
 20
-129.169725
 30
0.0
 11
-117.047663
 21
-129.669725
 31
0.0
  0
LINE
  5
C3
100
AcDbEntity
  8
2
370
    50
100
AcDbLine
 10
-95.547663
 20
-129.169725
 30
0.0
 11
-116.547663
 21
-129.169725
 31
0.0
  0
LINE
  5
C4
100
AcDbEntity
  8
2
370
    50
100
AcDbLine
 10
-95.547663
 20
-129.169725
 30
0.0
 11
-74.547663
 21
-129.169725
 31
0.0
  0
LINE
  5
C5
100
AcDbEntity
  8
2
370
    50
100
AcDbLine
 10
-74.547663
 20
-129.169725
 30
0.0
 11
-74.047663
 21
-129.669725
 31
0.0
  0
LINE
  5
C6
100
AcDbEntity
  8
2
370
    50
100
AcDbLine
 10
-74.047663
 20
-129.669725
 30
0.0
 11
-74.047663
 21
-134.169725
 31
0.0
  0
LINE
  5
C7
100
AcDbEntity
  8
2
370
    50
100
AcDbLine
 10
-74.047663
 20
-134.169725
 30
0.0
 11
-74.547663
 21
-134.669725
 31
0.0
  0
LINE
  5
C8
100
AcDbEntity
  8
2
370
    50
100
AcDbLine
 10
-74.547663
 20
-134.669725
 30
0.0
 11
-95.547663
 21
-134.669725
 31
0.0
  0
LINE
  5
C9
100
AcDbEntity
  8
2
370
    50
100
AcDbLine
 10
-76.047663
 20
-134.669725
 30
0.0
 11
-76.047663
 21
-136.669725
 31
0.0
  0
LINE
  5
CA
100
AcDbEntity
  8
2
370
    50
100
AcDbLine
 10
-76.047663
 20
-136.669725
 30
0.0
 11
-95.547663
 21
-136.669725
 31
0.0
  0
LINE
  5
CB
100
AcDbEntity
  8
2
370
    25
100
AcDbLine
 10
-112.547663
 20
31.330275
 30
0.0
 11
-78.547663
 21
31.330275
 31
0.0
  0
LINE
  5
CC
100
AcDbEntity
  8
2
370
    25
100
AcDbLine
 10
-74.047663
 20
-129.669725
 30
0.0
 11
-117.047663
 21
-129.669725
 31
0.0
  0
LINE
  5
CD
100
AcDbEntity
  8
2
370
    25
100
AcDbLine
 10
-117.047663
 20
-134.169725
 30
0.0
 11
-74.047663
 21
-134.169725
 31
0.0
  0
LINE
  5
CE
100
AcDbEntity
  8
2
370
    25
  6
CENTER
100
AcDbLine
 10
-76.688762
 20
211.084867
 30
0.0
 11
-213.928134
 21
211.084867
 31
0.0
  0
LINE
  5
CF
100
AcDbEntity
  8
2
370
    50
100
AcDbLine
 10
-109.524787
 20
220.584867
 30
0.0
 11
-205.391479
 21
220.584867
 31
0.0
  0
LINE
  5
D0
100
AcDbEntity
  8
2
370
    50
100
AcDbLine
 10
-109.524787
 20
201.584867
 30
0.0
 11
-205.391479
 21
201.584867
 31
0.0
  0
ELLIPSE
  5
D1
100
AcDbEntity
  8
2
370
    50
100
AcDbEllipse
 10
-205.391479
 20
211.084867
 30
0.0
 11
0.0
 21
9.5
 31
0.0
210
0.0
220
0.0
230
1.0
 40
0.745895
 41
0.0
 42
3.1415929999999999
  0
ELLIPSE
  5
D2
100
AcDbEntity
  8
2
370
    50
100
AcDbEllipse
 10
-192.535727
 20
211.084867
 30
0.0
 11
0.0
 21
9.5
 31
0.0
210
0.0
220
0.0
230
1.0
 40
0.745895
 41
0.0
 42
3.1415929999999999
  0
ELLIPSE
  5
D3
100
AcDbEntity
  8
2
370
    50
100
AcDbEllipse
 10
-192.278373
 20
211.084867
 30
0.0
 11
0.0
 21
9.5
 31
0.0
210
0.0
220
0.0
230
1.0
 40
0.745895
 41
0.0
 42
3.1415929999999999
  0
ELLIPSE
  5
D4
100
AcDbEntity
  8
2
370
    25
100
AcDbEllipse
 10
-191.957373
 20
211.084867
 30
0.0
 11
0.0
 21
9.5
 31
0.0
210
0.0
220
0.0
230
1.0
 40
0.745895
 41
0.0
 42
3.1415929999999999
  0
LINE
  5
D5
100
AcDbEntity
  8
2
370
    25
  6
CENTER
100
AcDbLine
 10
-95.547663
 20
-193.387749
 30
0.0
 11
-95.547663
 21
160.998046
 31
0.0
  0
ARC
  5
D6
100
AcDbEntity
  8
2
370
    50
100
AcDbCircle
 10
-198.367285
 20
60.20176
 30
0.0
 40
0.5
100
AcDbArc
 50
230.0
 51
320.0
  0
POINT
  5
D7
100
AcDbEntity
  8
2
370
    50
100
AcDbPoint
 10
-205.391568
 20
65.44313
 30
0.0
  0
HATCH
  5
D8
100
AcDbEntity
  8
2
370
    25
100
AcDbHatch
 10
0.0
 20
0.0
 30
0.0
210
0.0
220
0.0
230
1.0
  2
_U
 70
     0
 71
     1
 91
        1
 92
        1
 93
        6
 72
     1
 10
-76.047663
 20
-136.669725
 11
-76.047663
 21
-134.669725
 72
     1
 10
-76.047663
 20
-134.669725
 11
-95.547663
 21
-134.669725
 72
     1
 10
-95.547663
 20
-134.669725
 11
-115.047663
 21
-134.669725
 72
     1
 10
-115.047663
 20
-134.669725
 11
-115.047663
 21
-136.669725
 72
     1
 10
-115.047663
 20
-136.669725
 11
-95.547663
 21
-136.669725
 72
     1
 10
-95.547663
 20
-136.669725
 11
-76.047663
 21
-136.669725
 97
        6
330
0
330
0
330
0
330
0
330
0
330
0
 75
     0
 76
     0
 52
45.0
 41
1.0
 77
     0
 78
     1
 53
45.0
 43
0.0
 44
0.0
 45
-1.4142140000000001
 46
1.4142140000000001
 79
     0
 98
        1
 10
0.0
 20
0.0
  0
HATCH
  5
D9
100
AcDbEntity
  8
2
370
    25
100
AcDbHatch
 10
0.0
 20
0.0
 30
0.0
210
0.0
220
0.0
230
1.0
  2
_U
 70
     0
 71
     1
 91
        1
 92
        1
 93
        5
 72
     1
 10
-78.047663
 20
-149.669725
 11
-78.047663
 21
-151.169725
 72
     1
 10
-78.047663
 20
-151.169725
 11
-95.547663
 21
-151.169725
 72
     1
 10
-95.547663
 20
-151.169725
 11
-113.047663
 21
-151.169725
 72
     1
 10
-113.047663
 20
-151.169725
 11
-113.047663
 21
-149.669725
 72
     1
 10
-113.047663
 20
-149.669725
 11
-78.047663
 21
-149.669725
 97
        5
330
0
330
0
330
0
330
0
330
0
 75
     0
 76
     0
 52
45.0
 41
1.0
 77
     0
 78
     1
 53
45.0
 43
0.0
 44
0.0
 45
-1.4142140000000001
 46
1.4142140000000001
 79
     0
 98
        1
 10
0.0
 20
0.0
  0
LINE
  5
DA
100
AcDbEntity
  8
2
370
    50
100
AcDbLine
 10
-78.547663
 20
30.330275
 30
0.0
 11
-78.547663
 21
-128.669725
 31
0.0
  0
LINE
  5
DB
100
AcDbEntity
  8
2
370
    50
100
AcDbLine
 10
-112.547663
 20
30.330275
 30
0.0
 11
-112.547663
 21
-128.669725
 31
0.0
  0
LINE
  5
DC
100
AcDbEntity
  8
2
370
    50
100
AcDbLine
 10
-112.047663
 20
30.830275
 30
0.0
 11
-112.547663
 21
30.330275
 31
0.0
  0
LINE
  5
DD
100
AcDbEntity
  8
2
370
    50
100
AcDbLine
 10
-79.047663
 20
30.830275
 30
0.0
 11
-78.547663
 21
30.330275
 31
0.0
  0
LINE
  5
DE
100
AcDbEntity
  8
2
370
    25
100
AcDbLine
 10
-112.547663
 20
30.330275
 30
0.0
 11
-78.547663
 21
30.330275
 31
0.0
  0
LINE
  5
DF
100
AcDbEntity
  8
2
370
    50
100
AcDbLine
 10
-112.547663
 20
-128.669725
 30
0.0
 11
-112.047663
 21
-129.169725
 31
0.0
  0
LINE
  5
E0
100
AcDbEntity
  8
2
370
    50
100
AcDbLine
 10
-78.547663
 20
-128.669725
 30
0.0
 11
-79.047663
 21
-129.169725
 31
0.0
  0
LINE
  5
E1
100
AcDbEntity
  8
2
370
    50
100
AcDbLine
 10
-112.547663
 20
-128.669725
 30
0.0
 11
-78.547663
 21
-128.669725
 31
0.0
  0
POINT
  5
E2
100
AcDbEntity
  8
2
370
    50
100
AcDbPoint
 10
-95.547663
 20
211.084867
 30
0.0
  0
LINE
  5
E3
100
AcDbEntity
  8
2
370
    25
  6
DASHED
100
AcDbLine
 10
-99.047663
 20
194.449062
 30
0.0
 11
-99.047663
 21
170.584867
 31
0.0
  0
LINE
  5
E4
100
AcDbEntity
  8
2
370
    25
  6
DASHED
100
AcDbLine
 10
-99.047663
 20
170.584867
 30
0.0
 11
-92.047663
 21
170.584867
 31
0.0
  0
LINE
  5
E5
100
AcDbEntity
  8
2
370
    25
  6
DASHED
100
AcDbLine
 10
-92.047663
 20
194.449062
 30
0.0
 11
-92.047663
 21
170.584867
 31
0.0
  0
LINE
  5
E6
100
AcDbEntity
  8
2
370
    25
  6
DASHED
100
AcDbLine
 10
-92.547663
 20
170.084867
 30
0.0
 11
-98.547663
 21
170.084867
 31
0.0
  0
LINE
  5
E7
100
AcDbEntity
  8
2
370
    25
  6
DASHED
100
AcDbLine
 10
-99.047663
 20
170.584867
 30
0.0
 11
-98.547663
 21
170.084867
 31
0.0
  0
LINE
  5
E8
100
AcDbEntity
  8
2
370
    25
  6
DASHED
100
AcDbLine
 10
-92.047663
 20
170.584867
 30
0.0
 11
-92.547663
 21
170.084867
 31
0.0
  0
LINE
  5
E9
100
AcDbEntity
  8
2
370
    25
  6
CENTER
100
AcDbLine
 10
-95.547663
 20
210.79775
 30
0.0
 11
-95.547663
 21
167.4245
 31
0.0
  0
ARC
  5
EA
100
AcDbEntity
  8
2
370
    25
100
AcDbCircle
 10
-95.547663
 20
211.084867
 30
0.0
 40
21.0
100
AcDbArc
 50
206.896546
 51
153.103454
  0
ARC
  5
EB
100
AcDbEntity
  8
2
370
    50
100
AcDbCircle
 10
-95.547663
 20
211.084867
 30
0.0
 40
21.5
100
AcDbArc
 50
206.222647
 51
153.777353
  0
LINE
  5
EC
100
AcDbEntity
  8
2
370
    25
  6
CENTER
100
AcDbLine
 10
-95.547663
 20
188.584867
 30
0.0
 11
-95.547663
 21
233.584867
 31
0.0
  0
LINE
  5
ED
100
AcDbEntity
  8
2
370
    50
100
AcDbLine
 10
-112.081265
 20
214.584867
 30
0.0
 11
-135.947663
 21
214.584867
 31
0.0
  0
LINE
  5
EE
100
AcDbEntity
  8
2
370
    50
100
AcDbLine
 10
-112.081265
 20
207.584867
 30
0.0
 11
-135.947663
 21
207.584867
 31
0.0
  0
LINE
  5
EF
100
AcDbEntity
  8
2
370
    50
100
AcDbLine
 10
-136.447663
 20
208.084867
 30
0.0
 11
-136.447663
 21
214.084867
 31
0.0
  0
LINE
  5
F0
100
AcDbEntity
  8
2
370
    50
100
AcDbLine
 10
-135.947663
 20
214.584867
 30
0.0
 11
-136.447663
 21
214.084867
 31
0.0
  0
LINE
  5
F1
100
AcDbEntity
  8
2
370
    50
100
AcDbLine
 10
-135.947663
 20
207.584867
 30
0.0
 11
-136.447663
 21
208.084867
 31
0.0
  0
LINE
  5
F2
100
AcDbEntity
  8
2
370
    25
100
AcDbLine
 10
-135.947663
 20
214.584867
 30
0.0
 11
-135.947663
 21
207.584867
 31
0.0
  0
POINT
  5
F3
100
AcDbEntity
  8
2
370
    50
100
AcDbPoint
 10
-95.547663
 20
211.084867
 30
0.0
  0
LINE
  5
F4
100
AcDbEntity
  8
2
370
    25
  6
DASHED
100
AcDbLine
 10
-99.047663
 20
194.449062
 30
0.0
 11
-99.047663
 21
170.584867
 31
0.0
  0
LINE
  5
F5
100
AcDbEntity
  8
2
370
    25
  6
DASHED
100
AcDbLine
 10
-99.047663
 20
170.584867
 30
0.0
 11
-92.047663
 21
170.584867
 31
0.0
  0
LINE
  5
F6
100
AcDbEntity
  8
2
370
    25
  6
DASHED
100
AcDbLine
 10
-92.047663
 20
194.449062
 30
0.0
 11
-92.047663
 21
170.584867
 31
0.0
  0
LINE
  5
F7
100
AcDbEntity
  8
2
370
    25
  6
DASHED
100
AcDbLine
 10
-92.547663
 20
170.084867
 30
0.0
 11
-98.547663
 21
170.084867
 31
0.0
  0
LINE
  5
F8
100
AcDbEntity
  8
2
370
    25
  6
DASHED
100
AcDbLine
 10
-99.047663
 20
170.584867
 30
0.0
 11
-98.547663
 21
170.084867
 31
0.0
  0
LINE
  5
F9
100
AcDbEntity
  8
2
370
    25
  6
DASHED
100
AcDbLine
 10
-92.047663
 20
170.584867
 30
0.0
 11
-92.547663
 21
170.084867
 31
0.0
  0
CIRCLE
  5
FA
100
AcDbEntity
  8
2
370
    50
100
AcDbCircle
 10
-95.547663
 20
211.084867
 30
0.0
 40
16.9
  0
CIRCLE
  5
FB
100
AcDbEntity
  8
2
370
    50
100
AcDbCircle
 10
-95.547663
 20
211.084867
 30
0.0
 40
14.75
  0
CIRCLE
  5
FC
100
AcDbEntity
  8
2
370
    50
100
AcDbCircle
 10
-95.547663
 20
211.084867
 30
0.0
 40
14.45
  0
LINE
  5
FD
100
AcDbEntity
  8
2
370
    50
100
AcDbLine
 10
-80.850724
 20
214.084867
 30
0.0
 11
-78.916066
 21
214.084867
 31
0.0
  0
LINE
  5
FE
100
AcDbEntity
  8
2
370
    50
100
AcDbLine
 10
-80.850724
 20
208.084867
 30
0.0
 11
-78.916066
 21
208.084867
 31
0.0
  0
ARC
  5
FF
100
AcDbEntity
  8
2
370
    50
100
AcDbCircle
 10
-95.547663
 20
211.084867
 30
0.0
 40
16.4
100
AcDbArc
 50
10.540286
 51
349.459714
  0
ARC
  5
100
100
AcDbEntity
  8
2
370
    50
100
AcDbCircle
 10
-95.547663
 20
211.084867
 30
0.0
 40
15.3
100
AcDbArc
 50
11.307729
 51
348.692271
  0
ARC
  5
101
100
AcDbEntity
  8
2
370
    50
100
AcDbCircle
 10
-95.547663
 20
211.084867
 30
0.0
 40
15.0
100
AcDbArc
 50
11.536959
 51
348.463041
  0
LINE
  5
102
100
AcDbEntity
  8
2
370
    50
100
AcDbLine
 10
-78.647663
 20
123.930275
 30
0.0
 11
-79.147663
 21
123.430275
 31
0.0
  0
LINE
  5
103
100
AcDbEntity
  8
2
370
    50
100
AcDbLine
 10
-78.647663
 20
123.930275
 30
0.0
 11
-78.647663
 21
155.930275
 31
0.0
  0
LINE
  5
104
100
AcDbEntity
  8
2
370
    50
100
AcDbLine
 10
-111.947663
 20
123.430275
 30
0.0
 11
-79.147663
 21
123.430275
 31
0.0
  0
LINE
  5
105
100
AcDbEntity
  8
2
370
    50
100
AcDbLine
 10
-112.447663
 20
123.930275
 30
0.0
 11
-111.947663
 21
123.430275
 31
0.0
  0
LINE
  5
106
100
AcDbEntity
  8
2
370
    50
100
AcDbLine
 10
-79.147663
 20
156.430275
 30
0.0
 11
-111.947663
 21
156.430275
 31
0.0
  0
LINE
  5
107
100
AcDbEntity
  8
2
370
    50
100
AcDbLine
 10
-78.647663
 20
155.930275
 30
0.0
 11
-79.147663
 21
156.430275
 31
0.0
  0
LINE
  5
108
100
AcDbEntity
  8
2
370
    50
100
AcDbLine
 10
-111.947663
 20
156.430275
 30
0.0
 11
-112.447663
 21
155.930275
 31
0.0
  0
LINE
  5
109
100
AcDbEntity
  8
2
370
    50
100
AcDbLine
 10
-112.447663
 20
123.930275
 30
0.0
 11
-112.447663
 21
139.230275
 31
0.0
  0
LINE
  5
10A
100
AcDbEntity
  8
2
370
    50
100
AcDbLine
 10
-112.447663
 20
146.630275
 30
0.0
 11
-112.447663
 21
155.930275
 31
0.0
  0
LINE
  5
10B
100
AcDbEntity
  8
2
370
    50
100
AcDbLine
 10
-135.947663
 20
146.430275
 30
0.0
 11
-112.404058
 21
146.430275
 31
0.0
  0
LINE
  5
10C
100
AcDbEntity
  8
2
370
    50
100
AcDbLine
 10
-135.947663
 20
139.430275
 30
0.0
 11
-112.404058
 21
139.430275
 31
0.0
  0
LINE
  5
10D
100
AcDbEntity
  8
2
370
    50
100
AcDbLine
 10
-136.447663
 20
145.930275
 30
0.0
 11
-136.447663
 21
139.930275
 31
0.0
  0
LINE
  5
10E
100
AcDbEntity
  8
2
370
    50
100
AcDbLine
 10
-135.947663
 20
146.430275
 30
0.0
 11
-136.447663
 21
145.930275
 31
0.0
  0
LINE
  5
10F
100
AcDbEntity
  8
2
370
    50
100
AcDbLine
 10
-135.947663
 20
139.430275
 30
0.0
 11
-136.447663
 21
139.930275
 31
0.0
  0
LINE
  5
110
100
AcDbEntity
  8
2
370
    50
100
AcDbLine
 10
-78.647663
 20
155.930275
 30
0.0
 11
-112.447663
 21
155.930275
 31
0.0
  0
LINE
  5
111
100
AcDbEntity
  8
2
370
    50
100
AcDbLine
 10
-78.647663
 20
123.930275
 30
0.0
 11
-112.447663
 21
123.930275
 31
0.0
  0
ARC
  5
112
100
AcDbEntity
  8
2
370
    50
100
AcDbCircle
 10
-128.93766
 20
142.930275
 30
0.0
 40
16.9
100
AcDbArc
 50
347.353517
 51
12.646483
  0
LINE
  5
113
100
AcDbEntity
  8
2
370
    50
100
AcDbLine
 10
-135.947663
 20
146.430275
 30
0.0
 11
-135.947663
 21
139.430275
 31
0.0
  0
LINE
  5
114
100
AcDbEntity
  8
2
370
    50
100
AcDbLine
 10
110.598944
 20
-151.169725
 30
0.0
 11
110.598944
 21
-149.669725
 31
0.0
  0
LINE
  5
115
100
AcDbEntity
  8
2
370
    50
100
AcDbLine
 10
128.098944
 20
-151.169725
 30
0.0
 11
110.598944
 21
-151.169725
 31
0.0
  0
LINE
  5
116
100
AcDbEntity
  8
2
370
    25
100
AcDbLine
 10
118.848944
 20
-179.669725
 30
0.0
 11
118.848944
 21
-159.869725
 31
0.0
  0
LINE
  5
117
100
AcDbEntity
  8
2
370
    25
100
AcDbLine
 10
118.848944
 20
-149.669725
 30
0.0
 11
118.848944
 21
-136.669333
 31
0.0
  0
LINE
  5
118
100
AcDbEntity
  8
2
370
    50
100
AcDbLine
 10
117.848944
 20
-149.669725
 30
0.0
 11
117.848944
 21
-136.669333
 31
0.0
  0
LINE
  5
119
100
AcDbEntity
  8
2
370
    50
100
AcDbLine
 10
116.098944
 20
-159.869725
 30
0.0
 11
128.098944
 21
-159.869725
 31
0.0
  0
LINE
  5
11A
100
AcDbEntity
  8
2
370
    50
100
AcDbLine
 10
114.348944
 20
-158.859362
 30
0.0
 11
114.348944
 21
-153.369725
 31
0.0
  0
LINE
  5
11B
100
AcDbEntity
  8
2
370
    50
100
AcDbLine
 10
116.098944
 20
-159.869725
 30
0.0
 11
114.348944
 21
-158.859362
 31
0.0
  0
LINE
  5
11C
100
AcDbEntity
  8
2
370
    50
100
AcDbLine
 10
108.098944
 20
-152.869725
 30
0.0
 11
108.098944
 21
-151.669725
 31
0.0
  0
LINE
  5
11D
100
AcDbEntity
  8
2
370
    50
100
AcDbLine
 10
128.098944
 20
-153.369725
 30
0.0
 11
113.778393
 21
-153.369725
 31
0.0
  0
LINE
  5
11E
100
AcDbEntity
  8
2
370
    50
100
AcDbLine
 10
108.098944
 20
-151.669725
 30
0.0
 11
128.098944
 21
-151.669725
 31
0.0
  0
LINE
  5
11F
100
AcDbEntity
  8
2
370
    50
100
AcDbLine
 10
108.098944
 20
-152.869725
 30
0.0
 11
128.098944
 21
-152.869725
 31
0.0
  0
ARC
  5
120
100
AcDbEntity
  8
2
370
    50
100
AcDbCircle
 10
113.778393
 20
-148.369725
 30
0.0
 40
5.0
100
AcDbArc
 50
246.443536
 51
270.0
  0
ARC
  5
121
100
AcDbEntity
  8
2
370
    50
100
AcDbCircle
 10
113.778393
 20
-156.169725
 30
0.0
 40
5.0
100
AcDbArc
 50
90.0
 51
113.556464
  0
ARC
  5
122
100
AcDbEntity
  8
2
370
    50
100
AcDbCircle
 10
111.380477
 20
-153.869725
 30
0.0
 40
1.0
100
AcDbArc
 50
66.443536
 51
90.0
  0
ARC
  5
123
100
AcDbEntity
  8
2
370
    50
100
AcDbCircle
 10
111.380477
 20
-150.669725
 30
0.0
 40
1.0
100
AcDbArc
 50
270.0
 51
293.556464
  0
LINE
  5
124
100
AcDbEntity
  8
2
370
    50
100
AcDbLine
 10
121.098944
 20
-158.859362
 30
0.0
 11
121.098944
 21
-153.369725
 31
0.0
  0
ARC
  5
125
100
AcDbEntity
  8
2
370
    50
100
AcDbCircle
 10
128.098944
 20
-135.115832
 30
0.0
 40
24.753893
100
AcDbArc
 50
253.573579
 51
270.0
  0
ARC
  5
126
100
AcDbEntity
  8
2
370
    50
100
AcDbCircle
 10
117.723944
 20
-153.727646
 30
0.0
 40
6.142079
100
AcDbArc
 50
236.668091
 51
303.331909
  0
ARC
  5
127
100
AcDbEntity
  8
2
370
    50
100
AcDbCircle
 10
128.098944
 20
-137.119725
 30
0.0
 40
16.25
100
AcDbArc
 50
255.749967
 51
270.0
  0
ARC
  5
128
100
AcDbEntity
  8
2
370
    50
100
AcDbCircle
 10
119.848944
 20
-137.119725
 30
0.0
 40
16.25
100
AcDbArc
 50
255.749967
 51
277.069714
  0
ARC
  5
129
100
AcDbEntity
  8
2
370
    50
100
AcDbCircle
 10
123.848944
 20
-137.119725
 30
0.0
 40
16.25
100
AcDbArc
 50
255.749967
 51
277.514045
  0
ARC
  5
12A
100
AcDbEntity
  8
2
370
    50
100
AcDbCircle
 10
115.848944
 20
-137.119725
 30
0.0
 40
16.25
100
AcDbArc
 50
270.0
 51
277.069714
  0
ARC
  5
12B
100
AcDbEntity
  8
2
370
    50
100
AcDbCircle
 10
128.098944
 20
-167.419725
 30
0.0
 40
16.25
100
AcDbArc
 50
90.0
 51
104.250033
  0
ARC
  5
12C
100
AcDbEntity
  8
2
370
    50
100
AcDbCircle
 10
123.848944
 20
-167.419725
 30
0.0
 40
16.25
100
AcDbArc
 50
82.485955
 51
104.250033
  0
ARC
  5
12D
100
AcDbEntity
  8
2
370
    50
100
AcDbCircle
 10
119.848944
 20
-167.419725
 30
0.0
 40
16.25
100
AcDbArc
 50
82.930286
 51
104.250033
  0
ARC
  5
12E
100
AcDbEntity
  8
2
370
    50
100
AcDbCircle
 10
115.848944
 20
-167.419725
 30
0.0
 40
16.25
100
AcDbArc
 50
82.930286
 51
90.0
  0
LINE
  5
12F
100
AcDbEntity
  8
2
370
    50
100
AcDbLine
 10
116.598944
 20
-191.669725
 30
0.0
 11
128.098944
 21
-191.669725
 31
0.0
  0
ARC
  5
130
100
AcDbEntity
  8
2
370
    50
100
AcDbCircle
 10
130.373944
 20
-185.669725
 30
0.0
 40
15.025
100
AcDbArc
 50
156.463422
 51
203.536578
  0
LINE
  5
131
100
AcDbEntity
  8
2
370
    50
100
AcDbLine
 10
116.598944
 20
-179.669725
 30
0.0
 11
128.098944
 21
-179.669725
 31
0.0
  0
ELLIPSE
  5
132
100
AcDbEntity
  8
2
370
    50
100
AcDbEllipse
 10
118.139652
 20
-185.669725
 30
0.0
 11
0.0
 21
6.0
 31
0.0
210
0.0
220
0.0
230
1.0
 40
0.458833
 41
0.0
 42
6.2831849999999996
  0
ELLIPSE
  5
133
100
AcDbEntity
  8
2
370
    50
100
AcDbEllipse
 10
128.098944
 20
-185.669725
 30
0.0
 11
0.0
 21
6.0
 31
0.0
210
0.0
220
0.0
230
1.0
 40
0.926667
 41
0.0
 42
6.2831849999999996
  0
LINE
  5
134
100
AcDbEntity
  8
2
370
    50
100
AcDbLine
 10
117.848944
 20
-179.669725
 30
0.0
 11
117.848944
 21
-159.869725
 31
0.0
  0
LINE
  5
135
100
AcDbEntity
  8
2
370
    50
100
AcDbLine
 10
145.598944
 20
-151.169725
 30
0.0
 11
145.598944
 21
-149.669725
 31
0.0
  0
LINE
  5
136
100
AcDbEntity
  8
2
370
    50
100
AcDbLine
 10
128.098944
 20
-151.169725
 30
0.0
 11
145.598944
 21
-151.169725
 31
0.0
  0
LINE
  5
137
100
AcDbEntity
  8
2
370
    25
100
AcDbLine
 10
137.348944
 20
-179.669725
 30
0.0
 11
137.348944
 21
-159.869725
 31
0.0
  0
LINE
  5
138
100
AcDbEntity
  8
2
370
    25
100
AcDbLine
 10
137.348944
 20
-149.669725
 30
0.0
 11
137.348944
 21
-136.669333
 31
0.0
  0
LINE
  5
139
100
AcDbEntity
  8
2
370
    50
100
AcDbLine
 10
138.348944
 20
-149.669725
 30
0.0
 11
138.348944
 21
-136.669333
 31
0.0
  0
LINE
  5
13A
100
AcDbEntity
  8
2
370
    50
100
AcDbLine
 10
140.098944
 20
-159.869725
 30
0.0
 11
128.098944
 21
-159.869725
 31
0.0
  0
LINE
  5
13B
100
AcDbEntity
  8
2
370
    50
100
AcDbLine
 10
141.848944
 20
-158.859362
 30
0.0
 11
141.848944
 21
-153.369725
 31
0.0
  0
LINE
  5
13C
100
AcDbEntity
  8
2
370
    50
100
AcDbLine
 10
140.098944
 20
-159.869725
 30
0.0
 11
141.848944
 21
-158.859362
 31
0.0
  0
LINE
  5
13D
100
AcDbEntity
  8
2
370
    50
100
AcDbLine
 10
148.098944
 20
-152.869725
 30
0.0
 11
148.098944
 21
-151.669725
 31
0.0
  0
LINE
  5
13E
100
AcDbEntity
  8
2
370
    50
100
AcDbLine
 10
128.098944
 20
-153.369725
 30
0.0
 11
142.419494
 21
-153.369725
 31
0.0
  0
LINE
  5
13F
100
AcDbEntity
  8
2
370
    50
100
AcDbLine
 10
148.098944
 20
-151.669725
 30
0.0
 11
128.098944
 21
-151.669725
 31
0.0
  0
LINE
  5
140
100
AcDbEntity
  8
2
370
    50
100
AcDbLine
 10
148.098944
 20
-152.869725
 30
0.0
 11
128.098944
 21
-152.869725
 31
0.0
  0
ARC
  5
141
100
AcDbEntity
  8
2
370
    50
100
AcDbCircle
 10
142.419494
 20
-148.369725
 30
0.0
 40
5.0
100
AcDbArc
 50
270.0
 51
293.556464
  0
ARC
  5
142
100
AcDbEntity
  8
2
370
    50
100
AcDbCircle
 10
142.419494
 20
-156.169725
 30
0.0
 40
5.0
100
AcDbArc
 50
66.443536
 51
90.0
  0
ARC
  5
143
100
AcDbEntity
  8
2
370
    50
100
AcDbCircle
 10
144.81741
 20
-153.869725
 30
0.0
 40
1.0
100
AcDbArc
 50
90.0
 51
113.556464
  0
ARC
  5
144
100
AcDbEntity
  8
2
370
    50
100
AcDbCircle
 10
144.81741
 20
-150.669725
 30
0.0
 40
1.0
100
AcDbArc
 50
246.443536
 51
270.0
  0
LINE
  5
145
100
AcDbEntity
  8
2
370
    50
100
AcDbLine
 10
135.098944
 20
-158.859362
 30
0.0
 11
135.098944
 21
-153.369725
 31
0.0
  0
ARC
  5
146
100
AcDbEntity
  8
2
370
    50
100
AcDbCircle
 10
128.098944
 20
-135.115832
 30
0.0
 40
24.753893
100
AcDbArc
 50
270.0
 51
286.426421
  0
ARC
  5
147
100
AcDbEntity
  8
2
370
    50
100
AcDbCircle
 10
138.473944
 20
-153.727646
 30
0.0
 40
6.142079
100
AcDbArc
 50
236.668091
 51
303.331909
  0
ARC
  5
148
100
AcDbEntity
  8
2
370
    50
100
AcDbCircle
 10
128.098944
 20
-137.119725
 30
0.0
 40
16.25
100
AcDbArc
 50
270.0
 51
284.250033
  0
ARC
  5
149
100
AcDbEntity
  8
2
370
    50
100
AcDbCircle
 10
136.348944
 20
-137.119725
 30
0.0
 40
16.25
100
AcDbArc
 50
262.930286
 51
284.250033
  0
ARC
  5
14A
100
AcDbEntity
  8
2
370
    50
100
AcDbCircle
 10
132.348944
 20
-137.119725
 30
0.0
 40
16.25
100
AcDbArc
 50
262.485955
 51
284.250033
  0
ARC
  5
14B
100
AcDbEntity
  8
2
370
    50
100
AcDbCircle
 10
140.348944
 20
-137.119725
 30
0.0
 40
16.25
100
AcDbArc
 50
262.930286
 51
270.0
  0
ARC
  5
14C
100
AcDbEntity
  8
2
370
    50
100
AcDbCircle
 10
128.098944
 20
-167.419725
 30
0.0
 40
16.25
100
AcDbArc
 50
75.749967
 51
90.0
  0
ARC
  5
14D
100
AcDbEntity
  8
2
370
    50
100
AcDbCircle
 10
132.348944
 20
-167.419725
 30
0.0
 40
16.25
100
AcDbArc
 50
75.749967
 51
97.514045
  0
ARC
  5
14E
100
AcDbEntity
  8
2
370
    50
100
AcDbCircle
 10
136.348944
 20
-167.419725
 30
0.0
 40
16.25
100
AcDbArc
 50
75.749967
 51
97.069714
  0
ARC
  5
14F
100
AcDbEntity
  8
2
370
    50
100
AcDbCircle
 10
140.348944
 20
-167.419725
 30
0.0
 40
16.25
100
AcDbArc
 50
90.0
 51
97.069714
  0
LINE
  5
150
100
AcDbEntity
  8
2
370
    50
100
AcDbLine
 10
139.598944
 20
-191.669725
 30
0.0
 11
128.098944
 21
-191.669725
 31
0.0
  0
ARC
  5
151
100
AcDbEntity
  8
2
370
    50
100
AcDbCircle
 10
125.823944
 20
-185.669725
 30
0.0
 40
15.025
100
AcDbArc
 50
336.463422
 51
23.536578
  0
LINE
  5
152
100
AcDbEntity
  8
2
370
    50
100
AcDbLine
 10
139.598944
 20
-179.669725
 30
0.0
 11
128.098944
 21
-179.669725
 31
0.0
  0
ELLIPSE
  5
153
100
AcDbEntity
  8
2
370
    50
100
AcDbEllipse
 10
138.058236
 20
-185.669725
 30
0.0
 11
0.0
 21
6.0
 31
0.0
210
0.0
220
0.0
230
1.0
 40
0.458833
 41
0.0
 42
6.2831849999999996
  0
LINE
  5
154
100
AcDbEntity
  8
2
370
    50
100
AcDbLine
 10
138.348944
 20
-179.669725
 30
0.0
 11
138.348944
 21
-159.869725
 31
0.0
  0
LINE
  5
155
100
AcDbEntity
  8
2
370
    50
100
AcDbLine
 10
145.598944
 20
-149.669725
 30
0.0
 11
110.598944
 21
-149.669725
 31
0.0
  0
LINE
  5
156
100
AcDbEntity
  8
2
370
    50
100
AcDbLine
 10
111.598944
 20
30.830275
 30
0.0
 11
144.598944
 21
30.830275
 31
0.0
  0
LINE
  5
157
100
AcDbEntity
  8
2
370
    50
100
AcDbLine
 10
111.098944
 20
121.830275
 30
0.0
 11
111.098944
 21
31.330275
 31
0.0
  0
LINE
  5
158
100
AcDbEntity
  8
2
370
    50
100
AcDbLine
 10
128.098944
 20
122.330275
 30
0.0
 11
144.598944
 21
122.330275
 31
0.0
  0
LINE
  5
159
100
AcDbEntity
  8
2
370
    50
100
AcDbLine
 10
144.598944
 20
122.330275
 30
0.0
 11
145.098944
 21
121.830275
 31
0.0
  0
LINE
  5
15A
100
AcDbEntity
  8
2
370
    50
100
AcDbLine
 10
142.098944
 20
122.330275
 30
0.0
 11
142.098944
 21
123.430275
 31
0.0
  0
LINE
  5
15B
100
AcDbEntity
  8
2
370
    50
100
AcDbLine
 10
145.098944
 20
31.330275
 30
0.0
 11
145.098944
 21
90.330275
 31
0.0
  0
LINE
  5
15C
100
AcDbEntity
  8
2
370
    50
100
AcDbLine
 10
145.098944
 20
109.330275
 30
0.0
 11
145.098944
 21
121.830275
 31
0.0
  0
LINE
  5
15D
100
AcDbEntity
  8
2
370
    50
100
AcDbLine
 10
111.098944
 20
31.330275
 30
0.0
 11
111.598944
 21
30.830275
 31
0.0
  0
LINE
  5
15E
100
AcDbEntity
  8
2
370
    50
100
AcDbLine
 10
145.098944
 20
31.330275
 30
0.0
 11
144.598944
 21
30.830275
 31
0.0
  0
LINE
  5
15F
100
AcDbEntity
  8
2
370
    50
100
AcDbLine
 10
114.098944
 20
122.330275
 30
0.0
 11
114.098944
 21
123.430275
 31
0.0
  0
LINE
  5
160
100
AcDbEntity
  8
2
370
    50
100
AcDbLine
 10
128.098944
 20
122.330275
 30
0.0
 11
111.598944
 21
122.330275
 31
0.0
  0
LINE
  5
161
100
AcDbEntity
  8
2
370
    50
100
AcDbLine
 10
111.598944
 20
122.330275
 30
0.0
 11
111.098944
 21
121.830275
 31
0.0
  0
LINE
  5
162
100
AcDbEntity
  8
2
370
    50
100
AcDbLine
 10
145.098944
 20
109.330275
 30
0.0
 11
195.099378
 21
109.330275
 31
0.0
  0
LINE
  5
163
100
AcDbEntity
  8
2
370
    50
100
AcDbLine
 10
145.098944
 20
90.330275
 30
0.0
 11
195.099378
 21
90.330275
 31
0.0
  0
LINE
  5
164
100
AcDbEntity
  8
2
370
    50
100
AcDbLine
 10
225.358134
 20
95.220385
 30
0.0
 11
231.78601
 21
87.559941
 31
0.0
  0
LINE
  5
165
100
AcDbEntity
  8
2
370
    50
100
AcDbLine
 10
210.80329
 20
83.007421
 30
0.0
 11
217.231166
 21
75.346976
 31
0.0
  0
LINE
  5
166
100
AcDbEntity
  8
2
370
    25
  6
CENTER
100
AcDbLine
 10
195.099378
 20
99.830275
 30
0.0
 11
128.098944
 21
99.830275
 31
0.0
  0
ARC
  5
167
100
AcDbEntity
  8
2
370
    25
  6
CENTER
100
AcDbCircle
 10
195.099378
 20
69.830275
 30
0.0
 40
30.0
100
AcDbArc
 50
40.0
 51
90.0
  0
ARC
  5
168
100
AcDbEntity
  8
2
370
    50
100
AcDbCircle
 10
195.099378
 20
69.830275
 30
0.0
 40
39.5
100
AcDbArc
 50
40.0
 51
90.0
  0
ARC
  5
169
100
AcDbEntity
  8
2
370
    50
100
AcDbCircle
 10
195.099378
 20
69.830275
 30
0.0
 40
20.5
100
AcDbArc
 50
40.0
 51
90.0
  0
LINE
  5
16A
100
AcDbEntity
  8
2
370
    50
100
AcDbLine
 10
217.231166
 20
75.346976
 30
0.0
 11
224.508588
 21
81.453459
 31
0.0
  0
LINE
  5
16B
100
AcDbEntity
  8
2
370
    50
100
AcDbLine
 10
224.508588
 20
81.453459
 30
0.0
 11
231.78601
 21
87.559941
 31
0.0
  0
LINE
  5
16C
100
AcDbEntity
  8
2
370
    50
100
AcDbLine
 10
231.23996
 20
59.818738
 30
0.0
 11
244.645738
 21
71.067521
 31
0.0
  0
LINE
  5
16D
100
AcDbEntity
  8
2
370
    50
100
AcDbLine
 10
218.001186
 20
74.818233
 30
0.0
 11
230.535544
 21
59.880367
 31
0.0
  0
LINE
  5
16E
100
AcDbEntity
  8
2
370
    50
100
AcDbLine
 10
232.173008
 20
86.709804
 30
0.0
 11
244.707366
 21
71.771937
 31
0.0
  0
ARC
  5
16F
100
AcDbEntity
  8
2
370
    50
100
AcDbCircle
 10
244.324344
 20
71.450544
 30
0.0
 40
0.5
100
AcDbArc
 50
310.0
 51
40.0
  0
LINE
  5
170
100
AcDbEntity
  8
2
370
    50
100
AcDbLine
 10
218.001186
 20
74.818233
 30
0.0
 11
225.087097
 21
80.764019
 31
0.0
  0
LINE
  5
171
100
AcDbEntity
  8
2
370
    50
100
AcDbLine
 10
225.087097
 20
80.764019
 30
0.0
 11
232.173008
 21
86.709804
 31
0.0
  0
LINE
  5
172
100
AcDbEntity
  8
2
370
    50
100
AcDbLine
 10
218.70518
 20
75.408955
 30
0.0
 11
218.448065
 21
75.715373
 31
0.0
  0
LINE
  5
173
100
AcDbEntity
  8
2
370
    50
100
AcDbLine
 10
217.552559
 20
74.963954
 30
0.0
 11
224.829982
 21
81.070436
 31
0.0
  0
LINE
  5
174
100
AcDbEntity
  8
2
370
    50
100
AcDbLine
 10
231.211898
 20
86.4255
 30
0.0
 11
231.469013
 21
86.119082
 31
0.0
  0
LINE
  5
175
100
AcDbEntity
  8
2
370
    50
100
AcDbLine
 10
224.829982
 20
81.070436
 30
0.0
 11
232.107404
 21
87.176919
 31
0.0
  0
LINE
  5
176
100
AcDbEntity
  8
2
370
    50
100
AcDbLine
 10
231.78601
 20
87.559941
 30
0.0
 11
232.107404
 21
87.176919
 31
0.0
  0
LINE
  5
177
100
AcDbEntity
  8
2
370
    50
100
AcDbLine
 10
217.231166
 20
75.346976
 30
0.0
 11
217.552559
 21
74.963954
 31
0.0
  0
LINE
  5
178
100
AcDbEntity
  8
2
370
    50
100
AcDbLine
 10
217.231166
 20
75.346976
 30
0.0
 11
217.805699
 21
75.829067
 31
0.0
  0
LINE
  5
179
100
AcDbEntity
  8
2
370
    50
100
AcDbLine
 10
231.78601
 20
87.559941
 30
0.0
 11
231.211477
 21
87.07785
 31
0.0
  0
LINE
  5
17A
100
AcDbEntity
  8
2
370
    25
  6
CENTER
100
AcDbLine
 10
218.080712
 20
89.113903
 30
0.0
 11
239.44591
 21
63.651852
 31
0.0
  0
ARC
  5
17B
100
AcDbEntity
  8
2
370
    25
100
AcDbCircle
 10
151.623944
 20
99.830275
 30
0.0
 40
11.525
100
AcDbArc
 50
124.482919
 51
235.517081
  0
LINE
  5
17C
100
AcDbEntity
  8
2
370
    25
100
AcDbLine
 10
145.098944
 20
121.830275
 30
0.0
 11
111.098944
 21
121.830275
 31
0.0
  0
LINE
  5
17D
100
AcDbEntity
  8
2
370
    50
100
AcDbLine
 10
147.598944
 20
-134.669725
 30
0.0
 11
147.598944
 21
-136.669725
 31
0.0
  0
LINE
  5
17E
100
AcDbEntity
  8
2
370
    50
100
AcDbLine
 10
147.598944
 20
-136.669725
 30
0.0
 11
128.098944
 21
-136.669725
 31
0.0
  0
LINE
  5
17F
100
AcDbEntity
  8
2
370
    50
100
AcDbLine
 10
149.098944
 20
-134.669725
 30
0.0
 11
128.098944
 21
-134.669725
 31
0.0
  0
LINE
  5
180
100
AcDbEntity
  8
2
370
    50
100
AcDbLine
 10
149.598944
 20
-134.169725
 30
0.0
 11
149.098944
 21
-134.669725
 31
0.0
  0
LINE
  5
181
100
AcDbEntity
  8
2
370
    50
100
AcDbLine
 10
149.598944
 20
-129.669725
 30
0.0
 11
149.598944
 21
-134.169725
 31
0.0
  0
LINE
  5
182
100
AcDbEntity
  8
2
370
    50
100
AcDbLine
 10
149.098944
 20
-129.169725
 30
0.0
 11
149.598944
 21
-129.669725
 31
0.0
  0
LINE
  5
183
100
AcDbEntity
  8
2
370
    50
100
AcDbLine
 10
128.098944
 20
-129.169725
 30
0.0
 11
149.098944
 21
-129.169725
 31
0.0
  0
LINE
  5
184
100
AcDbEntity
  8
2
370
    50
100
AcDbLine
 10
128.098944
 20
-129.169725
 30
0.0
 11
107.098944
 21
-129.169725
 31
0.0
  0
LINE
  5
185
100
AcDbEntity
  8
2
370
    50
100
AcDbLine
 10
107.098944
 20
-129.169725
 30
0.0
 11
106.598944
 21
-129.669725
 31
0.0
  0
LINE
  5
186
100
AcDbEntity
  8
2
370
    50
100
AcDbLine
 10
106.598944
 20
-129.669725
 30
0.0
 11
106.598944
 21
-134.169725
 31
0.0
  0
LINE
  5
187
100
AcDbEntity
  8
2
370
    50
100
AcDbLine
 10
106.598944
 20
-134.169725
 30
0.0
 11
107.098944
 21
-134.669725
 31
0.0
  0
LINE
  5
188
100
AcDbEntity
  8
2
370
    50
100
AcDbLine
 10
107.098944
 20
-134.669725
 30
0.0
 11
128.098944
 21
-134.669725
 31
0.0
  0
LINE
  5
189
100
AcDbEntity
  8
2
370
    50
100
AcDbLine
 10
108.598944
 20
-134.669725
 30
0.0
 11
108.598944
 21
-136.669725
 31
0.0
  0
LINE
  5
18A
100
AcDbEntity
  8
2
370
    50
100
AcDbLine
 10
108.598944
 20
-136.669725
 30
0.0
 11
128.098944
 21
-136.669725
 31
0.0
  0
LINE
  5
18B
100
AcDbEntity
  8
2
370
    25
100
AcDbLine
 10
145.098944
 20
31.330275
 30
0.0
 11
111.098944
 21
31.330275
 31
0.0
  0
LINE
  5
18C
100
AcDbEntity
  8
2
370
    25
100
AcDbLine
 10
106.598944
 20
-129.669725
 30
0.0
 11
149.598944
 21
-129.669725
 31
0.0
  0
LINE
  5
18D
100
AcDbEntity
  8
2
370
    25
100
AcDbLine
 10
149.598944
 20
-134.169725
 30
0.0
 11
106.598944
 21
-134.169725
 31
0.0
  0
LINE
  5
18E
100
AcDbEntity
  8
2
370
    25
  6
CENTER
100
AcDbLine
 10
128.098944
 20
-193.387749
 30
0.0
 11
128.098944
 21
160.998046
 31
0.0
  0
ARC
  5
18F
100
AcDbEntity
  8
2
370
    50
100
AcDbCircle
 10
230.918566
 20
60.20176
 30
0.0
 40
0.5
100
AcDbArc
 50
220.0
 51
310.0
  0
POINT
  5
190
100
AcDbEntity
  8
2
370
    50
100
AcDbPoint
 10
237.942849
 20
65.44313
 30
0.0
  0
HATCH
  5
191
100
AcDbEntity
  8
2
370
    25
100
AcDbHatch
 10
0.0
 20
0.0
 30
0.0
210
0.0
220
0.0
230
1.0
  2
_U
 70
     0
 71
     1
 91
        1
 92
        1
 93
        6
 72
     1
 10
108.598944
 20
-136.669725
 11
108.598944
 21
-134.669725
 72
     1
 10
108.598944
 20
-134.669725
 11
128.09894399999999
 21
-134.669725
 72
     1
 10
128.09894399999999
 20
-134.669725
 11
147.59894399999999
 21
-134.669725
 72
     1
 10
147.59894399999999
 20
-134.669725
 11
147.59894399999999
 21
-136.669725
 72
     1
 10
147.59894399999999
 20
-136.669725
 11
128.09894399999999
 21
-136.669725
 72
     1
 10
128.09894399999999
 20
-136.669725
 11
108.598944
 21
-136.669725
 97
        6
330
0
330
0
330
0
330
0
330
0
330
0
 75
     0
 76
     0
 52
45.0
 41
1.0
 77
     0
 78
     1
 53
45.0
 43
0.0
 44
0.0
 45
-1.4142140000000001
 46
1.4142140000000001
 79
     0
 98
        1
 10
0.0
 20
0.0
  0
HATCH
  5
192
100
AcDbEntity
  8
2
370
    25
100
AcDbHatch
 10
0.0
 20
0.0
 30
0.0
210
0.0
220
0.0
230
1.0
  2
_U
 70
     0
 71
     1
 91
        1
 92
        1
 93
        5
 72
     1
 10
110.598944
 20
-149.669725
 11
110.598944
 21
-151.169725
 72
     1
 10
110.598944
 20
-151.169725
 11
128.09894399999999
 21
-151.169725
 72
     1
 10
128.09894399999999
 20
-151.169725
 11
145.59894399999999
 21
-151.169725
 72
     1
 10
145.59894399999999
 20
-151.169725
 11
145.59894399999999
 21
-149.669725
 72
     1
 10
145.59894399999999
 20
-149.669725
 11
110.598944
 21
-149.669725
 97
        5
330
0
330
0
330
0
330
0
330
0
 75
     0
 76
     0
 52
45.0
 41
1.0
 77
     0
 78
     1
 53
45.0
 43
0.0
 44
0.0
 45
-1.4142140000000001
 46
1.4142140000000001
 79
     0
 98
        1
 10
0.0
 20
0.0
  0
LINE
  5
193
100
AcDbEntity
  8
2
370
    50
100
AcDbLine
 10
111.098944
 20
30.330275
 30
0.0
 11
111.098944
 21
-128.669725
 31
0.0
  0
LINE
  5
194
100
AcDbEntity
  8
2
370
    50
100
AcDbLine
 10
145.098944
 20
30.330275
 30
0.0
 11
145.098944
 21
-128.669725
 31
0.0
  0
LINE
  5
195
100
AcDbEntity
  8
2
370
    50
100
AcDbLine
 10
144.598944
 20
30.830275
 30
0.0
 11
145.098944
 21
30.330275
 31
0.0
  0
LINE
  5
196
100
AcDbEntity
  8
2
370
    50
100
AcDbLine
 10
111.598944
 20
30.830275
 30
0.0
 11
111.098944
 21
30.330275
 31
0.0
  0
LINE
  5
197
100
AcDbEntity
  8
2
370
    25
100
AcDbLine
 10
145.098944
 20
30.330275
 30
0.0
 11
111.098944
 21
30.330275
 31
0.0
  0
LINE
  5
198
100
AcDbEntity
  8
2
370
    50
100
AcDbLine
 10
145.098944
 20
-128.669725
 30
0.0
 11
144.598944
 21
-129.169725
 31
0.0
  0
LINE
  5
199
100
AcDbEntity
  8
2
370
    50
100
AcDbLine
 10
111.098944
 20
-128.669725
 30
0.0
 11
111.598944
 21
-129.169725
 31
0.0
  0
LINE
  5
19A
100
AcDbEntity
  8
2
370
    50
100
AcDbLine
 10
145.098944
 20
-128.669725
 30
0.0
 11
111.098944
 21
-128.669725
 31
0.0
  0
POINT
  5
19B
100
AcDbEntity
  8
2
370
    50
100
AcDbPoint
 10
128.098944
 20
-124.169725
 30
0.0
  0
POINT
  5
19C
100
AcDbEntity
  8
2
370
    50
100
AcDbPoint
 10
128.098944
 20
-124.169725
 30
0.0
  0
POINT
  5
19D
100
AcDbEntity
  8
2
370
    50
100
AcDbPoint
 10
128.098944
 20
-124.169725
 30
0.0
  0
LINE
  5
19E
100
AcDbEntity
  8
2
370
    50
100
AcDbLine
 10
111.198944
 20
123.930275
 30
0.0
 11
111.698944
 21
123.430275
 31
0.0
  0
LINE
  5
19F
100
AcDbEntity
  8
2
370
    50
100
AcDbLine
 10
111.198944
 20
123.930275
 30
0.0
 11
111.198944
 21
155.930275
 31
0.0
  0
LINE
  5
1A0
100
AcDbEntity
  8
2
370
    50
100
AcDbLine
 10
144.498944
 20
123.430275
 30
0.0
 11
111.698944
 21
123.430275
 31
0.0
  0
LINE
  5
1A1
100
AcDbEntity
  8
2
370
    50
100
AcDbLine
 10
144.998944
 20
123.930275
 30
0.0
 11
144.498944
 21
123.430275
 31
0.0
  0
LINE
  5
1A2
100
AcDbEntity
  8
2
370
    50
100
AcDbLine
 10
111.698944
 20
156.430275
 30
0.0
 11
144.498944
 21
156.430275
 31
0.0
  0
LINE
  5
1A3
100
AcDbEntity
  8
2
370
    50
100
AcDbLine
 10
111.198944
 20
155.930275
 30
0.0
 11
111.698944
 21
156.430275
 31
0.0
  0
LINE
  5
1A4
100
AcDbEntity
  8
2
370
    50
100
AcDbLine
 10
144.498944
 20
156.430275
 30
0.0
 11
144.998944
 21
155.930275
 31
0.0
  0
LINE
  5
1A5
100
AcDbEntity
  8
2
370
    50
100
AcDbLine
 10
144.998944
 20
123.930275
 30
0.0
 11
144.998944
 21
139.230275
 31
0.0
  0
LINE
  5
1A6
100
AcDbEntity
  8
2
370
    50
100
AcDbLine
 10
144.998944
 20
146.630275
 30
0.0
 11
144.998944
 21
155.930275
 31
0.0
  0
LINE
  5
1A7
100
AcDbEntity
  8
2
370
    50
100
AcDbLine
 10
168.498944
 20
146.430275
 30
0.0
 11
144.955339
 21
146.430275
 31
0.0
  0
LINE
  5
1A8
100
AcDbEntity
  8
2
370
    50
100
AcDbLine
 10
168.498944
 20
139.430275
 30
0.0
 11
144.955339
 21
139.430275
 31
0.0
  0
LINE
  5
1A9
100
AcDbEntity
  8
2
370
    50
100
AcDbLine
 10
168.998944
 20
145.930275
 30
0.0
 11
168.998944
 21
139.930275
 31
0.0
  0
LINE
  5
1AA
100
AcDbEntity
  8
2
370
    50
100
AcDbLine
 10
168.498944
 20
146.430275
 30
0.0
 11
168.998944
 21
145.930275
 31
0.0
  0
LINE
  5
1AB
100
AcDbEntity
  8
2
370
    50
100
AcDbLine
 10
168.498944
 20
139.430275
 30
0.0
 11
168.998944
 21
139.930275
 31
0.0
  0
LINE
  5
1AC
100
AcDbEntity
  8
2
370
    50
100
AcDbLine
 10
111.198944
 20
155.930275
 30
0.0
 11
144.998944
 21
155.930275
 31
0.0
  0
LINE
  5
1AD
100
AcDbEntity
  8
2
370
    50
100
AcDbLine
 10
111.198944
 20
123.930275
 30
0.0
 11
144.998944
 21
123.930275
 31
0.0
  0
ARC
  5
1AE
100
AcDbEntity
  8
2
370
    50
100
AcDbCircle
 10
161.488941
 20
142.930275
 30
0.0
 40
16.9
100
AcDbArc
 50
167.353517
 51
192.646483
  0
LINE
  5
1AF
100
AcDbEntity
  8
2
370
    50
100
AcDbLine
 10
168.498944
 20
146.430275
 30
0.0
 11
168.498944
 21
139.430275
 31
0.0
  0
TEXT
  5
1B0
100
AcDbEntity
  8
3
370
    50
100
AcDbText
 10
65.574945
 20
-227.817829
 30
0.0
 40
7.0
  1
立水栓　
 72
     5
 11
85.174945
 21
-227.817829
 31
0.0
100
AcDbText
  0
TEXT
  5
1B1
100
AcDbEntity
  8
3
370
    50
100
AcDbText
 10
65.002039
 20
-235.834186
 30
0.0
 40
7.0
  1
ＭＬ０５０Ｌ
 72
     5
 11
105.602039
 21
-235.834186
 31
0.0
100
AcDbText
  0
TEXT
  5
1B2
100
AcDbEntity
  8
3
370
    50
100
AcDbText
 10
226.850147
 20
-272.76662
 30
0.0
 40
7.0
  1
外観寸法図
 72
     5
 11
260.450147
 21
-272.76662
 31
0.0
100
AcDbText
  0
TEXT
  5
1B3
100
AcDbEntity
  8
3
370
    50
100
AcDbText
 10
290.832582
 20
-240.013492
 30
0.0
 40
6.0
  1
１　２
 72
     5
 11
307.632582
 21
-240.013492
 31
0.0
100
AcDbText
  0
TEXT
  5
1B4
100
AcDbEntity
  8
3
370
    50
100
AcDbText
 10
345.098131
 20
-256.100293
 30
0.0
 40
6.0
  1
０８　　２　１９
 72
     5
 11
391.898131
 21
-256.100293
 31
0.0
100
AcDbText
  0
TEXT
  5
1B5
100
AcDbEntity
  8
3
370
    50
100
AcDbText
 10
336.070276
 20
-271.880939
 30
0.0
 40
6.4
  1
５０２２１５
 72
     5
 11
373.190276
 21
-271.880939
 31
0.0
100
AcDbText
  0
POINT
  5
1B6
100
AcDbEntity
  8
3
370
    50
100
AcDbPoint
 10
394.982385
 20
-277.971881
 30
0.0
  0
POINT
  5
1B7
100
AcDbEntity
  8
3
370
    50
100
AcDbPoint
 10
394.982385
 20
218.028767
 30
0.0
  0
DIMENSION
  5
1B8
100
AcDbEntity
  8
3
370
    25
100
AcDbDimension
  2
*D0
 10
-95.547663
 20
170.220936
 30
0.0
 11
-161.601056
 21
145.73858
 31
0.0
 70
     2
 71
     0
 72
     0
 41
0.0
 42
0.0
  3
Standard
100
AcDb2LineAngularDimension
 13
-142.004465
 23
211.084867
 33
0.0
 14
-95.547663
 24
211.084867
 34
0.0
 15
-95.547663
 25
211.084867
 35
0.0
 16
-128.397583
 26
178.234947
 36
0.0
1001
ACAD
1000
DSTYLE
1002
{
1070
   275
1070
     0
1070
   179
1070
     0
1002
}
  0
DIMENSION
  5
1B9
100
AcDbEntity
  8
3
370
    25
100
AcDbDimension
  2
*D1
 10
-95.547663
 20
170.220936
 30
0.0
 11
-120.265855
 21
171.517432
 31
0.0
 70
     2
 71
     0
 72
     0
 41
0.0
 42
0.0
  3
Standard
100
AcDb2LineAngularDimension
 13
-142.004465
 23
211.084867
 33
0.0
 14
-95.547663
 24
211.084867
 34
0.0
 15
-95.547663
 25
211.084867
 35
0.0
 16
-128.397583
 26
178.234947
 36
0.0
1001
ACAD
1000
DSTYLE
1002
{
1070
   275
1070
     0
1070
   179
1070
     0
1002
}
  0
TEXT
  5
1BA
100
AcDbEntity
  8
3
370
    50
100
AcDbText
 10
-87.384218
 20
169.033706
 30
0.0
 40
6.999667
  1
吐水
 72
     5
 11
-74.784818
 21
169.033706
 31
0.0
100
AcDbText
  0
TEXT
  5
1BB
100
AcDbEntity
  8
3
370
    50
100
AcDbText
 10
-153.382219
 20
212.759032
 30
0.0
 40
6.999667
  1
止水
 72
     5
 11
-140.782819
 21
212.759032
 31
0.0
100
AcDbText
  0
TEXT
  5
1BC
100
AcDbEntity
  8
3
370
    50
100
AcDbText
 10
-141.547663
 20
64.383105
 30
0.0
 40
7.0
  1
φ３４
 72
     5
 11
-121.947663
 21
64.383105
 31
0.0
100
AcDbText
  0
DIMENSION
  5
1BD
100
AcDbEntity
  8
3
370
    25
100
AcDbDimension
  2
*D2
 10
-112.547663
 20
63.383105
 30
0.0
 11
-95.547663
 21
65.383105
 31
0.0
 70
     1
 71
     0
 72
     0
 41
0.0
 42
0.0
  3
Standard
100
AcDbAlignedDimension
 13
-78.547663
 23
63.383105
 33
0.0
 14
-112.547663
 24
63.383105
 34
0.0
  0
DIMENSION
  5
1BE
100
AcDbEntity
  8
3
370
    25
100
AcDbDimension
  2
*D3
 10
-205.520125
 20
65.286812
 30
0.0
 11
-205.945451
 21
33.421403
 31
0.0
 70
     2
 71
     0
 72
     0
 41
0.0
 42
0.0
  3
Standard
100
AcDb2LineAngularDimension
 13
-205.522124
 23
65.287539
 33
0.0
 14
-205.520125
 24
65.289921
 34
0.0
 15
-205.520125
 25
65.289921
 35
0.0
 16
-216.154243
 26
36.072922
 36
0.0
1001
ACAD
1000
DSTYLE
1002
{
1070
   275
1070
     0
1070
   179
1070
     0
1002
}
  0
TEXT
  5
1BF
100
AcDbEntity
  8
3
370
    50
100
AcDbText
 10
-244.056898
 20
-45.189902
 30
0.0
 40
7.0
  1
２００
 50
90.0
 72
     5
 11
-244.056898
 21
-25.589902
 31
0.0
100
AcDbText
  0
DIMENSION
  5
1C0
100
AcDbEntity
  8
3
370
    25
100
AcDbDimension
  2
*D4
 10
-243.056898
 20
65.289921
 30
0.0
 11
-150.533894
 21
-24.470689
 31
0.0
 71
     0
 72
     0
 41
0.0
 42
0.0
  3
Standard
100
AcDbAlignedDimension
 13
-116.547663
 23
-134.669725
 33
0.0
 14
-205.520125
 24
65.289921
 34
0.0
 50
90.0
100
AcDbRotatedDimension
  0
DIMENSION
  5
1C1
100
AcDbEntity
  8
3
370
    25
100
AcDbDimension
  2
*D5
 10
-95.547663
 20
-28.970689
 30
0.0
 11
-150.533894
 21
-26.970689
 31
0.0
 71
     0
 72
     0
 41
0.0
 42
0.0
  3
Standard
100
AcDbAlignedDimension
 13
-205.520125
 23
65.289921
 33
0.0
 14
-95.547663
 24
-28.970689
 34
0.0
100
AcDbRotatedDimension
  0
DIMENSION
  5
1C2
100
AcDbEntity
  8
3
370
    25
100
AcDbDimension
  2
*D6
 10
-15.111486
 20
156.430275
 30
0.0
 11
-26.611486
 21
7.380275
 31
0.0
 71
     0
 72
     0
 41
0.0
 42
0.0
  3
Standard
100
AcDbAlignedDimension
 13
-74.547663
 23
-134.669725
 33
0.0
 14
-79.147663
 24
156.430275
 34
0.0
 50
90.0
100
AcDbRotatedDimension
  0
TEXT
  5
1C3
100
AcDbEntity
  8
3
370
    50
100
AcDbText
 10
-30.378363
 20
-127.054414
 30
0.0
 40
6.999667
  1
取付穴径　φ２２～２６
 50
90.0
 72
     5
 11
-30.378363
 21
-51.458011
 31
0.0
100
AcDbText
  0
TEXT
  5
1C4
100
AcDbEntity
  8
3
370
    50
100
AcDbText
 10
-40.155889
 20
-126.669725
 30
0.0
 40
7.0
  1
天板厚さ　０～３０ｍｍ
 50
90.0
 72
     5
 11
-40.155889
 21
-51.069725
 31
0.0
100
AcDbText
  0
DIMENSION
  5
1C5
100
AcDbEntity
  8
3
370
    25
100
AcDbDimension
  2
*D7
 10
-39.155889
 20
-134.669725
 30
0.0
 11
-41.655889
 21
-92.169725
 31
0.0
 71
     0
 72
     0
 41
0.0
 42
0.0
  3
Standard
100
AcDbAlignedDimension
 13
-78.047663
 23
-149.669725
 33
0.0
 14
-74.547663
 24
-134.669725
 34
0.0
 50
90.0
100
AcDbRotatedDimension
  0
DIMENSION
  5
1C6
100
AcDbEntity
  8
3
370
    25
100
AcDbDimension
  2
*D8
 10
-117.047663
 20
-90.635194
 30
0.0
 11
-135.547663
 21
-86.135194
 31
0.0
 70
     1
 71
     0
 72
     0
 41
0.0
 42
0.0
  3
Standard
100
AcDbAlignedDimension
 13
-74.047663
 23
-129.669725
 33
0.0
 14
-117.047663
 24
-129.669725
 34
0.0
  0
LWPOLYLINE
  5
1C7
100
AcDbEntity
  8
3
370
    25
100
AcDbPolyline
 90
        2
 70
     0
 10
-106.240585
 20
-156.598225
 10
-120.394821
 20
-162.007161
  0
LINE
  5
1CB
100
AcDbEntity
  8
3
370
    25
100
AcDbLine
 10
-109.849737
 20
-157.977436
 30
0.0
 11
-109.480179
 21
-158.944506
 31
0.0
  0
LINE
  5
1CC
100
AcDbEntity
  8
3
370
    25
100
AcDbLine
 10
-109.480179
 20
-158.944506
 30
0.0
 11
-106.240585
 21
-156.598225
 31
0.0
  0
LINE
  5
1CD
100
AcDbEntity
  8
3
370
    25
100
AcDbLine
 10
-106.240585
 20
-156.598225
 30
0.0
 11
-110.219296
 21
-157.010367
 31
0.0
  0
LINE
  5
1CE
100
AcDbEntity
  8
3
370
    25
100
AcDbLine
 10
-110.219296
 20
-157.010367
 30
0.0
 11
-109.849737
 21
-157.977436
 31
0.0
  0
TEXT
  5
1CF
100
AcDbEntity
  8
3
370
    50
100
AcDbText
 10
-150.581415
 20
-165.121842
 30
0.0
 40
6.999667
  1
２４六角
 72
     5
 11
-123.982681
 21
-165.121842
 31
0.0
100
AcDbText
  0
LWPOLYLINE
  5
1D0
100
AcDbEntity
  8
3
370
    25
100
AcDbPolyline
 90
        2
 70
     0
 10
-106.963301
 20
-185.494935
 10
-119.237758
 20
-188.095323
  0
LINE
  5
1D4
100
AcDbEntity
  8
3
370
    25
100
AcDbLine
 10
-110.743112
 20
-186.295702
 30
0.0
 11
-110.528548
 21
-187.308499
 31
0.0
  0
LINE
  5
1D5
100
AcDbEntity
  8
3
370
    25
100
AcDbLine
 10
-110.528548
 20
-187.308499
 30
0.0
 11
-106.963301
 21
-185.494935
 31
0.0
  0
LINE
  5
1D6
100
AcDbEntity
  8
3
370
    25
100
AcDbLine
 10
-106.963301
 20
-185.494935
 30
0.0
 11
-110.957677
 21
-185.282904
 31
0.0
  0
LINE
  5
1D7
100
AcDbEntity
  8
3
370
    25
100
AcDbLine
 10
-110.957677
 20
-185.282904
 30
0.0
 11
-110.743112
 21
-186.295702
 31
0.0
  0
TEXT
  5
1D8
100
AcDbEntity
  8
3
370
    50
100
AcDbText
 10
-148.523901
 20
-191.123902
 30
0.0
 40
6.999667
  1
２３六角
 72
     5
 11
-121.925167
 21
-191.123902
 31
0.0
100
AcDbText
  0
LWPOLYLINE
  5
1D9
100
AcDbEntity
  8
3
370
    25
100
AcDbPolyline
 90
        3
 70
     0
 10
-85.217376
 20
-170.120484
 10
-60.655494
 20
-180.938344
 10
-26.302649
 20
-180.938344
  0
LINE
  5
1DE
100
AcDbEntity
  8
3
370
    25
100
AcDbLine
 10
-81.681435
 20
-171.677829
 30
0.0
 11
-81.264146
 21
-170.730376
 31
0.0
  0
LINE
  5
1DF
100
AcDbEntity
  8
3
370
    25
100
AcDbLine
 10
-81.264146
 20
-170.730376
 30
0.0
 11
-85.217376
 21
-170.120484
 31
0.0
  0
LINE
  5
1E0
100
AcDbEntity
  8
3
370
    25
100
AcDbLine
 10
-85.217376
 20
-170.120484
 30
0.0
 11
-82.098724
 21
-172.625282
 31
0.0
  0
LINE
  5
1E1
100
AcDbEntity
  8
3
370
    25
100
AcDbLine
 10
-82.098724
 20
-172.625282
 30
0.0
 11
-81.681435
 21
-171.677829
 31
0.0
  0
TEXT
  5
1E2
100
AcDbEntity
  8
3
370
    50
100
AcDbText
 10
-60.714918
 20
-179.14203
 30
0.0
 40
6.999667
  1
ＰＪ１／２
 72
     5
 11
-27.116517
 21
-179.14203
 31
0.0
100
AcDbText
  0
TEXT
  5
1E3
100
AcDbEntity
  8
3
370
    50
100
AcDbText
 10
-49.601806
 20
211.29805
 30
0.0
 40
7.0
  1
＊ハンドル位置ハ製造上ノ誤差ニヨリ
 72
     5
 11
67.998194
 21
211.29805
 31
0.0
100
AcDbText
  0
TEXT
  5
1E4
100
AcDbEntity
  8
3
370
    50
100
AcDbText
 10
-42.601806
 20
195.29805
 30
0.0
 40
7.0
  1
プノ真上ニコナイコトガアリマス
 72
     5
 11
60.998194
 21
195.29805
 31
0.0
100
AcDbText
  0
TEXT
  5
1E5
100
AcDbEntity
  8
3
370
    50
100
AcDbText
 10
-42.601806
 20
203.29805
 30
0.0
 40
7.0
  1
左図ニ示シタ止水位置ノヨウニパイ
 72
     5
 11
67.998194
 21
203.29805
 31
0.0
100
AcDbText
  0
TEXT
  5
1E6
100
AcDbEntity
  8
3
370
    50
100
AcDbText
 10
-49.601806
 20
211.29805
 30
0.0
 40
7.0
  1
＊ハンドル位置ハ製造上ノ誤差ニヨリ
 72
     5
 11
67.998194
 21
211.29805
 31
0.0
100
AcDbText
  0
TEXT
  5
1E7
100
AcDbEntity
  8
3
370
    50
100
AcDbText
 10
-42.601806
 20
195.29805
 30
0.0
 40
7.0
  1
プノ真上ニコナイコトガアリマス
 72
     5
 11
60.998194
 21
195.29805
 31
0.0
100
AcDbText
  0
TEXT
  5
1E8
100
AcDbEntity
  8
3
370
    50
100
AcDbText
 10
-42.601806
 20
203.29805
 30
0.0
 40
7.0
  1
左図ニ示シタ止水位置ノヨウニパイ
 72
     5
 11
67.998194
 21
203.29805
 31
0.0
100
AcDbText
  0
ENDSEC
  0
SECTION
  2
OBJECTS
  0
DICTIONARY
  5
24C
100
AcDbDictionary
280
     0
281
     1
  3
ACAD_GROUP
350
24D
  3
ACAD_MLINESTYLE
350
24E
  0
DICTIONARY
  5
24D
102
{ACAD_REACTORS
330
24C
102
}
100
AcDbDictionary
280
     0
281
     1
  0
DICTIONARY
  5
24E
102
{ACAD_REACTORS
330
24C
102
}
100
AcDbDictionary
280
     0
281
     1
  3
Standard
350
24F
  0
MLINESTYLE
  5
24F
102
{ACAD_REACTORS
330
24E
102
}
100
AcDbMlineStyle
  2
Standard
 70
     0
  3

 62
     0
 51
90.0
 52
90.0
 71
     2
 49
0.5
 62
   256
  6
ByLayer
 49
-0.5
 62
   256
  6
ByLayer
  0
ENDSEC
  0
EOF
