  0
SECTION
  2
HEADER
  9
$ACADVER
  1
AC1015
  9
$ACADMAINTVER
 70
     6
  9
$DWGCODEPAGE
  3
ANSI_932
  9
$INSBASE
 10
0.0
 20
0.0
 30
0.0
  9
$EXTMIN
 10
-841.0
 20
-594.0
 30
1.000000E+20
  9
$EXTMAX
 10
841.0
 20
594.0
 30
-1.000000E+20
  9
$LIMMIN
 10
-841.0
 20
-594.0
  9
$LIMMAX
 10
841.0
 20
594.0
  9
$ORTHOMODE
 70
     0
  9
$REGENMODE
 70
     1
  9
$FILLMODE
 70
     1
  9
$QTEXTMODE
 70
     0
  9
$MIRRTEXT
 70
     1
  9
$LTSCALE
 40
1.0
  9
$ATTMODE
 70
     1
  9
$TEXTSIZE
 40
0.2
  9
$TRACEWID
 40
0.05
  9
$TEXTSTYLE
  7
STANDARD
  9
$CLAYER
  8
0
  9
$CELTYPE
  6
CONTINUOUS
  9
$CECOLOR
 62
   256
  9
$CELTSCALE
 40
1.0
  9
$DISPSILH
 70
     0
  9
$DIMSCALE
 40
2.0
  9
$DIMASZ
 40
2.0
  9
$DIMEXO
 40
1.0
  9
$DIMDLI
 40
0.38
  9
$DIMRND
 40
0.0
  9
$DIMDLE
 40
0.0
  9
$DIMEXE
 40
2.0
  9
$DIMTP
 40
0.0
  9
$DIMTM
 40
0.0
  9
$DIMTXT
 40
3.5
  9
$DIMCEN
 40
0.09
  9
$DIMTSZ
 40
0.0
  9
$DIMTOL
 70
     0
  9
$DIMLIM
 70
     0
  9
$DIMTIH
 70
     0
  9
$DIMTOH
 70
     0
  9
$DIMSE1
 70
     0
  9
$DIMSE2
 70
     0
  9
$DIMTAD
 70
     1
  9
$DIMZIN
 70
     0
  9
$DIMBLK
  1

  9
$DIMASO
 70
     1
  9
$DIMSHO
 70
     1
  9
$DIMPOST
  1

  9
$DIMAPOST
  1

  9
$DIMALT
 70
     0
  9
$DIMALTD
 70
     2
  9
$DIMALTF
 40
25.4
  9
$DIMLFAC
 40
1.0
  9
$DIMTOFL
 70
     0
  9
$DIMTVP
 40
0.0
  9
$DIMTIX
 70
     0
  9
$DIMSOXD
 70
     0
  9
$DIMSAH
 70
     0
  9
$DIMBLK1
  1

  9
$DIMBLK2
  1

  9
$DIMSTYLE
  2
Standard
  9
$DIMCLRD
 70
     0
  9
$DIMCLRE
 70
     0
  9
$DIMCLRT
 70
     0
  9
$DIMTFAC
 40
1.0
  9
$DIMGAP
 40
0.5
  9
$DIMJUST
 70
     0
  9
$DIMSD1
 70
     0
  9
$DIMSD2
 70
     0
  9
$DIMTOLJ
 70
     1
  9
$DIMTZIN
 70
     0
  9
$DIMALTZ
 70
     0
  9
$DIMALTTZ
 70
     0
  9
$DIMUPT
 70
     0
  9
$DIMDEC
 70
     3
  9
$DIMTDEC
 70
     4
  9
$DIMALTU
 70
     2
  9
$DIMALTTD
 70
     2
  9
$DIMTXSTY
  7
STANDARD
  9
$DIMAUNIT
 70
     0
  9
$DIMADEC
 70
     0
  9
$DIMALTRND
 40
0.0
  9
$DIMAZIN
 70
     0
  9
$DIMDSEP
 70
     0
  9
$DIMATFIT
 70
     3
  9
$DIMFRAC
 70
     0
  9
$DIMLDRBLK
  1

  9
$DIMLUNIT
 70
     2
  9
$DIMLWD
 70
     0
  9
$DIMLWE
 70
     0
  9
$DIMTMOVE
 70
     0
  9
$LUNITS
 70
     2
  9
$LUPREC
 70
     4
  9
$SKETCHINC
 40
0.1
  9
$FILLETRAD
 40
0.0
  9
$AUNITS
 70
     0
  9
$AUPREC
 70
     0
  9
$MENU
  1
acad
  9
$ELEVATION
 40
0.0
  9
$PELEVATION
 40
0.0
  9
$THICKNESS
 40
0.0
  9
$LIMCHECK
 70
     0
  9
$CHAMFERA
 40
0.0
  9
$CHAMFERB
 40
0.0
  9
$CHAMFERC
 40
0.0
  9
$CHAMFERD
 40
0.0
  9
$SKPOLY
 70
     0
  9
$TDCREATE
 40
2454541.000000000
  9
$TDUCREATE
 40
0.000000000
  9
$TDUPDATE
 40
0.000000000
  9
$TDUUPDATE
 40
2447892.625000000
  9
$TDINDWG
 40
0.0000000000
  9
$TDUSRTIMER
 40
0.0000000000
  9
$USRTIMER
 70
     1
  9
$ANGBASE
 50
0.0
  9
$ANGDIR
 70
     0
  9
$PDMODE
 70
     0
  9
$PDSIZE
 40
0.0
  9
$PLINEWID
 40
0.0
  9
$SPLFRAME
 70
     0
  9
$SPLINETYPE
 70
     6
  9
$SPLINESEGS
 70
     8
  9
$HANDSEED
  5
2CD
  9
$SURFTAB1
 70
     6
  9
$SURFTAB2
 70
     6
  9
$SURFTYPE
 70
     6
  9
$SURFU
 70
     6
  9
$SURFV
 70
     6
  9
$UCSBASE
  2

  9
$UCSNAME
  2

  9
$UCSORG
 10
0.0
 20
0.0
 30
0.0
  9
$UCSXDIR
 10
1.0
 20
0.0
 30
0.0
  9
$UCSYDIR
 10
0.0
 20
1.0
 30
0.0
  9
$UCSORTHOREF
  2

  9
$UCSORTHOVIEW
 70
     0
  9
$UCSORGTOP
 10
0.0
 20
0.0
 30
0.0
  9
$UCSORGBOTTOM
 10
0.0
 20
0.0
 30
0.0
  9
$UCSORGLEFT
 10
0.0
 20
0.0
 30
0.0
  9
$UCSORGRIGHT
 10
0.0
 20
0.0
 30
0.0
  9
$UCSORGFRONT
 10
0.0
 20
0.0
 30
0.0
  9
$UCSORGBACK
 10
0.0
 20
0.0
 30
0.0
  9
$PUCSBASE
  2

  9
$PUCSNAME
  2

  9
$PUCSORG
 10
0.0
 20
0.0
 30
0.0
  9
$PUCSXDIR
 10
1.0
 20
0.0
 30
0.0
  9
$PUCSYDIR
 10
0.0
 20
1.0
 30
0.0
  9
$PUCSORTHOREF
  2

  9
$PUCSORTHOVIEW
 70
     0
  9
$PUCSORGTOP
 10
0.0
 20
0.0
 30
0.0
  9
$PUCSORGBOTTOM
 10
0.0
 20
0.0
 30
0.0
  9
$PUCSORGLEFT
 10
0.0
 20
0.0
 30
0.0
  9
$PUCSORGRIGHT
 10
0.0
 20
0.0
 30
0.0
  9
$PUCSORGFRONT
 10
0.0
 20
0.0
 30
0.0
  9
$PUCSORGBACK
 10
0.0
 20
0.0
 30
0.0
  9
$USERI1
 70
     0
  9
$USERI2
 70
     0
  9
$USERI3
 70
     0
  9
$USERI4
 70
     0
  9
$USERI5
 70
     0
  9
$USERR1
 40
0.0
  9
$USERR2
 40
0.0
  9
$USERR3
 40
0.0
  9
$USERR4
 40
0.0
  9
$USERR5
 40
0.0
  9
$WORLDVIEW
 70
     1
  9
$SHADEDGE
 70
     3
  9
$SHADEDIF
 70
    70
  9
$TILEMODE
 70
     1
  9
$MAXACTVP
 70
    16
  9
$PINSBASE
 10
0.0
 20
0.0
 30
0.0
  9
$PLIMCHECK
 70
     0
  9
$PEXTMIN
 10
1.000000E+20
 20
1.000000E+20
 30
1.000000E+20
  9
$PEXTMAX
 10
-1.000000E+20
 20
-1.000000E+20
 30
-1.000000E+20
  9
$PLIMMIN
 10
0.0
 20
0.0
  9
$PLIMMAX
 10
12.0
 20
9.0
  9
$UNITMODE
 70
     0
  9
$VISRETAIN
 70
     0
  9
$PLINEGEN
 70
     1
  9
$PSLTSCALE
 70
     0
  9
$TREEDEPTH
 70
  3020
  9
$CMLSTYLE
  2
Standard
  9
$CMLJUST
 70
     0
  9
$CMLSCALE
 40
1.0
  9
$PROXYGRAPHICS
 70
     0
  9
$MEASUREMENT
 70
     0
  9
$CELWEIGHT
370
     0
  9
$ENDCAPS
280
     0
  9
$JOINSTYLE
280
     0
  9
$LWDISPLAY
290
     0
  9
$INSUNITS
 70
     0
  9
$HYPERLINKBASE
  1

  9
$STYLESHEET
  1

  9
$XEDIT
290
     1
  9
$CEPSNTYPE
380
     0
  9
$PSTYLEMODE
290
     1
  9
$FINGERPRINTGUID
  2

  9
$VERSIONGUID
  2

  9
$EXTNAMES
290
     1
  9
$PSVPSCALE
 40
0.0
  0
ENDSEC
  0
SECTION
  2
CLASSES
  0
CLASS
  1
LWPOLYLINE
  2
AcDbPolyline
  3
AutoCAD 2000
 90
        0
280
     0
281
     1
  0
CLASS
  1
IMAGE
  2
AcDbRasterImage
  3
ISM
 90
      127
280
     0
281
     1
  0
CLASS
  1
OLE2FRAME
  2
AcDbOle2Frame
  3
AutoCAD 2000
 90
        0
280
     0
281
     1
  0
CLASS
  1
HATCH
  2
AcDbHatch
  3
AutoCAD 2000
 90
        0
280
     0
281
     1
  0
CLASS
  1
DICTIONARYVAR
  2
AcDbDictionaryVar
  3
AutoCAD 2000
 90
        0
280
     0
281
     0
  0
CLASS
  1
RASTERVARIABLES
  2
AcDbRasterVariables
  3
ISM
 90
        0
280
     0
281
     0
  0
CLASS
  1
IMAGEDEF
  2
AcDbRasterImageDef
  3
ISM
 90
        0
280
     0
281
     0
  0
CLASS
  1
IMAGEDEF_REACTOR
  2
AcDbRasterImageDefReactor
  3
ISM
 90
        1
280
     0
281
     0
  0
CLASS
  1
IDBUFFER
  2
AcDbIdBuffer
  3
AutoCAD 2000
 90
        0
280
     0
281
     0
  0
CLASS
  1
SPATIAL_FILTER
  2
AcDbSpatialFilter
  3
AutoCAD 2000
 90
        0
280
     0
281
     0
  0
CLASS
  1
XRECORD
  2
AcDbXrecord
  3
AutoCAD 2000
 90
        0
280
     0
281
     0
  0
CLASS
  1
SORTENTSTABLE
  2
AcDbSortentsTable
  3
AutoCAD 2000
 90
        0
280
     0
281
     0
  0
CLASS
  1
LAYER_INDEX
  2
AcDbLayerIndex
  3
AutoCAD 2000
 90
        0
280
     0
281
     0
  0
CLASS
  1
SPATIAL_INDEX
  2
AcDbSpatialIndex
  3
AutoCAD 2000
 90
        0
280
     0
281
     0
  0
CLASS
  1
OBJECT_PTR
  2
CAseDLPNTableRecord
  3
"ASE-LPNTableRecord"
 90
        1
280
     0
281
     0
  0
CLASS
  1
LAYOUT
  2
AcDbLayout
  3
AutoCAD 2000
 90
        0
280
     0
281
     0
  0
CLASS
  1
PLOTSETTINGS
  2
AcDbPlotSettings
  3
AutoCAD 2000
 90
        0
280
     0
281
     0
  0
CLASS
  1
ACDBDICTIONARYWDFLT
  2
AcDbDictionaryWithDefault
  3
AutoCAD 2000
 90
        0
280
     0
281
     0
  0
CLASS
  1
ACDBPLACEHOLDER
  2
AcDbPlaceHolder
  3
AutoCAD 2000
 90
        0
280
     0
281
     0
  0
CLASS
  1
VBA_PROJECT
  2
AcDbVbaProject
  3
acadvba
 90
        0
280
     0
281
     0
  0
CLASS
  1
WIPEOUT
  2
AcDbWipeout
  3
WipeOut|AutoCAD Express Tool|expresstools@autodesk.com
 90
      127
280
     0
281
     1
  0
CLASS
  1
WIPEOUTVARIABLES
  2
AcDbWipeoutVariables
  3
WipeOut|AutoCAD Express Tool|expresstools@autodesk.com
 90
        0
280
     0
281
     0
  0
CLASS
  1
RTEXT
  2
RText
  3
RText|AutoCAD Express Tool|expresstools@autodesk.com
 90
        0
280
     0
281
     1
  0
CLASS
  1
ARCALIGNEDTEXT
  2
AcDbArcAlignedText
  3
ATEXT|AutoCAD Express Tool|expresstools@autodesk.com
 90
        0
280
     0
281
     1
  0
ENDSEC
  0
SECTION
  2
TABLES
  0
TABLE
  2
VPORT
  5
6
100
AcDbSymbolTable
 70
     1
  0
VPORT
  5
19
100
AcDbSymbolTableRecord
100
AcDbViewportTableRecord
  2
*ACTIVE
 70
     0
 10
0.0
 20
0.0
 11
1.0
 21
1.0
 12
0.0
 22
0.0
 13
0.0
 23
0.0
 14
1.0
 24
1.0
 15
0.0
 25
0.0
 16
0.0
 26
0.0
 36
1.0
 17
0.0
 27
0.0
 37
0.0
 40
1188.0
 41
1.415825
 42
50.0
 43
0.0
 44
0.0
 50
0.0
 51
0.0
 71
     0
 72
   500
 73
     1
 74
     1
 75
     0
 76
     0
 77
     0
 78
     0
281
     0
 65
     0
110
0.0
120
0.0
130
0.0
111
1.0
121
0.0
131
0.0
112
0.0
122
1.0
132
0.0
345
0
346
0
 79
     0
146
0.0
  0
ENDTAB
  0
TABLE
  2
LTYPE
  5
3
100
AcDbSymbolTable
 70
     9
  0
LTYPE
  5
C
100
AcDbSymbolTableRecord
100
AcDbLinetypeTableRecord
  2
ByBlock
 70
    64
  3

 72
    65
 73
     0
 40
0.0
  0
LTYPE
  5
D
100
AcDbSymbolTableRecord
100
AcDbLinetypeTableRecord
  2
ByLayer
 70
    64
  3

 72
    65
 73
     0
 40
0.0
  0
LTYPE
  5
E
100
AcDbSymbolTableRecord
100
AcDbLinetypeTableRecord
  2
CONTINUOUS
 70
     0
  3
Solid line
 72
    65
 73
     0
 40
0.0
  0
LTYPE
  5
F
100
AcDbSymbolTableRecord
100
AcDbLinetypeTableRecord
  2
DASHED
 70
     0
  3
__ __ __ __ __ __ __ __ __ __ __ __ __ __ __
 72
    65
 73
     2
 40
2.0
 49
1.2
 74
     0
 49
-0.8
 74
     0
  0
LTYPE
  5
10
100
AcDbSymbolTableRecord
100
AcDbLinetypeTableRecord
  2
CENTER
 70
     0
  3
____ _ ____ _ ____ _ ____ _ ____ _ ____ _ ____
 72
    65
 73
     4
 40
12.0
 49
9.0
 74
     0
 49
-1.0
 74
     0
 49
1.0
 74
     0
 49
-1.0
 74
     0
  0
LTYPE
  5
11
100
AcDbSymbolTableRecord
100
AcDbLinetypeTableRecord
  2
HIDDEN
 70
     0
  3
_ _ _ _ _ _ _ _ _ _ _ _ _ _ _ _ _ _ _ _ _ _ _
 72
    65
 73
     2
 40
3.2
 49
2.4
 74
     0
 49
-0.8
 74
     0
  0
LTYPE
  5
12
100
AcDbSymbolTableRecord
100
AcDbLinetypeTableRecord
  2
PHANTOM
 70
     0
  3
_____ _ _ _____ _ _ _____ _ _ _____ _ _ _____
 72
    65
 73
     6
 40
13.5
 49
9.0
 74
     0
 49
-1.0
 74
     0
 49
1.0
 74
     0
 49
-0.5
 74
     0
 49
1.0
 74
     0
 49
-1.0
 74
     0
  0
LTYPE
  5
13
100
AcDbSymbolTableRecord
100
AcDbLinetypeTableRecord
  2
DOT
 70
     0
  3
...............................................
 72
    65
 73
     2
 40
1.0
 49
0.5
 74
     0
 49
-0.5
 74
     0
  0
LTYPE
  5
14
100
AcDbSymbolTableRecord
100
AcDbLinetypeTableRecord
  2
DASHDOT
 70
     0
  3
__ . __ . __ . __ . __ . __ . __ . __ . __ . __
 72
    65
 73
     4
 40
8.0
 49
5.0
 74
     0
 49
-1.0
 74
     0
 49
1.0
 74
     0
 49
-1.0
 74
     0
  0
ENDTAB
  0
TABLE
  2
LAYER
  5
1
100
AcDbSymbolTable
 70
     4
  0
LAYER
  5
15
100
AcDbSymbolTableRecord
100
AcDbLayerTableRecord
  2
0
 70
     0
 62
   225
  6
CONTINUOUS
290
     1
370
    -3
390
0
  0
LAYER
  5
16
100
AcDbSymbolTableRecord
100
AcDbLayerTableRecord
  2
1
 70
     0
 62
     2
  6
CONTINUOUS
290
     1
370
    -3
390
0
  0
LAYER
  5
17
100
AcDbSymbolTableRecord
100
AcDbLayerTableRecord
  2
2
 70
     0
 62
     3
  6
CONTINUOUS
290
     1
370
    -3
390
0
  0
LAYER
  5
18
100
AcDbSymbolTableRecord
100
AcDbLayerTableRecord
  2
3
 70
     0
 62
     4
  6
CONTINUOUS
290
     1
370
    -3
390
0
  0
ENDTAB
  0
TABLE
  2
STYLE
  5
2
100
AcDbSymbolTable
 70
     1
  0
STYLE
  5
1B
100
AcDbSymbolTableRecord
100
AcDbTextStyleTableRecord
  2
STANDARD
 70
    64
 40
0.0
 41
1.0
 50
0.0
 71
     0
 42
1.0
  3
txt
  4
BIGFONT
  0
ENDTAB
  0
TABLE
  2
VIEW
  5
4
100
AcDbSymbolTable
 70
     0
  0
ENDTAB
  0
TABLE
  2
UCS
  5
5
100
AcDbSymbolTable
 70
     0
  0
ENDTAB
  0
TABLE
  2
APPID
  5
7
100
AcDbSymbolTable
 70
     1
  0
APPID
  5
1A
100
AcDbSymbolTableRecord
100
AcDbRegAppTableRecord
  2
ACAD
 70
     0
  0
ENDTAB
  0
TABLE
  2
DIMSTYLE
  5
8
100
AcDbSymbolTable
 70
     1
100
AcDbDimStyleTable
 71
     0
  0
DIMSTYLE
105
30
100
AcDbSymbolTableRecord
100
AcDbDimStyleTableRecord
  2
Standard
 70
     0
  3

  4

 40
2.0
 41
2.0
 42
1.0
 43
0.38
 44
2.0
 45
0.0
 46
0.0
 47
0.0
 48
0.0
 71
     0
 72
     0
 73
     0
 74
     0
 75
     0
 76
     0
 77
     1
 78
     0
 79
     0
140
3.5
141
0.09
142
0.0
143
25.4
144
1.0
145
0.0
146
1.0
147
0.5
148
0.0
170
     0
171
     2
172
     0
173
     0
174
     0
175
     0
176
     0
177
     0
178
     0
179
     0
271
     3
272
     4
273
     2
274
     2
275
     0
276
     0
277
     2
278
    46
279
     0
280
     0
281
     0
282
     0
283
     1
284
     0
285
     0
286
     0
288
     0
289
     3
340
1B
341
0
342
0
343
0
344
0
371
    -2
372
    -2
  0
ENDTAB
  0
TABLE
  2
BLOCK_RECORD
  5
2B
100
AcDbSymbolTable
 70
    13
  0
BLOCK_RECORD
  5
29
100
AcDbSymbolTableRecord
100
AcDbBlockTableRecord
  2
*Model_Space
340
0
  0
BLOCK_RECORD
  5
2A
100
AcDbSymbolTableRecord
100
AcDbBlockTableRecord
  2
*Paper_Space
340
0
  0
BLOCK_RECORD
  5
1C
100
AcDbSymbolTableRecord
100
AcDbBlockTableRecord
  2
*D0
340
0
  0
BLOCK_RECORD
  5
1D
100
AcDbSymbolTableRecord
100
AcDbBlockTableRecord
  2
*D1
340
0
  0
BLOCK_RECORD
  5
1E
100
AcDbSymbolTableRecord
100
AcDbBlockTableRecord
  2
*D2
340
0
  0
BLOCK_RECORD
  5
1F
100
AcDbSymbolTableRecord
100
AcDbBlockTableRecord
  2
*D3
340
0
  0
BLOCK_RECORD
  5
20
100
AcDbSymbolTableRecord
100
AcDbBlockTableRecord
  2
*D4
340
0
  0
BLOCK_RECORD
  5
21
100
AcDbSymbolTableRecord
100
AcDbBlockTableRecord
  2
*D5
340
0
  0
BLOCK_RECORD
  5
22
100
AcDbSymbolTableRecord
100
AcDbBlockTableRecord
  2
*D6
340
0
  0
BLOCK_RECORD
  5
23
100
AcDbSymbolTableRecord
100
AcDbBlockTableRecord
  2
*D7
340
0
  0
BLOCK_RECORD
  5
24
100
AcDbSymbolTableRecord
100
AcDbBlockTableRecord
  2
*D8
340
0
  0
BLOCK_RECORD
  5
25
100
AcDbSymbolTableRecord
100
AcDbBlockTableRecord
  2
*D9
340
0
  0
BLOCK_RECORD
  5
26
100
AcDbSymbolTableRecord
100
AcDbBlockTableRecord
  2
*D10
340
0
  0
BLOCK_RECORD
  5
27
100
AcDbSymbolTableRecord
100
AcDbBlockTableRecord
  2
*D11
340
0
  0
BLOCK_RECORD
  5
28
100
AcDbSymbolTableRecord
100
AcDbBlockTableRecord
  2
*D12
340
0
  0
ENDTAB
  0
ENDSEC
  0
SECTION
  2
BLOCKS
  0
BLOCK
  5
2C
100
AcDbEntity
  8
0
390
0
100
AcDbBlockBegin
  2
*Model_Space
 70
     0
 10
0.0
 20
0.0
 30
0.0
  3
*Model_Space
  1

  0
ENDBLK
  5
2D
100
AcDbEntity
  8
0
390
0
100
AcDbBlockEnd
  0
BLOCK
  5
2E
100
AcDbEntity
 67
     1
  8
0
390
0
100
AcDbBlockBegin
  2
*Paper_Space
 70
     0
 10
0.0
 20
0.0
 30
0.0
  3
*Paper_Space
  1

  0
ENDBLK
  5
2F
100
AcDbEntity
 67
     1
  8
0
390
0
100
AcDbBlockEnd
  0
BLOCK
  5
237
100
AcDbEntity
  8
3
100
AcDbBlockBegin
  2
*D0
 70
     1
 10
0.0
 20
0.0
 30
0.0
  3
*D0
  1

  0
LINE
  5
238
100
AcDbEntity
  8
3
370
    25
100
AcDbLine
 10
101.206195
 20
-66.501561
 30
0.0
 11
101.206195
 21
-194.434341
 31
0.0
  0
LINE
  5
239
100
AcDbEntity
  8
3
370
    25
100
AcDbLine
 10
101.206195
 20
-192.434341
 30
0.0
 11
105.069898
 21
-193.469618
 31
0.0
  0
LINE
  5
23A
100
AcDbEntity
  8
3
370
    25
100
AcDbLine
 10
101.206195
 20
-192.434341
 30
0.0
 11
105.069898
 21
-191.399065
 31
0.0
  0
LINE
  5
23B
100
AcDbEntity
  8
3
370
    25
100
AcDbLine
 10
105.069898
 20
-193.469618
 30
0.0
 11
105.069898
 21
-191.399065
 31
0.0
  0
LINE
  5
23C
100
AcDbEntity
  8
3
370
    25
100
AcDbLine
 10
101.206195
 20
-192.434341
 30
0.0
 11
220.169572
 21
-192.434341
 31
0.0
  0
LINE
  5
23D
100
AcDbEntity
  8
3
370
    25
100
AcDbLine
 10
220.169572
 20
-192.434341
 30
0.0
 11
216.305868
 21
-191.399065
 31
0.0
  0
LINE
  5
23E
100
AcDbEntity
  8
3
370
    25
100
AcDbLine
 10
220.169572
 20
-192.434341
 30
0.0
 11
216.305868
 21
-193.469618
 31
0.0
  0
LINE
  5
23F
100
AcDbEntity
  8
3
370
    25
100
AcDbLine
 10
216.305868
 20
-191.399065
 30
0.0
 11
216.305868
 21
-193.469618
 31
0.0
  0
LINE
  5
240
100
AcDbEntity
  8
3
370
    25
100
AcDbLine
 10
220.169572
 20
-162.823227
 30
0.0
 11
220.169572
 21
-194.434341
 31
0.0
  0
ENDBLK
  5
241
100
AcDbEntity
  8
3
100
AcDbBlockEnd
  0
BLOCK
  5
242
100
AcDbEntity
  8
3
100
AcDbBlockBegin
  2
*D1
 70
     1
 10
0.0
 20
0.0
 30
0.0
  3
*D1
  1

  0
TEXT
  5
243
100
AcDbEntity
  8
3
370
    25
100
AcDbText
 10
88.079671
 20
-94.06442
 30
0.0
 40
7.0
  1
１０゜
 50
355.0
 72
     5
 11
107.605088
 21
-95.772673
 31
0.0
100
AcDbText
  0
LINE
  5
244
100
AcDbEntity
  8
3
370
    25
100
AcDbLine
 10
100.057342
 20
-71.01703
 30
0.0
 11
95.372586
 21
-97.585602
 31
0.0
  0
LINE
  5
245
100
AcDbEntity
  8
3
370
    25
100
AcDbLine
 10
101.206195
 20
-66.501561
 30
0.0
 11
101.206195
 21
-98.095976
 31
0.0
  0
LINE
  5
246
100
AcDbEntity
  8
3
370
    25
100
AcDbLine
 10
95.719882
 20
-95.615986
 30
0.0
 11
92.204799
 21
-93.70701
 31
0.0
  0
LINE
  5
247
100
AcDbEntity
  8
3
370
    25
100
AcDbLine
 10
95.719882
 20
-95.615986
 30
0.0
 11
91.721243
 21
-95.720306
 31
0.0
  0
LINE
  5
248
100
AcDbEntity
  8
3
370
    25
100
AcDbLine
 10
92.204799
 20
-93.70701
 30
0.0
 11
91.721243
 21
-95.720306
 31
0.0
  0
LINE
  5
249
100
AcDbEntity
  8
3
370
    25
100
AcDbLine
 10
101.206195
 20
-96.095976
 30
0.0
 11
105.125971
 21
-96.893068
 31
0.0
  0
LINE
  5
24A
100
AcDbEntity
  8
3
370
    25
100
AcDbLine
 10
101.206195
 20
-96.095976
 30
0.0
 11
104.999366
 21
-94.82639
 31
0.0
  0
LINE
  5
24B
100
AcDbEntity
  8
3
370
    25
100
AcDbLine
 10
105.125971
 20
-96.893068
 30
0.0
 11
104.999366
 21
-94.82639
 31
0.0
  0
ARC
  5
24C
100
AcDbEntity
  8
3
370
    25
100
AcDbCircle
 10
101.206195
 20
-64.501561
 30
0.0
 40
31.594415
100
AcDbArc
 50
242.436815
 51
287.563185
  0
ENDBLK
  5
24D
100
AcDbEntity
  8
3
100
AcDbBlockEnd
  0
BLOCK
  5
24E
100
AcDbEntity
  8
3
100
AcDbBlockBegin
  2
*D2
 70
     1
 10
0.0
 20
0.0
 30
0.0
  3
*D2
  1

  0
LINE
  5
24F
100
AcDbEntity
  8
3
370
    25
100
AcDbLine
 10
192.443572
 20
-104.380543
 30
0.0
 11
66.974257
 21
-104.380543
 31
0.0
  0
LINE
  5
250
100
AcDbEntity
  8
3
370
    25
100
AcDbLine
 10
68.974257
 20
-104.380543
 30
0.0
 11
70.009533
 21
-100.51684
 31
0.0
  0
LINE
  5
251
100
AcDbEntity
  8
3
370
    25
100
AcDbLine
 10
68.974257
 20
-104.380543
 30
0.0
 11
67.93898
 21
-100.51684
 31
0.0
  0
LINE
  5
252
100
AcDbEntity
  8
3
370
    25
100
AcDbLine
 10
70.009533
 20
-100.51684
 30
0.0
 11
67.93898
 21
-100.51684
 31
0.0
  0
LINE
  5
253
100
AcDbEntity
  8
3
370
    25
100
AcDbLine
 10
68.974257
 20
-104.380543
 30
0.0
 11
68.974257
 21
-64.501561
 31
0.0
  0
LINE
  5
254
100
AcDbEntity
  8
3
370
    25
100
AcDbLine
 10
68.974257
 20
-64.501561
 30
0.0
 11
67.93898
 21
-68.365265
 31
0.0
  0
LINE
  5
255
100
AcDbEntity
  8
3
370
    25
100
AcDbLine
 10
68.974257
 20
-64.501561
 30
0.0
 11
70.009533
 21
-68.365265
 31
0.0
  0
LINE
  5
256
100
AcDbEntity
  8
3
370
    25
100
AcDbLine
 10
67.93898
 20
-68.365265
 30
0.0
 11
70.009533
 21
-68.365265
 31
0.0
  0
LINE
  5
257
100
AcDbEntity
  8
3
370
    25
100
AcDbLine
 10
99.206195
 20
-64.501561
 30
0.0
 11
66.974257
 21
-64.501561
 31
0.0
  0
ENDBLK
  5
258
100
AcDbEntity
  8
3
100
AcDbBlockEnd
  0
BLOCK
  5
259
100
AcDbEntity
  8
3
100
AcDbBlockBegin
  2
*D3
 70
     1
 10
0.0
 20
0.0
 30
0.0
  3
*D3
  1

  0
LINE
  5
25A
100
AcDbEntity
  8
3
370
    25
100
AcDbLine
 10
192.443572
 20
-104.380543
 30
0.0
 11
54.616205
 21
-104.380543
 31
0.0
  0
LINE
  5
25B
100
AcDbEntity
  8
3
370
    25
100
AcDbLine
 10
56.616205
 20
-104.380543
 30
0.0
 11
57.651481
 21
-100.51684
 31
0.0
  0
LINE
  5
25C
100
AcDbEntity
  8
3
370
    25
100
AcDbLine
 10
56.616205
 20
-104.380543
 30
0.0
 11
55.580929
 21
-100.51684
 31
0.0
  0
LINE
  5
25D
100
AcDbEntity
  8
3
370
    25
100
AcDbLine
 10
57.651481
 20
-100.51684
 30
0.0
 11
55.580929
 21
-100.51684
 31
0.0
  0
LINE
  5
25E
100
AcDbEntity
  8
3
370
    25
100
AcDbLine
 10
56.616205
 20
-104.380543
 30
0.0
 11
56.616205
 21
18.004652
 31
0.0
  0
LINE
  5
25F
100
AcDbEntity
  8
3
370
    25
100
AcDbLine
 10
56.616205
 20
18.004652
 30
0.0
 11
55.580929
 21
14.140949
 31
0.0
  0
LINE
  5
260
100
AcDbEntity
  8
3
370
    25
100
AcDbLine
 10
56.616205
 20
18.004652
 30
0.0
 11
57.651481
 21
14.140949
 31
0.0
  0
LINE
  5
261
100
AcDbEntity
  8
3
370
    25
100
AcDbLine
 10
55.580929
 20
14.140949
 30
0.0
 11
57.651481
 21
14.140949
 31
0.0
  0
LINE
  5
262
100
AcDbEntity
  8
3
370
    25
100
AcDbLine
 10
90.550604
 20
18.004652
 30
0.0
 11
54.616205
 21
18.004652
 31
0.0
  0
ENDBLK
  5
263
100
AcDbEntity
  8
3
100
AcDbBlockEnd
  0
BLOCK
  5
264
100
AcDbEntity
  8
3
100
AcDbBlockBegin
  2
*D4
 70
     1
 10
0.0
 20
0.0
 30
0.0
  3
*D4
  1

  0
LINE
  5
265
100
AcDbEntity
  8
3
370
    25
100
AcDbLine
 10
192.443572
 20
-104.380543
 30
0.0
 11
40.893013
 21
-104.380543
 31
0.0
  0
LINE
  5
266
100
AcDbEntity
  8
3
370
    25
100
AcDbLine
 10
42.893013
 20
-104.380543
 30
0.0
 11
43.92829
 21
-100.51684
 31
0.0
  0
LINE
  5
267
100
AcDbEntity
  8
3
370
    25
100
AcDbLine
 10
42.893013
 20
-104.380543
 30
0.0
 11
41.857737
 21
-100.51684
 31
0.0
  0
LINE
  5
268
100
AcDbEntity
  8
3
370
    25
100
AcDbLine
 10
43.92829
 20
-100.51684
 30
0.0
 11
41.857737
 21
-100.51684
 31
0.0
  0
LINE
  5
269
100
AcDbEntity
  8
3
370
    25
100
AcDbLine
 10
42.893013
 20
-104.380543
 30
0.0
 11
42.893013
 21
50.774117
 31
0.0
  0
LINE
  5
26A
100
AcDbEntity
  8
3
370
    25
100
AcDbLine
 10
42.893013
 20
50.774117
 30
0.0
 11
41.857737
 21
46.910414
 31
0.0
  0
LINE
  5
26B
100
AcDbEntity
  8
3
370
    25
100
AcDbLine
 10
42.893013
 20
50.774117
 30
0.0
 11
43.92829
 21
46.910414
 31
0.0
  0
LINE
  5
26C
100
AcDbEntity
  8
3
370
    25
100
AcDbLine
 10
41.857737
 20
46.910414
 30
0.0
 11
43.92829
 21
46.910414
 31
0.0
  0
LINE
  5
26D
100
AcDbEntity
  8
3
370
    25
100
AcDbLine
 10
114.079223
 20
50.774117
 30
0.0
 11
40.893013
 21
50.774117
 31
0.0
  0
ENDBLK
  5
26E
100
AcDbEntity
  8
3
100
AcDbBlockEnd
  0
BLOCK
  5
26F
100
AcDbEntity
  8
3
100
AcDbBlockBegin
  2
*D5
 70
     1
 10
0.0
 20
0.0
 30
0.0
  3
*D5
  1

  0
LINE
  5
270
100
AcDbEntity
  8
3
370
    25
100
AcDbLine
 10
-174.060736
 20
-170.699997
 30
0.0
 11
-174.060736
 21
-184.527405
 31
0.0
  0
LINE
  5
271
100
AcDbEntity
  8
3
370
    25
100
AcDbLine
 10
-174.060736
 20
-182.527405
 30
0.0
 11
-170.197033
 21
-183.562681
 31
0.0
  0
LINE
  5
272
100
AcDbEntity
  8
3
370
    25
100
AcDbLine
 10
-174.060736
 20
-182.527405
 30
0.0
 11
-170.197033
 21
-181.492129
 31
0.0
  0
LINE
  5
273
100
AcDbEntity
  8
3
370
    25
100
AcDbLine
 10
-170.197033
 20
-183.562681
 30
0.0
 11
-170.197033
 21
-181.492129
 31
0.0
  0
LINE
  5
274
100
AcDbEntity
  8
3
370
    25
100
AcDbLine
 10
-174.060736
 20
-182.527405
 30
0.0
 11
-72.062239
 21
-182.527405
 31
0.0
  0
LINE
  5
275
100
AcDbEntity
  8
3
370
    25
100
AcDbLine
 10
-72.062239
 20
-182.527405
 30
0.0
 11
-75.925942
 21
-181.492129
 31
0.0
  0
LINE
  5
276
100
AcDbEntity
  8
3
370
    25
100
AcDbLine
 10
-72.062239
 20
-182.527405
 30
0.0
 11
-75.925942
 21
-183.562681
 31
0.0
  0
LINE
  5
277
100
AcDbEntity
  8
3
370
    25
100
AcDbLine
 10
-75.925942
 20
-181.492129
 30
0.0
 11
-75.925942
 21
-183.562681
 31
0.0
  0
LINE
  5
278
100
AcDbEntity
  8
3
370
    25
100
AcDbLine
 10
-72.062239
 20
-170.699997
 30
0.0
 11
-72.062239
 21
-184.527405
 31
0.0
  0
ENDBLK
  5
279
100
AcDbEntity
  8
3
100
AcDbBlockEnd
  0
BLOCK
  5
27A
100
AcDbEntity
  8
3
100
AcDbBlockBegin
  2
*D6
 70
     1
 10
0.0
 20
0.0
 30
0.0
  3
*D6
  1

  0
TEXT
  5
27B
100
AcDbEntity
  8
3
370
    25
100
AcDbText
 10
-133.561373
 20
239.514114
 30
0.0
 40
7.0
  1
１４２
 72
     5
 11
-113.961373
 21
239.514114
 31
0.0
100
AcDbText
  0
LINE
  5
27C
100
AcDbEntity
  8
3
370
    25
100
AcDbLine
 10
-194.061373
 20
203.724875
 30
0.0
 11
-194.061373
 21
240.514114
 31
0.0
  0
LINE
  5
27D
100
AcDbEntity
  8
3
370
    25
100
AcDbLine
 10
-194.061373
 20
238.514114
 30
0.0
 11
-190.19767
 21
237.478838
 31
0.0
  0
LINE
  5
27E
100
AcDbEntity
  8
3
370
    25
100
AcDbLine
 10
-194.061373
 20
238.514114
 30
0.0
 11
-190.19767
 21
239.549391
 31
0.0
  0
LINE
  5
27F
100
AcDbEntity
  8
3
370
    25
100
AcDbLine
 10
-190.19767
 20
237.478838
 30
0.0
 11
-190.19767
 21
239.549391
 31
0.0
  0
LINE
  5
280
100
AcDbEntity
  8
3
370
    25
100
AcDbLine
 10
-194.061373
 20
238.514114
 30
0.0
 11
-52.061373
 21
238.514114
 31
0.0
  0
LINE
  5
281
100
AcDbEntity
  8
3
370
    25
100
AcDbLine
 10
-52.061373
 20
238.514114
 30
0.0
 11
-55.925077
 21
239.549391
 31
0.0
  0
LINE
  5
282
100
AcDbEntity
  8
3
370
    25
100
AcDbLine
 10
-52.061373
 20
238.514114
 30
0.0
 11
-55.925077
 21
237.478838
 31
0.0
  0
LINE
  5
283
100
AcDbEntity
  8
3
370
    25
100
AcDbLine
 10
-55.925077
 20
239.549391
 30
0.0
 11
-55.925077
 21
237.478838
 31
0.0
  0
LINE
  5
284
100
AcDbEntity
  8
3
370
    25
100
AcDbLine
 10
-52.061373
 20
203.724875
 30
0.0
 11
-52.061373
 21
240.514114
 31
0.0
  0
ENDBLK
  5
285
100
AcDbEntity
  8
3
100
AcDbBlockEnd
  0
BLOCK
  5
286
100
AcDbEntity
  8
3
100
AcDbBlockBegin
  2
*D7
 70
     1
 10
0.0
 20
0.0
 30
0.0
  3
*D7
  1

  0
LINE
  5
287
100
AcDbEntity
  8
3
370
    25
100
AcDbLine
 10
194.443572
 20
-106.380543
 30
0.0
 11
194.443572
 21
-183.043671
 31
0.0
  0
LINE
  5
288
100
AcDbEntity
  8
3
370
    25
100
AcDbLine
 10
194.443572
 20
-181.043671
 30
0.0
 11
198.307275
 21
-182.078947
 31
0.0
  0
LINE
  5
289
100
AcDbEntity
  8
3
370
    25
100
AcDbLine
 10
194.443572
 20
-181.043671
 30
0.0
 11
198.307275
 21
-180.008394
 31
0.0
  0
LINE
  5
28A
100
AcDbEntity
  8
3
370
    25
100
AcDbLine
 10
198.307275
 20
-182.078947
 30
0.0
 11
198.307275
 21
-180.008394
 31
0.0
  0
LINE
  5
28B
100
AcDbEntity
  8
3
370
    25
100
AcDbLine
 10
194.443572
 20
-181.043671
 30
0.0
 11
241.497037
 21
-181.043671
 31
0.0
  0
LINE
  5
28C
100
AcDbEntity
  8
3
370
    25
100
AcDbLine
 10
241.497037
 20
-181.043671
 30
0.0
 11
237.633334
 21
-180.008394
 31
0.0
  0
LINE
  5
28D
100
AcDbEntity
  8
3
370
    25
100
AcDbLine
 10
241.497037
 20
-181.043671
 30
0.0
 11
237.633334
 21
-182.078947
 31
0.0
  0
LINE
  5
28E
100
AcDbEntity
  8
3
370
    25
100
AcDbLine
 10
237.633334
 20
-180.008394
 30
0.0
 11
237.633334
 21
-182.078947
 31
0.0
  0
LINE
  5
28F
100
AcDbEntity
  8
3
370
    25
100
AcDbLine
 10
241.497037
 20
-106.380543
 30
0.0
 11
241.497037
 21
-183.043671
 31
0.0
  0
ENDBLK
  5
290
100
AcDbEntity
  8
3
100
AcDbBlockEnd
  0
BLOCK
  5
291
100
AcDbEntity
  8
3
100
AcDbBlockBegin
  2
*D8
 70
     1
 10
0.0
 20
0.0
 30
0.0
  3
*D8
  1

  0
TEXT
  5
292
100
AcDbEntity
  8
3
370
    25
100
AcDbText
 10
-137.061373
 20
57.299382
 30
0.0
 40
7.0
  1
１００゜
 72
     5
 11
-110.461373
 21
57.299382
 31
0.0
100
AcDbText
  0
LINE
  5
293
100
AcDbEntity
  8
3
370
    25
100
AcDbLine
 10
-191.770508
 20
101.081554
 30
0.0
 11
-202.297932
 21
92.247996
 31
0.0
  0
LINE
  5
294
100
AcDbEntity
  8
3
370
    25
100
AcDbLine
 10
-54.801876
 20
101.458844
 30
0.0
 11
-43.824815
 21
92.247996
 31
0.0
  0
LINE
  5
295
100
AcDbEntity
  8
3
370
    25
100
AcDbLine
 10
-200.765843
 20
93.533571
 30
0.0
 11
-199.006634
 21
89.941193
 31
0.0
  0
LINE
  5
296
100
AcDbEntity
  8
3
370
    25
100
AcDbLine
 10
-200.765843
 20
93.533571
 30
0.0
 11
-197.446134
 21
91.302085
 31
0.0
  0
LINE
  5
297
100
AcDbEntity
  8
3
370
    25
100
AcDbLine
 10
-199.006634
 20
89.941193
 30
0.0
 11
-197.446134
 21
91.302085
 31
0.0
  0
LINE
  5
298
100
AcDbEntity
  8
3
370
    25
100
AcDbLine
 10
-45.356904
 20
93.533571
 30
0.0
 11
-48.676613
 21
91.302085
 31
0.0
  0
LINE
  5
299
100
AcDbEntity
  8
3
370
    25
100
AcDbLine
 10
-45.356904
 20
93.533571
 30
0.0
 11
-47.116113
 21
89.941193
 31
0.0
  0
LINE
  5
29A
100
AcDbEntity
  8
3
370
    25
100
AcDbLine
 10
-48.676613
 20
91.302085
 30
0.0
 11
-47.116113
 21
89.941193
 31
0.0
  0
ARC
  5
29B
100
AcDbEntity
  8
3
370
    25
100
AcDbCircle
 10
-123.061373
 20
158.735363
 30
0.0
 40
101.435981
100
AcDbArc
 50
220.0
 51
320.0
  0
ENDBLK
  5
29C
100
AcDbEntity
  8
3
100
AcDbBlockEnd
  0
BLOCK
  5
29D
100
AcDbEntity
  8
3
100
AcDbBlockBegin
  2
*D9
 70
     1
 10
0.0
 20
0.0
 30
0.0
  3
*D9
  1

  0
LINE
  5
29E
100
AcDbEntity
  8
3
370
    25
100
AcDbLine
 10
-55.741452
 20
-126.380051
 30
0.0
 11
-22.337643
 21
-126.380051
 31
0.0
  0
LINE
  5
29F
100
AcDbEntity
  8
3
370
    25
100
AcDbLine
 10
-24.337643
 20
-126.380051
 30
0.0
 11
-25.372919
 21
-130.243755
 31
0.0
  0
LINE
  5
2A0
100
AcDbEntity
  8
3
370
    25
100
AcDbLine
 10
-24.337643
 20
-126.380051
 30
0.0
 11
-23.302366
 21
-130.243755
 31
0.0
  0
LINE
  5
2A1
100
AcDbEntity
  8
3
370
    25
100
AcDbLine
 10
-25.372919
 20
-130.243755
 30
0.0
 11
-23.302366
 21
-130.243755
 31
0.0
  0
LINE
  5
2A2
100
AcDbEntity
  8
3
370
    25
100
AcDbLine
 10
-24.337643
 20
-136.380051
 30
0.0
 11
-24.337643
 21
-19.380018
 31
0.0
  0
LINE
  5
2A3
100
AcDbEntity
  8
3
370
    25
100
AcDbLine
 10
-24.337643
 20
-104.380018
 30
0.0
 11
-23.302366
 21
-100.516314
 31
0.0
  0
LINE
  5
2A4
100
AcDbEntity
  8
3
370
    25
100
AcDbLine
 10
-24.337643
 20
-104.380018
 30
0.0
 11
-25.372919
 21
-100.516314
 31
0.0
  0
LINE
  5
2A5
100
AcDbEntity
  8
3
370
    25
100
AcDbLine
 10
-23.302366
 20
-100.516314
 30
0.0
 11
-25.372919
 21
-100.516314
 31
0.0
  0
LINE
  5
2A6
100
AcDbEntity
  8
3
370
    25
100
AcDbLine
 10
-50.061487
 20
-104.380018
 30
0.0
 11
-22.337643
 21
-104.380018
 31
0.0
  0
ENDBLK
  5
2A7
100
AcDbEntity
  8
3
100
AcDbBlockEnd
  0
BLOCK
  5
2A8
100
AcDbEntity
  8
3
100
AcDbBlockBegin
  2
*D10
 70
     1
 10
0.0
 20
0.0
 30
0.0
  3
*D10
  1

  0
LINE
  5
2A9
100
AcDbEntity
  8
3
370
    25
100
AcDbLine
 10
-176.060736
 20
-159.880018
 30
0.0
 11
-210.36937
 21
-159.880018
 31
0.0
  0
LINE
  5
2AA
100
AcDbEntity
  8
3
370
    25
100
AcDbLine
 10
-208.36937
 20
-159.880018
 30
0.0
 11
-207.334093
 21
-156.016314
 31
0.0
  0
LINE
  5
2AB
100
AcDbEntity
  8
3
370
    25
100
AcDbLine
 10
-208.36937
 20
-159.880018
 30
0.0
 11
-209.404646
 21
-156.016314
 31
0.0
  0
LINE
  5
2AC
100
AcDbEntity
  8
3
370
    25
100
AcDbLine
 10
-207.334093
 20
-156.016314
 30
0.0
 11
-209.404646
 21
-156.016314
 31
0.0
  0
LINE
  5
2AD
100
AcDbEntity
  8
3
370
    25
100
AcDbLine
 10
-208.36937
 20
-159.880018
 30
0.0
 11
-208.36937
 21
-104.380018
 31
0.0
  0
LINE
  5
2AE
100
AcDbEntity
  8
3
370
    25
100
AcDbLine
 10
-208.36937
 20
-104.380018
 30
0.0
 11
-209.404646
 21
-108.243721
 31
0.0
  0
LINE
  5
2AF
100
AcDbEntity
  8
3
370
    25
100
AcDbLine
 10
-208.36937
 20
-104.380018
 30
0.0
 11
-207.334093
 21
-108.243721
 31
0.0
  0
LINE
  5
2B0
100
AcDbEntity
  8
3
370
    25
100
AcDbLine
 10
-209.404646
 20
-108.243721
 30
0.0
 11
-207.334093
 21
-108.243721
 31
0.0
  0
LINE
  5
2B1
100
AcDbEntity
  8
3
370
    25
100
AcDbLine
 10
-196.061487
 20
-104.380018
 30
0.0
 11
-210.36937
 21
-104.380018
 31
0.0
  0
ENDBLK
  5
2B2
100
AcDbEntity
  8
3
100
AcDbBlockEnd
  0
BLOCK
  5
2B3
100
AcDbEntity
  8
3
100
AcDbBlockBegin
  2
*D11
 70
     1
 10
0.0
 20
0.0
 30
0.0
  3
*D11
  1

  0
LINE
  5
2B4
100
AcDbEntity
  8
3
370
    25
100
AcDbLine
 10
147.5245
 20
-72.797341
 30
0.0
 11
147.5245
 21
-120.706741
 31
0.0
  0
LINE
  5
2B5
100
AcDbEntity
  8
3
370
    25
100
AcDbLine
 10
147.5245
 20
-118.706741
 30
0.0
 11
151.388203
 21
-119.742018
 31
0.0
  0
LINE
  5
2B6
100
AcDbEntity
  8
3
370
    25
100
AcDbLine
 10
147.5245
 20
-118.706741
 30
0.0
 11
151.388203
 21
-117.671465
 31
0.0
  0
LINE
  5
2B7
100
AcDbEntity
  8
3
370
    25
100
AcDbLine
 10
151.388203
 20
-119.742018
 30
0.0
 11
151.388203
 21
-117.671465
 31
0.0
  0
LINE
  5
2B8
100
AcDbEntity
  8
3
370
    25
100
AcDbLine
 10
147.5245
 20
-118.706741
 30
0.0
 11
220.169572
 21
-118.706741
 31
0.0
  0
LINE
  5
2B9
100
AcDbEntity
  8
3
370
    25
100
AcDbLine
 10
220.169572
 20
-118.706741
 30
0.0
 11
216.305868
 21
-117.671465
 31
0.0
  0
LINE
  5
2BA
100
AcDbEntity
  8
3
370
    25
100
AcDbLine
 10
220.169572
 20
-118.706741
 30
0.0
 11
216.305868
 21
-119.742018
 31
0.0
  0
LINE
  5
2BB
100
AcDbEntity
  8
3
370
    25
100
AcDbLine
 10
216.305868
 20
-117.671465
 30
0.0
 11
216.305868
 21
-119.742018
 31
0.0
  0
ENDBLK
  5
2BC
100
AcDbEntity
  8
3
100
AcDbBlockEnd
  0
BLOCK
  5
2BD
100
AcDbEntity
  8
3
100
AcDbBlockBegin
  2
*D12
 70
     1
 10
0.0
 20
0.0
 30
0.0
  3
*D12
  1

  0
LINE
  5
2BE
100
AcDbEntity
  8
3
370
    25
100
AcDbLine
 10
192.443572
 20
-104.380543
 30
0.0
 11
129.586334
 21
-104.380543
 31
0.0
  0
LINE
  5
2BF
100
AcDbEntity
  8
3
370
    25
100
AcDbLine
 10
131.586334
 20
-104.380543
 30
0.0
 11
132.62161
 21
-100.51684
 31
0.0
  0
LINE
  5
2C0
100
AcDbEntity
  8
3
370
    25
100
AcDbLine
 10
131.586334
 20
-104.380543
 30
0.0
 11
130.551058
 21
-100.51684
 31
0.0
  0
LINE
  5
2C1
100
AcDbEntity
  8
3
370
    25
100
AcDbLine
 10
132.62161
 20
-100.51684
 30
0.0
 11
130.551058
 21
-100.51684
 31
0.0
  0
LINE
  5
2C2
100
AcDbEntity
  8
3
370
    25
100
AcDbLine
 10
131.586334
 20
-104.380543
 30
0.0
 11
131.586334
 21
-70.797341
 31
0.0
  0
LINE
  5
2C3
100
AcDbEntity
  8
3
370
    25
100
AcDbLine
 10
131.586334
 20
-70.797341
 30
0.0
 11
130.551058
 21
-74.661044
 31
0.0
  0
LINE
  5
2C4
100
AcDbEntity
  8
3
370
    25
100
AcDbLine
 10
131.586334
 20
-70.797341
 30
0.0
 11
132.62161
 21
-74.661044
 31
0.0
  0
LINE
  5
2C5
100
AcDbEntity
  8
3
370
    25
100
AcDbLine
 10
130.551058
 20
-74.661044
 30
0.0
 11
132.62161
 21
-74.661044
 31
0.0
  0
LINE
  5
2C6
100
AcDbEntity
  8
3
370
    25
100
AcDbLine
 10
145.5245
 20
-70.797341
 30
0.0
 11
129.586334
 21
-70.797341
 31
0.0
  0
ENDBLK
  5
2C7
100
AcDbEntity
  8
3
100
AcDbBlockEnd
  0
ENDSEC
  0
SECTION
  2
ENTITIES
  0
LINE
  5
31
100
AcDbEntity
  8
1
370
   100
100
AcDbLine
 10
-373.02157
 20
275.028767
 30
0.0
 11
394.982385
 21
275.028767
 31
0.0
  0
LINE
  5
32
100
AcDbEntity
  8
1
370
   100
100
AcDbLine
 10
-373.02157
 20
275.028767
 30
0.0
 11
-373.02157
 21
-277.971881
 31
0.0
  0
LINE
  5
33
100
AcDbEntity
  8
1
370
   100
100
AcDbLine
 10
-373.02157
 20
-277.971881
 30
0.0
 11
394.982385
 21
-277.971881
 31
0.0
  0
LINE
  5
34
100
AcDbEntity
  8
1
370
   100
100
AcDbLine
 10
394.982385
 20
-277.971881
 30
0.0
 11
394.982385
 21
275.028767
 31
0.0
  0
TEXT
  5
35
100
AcDbEntity
  8
1
370
    50
100
AcDbText
 10
359.628442
 20
-226.252857
 30
0.0
 40
6.0
  1
設計
 72
     5
 11
370.428442
 21
-226.252857
 31
0.0
100
AcDbText
  0
TEXT
  5
36
100
AcDbEntity
  8
1
370
    50
100
AcDbText
 10
379.127478
 20
-226.099658
 30
0.0
 40
6.0
  1
製図
 72
     5
 11
389.927478
 21
-226.099658
 31
0.0
100
AcDbText
  0
TEXT
  5
37
100
AcDbEntity
  8
1
370
    50
100
AcDbText
 10
319.005745
 20
-226.252857
 30
0.0
 40
6.0
  1
承認
 72
     5
 11
329.805745
 21
-226.252857
 31
0.0
100
AcDbText
  0
TEXT
  5
38
100
AcDbEntity
  8
1
370
    50
100
AcDbText
 10
338.989679
 20
-226.19802
 30
0.0
 40
6.0
  1
検図
 72
     5
 11
349.789679
 21
-226.19802
 31
0.0
100
AcDbText
  0
LINE
  5
39
100
AcDbEntity
  8
1
370
    25
100
AcDbLine
 10
284.982385
 20
-227.971881
 30
0.0
 11
394.982385
 21
-227.971881
 31
0.0
  0
LINE
  5
3A
100
AcDbEntity
  8
1
370
    25
100
AcDbLine
 10
342.482385
 20
-245.971881
 30
0.0
 11
342.482385
 21
-259.971881
 31
0.0
  0
TEXT
  5
3B
100
AcDbEntity
  8
1
370
    50
100
AcDbText
 10
319.55159
 20
-256.012528
 30
0.0
 40
6.0
  1
日　付
 72
     5
 11
336.35159
 21
-256.012528
 31
0.0
100
AcDbText
  0
LINE
  5
3C
100
AcDbEntity
  8
1
370
    50
100
AcDbLine
 10
40.982385
 20
-259.971881
 30
0.0
 11
394.982385
 21
-259.971881
 31
0.0
  0
TEXT
  5
3D
100
AcDbEntity
  8
1
370
    50
100
AcDbText
 10
287.775011
 20
-256.322406
 30
0.0
 40
6.0
  1
第三角法
 72
     5
 11
310.575011
 21
-256.322406
 31
0.0
100
AcDbText
  0
TEXT
  5
3E
100
AcDbEntity
  8
1
370
    50
100
AcDbText
 10
291.087419
 20
-225.99802
 30
0.0
 40
6.0
  1
尺　度
 72
     5
 11
307.887419
 21
-225.99802
 31
0.0
100
AcDbText
  0
LINE
  5
3F
100
AcDbEntity
  8
1
370
   100
100
AcDbLine
 10
40.982385
 20
-217.971881
 30
0.0
 11
394.982385
 21
-217.971881
 31
0.0
  0
LINE
  5
40
100
AcDbEntity
  8
1
370
    50
100
AcDbLine
 10
211.982385
 20
-217.971881
 30
0.0
 11
211.982385
 21
-277.971881
 31
0.0
  0
LINE
  5
41
100
AcDbEntity
  8
1
370
    25
100
AcDbLine
 10
374.982385
 20
-245.971881
 30
0.0
 11
374.982385
 21
-217.971881
 31
0.0
  0
LINE
  5
42
100
AcDbEntity
  8
1
370
    25
100
AcDbLine
 10
354.982385
 20
-245.971881
 30
0.0
 11
354.982385
 21
-217.971881
 31
0.0
  0
LINE
  5
43
100
AcDbEntity
  8
1
370
    25
100
AcDbLine
 10
334.982385
 20
-245.971881
 30
0.0
 11
334.982385
 21
-217.971881
 31
0.0
  0
LINE
  5
44
100
AcDbEntity
  8
1
370
    50
100
AcDbLine
 10
284.982385
 20
-277.971881
 30
0.0
 11
284.982385
 21
-217.971881
 31
0.0
  0
LINE
  5
45
100
AcDbEntity
  8
1
370
    50
100
AcDbLine
 10
189.982385
 20
-217.971881
 30
0.0
 11
189.982385
 21
-277.971881
 31
0.0
  0
LINE
  5
46
100
AcDbEntity
  8
1
370
    50
100
AcDbLine
 10
62.982385
 20
-217.971881
 30
0.0
 11
62.982385
 21
-259.971881
 31
0.0
  0
LINE
  5
47
100
AcDbEntity
  8
1
370
    50
100
AcDbLine
 10
284.982385
 20
-245.971881
 30
0.0
 11
394.982385
 21
-245.971881
 31
0.0
  0
TEXT
  5
48
100
AcDbEntity
  8
1
370
    50
100
AcDbText
 10
287.101129
 20
-271.880939
 30
0.0
 40
6.0
  1
コードＮｏ
 41
0.9
 72
     5
 11
313.021129
 21
-271.880939
 31
0.0
100
AcDbText
  0
TEXT
  5
49
100
AcDbEntity
  8
1
370
   100
100
AcDbText
 10
52.886774
 20
-272.875659
 30
0.0
 40
8.0
  1
ミズタニバルブ工業株式会社
 41
1.2
 72
     5
 11
175.766774
 21
-272.875659
 31
0.0
100
AcDbText
  0
LINE
  5
4A
100
AcDbEntity
  8
1
370
    50
100
AcDbLine
 10
40.982385
 20
-238.971881
 30
0.0
 11
284.982385
 21
-238.971881
 31
0.0
  0
LINE
  5
4B
100
AcDbEntity
  8
1
370
    50
100
AcDbLine
 10
115.482385
 20
-238.971881
 30
0.0
 11
115.482385
 21
-259.971881
 31
0.0
  0
LINE
  5
4C
100
AcDbEntity
  8
1
370
    50
100
AcDbLine
 10
137.482385
 20
-238.971881
 30
0.0
 11
137.482385
 21
-259.971881
 31
0.0
  0
LINE
  5
4D
100
AcDbEntity
  8
1
370
    50
100
AcDbLine
 10
314.982385
 20
-277.971881
 30
0.0
 11
314.982385
 21
-217.971881
 31
0.0
  0
TEXT
  5
4E
100
AcDbEntity
  8
1
370
    50
100
AcDbText
 10
345.098131
 20
-256.100293
 30
0.0
 40
6.0
  1
　　・　　・
 72
     5
 11
379.898131
 21
-256.100293
 31
0.0
100
AcDbText
  0
LINE
  5
4F
100
AcDbEntity
  8
1
370
   100
100
AcDbLine
 10
40.982385
 20
-217.971881
 30
0.0
 11
40.982385
 21
-277.971881
 31
0.0
  0
TEXT
  5
50
100
AcDbEntity
  8
1
370
    50
100
AcDbText
 10
290.832582
 20
-240.013492
 30
0.0
 40
6.0
  1
　／ 
 72
     5
 11
301.632582
 21
-240.013492
 31
0.0
100
AcDbText
  0
TEXT
  5
51
100
AcDbEntity
  8
1
370
    50
100
AcDbText
 10
193.904123
 20
-272.024909
 30
0.0
 40
6.0
  1
備 考 
 72
     5
 11
207.704123
 21
-272.024909
 31
0.0
100
AcDbText
  0
TEXT
  5
52
100
AcDbEntity
  8
1
370
    50
100
AcDbText
 10
193.512534
 20
-230.89184
 30
0.0
 40
6.0
  1
仕 上
 72
     5
 11
207.312534
 21
-230.89184
 31
0.0
100
AcDbText
  0
TEXT
  5
53
100
AcDbEntity
  8
1
370
    50
100
AcDbText
 10
193.447176
 20
-248.891666
 30
0.0
 40
6.0
  1
表 面
 72
     5
 11
207.247176
 21
-248.891666
 31
0.0
100
AcDbText
  0
TEXT
  5
54
100
AcDbEntity
  8
1
370
    50
100
AcDbText
 10
193.447176
 20
-255.891666
 30
0.0
 40
6.0
  1
処 理
 72
     5
 11
207.247176
 21
-255.891666
 31
0.0
100
AcDbText
  0
TEXT
  5
55
100
AcDbEntity
  8
1
370
    50
100
AcDbText
 10
44.79335
 20
-231.693399
 30
0.0
 40
6.0
  1
品 名
 72
     5
 11
58.59335
 21
-231.693399
 31
0.0
100
AcDbText
  0
TEXT
  5
56
100
AcDbEntity
  8
1
370
    50
100
AcDbText
 10
44.397766
 20
-252.462534
 30
0.0
 40
6.0
  1
材 質
 72
     5
 11
58.197766
 21
-252.462534
 31
0.0
100
AcDbText
  0
TEXT
  5
57
100
AcDbEntity
  8
1
370
    50
100
AcDbText
 10
118.897766
 20
-252.462534
 30
0.0
 40
6.0
  1
規 格
 72
     5
 11
132.697766
 21
-252.462534
 31
0.0
100
AcDbText
  0
LINE
  5
58
100
AcDbEntity
  8
2
370
    25
  6
CENTER
100
AcDbLine
 10
-174.061373
 20
179.527496
 30
0.0
 11
-174.061373
 21
224.214417
 31
0.0
  0
LINE
  5
59
100
AcDbEntity
  8
2
370
    25
  6
CENTER
100
AcDbLine
 10
-72.061373
 20
179.170013
 30
0.0
 11
-72.061373
 21
226.359329
 31
0.0
  0
LINE
  5
5A
100
AcDbEntity
  8
2
370
    25
  6
CENTER
100
AcDbLine
 10
-123.061373
 20
66.698578
 30
0.0
 11
-123.061373
 21
230.052816
 31
0.0
  0
ARC
  5
5B
100
AcDbEntity
  8
2
370
    50
100
AcDbCircle
 10
-174.061373
 20
201.724875
 30
0.0
 40
20.0
100
AcDbArc
 50
92.981359
 51
257.188799
  0
ARC
  5
5C
100
AcDbEntity
  8
2
370
    50
100
AcDbCircle
 10
-72.061373
 20
201.724875
 30
0.0
 40
20.0
100
AcDbArc
 50
282.811201
 51
87.018641
  0
LINE
  5
5D
100
AcDbEntity
  8
2
370
    25
  6
CENTER
100
AcDbLine
 10
-49.89183
 20
201.724875
 30
0.0
 11
-201.061373
 21
201.724875
 31
0.0
  0
ARC
  5
5E
100
AcDbEntity
  8
2
370
    50
100
AcDbCircle
 10
-123.061373
 20
-777.508759
 30
0.0
 40
1000.560814
100
AcDbArc
 50
87.018641
 51
92.981359
  0
ARC
  5
5F
100
AcDbEntity
  8
2
370
    50
100
AcDbCircle
 10
-123.061373
 20
425.972313
 30
0.0
 40
249.973724
100
AcDbArc
 50
257.18731
 51
262.203178
  0
ARC
  5
60
100
AcDbEntity
  8
2
370
    50
100
AcDbCircle
 10
-123.061373
 20
425.972313
 30
0.0
 40
249.973724
100
AcDbArc
 50
277.796822
 51
282.81269
  0
ARC
  5
61
100
AcDbEntity
  8
2
370
    50
100
AcDbCircle
 10
-123.061373
 20
84.827655
 30
0.0
 40
16.0
100
AcDbArc
 50
186.414462
 51
353.585538
  0
ELLIPSE
  5
62
100
AcDbEntity
  8
2
370
    25
100
AcDbEllipse
 10
-123.061373
 20
169.402173
 30
0.0
 11
23.446000000000002
 21
0.0
 31
0.0
210
0.0
220
0.0
230
1.0
 40
0.984816
 41
0.45368
 42
2.7630669999999999
  0
ARC
  5
63
100
AcDbEntity
  8
2
370
    50
100
AcDbCircle
 10
-2094.64104
 20
306.479675
 30
0.0
 40
2000.0
100
AcDbArc
 50
353.585538
 51
356.008301
  0
ARC
  5
64
100
AcDbEntity
  8
2
370
    50
100
AcDbCircle
 10
-87.521858
 20
166.420441
 30
0.0
 40
12.0
100
AcDbArc
 50
97.796822
 51
176.008301
  0
ARC
  5
65
100
AcDbEntity
  8
2
370
    50
100
AcDbCircle
 10
1848.518293
 20
306.479675
 30
0.0
 40
2000.0
100
AcDbArc
 50
183.991699
 51
186.414462
  0
ARC
  5
66
100
AcDbEntity
  8
2
370
    50
100
AcDbCircle
 10
-158.600889
 20
166.420441
 30
0.0
 40
12.0
100
AcDbArc
 50
3.991699
 51
82.203178
  0
LINE
  5
67
100
AcDbEntity
  8
2
370
    50
100
AcDbLine
 10
194.443572
 20
-104.380543
 30
0.0
 11
241.497037
 21
-104.380543
 31
0.0
  0
LINE
  5
68
100
AcDbEntity
  8
2
370
    25
  6
CENTER
100
AcDbLine
 10
220.169572
 20
-169.005808
 30
0.0
 11
220.169572
 21
-79.184813
 31
0.0
  0
ARC
  5
69
100
AcDbEntity
  8
2
370
    50
100
AcDbCircle
 10
192.506834
 20
-114.378544
 30
0.0
 40
50.0
100
AcDbArc
 50
11.534621
 51
29.177514
  0
ARC
  5
6A
100
AcDbEntity
  8
2
370
    50
100
AcDbCircle
 10
227.431373
 20
-94.877862
 30
0.0
 40
10.0
100
AcDbArc
 50
29.177514
 51
84.128942
  0
POINT
  5
6B
100
AcDbEntity
  8
2
370
    50
100
AcDbPoint
 10
220.169572
 20
-104.380543
 30
0.0
  0
LINE
  5
6C
100
AcDbEntity
  8
2
370
    25
100
AcDbLine
 10
211.993598
 20
-88.464543
 30
0.0
 11
229.204853
 21
-88.464543
 31
0.0
  0
ARC
  5
6D
100
AcDbEntity
  8
2
370
    25
100
AcDbCircle
 10
248.691617
 20
-114.378544
 30
0.0
 40
50.0
100
AcDbArc
 50
156.556159
 51
168.465379
  0
ARC
  5
6E
100
AcDbEntity
  8
2
370
    25
100
AcDbCircle
 10
229.204853
 20
-98.464543
 30
0.0
 40
10.0
100
AcDbArc
 50
23.443841
 51
90.0
  0
ARC
  5
6F
100
AcDbEntity
  8
2
370
    25
100
AcDbCircle
 10
211.993598
 20
-98.464543
 30
0.0
 40
10.0
100
AcDbArc
 50
90.0
 51
156.556159
  0
LINE
  5
70
100
AcDbEntity
  8
2
370
    25
100
AcDbLine
 10
205.931068
 20
-88.464543
 30
0.0
 11
196.449559
 21
-78.983034
 31
0.0
  0
LINE
  5
71
100
AcDbEntity
  8
2
370
    50
100
AcDbLine
 10
156.996205
 20
-22.113979
 30
0.0
 11
199.342938
 21
-14.647108
 31
0.0
  0
LINE
  5
72
100
AcDbEntity
  8
2
370
    50
100
AcDbLine
 10
199.342938
 20
-14.647108
 30
0.0
 11
210.937123
 21
-69.193458
 31
0.0
  0
ARC
  5
73
100
AcDbEntity
  8
2
370
    50
100
AcDbCircle
 10
230.500075
 20
-65.035224
 30
0.0
 40
20.0
100
AcDbArc
 50
192.0
 51
264.128942
  0
LINE
  5
74
100
AcDbEntity
  8
2
370
    50
100
AcDbLine
 10
88.512165
 20
-53.124422
 30
0.0
 11
117.670585
 21
-58.265838
 31
0.0
  0
ARC
  5
75
100
AcDbEntity
  8
2
370
    50
100
AcDbCircle
 10
136.252492
 20
-61.54233
 30
0.0
 40
50.0
100
AcDbArc
 50
158.885004
 51
168.227683
  0
ARC
  5
76
100
AcDbEntity
  8
2
370
    50
100
AcDbCircle
 10
88.772637
 20
-51.64721
 30
0.0
 40
1.5
100
AcDbArc
 50
168.227683
 51
260.0
  0
ARC
  5
77
100
AcDbEntity
  8
2
370
    50
100
AcDbCircle
 10
95.964563
 20
-181.366807
 30
0.0
 40
125.0
100
AcDbArc
 50
38.016627
 51
80.000001
  0
LINE
  5
78
100
AcDbEntity
  8
2
370
    50
100
AcDbLine
 10
100.156814
 20
-37.207229
 30
0.0
 11
147.217614
 21
-42.985568
 31
0.0
  0
ARC
  5
79
100
AcDbEntity
  8
2
370
    50
100
AcDbCircle
 10
98.938121
 20
-47.13269
 30
0.0
 40
10.0
100
AcDbArc
 50
83.0
 51
158.885004
  0
LINE
  5
7A
100
AcDbEntity
  8
2
370
    25
  6
CENTER
100
AcDbLine
 10
103.422594
 20
-51.931737
 30
0.0
 11
100.404638
 21
-69.047415
 31
0.0
  0
LINE
  5
7B
100
AcDbEntity
  8
2
370
    50
100
AcDbLine
 10
156.996205
 20
-22.113979
 30
0.0
 11
158.338988
 21
-31.668376
 31
0.0
  0
ARC
  5
7C
100
AcDbEntity
  8
2
370
    50
100
AcDbCircle
 10
148.436307
 20
-33.060107
 30
0.0
 40
10.0
100
AcDbArc
 50
263.0
 51
8.0
  0
LINE
  5
7D
100
AcDbEntity
  8
2
370
    50
100
AcDbLine
 10
-52.061487
 20
-104.380018
 30
0.0
 11
-123.061487
 21
-104.380018
 31
0.0
  0
LINE
  5
7E
100
AcDbEntity
  8
2
370
    25
  6
CENTER
100
AcDbLine
 10
-123.061487
 20
20.879829
 30
0.0
 11
-123.061487
 21
-111.03712
 31
0.0
  0
POINT
  5
7F
100
AcDbEntity
  8
2
370
    50
100
AcDbPoint
 10
-123.061487
 20
-104.380018
 30
0.0
  0
ARC
  5
80
100
AcDbEntity
  8
2
370
    50
100
AcDbCircle
 10
-101.05169
 20
-114.378018
 30
0.0
 40
50.0
100
AcDbArc
 50
11.534621
 51
22.021223
  0
ARC
  5
81
100
AcDbEntity
  8
2
370
    50
100
AcDbCircle
 10
-63.969889
 20
-99.380018
 30
0.0
 40
10.0
100
AcDbArc
 50
22.021223
 51
84.101526
  0
LINE
  5
82
100
AcDbEntity
  8
2
370
    25
100
AcDbLine
 10
-107.075727
 20
-50.186488
 30
0.0
 11
-107.075727
 21
-47.519913
 31
0.0
  0
ARC
  5
83
100
AcDbEntity
  8
2
370
    50
100
AcDbCircle
 10
-123.061487
 20
-67.132165
 30
0.0
 40
30.0
100
AcDbArc
 50
72.542397
 51
90.0
  0
ARC
  5
84
100
AcDbEntity
  8
2
370
    25
100
AcDbCircle
 10
-117.061487
 20
-48.053381
 30
0.0
 40
10.0
100
AcDbArc
 50
3.057995
 51
16.608543
  0
ARC
  5
85
100
AcDbEntity
  8
2
370
    50
100
AcDbCircle
 10
-117.061487
 20
-48.053381
 30
0.0
 40
10.0
100
AcDbArc
 50
33.493313
 51
72.542397
  0
LINE
  5
86
100
AcDbEntity
  8
2
370
    50
100
AcDbLine
 10
-101.561487
 20
-18.380018
 30
0.0
 11
-99.808435
 21
-68.580861
 31
0.0
  0
LINE
  5
87
100
AcDbEntity
  8
2
370
    50
100
AcDbLine
 10
-107.068809
 20
-55.553734
 30
0.0
 11
-99.713277
 21
-97.753721
 31
0.0
  0
ARC
  5
88
100
AcDbEntity
  8
2
370
    50
100
AcDbCircle
 10
-91.8321
 20
-96.380018
 30
0.0
 40
8.0
100
AcDbArc
 50
189.887424
 51
270.0
  0
ELLIPSE
  5
89
100
AcDbEntity
  8
2
370
    50
100
AcDbEllipse
 10
-123.061487
 20
-18.380018
 30
0.0
 11
21.5
 21
0.0
 31
0.0
210
0.0
220
0.0
230
1.0
 40
0.173651
 41
4.7123889999999999
 42
0.219269
  0
ELLIPSE
  5
8A
100
AcDbEntity
  8
2
370
    50
100
AcDbEllipse
 10
-123.061487
 20
-55.637766
 30
0.0
 11
16.0
 21
0.0
 31
0.0
210
0.0
220
0.0
230
1.0
 40
0.173625
 41
0.030254
 42
1.5707960000000001
  0
LINE
  5
8B
100
AcDbEntity
  8
2
370
    50
100
AcDbLine
 10
-108.721985
 20
-42.534984
 30
0.0
 11
-103.367238
 21
-50.627176
 31
0.0
  0
ELLIPSE
  5
8C
100
AcDbEntity
  8
2
370
    50
100
AcDbEllipse
 10
-123.061487
 20
-55.637766
 30
0.0
 11
12.25
 21
0.0
 31
0.0
210
0.0
220
0.0
230
1.0
 40
0.173633
 41
6.0808099999999996
 42
1.5707960000000001
  0
LINE
  5
8D
100
AcDbEntity
  8
2
370
    50
100
AcDbLine
 10
91.443739
 20
-53.641338
 30
0.0
 11
91.356915
 21
-54.133741
 31
0.0
  0
LINE
  5
8E
100
AcDbEntity
  8
2
370
    50
100
AcDbLine
 10
90.864511
 20
-54.046917
 30
0.0
 11
102.682204
 21
-56.130696
 31
0.0
  0
LINE
  5
8F
100
AcDbEntity
  8
2
370
    50
100
AcDbLine
 10
90.864511
 20
-54.046917
 30
0.0
 11
89.475326
 21
-61.925379
 31
0.0
  0
LINE
  5
90
100
AcDbEntity
  8
2
370
    50
100
AcDbLine
 10
89.475326
 20
-61.925379
 30
0.0
 11
89.880906
 21
-62.504607
 31
0.0
  0
LINE
  5
91
100
AcDbEntity
  8
2
370
    50
100
AcDbLine
 10
89.880906
 20
-62.504607
 30
0.0
 11
101.206195
 21
-64.501561
 31
0.0
  0
LINE
  5
92
100
AcDbEntity
  8
2
370
    50
100
AcDbLine
 10
112.531484
 20
-66.498515
 30
0.0
 11
101.206195
 21
-64.501561
 31
0.0
  0
LINE
  5
93
100
AcDbEntity
  8
2
370
    50
100
AcDbLine
 10
113.110712
 20
-66.092936
 30
0.0
 11
112.531484
 21
-66.498515
 31
0.0
  0
LINE
  5
94
100
AcDbEntity
  8
2
370
    50
100
AcDbLine
 10
114.499897
 20
-58.214474
 30
0.0
 11
113.110712
 21
-66.092936
 31
0.0
  0
LINE
  5
95
100
AcDbEntity
  8
2
370
    50
100
AcDbLine
 10
114.499897
 20
-58.214474
 30
0.0
 11
102.682204
 21
-56.130696
 31
0.0
  0
LINE
  5
96
100
AcDbEntity
  8
2
370
    50
100
AcDbLine
 10
114.094318
 20
-57.635246
 30
0.0
 11
114.007493
 21
-58.12765
 31
0.0
  0
LINE
  5
97
100
AcDbEntity
  8
2
370
    50
100
AcDbLine
 10
177.179777
 20
-12.767139
 30
0.0
 11
155.021603
 21
-16.674223
 31
0.0
  0
LINE
  5
98
100
AcDbEntity
  8
2
370
    50
100
AcDbLine
 10
155.021603
 20
-16.674223
 30
0.0
 11
151.895935
 21
1.052316
 31
0.0
  0
LINE
  5
99
100
AcDbEntity
  8
2
370
    50
100
AcDbLine
 10
93.358823
 20
13.421016
 30
0.0
 11
92.646638
 21
17.460018
 31
0.0
  0
ARC
  5
9A
100
AcDbEntity
  8
2
370
    50
100
AcDbCircle
 10
113.127308
 20
-256.224448
 30
0.0
 40
275.0
100
AcDbArc
 50
75.198631
 51
94.175802
  0
LINE
  5
9B
100
AcDbEntity
  8
2
370
    50
100
AcDbLine
 10
93.980636
 20
13.024877
 30
0.0
 11
102.180114
 21
15.221921
 31
0.0
  0
ARC
  5
9C
100
AcDbEntity
  8
2
370
    50
100
AcDbCircle
 10
141.108877
 20
-1.101602
 30
0.0
 40
11.0
100
AcDbArc
 50
11.292088
 51
78.691952
  0
ARC
  5
9D
100
AcDbEntity
  8
2
370
    50
100
AcDbCircle
 10
107.750791
 20
-98.641891
 30
0.0
 40
114.0
100
AcDbArc
 50
71.848229
 51
92.800907
  0
ARC
  5
9E
100
AcDbEntity
  8
2
370
    50
100
AcDbCircle
 10
93.139042
 20
17.546842
 30
0.0
 40
0.5
100
AcDbArc
 50
94.175802
 51
190.0
  0
ARC
  5
9F
100
AcDbEntity
  8
2
370
    50
100
AcDbCircle
 10
93.851227
 20
13.50784
 30
0.0
 40
0.5
100
AcDbArc
 50
190.0
 51
285.0
  0
LINE
  5
A0
100
AcDbEntity
  8
2
370
    50
100
AcDbLine
 10
151.228681
 20
-6.681038
 30
0.0
 11
150.794561
 21
-4.219019
 31
0.0
  0
ARC
  5
A1
100
AcDbEntity
  8
2
370
    50
100
AcDbCircle
 10
155.765801
 20
-4.754527
 30
0.0
 40
5.0
100
AcDbArc
 50
134.093513
 51
173.85174
  0
LINE
  5
A2
100
AcDbEntity
  8
2
370
    50
100
AcDbLine
 10
153.198297
 20
-6.333742
 30
0.0
 11
152.286644
 21
-1.163501
 31
0.0
  0
LINE
  5
A3
100
AcDbEntity
  8
2
370
    50
100
AcDbLine
 10
151.228681
 20
-6.681038
 30
0.0
 11
151.662802
 21
-9.143058
 31
0.0
  0
ARC
  5
A4
100
AcDbEntity
  8
2
370
    50
100
AcDbCircle
 10
156.151085
 20
-6.93958
 30
0.0
 40
5.0
100
AcDbArc
 50
206.14826
 51
245.906487
  0
LINE
  5
A5
100
AcDbEntity
  8
2
370
    50
100
AcDbLine
 10
153.198297
 20
-6.333742
 30
0.0
 11
154.10995
 21
-11.503982
 31
0.0
  0
ARC
  5
A6
100
AcDbEntity
  8
2
370
    50
100
AcDbCircle
 10
177.094437
 20
-18.076017
 30
0.0
 40
20.0
100
AcDbArc
 50
174.890164
 51
191.39413
  0
ARC
  5
A7
100
AcDbEntity
  8
2
370
    50
100
AcDbCircle
 10
179.075713
 20
-17.726665
 30
0.0
 40
20.0
100
AcDbArc
 50
8.60587
 51
33.374872
  0
LINE
  5
A8
100
AcDbEntity
  8
2
370
    50
100
AcDbLine
 10
177.179777
 20
-12.767139
 30
0.0
 11
198.728933
 21
-5.765394
 31
0.0
  0
ARC
  5
A9
100
AcDbEntity
  8
2
370
    50
100
AcDbCircle
 10
177.503001
 20
-11.549843
 30
0.0
 40
22.0
100
AcDbArc
 50
15.243958
 51
74.50271
  0
LINE
  5
AA
100
AcDbEntity
  8
2
370
    50
100
AcDbLine
 10
195.195254
 20
-107.379497
 30
0.0
 11
240.745419
 21
-107.379497
 31
0.0
  0
LINE
  5
AB
100
AcDbEntity
  8
2
370
    25
100
AcDbLine
 10
229.419435
 20
-154.379594
 30
0.0
 11
229.419435
 21
-135.060879
 31
0.0
  0
LINE
  5
AC
100
AcDbEntity
  8
2
370
    50
100
AcDbLine
 10
230.419421
 20
-154.379594
 30
0.0
 11
230.419421
 21
-135.060879
 31
0.0
  0
LINE
  5
AD
100
AcDbEntity
  8
2
370
    25
100
AcDbLine
 10
210.919708
 20
-154.379594
 30
0.0
 11
210.919708
 21
-135.060879
 31
0.0
  0
LINE
  5
AE
100
AcDbEntity
  8
2
370
    50
100
AcDbLine
 10
209.919723
 20
-154.379594
 30
0.0
 11
209.919723
 21
-135.060879
 31
0.0
  0
LINE
  5
AF
100
AcDbEntity
  8
2
370
    50
100
AcDbLine
 10
232.169395
 20
-135.060879
 30
0.0
 11
220.169572
 21
-135.060879
 31
0.0
  0
LINE
  5
B0
100
AcDbEntity
  8
2
370
    50
100
AcDbLine
 10
240.169277
 20
-128.060982
 30
0.0
 11
240.169277
 21
-126.861
 31
0.0
  0
LINE
  5
B1
100
AcDbEntity
  8
2
370
    50
100
AcDbLine
 10
234.489911
 20
-128.560975
 30
0.0
 11
205.849232
 21
-128.560975
 31
0.0
  0
LINE
  5
B2
100
AcDbEntity
  8
2
370
    50
100
AcDbLine
 10
240.169277
 20
-126.861
 30
0.0
 11
220.169572
 21
-126.861
 31
0.0
  0
LINE
  5
B3
100
AcDbEntity
  8
2
370
    50
100
AcDbLine
 10
240.169277
 20
-128.060982
 30
0.0
 11
220.169572
 21
-128.060982
 31
0.0
  0
ARC
  5
B4
100
AcDbEntity
  8
2
370
    50
100
AcDbCircle
 10
234.489911
 20
-123.561048
 30
0.0
 40
4.999926
100
AcDbArc
 50
270.0
 51
293.556464
  0
ARC
  5
B5
100
AcDbEntity
  8
2
370
    50
100
AcDbCircle
 10
234.489911
 20
-131.360934
 30
0.0
 40
4.999926
100
AcDbArc
 50
66.443536
 51
90.0
  0
ARC
  5
B6
100
AcDbEntity
  8
2
370
    50
100
AcDbCircle
 10
236.887792
 20
-129.060967
 30
0.0
 40
0.999985
100
AcDbArc
 50
90.0
 51
113.556464
  0
ARC
  5
B7
100
AcDbEntity
  8
2
370
    50
100
AcDbCircle
 10
236.887792
 20
-125.861015
 30
0.0
 40
0.999985
100
AcDbArc
 50
246.443536
 51
270.0
  0
ARC
  5
B8
100
AcDbEntity
  8
2
370
    50
100
AcDbCircle
 10
220.169572
 20
-112.311214
 30
0.0
 40
16.249761
100
AcDbArc
 50
270.0
 51
284.250033
  0
ARC
  5
B9
100
AcDbEntity
  8
2
370
    50
100
AcDbCircle
 10
228.41945
 20
-112.311214
 30
0.0
 40
16.249761
100
AcDbArc
 50
262.930286
 51
284.250033
  0
ARC
  5
BA
100
AcDbEntity
  8
2
370
    50
100
AcDbCircle
 10
224.419509
 20
-112.311214
 30
0.0
 40
16.249761
100
AcDbArc
 50
262.485955
 51
284.250033
  0
ARC
  5
BB
100
AcDbEntity
  8
2
370
    50
100
AcDbCircle
 10
232.419391
 20
-112.311214
 30
0.0
 40
16.249761
100
AcDbArc
 50
262.930286
 51
270.0
  0
ARC
  5
BC
100
AcDbEntity
  8
2
370
    50
100
AcDbCircle
 10
220.169572
 20
-142.610768
 30
0.0
 40
16.249761
100
AcDbArc
 50
75.749967
 51
90.0
  0
ARC
  5
BD
100
AcDbEntity
  8
2
370
    50
100
AcDbCircle
 10
224.419509
 20
-142.610768
 30
0.0
 40
16.249761
100
AcDbArc
 50
75.749967
 51
97.514045
  0
ARC
  5
BE
100
AcDbEntity
  8
2
370
    50
100
AcDbCircle
 10
228.41945
 20
-142.610768
 30
0.0
 40
16.249761
100
AcDbArc
 50
75.749967
 51
97.069714
  0
ARC
  5
BF
100
AcDbEntity
  8
2
370
    50
100
AcDbCircle
 10
232.419391
 20
-142.610768
 30
0.0
 40
16.249761
100
AcDbArc
 50
90.0
 51
97.069714
  0
LINE
  5
C0
100
AcDbEntity
  8
2
370
    50
100
AcDbLine
 10
208.169748
 20
-135.060879
 30
0.0
 11
220.169572
 21
-135.060879
 31
0.0
  0
LINE
  5
C1
100
AcDbEntity
  8
2
370
    50
100
AcDbLine
 10
200.169866
 20
-128.060982
 30
0.0
 11
200.169866
 21
-126.861
 31
0.0
  0
LINE
  5
C2
100
AcDbEntity
  8
2
370
    50
100
AcDbLine
 10
200.169866
 20
-126.861
 30
0.0
 11
220.169572
 21
-126.861
 31
0.0
  0
LINE
  5
C3
100
AcDbEntity
  8
2
370
    50
100
AcDbLine
 10
200.169866
 20
-128.060982
 30
0.0
 11
220.169572
 21
-128.060982
 31
0.0
  0
ARC
  5
C4
100
AcDbEntity
  8
2
370
    50
100
AcDbCircle
 10
205.849232
 20
-123.561048
 30
0.0
 40
4.999926
100
AcDbArc
 50
246.443536
 51
270.0
  0
ARC
  5
C5
100
AcDbEntity
  8
2
370
    50
100
AcDbCircle
 10
205.849232
 20
-131.360934
 30
0.0
 40
4.999926
100
AcDbArc
 50
90.0
 51
113.556464
  0
ARC
  5
C6
100
AcDbEntity
  8
2
370
    50
100
AcDbCircle
 10
203.451352
 20
-129.060967
 30
0.0
 40
0.999985
100
AcDbArc
 50
66.443536
 51
90.0
  0
ARC
  5
C7
100
AcDbEntity
  8
2
370
    50
100
AcDbCircle
 10
203.451352
 20
-125.861015
 30
0.0
 40
0.999985
100
AcDbArc
 50
270.0
 51
293.556464
  0
ARC
  5
C8
100
AcDbEntity
  8
2
370
    50
100
AcDbCircle
 10
220.169572
 20
-112.311214
 30
0.0
 40
16.249761
100
AcDbArc
 50
255.749967
 51
270.0
  0
ARC
  5
C9
100
AcDbEntity
  8
2
370
    50
100
AcDbCircle
 10
211.919693
 20
-112.311214
 30
0.0
 40
16.249761
100
AcDbArc
 50
255.749967
 51
277.069714
  0
ARC
  5
CA
100
AcDbEntity
  8
2
370
    50
100
AcDbCircle
 10
215.919634
 20
-112.311214
 30
0.0
 40
16.249761
100
AcDbArc
 50
255.749967
 51
277.514045
  0
ARC
  5
CB
100
AcDbEntity
  8
2
370
    50
100
AcDbCircle
 10
207.919752
 20
-112.311214
 30
0.0
 40
16.249761
100
AcDbArc
 50
270.0
 51
277.069714
  0
ARC
  5
CC
100
AcDbEntity
  8
2
370
    50
100
AcDbCircle
 10
220.169572
 20
-142.610768
 30
0.0
 40
16.249761
100
AcDbArc
 50
90.0
 51
104.250033
  0
ARC
  5
CD
100
AcDbEntity
  8
2
370
    50
100
AcDbCircle
 10
215.919634
 20
-142.610768
 30
0.0
 40
16.249761
100
AcDbArc
 50
82.485955
 51
104.250033
  0
ARC
  5
CE
100
AcDbEntity
  8
2
370
    50
100
AcDbCircle
 10
211.919693
 20
-142.610768
 30
0.0
 40
16.249761
100
AcDbArc
 50
82.930286
 51
104.250033
  0
ARC
  5
CF
100
AcDbEntity
  8
2
370
    50
100
AcDbCircle
 10
207.919752
 20
-142.610768
 30
0.0
 40
16.249761
100
AcDbArc
 50
82.930286
 51
90.0
  0
LINE
  5
D0
100
AcDbEntity
  8
2
370
    50
100
AcDbLine
 10
220.169572
 20
-134.050894
 30
0.0
 11
220.169572
 21
-128.560975
 31
0.0
  0
LINE
  5
D1
100
AcDbEntity
  8
2
370
    50
100
AcDbLine
 10
208.169748
 20
-135.060879
 30
0.0
 11
208.169748
 21
-128.560975
 31
0.0
  0
LINE
  5
D2
100
AcDbEntity
  8
2
370
    50
100
AcDbLine
 10
232.169395
 20
-135.060879
 30
0.0
 11
232.169395
 21
-128.559052
 31
0.0
  0
ARC
  5
D3
100
AcDbEntity
  8
2
370
    50
100
AcDbCircle
 10
226.169483
 20
-116.734367
 30
0.0
 40
18.326512
100
AcDbArc
 50
250.889582
 51
289.110418
  0
ARC
  5
D4
100
AcDbEntity
  8
2
370
    50
100
AcDbCircle
 10
214.16966
 20
-116.734367
 30
0.0
 40
18.326512
100
AcDbArc
 50
250.889582
 51
289.110418
  0
LINE
  5
D5
100
AcDbEntity
  8
2
370
    50
100
AcDbLine
 10
231.669402
 20
-166.379418
 30
0.0
 11
208.669741
 21
-166.379418
 31
0.0
  0
LINE
  5
D6
100
AcDbEntity
  8
2
370
    50
100
AcDbLine
 10
231.669402
 20
-154.379594
 30
0.0
 11
208.669741
 21
-154.379594
 31
0.0
  0
LINE
  5
D7
100
AcDbEntity
  8
2
370
    50
100
AcDbLine
 10
231.669402
 20
-166.379418
 30
0.0
 11
231.669402
 21
-154.379594
 31
0.0
  0
LINE
  5
D8
100
AcDbEntity
  8
2
370
    50
100
AcDbLine
 10
208.669741
 20
-166.379418
 30
0.0
 11
208.669741
 21
-154.379594
 31
0.0
  0
ELLIPSE
  5
D9
100
AcDbEntity
  8
2
370
    50
100
AcDbEllipse
 10
225.919487
 20
-160.379506
 30
0.0
 11
0.0
 21
5.9999120000000001
 31
0.0
210
0.0
220
0.0
230
1.0
 40
0.794667
 41
0.0
 42
6.2831849999999996
  0
ELLIPSE
  5
DA
100
AcDbEntity
  8
2
370
    50
100
AcDbEllipse
 10
214.419656
 20
-160.379506
 30
0.0
 11
0.0
 21
5.9999120000000001
 31
0.0
210
0.0
220
0.0
230
1.0
 40
0.794667
 41
0.0
 42
6.2831849999999996
  0
LINE
  5
DB
100
AcDbEntity
  8
2
370
    25
100
AcDbLine
 10
229.419435
 20
-126.391805
 30
0.0
 11
229.419435
 21
-107.379497
 31
0.0
  0
LINE
  5
DC
100
AcDbEntity
  8
2
370
    50
100
AcDbLine
 10
230.419421
 20
-126.484552
 30
0.0
 11
230.419421
 21
-107.379497
 31
0.0
  0
LINE
  5
DD
100
AcDbEntity
  8
2
370
    25
100
AcDbLine
 10
210.919708
 20
-126.391805
 30
0.0
 11
210.919708
 21
-107.379497
 31
0.0
  0
LINE
  5
DE
100
AcDbEntity
  8
2
370
    50
100
AcDbLine
 10
209.919723
 20
-126.484552
 30
0.0
 11
209.919723
 21
-107.379497
 31
0.0
  0
LINE
  5
DF
100
AcDbEntity
  8
2
370
    50
100
AcDbLine
 10
240.745419
 20
-104.380543
 30
0.0
 11
240.745419
 21
-107.379497
 31
0.0
  0
LINE
  5
E0
100
AcDbEntity
  8
2
370
    50
100
AcDbLine
 10
195.195254
 20
-104.380543
 30
0.0
 11
195.195254
 21
-107.379497
 31
0.0
  0
LINE
  5
E1
100
AcDbEntity
  8
2
370
    50
100
AcDbLine
 10
234.489911
 20
-126.361007
 30
0.0
 11
232.419391
 21
-126.361007
 31
0.0
  0
LINE
  5
E2
100
AcDbEntity
  8
2
370
    50
100
AcDbLine
 10
205.849232
 20
-126.361007
 30
0.0
 11
207.919752
 21
-126.361007
 31
0.0
  0
ELLIPSE
  5
E3
100
AcDbEntity
  8
2
370
    50
100
AcDbEllipse
 10
-123.061487
 20
-18.380018
 30
0.0
 11
-21.5
 21
0.0
 31
0.0
210
0.0
220
0.0
230
1.0
 40
0.173651
 41
6.063917
 42
1.5707960000000001
  0
ARC
  5
E4
100
AcDbEntity
  8
2
370
    50
100
AcDbCircle
 10
-129.061487
 20
-48.053381
 30
0.0
 40
10.0
100
AcDbArc
 50
107.457603
 51
146.506687
  0
LINE
  5
E5
100
AcDbEntity
  8
2
370
    25
100
AcDbLine
 10
-139.047248
 20
-50.186488
 30
0.0
 11
-139.047248
 21
-47.519913
 31
0.0
  0
LINE
  5
E6
100
AcDbEntity
  8
2
370
    50
100
AcDbLine
 10
-137.40099
 20
-42.534984
 30
0.0
 11
-142.755737
 21
-50.627176
 31
0.0
  0
ARC
  5
E7
100
AcDbEntity
  8
2
370
    50
100
AcDbCircle
 10
-123.061487
 20
-67.132165
 30
0.0
 40
30.0
100
AcDbArc
 50
90.0
 51
107.457603
  0
ELLIPSE
  5
E8
100
AcDbEntity
  8
2
370
    50
100
AcDbEllipse
 10
-123.061487
 20
-55.637766
 30
0.0
 11
-16.0
 21
0.0
 31
0.0
210
0.0
220
0.0
230
1.0
 40
0.173625
 41
4.7123889999999999
 42
6.2529310000000002
  0
ELLIPSE
  5
E9
100
AcDbEntity
  8
2
370
    50
100
AcDbEllipse
 10
-123.061487
 20
-55.637766
 30
0.0
 11
-12.25
 21
0.0
 31
0.0
210
0.0
220
0.0
230
1.0
 40
0.173633
 41
4.7123889999999999
 42
0.202376
  0
LINE
  5
EA
100
AcDbEntity
  8
2
370
    50
100
AcDbLine
 10
-139.054166
 20
-55.553734
 30
0.0
 11
-146.409698
 21
-97.753721
 31
0.0
  0
ARC
  5
EB
100
AcDbEntity
  8
2
370
    50
100
AcDbCircle
 10
-154.290875
 20
-96.380018
 30
0.0
 40
8.0
100
AcDbArc
 50
270.0
 51
350.112576
  0
LINE
  5
EC
100
AcDbEntity
  8
2
370
    50
100
AcDbLine
 10
-194.061487
 20
-104.380018
 30
0.0
 11
-123.061487
 21
-104.380018
 31
0.0
  0
ARC
  5
ED
100
AcDbEntity
  8
2
370
    50
100
AcDbCircle
 10
-166.302356
 20
-67.882871
 30
0.0
 40
20.0
100
AcDbArc
 50
274.098493
 51
358.0
  0
LINE
  5
EE
100
AcDbEntity
  8
2
370
    50
100
AcDbLine
 10
-144.561487
 20
-18.380018
 30
0.0
 11
-146.31454
 21
-68.580861
 31
0.0
  0
ARC
  5
EF
100
AcDbEntity
  8
2
370
    50
100
AcDbCircle
 10
-123.061487
 20
-671.3466
 30
0.0
 40
585.010946
100
AcDbArc
 50
94.098493
 51
95.898474
  0
ARC
  5
F0
100
AcDbEntity
  8
2
370
    50
100
AcDbCircle
 10
-182.153086
 20
-99.380018
 30
0.0
 40
10.0
100
AcDbArc
 50
95.898474
 51
157.978777
  0
ARC
  5
F1
100
AcDbEntity
  8
2
370
    50
100
AcDbCircle
 10
-145.071285
 20
-114.378018
 30
0.0
 40
50.0
100
AcDbArc
 50
157.978777
 51
168.465379
  0
LINE
  5
F2
100
AcDbEntity
  8
2
370
    25
  6
CENTER
100
AcDbLine
 10
-174.060736
 20
-102.615776
 30
0.0
 11
-174.060736
 21
-168.699997
 31
0.0
  0
LINE
  5
F3
100
AcDbEntity
  8
2
370
    25
100
AcDbLine
 10
-81.31255
 20
-154.379684
 30
0.0
 11
-81.31255
 21
-135.079923
 31
0.0
  0
LINE
  5
F4
100
AcDbEntity
  8
2
370
    50
100
AcDbLine
 10
-82.312535
 20
-154.379684
 30
0.0
 11
-82.312535
 21
-135.079923
 31
0.0
  0
LINE
  5
F5
100
AcDbEntity
  8
2
370
    50
100
AcDbLine
 10
-84.062509
 20
-135.079923
 30
0.0
 11
-72.062686
 21
-135.079923
 31
0.0
  0
LINE
  5
F6
100
AcDbEntity
  8
2
370
    50
100
AcDbLine
 10
-85.812483
 20
-134.069575
 30
0.0
 11
-85.812483
 21
-128.580019
 31
0.0
  0
LINE
  5
F7
100
AcDbEntity
  8
2
370
    50
100
AcDbLine
 10
-84.062509
 20
-135.079923
 30
0.0
 11
-85.812483
 21
-134.069575
 31
0.0
  0
LINE
  5
F8
100
AcDbEntity
  8
2
370
    50
100
AcDbLine
 10
-92.062391
 20
-128.080026
 30
0.0
 11
-92.062391
 21
-126.880044
 31
0.0
  0
LINE
  5
F9
100
AcDbEntity
  8
2
370
    50
100
AcDbLine
 10
-72.062686
 20
-128.580019
 30
0.0
 11
-86.383025
 21
-128.580019
 31
0.0
  0
LINE
  5
FA
100
AcDbEntity
  8
2
370
    50
100
AcDbLine
 10
-92.062391
 20
-126.880044
 30
0.0
 11
-72.062686
 21
-126.880044
 31
0.0
  0
LINE
  5
FB
100
AcDbEntity
  8
2
370
    50
100
AcDbLine
 10
-92.062391
 20
-128.080026
 30
0.0
 11
-72.062686
 21
-128.080026
 31
0.0
  0
ARC
  5
FC
100
AcDbEntity
  8
2
370
    50
100
AcDbCircle
 10
-86.383025
 20
-123.580093
 30
0.0
 40
4.999926
100
AcDbArc
 50
246.443536
 51
270.0
  0
ARC
  5
FD
100
AcDbEntity
  8
2
370
    50
100
AcDbCircle
 10
-86.383025
 20
-131.379978
 30
0.0
 40
4.999926
100
AcDbArc
 50
90.0
 51
113.556464
  0
ARC
  5
FE
100
AcDbEntity
  8
2
370
    50
100
AcDbCircle
 10
-88.780906
 20
-129.080012
 30
0.0
 40
0.999985
100
AcDbArc
 50
66.443536
 51
90.0
  0
ARC
  5
FF
100
AcDbEntity
  8
2
370
    50
100
AcDbCircle
 10
-88.780906
 20
-125.880059
 30
0.0
 40
0.999985
100
AcDbArc
 50
270.0
 51
293.556464
  0
LINE
  5
100
100
AcDbEntity
  8
2
370
    50
100
AcDbLine
 10
-79.062583
 20
-134.069575
 30
0.0
 11
-79.062583
 21
-128.580019
 31
0.0
  0
ARC
  5
101
100
AcDbEntity
  8
2
370
    50
100
AcDbCircle
 10
-72.062686
 20
-110.326395
 30
0.0
 40
24.753528
100
AcDbArc
 50
253.573579
 51
270.0
  0
ARC
  5
102
100
AcDbEntity
  8
2
370
    50
100
AcDbCircle
 10
-82.437533
 20
-128.937935
 30
0.0
 40
6.141988
100
AcDbArc
 50
236.668091
 51
303.331909
  0
ARC
  5
103
100
AcDbEntity
  8
2
370
    50
100
AcDbCircle
 10
-72.062686
 20
-112.330258
 30
0.0
 40
16.249761
100
AcDbArc
 50
255.749967
 51
270.0
  0
ARC
  5
104
100
AcDbEntity
  8
2
370
    50
100
AcDbCircle
 10
-80.312564
 20
-112.330258
 30
0.0
 40
16.249761
100
AcDbArc
 50
255.749967
 51
277.069714
  0
ARC
  5
105
100
AcDbEntity
  8
2
370
    50
100
AcDbCircle
 10
-76.312623
 20
-112.330258
 30
0.0
 40
16.249761
100
AcDbArc
 50
255.749967
 51
277.514045
  0
ARC
  5
106
100
AcDbEntity
  8
2
370
    50
100
AcDbCircle
 10
-84.312505
 20
-112.330258
 30
0.0
 40
16.249761
100
AcDbArc
 50
270.0
 51
277.069714
  0
ARC
  5
107
100
AcDbEntity
  8
2
370
    50
100
AcDbCircle
 10
-72.062686
 20
-142.629812
 30
0.0
 40
16.249761
100
AcDbArc
 50
90.0
 51
104.250033
  0
ARC
  5
108
100
AcDbEntity
  8
2
370
    50
100
AcDbCircle
 10
-76.312623
 20
-142.629812
 30
0.0
 40
16.249761
100
AcDbArc
 50
82.485955
 51
104.250033
  0
ARC
  5
109
100
AcDbEntity
  8
2
370
    50
100
AcDbCircle
 10
-80.312564
 20
-142.629812
 30
0.0
 40
16.249761
100
AcDbArc
 50
82.930286
 51
104.250033
  0
ARC
  5
10A
100
AcDbEntity
  8
2
370
    50
100
AcDbCircle
 10
-84.312505
 20
-142.629812
 30
0.0
 40
16.249761
100
AcDbArc
 50
82.930286
 51
90.0
  0
LINE
  5
10B
100
AcDbEntity
  8
2
370
    50
100
AcDbLine
 10
-83.562069
 20
-166.379507
 30
0.0
 11
-72.062239
 21
-166.379507
 31
0.0
  0
ARC
  5
10C
100
AcDbEntity
  8
2
370
    50
100
AcDbCircle
 10
-69.787272
 20
-160.379596
 30
0.0
 40
15.024779
100
AcDbArc
 50
156.463422
 51
203.536578
  0
LINE
  5
10D
100
AcDbEntity
  8
2
370
    50
100
AcDbLine
 10
-83.562069
 20
-154.379684
 30
0.0
 11
-72.062239
 21
-154.379684
 31
0.0
  0
ELLIPSE
  5
10E
100
AcDbEntity
  8
2
370
    50
100
AcDbEllipse
 10
-82.021384
 20
-160.379596
 30
0.0
 11
0.0
 21
5.9999120000000001
 31
0.0
210
0.0
220
0.0
230
1.0
 40
0.458833
 41
0.0
 42
6.2831849999999996
  0
ELLIPSE
  5
10F
100
AcDbEntity
  8
2
370
    50
100
AcDbEllipse
 10
-72.062239
 20
-160.379596
 30
0.0
 11
0.0
 21
5.9999120000000001
 31
0.0
210
0.0
220
0.0
230
1.0
 40
0.926667
 41
0.0
 42
3.1415929999999999
  0
LINE
  5
110
100
AcDbEntity
  8
2
370
    25
100
AcDbLine
 10
-62.811928
 20
-154.379684
 30
0.0
 11
-62.811928
 21
-135.079923
 31
0.0
  0
LINE
  5
111
100
AcDbEntity
  8
2
370
    50
100
AcDbLine
 10
-61.811943
 20
-154.379684
 30
0.0
 11
-61.811943
 21
-135.079923
 31
0.0
  0
LINE
  5
112
100
AcDbEntity
  8
2
370
    50
100
AcDbLine
 10
-60.061968
 20
-135.079923
 30
0.0
 11
-72.061792
 21
-135.079923
 31
0.0
  0
LINE
  5
113
100
AcDbEntity
  8
2
370
    50
100
AcDbLine
 10
-58.311994
 20
-134.069575
 30
0.0
 11
-58.311994
 21
-128.580019
 31
0.0
  0
LINE
  5
114
100
AcDbEntity
  8
2
370
    50
100
AcDbLine
 10
-60.061968
 20
-135.079923
 30
0.0
 11
-58.311994
 21
-134.069575
 31
0.0
  0
LINE
  5
115
100
AcDbEntity
  8
2
370
    50
100
AcDbLine
 10
-52.062086
 20
-128.080026
 30
0.0
 11
-52.062086
 21
-126.880044
 31
0.0
  0
LINE
  5
116
100
AcDbEntity
  8
2
370
    50
100
AcDbLine
 10
-72.061792
 20
-128.580019
 30
0.0
 11
-57.741452
 21
-128.580019
 31
0.0
  0
LINE
  5
117
100
AcDbEntity
  8
2
370
    50
100
AcDbLine
 10
-52.062086
 20
-126.880044
 30
0.0
 11
-72.061792
 21
-126.880044
 31
0.0
  0
LINE
  5
118
100
AcDbEntity
  8
2
370
    50
100
AcDbLine
 10
-52.062086
 20
-128.080026
 30
0.0
 11
-72.061792
 21
-128.080026
 31
0.0
  0
ARC
  5
119
100
AcDbEntity
  8
2
370
    50
100
AcDbCircle
 10
-57.741452
 20
-123.580093
 30
0.0
 40
4.999926
100
AcDbArc
 50
270.0
 51
293.556464
  0
ARC
  5
11A
100
AcDbEntity
  8
2
370
    50
100
AcDbCircle
 10
-57.741452
 20
-131.379978
 30
0.0
 40
4.999926
100
AcDbArc
 50
66.443536
 51
90.0
  0
ARC
  5
11B
100
AcDbEntity
  8
2
370
    50
100
AcDbCircle
 10
-55.343572
 20
-129.080012
 30
0.0
 40
0.999985
100
AcDbArc
 50
90.0
 51
113.556464
  0
ARC
  5
11C
100
AcDbEntity
  8
2
370
    50
100
AcDbCircle
 10
-55.343572
 20
-125.880059
 30
0.0
 40
0.999985
100
AcDbArc
 50
246.443536
 51
270.0
  0
LINE
  5
11D
100
AcDbEntity
  8
2
370
    50
100
AcDbLine
 10
-65.061895
 20
-134.069575
 30
0.0
 11
-65.061895
 21
-128.580019
 31
0.0
  0
ARC
  5
11E
100
AcDbEntity
  8
2
370
    50
100
AcDbCircle
 10
-72.061792
 20
-110.326395
 30
0.0
 40
24.753528
100
AcDbArc
 50
270.0
 51
286.426421
  0
ARC
  5
11F
100
AcDbEntity
  8
2
370
    50
100
AcDbCircle
 10
-61.686944
 20
-128.937935
 30
0.0
 40
6.141988
100
AcDbArc
 50
236.668091
 51
303.331909
  0
ARC
  5
120
100
AcDbEntity
  8
2
370
    50
100
AcDbCircle
 10
-63.811913
 20
-112.330258
 30
0.0
 40
16.249761
100
AcDbArc
 50
262.930286
 51
284.250033
  0
ARC
  5
121
100
AcDbEntity
  8
2
370
    50
100
AcDbCircle
 10
-67.811854
 20
-112.330258
 30
0.0
 40
16.249761
100
AcDbArc
 50
262.485955
 51
284.250033
  0
ARC
  5
122
100
AcDbEntity
  8
2
370
    50
100
AcDbCircle
 10
-59.811972
 20
-112.330258
 30
0.0
 40
16.249761
100
AcDbArc
 50
262.930286
 51
270.0
  0
ARC
  5
123
100
AcDbEntity
  8
2
370
    50
100
AcDbCircle
 10
-67.811854
 20
-142.629812
 30
0.0
 40
16.249761
100
AcDbArc
 50
75.749967
 51
97.514045
  0
ARC
  5
124
100
AcDbEntity
  8
2
370
    50
100
AcDbCircle
 10
-63.811913
 20
-142.629812
 30
0.0
 40
16.249761
100
AcDbArc
 50
75.749967
 51
97.069714
  0
ARC
  5
125
100
AcDbEntity
  8
2
370
    50
100
AcDbCircle
 10
-59.811972
 20
-142.629812
 30
0.0
 40
16.249761
100
AcDbArc
 50
90.0
 51
97.069714
  0
LINE
  5
126
100
AcDbEntity
  8
2
370
    50
100
AcDbLine
 10
-60.562408
 20
-166.379507
 30
0.0
 11
-72.062239
 21
-166.379507
 31
0.0
  0
ARC
  5
127
100
AcDbEntity
  8
2
370
    50
100
AcDbCircle
 10
-74.337205
 20
-160.379596
 30
0.0
 40
15.024779
100
AcDbArc
 50
336.463422
 51
23.536578
  0
LINE
  5
128
100
AcDbEntity
  8
2
370
    50
100
AcDbLine
 10
-60.562408
 20
-154.379684
 30
0.0
 11
-72.062239
 21
-154.379684
 31
0.0
  0
ELLIPSE
  5
129
100
AcDbEntity
  8
2
370
    50
100
AcDbEllipse
 10
-62.103093
 20
-160.379596
 30
0.0
 11
0.0
 21
5.9999120000000001
 31
0.0
210
0.0
220
0.0
230
1.0
 40
0.458833
 41
0.0
 42
6.2831849999999996
  0
ELLIPSE
  5
12A
100
AcDbEntity
  8
2
370
    50
100
AcDbEllipse
 10
-72.062239
 20
-160.379596
 30
0.0
 11
0.0
 21
5.9999120000000001
 31
0.0
210
0.0
220
0.0
230
1.0
 40
0.926667
 41
3.1415929999999999
 42
0.0
  0
LINE
  5
12B
100
AcDbEntity
  8
2
370
    50
100
AcDbLine
 10
-61.811943
 20
-126.503596
 30
0.0
 11
-61.811943
 21
-107.378971
 31
0.0
  0
LINE
  5
12C
100
AcDbEntity
  8
2
370
    25
100
AcDbLine
 10
-62.811928
 20
-126.410849
 30
0.0
 11
-62.811928
 21
-107.378971
 31
0.0
  0
LINE
  5
12D
100
AcDbEntity
  8
2
370
    25
100
AcDbLine
 10
-81.31255
 20
-126.410849
 30
0.0
 11
-81.31255
 21
-107.378971
 31
0.0
  0
LINE
  5
12E
100
AcDbEntity
  8
2
370
    50
100
AcDbLine
 10
-82.312535
 20
-126.503596
 30
0.0
 11
-82.312535
 21
-107.378971
 31
0.0
  0
LINE
  5
12F
100
AcDbEntity
  8
2
370
    25
100
AcDbLine
 10
-164.810425
 20
-154.379684
 30
0.0
 11
-164.810425
 21
-135.079923
 31
0.0
  0
LINE
  5
130
100
AcDbEntity
  8
2
370
    50
100
AcDbLine
 10
-163.81044
 20
-154.379684
 30
0.0
 11
-163.81044
 21
-135.079923
 31
0.0
  0
LINE
  5
131
100
AcDbEntity
  8
2
370
    50
100
AcDbLine
 10
-162.060466
 20
-135.079923
 30
0.0
 11
-174.060289
 21
-135.079923
 31
0.0
  0
LINE
  5
132
100
AcDbEntity
  8
2
370
    50
100
AcDbLine
 10
-160.310492
 20
-134.069575
 30
0.0
 11
-160.310492
 21
-128.580019
 31
0.0
  0
LINE
  5
133
100
AcDbEntity
  8
2
370
    50
100
AcDbLine
 10
-162.060466
 20
-135.079923
 30
0.0
 11
-160.310492
 21
-134.069575
 31
0.0
  0
LINE
  5
134
100
AcDbEntity
  8
2
370
    50
100
AcDbLine
 10
-154.060584
 20
-128.080026
 30
0.0
 11
-154.060584
 21
-126.880044
 31
0.0
  0
LINE
  5
135
100
AcDbEntity
  8
2
370
    50
100
AcDbLine
 10
-174.060289
 20
-128.580019
 30
0.0
 11
-159.739949
 21
-128.580019
 31
0.0
  0
LINE
  5
136
100
AcDbEntity
  8
2
370
    50
100
AcDbLine
 10
-154.060584
 20
-126.880044
 30
0.0
 11
-174.060289
 21
-126.880044
 31
0.0
  0
LINE
  5
137
100
AcDbEntity
  8
2
370
    50
100
AcDbLine
 10
-154.060584
 20
-128.080026
 30
0.0
 11
-174.060289
 21
-128.080026
 31
0.0
  0
ARC
  5
138
100
AcDbEntity
  8
2
370
    50
100
AcDbCircle
 10
-159.739949
 20
-123.580093
 30
0.0
 40
4.999926
100
AcDbArc
 50
270.0
 51
293.556464
  0
ARC
  5
139
100
AcDbEntity
  8
2
370
    50
100
AcDbCircle
 10
-159.739949
 20
-131.379978
 30
0.0
 40
4.999926
100
AcDbArc
 50
66.443536
 51
90.0
  0
ARC
  5
13A
100
AcDbEntity
  8
2
370
    50
100
AcDbCircle
 10
-157.342069
 20
-129.080012
 30
0.0
 40
0.999985
100
AcDbArc
 50
90.0
 51
113.556464
  0
ARC
  5
13B
100
AcDbEntity
  8
2
370
    50
100
AcDbCircle
 10
-157.342069
 20
-125.880059
 30
0.0
 40
0.999985
100
AcDbArc
 50
246.443536
 51
270.0
  0
LINE
  5
13C
100
AcDbEntity
  8
2
370
    50
100
AcDbLine
 10
-167.060392
 20
-134.069575
 30
0.0
 11
-167.060392
 21
-128.580019
 31
0.0
  0
ARC
  5
13D
100
AcDbEntity
  8
2
370
    50
100
AcDbCircle
 10
-174.060289
 20
-110.326395
 30
0.0
 40
24.753528
100
AcDbArc
 50
270.0
 51
286.426421
  0
ARC
  5
13E
100
AcDbEntity
  8
2
370
    50
100
AcDbCircle
 10
-163.685442
 20
-128.937935
 30
0.0
 40
6.141988
100
AcDbArc
 50
236.668091
 51
303.331909
  0
ARC
  5
13F
100
AcDbEntity
  8
2
370
    50
100
AcDbCircle
 10
-174.060289
 20
-112.330258
 30
0.0
 40
16.249761
100
AcDbArc
 50
270.0
 51
284.250033
  0
ARC
  5
140
100
AcDbEntity
  8
2
370
    50
100
AcDbCircle
 10
-165.810411
 20
-112.330258
 30
0.0
 40
16.249761
100
AcDbArc
 50
262.930286
 51
284.250033
  0
ARC
  5
141
100
AcDbEntity
  8
2
370
    50
100
AcDbCircle
 10
-169.810352
 20
-112.330258
 30
0.0
 40
16.249761
100
AcDbArc
 50
262.485955
 51
284.250033
  0
ARC
  5
142
100
AcDbEntity
  8
2
370
    50
100
AcDbCircle
 10
-161.810469
 20
-112.330258
 30
0.0
 40
16.249761
100
AcDbArc
 50
262.930286
 51
270.0
  0
ARC
  5
143
100
AcDbEntity
  8
2
370
    50
100
AcDbCircle
 10
-174.060289
 20
-142.629812
 30
0.0
 40
16.249761
100
AcDbArc
 50
75.749967
 51
90.0
  0
ARC
  5
144
100
AcDbEntity
  8
2
370
    50
100
AcDbCircle
 10
-169.810352
 20
-142.629812
 30
0.0
 40
16.249761
100
AcDbArc
 50
75.749967
 51
97.514045
  0
ARC
  5
145
100
AcDbEntity
  8
2
370
    50
100
AcDbCircle
 10
-165.810411
 20
-142.629812
 30
0.0
 40
16.249761
100
AcDbArc
 50
75.749967
 51
97.069714
  0
ARC
  5
146
100
AcDbEntity
  8
2
370
    50
100
AcDbCircle
 10
-161.810469
 20
-142.629812
 30
0.0
 40
16.249761
100
AcDbArc
 50
90.0
 51
97.069714
  0
LINE
  5
147
100
AcDbEntity
  8
2
370
    50
100
AcDbLine
 10
-162.560906
 20
-166.379507
 30
0.0
 11
-174.060736
 21
-166.379507
 31
0.0
  0
ARC
  5
148
100
AcDbEntity
  8
2
370
    50
100
AcDbCircle
 10
-176.335703
 20
-160.379596
 30
0.0
 40
15.024779
100
AcDbArc
 50
336.463422
 51
23.536578
  0
LINE
  5
149
100
AcDbEntity
  8
2
370
    50
100
AcDbLine
 10
-162.560906
 20
-154.379684
 30
0.0
 11
-174.060736
 21
-154.379684
 31
0.0
  0
ELLIPSE
  5
14A
100
AcDbEntity
  8
2
370
    50
100
AcDbEllipse
 10
-164.101591
 20
-160.379596
 30
0.0
 11
0.0
 21
5.9999120000000001
 31
0.0
210
0.0
220
0.0
230
1.0
 40
0.458833
 41
0.0
 42
6.2831849999999996
  0
ELLIPSE
  5
14B
100
AcDbEntity
  8
2
370
    50
100
AcDbEllipse
 10
-174.060736
 20
-160.379596
 30
0.0
 11
0.0
 21
5.9999120000000001
 31
0.0
210
0.0
220
0.0
230
1.0
 40
0.926667
 41
3.1415929999999999
 42
0.0
  0
LINE
  5
14C
100
AcDbEntity
  8
2
370
    25
100
AcDbLine
 10
-183.311047
 20
-154.379684
 30
0.0
 11
-183.311047
 21
-135.079923
 31
0.0
  0
LINE
  5
14D
100
AcDbEntity
  8
2
370
    50
100
AcDbLine
 10
-184.311032
 20
-154.379684
 30
0.0
 11
-184.311032
 21
-135.079923
 31
0.0
  0
LINE
  5
14E
100
AcDbEntity
  8
2
370
    50
100
AcDbLine
 10
-186.061006
 20
-135.079923
 30
0.0
 11
-174.061183
 21
-135.079923
 31
0.0
  0
LINE
  5
14F
100
AcDbEntity
  8
2
370
    50
100
AcDbLine
 10
-187.810981
 20
-134.069575
 30
0.0
 11
-187.810981
 21
-128.580019
 31
0.0
  0
LINE
  5
150
100
AcDbEntity
  8
2
370
    50
100
AcDbLine
 10
-186.061006
 20
-135.079923
 30
0.0
 11
-187.810981
 21
-134.069575
 31
0.0
  0
LINE
  5
151
100
AcDbEntity
  8
2
370
    50
100
AcDbLine
 10
-194.060889
 20
-128.080026
 30
0.0
 11
-194.060889
 21
-126.880044
 31
0.0
  0
LINE
  5
152
100
AcDbEntity
  8
2
370
    50
100
AcDbLine
 10
-174.061183
 20
-128.580019
 30
0.0
 11
-188.381523
 21
-128.580019
 31
0.0
  0
LINE
  5
153
100
AcDbEntity
  8
2
370
    50
100
AcDbLine
 10
-194.060889
 20
-126.880044
 30
0.0
 11
-174.061183
 21
-126.880044
 31
0.0
  0
LINE
  5
154
100
AcDbEntity
  8
2
370
    50
100
AcDbLine
 10
-194.060889
 20
-128.080026
 30
0.0
 11
-174.061183
 21
-128.080026
 31
0.0
  0
ARC
  5
155
100
AcDbEntity
  8
2
370
    50
100
AcDbCircle
 10
-188.381523
 20
-123.580093
 30
0.0
 40
4.999926
100
AcDbArc
 50
246.443536
 51
270.0
  0
ARC
  5
156
100
AcDbEntity
  8
2
370
    50
100
AcDbCircle
 10
-188.381523
 20
-131.379978
 30
0.0
 40
4.999926
100
AcDbArc
 50
90.0
 51
113.556464
  0
ARC
  5
157
100
AcDbEntity
  8
2
370
    50
100
AcDbCircle
 10
-190.779403
 20
-129.080012
 30
0.0
 40
0.999985
100
AcDbArc
 50
66.443536
 51
90.0
  0
ARC
  5
158
100
AcDbEntity
  8
2
370
    50
100
AcDbCircle
 10
-190.779403
 20
-125.880059
 30
0.0
 40
0.999985
100
AcDbArc
 50
270.0
 51
293.556464
  0
LINE
  5
159
100
AcDbEntity
  8
2
370
    50
100
AcDbLine
 10
-181.06108
 20
-134.069575
 30
0.0
 11
-181.06108
 21
-128.580019
 31
0.0
  0
ARC
  5
15A
100
AcDbEntity
  8
2
370
    50
100
AcDbCircle
 10
-174.061183
 20
-110.326395
 30
0.0
 40
24.753528
100
AcDbArc
 50
253.573579
 51
270.0
  0
ARC
  5
15B
100
AcDbEntity
  8
2
370
    50
100
AcDbCircle
 10
-184.43603
 20
-128.937935
 30
0.0
 40
6.141988
100
AcDbArc
 50
236.668091
 51
303.331909
  0
ARC
  5
15C
100
AcDbEntity
  8
2
370
    50
100
AcDbCircle
 10
-182.311062
 20
-112.330258
 30
0.0
 40
16.249761
100
AcDbArc
 50
255.749967
 51
277.069714
  0
ARC
  5
15D
100
AcDbEntity
  8
2
370
    50
100
AcDbCircle
 10
-178.311121
 20
-112.330258
 30
0.0
 40
16.249761
100
AcDbArc
 50
255.749967
 51
277.514045
  0
ARC
  5
15E
100
AcDbEntity
  8
2
370
    50
100
AcDbCircle
 10
-186.311003
 20
-112.330258
 30
0.0
 40
16.249761
100
AcDbArc
 50
270.0
 51
277.069714
  0
ARC
  5
15F
100
AcDbEntity
  8
2
370
    50
100
AcDbCircle
 10
-178.311121
 20
-142.629812
 30
0.0
 40
16.249761
100
AcDbArc
 50
82.485955
 51
104.250033
  0
ARC
  5
160
100
AcDbEntity
  8
2
370
    50
100
AcDbCircle
 10
-182.311062
 20
-142.629812
 30
0.0
 40
16.249761
100
AcDbArc
 50
82.930286
 51
104.250033
  0
ARC
  5
161
100
AcDbEntity
  8
2
370
    50
100
AcDbCircle
 10
-186.311003
 20
-142.629812
 30
0.0
 40
16.249761
100
AcDbArc
 50
82.930286
 51
90.0
  0
LINE
  5
162
100
AcDbEntity
  8
2
370
    50
100
AcDbLine
 10
-185.560567
 20
-166.379507
 30
0.0
 11
-174.060736
 21
-166.379507
 31
0.0
  0
ARC
  5
163
100
AcDbEntity
  8
2
370
    50
100
AcDbCircle
 10
-171.78577
 20
-160.379596
 30
0.0
 40
15.024779
100
AcDbArc
 50
156.463422
 51
203.536578
  0
LINE
  5
164
100
AcDbEntity
  8
2
370
    50
100
AcDbLine
 10
-185.560567
 20
-154.379684
 30
0.0
 11
-174.060736
 21
-154.379684
 31
0.0
  0
ELLIPSE
  5
165
100
AcDbEntity
  8
2
370
    50
100
AcDbEllipse
 10
-184.019882
 20
-160.379596
 30
0.0
 11
0.0
 21
5.9999120000000001
 31
0.0
210
0.0
220
0.0
230
1.0
 40
0.458833
 41
0.0
 42
6.2831849999999996
  0
ELLIPSE
  5
166
100
AcDbEntity
  8
2
370
    50
100
AcDbEllipse
 10
-174.060736
 20
-160.379596
 30
0.0
 11
0.0
 21
5.9999120000000001
 31
0.0
210
0.0
220
0.0
230
1.0
 40
0.926667
 41
0.0
 42
3.1415929999999999
  0
LINE
  5
167
100
AcDbEntity
  8
2
370
    50
100
AcDbLine
 10
-184.311032
 20
-126.503596
 30
0.0
 11
-184.311032
 21
-107.378971
 31
0.0
  0
LINE
  5
168
100
AcDbEntity
  8
2
370
    25
100
AcDbLine
 10
-183.311047
 20
-126.410849
 30
0.0
 11
-183.311047
 21
-107.378971
 31
0.0
  0
LINE
  5
169
100
AcDbEntity
  8
2
370
    25
100
AcDbLine
 10
-164.810425
 20
-126.410849
 30
0.0
 11
-164.810425
 21
-107.378971
 31
0.0
  0
LINE
  5
16A
100
AcDbEntity
  8
2
370
    50
100
AcDbLine
 10
-163.81044
 20
-126.503596
 30
0.0
 11
-163.81044
 21
-107.378971
 31
0.0
  0
LINE
  5
16B
100
AcDbEntity
  8
2
370
    50
100
AcDbLine
 10
-59.811972
 20
-126.380051
 30
0.0
 11
-57.741452
 21
-126.380051
 31
0.0
  0
ARC
  5
16C
100
AcDbEntity
  8
2
370
    50
100
AcDbCircle
 10
-72.061792
 20
-142.629812
 30
0.0
 40
16.249761
100
AcDbArc
 50
75.749967
 51
90.0
  0
LINE
  5
16D
100
AcDbEntity
  8
2
370
    50
100
AcDbLine
 10
-86.383025
 20
-126.380051
 30
0.0
 11
-84.312505
 21
-126.380051
 31
0.0
  0
LINE
  5
16E
100
AcDbEntity
  8
2
370
    50
100
AcDbLine
 10
-159.739949
 20
-126.380051
 30
0.0
 11
-161.810469
 21
-126.380051
 31
0.0
  0
ARC
  5
16F
100
AcDbEntity
  8
2
370
    50
100
AcDbCircle
 10
-174.061183
 20
-142.629812
 30
0.0
 40
16.249761
100
AcDbArc
 50
90.0
 51
104.250033
  0
LINE
  5
170
100
AcDbEntity
  8
2
370
    50
100
AcDbLine
 10
-188.381523
 20
-126.380051
 30
0.0
 11
-186.311003
 21
-126.380051
 31
0.0
  0
LINE
  5
171
100
AcDbEntity
  8
2
370
    50
100
AcDbLine
 10
-193.561487
 20
-107.378971
 30
0.0
 11
-52.561487
 21
-107.378971
 31
0.0
  0
LINE
  5
172
100
AcDbEntity
  8
2
370
    50
100
AcDbLine
 10
-193.561487
 20
-104.380018
 30
0.0
 11
-193.561487
 21
-107.378971
 31
0.0
  0
LINE
  5
173
100
AcDbEntity
  8
2
370
    50
100
AcDbLine
 10
-52.561487
 20
-104.380018
 30
0.0
 11
-52.561487
 21
-107.378971
 31
0.0
  0
LINE
  5
174
100
AcDbEntity
  8
2
370
    50
100
AcDbLine
 10
-130.973194
 20
81.017703
 30
0.0
 11
-140.515211
 21
144.75212
 31
0.0
  0
LINE
  5
175
100
AcDbEntity
  8
2
370
    50
100
AcDbLine
 10
-115.149552
 20
81.017703
 30
0.0
 11
-105.465194
 21
145.702873
 31
0.0
  0
ARC
  5
176
100
AcDbEntity
  8
2
370
    50
100
AcDbCircle
 10
-123.061373
 20
82.202224
 30
0.0
 40
8.0
100
AcDbArc
 50
188.514811
 51
351.485189
  0
ARC
  5
177
100
AcDbEntity
  8
2
370
    50
100
AcDbCircle
 10
-177.938255
 20
139.149318
 30
0.0
 40
37.840132
100
AcDbArc
 50
8.514811
 51
31.171388
  0
ARC
  5
178
100
AcDbEntity
  8
2
370
    50
100
AcDbCircle
 10
-68.184492
 20
139.149318
 30
0.0
 40
37.840132
100
AcDbArc
 50
148.828612
 51
171.485189
  0
ELLIPSE
  5
179
100
AcDbEntity
  8
2
370
    50
100
AcDbEllipse
 10
-123.061373
 20
158.735363
 30
0.0
 11
-22.5
 21
0.0
 31
0.0
210
0.0
220
0.0
230
1.0
 40
0.9848
 41
2.4586610000000002
 42
0.682931
  0
LINE
  5
17A
100
AcDbEntity
  8
2
370
    50
100
AcDbLine
 10
-111.061487
 20
-61.054734
 30
0.0
 11
-111.061487
 21
-55.210245
 31
0.0
  0
LINE
  5
17B
100
AcDbEntity
  8
2
370
    50
100
AcDbLine
 10
-135.061487
 20
-61.054734
 30
0.0
 11
-135.061487
 21
-55.210245
 31
0.0
  0
ELLIPSE
  5
17C
100
AcDbEntity
  8
2
370
    50
100
AcDbEllipse
 10
-123.061487
 20
-64.501561
 30
0.0
 11
10.0
 21
0.0
 31
0.0
210
0.0
220
0.0
230
1.0
 40
0.17365
 41
0.0
 42
6.2831849999999996
  0
ARC
  5
17D
100
AcDbEntity
  8
2
370
    50
100
AcDbCircle
 10
-124.061487
 20
-18.380543
 30
0.0
 40
20.0
100
AcDbArc
 50
168.353656
 51
180.0
  0
ARC
  5
17E
100
AcDbEntity
  8
2
370
    50
100
AcDbCircle
 10
-122.061487
 20
-18.380543
 30
0.0
 40
20.0
100
AcDbArc
 50
0.0
 51
11.646344
  0
ELLIPSE
  5
17F
100
AcDbEntity
  8
2
370
    50
100
AcDbEllipse
 10
-123.061487
 20
-18.380543
 30
0.0
 11
21.0
 21
0.0
 31
0.0
210
0.0
220
0.0
230
1.0
 40
0.173643
 41
3.1415929999999999
 42
0.0
  0
ARC
  5
180
100
AcDbEntity
  8
2
370
    50
100
AcDbCircle
 10
-45.561487
 20
-12.767139
 30
0.0
 40
100.0
100
AcDbArc
 50
170.546476
 51
180.0
  0
ARC
  5
181
100
AcDbEntity
  8
2
370
    50
100
AcDbCircle
 10
-200.561487
 20
-12.767139
 30
0.0
 40
100.0
100
AcDbArc
 50
0.0
 51
9.453524
  0
LINE
  5
182
100
AcDbEntity
  8
2
370
    25
100
AcDbLine
 10
-115.530975
 20
12.883652
 30
0.0
 11
-131.061487
 21
12.883652
 31
0.0
  0
LINE
  5
183
100
AcDbEntity
  8
2
370
    25
100
AcDbLine
 10
-131.061487
 20
16.781523
 30
0.0
 11
-131.061487
 21
13.498194
 31
0.0
  0
LINE
  5
184
100
AcDbEntity
  8
2
370
    25
100
AcDbLine
 10
-115.061487
 20
16.781523
 30
0.0
 11
-115.061487
 21
13.498194
 31
0.0
  0
LINE
  5
185
100
AcDbEntity
  8
2
370
    50
100
AcDbLine
 10
-114.554494
 20
17.270628
 30
0.0
 11
-105.417049
 21
9.72649
 31
0.0
  0
ARC
  5
186
100
AcDbEntity
  8
2
370
    50
100
AcDbCircle
 10
-111.783763
 20
2.015138
 30
0.0
 40
10.0
100
AcDbArc
 50
9.453524
 51
50.455936
  0
ARC
  5
187
100
AcDbEntity
  8
2
370
    50
100
AcDbCircle
 10
-123.061487
 20
-11.224448
 30
0.0
 40
30.0
100
AcDbArc
 50
75.857606
 51
90.0
  0
ARC
  5
188
100
AcDbEntity
  8
2
370
    50
100
AcDbCircle
 10
-116.464508
 20
14.957222
 30
0.0
 40
3.0
100
AcDbArc
 50
50.455936
 51
75.857606
  0
ARC
  5
189
100
AcDbEntity
  8
2
370
    50
100
AcDbCircle
 10
-123.061487
 20
-11.224448
 30
0.0
 40
30.0
100
AcDbArc
 50
90.0
 51
104.142394
  0
ARC
  5
18A
100
AcDbEntity
  8
2
370
    50
100
AcDbCircle
 10
-129.658467
 20
14.957222
 30
0.0
 40
3.0
100
AcDbArc
 50
104.142394
 51
129.544064
  0
LINE
  5
18B
100
AcDbEntity
  8
2
370
    50
100
AcDbLine
 10
-131.568481
 20
17.270628
 30
0.0
 11
-140.705926
 21
9.72649
 31
0.0
  0
ARC
  5
18C
100
AcDbEntity
  8
2
370
    50
100
AcDbCircle
 10
-134.339211
 20
2.015138
 30
0.0
 40
10.0
100
AcDbArc
 50
129.544064
 51
170.546476
  0
ELLIPSE
  5
18D
100
AcDbEntity
  8
2
370
    50
100
AcDbEllipse
 10
-123.061487
 20
-12.767139
 30
0.0
 11
22.5
 21
0.0
 31
0.0
210
0.0
220
0.0
230
1.0
 40
0.173644
 41
3.1415929999999999
 42
0.0
  0
LINE
  5
18E
100
AcDbEntity
  8
2
370
    25
100
AcDbLine
 10
-114.726341
 20
12.606945
 30
0.0
 11
-111.109978
 21
9.621172
 31
0.0
  0
ARC
  5
18F
100
AcDbEntity
  8
2
370
    25
100
AcDbCircle
 10
-129.594414
 20
-12.767139
 30
0.0
 40
29.032926
100
AcDbArc
 50
22.880485
 51
50.455936
  0
LINE
  5
190
100
AcDbEntity
  8
2
370
    25
100
AcDbLine
 10
-131.396633
 20
12.606945
 30
0.0
 11
-135.012997
 21
9.621172
 31
0.0
  0
ARC
  5
191
100
AcDbEntity
  8
2
370
    25
100
AcDbCircle
 10
-116.528561
 20
-12.767139
 30
0.0
 40
29.032926
100
AcDbArc
 50
129.544064
 51
158.021405
  0
ARC
  5
192
100
AcDbEntity
  8
2
370
    25
100
AcDbCircle
 10
-129.061487
 20
-48.053381
 30
0.0
 40
10.0
100
AcDbArc
 50
163.391457
 51
176.942005
  0
POINT
  5
193
100
AcDbEntity
  8
2
370
    50
100
AcDbPoint
 10
-123.061487
 20
-6.333742
 30
0.0
  0
ELLIPSE
  5
194
100
AcDbEntity
  8
2
370
    50
100
AcDbEllipse
 10
-123.061487
 20
-6.333742
 30
0.0
 11
5.25
 21
0.0
 31
0.0
210
0.0
220
0.0
230
1.0
 40
0.984762
 41
0.0
 42
6.2831849999999996
  0
LINE
  5
195
100
AcDbEntity
  8
2
370
    50
100
AcDbLine
 10
-123.061487
 20
-1.163742
 30
0.0
 11
-123.061487
 21
-11.503742
 31
0.0
  0
POINT
  5
196
100
AcDbEntity
  8
2
370
    50
100
AcDbPoint
 10
178.221666
 20
-18.675986
 30
0.0
  0
LINE
  5
197
100
AcDbEntity
  8
2
370
    25
  6
DASHED
100
AcDbLine
 10
114.87459
 20
46.278364
 30
0.0
 11
115.936087
 21
50.239925
 31
0.0
  0
ARC
  5
198
100
AcDbEntity
  8
2
370
    25
  6
DASHED
100
AcDbCircle
 10
18.833824
 20
-206.457942
 30
0.0
 40
275.0
100
AcDbArc
 50
53.115822
 51
69.175802
  0
LINE
  5
199
100
AcDbEntity
  8
2
370
    25
  6
DASHED
100
AcDbLine
 10
115.270728
 20
45.656551
 30
0.0
 11
123.63049
 21
44.182499
 31
0.0
  0
ARC
  5
19A
100
AcDbEntity
  8
2
370
    25
  6
DASHED
100
AcDbCircle
 10
80.558312
 20
-61.367429
 30
0.0
 40
114.0
100
AcDbArc
 50
46.848229
 51
67.800907
  0
ARC
  5
19B
100
AcDbEntity
  8
2
370
    25
  6
DASHED
100
AcDbCircle
 10
116.41905
 20
50.110516
 30
0.0
 40
0.5
100
AcDbArc
 50
69.175802
 51
165.0
  0
ARC
  5
19C
100
AcDbEntity
  8
2
370
    25
  6
DASHED
100
AcDbCircle
 10
115.357553
 20
46.148955
 30
0.0
 40
0.5
100
AcDbArc
 50
165.0
 51
260.0
  0
POINT
  5
19D
100
AcDbEntity
  8
2
370
    50
100
AcDbPoint
 10
101.206195
 20
-64.501561
 30
0.0
  0
LINE
  5
19E
100
AcDbEntity
  8
2
370
    50
100
AcDbLine
 10
106.536935
 20
-61.887522
 30
0.0
 11
97.090991
 21
-60.221947
 31
0.0
  0
LINE
  5
19F
100
AcDbEntity
  8
2
370
    50
100
AcDbLine
 10
105.929167
 20
-65.334349
 30
0.0
 11
106.536935
 21
-61.887522
 31
0.0
  0
LINE
  5
1A0
100
AcDbEntity
  8
2
370
    50
100
AcDbLine
 10
96.483223
 20
-63.668774
 30
0.0
 11
97.090991
 21
-60.221947
 31
0.0
  0
LINE
  5
1A1
100
AcDbEntity
  8
2
370
    25
100
AcDbLine
 10
89.475326
 20
-61.925379
 30
0.0
 11
96.570047
 21
-63.17637
 31
0.0
  0
LINE
  5
1A2
100
AcDbEntity
  8
2
370
    25
100
AcDbLine
 10
106.015991
 20
-64.841945
 30
0.0
 11
113.110712
 21
-66.092936
 31
0.0
  0
LINE
  5
1A3
100
AcDbEntity
  8
2
370
    50
100
AcDbLine
 10
-112.061487
 20
-65.334438
 30
0.0
 11
-112.061487
 21
-60.221858
 31
0.0
  0
ELLIPSE
  5
1A4
100
AcDbEntity
  8
2
370
    50
100
AcDbEllipse
 10
-123.061487
 20
-61.054734
 30
0.0
 11
12.0
 21
0.0
 31
0.0
210
0.0
220
0.0
230
1.0
 40
0.173667
 41
5.8720470000000002
 42
0.411138
  0
LINE
  5
1A5
100
AcDbEntity
  8
2
370
    50
100
AcDbLine
 10
-134.061487
 20
-65.334438
 30
0.0
 11
-134.061487
 21
-60.221858
 31
0.0
  0
ELLIPSE
  5
1A6
100
AcDbEntity
  8
2
370
    50
100
AcDbEllipse
 10
-123.061487
 20
-61.054734
 30
0.0
 11
-12.0
 21
0.0
 31
0.0
210
0.0
220
0.0
230
1.0
 40
0.173667
 41
5.8720470000000002
 42
0.411138
  0
ELLIPSE
  5
1A7
100
AcDbEntity
  8
2
370
    50
100
AcDbEllipse
 10
-123.061487
 20
-64.501561
 30
0.0
 11
12.0
 21
0.0
 31
0.0
210
0.0
220
0.0
230
1.0
 40
0.173667
 41
0.411138
 42
2.7304550000000001
  0
ELLIPSE
  5
1A8
100
AcDbEntity
  8
2
370
    50
100
AcDbEllipse
 10
-123.061487
 20
-64.501561
 30
0.0
 11
12.0
 21
0.0
 31
0.0
210
0.0
220
0.0
230
1.0
 40
0.173667
 41
3.5527310000000001
 42
5.8720470000000002
  0
ARC
  5
1A9
100
AcDbEntity
  8
2
370
    50
100
AcDbCircle
 10
-79.820619
 20
-67.882871
 30
0.0
 40
20.0
100
AcDbArc
 50
182.0
 51
265.901507
  0
ARC
  5
1AA
100
AcDbEntity
  8
2
370
    50
100
AcDbCircle
 10
-123.061487
 20
-671.3466
 30
0.0
 40
585.010946
100
AcDbArc
 50
84.101526
 51
85.901507
  0
LINE
  5
1AB
100
AcDbEntity
  8
2
370
    25
  6
CENTER
100
AcDbLine
 10
-72.062239
 20
-102.615776
 30
0.0
 11
-72.062239
 21
-168.699997
 31
0.0
  0
LINE
  5
1AC
100
AcDbEntity
  8
2
370
    25
  6
DASHED
100
AcDbLine
 10
-68.611813
 20
102.718608
 30
0.0
 11
-100.913898
 21
122.501867
 31
0.0
  0
ARC
  5
1AD
100
AcDbEntity
  8
2
370
    25
  6
DASHED
100
AcDbCircle
 10
-64.433587
 20
109.540809
 30
0.0
 40
8.0
100
AcDbArc
 50
238.514811
 51
41.485189
  0
LINE
  5
1AE
100
AcDbEntity
  8
2
370
    25
  6
DASHED
100
AcDbLine
 10
-58.440572
 20
114.840221
 30
0.0
 11
-90.207999
 21
150.765474
 31
0.0
  0
LINE
  5
1AF
100
AcDbEntity
  8
2
370
    25
  6
DASHED
100
AcDbLine
 10
-177.510934
 20
102.718608
 30
0.0
 11
-145.208848
 21
122.501867
 31
0.0
  0
LINE
  5
1B0
100
AcDbEntity
  8
2
370
    25
  6
DASHED
100
AcDbLine
 10
-187.682175
 20
114.840221
 30
0.0
 11
-155.914748
 21
150.765474
 31
0.0
  0
POINT
  5
1B1
100
AcDbEntity
  8
2
370
    50
100
AcDbPoint
 10
-174.060736
 20
-159.880018
 30
0.0
  0
LINE
  5
1B2
100
AcDbEntity
  8
2
370
    50
100
AcDbLine
 10
148.522415
 20
-74.57281
 30
0.0
 11
143.990876
 21
-72.459719
 31
0.0
  0
LINE
  5
1B3
100
AcDbEntity
  8
2
370
    50
100
AcDbLine
 10
143.990876
 20
-72.459719
 30
0.0
 11
143.749031
 21
-71.795256
 31
0.0
  0
LINE
  5
1B4
100
AcDbEntity
  8
2
370
    50
100
AcDbLine
 10
148.522415
 20
-74.57281
 30
0.0
 11
149.186878
 21
-74.330965
 31
0.0
  0
LINE
  5
1B5
100
AcDbEntity
  8
2
370
    50
100
AcDbLine
 10
149.186878
 20
-74.330965
 30
0.0
 11
151.495998
 21
-69.379041
 31
0.0
  0
LINE
  5
1B6
100
AcDbEntity
  8
2
370
    50
100
AcDbLine
 10
146.058161
 20
-66.84331
 30
0.0
 11
143.749031
 21
-71.795256
 31
0.0
  0
LINE
  5
1B7
100
AcDbEntity
  8
2
370
    50
100
AcDbLine
 10
143.749031
 20
-71.795256
 30
0.0
 11
149.186878
 21
-74.330965
 31
0.0
  0
CIRCLE
  5
1B8
100
AcDbEntity
  8
2
370
    50
100
AcDbCircle
 10
147.5245
 20
-70.797341
 30
0.0
 40
1.5
  0
ELLIPSE
  5
1B9
100
AcDbEntity
  8
2
370
    50
100
AcDbEllipse
 10
-123.061487
 20
-73.516264
 30
0.0
 11
3.0
 21
0.0
 31
0.0
210
0.0
220
0.0
230
1.0
 40
0.422667
 41
0.0
 42
6.2831849999999996
  0
LINE
  5
1BA
100
AcDbEntity
  8
2
370
    50
100
AcDbLine
 10
-120.061487
 20
-68.078544
 30
0.0
 11
-120.061487
 21
-73.516264
 31
0.0
  0
LINE
  5
1BB
100
AcDbEntity
  8
2
370
    50
100
AcDbLine
 10
-126.061487
 20
-68.078544
 30
0.0
 11
-126.061487
 21
-73.516264
 31
0.0
  0
ELLIPSE
  5
1BC
100
AcDbEntity
  8
2
370
    50
100
AcDbEllipse
 10
-123.061487
 20
-68.078544
 30
0.0
 11
3.0
 21
0.0
 31
0.0
210
0.0
220
0.0
230
1.0
 40
0.422667
 41
0.0
 42
3.1415929999999999
  0
ARC
  5
1BD
100
AcDbEntity
  8
2
370
    25
  6
DASHED
100
AcDbCircle
 10
-181.689159
 20
109.540809
 30
0.0
 40
8.0
100
AcDbArc
 50
138.514811
 51
301.485189
  0
TEXT
  5
1BE
100
AcDbEntity
  8
3
370
    50
100
AcDbText
 10
150.187883
 20
-191.434341
 30
0.0
 40
7.0
  1
１１９
 72
     5
 11
169.787883
 21
-191.434341
 31
0.0
100
AcDbText
  0
DIMENSION
  5
1BF
100
AcDbEntity
  8
3
370
    25
100
AcDbDimension
  2
*D0
 10
220.169572
 20
-192.434341
 30
0.0
 11
160.687883
 21
-190.434341
 31
0.0
 71
     0
 72
     0
 41
0.0
 42
0.0
  3
Standard
100
AcDbAlignedDimension
 13
101.206195
 23
-64.501561
 33
0.0
 14
220.169572
 24
-160.823227
 34
0.0
100
AcDbRotatedDimension
  0
DIMENSION
  5
1C0
100
AcDbEntity
  8
3
370
    25
100
AcDbDimension
  2
*D1
 10
101.206195
 20
-64.504721
 30
0.0
 11
108.99976
 21
-95.894691
 31
0.0
 70
     2
 71
     0
 72
     0
 41
0.0
 42
0.0
  3
Standard
100
AcDb2LineAngularDimension
 13
101.205646
 23
-64.504673
 33
0.0
 14
101.206195
 24
-64.501561
 34
0.0
 15
101.206195
 25
-64.501561
 35
0.0
 16
98.45256
 26
-95.97575
 36
0.0
1001
ACAD
1000
DSTYLE
1002
{
1070
   275
1070
     0
1070
   179
1070
     0
1002
}
  0
TEXT
  5
1C1
100
AcDbEntity
  8
3
370
    50
100
AcDbText
 10
67.974256
 20
-91.441052
 30
0.0
 40
7.0
  1
４０
 50
90.0
 72
     5
 11
67.974256
 21
-78.841052
 31
0.0
100
AcDbText
  0
DIMENSION
  5
1C2
100
AcDbEntity
  8
3
370
    25
100
AcDbDimension
  2
*D2
 10
68.974257
 20
-64.501561
 30
0.0
 11
66.474257
 21
-84.441052
 31
0.0
 71
     0
 72
     0
 41
0.0
 42
0.0
  3
Standard
100
AcDbAlignedDimension
 13
194.443572
 23
-104.380543
 33
0.0
 14
101.206195
 24
-64.501561
 34
0.0
 50
90.0
100
AcDbRotatedDimension
  0
POINT
  5
1C3
100
AcDbEntity
  8
3
370
    50
100
AcDbPoint
 10
116.079223
 20
50.774117
 30
0.0
  0
POINT
  5
1C4
100
AcDbEntity
  8
3
370
    50
100
AcDbPoint
 10
92.550604
 20
18.004652
 30
0.0
  0
TEXT
  5
1C5
100
AcDbEntity
  8
3
370
    50
100
AcDbText
 10
55.616205
 20
-53.687946
 30
0.0
 40
7.0
  1
１２３
 50
90.0
 72
     5
 11
55.616205
 21
-34.087946
 31
0.0
100
AcDbText
  0
DIMENSION
  5
1C6
100
AcDbEntity
  8
3
370
    25
100
AcDbDimension
  2
*D3
 10
56.616205
 20
18.004652
 30
0.0
 11
54.116205
 21
-43.187946
 31
0.0
 71
     0
 72
     0
 41
0.0
 42
0.0
  3
Standard
100
AcDbAlignedDimension
 13
194.443572
 23
-104.380543
 33
0.0
 14
92.550604
 24
18.004652
 34
0.0
 50
90.0
100
AcDbRotatedDimension
  0
TEXT
  5
1C7
100
AcDbEntity
  8
3
370
    50
100
AcDbText
 10
41.893013
 20
-37.303213
 30
0.0
 40
7.0
  1
１５５
 50
90.0
 72
     5
 11
41.893013
 21
-17.703213
 31
0.0
100
AcDbText
  0
DIMENSION
  5
1C8
100
AcDbEntity
  8
3
370
    25
100
AcDbDimension
  2
*D4
 10
42.893013
 20
50.774117
 30
0.0
 11
40.393013
 21
-26.803213
 31
0.0
 71
     0
 72
     0
 41
0.0
 42
0.0
  3
Standard
100
AcDbAlignedDimension
 13
194.443572
 23
-104.380543
 33
0.0
 14
116.079223
 24
50.774117
 34
0.0
 50
90.0
100
AcDbRotatedDimension
  0
TEXT
  5
1C9
100
AcDbEntity
  8
3
370
    50
100
AcDbText
 10
-133.561487
 20
-181.527405
 30
0.0
 40
7.0
  1
１０２
 72
     5
 11
-113.961487
 21
-181.527405
 31
0.0
100
AcDbText
  0
DIMENSION
  5
1CA
100
AcDbEntity
  8
3
370
    25
100
AcDbDimension
  2
*D5
 10
-72.062239
 20
-182.527405
 30
0.0
 11
-123.061487
 21
-180.527405
 31
0.0
 71
     0
 72
     0
 41
0.0
 42
0.0
  3
Standard
100
AcDbAlignedDimension
 13
-174.060736
 23
-168.699997
 33
0.0
 14
-72.062239
 24
-168.699997
 34
0.0
100
AcDbRotatedDimension
  0
TEXT
  5
1CB
100
AcDbEntity
  8
3
370
    50
100
AcDbText
 10
-44.842255
 20
-153.160309
 30
0.0
 40
7.0
  1
ＰＪ１／２
 72
     5
 11
-11.242255
 21
-153.160309
 31
0.0
100
AcDbText
  0
LWPOLYLINE
  5
1CC
100
AcDbEntity
  8
3
370
    25
100
AcDbPolyline
 90
        3
 70
     0
 10
-61.811943
 20
-144.775421
 10
-45.732067
 20
-154.303696
 10
-10.267303
 20
-154.303696
  0
LINE
  5
1D1
100
AcDbEntity
  8
3
370
    25
100
AcDbLine
 10
-58.487982
 20
-146.745064
 30
0.0
 11
-57.960218
 21
-145.854411
 31
0.0
  0
LINE
  5
1D2
100
AcDbEntity
  8
3
370
    25
100
AcDbLine
 10
-57.960218
 20
-145.854411
 30
0.0
 11
-61.811943
 21
-144.775421
 31
0.0
  0
LINE
  5
1D3
100
AcDbEntity
  8
3
370
    25
100
AcDbLine
 10
-61.811943
 20
-144.775421
 30
0.0
 11
-59.015746
 21
-147.635716
 31
0.0
  0
LINE
  5
1D4
100
AcDbEntity
  8
3
370
    25
100
AcDbLine
 10
-59.015746
 20
-147.635716
 30
0.0
 11
-58.487982
 21
-146.745064
 31
0.0
  0
POINT
  5
1D5
100
AcDbEntity
  8
3
370
    50
100
AcDbPoint
 10
-52.061373
 20
201.724875
 30
0.0
  0
POINT
  5
1D6
100
AcDbEntity
  8
3
370
    50
100
AcDbPoint
 10
-194.061373
 20
201.724875
 30
0.0
  0
DIMENSION
  5
1D7
100
AcDbEntity
  8
3
370
    25
100
AcDbDimension
  2
*D6
 10
-52.061373
 20
238.514114
 30
0.0
 11
-123.061373
 21
243.014114
 31
0.0
 71
     0
 72
     0
 41
0.0
 42
0.0
  3
Standard
100
AcDbAlignedDimension
 13
-194.061373
 23
201.724875
 33
0.0
 14
-52.061373
 24
201.724875
 34
0.0
100
AcDbRotatedDimension
  0
POINT
  5
1D8
100
AcDbEntity
  8
3
370
    50
100
AcDbPoint
 10
241.497037
 20
-104.380543
 30
0.0
  0
POINT
  5
1D9
100
AcDbEntity
  8
3
370
    50
100
AcDbPoint
 10
194.443572
 20
-104.380543
 30
0.0
  0
TEXT
  5
1DA
100
AcDbEntity
  8
3
370
    50
100
AcDbText
 10
210.970304
 20
-180.043671
 30
0.0
 40
7.0
  1
４７
 72
     5
 11
223.570304
 21
-180.043671
 31
0.0
100
AcDbText
  0
DIMENSION
  5
1DB
100
AcDbEntity
  8
3
370
    25
100
AcDbDimension
  2
*D7
 10
241.497037
 20
-181.043671
 30
0.0
 11
217.970304
 21
-179.043671
 31
0.0
 71
     0
 72
     0
 41
0.0
 42
0.0
  3
Standard
100
AcDbAlignedDimension
 13
194.443572
 23
-104.380543
 33
0.0
 14
241.497037
 24
-104.380543
 34
0.0
100
AcDbRotatedDimension
  0
LINE
  5
1DC
100
AcDbEntity
  8
3
370
    25
100
AcDbLine
 10
-198.360286
 20
10.383607
 30
0.0
 11
-198.360286
 21
19.183607
 31
0.0
  0
HATCH
  5
1DD
100
AcDbEntity
  8
3
370
    25
100
AcDbHatch
 10
0.0
 20
0.0
 30
0.0
210
0.0
220
0.0
230
1.0
  2
_U
 70
     0
 71
     1
 91
        1
 92
        1
 93
        2
 72
     1
 10
-198.360286
 20
19.183606999999999
 11
-198.360286
 21
10.383607
 72
     2
 10
-198.360286
 20
14.783607
 40
4.4000000000000004
 50
270.0
 51
90.0
 73
     1
 97
        2
330
0
330
0
 75
     0
 76
     0
 52
45.0
 41
1.0
 77
     0
 78
     1
 53
45.0
 43
0.0
 44
0.0
 45
-1.0606599999999999
 46
1.0606599999999999
 79
     0
 98
        1
 10
0.0
 20
0.0
  0
CIRCLE
  5
1DE
100
AcDbEntity
  8
3
370
    50
100
AcDbCircle
 10
-198.360286
 20
14.783607
 30
0.0
 40
4.4
  0
LINE
  5
1DF
100
AcDbEntity
  8
3
370
    25
100
AcDbLine
 10
-201.471555
 20
11.672337
 30
0.0
 11
-198.360286
 21
14.783607
 31
0.0
  0
LINE
  5
1E0
100
AcDbEntity
  8
3
370
    25
100
AcDbLine
 10
-201.097848
 20
11.338937
 30
0.0
 11
-198.360286
 21
14.0765
 31
0.0
  0
LINE
  5
1E1
100
AcDbEntity
  8
3
370
    25
100
AcDbLine
 10
-200.68303
 20
11.046649
 30
0.0
 11
-198.360286
 21
13.369393
 31
0.0
  0
LINE
  5
1E2
100
AcDbEntity
  8
3
370
    25
100
AcDbLine
 10
-200.224518
 20
10.798054
 30
0.0
 11
-198.360286
 21
12.662287
 31
0.0
  0
LINE
  5
1E3
100
AcDbEntity
  8
3
370
    25
100
AcDbLine
 10
-199.717353
 20
10.598112
 30
0.0
 11
-198.360286
 21
11.95518
 31
0.0
  0
LINE
  5
1E4
100
AcDbEntity
  8
3
370
    25
100
AcDbLine
 10
-199.152792
 20
10.455567
 30
0.0
 11
-198.360286
 21
11.248073
 31
0.0
  0
LINE
  5
1E5
100
AcDbEntity
  8
3
370
    25
100
AcDbLine
 10
-198.514927
 20
10.386325
 30
0.0
 11
-198.360286
 21
10.540966
 31
0.0
  0
LINE
  5
1E6
100
AcDbEntity
  8
3
370
    25
100
AcDbLine
 10
-201.804955
 20
12.046044
 30
0.0
 11
-198.360286
 21
15.490714
 31
0.0
  0
LINE
  5
1E7
100
AcDbEntity
  8
3
370
    25
100
AcDbLine
 10
-202.097244
 20
12.460862
 30
0.0
 11
-198.360286
 21
16.19782
 31
0.0
  0
LINE
  5
1E8
100
AcDbEntity
  8
3
370
    25
100
AcDbLine
 10
-202.345839
 20
12.919374
 30
0.0
 11
-198.360286
 21
16.904927
 31
0.0
  0
LINE
  5
1E9
100
AcDbEntity
  8
3
370
    25
100
AcDbLine
 10
-202.54578
 20
13.426539
 30
0.0
 11
-198.360286
 21
17.612034
 31
0.0
  0
LINE
  5
1EA
100
AcDbEntity
  8
3
370
    25
100
AcDbLine
 10
-202.688326
 20
13.9911
 30
0.0
 11
-198.360286
 21
18.319141
 31
0.0
  0
LINE
  5
1EB
100
AcDbEntity
  8
3
370
    25
100
AcDbLine
 10
-202.757567
 20
14.628966
 30
0.0
 11
-198.360286
 21
19.026248
 31
0.0
  0
LINE
  5
1EC
100
AcDbEntity
  8
3
370
    25
100
AcDbLine
 10
-202.72063
 20
15.37301
 30
0.0
 11
-198.949688
 21
19.143951
 31
0.0
  0
LINE
  5
1ED
100
AcDbEntity
  8
3
370
    25
100
AcDbLine
 10
-202.484861
 20
16.315886
 30
0.0
 11
-199.892564
 21
18.908182
 31
0.0
  0
TEXT
  5
1EE
100
AcDbEntity
  8
3
370
    50
100
AcDbText
 10
-186.465338
 20
25.572035
 30
0.0
 40
7.0
  1
青色
 72
     5
 11
-173.865338
 21
25.572035
 31
0.0
100
AcDbText
  0
TEXT
  5
1EF
100
AcDbEntity
  8
3
370
    50
100
AcDbText
 10
-189.443975
 20
16.635206
 30
0.0
 40
7.0
  1
（水表示）
 72
     5
 11
-155.843975
 21
16.635206
 31
0.0
100
AcDbText
  0
TEXT
  5
1F0
100
AcDbEntity
  8
3
370
    50
100
AcDbText
 10
-228.600643
 20
25.143136
 30
0.0
 40
7.0
  1
赤色
 72
     5
 11
-216.000643
 21
25.143136
 31
0.0
100
AcDbText
  0
TEXT
  5
1F1
100
AcDbEntity
  8
3
370
    50
100
AcDbText
 10
-246.462841
 20
16.211892
 30
0.0
 40
7.0
  1
（湯表示）
 72
     5
 11
-212.862841
 21
16.211892
 31
0.0
100
AcDbText
  0
LWPOLYLINE
  5
1F2
100
AcDbEntity
  8
3
370
    25
100
AcDbPolyline
 90
        3
 70
     0
 10
-200.700602
 20
15.64224
 10
-206.929621
 20
27.02339
 10
-212.080607
 20
27.02339
  0
LINE
  5
1F7
100
AcDbEntity
  8
3
370
    25
100
AcDbLine
 10
-202.55559
 20
19.031521
 30
0.0
 11
-203.463745
 21
18.534478
 31
0.0
  0
LINE
  5
1F8
100
AcDbEntity
  8
3
370
    25
100
AcDbLine
 10
-203.463745
 20
18.534478
 30
0.0
 11
-200.700602
 21
15.64224
 31
0.0
  0
LINE
  5
1F9
100
AcDbEntity
  8
3
370
    25
100
AcDbLine
 10
-200.700602
 20
15.64224
 30
0.0
 11
-201.647435
 21
19.528563
 31
0.0
  0
LINE
  5
1FA
100
AcDbEntity
  8
3
370
    25
100
AcDbLine
 10
-201.647435
 20
19.528563
 30
0.0
 11
-202.55559
 21
19.031521
 31
0.0
  0
LWPOLYLINE
  5
1FB
100
AcDbEntity
  8
3
370
    25
100
AcDbPolyline
 90
        3
 70
     0
 10
-195.809652
 20
16.228483
 10
-190.740316
 20
27.133497
 10
-185.766638
 20
27.133497
  0
LINE
  5
200
100
AcDbEntity
  8
3
370
    25
100
AcDbLine
 10
-194.18094
 20
19.732124
 30
0.0
 11
-195.119737
 21
20.168536
 31
0.0
  0
LINE
  5
201
100
AcDbEntity
  8
3
370
    25
100
AcDbLine
 10
-195.119737
 20
20.168536
 30
0.0
 11
-195.809652
 21
16.228483
 31
0.0
  0
LINE
  5
202
100
AcDbEntity
  8
3
370
    25
100
AcDbLine
 10
-195.809652
 20
16.228483
 30
0.0
 11
-193.242142
 21
19.295712
 31
0.0
  0
LINE
  5
203
100
AcDbEntity
  8
3
370
    25
100
AcDbLine
 10
-193.242142
 20
19.295712
 30
0.0
 11
-194.18094
 21
19.732124
 31
0.0
  0
LWPOLYLINE
  5
204
100
AcDbEntity
  8
3
370
    25
100
AcDbPolyline
 90
        2
 70
     0
 10
-126.14695
 20
-7.191748
 10
-187.838257
 20
10.227126
  0
LINE
  5
208
100
AcDbEntity
  8
3
370
    25
100
AcDbLine
 10
-129.865274
 20
-6.141859
 30
0.0
 11
-130.146591
 21
-7.138181
 31
0.0
  0
LINE
  5
209
100
AcDbEntity
  8
3
370
    25
100
AcDbLine
 10
-130.146591
 20
-7.138181
 30
0.0
 11
-126.14695
 21
-7.191748
 31
0.0
  0
LINE
  5
20A
100
AcDbEntity
  8
3
370
    25
100
AcDbLine
 10
-126.14695
 20
-7.191748
 30
0.0
 11
-129.583957
 21
-5.145537
 31
0.0
  0
LINE
  5
20B
100
AcDbEntity
  8
3
370
    25
100
AcDbLine
 10
-129.583957
 20
-5.145537
 30
0.0
 11
-129.865274
 21
-6.141859
 31
0.0
  0
TEXT
  5
20C
100
AcDbEntity
  8
3
370
    50
100
AcDbText
 10
95.042427
 20
22.718525
 30
0.0
 40
7.0
  1
止水
 72
     5
 11
107.642427
 21
22.718525
 31
0.0
100
AcDbText
  0
TEXT
  5
20D
100
AcDbEntity
  8
3
370
    50
100
AcDbText
 10
125.539688
 20
54.479652
 30
0.0
 40
7.0
  1
吐水
 72
     5
 11
138.139688
 21
54.479652
 31
0.0
100
AcDbText
  0
POINT
  5
20E
100
AcDbEntity
  8
3
370
    50
100
AcDbPoint
 10
-123.061373
 20
158.735363
 30
0.0
  0
LINE
  5
20F
100
AcDbEntity
  8
3
370
    25
  6
CENTER
100
AcDbLine
 10
-56.333965
 20
102.744419
 30
0.0
 11
-97.308872
 21
137.126449
 31
0.0
  0
LINE
  5
210
100
AcDbEntity
  8
3
370
    25
  6
CENTER
100
AcDbLine
 10
-190.238419
 20
102.367129
 30
0.0
 11
-149.505733
 21
136.54591
 31
0.0
  0
DIMENSION
  5
211
100
AcDbEntity
  8
3
370
    25
100
AcDbDimension
  2
*D8
 10
-67.311026
 20
111.955267
 30
0.0
 11
-109.061373
 21
57.299382
 31
0.0
 70
     2
 71
     0
 72
     0
 41
0.0
 42
0.0
  3
Standard
100
AcDb2LineAngularDimension
 13
-179.710995
 23
111.200686
 33
0.0
 14
-123.061373
 24
158.735363
 34
0.0
 15
-123.061373
 25
158.735363
 35
0.0
 16
-123.061373
 26
57.299382
 36
0.0
1001
ACAD
1000
DSTYLE
1002
{
1070
   275
1070
     0
1070
   179
1070
     0
1002
}
  0
TEXT
  5
212
100
AcDbEntity
  8
3
370
    50
100
AcDbText
 10
-153.256927
 20
48.79911
 30
0.0
 40
7.0
  1
ハンドル回転角度
 72
     5
 11
-98.656927
 21
48.79911
 31
0.0
100
AcDbText
  0
TEXT
  5
213
100
AcDbEntity
  8
3
370
    50
100
AcDbText
 10
-122.176666
 20
-137.510208
 30
0.0
 40
7.0
  1
２４六角
 72
     5
 11
-95.576666
 21
-137.510208
 31
0.0
100
AcDbText
  0
TEXT
  5
214
100
AcDbEntity
  8
3
370
    50
100
AcDbText
 10
-119.417458
 20
-167.699387
 30
0.0
 40
7.0
  1
２３六角
 72
     5
 11
-92.817458
 21
-167.699387
 31
0.0
100
AcDbText
  0
LWPOLYLINE
  5
215
100
AcDbEntity
  8
3
370
    25
100
AcDbPolyline
 90
        3
 70
     0
 10
-83.061058
 20
-132.385956
 10
-93.375938
 20
-137.965027
 10
-120.922585
 20
-137.965027
  0
LINE
  5
21A
100
AcDbEntity
  8
3
370
    25
100
AcDbLine
 10
-86.459506
 20
-134.224095
 30
0.0
 11
-85.966978
 21
-135.134706
 31
0.0
  0
LINE
  5
21B
100
AcDbEntity
  8
3
370
    25
100
AcDbLine
 10
-85.966978
 20
-135.134706
 30
0.0
 11
-83.061058
 21
-132.385956
 31
0.0
  0
LINE
  5
21C
100
AcDbEntity
  8
3
370
    25
100
AcDbLine
 10
-83.061058
 20
-132.385956
 30
0.0
 11
-86.952034
 21
-133.313483
 31
0.0
  0
LINE
  5
21D
100
AcDbEntity
  8
3
370
    25
100
AcDbLine
 10
-86.952034
 20
-133.313483
 30
0.0
 11
-86.459506
 21
-134.224095
 31
0.0
  0
LWPOLYLINE
  5
21E
100
AcDbEntity
  8
3
370
    25
100
AcDbPolyline
 90
        3
 70
     0
 10
-83.182449
 20
-162.585632
 10
-90.584862
 20
-168.771133
 10
-117.160736
 20
-168.771133
  0
LINE
  5
223
100
AcDbEntity
  8
3
370
    25
100
AcDbLine
 10
-86.147312
 20
-165.06309
 30
0.0
 11
-85.483479
 21
-165.857522
 31
0.0
  0
LINE
  5
224
100
AcDbEntity
  8
3
370
    25
100
AcDbLine
 10
-85.483479
 20
-165.857522
 30
0.0
 11
-83.182449
 21
-162.585632
 31
0.0
  0
LINE
  5
225
100
AcDbEntity
  8
3
370
    25
100
AcDbLine
 10
-83.182449
 20
-162.585632
 30
0.0
 11
-86.811144
 21
-164.268657
 31
0.0
  0
LINE
  5
226
100
AcDbEntity
  8
3
370
    25
100
AcDbLine
 10
-86.811144
 20
-164.268657
 30
0.0
 11
-86.147312
 21
-165.06309
 31
0.0
  0
TEXT
  5
227
100
AcDbEntity
  8
3
370
    50
100
AcDbText
 10
-25.337643
 20
-96.380018
 30
0.0
 40
7.0
  1
天板厚サ　０～３０ｍｍ
 50
90.0
 72
     5
 11
-25.337643
 21
-20.780018
 31
0.0
100
AcDbText
  0
DIMENSION
  5
228
100
AcDbEntity
  8
3
370
    25
100
AcDbDimension
  2
*D9
 10
-24.337643
 20
-104.380018
 30
0.0
 11
-26.837643
 21
-61.880018
 31
0.0
 71
     0
 72
     0
 41
0.0
 42
0.0
  3
Standard
100
AcDbAlignedDimension
 13
-57.741452
 23
-126.380051
 33
0.0
 14
-52.061487
 24
-104.380018
 34
0.0
 50
90.0
100
AcDbRotatedDimension
  0
TEXT
  5
229
100
AcDbEntity
  8
3
370
    50
100
AcDbText
 10
-14.975199
 20
-97.119492
 30
0.0
 40
7.0
  1
取付穴径　φ２２～２６
 50
90.0
 72
     5
 11
-14.975199
 21
-21.519492
 31
0.0
100
AcDbText
  0
TEXT
  5
22A
100
AcDbEntity
  8
3
370
    50
100
AcDbText
 10
-209.36937
 20
-139.130018
 30
0.0
 40
7.0
  1
５５
 50
90.0
 72
     5
 11
-209.36937
 21
-126.530018
 31
0.0
100
AcDbText
  0
DIMENSION
  5
22B
100
AcDbEntity
  8
3
370
    25
100
AcDbDimension
  2
*D10
 10
-208.36937
 20
-104.380018
 30
0.0
 11
-210.86937
 21
-132.130018
 31
0.0
 71
     0
 72
     0
 41
0.0
 42
0.0
  3
Standard
100
AcDbAlignedDimension
 13
-174.060736
 23
-159.880018
 33
0.0
 14
-194.061487
 24
-104.380018
 34
0.0
 50
90.0
100
AcDbRotatedDimension
  0
POINT
  5
22C
100
AcDbEntity
  8
3
370
    50
100
AcDbPoint
 10
147.5245
 20
-70.797341
 30
0.0
  0
TEXT
  5
22D
100
AcDbEntity
  8
3
370
    50
100
AcDbText
 10
176.847036
 20
-117.706741
 30
0.0
 40
7.0
  1
７３
 72
     5
 11
189.447036
 21
-117.706741
 31
0.0
100
AcDbText
  0
DIMENSION
  5
22E
100
AcDbEntity
  8
3
370
    25
100
AcDbDimension
  2
*D11
 10
220.169572
 20
-118.706741
 30
0.0
 11
183.847036
 21
-116.706741
 31
0.0
 71
     0
 72
     0
 41
0.0
 42
0.0
  3
Standard
100
AcDbAlignedDimension
 13
147.5245
 23
-70.797341
 33
0.0
 14
220.169572
 24
-120.679092
 34
0.0
100
AcDbRotatedDimension
  0
TEXT
  5
22F
100
AcDbEntity
  8
3
370
    50
100
AcDbText
 10
130.586334
 20
-94.588942
 30
0.0
 40
7.0
  1
３４
 50
90.0
 72
     5
 11
130.586334
 21
-81.988942
 31
0.0
100
AcDbText
  0
DIMENSION
  5
230
100
AcDbEntity
  8
3
370
    25
100
AcDbDimension
  2
*D12
 10
131.586334
 20
-70.797341
 30
0.0
 11
129.086334
 21
-87.588942
 31
0.0
 71
     0
 72
     0
 41
0.0
 42
0.0
  3
Standard
100
AcDbAlignedDimension
 13
194.443572
 23
-104.380543
 33
0.0
 14
147.5245
 24
-70.797341
 34
0.0
 50
90.0
100
AcDbRotatedDimension
  0
TEXT
  5
231
100
AcDbEntity
  8
3
370
    50
100
AcDbText
 10
63.982487
 20
-227.59259
 30
0.0
 40
6.0
  1
台付シングルレバー湯水混合水栓
 72
     5
 11
152.782487
 21
-227.59259
 31
0.0
100
AcDbText
  0
TEXT
  5
232
100
AcDbEntity
  8
3
370
    50
100
AcDbText
 10
230.278992
 20
-272.075134
 30
0.0
 40
6.0
  1
外観寸法図
 72
     5
 11
259.078992
 21
-272.075134
 31
0.0
100
AcDbText
  0
TEXT
  5
233
100
AcDbEntity
  8
3
370
    50
100
AcDbText
 10
288.320221
 20
-239.912292
 30
0.0
 40
6.0
  1
１
 72
     5
 11
293.120221
 21
-239.912292
 31
0.0
100
AcDbText
  0
TEXT
  5
234
100
AcDbEntity
  8
3
370
    50
100
AcDbText
 10
303.537354
 20
-240.199203
 30
0.0
 40
6.0
  1
２
 72
     5
 11
308.337354
 21
-240.199203
 31
0.0
100
AcDbText
  0
TEXT
  5
235
100
AcDbEntity
  8
3
370
    50
100
AcDbText
 10
63.982487
 20
-235.994034
 30
0.0
 40
6.0
  1
ＭＬ５６０Ｈ
 72
     5
 11
98.782487
 21
-235.994034
 31
0.0
100
AcDbText
  0
TEXT
  5
236
100
AcDbEntity
  8
3
370
    50
100
AcDbText
 10
337.244659
 20
-272.339447
 30
0.0
 40
6.0
  1
１０３１７０
 72
     5
 11
372.044659
 21
-272.339447
 31
0.0
100
AcDbText
  0
ENDSEC
  0
SECTION
  2
OBJECTS
  0
DICTIONARY
  5
2C8
100
AcDbDictionary
280
     0
281
     1
  3
ACAD_GROUP
350
2C9
  3
ACAD_MLINESTYLE
350
2CA
  0
DICTIONARY
  5
2C9
102
{ACAD_REACTORS
330
2C8
102
}
100
AcDbDictionary
280
     0
281
     1
  0
DICTIONARY
  5
2CA
102
{ACAD_REACTORS
330
2C8
102
}
100
AcDbDictionary
280
     0
281
     1
  3
Standard
350
2CB
  0
MLINESTYLE
  5
2CB
102
{ACAD_REACTORS
330
2CA
102
}
100
AcDbMlineStyle
  2
Standard
 70
     0
  3

 62
     0
 51
90.0
 52
90.0
 71
     2
 49
0.5
 62
   256
  6
ByLayer
 49
-0.5
 62
   256
  6
ByLayer
  0
ENDSEC
  0
EOF
