  0
SECTION
  2
HEADER
  9
$ACADVER
  1
AC1015
  9
$ACADMAINTVER
 70
     6
  9
$DWGCODEPAGE
  3
ANSI_932
  9
$INSBASE
 10
0.0
 20
0.0
 30
0.0
  9
$EXTMIN
 10
-420.0
 20
-297.0
 30
1.000000E+20
  9
$EXTMAX
 10
420.0
 20
297.0
 30
-1.000000E+20
  9
$LIMMIN
 10
-420.0
 20
-297.0
  9
$LIMMAX
 10
420.0
 20
297.0
  9
$ORTHOMODE
 70
     0
  9
$REGENMODE
 70
     1
  9
$FILLMODE
 70
     1
  9
$QTEXTMODE
 70
     0
  9
$MIRRTEXT
 70
     1
  9
$LTSCALE
 40
1.0
  9
$ATTMODE
 70
     1
  9
$TEXTSIZE
 40
0.2
  9
$TRACEWID
 40
0.05
  9
$TEXTSTYLE
  7
STANDARD
  9
$CLAYER
  8
0
  9
$CELTYPE
  6
CONTINUOUS
  9
$CECOLOR
 62
   256
  9
$CELTSCALE
 40
1.0
  9
$DISPSILH
 70
     0
  9
$DIMSCALE
 40
2.0
  9
$DIMASZ
 40
2.0
  9
$DIMEXO
 40
1.0
  9
$DIMDLI
 40
0.38
  9
$DIMRND
 40
0.0
  9
$DIMDLE
 40
0.0
  9
$DIMEXE
 40
2.0
  9
$DIMTP
 40
0.0
  9
$DIMTM
 40
0.0
  9
$DIMTXT
 40
3.5
  9
$DIMCEN
 40
0.09
  9
$DIMTSZ
 40
0.0
  9
$DIMTOL
 70
     0
  9
$DIMLIM
 70
     0
  9
$DIMTIH
 70
     0
  9
$DIMTOH
 70
     0
  9
$DIMSE1
 70
     0
  9
$DIMSE2
 70
     0
  9
$DIMTAD
 70
     1
  9
$DIMZIN
 70
     0
  9
$DIMBLK
  1

  9
$DIMASO
 70
     1
  9
$DIMSHO
 70
     1
  9
$DIMPOST
  1

  9
$DIMAPOST
  1

  9
$DIMALT
 70
     0
  9
$DIMALTD
 70
     2
  9
$DIMALTF
 40
25.4
  9
$DIMLFAC
 40
1.0
  9
$DIMTOFL
 70
     0
  9
$DIMTVP
 40
0.0
  9
$DIMTIX
 70
     0
  9
$DIMSOXD
 70
     0
  9
$DIMSAH
 70
     0
  9
$DIMBLK1
  1

  9
$DIMBLK2
  1

  9
$DIMSTYLE
  2
Standard
  9
$DIMCLRD
 70
     0
  9
$DIMCLRE
 70
     0
  9
$DIMCLRT
 70
     0
  9
$DIMTFAC
 40
1.0
  9
$DIMGAP
 40
0.5
  9
$DIMJUST
 70
     0
  9
$DIMSD1
 70
     0
  9
$DIMSD2
 70
     0
  9
$DIMTOLJ
 70
     1
  9
$DIMTZIN
 70
     0
  9
$DIMALTZ
 70
     0
  9
$DIMALTTZ
 70
     0
  9
$DIMUPT
 70
     0
  9
$DIMDEC
 70
     3
  9
$DIMTDEC
 70
     4
  9
$DIMALTU
 70
     2
  9
$DIMALTTD
 70
     2
  9
$DIMTXSTY
  7
STANDARD
  9
$DIMAUNIT
 70
     0
  9
$DIMADEC
 70
     0
  9
$DIMALTRND
 40
0.0
  9
$DIMAZIN
 70
     0
  9
$DIMDSEP
 70
     0
  9
$DIMATFIT
 70
     3
  9
$DIMFRAC
 70
     0
  9
$DIMLDRBLK
  1

  9
$DIMLUNIT
 70
     2
  9
$DIMLWD
 70
     0
  9
$DIMLWE
 70
     0
  9
$DIMTMOVE
 70
     0
  9
$LUNITS
 70
     2
  9
$LUPREC
 70
     4
  9
$SKETCHINC
 40
0.1
  9
$FILLETRAD
 40
0.0
  9
$AUNITS
 70
     0
  9
$AUPREC
 70
     0
  9
$MENU
  1
acad
  9
$ELEVATION
 40
0.0
  9
$PELEVATION
 40
0.0
  9
$THICKNESS
 40
0.0
  9
$LIMCHECK
 70
     0
  9
$CHAMFERA
 40
0.0
  9
$CHAMFERB
 40
0.0
  9
$CHAMFERC
 40
0.0
  9
$CHAMFERD
 40
0.0
  9
$SKPOLY
 70
     0
  9
$TDCREATE
 40
2453708.000000000
  9
$TDUCREATE
 40
0.000000000
  9
$TDUPDATE
 40
0.000000000
  9
$TDUUPDATE
 40
2447892.625000000
  9
$TDINDWG
 40
0.0000000000
  9
$TDUSRTIMER
 40
0.0000000000
  9
$USRTIMER
 70
     1
  9
$ANGBASE
 50
0.0
  9
$ANGDIR
 70
     0
  9
$PDMODE
 70
     0
  9
$PDSIZE
 40
0.0
  9
$PLINEWID
 40
0.0
  9
$SPLFRAME
 70
     0
  9
$SPLINETYPE
 70
     6
  9
$SPLINESEGS
 70
     8
  9
$HANDSEED
  5
924
  9
$SURFTAB1
 70
     6
  9
$SURFTAB2
 70
     6
  9
$SURFTYPE
 70
     6
  9
$SURFU
 70
     6
  9
$SURFV
 70
     6
  9
$UCSBASE
  2

  9
$UCSNAME
  2

  9
$UCSORG
 10
0.0
 20
0.0
 30
0.0
  9
$UCSXDIR
 10
1.0
 20
0.0
 30
0.0
  9
$UCSYDIR
 10
0.0
 20
1.0
 30
0.0
  9
$UCSORTHOREF
  2

  9
$UCSORTHOVIEW
 70
     0
  9
$UCSORGTOP
 10
0.0
 20
0.0
 30
0.0
  9
$UCSORGBOTTOM
 10
0.0
 20
0.0
 30
0.0
  9
$UCSORGLEFT
 10
0.0
 20
0.0
 30
0.0
  9
$UCSORGRIGHT
 10
0.0
 20
0.0
 30
0.0
  9
$UCSORGFRONT
 10
0.0
 20
0.0
 30
0.0
  9
$UCSORGBACK
 10
0.0
 20
0.0
 30
0.0
  9
$PUCSBASE
  2

  9
$PUCSNAME
  2

  9
$PUCSORG
 10
0.0
 20
0.0
 30
0.0
  9
$PUCSXDIR
 10
1.0
 20
0.0
 30
0.0
  9
$PUCSYDIR
 10
0.0
 20
1.0
 30
0.0
  9
$PUCSORTHOREF
  2

  9
$PUCSORTHOVIEW
 70
     0
  9
$PUCSORGTOP
 10
0.0
 20
0.0
 30
0.0
  9
$PUCSORGBOTTOM
 10
0.0
 20
0.0
 30
0.0
  9
$PUCSORGLEFT
 10
0.0
 20
0.0
 30
0.0
  9
$PUCSORGRIGHT
 10
0.0
 20
0.0
 30
0.0
  9
$PUCSORGFRONT
 10
0.0
 20
0.0
 30
0.0
  9
$PUCSORGBACK
 10
0.0
 20
0.0
 30
0.0
  9
$USERI1
 70
     0
  9
$USERI2
 70
     0
  9
$USERI3
 70
     0
  9
$USERI4
 70
     0
  9
$USERI5
 70
     0
  9
$USERR1
 40
0.0
  9
$USERR2
 40
0.0
  9
$USERR3
 40
0.0
  9
$USERR4
 40
0.0
  9
$USERR5
 40
0.0
  9
$WORLDVIEW
 70
     1
  9
$SHADEDGE
 70
     3
  9
$SHADEDIF
 70
    70
  9
$TILEMODE
 70
     1
  9
$MAXACTVP
 70
    16
  9
$PINSBASE
 10
0.0
 20
0.0
 30
0.0
  9
$PLIMCHECK
 70
     0
  9
$PEXTMIN
 10
1.000000E+20
 20
1.000000E+20
 30
1.000000E+20
  9
$PEXTMAX
 10
-1.000000E+20
 20
-1.000000E+20
 30
-1.000000E+20
  9
$PLIMMIN
 10
0.0
 20
0.0
  9
$PLIMMAX
 10
12.0
 20
9.0
  9
$UNITMODE
 70
     0
  9
$VISRETAIN
 70
     0
  9
$PLINEGEN
 70
     1
  9
$PSLTSCALE
 70
     0
  9
$TREEDEPTH
 70
  3020
  9
$CMLSTYLE
  2
Standard
  9
$CMLJUST
 70
     0
  9
$CMLSCALE
 40
1.0
  9
$PROXYGRAPHICS
 70
     0
  9
$MEASUREMENT
 70
     0
  9
$CELWEIGHT
370
     0
  9
$ENDCAPS
280
     0
  9
$JOINSTYLE
280
     0
  9
$LWDISPLAY
290
     0
  9
$INSUNITS
 70
     0
  9
$HYPERLINKBASE
  1

  9
$STYLESHEET
  1

  9
$XEDIT
290
     1
  9
$CEPSNTYPE
380
     0
  9
$PSTYLEMODE
290
     1
  9
$FINGERPRINTGUID
  2

  9
$VERSIONGUID
  2

  9
$EXTNAMES
290
     1
  9
$PSVPSCALE
 40
0.0
  0
ENDSEC
  0
SECTION
  2
CLASSES
  0
CLASS
  1
LWPOLYLINE
  2
AcDbPolyline
  3
AutoCAD 2000
 90
        0
280
     0
281
     1
  0
CLASS
  1
IMAGE
  2
AcDbRasterImage
  3
ISM
 90
      127
280
     0
281
     1
  0
CLASS
  1
OLE2FRAME
  2
AcDbOle2Frame
  3
AutoCAD 2000
 90
        0
280
     0
281
     1
  0
CLASS
  1
HATCH
  2
AcDbHatch
  3
AutoCAD 2000
 90
        0
280
     0
281
     1
  0
CLASS
  1
DICTIONARYVAR
  2
AcDbDictionaryVar
  3
AutoCAD 2000
 90
        0
280
     0
281
     0
  0
CLASS
  1
RASTERVARIABLES
  2
AcDbRasterVariables
  3
ISM
 90
        0
280
     0
281
     0
  0
CLASS
  1
IMAGEDEF
  2
AcDbRasterImageDef
  3
ISM
 90
        0
280
     0
281
     0
  0
CLASS
  1
IMAGEDEF_REACTOR
  2
AcDbRasterImageDefReactor
  3
ISM
 90
        1
280
     0
281
     0
  0
CLASS
  1
IDBUFFER
  2
AcDbIdBuffer
  3
AutoCAD 2000
 90
        0
280
     0
281
     0
  0
CLASS
  1
SPATIAL_FILTER
  2
AcDbSpatialFilter
  3
AutoCAD 2000
 90
        0
280
     0
281
     0
  0
CLASS
  1
XRECORD
  2
AcDbXrecord
  3
AutoCAD 2000
 90
        0
280
     0
281
     0
  0
CLASS
  1
SORTENTSTABLE
  2
AcDbSortentsTable
  3
AutoCAD 2000
 90
        0
280
     0
281
     0
  0
CLASS
  1
LAYER_INDEX
  2
AcDbLayerIndex
  3
AutoCAD 2000
 90
        0
280
     0
281
     0
  0
CLASS
  1
SPATIAL_INDEX
  2
AcDbSpatialIndex
  3
AutoCAD 2000
 90
        0
280
     0
281
     0
  0
CLASS
  1
OBJECT_PTR
  2
CAseDLPNTableRecord
  3
"ASE-LPNTableRecord"
 90
        1
280
     0
281
     0
  0
CLASS
  1
LAYOUT
  2
AcDbLayout
  3
AutoCAD 2000
 90
        0
280
     0
281
     0
  0
CLASS
  1
PLOTSETTINGS
  2
AcDbPlotSettings
  3
AutoCAD 2000
 90
        0
280
     0
281
     0
  0
CLASS
  1
ACDBDICTIONARYWDFLT
  2
AcDbDictionaryWithDefault
  3
AutoCAD 2000
 90
        0
280
     0
281
     0
  0
CLASS
  1
ACDBPLACEHOLDER
  2
AcDbPlaceHolder
  3
AutoCAD 2000
 90
        0
280
     0
281
     0
  0
CLASS
  1
VBA_PROJECT
  2
AcDbVbaProject
  3
acadvba
 90
        0
280
     0
281
     0
  0
CLASS
  1
WIPEOUT
  2
AcDbWipeout
  3
WipeOut|AutoCAD Express Tool|expresstools@autodesk.com
 90
      127
280
     0
281
     1
  0
CLASS
  1
WIPEOUTVARIABLES
  2
AcDbWipeoutVariables
  3
WipeOut|AutoCAD Express Tool|expresstools@autodesk.com
 90
        0
280
     0
281
     0
  0
CLASS
  1
RTEXT
  2
RText
  3
RText|AutoCAD Express Tool|expresstools@autodesk.com
 90
        0
280
     0
281
     1
  0
CLASS
  1
ARCALIGNEDTEXT
  2
AcDbArcAlignedText
  3
ATEXT|AutoCAD Express Tool|expresstools@autodesk.com
 90
        0
280
     0
281
     1
  0
ENDSEC
  0
SECTION
  2
TABLES
  0
TABLE
  2
VPORT
  5
6
100
AcDbSymbolTable
 70
     1
  0
VPORT
  5
19
100
AcDbSymbolTableRecord
100
AcDbViewportTableRecord
  2
*ACTIVE
 70
     0
 10
0.0
 20
0.0
 11
1.0
 21
1.0
 12
0.0
 22
0.0
 13
0.0
 23
0.0
 14
1.0
 24
1.0
 15
0.0
 25
0.0
 16
0.0
 26
0.0
 36
1.0
 17
0.0
 27
0.0
 37
0.0
 40
594.0
 41
1.414141
 42
50.0
 43
0.0
 44
0.0
 50
0.0
 51
0.0
 71
     0
 72
   500
 73
     1
 74
     1
 75
     0
 76
     0
 77
     0
 78
     0
281
     0
 65
     0
110
0.0
120
0.0
130
0.0
111
1.0
121
0.0
131
0.0
112
0.0
122
1.0
132
0.0
345
0
346
0
 79
     0
146
0.0
  0
ENDTAB
  0
TABLE
  2
LTYPE
  5
3
100
AcDbSymbolTable
 70
     9
  0
LTYPE
  5
C
100
AcDbSymbolTableRecord
100
AcDbLinetypeTableRecord
  2
ByBlock
 70
    64
  3

 72
    65
 73
     0
 40
0.0
  0
LTYPE
  5
D
100
AcDbSymbolTableRecord
100
AcDbLinetypeTableRecord
  2
ByLayer
 70
    64
  3

 72
    65
 73
     0
 40
0.0
  0
LTYPE
  5
E
100
AcDbSymbolTableRecord
100
AcDbLinetypeTableRecord
  2
CONTINUOUS
 70
     0
  3
Solid line
 72
    65
 73
     0
 40
0.0
  0
LTYPE
  5
F
100
AcDbSymbolTableRecord
100
AcDbLinetypeTableRecord
  2
DASHED
 70
     0
  3
__ __ __ __ __ __ __ __ __ __ __ __ __ __ __
 72
    65
 73
     2
 40
2.0
 49
1.2
 74
     0
 49
-0.8
 74
     0
  0
LTYPE
  5
10
100
AcDbSymbolTableRecord
100
AcDbLinetypeTableRecord
  2
CENTER
 70
     0
  3
____ _ ____ _ ____ _ ____ _ ____ _ ____ _ ____
 72
    65
 73
     4
 40
12.0
 49
9.0
 74
     0
 49
-1.0
 74
     0
 49
1.0
 74
     0
 49
-1.0
 74
     0
  0
LTYPE
  5
11
100
AcDbSymbolTableRecord
100
AcDbLinetypeTableRecord
  2
HIDDEN
 70
     0
  3
_ _ _ _ _ _ _ _ _ _ _ _ _ _ _ _ _ _ _ _ _ _ _
 72
    65
 73
     2
 40
3.2
 49
2.4
 74
     0
 49
-0.8
 74
     0
  0
LTYPE
  5
12
100
AcDbSymbolTableRecord
100
AcDbLinetypeTableRecord
  2
PHANTOM
 70
     0
  3
_____ _ _ _____ _ _ _____ _ _ _____ _ _ _____
 72
    65
 73
     6
 40
13.5
 49
9.0
 74
     0
 49
-1.0
 74
     0
 49
1.0
 74
     0
 49
-0.5
 74
     0
 49
1.0
 74
     0
 49
-1.0
 74
     0
  0
LTYPE
  5
13
100
AcDbSymbolTableRecord
100
AcDbLinetypeTableRecord
  2
DOT
 70
     0
  3
...............................................
 72
    65
 73
     2
 40
1.0
 49
0.5
 74
     0
 49
-0.5
 74
     0
  0
LTYPE
  5
14
100
AcDbSymbolTableRecord
100
AcDbLinetypeTableRecord
  2
DASHDOT
 70
     0
  3
__ . __ . __ . __ . __ . __ . __ . __ . __ . __
 72
    65
 73
     4
 40
8.0
 49
5.0
 74
     0
 49
-1.0
 74
     0
 49
1.0
 74
     0
 49
-1.0
 74
     0
  0
ENDTAB
  0
TABLE
  2
LAYER
  5
1
100
AcDbSymbolTable
 70
     4
  0
LAYER
  5
15
100
AcDbSymbolTableRecord
100
AcDbLayerTableRecord
  2
0
 70
     0
 62
     7
  6
CONTINUOUS
290
     1
370
    -3
390
0
  0
LAYER
  5
16
100
AcDbSymbolTableRecord
100
AcDbLayerTableRecord
  2
1
 70
     0
 62
     2
  6
CONTINUOUS
290
     1
370
    -3
390
0
  0
LAYER
  5
17
100
AcDbSymbolTableRecord
100
AcDbLayerTableRecord
  2
2
 70
     0
 62
     3
  6
CONTINUOUS
290
     1
370
    -3
390
0
  0
LAYER
  5
18
100
AcDbSymbolTableRecord
100
AcDbLayerTableRecord
  2
3
 70
     0
 62
     4
  6
CONTINUOUS
290
     1
370
    -3
390
0
  0
ENDTAB
  0
TABLE
  2
STYLE
  5
2
100
AcDbSymbolTable
 70
     1
  0
STYLE
  5
1B
100
AcDbSymbolTableRecord
100
AcDbTextStyleTableRecord
  2
STANDARD
 70
    64
 40
0.0
 41
1.0
 50
0.0
 71
     0
 42
1.0
  3
txt
  4
BIGFONT
  0
ENDTAB
  0
TABLE
  2
VIEW
  5
4
100
AcDbSymbolTable
 70
     0
  0
ENDTAB
  0
TABLE
  2
UCS
  5
5
100
AcDbSymbolTable
 70
     0
  0
ENDTAB
  0
TABLE
  2
APPID
  5
7
100
AcDbSymbolTable
 70
     1
  0
APPID
  5
1A
100
AcDbSymbolTableRecord
100
AcDbRegAppTableRecord
  2
ACAD
 70
     0
  0
ENDTAB
  0
TABLE
  2
DIMSTYLE
  5
8
100
AcDbSymbolTable
 70
     1
100
AcDbDimStyleTable
 71
     0
  0
DIMSTYLE
105
2E
100
AcDbSymbolTableRecord
100
AcDbDimStyleTableRecord
  2
Standard
 70
     0
  3

  4

 40
2.0
 41
2.0
 42
1.0
 43
0.38
 44
2.0
 45
0.0
 46
0.0
 47
0.0
 48
0.0
 71
     0
 72
     0
 73
     0
 74
     0
 75
     0
 76
     0
 77
     1
 78
     0
 79
     0
140
3.5
141
0.09
142
0.0
143
25.4
144
1.0
145
0.0
146
1.0
147
0.5
148
0.0
170
     0
171
     2
172
     0
173
     0
174
     0
175
     0
176
     0
177
     0
178
     0
179
     0
271
     3
272
     4
273
     2
274
     2
275
     0
276
     0
277
     2
278
    46
279
     0
280
     0
281
     0
282
     0
283
     1
284
     0
285
     0
286
     0
288
     0
289
     3
340
1B
341
0
342
0
343
0
344
0
371
    -2
372
    -2
  0
ENDTAB
  0
TABLE
  2
BLOCK_RECORD
  5
29
100
AcDbSymbolTable
 70
    11
  0
BLOCK_RECORD
  5
27
100
AcDbSymbolTableRecord
100
AcDbBlockTableRecord
  2
*Model_Space
340
0
  0
BLOCK_RECORD
  5
28
100
AcDbSymbolTableRecord
100
AcDbBlockTableRecord
  2
*Paper_Space
340
0
  0
BLOCK_RECORD
  5
1C
100
AcDbSymbolTableRecord
100
AcDbBlockTableRecord
  2
*D0
340
0
  0
BLOCK_RECORD
  5
1D
100
AcDbSymbolTableRecord
100
AcDbBlockTableRecord
  2
*D1
340
0
  0
BLOCK_RECORD
  5
1E
100
AcDbSymbolTableRecord
100
AcDbBlockTableRecord
  2
*D2
340
0
  0
BLOCK_RECORD
  5
1F
100
AcDbSymbolTableRecord
100
AcDbBlockTableRecord
  2
*D3
340
0
  0
BLOCK_RECORD
  5
20
100
AcDbSymbolTableRecord
100
AcDbBlockTableRecord
  2
*D4
340
0
  0
BLOCK_RECORD
  5
21
100
AcDbSymbolTableRecord
100
AcDbBlockTableRecord
  2
*D5
340
0
  0
BLOCK_RECORD
  5
22
100
AcDbSymbolTableRecord
100
AcDbBlockTableRecord
  2
*D6
340
0
  0
BLOCK_RECORD
  5
23
100
AcDbSymbolTableRecord
100
AcDbBlockTableRecord
  2
*D7
340
0
  0
BLOCK_RECORD
  5
24
100
AcDbSymbolTableRecord
100
AcDbBlockTableRecord
  2
*D8
340
0
  0
BLOCK_RECORD
  5
25
100
AcDbSymbolTableRecord
100
AcDbBlockTableRecord
  2
*D9
340
0
  0
BLOCK_RECORD
  5
26
100
AcDbSymbolTableRecord
100
AcDbBlockTableRecord
  2
*D10
340
0
  0
ENDTAB
  0
ENDSEC
  0
SECTION
  2
BLOCKS
  0
BLOCK
  5
2A
100
AcDbEntity
  8
0
390
0
100
AcDbBlockBegin
  2
*Model_Space
 70
     0
 10
0.0
 20
0.0
 30
0.0
  3
*Model_Space
  1

  0
ENDBLK
  5
2B
100
AcDbEntity
  8
0
390
0
100
AcDbBlockEnd
  0
BLOCK
  5
2C
100
AcDbEntity
 67
     1
  8
0
390
0
100
AcDbBlockBegin
  2
*Paper_Space
 70
     0
 10
0.0
 20
0.0
 30
0.0
  3
*Paper_Space
  1

  0
ENDBLK
  5
2D
100
AcDbEntity
 67
     1
  8
0
390
0
100
AcDbBlockEnd
  0
BLOCK
  5
8A3
100
AcDbEntity
  8
3
100
AcDbBlockBegin
  2
*D0
 70
     1
 10
0.0
 20
0.0
 30
0.0
  3
*D0
  1

  0
TEXT
  5
8A4
100
AcDbEntity
  8
3
370
    25
100
AcDbText
 10
63.245023
 20
184.585775
 30
0.0
 40
7.0
  1
３０゜
 50
75.0
 72
     5
 11
68.317876
 21
203.517921
 31
0.0
100
AcDbText
  0
LINE
  5
8A5
100
AcDbEntity
  8
3
370
    25
100
AcDbLine
 10
98.716368
 20
206.424843
 30
0.0
 11
74.461753
 21
220.428251
 31
0.0
  0
LINE
  5
8A6
100
AcDbEntity
  8
3
370
    25
100
AcDbLine
 10
69.294469
 20
168.221357
 30
0.0
 11
60.472958
 21
168.221357
 31
0.0
  0
LINE
  5
8A7
100
AcDbEntity
  8
3
370
    25
100
AcDbLine
 10
76.193804
 20
219.428251
 30
0.0
 11
73.419233
 21
216.546974
 31
0.0
  0
LINE
  5
8A8
100
AcDbEntity
  8
3
370
    25
100
AcDbLine
 10
76.193804
 20
219.428251
 30
0.0
 11
75.231593
 21
215.545707
 31
0.0
  0
LINE
  5
8A9
100
AcDbEntity
  8
3
370
    25
100
AcDbLine
 10
73.419233
 20
216.546974
 30
0.0
 11
75.231593
 21
215.545707
 31
0.0
  0
LINE
  5
8AA
100
AcDbEntity
  8
3
370
    25
100
AcDbLine
 10
62.472958
 20
168.221357
 30
0.0
 11
63.580931
 21
172.064844
 31
0.0
  0
LINE
  5
8AB
100
AcDbEntity
  8
3
370
    25
100
AcDbLine
 10
62.472958
 20
168.221357
 30
0.0
 11
61.510747
 21
172.103902
 31
0.0
  0
LINE
  5
8AC
100
AcDbEntity
  8
3
370
    25
100
AcDbLine
 10
63.580931
 20
172.064844
 30
0.0
 11
61.510747
 21
172.103902
 31
0.0
  0
ARC
  5
8AD
100
AcDbEntity
  8
3
370
    25
100
AcDbCircle
 10
164.886746
 20
168.221357
 30
0.0
 40
102.413788
100
AcDbArc
 50
150.0
 51
180.0
  0
ENDBLK
  5
8AE
100
AcDbEntity
  8
3
100
AcDbBlockEnd
  0
BLOCK
  5
8AF
100
AcDbEntity
  8
3
100
AcDbBlockBegin
  2
*D1
 70
     1
 10
0.0
 20
0.0
 30
0.0
  3
*D1
  1

  0
TEXT
  5
8B0
100
AcDbEntity
  8
3
370
    25
100
AcDbText
 10
13.473717
 20
48.69445
 30
0.0
 40
7.0
  1
２５゜
 50
347.5
 72
     5
 11
32.609118
 21
44.452234
 31
0.0
100
AcDbText
  0
LINE
  5
8B1
100
AcDbEntity
  8
3
370
    25
100
AcDbLine
 10
31.133634
 20
89.424489
 30
0.0
 11
11.541174
 21
47.408324
 31
0.0
  0
LINE
  5
8B2
100
AcDbEntity
  8
3
370
    25
100
AcDbLine
 10
35.18387
 20
95.663307
 30
0.0
 11
35.18387
 21
42.166865
 31
0.0
  0
LINE
  5
8B3
100
AcDbEntity
  8
3
370
    25
100
AcDbLine
 10
12.386411
 20
49.22094
 30
0.0
 11
15.540703
 21
46.761175
 31
0.0
  0
LINE
  5
8B4
100
AcDbEntity
  8
3
370
    25
100
AcDbLine
 10
12.386411
 20
49.22094
 30
0.0
 11
16.34799
 21
48.667867
 31
0.0
  0
LINE
  5
8B5
100
AcDbEntity
  8
3
370
    25
100
AcDbLine
 10
15.540703
 20
46.761175
 30
0.0
 11
16.34799
 21
48.667867
 31
0.0
  0
LINE
  5
8B6
100
AcDbEntity
  8
3
370
    25
100
AcDbLine
 10
35.18387
 20
44.166865
 30
0.0
 11
31.359721
 21
45.339846
 31
0.0
  0
LINE
  5
8B7
100
AcDbEntity
  8
3
370
    25
100
AcDbLine
 10
35.18387
 20
44.166865
 30
0.0
 11
31.28557
 21
43.270622
 31
0.0
  0
LINE
  5
8B8
100
AcDbEntity
  8
3
370
    25
100
AcDbLine
 10
31.359721
 20
45.339846
 30
0.0
 11
31.28557
 21
43.270622
 31
0.0
  0
ARC
  5
8B9
100
AcDbEntity
  8
3
370
    25
100
AcDbCircle
 10
35.18387
 20
98.11025
 30
0.0
 40
53.943385
100
AcDbArc
 50
245.0
 51
270.0
  0
ENDBLK
  5
8BA
100
AcDbEntity
  8
3
100
AcDbBlockEnd
  0
BLOCK
  5
8BB
100
AcDbEntity
  8
3
100
AcDbBlockBegin
  2
*D2
 70
     1
 10
0.0
 20
0.0
 30
0.0
  3
*D2
  1

  0
LINE
  5
8BC
100
AcDbEntity
  8
3
370
    25
100
AcDbLine
 10
153.254678
 20
12.882015
 30
0.0
 11
-61.771954
 21
12.882015
 31
0.0
  0
LINE
  5
8BD
100
AcDbEntity
  8
3
370
    25
100
AcDbLine
 10
-59.771954
 20
12.882015
 30
0.0
 11
-58.736677
 21
16.745718
 31
0.0
  0
LINE
  5
8BE
100
AcDbEntity
  8
3
370
    25
100
AcDbLine
 10
-59.771954
 20
12.882015
 30
0.0
 11
-60.80723
 21
16.745718
 31
0.0
  0
LINE
  5
8BF
100
AcDbEntity
  8
3
370
    25
100
AcDbLine
 10
-58.736677
 20
16.745718
 30
0.0
 11
-60.80723
 21
16.745718
 31
0.0
  0
LINE
  5
8C0
100
AcDbEntity
  8
3
370
    25
100
AcDbLine
 10
-59.771954
 20
12.882015
 30
0.0
 11
-59.771954
 21
205.558805
 31
0.0
  0
LINE
  5
8C1
100
AcDbEntity
  8
3
370
    25
100
AcDbLine
 10
-59.771954
 20
205.558805
 30
0.0
 11
-60.80723
 21
201.695102
 31
0.0
  0
LINE
  5
8C2
100
AcDbEntity
  8
3
370
    25
100
AcDbLine
 10
-59.771954
 20
205.558805
 30
0.0
 11
-58.736677
 21
201.695102
 31
0.0
  0
LINE
  5
8C3
100
AcDbEntity
  8
3
370
    25
100
AcDbLine
 10
-60.80723
 20
201.695102
 30
0.0
 11
-58.736677
 21
201.695102
 31
0.0
  0
LINE
  5
8C4
100
AcDbEntity
  8
3
370
    25
100
AcDbLine
 10
97.948463
 20
205.558805
 30
0.0
 11
-61.771954
 21
205.558805
 31
0.0
  0
ENDBLK
  5
8C5
100
AcDbEntity
  8
3
100
AcDbBlockEnd
  0
BLOCK
  5
8C6
100
AcDbEntity
  8
3
100
AcDbBlockBegin
  2
*D3
 70
     1
 10
0.0
 20
0.0
 30
0.0
  3
*D3
  1

  0
LINE
  5
8C7
100
AcDbEntity
  8
3
370
    25
100
AcDbLine
 10
35.18387
 20
96.110327
 30
0.0
 11
35.18387
 21
-17.557295
 31
0.0
  0
LINE
  5
8C8
100
AcDbEntity
  8
3
370
    25
100
AcDbLine
 10
35.18387
 20
-15.557295
 30
0.0
 11
39.047574
 21
-16.592571
 31
0.0
  0
LINE
  5
8C9
100
AcDbEntity
  8
3
370
    25
100
AcDbLine
 10
35.18387
 20
-15.557295
 30
0.0
 11
39.047574
 21
-14.522019
 31
0.0
  0
LINE
  5
8CA
100
AcDbEntity
  8
3
370
    25
100
AcDbLine
 10
39.047574
 20
-16.592571
 30
0.0
 11
39.047574
 21
-14.522019
 31
0.0
  0
LINE
  5
8CB
100
AcDbEntity
  8
3
370
    25
100
AcDbLine
 10
35.18387
 20
-15.557295
 30
0.0
 11
155.254678
 21
-15.557295
 31
0.0
  0
LINE
  5
8CC
100
AcDbEntity
  8
3
370
    25
100
AcDbLine
 10
155.254678
 20
-15.557295
 30
0.0
 11
151.390974
 21
-14.522019
 31
0.0
  0
LINE
  5
8CD
100
AcDbEntity
  8
3
370
    25
100
AcDbLine
 10
155.254678
 20
-15.557295
 30
0.0
 11
151.390974
 21
-16.592571
 31
0.0
  0
LINE
  5
8CE
100
AcDbEntity
  8
3
370
    25
100
AcDbLine
 10
151.390974
 20
-14.522019
 30
0.0
 11
151.390974
 21
-16.592571
 31
0.0
  0
LINE
  5
8CF
100
AcDbEntity
  8
3
370
    25
100
AcDbLine
 10
155.254678
 20
-12.080653
 30
0.0
 11
155.254678
 21
-17.557295
 31
0.0
  0
ENDBLK
  5
8D0
100
AcDbEntity
  8
3
100
AcDbBlockEnd
  0
BLOCK
  5
8D1
100
AcDbEntity
  8
3
100
AcDbBlockBegin
  2
*D4
 70
     1
 10
0.0
 20
0.0
 30
0.0
  3
*D4
  1

  0
LINE
  5
8D2
100
AcDbEntity
  8
3
370
    25
100
AcDbLine
 10
153.254678
 20
12.882015
 30
0.0
 11
-0.286256
 21
12.882015
 31
0.0
  0
LINE
  5
8D3
100
AcDbEntity
  8
3
370
    25
100
AcDbLine
 10
1.713744
 20
12.882015
 30
0.0
 11
2.74902
 21
16.745718
 31
0.0
  0
LINE
  5
8D4
100
AcDbEntity
  8
3
370
    25
100
AcDbLine
 10
1.713744
 20
12.882015
 30
0.0
 11
0.678468
 21
16.745718
 31
0.0
  0
LINE
  5
8D5
100
AcDbEntity
  8
3
370
    25
100
AcDbLine
 10
2.74902
 20
16.745718
 30
0.0
 11
0.678468
 21
16.745718
 31
0.0
  0
LINE
  5
8D6
100
AcDbEntity
  8
3
370
    25
100
AcDbLine
 10
1.713744
 20
12.882015
 30
0.0
 11
1.713744
 21
98.110327
 31
0.0
  0
LINE
  5
8D7
100
AcDbEntity
  8
3
370
    25
100
AcDbLine
 10
1.713744
 20
98.110327
 30
0.0
 11
0.678468
 21
94.246624
 31
0.0
  0
LINE
  5
8D8
100
AcDbEntity
  8
3
370
    25
100
AcDbLine
 10
1.713744
 20
98.110327
 30
0.0
 11
2.74902
 21
94.246624
 31
0.0
  0
LINE
  5
8D9
100
AcDbEntity
  8
3
370
    25
100
AcDbLine
 10
0.678468
 20
94.246624
 30
0.0
 11
2.74902
 21
94.246624
 31
0.0
  0
LINE
  5
8DA
100
AcDbEntity
  8
3
370
    25
100
AcDbLine
 10
33.18387
 20
98.110327
 30
0.0
 11
-0.286256
 21
98.110327
 31
0.0
  0
ENDBLK
  5
8DB
100
AcDbEntity
  8
3
100
AcDbBlockEnd
  0
BLOCK
  5
8DC
100
AcDbEntity
  8
3
100
AcDbBlockBegin
  2
*D5
 70
     1
 10
0.0
 20
0.0
 30
0.0
  3
*D5
  1

  0
LINE
  5
8DD
100
AcDbEntity
  8
3
370
    25
100
AcDbLine
 10
153.254678
 20
12.882015
 30
0.0
 11
-22.345037
 21
12.882015
 31
0.0
  0
LINE
  5
8DE
100
AcDbEntity
  8
3
370
    25
100
AcDbLine
 10
-20.345037
 20
12.882015
 30
0.0
 11
-19.309761
 21
16.745718
 31
0.0
  0
LINE
  5
8DF
100
AcDbEntity
  8
3
370
    25
100
AcDbLine
 10
-20.345037
 20
12.882015
 30
0.0
 11
-21.380314
 21
16.745718
 31
0.0
  0
LINE
  5
8E0
100
AcDbEntity
  8
3
370
    25
100
AcDbLine
 10
-19.309761
 20
16.745718
 30
0.0
 11
-21.380314
 21
16.745718
 31
0.0
  0
LINE
  5
8E1
100
AcDbEntity
  8
3
370
    25
100
AcDbLine
 10
-20.345037
 20
12.882015
 30
0.0
 11
-20.345037
 21
137.345466
 31
0.0
  0
LINE
  5
8E2
100
AcDbEntity
  8
3
370
    25
100
AcDbLine
 10
-20.345037
 20
137.345466
 30
0.0
 11
-21.380314
 21
133.481762
 31
0.0
  0
LINE
  5
8E3
100
AcDbEntity
  8
3
370
    25
100
AcDbLine
 10
-20.345037
 20
137.345466
 30
0.0
 11
-19.309761
 21
133.481762
 31
0.0
  0
LINE
  5
8E4
100
AcDbEntity
  8
3
370
    25
100
AcDbLine
 10
-21.380314
 20
133.481762
 30
0.0
 11
-19.309761
 21
133.481762
 31
0.0
  0
LINE
  5
8E5
100
AcDbEntity
  8
3
370
    25
100
AcDbLine
 10
35.898567
 20
137.345466
 30
0.0
 11
-22.345037
 21
137.345466
 31
0.0
  0
ENDBLK
  5
8E6
100
AcDbEntity
  8
3
100
AcDbBlockEnd
  0
BLOCK
  5
8E7
100
AcDbEntity
  8
3
100
AcDbBlockBegin
  2
*D6
 70
     1
 10
0.0
 20
0.0
 30
0.0
  3
*D6
  1

  0
LINE
  5
8E8
100
AcDbEntity
  8
3
370
    25
100
AcDbLine
 10
153.254678
 20
12.882015
 30
0.0
 11
-41.309891
 21
12.882015
 31
0.0
  0
LINE
  5
8E9
100
AcDbEntity
  8
3
370
    25
100
AcDbLine
 10
-39.309891
 20
12.882015
 30
0.0
 11
-38.274615
 21
16.745718
 31
0.0
  0
LINE
  5
8EA
100
AcDbEntity
  8
3
370
    25
100
AcDbLine
 10
-39.309891
 20
12.882015
 30
0.0
 11
-40.345167
 21
16.745718
 31
0.0
  0
LINE
  5
8EB
100
AcDbEntity
  8
3
370
    25
100
AcDbLine
 10
-38.274615
 20
16.745718
 30
0.0
 11
-40.345167
 21
16.745718
 31
0.0
  0
LINE
  5
8EC
100
AcDbEntity
  8
3
370
    25
100
AcDbLine
 10
-39.309891
 20
12.882015
 30
0.0
 11
-39.309891
 21
168.221357
 31
0.0
  0
LINE
  5
8ED
100
AcDbEntity
  8
3
370
    25
100
AcDbLine
 10
-39.309891
 20
168.221357
 30
0.0
 11
-40.345167
 21
164.357654
 31
0.0
  0
LINE
  5
8EE
100
AcDbEntity
  8
3
370
    25
100
AcDbLine
 10
-39.309891
 20
168.221357
 30
0.0
 11
-38.274615
 21
164.357654
 31
0.0
  0
LINE
  5
8EF
100
AcDbEntity
  8
3
370
    25
100
AcDbLine
 10
-40.345167
 20
164.357654
 30
0.0
 11
-38.274615
 21
164.357654
 31
0.0
  0
LINE
  5
8F0
100
AcDbEntity
  8
3
370
    25
100
AcDbLine
 10
69.294469
 20
168.221357
 30
0.0
 11
-41.309891
 21
168.221357
 31
0.0
  0
ENDBLK
  5
8F1
100
AcDbEntity
  8
3
100
AcDbBlockEnd
  0
BLOCK
  5
8F2
100
AcDbEntity
  8
3
100
AcDbBlockBegin
  2
*D7
 70
     1
 10
0.0
 20
0.0
 30
0.0
  3
*D7
  1

  0
LINE
  5
8F3
100
AcDbEntity
  8
3
370
    25
100
AcDbLine
 10
73.253773
 20
-162.483387
 30
0.0
 11
-0.286256
 21
-162.483387
 31
0.0
  0
LINE
  5
8F4
100
AcDbEntity
  8
3
370
    25
100
AcDbLine
 10
1.713744
 20
-162.483387
 30
0.0
 11
2.74902
 21
-158.619683
 31
0.0
  0
LINE
  5
8F5
100
AcDbEntity
  8
3
370
    25
100
AcDbLine
 10
1.713744
 20
-162.483387
 30
0.0
 11
0.678468
 21
-158.619683
 31
0.0
  0
LINE
  5
8F6
100
AcDbEntity
  8
3
370
    25
100
AcDbLine
 10
2.74902
 20
-158.619683
 30
0.0
 11
0.678468
 21
-158.619683
 31
0.0
  0
LINE
  5
8F7
100
AcDbEntity
  8
3
370
    25
100
AcDbLine
 10
1.713744
 20
-162.483387
 30
0.0
 11
1.713744
 21
12.882015
 31
0.0
  0
LINE
  5
8F8
100
AcDbEntity
  8
3
370
    25
100
AcDbLine
 10
1.713744
 20
12.882015
 30
0.0
 11
0.678468
 21
9.018312
 31
0.0
  0
LINE
  5
8F9
100
AcDbEntity
  8
3
370
    25
100
AcDbLine
 10
1.713744
 20
12.882015
 30
0.0
 11
2.74902
 21
9.018312
 31
0.0
  0
LINE
  5
8FA
100
AcDbEntity
  8
3
370
    25
100
AcDbLine
 10
0.678468
 20
9.018312
 30
0.0
 11
2.74902
 21
9.018312
 31
0.0
  0
LINE
  5
8FB
100
AcDbEntity
  8
3
370
    25
100
AcDbLine
 10
153.254678
 20
12.882015
 30
0.0
 11
-0.286256
 21
12.882015
 31
0.0
  0
ENDBLK
  5
8FC
100
AcDbEntity
  8
3
100
AcDbBlockEnd
  0
BLOCK
  5
8FD
100
AcDbEntity
  8
3
100
AcDbBlockBegin
  2
*D8
 70
     1
 10
0.0
 20
0.0
 30
0.0
  3
*D8
  1

  0
LINE
  5
8FE
100
AcDbEntity
  8
3
370
    25
100
AcDbLine
 10
129.379882
 20
-12.992861
 30
0.0
 11
96.399027
 21
-45.973817
 31
0.0
  0
LINE
  5
8FF
100
AcDbEntity
  8
3
370
    25
100
AcDbLine
 10
97.813238
 20
-44.559601
 30
0.0
 11
99.813244
 21
-48.0237
 31
0.0
  0
LINE
  5
900
100
AcDbEntity
  8
3
370
    25
100
AcDbLine
 10
97.813238
 20
-44.559601
 30
0.0
 11
101.277343
 21
-46.559596
 31
0.0
  0
LINE
  5
901
100
AcDbEntity
  8
3
370
    25
100
AcDbLine
 10
99.813244
 20
-48.0237
 30
0.0
 11
101.277343
 21
-46.559596
 31
0.0
  0
LINE
  5
902
100
AcDbEntity
  8
3
370
    25
100
AcDbLine
 10
97.813238
 20
-44.559601
 30
0.0
 11
108.419816
 21
-55.166146
 31
0.0
  0
LINE
  5
903
100
AcDbEntity
  8
3
370
    25
100
AcDbLine
 10
108.419816
 20
-55.166146
 30
0.0
 11
106.41981
 21
-51.702047
 31
0.0
  0
LINE
  5
904
100
AcDbEntity
  8
3
370
    25
100
AcDbLine
 10
108.419816
 20
-55.166146
 30
0.0
 11
104.955711
 21
-53.166151
 31
0.0
  0
LINE
  5
905
100
AcDbEntity
  8
3
370
    25
100
AcDbLine
 10
106.41981
 20
-51.702047
 30
0.0
 11
104.955711
 21
-53.166151
 31
0.0
  0
LINE
  5
906
100
AcDbEntity
  8
3
370
    25
100
AcDbLine
 10
127.323962
 20
-36.261941
 30
0.0
 11
107.005604
 21
-56.580361
 31
0.0
  0
ENDBLK
  5
907
100
AcDbEntity
  8
3
100
AcDbBlockEnd
  0
BLOCK
  5
908
100
AcDbEntity
  8
3
100
AcDbBlockBegin
  2
*D9
 70
     1
 10
0.0
 20
0.0
 30
0.0
  3
*D9
  1

  0
LINE
  5
909
100
AcDbEntity
  8
3
370
    25
100
AcDbLine
 10
292.879506
 20
-120.67811
 30
0.0
 11
336.76947
 21
-120.67811
 31
0.0
  0
LINE
  5
90A
100
AcDbEntity
  8
3
370
    25
100
AcDbLine
 10
334.76947
 20
-120.67811
 30
0.0
 11
335.804746
 21
-116.814407
 31
0.0
  0
LINE
  5
90B
100
AcDbEntity
  8
3
370
    25
100
AcDbLine
 10
334.76947
 20
-120.67811
 30
0.0
 11
333.734194
 21
-116.814407
 31
0.0
  0
LINE
  5
90C
100
AcDbEntity
  8
3
370
    25
100
AcDbLine
 10
335.804746
 20
-116.814407
 30
0.0
 11
333.734194
 21
-116.814407
 31
0.0
  0
LINE
  5
90D
100
AcDbEntity
  8
3
370
    25
100
AcDbLine
 10
334.76947
 20
-120.67811
 30
0.0
 11
334.76947
 21
12.882015
 31
0.0
  0
LINE
  5
90E
100
AcDbEntity
  8
3
370
    25
100
AcDbLine
 10
334.76947
 20
12.882015
 30
0.0
 11
333.734194
 21
9.018312
 31
0.0
  0
LINE
  5
90F
100
AcDbEntity
  8
3
370
    25
100
AcDbLine
 10
334.76947
 20
12.882015
 30
0.0
 11
335.804746
 21
9.018312
 31
0.0
  0
LINE
  5
910
100
AcDbEntity
  8
3
370
    25
100
AcDbLine
 10
333.734194
 20
9.018312
 30
0.0
 11
335.804746
 21
9.018312
 31
0.0
  0
LINE
  5
911
100
AcDbEntity
  8
3
370
    25
100
AcDbLine
 10
157.254678
 20
12.882015
 30
0.0
 11
336.76947
 21
12.882015
 31
0.0
  0
ENDBLK
  5
912
100
AcDbEntity
  8
3
100
AcDbBlockEnd
  0
BLOCK
  5
913
100
AcDbEntity
  8
3
100
AcDbBlockBegin
  2
*D10
 70
     1
 10
0.0
 20
0.0
 30
0.0
  3
*D10
  1

  0
TEXT
  5
914
100
AcDbEntity
  8
3
370
    25
100
AcDbText
 10
-227.032089
 20
53.203226
 30
0.0
 40
7.0
  1
φ４９
 72
     5
 11
-207.432089
 21
53.203226
 31
0.0
100
AcDbText
  0
LINE
  5
915
100
AcDbEntity
  8
3
370
    25
100
AcDbLine
 10
-198.032089
 20
43.97128
 30
0.0
 11
-198.032089
 21
54.203226
 31
0.0
  0
LINE
  5
916
100
AcDbEntity
  8
3
370
    25
100
AcDbLine
 10
-198.032089
 20
52.203226
 30
0.0
 11
-201.895793
 21
53.238502
 31
0.0
  0
LINE
  5
917
100
AcDbEntity
  8
3
370
    25
100
AcDbLine
 10
-198.032089
 20
52.203226
 30
0.0
 11
-201.895793
 21
51.167949
 31
0.0
  0
LINE
  5
918
100
AcDbEntity
  8
3
370
    25
100
AcDbLine
 10
-201.895793
 20
53.238502
 30
0.0
 11
-201.895793
 21
51.167949
 31
0.0
  0
LINE
  5
919
100
AcDbEntity
  8
3
370
    25
100
AcDbLine
 10
-227.032089
 20
52.203226
 30
0.0
 11
-139.032089
 21
52.203226
 31
0.0
  0
LINE
  5
91A
100
AcDbEntity
  8
3
370
    25
100
AcDbLine
 10
-149.032089
 20
52.203226
 30
0.0
 11
-145.168386
 21
51.167949
 31
0.0
  0
LINE
  5
91B
100
AcDbEntity
  8
3
370
    25
100
AcDbLine
 10
-149.032089
 20
52.203226
 30
0.0
 11
-145.168386
 21
53.238502
 31
0.0
  0
LINE
  5
91C
100
AcDbEntity
  8
3
370
    25
100
AcDbLine
 10
-145.168386
 20
51.167949
 30
0.0
 11
-145.168386
 21
53.238502
 31
0.0
  0
LINE
  5
91D
100
AcDbEntity
  8
3
370
    25
100
AcDbLine
 10
-149.032089
 20
43.97128
 30
0.0
 11
-149.032089
 21
54.203226
 31
0.0
  0
ENDBLK
  5
91E
100
AcDbEntity
  8
3
100
AcDbBlockEnd
  0
ENDSEC
  0
SECTION
  2
ENTITIES
  0
LINE
  5
2F
100
AcDbEntity
  8
1
370
   100
100
AcDbLine
 10
-384.001978
 20
276.500324
 30
0.0
 11
384.001978
 21
276.500324
 31
0.0
  0
LINE
  5
30
100
AcDbEntity
  8
1
370
   100
100
AcDbLine
 10
-384.001978
 20
276.500324
 30
0.0
 11
-384.001978
 21
-276.500324
 31
0.0
  0
LINE
  5
31
100
AcDbEntity
  8
1
370
   100
100
AcDbLine
 10
-384.001978
 20
-276.500324
 30
0.0
 11
384.001978
 21
-276.500324
 31
0.0
  0
LINE
  5
32
100
AcDbEntity
  8
1
370
   100
100
AcDbLine
 10
384.001978
 20
-276.500324
 30
0.0
 11
384.001978
 21
276.500324
 31
0.0
  0
TEXT
  5
33
100
AcDbEntity
  8
1
370
    50
100
AcDbText
 10
348.648035
 20
-224.7813
 30
0.0
 40
6.0
  1
設計
 72
     5
 11
359.448035
 21
-224.7813
 31
0.0
100
AcDbText
  0
TEXT
  5
34
100
AcDbEntity
  8
1
370
    50
100
AcDbText
 10
368.14707
 20
-224.628101
 30
0.0
 40
6.0
  1
製図
 72
     5
 11
378.94707
 21
-224.628101
 31
0.0
100
AcDbText
  0
TEXT
  5
35
100
AcDbEntity
  8
1
370
    50
100
AcDbText
 10
308.025337
 20
-224.7813
 30
0.0
 40
6.0
  1
承認
 72
     5
 11
318.825337
 21
-224.7813
 31
0.0
100
AcDbText
  0
TEXT
  5
36
100
AcDbEntity
  8
1
370
    50
100
AcDbText
 10
328.009271
 20
-224.726463
 30
0.0
 40
6.0
  1
検図
 72
     5
 11
338.809271
 21
-224.726463
 31
0.0
100
AcDbText
  0
LINE
  5
37
100
AcDbEntity
  8
1
370
    25
100
AcDbLine
 10
274.001978
 20
-226.500324
 30
0.0
 11
384.001978
 21
-226.500324
 31
0.0
  0
LINE
  5
38
100
AcDbEntity
  8
1
370
    25
100
AcDbLine
 10
331.501978
 20
-244.500324
 30
0.0
 11
331.501978
 21
-258.500324
 31
0.0
  0
TEXT
  5
39
100
AcDbEntity
  8
1
370
    50
100
AcDbText
 10
308.571182
 20
-254.540971
 30
0.0
 40
6.0
  1
日　付
 72
     5
 11
325.371182
 21
-254.540971
 31
0.0
100
AcDbText
  0
LINE
  5
3A
100
AcDbEntity
  8
1
370
    50
100
AcDbLine
 10
30.001978
 20
-258.500324
 30
0.0
 11
384.001978
 21
-258.500324
 31
0.0
  0
TEXT
  5
3B
100
AcDbEntity
  8
1
370
    50
100
AcDbText
 10
276.794603
 20
-254.850849
 30
0.0
 40
6.0
  1
第三角法
 72
     5
 11
299.594603
 21
-254.850849
 31
0.0
100
AcDbText
  0
TEXT
  5
3C
100
AcDbEntity
  8
1
370
    50
100
AcDbText
 10
280.107011
 20
-224.526463
 30
0.0
 40
6.0
  1
尺　度
 72
     5
 11
296.907011
 21
-224.526463
 31
0.0
100
AcDbText
  0
LINE
  5
3D
100
AcDbEntity
  8
1
370
   100
100
AcDbLine
 10
30.001978
 20
-216.500324
 30
0.0
 11
384.001978
 21
-216.500324
 31
0.0
  0
LINE
  5
3E
100
AcDbEntity
  8
1
370
    50
100
AcDbLine
 10
201.001978
 20
-216.500324
 30
0.0
 11
201.001978
 21
-276.500324
 31
0.0
  0
LINE
  5
3F
100
AcDbEntity
  8
1
370
    25
100
AcDbLine
 10
364.001978
 20
-244.500324
 30
0.0
 11
364.001978
 21
-216.500324
 31
0.0
  0
LINE
  5
40
100
AcDbEntity
  8
1
370
    25
100
AcDbLine
 10
344.001978
 20
-244.500324
 30
0.0
 11
344.001978
 21
-216.500324
 31
0.0
  0
LINE
  5
41
100
AcDbEntity
  8
1
370
    25
100
AcDbLine
 10
324.001978
 20
-244.500324
 30
0.0
 11
324.001978
 21
-216.500324
 31
0.0
  0
LINE
  5
42
100
AcDbEntity
  8
1
370
    50
100
AcDbLine
 10
274.001978
 20
-276.500324
 30
0.0
 11
274.001978
 21
-216.500324
 31
0.0
  0
LINE
  5
43
100
AcDbEntity
  8
1
370
    50
100
AcDbLine
 10
179.001978
 20
-216.500324
 30
0.0
 11
179.001978
 21
-276.500324
 31
0.0
  0
LINE
  5
44
100
AcDbEntity
  8
1
370
    50
100
AcDbLine
 10
52.001978
 20
-216.500324
 30
0.0
 11
52.001978
 21
-258.500324
 31
0.0
  0
LINE
  5
45
100
AcDbEntity
  8
1
370
    50
100
AcDbLine
 10
274.001978
 20
-244.500324
 30
0.0
 11
384.001978
 21
-244.500324
 31
0.0
  0
TEXT
  5
46
100
AcDbEntity
  8
1
370
    50
100
AcDbText
 10
276.120721
 20
-270.409382
 30
0.0
 40
6.0
  1
コードＮｏ
 41
0.9
 72
     5
 11
302.040721
 21
-270.409382
 31
0.0
100
AcDbText
  0
TEXT
  5
47
100
AcDbEntity
  8
1
370
   100
100
AcDbText
 10
41.906366
 20
-271.404102
 30
0.0
 40
8.0
  1
ミズタニバルブ工業株式会社
 41
1.2
 72
     5
 11
164.786366
 21
-271.404102
 31
0.0
100
AcDbText
  0
LINE
  5
48
100
AcDbEntity
  8
1
370
    50
100
AcDbLine
 10
30.001978
 20
-237.500324
 30
0.0
 11
274.001978
 21
-237.500324
 31
0.0
  0
LINE
  5
49
100
AcDbEntity
  8
1
370
    50
100
AcDbLine
 10
104.501978
 20
-237.500324
 30
0.0
 11
104.501978
 21
-258.500324
 31
0.0
  0
LINE
  5
4A
100
AcDbEntity
  8
1
370
    50
100
AcDbLine
 10
126.501978
 20
-237.500324
 30
0.0
 11
126.501978
 21
-258.500324
 31
0.0
  0
LINE
  5
4B
100
AcDbEntity
  8
1
370
    50
100
AcDbLine
 10
304.001978
 20
-276.500324
 30
0.0
 11
304.001978
 21
-216.500324
 31
0.0
  0
TEXT
  5
4C
100
AcDbEntity
  8
1
370
    50
100
AcDbText
 10
334.117723
 20
-254.628736
 30
0.0
 40
6.0
  1
　　・　　・
 72
     5
 11
368.917723
 21
-254.628736
 31
0.0
100
AcDbText
  0
LINE
  5
4D
100
AcDbEntity
  8
1
370
   100
100
AcDbLine
 10
30.001978
 20
-216.500324
 30
0.0
 11
30.001978
 21
-276.500324
 31
0.0
  0
TEXT
  5
4E
100
AcDbEntity
  8
1
370
    50
100
AcDbText
 10
279.852174
 20
-238.541935
 30
0.0
 40
6.0
  1
　／ 
 72
     5
 11
290.652174
 21
-238.541935
 31
0.0
100
AcDbText
  0
TEXT
  5
4F
100
AcDbEntity
  8
1
370
    50
100
AcDbText
 10
182.923715
 20
-270.553352
 30
0.0
 40
6.0
  1
備 考 
 72
     5
 11
196.723715
 21
-270.553352
 31
0.0
100
AcDbText
  0
TEXT
  5
50
100
AcDbEntity
  8
1
370
    50
100
AcDbText
 10
182.532126
 20
-229.420283
 30
0.0
 40
6.0
  1
仕 上
 72
     5
 11
196.332126
 21
-229.420283
 31
0.0
100
AcDbText
  0
TEXT
  5
51
100
AcDbEntity
  8
1
370
    50
100
AcDbText
 10
182.466768
 20
-247.420109
 30
0.0
 40
6.0
  1
表 面
 72
     5
 11
196.266768
 21
-247.420109
 31
0.0
100
AcDbText
  0
TEXT
  5
52
100
AcDbEntity
  8
1
370
    50
100
AcDbText
 10
182.466768
 20
-254.420109
 30
0.0
 40
6.0
  1
処 理
 72
     5
 11
196.266768
 21
-254.420109
 31
0.0
100
AcDbText
  0
TEXT
  5
53
100
AcDbEntity
  8
1
370
    50
100
AcDbText
 10
33.812943
 20
-230.221842
 30
0.0
 40
6.0
  1
品 名
 72
     5
 11
47.612943
 21
-230.221842
 31
0.0
100
AcDbText
  0
TEXT
  5
54
100
AcDbEntity
  8
1
370
    50
100
AcDbText
 10
33.417358
 20
-250.990977
 30
0.0
 40
6.0
  1
材 質
 72
     5
 11
47.217358
 21
-250.990977
 31
0.0
100
AcDbText
  0
TEXT
  5
55
100
AcDbEntity
  8
1
370
    50
100
AcDbText
 10
107.917358
 20
-250.990977
 30
0.0
 40
6.0
  1
規 格
 72
     5
 11
121.717358
 21
-250.990977
 31
0.0
100
AcDbText
  0
LINE
  5
56
100
AcDbEntity
  8
2
370
    25
  6
CENTER
100
AcDbLine
 10
-173.532089
 20
177.683703
 30
0.0
 11
-173.532089
 21
-260.79007
 31
0.0
  0
LINE
  5
57
100
AcDbEntity
  8
2
370
    50
100
AcDbLine
 10
-198.031772
 20
131.220997
 30
0.0
 11
-198.031772
 21
171.720997
 31
0.0
  0
ARC
  5
58
100
AcDbEntity
  8
2
370
    50
100
AcDbCircle
 10
-197.531772
 20
131.220997
 30
0.0
 40
0.5
100
AcDbArc
 50
180.0
 51
270.0
  0
LINE
  5
59
100
AcDbEntity
  8
2
370
    50
100
AcDbLine
 10
-198.031953
 20
144.887225
 30
0.0
 11
-198.031953
 21
145.387225
 31
0.0
  0
ARC
  5
5A
100
AcDbEntity
  8
2
370
    50
100
AcDbCircle
 10
-196.031772
 20
171.720997
 30
0.0
 40
2.0
100
AcDbArc
 50
90.0
 51
180.0
  0
LINE
  5
5B
100
AcDbEntity
  8
2
370
    50
100
AcDbLine
 10
-198.031772
 20
131.220997
 30
0.0
 11
-198.031772
 21
145.221225
 31
0.0
  0
LINE
  5
5C
100
AcDbEntity
  8
2
370
    50
100
AcDbLine
 10
-193.275571
 20
130.720997
 30
0.0
 11
-197.531772
 21
130.720997
 31
0.0
  0
ARC
  5
5D
100
AcDbEntity
  8
2
370
    50
100
AcDbCircle
 10
-197.531772
 20
131.220997
 30
0.0
 40
0.5
100
AcDbArc
 50
180.0
 51
270.0
  0
LINE
  5
5E
100
AcDbEntity
  8
2
370
    50
100
AcDbLine
 10
-198.031953
 20
144.887225
 30
0.0
 11
-198.031953
 21
145.387225
 31
0.0
  0
ARC
  5
5F
100
AcDbEntity
  8
2
370
    50
100
AcDbCircle
 10
-196.031772
 20
171.720997
 30
0.0
 40
2.0
100
AcDbArc
 50
90.0
 51
180.0
  0
LINE
  5
60
100
AcDbEntity
  8
2
370
    50
100
AcDbLine
 10
-196.031772
 20
173.721002
 30
0.0
 11
-151.031953
 21
173.721002
 31
0.0
  0
LINE
  5
61
100
AcDbEntity
  8
2
370
    50
100
AcDbLine
 10
-149.031953
 20
131.220997
 30
0.0
 11
-149.031953
 21
171.721002
 31
0.0
  0
ARC
  5
62
100
AcDbEntity
  8
2
370
    50
100
AcDbCircle
 10
-151.031953
 20
171.721002
 30
0.0
 40
2.0
100
AcDbArc
 50
0.0
 51
90.0
  0
CIRCLE
  5
63
100
AcDbEntity
  8
2
370
    50
100
AcDbCircle
 10
-173.531953
 20
164.220997
 30
0.0
 40
4.0
  0
CIRCLE
  5
64
100
AcDbEntity
  8
2
370
    25
100
AcDbCircle
 10
-173.531953
 20
164.220997
 30
0.0
 40
3.5
  0
ARC
  5
65
100
AcDbEntity
  8
2
370
    50
100
AcDbCircle
 10
-149.531953
 20
131.220997
 30
0.0
 40
0.5
100
AcDbArc
 50
270.0
 51
360.0
  0
LINE
  5
66
100
AcDbEntity
  8
2
370
    50
100
AcDbLine
 10
-151.531542
 20
128.721212
 30
0.0
 11
-151.731542
 21
128.721212
 31
0.0
  0
LINE
  5
67
100
AcDbEntity
  8
2
370
    50
100
AcDbLine
 10
-151.531542
 20
128.721212
 30
0.0
 11
-151.731542
 21
128.721212
 31
0.0
  0
LINE
  5
68
100
AcDbEntity
  8
2
370
    50
100
AcDbLine
 10
-151.531542
 20
128.721212
 30
0.0
 11
-151.731542
 21
128.721212
 31
0.0
  0
LINE
  5
69
100
AcDbEntity
  8
2
370
    50
100
AcDbLine
 10
-151.531542
 20
128.721212
 30
0.0
 11
-151.731542
 21
128.721212
 31
0.0
  0
LINE
  5
6A
100
AcDbEntity
  8
2
370
    50
100
AcDbLine
 10
-149.032089
 20
128.221212
 30
0.0
 11
-149.281415
 21
128.221212
 31
0.0
  0
LINE
  5
6B
100
AcDbEntity
  8
2
370
    50
100
AcDbLine
 10
-197.581415
 20
128.721212
 30
0.0
 11
-187.803099
 21
128.721212
 31
0.0
  0
LINE
  5
6C
100
AcDbEntity
  8
2
370
    50
100
AcDbLine
 10
-197.581415
 20
128.721212
 30
0.0
 11
-197.131668
 21
128.721212
 31
0.0
  0
LINE
  5
6D
100
AcDbEntity
  8
2
370
    50
100
AcDbLine
 10
-198.032089
 20
128.221212
 30
0.0
 11
-197.781415
 21
128.221212
 31
0.0
  0
LINE
  5
6E
100
AcDbEntity
  8
2
370
    50
100
AcDbLine
 10
-197.781415
 20
128.221212
 30
0.0
 11
-197.781415
 21
128.521212
 31
0.0
  0
LINE
  5
6F
100
AcDbEntity
  8
2
370
    50
100
AcDbLine
 10
-149.281415
 20
128.221212
 30
0.0
 11
-149.281415
 21
128.521212
 31
0.0
  0
LINE
  5
70
100
AcDbEntity
  8
2
370
    50
100
AcDbLine
 10
-149.481415
 20
128.721212
 30
0.0
 11
-149.281415
 21
128.521212
 31
0.0
  0
LINE
  5
71
100
AcDbEntity
  8
2
370
    50
100
AcDbLine
 10
-197.581415
 20
128.721212
 30
0.0
 11
-197.781415
 21
128.521212
 31
0.0
  0
ELLIPSE
  5
72
100
AcDbEntity
  8
2
370
    50
100
AcDbEllipse
 10
-173.532089
 20
62.391074
 30
0.0
 11
15.0
 21
0.0
 31
0.0
210
0.0
220
0.0
230
1.0
 40
0.866038
 41
3.1415929999999999
 42
0.0
  0
ELLIPSE
  5
73
100
AcDbEntity
  8
2
370
    50
100
AcDbEllipse
 10
-173.532089
 20
63.28077
 30
0.0
 11
3.0
 21
0.0
 31
0.0
210
0.0
220
0.0
230
1.0
 40
0.5
 41
0.0
 42
6.2831849999999996
  0
ELLIPSE
  5
74
100
AcDbEntity
  8
2
370
    50
100
AcDbEllipse
 10
-173.532089
 20
65.532771
 30
0.0
 11
3.0
 21
0.0
 31
0.0
210
0.0
220
0.0
230
1.0
 40
0.5
 41
3.9906640000000002
 42
5.4341140000000001
  0
LINE
  5
75
100
AcDbEntity
  8
2
370
    50
100
AcDbLine
 10
-152.532415
 20
128.721212
 30
0.0
 11
-152.532415
 21
130.174255
 31
0.0
  0
LINE
  5
76
100
AcDbEntity
  8
2
370
    50
100
AcDbLine
 10
-194.532415
 20
128.721212
 30
0.0
 11
-194.532415
 21
130.174255
 31
0.0
  0
ARC
  5
77
100
AcDbEntity
  8
2
370
    50
100
AcDbCircle
 10
-165.532415
 20
130.174255
 30
0.0
 40
13.0
100
AcDbArc
 50
0.0
 51
2.410407
  0
ARC
  5
78
100
AcDbEntity
  8
2
370
    50
100
AcDbCircle
 10
-181.532415
 20
130.174255
 30
0.0
 40
13.0
100
AcDbArc
 50
177.589593
 51
180.0
  0
LINE
  5
79
100
AcDbEntity
  8
2
370
    50
100
AcDbLine
 10
-198.032089
 20
128.221212
 30
0.0
 11
-198.032089
 21
12.921051
 31
0.0
  0
LINE
  5
7A
100
AcDbEntity
  8
2
370
    50
100
AcDbLine
 10
-149.032089
 20
128.221212
 30
0.0
 11
-149.032089
 21
12.921051
 31
0.0
  0
LINE
  5
7B
100
AcDbEntity
  8
2
370
    50
100
AcDbLine
 10
-190.232566
 20
-58.67843
 30
0.0
 11
-156.832566
 21
-58.67843
 31
0.0
  0
LINE
  5
7C
100
AcDbEntity
  8
2
370
    50
100
AcDbLine
 10
-156.832566
 20
-58.67843
 30
0.0
 11
-156.032566
 21
-57.87843
 31
0.0
  0
LINE
  5
7D
100
AcDbEntity
  8
2
370
    50
100
AcDbLine
 10
-191.032566
 20
-57.87843
 30
0.0
 11
-190.232566
 21
-58.67843
 31
0.0
  0
LINE
  5
7E
100
AcDbEntity
  8
2
370
    50
100
AcDbLine
 10
-156.032566
 20
-57.87843
 30
0.0
 11
-191.032566
 21
-57.87843
 31
0.0
  0
LINE
  5
7F
100
AcDbEntity
  8
2
370
    50
100
AcDbLine
 10
-187.281816
 20
-90.678255
 30
0.0
 11
-175.781816
 21
-90.678255
 31
0.0
  0
LINE
  5
80
100
AcDbEntity
  8
2
370
    50
100
AcDbLine
 10
-187.281816
 20
-106.178255
 30
0.0
 11
-175.781816
 21
-106.178255
 31
0.0
  0
LINE
  5
81
100
AcDbEntity
  8
2
370
    50
100
AcDbLine
 10
-175.531816
 20
-90.928255
 30
0.0
 11
-175.531816
 21
-105.928255
 31
0.0
  0
LINE
  5
82
100
AcDbEntity
  8
2
370
    50
100
AcDbLine
 10
-177.016272
 20
-91.178255
 30
0.0
 11
-177.016272
 21
-105.678255
 31
0.0
  0
LINE
  5
83
100
AcDbEntity
  8
2
370
    50
100
AcDbLine
 10
-180.047361
 20
-91.178255
 30
0.0
 11
-180.047361
 21
-105.678255
 31
0.0
  0
ARC
  5
84
100
AcDbEntity
  8
2
370
    50
100
AcDbCircle
 10
-178.531816
 20
-93.22513
 30
0.0
 40
2.546875
100
AcDbArc
 50
53.483062
 51
126.516938
  0
LINE
  5
85
100
AcDbEntity
  8
2
370
    50
100
AcDbLine
 10
-183.016272
 20
-91.178255
 30
0.0
 11
-180.047361
 21
-91.178255
 31
0.0
  0
LINE
  5
86
100
AcDbEntity
  8
2
370
    50
100
AcDbLine
 10
-177.016272
 20
-91.178255
 30
0.0
 11
-175.531816
 21
-91.178255
 31
0.0
  0
ARC
  5
87
100
AcDbEntity
  8
2
370
    50
100
AcDbCircle
 10
-178.531816
 20
-103.63138
 30
0.0
 40
2.546875
100
AcDbArc
 50
233.483062
 51
306.516938
  0
LINE
  5
88
100
AcDbEntity
  8
2
370
    50
100
AcDbLine
 10
-175.781816
 20
-90.678255
 30
0.0
 11
-175.531816
 21
-90.928255
 31
0.0
  0
LINE
  5
89
100
AcDbEntity
  8
2
370
    50
100
AcDbLine
 10
-175.781816
 20
-106.178255
 30
0.0
 11
-175.531816
 21
-105.928255
 31
0.0
  0
LINE
  5
8A
100
AcDbEntity
  8
2
370
    50
100
AcDbLine
 10
-183.016272
 20
-105.678255
 30
0.0
 11
-180.047361
 21
-105.678255
 31
0.0
  0
LINE
  5
8B
100
AcDbEntity
  8
2
370
    50
100
AcDbLine
 10
-177.016272
 20
-105.678255
 30
0.0
 11
-175.531816
 21
-105.678255
 31
0.0
  0
LINE
  5
8C
100
AcDbEntity
  8
2
370
    50
100
AcDbLine
 10
-183.016272
 20
-91.178255
 30
0.0
 11
-183.016272
 21
-105.678255
 31
0.0
  0
ARC
  5
8D
100
AcDbEntity
  8
2
370
    50
100
AcDbCircle
 10
-184.531816
 20
-103.63138
 30
0.0
 40
2.546875
100
AcDbArc
 50
233.483062
 51
306.516938
  0
LINE
  5
8E
100
AcDbEntity
  8
2
370
    50
100
AcDbLine
 10
-186.047361
 20
-91.178255
 30
0.0
 11
-186.047361
 21
-105.678255
 31
0.0
  0
ARC
  5
8F
100
AcDbEntity
  8
2
370
    50
100
AcDbCircle
 10
-184.531816
 20
-93.22513
 30
0.0
 40
2.546875
100
AcDbArc
 50
53.483062
 51
126.516938
  0
LINE
  5
90
100
AcDbEntity
  8
2
370
    50
100
AcDbLine
 10
-186.047361
 20
-91.178255
 30
0.0
 11
-187.531816
 21
-91.178255
 31
0.0
  0
LINE
  5
91
100
AcDbEntity
  8
2
370
    50
100
AcDbLine
 10
-186.047361
 20
-105.678255
 30
0.0
 11
-187.531816
 21
-105.678255
 31
0.0
  0
LINE
  5
92
100
AcDbEntity
  8
2
370
    50
100
AcDbLine
 10
-187.531816
 20
-90.928255
 30
0.0
 11
-187.531816
 21
-105.928255
 31
0.0
  0
LINE
  5
93
100
AcDbEntity
  8
2
370
    50
100
AcDbLine
 10
-187.281816
 20
-106.178255
 30
0.0
 11
-187.531816
 21
-105.928255
 31
0.0
  0
LINE
  5
94
100
AcDbEntity
  8
2
370
    50
100
AcDbLine
 10
-187.281816
 20
-90.678255
 30
0.0
 11
-187.531816
 21
-90.928255
 31
0.0
  0
LINE
  5
95
100
AcDbEntity
  8
2
370
    50
100
AcDbLine
 10
-159.781816
 20
-100.678255
 30
0.0
 11
-171.281816
 21
-100.678255
 31
0.0
  0
LINE
  5
96
100
AcDbEntity
  8
2
370
    50
100
AcDbLine
 10
-159.781816
 20
-116.178255
 30
0.0
 11
-171.281816
 21
-116.178255
 31
0.0
  0
LINE
  5
97
100
AcDbEntity
  8
2
370
    50
100
AcDbLine
 10
-171.531816
 20
-100.928255
 30
0.0
 11
-171.531816
 21
-115.928255
 31
0.0
  0
LINE
  5
98
100
AcDbEntity
  8
2
370
    50
100
AcDbLine
 10
-170.047361
 20
-101.178255
 30
0.0
 11
-170.047361
 21
-115.678255
 31
0.0
  0
LINE
  5
99
100
AcDbEntity
  8
2
370
    50
100
AcDbLine
 10
-167.016272
 20
-101.178255
 30
0.0
 11
-167.016272
 21
-115.678255
 31
0.0
  0
ARC
  5
9A
100
AcDbEntity
  8
2
370
    50
100
AcDbCircle
 10
-168.531816
 20
-103.22513
 30
0.0
 40
2.546875
100
AcDbArc
 50
53.483062
 51
126.516938
  0
LINE
  5
9B
100
AcDbEntity
  8
2
370
    50
100
AcDbLine
 10
-164.047361
 20
-101.178255
 30
0.0
 11
-167.016272
 21
-101.178255
 31
0.0
  0
LINE
  5
9C
100
AcDbEntity
  8
2
370
    50
100
AcDbLine
 10
-170.047361
 20
-101.178255
 30
0.0
 11
-171.531816
 21
-101.178255
 31
0.0
  0
ARC
  5
9D
100
AcDbEntity
  8
2
370
    50
100
AcDbCircle
 10
-168.531816
 20
-113.63138
 30
0.0
 40
2.546875
100
AcDbArc
 50
233.483062
 51
306.516938
  0
LINE
  5
9E
100
AcDbEntity
  8
2
370
    50
100
AcDbLine
 10
-171.281816
 20
-100.678255
 30
0.0
 11
-171.531816
 21
-100.928255
 31
0.0
  0
LINE
  5
9F
100
AcDbEntity
  8
2
370
    50
100
AcDbLine
 10
-171.281816
 20
-116.178255
 30
0.0
 11
-171.531816
 21
-115.928255
 31
0.0
  0
LINE
  5
A0
100
AcDbEntity
  8
2
370
    50
100
AcDbLine
 10
-164.047361
 20
-115.678255
 30
0.0
 11
-167.016272
 21
-115.678255
 31
0.0
  0
LINE
  5
A1
100
AcDbEntity
  8
2
370
    50
100
AcDbLine
 10
-170.047361
 20
-115.678255
 30
0.0
 11
-171.531816
 21
-115.678255
 31
0.0
  0
LINE
  5
A2
100
AcDbEntity
  8
2
370
    50
100
AcDbLine
 10
-164.047361
 20
-101.178255
 30
0.0
 11
-164.047361
 21
-115.678255
 31
0.0
  0
ARC
  5
A3
100
AcDbEntity
  8
2
370
    50
100
AcDbCircle
 10
-162.531816
 20
-113.63138
 30
0.0
 40
2.546875
100
AcDbArc
 50
233.483062
 51
306.516938
  0
LINE
  5
A4
100
AcDbEntity
  8
2
370
    50
100
AcDbLine
 10
-161.016272
 20
-101.178255
 30
0.0
 11
-161.016272
 21
-115.678255
 31
0.0
  0
ARC
  5
A5
100
AcDbEntity
  8
2
370
    50
100
AcDbCircle
 10
-162.531816
 20
-103.22513
 30
0.0
 40
2.546875
100
AcDbArc
 50
53.483062
 51
126.516938
  0
LINE
  5
A6
100
AcDbEntity
  8
2
370
    50
100
AcDbLine
 10
-161.016272
 20
-101.178255
 30
0.0
 11
-159.531816
 21
-101.178255
 31
0.0
  0
LINE
  5
A7
100
AcDbEntity
  8
2
370
    50
100
AcDbLine
 10
-161.016272
 20
-115.678255
 30
0.0
 11
-159.531816
 21
-115.678255
 31
0.0
  0
LINE
  5
A8
100
AcDbEntity
  8
2
370
    50
100
AcDbLine
 10
-159.531816
 20
-100.928255
 30
0.0
 11
-159.531816
 21
-115.928255
 31
0.0
  0
LINE
  5
A9
100
AcDbEntity
  8
2
370
    50
100
AcDbLine
 10
-159.781816
 20
-116.178255
 30
0.0
 11
-159.531816
 21
-115.928255
 31
0.0
  0
LINE
  5
AA
100
AcDbEntity
  8
2
370
    50
100
AcDbLine
 10
-159.781816
 20
-100.678255
 30
0.0
 11
-159.531816
 21
-100.928255
 31
0.0
  0
LINE
  5
AB
100
AcDbEntity
  8
2
370
    50
100
AcDbLine
 10
-160.531816
 20
-58.678255
 30
0.0
 11
-160.531816
 21
-100.678255
 31
0.0
  0
LINE
  5
AC
100
AcDbEntity
  8
2
370
    50
100
AcDbLine
 10
-186.531816
 20
-58.678255
 30
0.0
 11
-186.531816
 21
-90.678255
 31
0.0
  0
ELLIPSE
  5
AD
100
AcDbEntity
  8
2
370
    50
100
AcDbEllipse
 10
-173.532089
 20
124.720756
 30
0.0
 11
15.0
 21
0.0
 31
0.0
210
0.0
220
0.0
230
1.0
 40
0.866023
 41
0.0
 42
6.2831849999999996
  0
LINE
  5
AE
100
AcDbEntity
  8
2
370
    50
100
AcDbLine
 10
-197.531772
 20
130.720997
 30
0.0
 11
-186.836071
 21
130.720997
 31
0.0
  0
LINE
  5
AF
100
AcDbEntity
  8
2
370
    50
100
AcDbLine
 10
-160.228108
 20
130.720997
 30
0.0
 11
-149.531953
 21
130.720997
 31
0.0
  0
LINE
  5
B0
100
AcDbEntity
  8
2
370
    50
100
AcDbLine
 10
-159.26108
 20
128.721212
 30
0.0
 11
-149.481415
 21
128.721212
 31
0.0
  0
ELLIPSE
  5
B1
100
AcDbEntity
  8
2
370
    50
100
AcDbEllipse
 10
-173.532089
 20
98.109943
 30
0.0
 11
11.5
 21
0.0
 31
0.0
210
0.0
220
0.0
230
1.0
 40
0.422617
 41
0.0
 42
6.2831849999999996
  0
ELLIPSE
  5
B2
100
AcDbEntity
  8
2
370
    50
100
AcDbEllipse
 10
-173.532089
 20
98.155496
 30
0.0
 11
9.4499999999999993
 21
0.0
 31
0.0
210
0.0
220
0.0
230
1.0
 40
0.422618
 41
0.0
 42
6.2831849999999996
  0
LINE
  5
B3
100
AcDbEntity
  8
2
370
    50
100
AcDbLine
 10
-177.47959
 20
-159.897501
 30
0.0
 11
-177.47959
 21
-183.152598
 31
0.0
  0
LINE
  5
B4
100
AcDbEntity
  8
2
370
    50
100
AcDbLine
 10
-187.22959
 20
-106.178383
 30
0.0
 11
-175.72959
 21
-106.178383
 31
0.0
  0
LINE
  5
B5
100
AcDbEntity
  8
2
370
    50
100
AcDbLine
 10
-169.47959
 20
-171.782801
 30
0.0
 11
-169.47959
 21
-183.173991
 31
0.0
  0
LINE
  5
B6
100
AcDbEntity
  8
2
370
    50
100
AcDbLine
 10
-159.72959
 20
-116.178383
 30
0.0
 11
-171.22959
 21
-116.178383
 31
0.0
  0
ARC
  5
B7
100
AcDbEntity
  8
2
370
    50
100
AcDbCircle
 10
-175.47959
 20
-180.517502
 30
0.0
 40
3.333333
100
AcDbArc
 50
233.130102
 51
306.869898
  0
ARC
  5
B8
100
AcDbEntity
  8
2
370
    50
100
AcDbCircle
 10
-171.47959
 20
-185.850835
 30
0.0
 40
3.333333
100
AcDbArc
 50
53.130102
 51
126.869898
  0
ARC
  5
B9
100
AcDbEntity
  8
2
370
    50
100
AcDbCircle
 10
-175.47959
 20
-185.850835
 30
0.0
 40
3.333333
100
AcDbArc
 50
53.130102
 51
126.869898
  0
LINE
  5
BA
100
AcDbEntity
  8
2
370
    25
  6
CENTER
100
AcDbLine
 10
-243.68559
 20
-89.93443
 30
0.0
 11
-243.68559
 21
-109.797699
 31
0.0
  0
LINE
  5
BB
100
AcDbEntity
  8
2
370
    25
  6
CENTER
100
AcDbLine
 10
-103.273731
 20
-99.934676
 30
0.0
 11
-103.273731
 21
-120.129166
 31
0.0
  0
LINE
  5
BC
100
AcDbEntity
  8
2
370
    25
  6
CENTER
100
AcDbLine
 10
-181.47959
 20
-177.678387
 30
0.0
 11
-181.47959
 21
-154.576212
 31
0.0
  0
LINE
  5
BD
100
AcDbEntity
  8
2
370
    25
  6
CENTER
100
AcDbLine
 10
-165.47959
 20
-187.678386
 30
0.0
 11
-165.47959
 21
-165.900919
 31
0.0
  0
LINE
  5
BE
100
AcDbEntity
  8
2
370
    50
100
AcDbLine
 10
-156.032566
 20
-57.87843
 30
0.0
 11
-156.032566
 21
-51.705461
 31
0.0
  0
LINE
  5
BF
100
AcDbEntity
  8
2
370
    25
100
AcDbLine
 10
-156.832566
 20
-58.67843
 30
0.0
 11
-156.832566
 21
-51.705461
 31
0.0
  0
LINE
  5
C0
100
AcDbEntity
  8
2
370
    25
100
AcDbLine
 10
-190.232566
 20
-58.67843
 30
0.0
 11
-190.232566
 21
-51.705461
 31
0.0
  0
LINE
  5
C1
100
AcDbEntity
  8
2
370
    50
100
AcDbLine
 10
-191.032566
 20
-57.87843
 30
0.0
 11
-191.032566
 21
-51.705461
 31
0.0
  0
CIRCLE
  5
C2
100
AcDbEntity
  8
2
370
    50
100
AcDbCircle
 10
-173.531621
 20
148.887392
 30
0.0
 40
4.0
  0
LINE
  5
C3
100
AcDbEntity
  8
2
370
    25
100
AcDbLine
 10
-173.531621
 20
144.887392
 30
0.0
 11
-169.531621
 21
148.887392
 31
0.0
  0
LINE
  5
C4
100
AcDbEntity
  8
2
370
    25
100
AcDbLine
 10
-173.531621
 20
147.008713
 30
0.0
 11
-169.92439
 21
150.615943
 31
0.0
  0
LINE
  5
C5
100
AcDbEntity
  8
2
370
    25
100
AcDbLine
 10
-173.531621
 20
149.130033
 30
0.0
 11
-170.827117
 21
151.834537
 31
0.0
  0
LINE
  5
C6
100
AcDbEntity
  8
2
370
    25
100
AcDbLine
 10
-173.531621
 20
151.251353
 30
0.0
 11
-172.143986
 21
152.638988
 31
0.0
  0
HATCH
  5
C7
100
AcDbEntity
  8
2
370
    25
100
AcDbHatch
 10
0.0
 20
0.0
 30
0.0
210
0.0
220
0.0
230
1.0
  2
_U
 70
     0
 71
     1
 91
        1
 92
        1
 93
        2
 72
     2
 10
-173.531621
 20
148.88739200000001
 40
4.0
 50
90.0
 51
270.0
 73
     1
 72
     1
 10
-173.531621
 20
144.88739200000001
 11
-173.531621
 21
152.88739200000001
 97
        2
330
0
330
0
 75
     0
 76
     0
 52
45.0
 41
1.0
 77
     0
 78
     1
 53
45.0
 43
0.0
 44
0.0
 45
-0.353553
 46
0.353553
 79
     0
 98
        1
 10
0.0
 20
0.0
  0
LINE
  5
C8
100
AcDbEntity
  8
2
370
    50
100
AcDbLine
 10
-173.531621
 20
152.887392
 30
0.0
 11
-173.531621
 21
144.887392
 31
0.0
  0
POINT
  5
C9
100
AcDbEntity
  8
2
370
    50
100
AcDbPoint
 10
-173.531953
 20
164.220997
 30
0.0
  0
ELLIPSE
  5
CA
100
AcDbEntity
  8
2
370
    50
100
AcDbEllipse
 10
-173.532089
 20
12.921051
 30
0.0
 11
24.5
 21
0.0
 31
0.0
210
0.0
220
0.0
230
1.0
 40
1.0
 41
3.1415929999999999
 42
0.0
  0
LINE
  5
CB
100
AcDbEntity
  8
2
370
    50
100
AcDbLine
 10
-198.531421
 20
-39.205461
 30
0.0
 11
-148.531421
 21
-39.205461
 31
0.0
  0
LINE
  5
CC
100
AcDbEntity
  8
2
370
    50
100
AcDbLine
 10
-147.532089
 20
-39.705461
 30
0.0
 11
-199.532089
 21
-39.705461
 31
0.0
  0
LINE
  5
CD
100
AcDbEntity
  8
2
370
    50
100
AcDbLine
 10
-150.532089
 20
-51.705461
 30
0.0
 11
-196.532089
 21
-51.705461
 31
0.0
  0
LINE
  5
CE
100
AcDbEntity
  8
2
370
    50
100
AcDbLine
 10
-199.532089
 20
-41.705461
 30
0.0
 11
-199.532089
 21
-39.705461
 31
0.0
  0
LINE
  5
CF
100
AcDbEntity
  8
2
370
    50
100
AcDbLine
 10
-147.532089
 20
-41.705461
 30
0.0
 11
-147.532089
 21
-39.705461
 31
0.0
  0
LINE
  5
D0
100
AcDbEntity
  8
2
370
    50
100
AcDbLine
 10
-196.532089
 20
-51.705461
 30
0.0
 11
-196.532089
 21
-43.705461
 31
0.0
  0
LINE
  5
D1
100
AcDbEntity
  8
2
370
    50
100
AcDbLine
 10
-150.532089
 20
-51.705461
 30
0.0
 11
-150.532089
 21
-43.705461
 31
0.0
  0
LINE
  5
D2
100
AcDbEntity
  8
2
370
    50
100
AcDbLine
 10
-148.532089
 20
-42.705461
 30
0.0
 11
-198.532089
 21
-42.705461
 31
0.0
  0
LINE
  5
D3
100
AcDbEntity
  8
2
370
    50
100
AcDbLine
 10
-195.532089
 20
-50.613461
 30
0.0
 11
-195.532089
 21
-42.705461
 31
0.0
  0
LINE
  5
D4
100
AcDbEntity
  8
2
370
    50
100
AcDbLine
 10
-151.532089
 20
-50.613461
 30
0.0
 11
-151.532089
 21
-42.705461
 31
0.0
  0
LINE
  5
D5
100
AcDbEntity
  8
2
370
    50
100
AcDbLine
 10
-172.532089
 20
-50.613461
 30
0.0
 11
-172.532089
 21
-42.705461
 31
0.0
  0
LINE
  5
D6
100
AcDbEntity
  8
2
370
    50
100
AcDbLine
 10
-174.532089
 20
-50.613461
 30
0.0
 11
-174.532089
 21
-42.705461
 31
0.0
  0
LINE
  5
D7
100
AcDbEntity
  8
2
370
    50
100
AcDbLine
 10
-195.532089
 20
-50.613461
 30
0.0
 11
-196.532089
 21
-50.613461
 31
0.0
  0
LINE
  5
D8
100
AcDbEntity
  8
2
370
    50
100
AcDbLine
 10
-150.532089
 20
-50.613461
 30
0.0
 11
-151.532089
 21
-50.613461
 31
0.0
  0
LINE
  5
D9
100
AcDbEntity
  8
2
370
    50
100
AcDbLine
 10
-172.532089
 20
-50.613461
 30
0.0
 11
-174.532089
 21
-50.613461
 31
0.0
  0
ARC
  5
DA
100
AcDbEntity
  8
2
370
    50
100
AcDbCircle
 10
-185.032089
 20
-0.678692
 30
0.0
 40
51.026769
100
AcDbArc
 50
258.125168
 51
281.874832
  0
ARC
  5
DB
100
AcDbEntity
  8
2
370
    50
100
AcDbCircle
 10
-162.032089
 20
-0.678692
 30
0.0
 40
51.026769
100
AcDbArc
 50
258.125168
 51
281.874832
  0
ARC
  5
DC
100
AcDbEntity
  8
2
370
    50
100
AcDbCircle
 10
-197.532089
 20
-43.705461
 30
0.0
 40
1.0
100
AcDbArc
 50
0.0
 51
90.0
  0
ARC
  5
DD
100
AcDbEntity
  8
2
370
    50
100
AcDbCircle
 10
-149.532089
 20
-43.705461
 30
0.0
 40
1.0
100
AcDbArc
 50
90.0
 51
180.0
  0
ARC
  5
DE
100
AcDbEntity
  8
2
370
    50
100
AcDbCircle
 10
-198.532089
 20
-41.705461
 30
0.0
 40
1.0
100
AcDbArc
 50
180.0
 51
270.0
  0
ARC
  5
DF
100
AcDbEntity
  8
2
370
    50
100
AcDbCircle
 10
-148.532089
 20
-41.705461
 30
0.0
 40
1.0
100
AcDbArc
 50
270.0
 51
360.0
  0
LINE
  5
E0
100
AcDbEntity
  8
2
370
    50
100
AcDbLine
 10
-191.032566
 20
-15.166553
 30
0.0
 11
-191.032566
 21
-6.744369
 31
0.0
  0
LINE
  5
E1
100
AcDbEntity
  8
2
370
    50
100
AcDbLine
 10
-190.232566
 20
-17.670672
 30
0.0
 11
-190.232566
 21
-5.005021
 31
0.0
  0
LINE
  5
E2
100
AcDbEntity
  8
2
370
    50
100
AcDbLine
 10
-156.832566
 20
-17.673045
 30
0.0
 11
-156.832566
 21
-5.00591
 31
0.0
  0
LINE
  5
E3
100
AcDbEntity
  8
2
370
    50
100
AcDbLine
 10
-156.032566
 20
-15.170518
 30
0.0
 11
-156.032566
 21
-6.740404
 31
0.0
  0
LINE
  5
E4
100
AcDbEntity
  8
2
370
    50
100
AcDbLine
 10
-146.032089
 20
-39.205461
 30
0.0
 11
-201.032089
 21
-39.205461
 31
0.0
  0
LINE
  5
E5
100
AcDbEntity
  8
2
370
    50
100
AcDbLine
 10
-201.032089
 20
-10.955461
 30
0.0
 11
-201.032089
 21
-39.205461
 31
0.0
  0
LINE
  5
E6
100
AcDbEntity
  8
2
370
    50
100
AcDbLine
 10
-146.032089
 20
-10.955461
 30
0.0
 11
-146.032089
 21
-39.205461
 31
0.0
  0
ELLIPSE
  5
E7
100
AcDbEntity
  8
2
370
    50
100
AcDbEllipse
 10
-173.532089
 20
-10.955461
 30
0.0
 11
27.5
 21
0.0
 31
0.0
210
0.0
220
0.0
230
1.0
 40
0.945455
 41
2.5420889999999998
 42
0.599504
  0
ARC
  5
E8
100
AcDbEntity
  8
2
370
    50
100
AcDbCircle
 10
-173.532089
 20
-10.955461
 30
0.0
 40
18.0
100
AcDbArc
 50
160.010434
 51
19.989566
  0
LINE
  5
E9
100
AcDbEntity
  8
2
370
    50
100
AcDbLine
 10
-191.532089
 20
-28.955461
 30
0.0
 11
-192.532089
 21
-27.955461
 31
0.0
  0
POINT
  5
EA
100
AcDbEntity
  8
2
370
    50
100
AcDbPoint
 10
-173.532089
 20
-10.955461
 30
0.0
  0
ARC
  5
EB
100
AcDbEntity
  8
2
370
    50
100
AcDbCircle
 10
-173.532089
 20
-10.955461
 30
0.0
 40
25.455844
100
AcDbArc
 50
149.451987
 51
30.548013
  0
LINE
  5
EC
100
AcDbEntity
  8
2
370
    50
100
AcDbLine
 10
137.794093
 20
-8.821286
 30
0.0
 11
133.90322
 21
-12.712159
 31
0.0
  0
LINE
  5
ED
100
AcDbEntity
  8
2
370
    50
100
AcDbLine
 10
131.7819
 20
-10.590838
 30
0.0
 11
133.90322
 21
-12.712159
 31
0.0
  0
LINE
  5
EE
100
AcDbEntity
  8
2
370
    50
100
AcDbLine
 10
177.036734
 20
34.663996
 30
0.0
 11
179.158054
 21
32.542675
 31
0.0
  0
LINE
  5
EF
100
AcDbEntity
  8
2
370
    50
100
AcDbLine
 10
130.794274
 20
131.220997
 30
0.0
 11
130.794274
 21
145.221225
 31
0.0
  0
LINE
  5
F0
100
AcDbEntity
  8
2
370
    50
100
AcDbLine
 10
155.294093
 20
130.720997
 30
0.0
 11
131.294274
 21
130.720997
 31
0.0
  0
ARC
  5
F1
100
AcDbEntity
  8
2
370
    50
100
AcDbCircle
 10
131.294274
 20
131.220997
 30
0.0
 40
0.5
100
AcDbArc
 50
180.0
 51
270.0
  0
ARC
  5
F2
100
AcDbEntity
  8
2
370
    50
100
AcDbCircle
 10
137.00856
 20
148.887225
 30
0.0
 40
7.614286
100
AcDbArc
 50
144.699752
 51
215.300248
  0
LINE
  5
F3
100
AcDbEntity
  8
2
370
    50
100
AcDbLine
 10
130.794274
 20
151.137225
 30
0.0
 11
130.794274
 21
150.137225
 31
0.0
  0
LINE
  5
F4
100
AcDbEntity
  8
2
370
    50
100
AcDbLine
 10
130.794093
 20
144.887225
 30
0.0
 11
130.794093
 21
145.387225
 31
0.0
  0
LINE
  5
F5
100
AcDbEntity
  8
2
370
    50
100
AcDbLine
 10
130.794093
 20
152.887225
 30
0.0
 11
130.794093
 21
152.713299
 31
0.0
  0
LINE
  5
F6
100
AcDbEntity
  8
2
370
    50
100
AcDbLine
 10
130.794274
 20
152.387225
 30
0.0
 11
130.794274
 21
152.670517
 31
0.0
  0
LINE
  5
F7
100
AcDbEntity
  8
2
370
    50
100
AcDbLine
 10
130.794274
 20
147.637225
 30
0.0
 11
130.794274
 21
146.637225
 31
0.0
  0
ARC
  5
F8
100
AcDbEntity
  8
2
370
    50
100
AcDbCircle
 10
132.794274
 20
171.720997
 30
0.0
 40
2.0
100
AcDbArc
 50
90.0
 51
180.0
  0
LINE
  5
F9
100
AcDbEntity
  8
2
370
    50
100
AcDbLine
 10
130.794274
 20
131.220997
 30
0.0
 11
130.794274
 21
145.221225
 31
0.0
  0
LINE
  5
FA
100
AcDbEntity
  8
2
370
    50
100
AcDbLine
 10
134.305604
 20
130.720997
 30
0.0
 11
131.294274
 21
130.720997
 31
0.0
  0
ARC
  5
FB
100
AcDbEntity
  8
2
370
    50
100
AcDbCircle
 10
131.294274
 20
131.220997
 30
0.0
 40
0.5
100
AcDbArc
 50
180.0
 51
270.0
  0
ARC
  5
FC
100
AcDbEntity
  8
2
370
    50
100
AcDbCircle
 10
137.00856
 20
148.887225
 30
0.0
 40
7.614286
100
AcDbArc
 50
144.699752
 51
215.300248
  0
LINE
  5
FD
100
AcDbEntity
  8
2
370
    50
100
AcDbLine
 10
130.794274
 20
151.137225
 30
0.0
 11
130.794274
 21
150.137225
 31
0.0
  0
LINE
  5
FE
100
AcDbEntity
  8
2
370
    50
100
AcDbLine
 10
130.794093
 20
144.887225
 30
0.0
 11
130.794093
 21
145.387225
 31
0.0
  0
LINE
  5
FF
100
AcDbEntity
  8
2
370
    50
100
AcDbLine
 10
130.794093
 20
152.887225
 30
0.0
 11
130.794093
 21
152.387225
 31
0.0
  0
LINE
  5
100
100
AcDbEntity
  8
2
370
    50
100
AcDbLine
 10
130.794274
 20
152.387225
 30
0.0
 11
130.794274
 21
152.670517
 31
0.0
  0
LINE
  5
101
100
AcDbEntity
  8
2
370
    50
100
AcDbLine
 10
130.794274
 20
147.637225
 30
0.0
 11
130.794274
 21
146.637225
 31
0.0
  0
ARC
  5
102
100
AcDbEntity
  8
2
370
    50
100
AcDbCircle
 10
132.794274
 20
171.720997
 30
0.0
 40
2.0
100
AcDbArc
 50
90.0
 51
180.0
  0
LINE
  5
103
100
AcDbEntity
  8
2
370
    50
100
AcDbLine
 10
132.794274
 20
173.721002
 30
0.0
 11
177.794093
 21
173.721002
 31
0.0
  0
LINE
  5
104
100
AcDbEntity
  8
2
370
    50
100
AcDbLine
 10
155.294093
 20
130.720997
 30
0.0
 11
179.794093
 21
144.866079
 31
0.0
  0
LINE
  5
105
100
AcDbEntity
  8
2
370
    50
100
AcDbLine
 10
179.794093
 20
144.866079
 30
0.0
 11
179.794093
 21
171.721002
 31
0.0
  0
ARC
  5
106
100
AcDbEntity
  8
2
370
    50
100
AcDbCircle
 10
177.794093
 20
171.721002
 30
0.0
 40
2.0
100
AcDbArc
 50
0.0
 51
90.0
  0
LINE
  5
107
100
AcDbEntity
  8
2
370
    50
100
AcDbLine
 10
176.294093
 20
128.720997
 30
0.0
 11
176.294093
 21
130.220044
 31
0.0
  0
LINE
  5
108
100
AcDbEntity
  8
2
370
    50
100
AcDbLine
 10
134.294093
 20
128.720997
 30
0.0
 11
134.294093
 21
130.17404
 31
0.0
  0
ARC
  5
109
100
AcDbEntity
  8
2
370
    50
100
AcDbCircle
 10
147.294093
 20
130.17404
 30
0.0
 40
13.0
100
AcDbArc
 50
177.588647
 51
180.0
  0
LINE
  5
10A
100
AcDbEntity
  8
2
370
    50
100
AcDbLine
 10
130.79465
 20
168.221357
 30
0.0
 11
130.79465
 21
171.721357
 31
0.0
  0
LINE
  5
10B
100
AcDbEntity
  8
2
370
    50
100
AcDbLine
 10
71.294469
 20
160.221357
 30
0.0
 11
130.79465
 21
160.221357
 31
0.0
  0
LINE
  5
10C
100
AcDbEntity
  8
2
370
    50
100
AcDbLine
 10
71.294469
 20
168.221357
 30
0.0
 11
130.79465
 21
168.221357
 31
0.0
  0
LINE
  5
10D
100
AcDbEntity
  8
2
370
    50
100
AcDbLine
 10
130.79465
 20
152.387225
 30
0.0
 11
130.79465
 21
160.221357
 31
0.0
  0
LINE
  5
10E
100
AcDbEntity
  8
2
370
    50
100
AcDbLine
 10
70.794469
 20
160.721357
 30
0.0
 11
70.794469
 21
167.721357
 31
0.0
  0
LINE
  5
10F
100
AcDbEntity
  8
2
370
    50
100
AcDbLine
 10
71.294469
 20
168.221357
 30
0.0
 11
70.794469
 21
167.721357
 31
0.0
  0
LINE
  5
110
100
AcDbEntity
  8
2
370
    50
100
AcDbLine
 10
70.794469
 20
160.721357
 30
0.0
 11
71.294469
 21
160.221357
 31
0.0
  0
ARC
  5
111
100
AcDbEntity
  8
2
370
    50
100
AcDbCircle
 10
163.294093
 20
130.17404
 30
0.0
 40
13.0
100
AcDbArc
 50
0.202757
 51
50.128644
  0
LINE
  5
112
100
AcDbEntity
  8
2
370
    50
100
AcDbLine
 10
77.392541
 20
82.426177
 30
0.0
 11
76.792541
 21
81.386947
 31
0.0
  0
LINE
  5
113
100
AcDbEntity
  8
2
370
    50
100
AcDbLine
 10
73.928439
 20
84.426177
 30
0.0
 11
73.328439
 21
83.386947
 31
0.0
  0
LINE
  5
114
100
AcDbEntity
  8
2
370
    50
100
AcDbLine
 10
73.511452
 20
82.703934
 30
0.0
 11
76.109528
 21
81.203934
 31
0.0
  0
ARC
  5
115
100
AcDbEntity
  8
2
370
    50
100
AcDbCircle
 10
76.359528
 20
81.636947
 30
0.0
 40
0.5
100
AcDbArc
 50
240.0
 51
330.0
  0
ARC
  5
116
100
AcDbEntity
  8
2
370
    50
100
AcDbCircle
 10
73.761452
 20
83.136947
 30
0.0
 40
0.5
100
AcDbArc
 50
150.0
 51
240.0
  0
LINE
  5
117
100
AcDbEntity
  8
2
370
    50
100
AcDbLine
 10
27.310573
 20
109.147165
 30
0.0
 11
23.701629
 21
111.23079
 31
0.0
  0
LINE
  5
118
100
AcDbEntity
  8
2
370
    50
100
AcDbLine
 10
38.701594
 20
137.211491
 30
0.0
 11
106.684165
 21
97.961735
 31
0.0
  0
LINE
  5
119
100
AcDbEntity
  8
2
370
    50
100
AcDbLine
 10
37.335568
 20
136.845466
 30
0.0
 11
23.335568
 21
112.596754
 31
0.0
  0
ARC
  5
11A
100
AcDbEntity
  8
2
370
    50
100
AcDbCircle
 10
24.201594
 20
112.096754
 30
0.0
 40
1.0
100
AcDbArc
 50
150.0
 51
240.0
  0
LINE
  5
11B
100
AcDbEntity
  8
2
370
    50
100
AcDbLine
 10
27.571372
 20
108.996512
 30
0.0
 11
72.718631
 21
82.930729
 31
0.0
  0
LINE
  5
11C
100
AcDbEntity
  8
2
370
    50
100
AcDbLine
 10
76.702348
 20
80.630729
 30
0.0
 11
91.684165
 21
71.980973
 31
0.0
  0
ARC
  5
11D
100
AcDbEntity
  8
2
370
    50
100
AcDbCircle
 10
72.818631
 20
83.103934
 30
0.0
 40
0.2
100
AcDbArc
 50
240.0
 51
330.0
  0
LINE
  5
11E
100
AcDbEntity
  8
2
370
    50
100
AcDbLine
 10
73.841837
 20
84.476177
 30
0.0
 11
72.991837
 21
83.003934
 31
0.0
  0
LINE
  5
11F
100
AcDbEntity
  8
2
370
    50
100
AcDbLine
 10
77.479143
 20
82.376177
 30
0.0
 11
76.629143
 21
80.903934
 31
0.0
  0
ARC
  5
120
100
AcDbEntity
  8
2
370
    50
100
AcDbCircle
 10
76.802348
 20
80.803934
 30
0.0
 40
0.2
100
AcDbArc
 50
150.0
 51
240.0
  0
ARC
  5
121
100
AcDbEntity
  8
2
370
    50
100
AcDbCircle
 10
106.43395
 20
97.52835
 30
0.0
 40
0.5
100
AcDbArc
 50
330.0
 51
60.0
  0
ARC
  5
122
100
AcDbEntity
  8
2
370
    50
100
AcDbCircle
 10
38.201594
 20
136.345466
 30
0.0
 40
1.0
100
AcDbArc
 50
60.0
 51
150.0
  0
ARC
  5
123
100
AcDbEntity
  8
2
370
    50
100
AcDbCircle
 10
91.934165
 20
72.413986
 30
0.0
 40
0.5
100
AcDbArc
 50
240.0
 51
330.0
  0
LINE
  5
124
100
AcDbEntity
  8
2
370
    25
100
AcDbLine
 10
27.027007
 20
109.3108
 30
0.0
 11
27.571372
 21
108.996512
 31
0.0
  0
LINE
  5
125
100
AcDbEntity
  8
2
370
    25
100
AcDbLine
 10
47.566042
 20
97.452583
 30
0.0
 11
47.826813
 21
97.302027
 31
0.0
  0
LINE
  5
126
100
AcDbEntity
  8
2
370
    50
100
AcDbLine
 10
25.214514
 20
102.759114
 30
0.0
 11
35.1839
 21
98.110313
 31
0.0
  0
LINE
  5
127
100
AcDbEntity
  8
2
370
    50
100
AcDbLine
 10
27.571402
 20
108.996576
 30
0.0
 11
24.97267
 21
103.423577
 31
0.0
  0
LINE
  5
128
100
AcDbEntity
  8
2
370
    50
100
AcDbLine
 10
45.153286
 20
93.461513
 30
0.0
 11
35.1839
 21
98.110313
 31
0.0
  0
LINE
  5
129
100
AcDbEntity
  8
2
370
    50
100
AcDbLine
 10
47.566042
 20
97.452583
 30
0.0
 11
45.817749
 21
93.703357
 31
0.0
  0
ARC
  5
12A
100
AcDbEntity
  8
2
370
    50
100
AcDbCircle
 10
45.364595
 20
93.914666
 30
0.0
 40
0.5
100
AcDbArc
 50
245.0
 51
335.0
  0
ARC
  5
12B
100
AcDbEntity
  8
2
370
    50
100
AcDbCircle
 10
25.425824
 20
103.212268
 30
0.0
 40
0.5
100
AcDbArc
 50
155.0
 51
245.0
  0
LINE
  5
12C
100
AcDbEntity
  8
2
370
    50
100
AcDbLine
 10
107.377097
 20
97.561928
 30
0.0
 11
115.793942
 21
92.702461
 31
0.0
  0
LINE
  5
12D
100
AcDbEntity
  8
2
370
    50
100
AcDbLine
 10
120.794064
 20
55.17411
 30
0.0
 11
92.376875
 21
71.580782
 31
0.0
  0
LINE
  5
12E
100
AcDbEntity
  8
2
370
    50
100
AcDbLine
 10
107.377097
 20
97.561928
 30
0.0
 11
106.967289
 21
97.452121
 31
0.0
  0
LINE
  5
12F
100
AcDbEntity
  8
2
370
    50
100
AcDbLine
 10
92.267068
 20
71.990589
 30
0.0
 11
92.376875
 21
71.580782
 31
0.0
  0
LINE
  5
130
100
AcDbEntity
  8
2
370
    50
100
AcDbLine
 10
130.794093
 20
-11.578645
 30
0.0
 11
130.794093
 21
37.853652
 31
0.0
  0
LINE
  5
131
100
AcDbEntity
  8
2
370
    50
100
AcDbLine
 10
130.793942
 20
101.362715
 30
0.0
 11
130.793942
 21
128.521997
 31
0.0
  0
LINE
  5
132
100
AcDbEntity
  8
2
370
    50
100
AcDbLine
 10
179.593942
 20
128.721997
 30
0.0
 11
130.993942
 21
128.721997
 31
0.0
  0
LINE
  5
133
100
AcDbEntity
  8
2
370
    50
100
AcDbLine
 10
130.993942
 20
128.721997
 30
0.0
 11
130.793942
 21
128.521997
 31
0.0
  0
LINE
  5
134
100
AcDbEntity
  8
2
370
    50
100
AcDbLine
 10
179.593942
 20
128.721997
 30
0.0
 11
179.793942
 21
128.521997
 31
0.0
  0
LINE
  5
135
100
AcDbEntity
  8
2
370
    50
100
AcDbLine
 10
92.267206
 20
71.990073
 30
0.0
 11
106.967608
 21
97.451916
 31
0.0
  0
LINE
  5
136
100
AcDbEntity
  8
2
370
    50
100
AcDbLine
 10
92.267386
 20
71.990385
 30
0.0
 11
92.377194
 21
71.580578
 31
0.0
  0
LINE
  5
137
100
AcDbEntity
  8
2
370
    50
100
AcDbLine
 10
107.377416
 20
97.561724
 30
0.0
 11
106.967608
 21
97.451916
 31
0.0
  0
LINE
  5
138
100
AcDbEntity
  8
2
370
    50
100
AcDbLine
 10
137.794093
 20
-8.821286
 30
0.0
 11
179.158054
 21
32.542675
 31
0.0
  0
LINE
  5
139
100
AcDbEntity
  8
2
370
    50
100
AcDbLine
 10
177.036734
 20
34.663996
 30
0.0
 11
131.7819
 21
-10.590838
 31
0.0
  0
LINE
  5
13A
100
AcDbEntity
  8
2
370
    50
100
AcDbLine
 10
179.793942
 20
128.521997
 30
0.0
 11
179.793942
 21
37.421355
 31
0.0
  0
POINT
  5
13B
100
AcDbEntity
  8
2
370
    50
100
AcDbPoint
 10
35.18387
 20
98.110327
 30
0.0
  0
ARC
  5
13C
100
AcDbEntity
  8
2
370
    50
100
AcDbCircle
 10
115.302717
 20
164.221357
 30
0.0
 40
16.0
100
AcDbArc
 50
345.522488
 51
14.477512
  0
LINE
  5
13D
100
AcDbEntity
  8
2
370
    50
100
AcDbLine
 10
130.79465
 20
152.387225
 30
0.0
 11
130.79465
 21
145.387225
 31
0.0
  0
LINE
  5
13E
100
AcDbEntity
  8
2
370
    50
100
AcDbLine
 10
172.004678
 20
-57.174896
 30
0.0
 11
172.754678
 21
-56.424896
 31
0.0
  0
LINE
  5
13F
100
AcDbEntity
  8
2
370
    50
100
AcDbLine
 10
138.504678
 20
-57.174896
 30
0.0
 11
137.754678
 21
-56.424896
 31
0.0
  0
LINE
  5
140
100
AcDbEntity
  8
2
370
    25
100
AcDbLine
 10
172.004678
 20
-51.830957
 30
0.0
 11
172.004678
 21
-57.174896
 31
0.0
  0
LINE
  5
141
100
AcDbEntity
  8
2
370
    50
100
AcDbLine
 10
138.504678
 20
-57.174896
 30
0.0
 11
172.004678
 21
-57.174896
 31
0.0
  0
LINE
  5
142
100
AcDbEntity
  8
2
370
    50
100
AcDbLine
 10
127.754678
 20
-39.330957
 30
0.0
 11
182.754678
 21
-39.330957
 31
0.0
  0
LINE
  5
143
100
AcDbEntity
  8
2
370
    50
100
AcDbLine
 10
127.754678
 20
-37.245435
 30
0.0
 11
182.754678
 21
17.754565
 31
0.0
  0
LINE
  5
144
100
AcDbEntity
  8
2
370
    50
100
AcDbLine
 10
182.754678
 20
-39.330957
 30
0.0
 11
182.754678
 21
17.754565
 31
0.0
  0
LINE
  5
145
100
AcDbEntity
  8
2
370
    50
100
AcDbLine
 10
127.754678
 20
-39.330957
 30
0.0
 11
127.754678
 21
-37.245435
 31
0.0
  0
LINE
  5
146
100
AcDbEntity
  8
2
370
    50
100
AcDbLine
 10
129.254678
 20
-39.830957
 30
0.0
 11
129.254678
 21
-50.739046
 31
0.0
  0
LINE
  5
147
100
AcDbEntity
  8
2
370
    50
100
AcDbLine
 10
132.254678
 20
-51.830957
 30
0.0
 11
129.254678
 21
-50.739046
 31
0.0
  0
LINE
  5
148
100
AcDbEntity
  8
2
370
    50
100
AcDbLine
 10
181.254678
 20
-39.830957
 30
0.0
 11
181.254678
 21
-50.739046
 31
0.0
  0
LINE
  5
149
100
AcDbEntity
  8
2
370
    50
100
AcDbLine
 10
178.254678
 20
-51.830957
 30
0.0
 11
181.254678
 21
-50.739046
 31
0.0
  0
LINE
  5
14A
100
AcDbEntity
  8
2
370
    50
100
AcDbLine
 10
129.254678
 20
-39.830957
 30
0.0
 11
181.254678
 21
-39.830957
 31
0.0
  0
LINE
  5
14B
100
AcDbEntity
  8
2
370
    50
100
AcDbLine
 10
132.254678
 20
-51.830957
 30
0.0
 11
178.254678
 21
-51.830957
 31
0.0
  0
LINE
  5
14C
100
AcDbEntity
  8
2
370
    50
100
AcDbLine
 10
130.254678
 20
-39.330957
 30
0.0
 11
130.254678
 21
-39.830957
 31
0.0
  0
LINE
  5
14D
100
AcDbEntity
  8
2
370
    50
100
AcDbLine
 10
180.254678
 20
-39.330957
 30
0.0
 11
180.254678
 21
-39.830957
 31
0.0
  0
LINE
  5
14E
100
AcDbEntity
  8
2
370
    50
100
AcDbLine
 10
128.738173
 20
-34.847725
 30
0.0
 11
179.649862
 21
16.063963
 31
0.0
  0
LINE
  5
14F
100
AcDbEntity
  8
2
370
    50
100
AcDbLine
 10
179.649862
 20
16.063963
 30
0.0
 11
180.356968
 21
15.356856
 31
0.0
  0
LINE
  5
150
100
AcDbEntity
  8
2
370
    50
100
AcDbLine
 10
128.738173
 20
-34.847725
 30
0.0
 11
129.44528
 21
-35.554832
 31
0.0
  0
LINE
  5
151
100
AcDbEntity
  8
2
370
    50
100
AcDbLine
 10
172.754678
 20
-56.424896
 30
0.0
 11
172.754678
 21
-51.830957
 31
0.0
  0
LINE
  5
152
100
AcDbEntity
  8
2
370
    50
100
AcDbLine
 10
137.754678
 20
-56.424896
 30
0.0
 11
137.754678
 21
-51.830957
 31
0.0
  0
LINE
  5
153
100
AcDbEntity
  8
2
370
    25
100
AcDbLine
 10
138.504678
 20
-57.174896
 30
0.0
 11
138.504678
 21
-51.830957
 31
0.0
  0
LINE
  5
154
100
AcDbEntity
  8
2
370
    25
100
AcDbLine
 10
172.754678
 20
-56.424896
 30
0.0
 11
137.754678
 21
-56.424896
 31
0.0
  0
LINE
  5
155
100
AcDbEntity
  8
2
370
    50
100
AcDbLine
 10
167.379033
 20
-50.739046
 30
0.0
 11
167.379033
 21
-42.830957
 31
0.0
  0
LINE
  5
156
100
AcDbEntity
  8
2
370
    50
100
AcDbLine
 10
143.130322
 20
-50.739046
 30
0.0
 11
143.130322
 21
-42.830957
 31
0.0
  0
LINE
  5
157
100
AcDbEntity
  8
2
370
    50
100
AcDbLine
 10
169.111084
 20
-50.739046
 30
0.0
 11
169.111084
 21
-42.830957
 31
0.0
  0
LINE
  5
158
100
AcDbEntity
  8
2
370
    50
100
AcDbLine
 10
141.398271
 20
-50.739046
 30
0.0
 11
141.398271
 21
-42.830957
 31
0.0
  0
ARC
  5
159
100
AcDbEntity
  8
2
370
    50
100
AcDbCircle
 10
155.254678
 20
16.028195
 30
0.0
 40
67.859152
100
AcDbArc
 50
259.707733
 51
280.292267
  0
ARC
  5
15A
100
AcDbEntity
  8
2
370
    50
100
AcDbCircle
 10
175.182287
 20
-34.406561
 30
0.0
 40
17.424396
100
AcDbArc
 50
249.608612
 51
290.0
  0
ARC
  5
15B
100
AcDbEntity
  8
2
370
    50
100
AcDbCircle
 10
135.327069
 20
-34.406561
 30
0.0
 40
17.424396
100
AcDbArc
 50
250.0
 51
290.391388
  0
LINE
  5
15C
100
AcDbEntity
  8
2
370
    50
100
AcDbLine
 10
141.398271
 20
-50.739046
 30
0.0
 11
143.130322
 21
-50.739046
 31
0.0
  0
LINE
  5
15D
100
AcDbEntity
  8
2
370
    50
100
AcDbLine
 10
167.379033
 20
-50.739046
 30
0.0
 11
169.111084
 21
-50.739046
 31
0.0
  0
LINE
  5
15E
100
AcDbEntity
  8
2
370
    50
100
AcDbLine
 10
129.254678
 20
-42.830957
 30
0.0
 11
141.398271
 21
-42.830957
 31
0.0
  0
LINE
  5
15F
100
AcDbEntity
  8
2
370
    50
100
AcDbLine
 10
143.130322
 20
-42.830957
 30
0.0
 11
167.379033
 21
-42.830957
 31
0.0
  0
LINE
  5
160
100
AcDbEntity
  8
2
370
    50
100
AcDbLine
 10
169.111084
 20
-42.830957
 30
0.0
 11
181.254678
 21
-42.830957
 31
0.0
  0
LINE
  5
161
100
AcDbEntity
  8
2
370
    50
100
AcDbLine
 10
137.754678
 20
-25.831221
 30
0.0
 11
137.754678
 21
-8.860701
 31
0.0
  0
LINE
  5
162
100
AcDbEntity
  8
2
370
    50
100
AcDbLine
 10
138.504678
 20
-25.081221
 30
0.0
 11
138.504678
 21
-8.110701
 31
0.0
  0
LINE
  5
163
100
AcDbEntity
  8
2
370
    50
100
AcDbLine
 10
172.004678
 20
8.418779
 30
0.0
 11
172.004678
 21
25.389299
 31
0.0
  0
LINE
  5
164
100
AcDbEntity
  8
2
370
    50
100
AcDbLine
 10
172.754678
 20
9.168779
 30
0.0
 11
172.754678
 21
26.139299
 31
0.0
  0
LINE
  5
165
100
AcDbEntity
  8
2
370
    50
100
AcDbLine
 10
77.392541
 20
82.426177
 30
0.0
 11
73.928439
 21
84.426177
 31
0.0
  0
LINE
  5
166
100
AcDbEntity
  8
2
370
    50
100
AcDbLine
 10
77.479143
 20
82.376177
 30
0.0
 11
73.841837
 21
84.476177
 31
0.0
  0
LINE
  5
167
100
AcDbEntity
  8
2
370
    25
  6
CENTER
100
AcDbLine
 10
155.254678
 20
184.257935
 30
0.0
 11
155.254678
 21
-60.81646
 31
0.0
  0
POINT
  5
168
100
AcDbEntity
  8
2
370
    50
100
AcDbPoint
 10
155.254678
 20
173.721002
 30
0.0
  0
POINT
  5
169
100
AcDbEntity
  8
2
370
    50
100
AcDbPoint
 10
155.254678
 20
173.721002
 30
0.0
  0
LINE
  5
16A
100
AcDbEntity
  8
2
370
    50
100
AcDbLine
 10
155.255106
 20
-57.174404
 30
0.0
 11
156.355106
 21
-57.174404
 31
0.0
  0
LINE
  5
16B
100
AcDbEntity
  8
2
370
    50
100
AcDbLine
 10
154.666106
 20
-57.174404
 30
0.0
 11
155.255106
 21
-57.174404
 31
0.0
  0
LINE
  5
16C
100
AcDbEntity
  8
2
370
    50
100
AcDbLine
 10
155.255106
 20
-57.174404
 30
0.0
 11
156.355106
 21
-57.174404
 31
0.0
  0
LINE
  5
16D
100
AcDbEntity
  8
2
370
    50
100
AcDbLine
 10
154.666106
 20
-57.174404
 30
0.0
 11
155.255106
 21
-57.174404
 31
0.0
  0
POINT
  5
16E
100
AcDbEntity
  8
2
370
    50
100
AcDbPoint
 10
155.254678
 20
-57.174896
 30
0.0
  0
LINE
  5
16F
100
AcDbEntity
  8
2
370
    50
100
AcDbLine
 10
155.254678
 20
-57.174896
 30
0.0
 11
156.354678
 21
-57.174896
 31
0.0
  0
LINE
  5
170
100
AcDbEntity
  8
2
370
    50
100
AcDbLine
 10
138.554678
 20
-57.174896
 30
0.0
 11
171.954678
 21
-57.174896
 31
0.0
  0
LINE
  5
171
100
AcDbEntity
  8
2
370
    50
100
AcDbLine
 10
154.665678
 20
-57.174896
 30
0.0
 11
155.254678
 21
-57.174896
 31
0.0
  0
LINE
  5
172
100
AcDbEntity
  8
2
370
    25
  6
CENTER
100
AcDbLine
 10
165.754678
 20
-81.071608
 30
0.0
 11
290.880284
 21
17.740199
 31
0.0
  0
LINE
  5
173
100
AcDbEntity
  8
2
370
    25
  6
CENTER
100
AcDbLine
 10
75.253773
 20
-90.846603
 30
0.0
 11
75.253773
 21
-55.832084
 31
0.0
  0
LINE
  5
174
100
AcDbEntity
  8
2
370
    25
  6
CENTER
100
AcDbLine
 10
161.254678
 20
-176.654105
 30
0.0
 11
161.254678
 21
-154.025498
 31
0.0
  0
LINE
  5
175
100
AcDbEntity
  8
2
370
    50
100
AcDbLine
 10
167.254546
 20
-105.152967
 30
0.0
 11
155.254546
 21
-105.152967
 31
0.0
  0
LINE
  5
176
100
AcDbEntity
  8
2
370
    50
100
AcDbLine
 10
155.254546
 20
-89.653041
 30
0.0
 11
167.254546
 21
-89.653041
 31
0.0
  0
LINE
  5
177
100
AcDbEntity
  8
2
370
    50
100
AcDbLine
 10
156.254546
 20
-89.653041
 30
0.0
 11
156.254546
 21
-57.174896
 31
0.0
  0
ARC
  5
178
100
AcDbEntity
  8
2
370
    50
100
AcDbCircle
 10
143.982045
 20
-81.453179
 30
0.0
 40
0.2
100
AcDbArc
 50
99.5
 51
180.0
  0
LINE
  5
179
100
AcDbEntity
  8
2
370
    50
100
AcDbLine
 10
144.582045
 20
-81.149612
 30
0.0
 11
144.582045
 21
-80.135707
 31
0.0
  0
LINE
  5
17A
100
AcDbEntity
  8
2
370
    50
100
AcDbLine
 10
156.254546
 20
-79.196344
 30
0.0
 11
143.949033
 21
-81.25594
 31
0.0
  0
LINE
  5
17B
100
AcDbEntity
  8
2
370
    50
100
AcDbLine
 10
143.782045
 20
-80.033332
 30
0.0
 11
143.782045
 21
-77.397179
 31
0.0
  0
ARC
  5
17C
100
AcDbEntity
  8
2
370
    50
100
AcDbCircle
 10
143.982045
 20
-77.397179
 30
0.0
 40
0.2
100
AcDbArc
 50
99.5
 51
180.0
  0
LINE
  5
17D
100
AcDbEntity
  8
2
370
    50
100
AcDbLine
 10
144.015055
 20
-80.230589
 30
0.0
 11
156.254546
 21
-78.182401
 31
0.0
  0
ARC
  5
17E
100
AcDbEntity
  8
2
370
    50
100
AcDbCircle
 10
143.982045
 20
-80.033332
 30
0.0
 40
0.2
100
AcDbArc
 50
180.0
 51
279.5
  0
LINE
  5
17F
100
AcDbEntity
  8
2
370
    50
100
AcDbLine
 10
144.582045
 20
-77.093612
 30
0.0
 11
144.582045
 21
-76.079707
 31
0.0
  0
LINE
  5
180
100
AcDbEntity
  8
2
370
    50
100
AcDbLine
 10
156.254546
 20
-75.140344
 30
0.0
 11
143.949033
 21
-77.19994
 31
0.0
  0
LINE
  5
181
100
AcDbEntity
  8
2
370
    50
100
AcDbLine
 10
143.782045
 20
-75.977332
 30
0.0
 11
143.782045
 21
-73.341179
 31
0.0
  0
ARC
  5
182
100
AcDbEntity
  8
2
370
    50
100
AcDbCircle
 10
143.982045
 20
-73.341179
 30
0.0
 40
0.2
100
AcDbArc
 50
99.5
 51
180.0
  0
LINE
  5
183
100
AcDbEntity
  8
2
370
    50
100
AcDbLine
 10
144.015055
 20
-76.174589
 30
0.0
 11
156.254546
 21
-74.126401
 31
0.0
  0
ARC
  5
184
100
AcDbEntity
  8
2
370
    50
100
AcDbCircle
 10
143.982045
 20
-75.977332
 30
0.0
 40
0.2
100
AcDbArc
 50
180.0
 51
279.5
  0
LINE
  5
185
100
AcDbEntity
  8
2
370
    50
100
AcDbLine
 10
144.582045
 20
-73.037612
 30
0.0
 11
144.582045
 21
-72.023707
 31
0.0
  0
LINE
  5
186
100
AcDbEntity
  8
2
370
    50
100
AcDbLine
 10
156.254546
 20
-71.084344
 30
0.0
 11
143.949033
 21
-73.14394
 31
0.0
  0
LINE
  5
187
100
AcDbEntity
  8
2
370
    50
100
AcDbLine
 10
144.015055
 20
-72.118589
 30
0.0
 11
156.254546
 21
-70.070401
 31
0.0
  0
LINE
  5
188
100
AcDbEntity
  8
2
370
    50
100
AcDbLine
 10
143.782045
 20
-71.921332
 30
0.0
 11
143.782045
 21
-69.285179
 31
0.0
  0
ARC
  5
189
100
AcDbEntity
  8
2
370
    50
100
AcDbCircle
 10
143.982045
 20
-71.921332
 30
0.0
 40
0.2
100
AcDbArc
 50
180.0
 51
279.5
  0
LINE
  5
18A
100
AcDbEntity
  8
2
370
    50
100
AcDbLine
 10
156.254546
 20
-67.028344
 30
0.0
 11
143.949033
 21
-69.08794
 31
0.0
  0
ARC
  5
18B
100
AcDbEntity
  8
2
370
    50
100
AcDbCircle
 10
143.982045
 20
-69.285179
 30
0.0
 40
0.2
100
AcDbArc
 50
99.5
 51
180.0
  0
LINE
  5
18C
100
AcDbEntity
  8
2
370
    50
100
AcDbLine
 10
144.582045
 20
-68.981612
 30
0.0
 11
144.582045
 21
-67.967707
 31
0.0
  0
LINE
  5
18D
100
AcDbEntity
  8
2
370
    50
100
AcDbLine
 10
144.582045
 20
-64.925612
 30
0.0
 11
144.582045
 21
-63.911707
 31
0.0
  0
ARC
  5
18E
100
AcDbEntity
  8
2
370
    50
100
AcDbCircle
 10
143.982045
 20
-65.229179
 30
0.0
 40
0.2
100
AcDbArc
 50
99.5
 51
180.0
  0
LINE
  5
18F
100
AcDbEntity
  8
2
370
    50
100
AcDbLine
 10
143.782045
 20
-67.865332
 30
0.0
 11
143.782045
 21
-65.229179
 31
0.0
  0
ARC
  5
190
100
AcDbEntity
  8
2
370
    50
100
AcDbCircle
 10
143.982045
 20
-67.865332
 30
0.0
 40
0.2
100
AcDbArc
 50
180.0
 51
279.5
  0
LINE
  5
191
100
AcDbEntity
  8
2
370
    50
100
AcDbLine
 10
144.015055
 20
-68.062589
 30
0.0
 11
156.254546
 21
-66.014401
 31
0.0
  0
LINE
  5
192
100
AcDbEntity
  8
2
370
    50
100
AcDbLine
 10
143.782045
 20
-63.809332
 30
0.0
 11
143.782045
 21
-61.173179
 31
0.0
  0
ARC
  5
193
100
AcDbEntity
  8
2
370
    50
100
AcDbCircle
 10
143.982045
 20
-63.809332
 30
0.0
 40
0.2
100
AcDbArc
 50
180.0
 51
279.5
  0
ARC
  5
194
100
AcDbEntity
  8
2
370
    50
100
AcDbCircle
 10
143.982045
 20
-61.173179
 30
0.0
 40
0.2
100
AcDbArc
 50
99.5
 51
180.0
  0
LINE
  5
195
100
AcDbEntity
  8
2
370
    50
100
AcDbLine
 10
144.582045
 20
-60.869612
 30
0.0
 11
144.582045
 21
-59.855707
 31
0.0
  0
LINE
  5
196
100
AcDbEntity
  8
2
370
    50
100
AcDbLine
 10
156.254546
 20
-62.972344
 30
0.0
 11
143.949033
 21
-65.03194
 31
0.0
  0
LINE
  5
197
100
AcDbEntity
  8
2
370
    50
100
AcDbLine
 10
144.015055
 20
-64.006589
 30
0.0
 11
156.254546
 21
-61.958401
 31
0.0
  0
LINE
  5
198
100
AcDbEntity
  8
2
370
    50
100
AcDbLine
 10
143.949033
 20
-60.97594
 30
0.0
 11
156.254546
 21
-58.916344
 31
0.0
  0
ARC
  5
199
100
AcDbEntity
  8
2
370
    50
100
AcDbCircle
 10
143.982045
 20
-59.753332
 30
0.0
 40
0.2
100
AcDbArc
 50
180.0
 51
279.5
  0
LINE
  5
19A
100
AcDbEntity
  8
2
370
    50
100
AcDbLine
 10
144.015055
 20
-59.950589
 30
0.0
 11
156.254546
 21
-57.902401
 31
0.0
  0
LINE
  5
19B
100
AcDbEntity
  8
2
370
    50
100
AcDbLine
 10
155.254546
 20
-105.152967
 30
0.0
 11
155.254546
 21
-89.653041
 31
0.0
  0
LINE
  5
19C
100
AcDbEntity
  8
2
370
    50
100
AcDbLine
 10
167.254546
 20
-89.653041
 30
0.0
 11
167.254546
 21
-105.152967
 31
0.0
  0
LINE
  5
19D
100
AcDbEntity
  8
2
370
    50
100
AcDbLine
 10
162.739002
 20
-89.941717
 30
0.0
 11
162.739002
 21
-104.864291
 31
0.0
  0
LINE
  5
19E
100
AcDbEntity
  8
2
370
    50
100
AcDbLine
 10
159.770091
 20
-89.941717
 30
0.0
 11
159.770091
 21
-104.864291
 31
0.0
  0
LINE
  5
19F
100
AcDbEntity
  8
2
370
    50
100
AcDbLine
 10
165.770091
 20
-89.941717
 30
0.0
 11
165.770091
 21
-104.864291
 31
0.0
  0
LINE
  5
1A0
100
AcDbEntity
  8
2
370
    50
100
AcDbLine
 10
156.739002
 20
-89.941717
 30
0.0
 11
156.739002
 21
-104.864291
 31
0.0
  0
ARC
  5
1A1
100
AcDbEntity
  8
2
370
    50
100
AcDbCircle
 10
164.254546
 20
-93.775683
 30
0.0
 40
4.122642
100
AcDbArc
 50
68.431404
 51
111.568596
  0
ARC
  5
1A2
100
AcDbEntity
  8
2
370
    50
100
AcDbCircle
 10
158.254546
 20
-93.775683
 30
0.0
 40
4.122642
100
AcDbArc
 50
68.431404
 51
111.568596
  0
ARC
  5
1A3
100
AcDbEntity
  8
2
370
    50
100
AcDbCircle
 10
158.254546
 20
-101.030325
 30
0.0
 40
4.122642
100
AcDbArc
 50
248.431404
 51
291.568596
  0
ARC
  5
1A4
100
AcDbEntity
  8
2
370
    50
100
AcDbCircle
 10
164.285743
 20
-101.192423
 30
0.0
 40
3.960544
100
AcDbArc
 50
247.012044
 51
292.01095
  0
LINE
  5
1A5
100
AcDbEntity
  8
2
370
    50
100
AcDbLine
 10
165.770091
 20
-89.941717
 30
0.0
 11
167.254546
 21
-89.941717
 31
0.0
  0
LINE
  5
1A6
100
AcDbEntity
  8
2
370
    50
100
AcDbLine
 10
155.254546
 20
-89.941717
 30
0.0
 11
156.739002
 21
-89.941717
 31
0.0
  0
LINE
  5
1A7
100
AcDbEntity
  8
2
370
    50
100
AcDbLine
 10
159.770091
 20
-89.941717
 30
0.0
 11
162.739002
 21
-89.941717
 31
0.0
  0
LINE
  5
1A8
100
AcDbEntity
  8
2
370
    50
100
AcDbLine
 10
165.770091
 20
-104.864291
 30
0.0
 11
167.254546
 21
-104.864291
 31
0.0
  0
LINE
  5
1A9
100
AcDbEntity
  8
2
370
    50
100
AcDbLine
 10
155.254546
 20
-104.864291
 30
0.0
 11
156.739002
 21
-104.864291
 31
0.0
  0
LINE
  5
1AA
100
AcDbEntity
  8
2
370
    50
100
AcDbLine
 10
159.770091
 20
-104.864291
 30
0.0
 11
162.801395
 21
-104.864291
 31
0.0
  0
LINE
  5
1AB
100
AcDbEntity
  8
2
370
    50
100
AcDbLine
 10
143.782045
 20
-59.809332
 30
0.0
 11
143.782045
 21
-57.174896
 31
0.0
  0
LINE
  5
1AC
100
AcDbEntity
  8
2
370
    25
  6
CENTER
100
AcDbLine
 10
150.782045
 20
-76.624756
 30
0.0
 11
150.782045
 21
-182.51407
 31
0.0
  0
LINE
  5
1AD
100
AcDbEntity
  8
2
370
    25
  6
CENTER
100
AcDbLine
 10
290.880284
 20
-81.091931
 30
0.0
 11
290.880284
 21
-48.847838
 31
0.0
  0
POINT
  5
1AE
100
AcDbEntity
  8
2
370
    50
100
AcDbPoint
 10
155.254678
 20
-57.174896
 30
0.0
  0
POINT
  5
1AF
100
AcDbEntity
  8
2
370
    50
100
AcDbPoint
 10
384.001978
 20
-216.500324
 30
0.0
  0
ARC
  5
1B0
100
AcDbEntity
  8
2
370
    50
100
AcDbCircle
 10
120.793942
 20
101.362715
 30
0.0
 40
10.0
100
AcDbArc
 50
240.0
 51
360.0
  0
ARC
  5
1B1
100
AcDbEntity
  8
2
370
    50
100
AcDbCircle
 10
110.794093
 20
37.853652
 30
0.0
 40
20.0
100
AcDbArc
 50
0.0
 51
60.0
  0
ARC
  5
1B2
100
AcDbEntity
  8
2
370
    50
100
AcDbCircle
 10
70.410929
 20
69.608035
 30
0.0
 40
70.0
100
AcDbArc
 50
333.02292
 51
26.977353
  0
LWPOLYLINE
  5
1B3
100
AcDbEntity
  8
2
370
    50
100
AcDbPolyline
 90
      114
 70
     0
 10
-170.532089
 20
63.28077
 10
-170.535592
 20
63.348847
 10
-170.545759
 20
63.416602
 10
-170.562077
 20
63.483713
 10
-170.642812
 20
63.677955
 10
-170.678608
 20
63.739265
 10
-170.717992
 20
63.798319
 10
-170.760451
 20
63.854795
 10
-170.82022
 20
63.924757
 10
-170.884027
 20
63.990017
 10
-170.951479
 20
64.050888
 10
-171.171782
 20
64.21029
 10
-171.249891
 20
64.256727
 10
-171.329684
 20
64.300336
 10
-171.410769
 20
64.34143
 10
-171.488483
 20
64.378292
 10
-171.566961
 20
64.413223
 10
-171.646157
 20
64.446268
 10
-171.887624
 20
64.534565
 10
-172.133981
 20
64.607584
 10
-172.216981
 20
64.628747
 10
-172.300349
 20
64.6484
 10
-172.384039
 20
64.666589
 10
-172.47847
 20
64.685343
 10
-172.573224
 20
64.702332
 10
-172.668273
 20
64.717581
 10
-172.954888
 20
64.753147
 10
-173.243092
 20
64.773979
 10
-173.339375
 20
64.777769
 10
-173.435718
 20
64.780024
 10
-173.532089
 20
64.78077
 10
-173.628461
 20
64.780024
 10
-173.724803
 20
64.777769
 10
-173.821087
 20
64.773979
 10
-174.10929
 20
64.753147
 10
-174.395906
 20
64.717581
 10
-174.490954
 20
64.702332
 10
-174.585709
 20
64.685343
 10
-174.68014
 20
64.666589
 10
-174.76383
 20
64.6484
 10
-174.847197
 20
64.628747
 10
-174.930197
 20
64.607584
 10
-175.176554
 20
64.534565
 10
-175.418021
 20
64.446268
 10
-175.497218
 20
64.413223
 10
-175.575695
 20
64.378292
 10
-175.65341
 20
64.34143
 10
-175.734494
 20
64.300336
 10
-175.814287
 20
64.256727
 10
-175.892397
 20
64.21029
 10
-176.1127
 20
64.050888
 10
-176.180151
 20
63.990017
 10
-176.243958
 20
63.924757
 10
-176.303728
 20
63.854795
 10
-176.346187
 20
63.798319
 10
-176.385571
 20
63.739265
 10
-176.421367
 20
63.677955
 10
-176.502102
 20
63.483713
 10
-176.51842
 20
63.416602
 10
-176.528586
 20
63.348847
 10
-176.532089
 20
63.28077
 10
-176.528586
 20
63.212692
 10
-176.51842
 20
63.144937
 10
-176.502102
 20
63.077827
 10
-176.421367
 20
62.883584
 10
-176.385571
 20
62.822275
 10
-176.346187
 20
62.76322
 10
-176.303728
 20
62.706744
 10
-176.243958
 20
62.636783
 10
-176.180151
 20
62.571522
 10
-176.1127
 20
62.510651
 10
-175.892397
 20
62.351249
 10
-175.814287
 20
62.304812
 10
-175.734494
 20
62.261203
 10
-175.65341
 20
62.220109
 10
-175.549619
 20
62.171391
 10
-175.444497
 20
62.12608
 10
-175.338149
 20
62.084063
 10
-175.012786
 20
61.976675
 10
-174.902574
 20
61.94673
 10
-174.791657
 20
61.919525
 10
-174.68014
 20
61.89495
 10
-174.554158
 20
61.870339
 10
-174.427619
 20
61.84885
 10
-174.300593
 20
61.830423
 10
-173.917282
 20
61.79291
 10
-173.789
 20
61.786125
 10
-173.66058
 20
61.782098
 10
-173.532089
 20
61.78077
 10
-173.403599
 20
61.782098
 10
-173.275178
 20
61.786125
 10
-173.146897
 20
61.79291
 10
-172.763586
 20
61.830423
 10
-172.636559
 20
61.84885
 10
-172.51002
 20
61.870339
 10
-172.384039
 20
61.89495
 10
-172.272521
 20
61.919525
 10
-172.161604
 20
61.94673
 10
-172.051392
 20
61.976675
 10
-171.72603
 20
62.084063
 10
-171.619681
 20
62.12608
 10
-171.51456
 20
62.171391
 10
-171.410769
 20
62.220109
 10
-171.289602
 20
62.282673
 10
-171.171782
 20
62.351249
 10
-171.058633
 20
62.42689
 10
-170.951479
 20
62.510651
 10
-170.851644
 20
62.603584
 10
-170.760451
 20
62.706744
 10
-170.686214
 20
62.810273
 10
-170.623269
 20
62.921319
 10
-170.574607
 20
63.038004
 10
-170.543217
 20
63.158447
 10
-170.532089
 20
63.28077
  0
LWPOLYLINE
  5
227
100
AcDbEntity
  8
2
370
    50
100
AcDbPolyline
 90
      114
 70
     0
 10
-158.532089
 20
124.720756
 10
-158.546966
 20
125.291428
 10
-158.591207
 20
125.860726
 10
-158.664226
 20
126.427277
 10
-159.050097
 20
128.096705
 10
-159.232374
 20
128.638527
 10
-159.440502
 20
129.170733
 10
-159.673896
 20
129.691948
 10
-159.873781
 20
130.091405
 10
-160.088279
 20
130.48301
 10
-160.316882
 20
130.866487
 10
-161.082262
 20
131.965381
 10
-161.956356
 20
132.981151
 10
-162.269516
 20
133.299977
 10
-162.592729
 20
133.608459
 10
-162.925488
 20
133.906321
 10
-163.286791
 20
134.209143
 10
-163.657709
 20
134.499753
 10
-164.037768
 20
134.778097
 10
-165.228078
 20
135.53899
 10
-166.483681
 20
136.187537
 10
-166.914523
 20
136.378501
 10
-167.350732
 20
136.556765
 10
-167.791838
 20
136.722275
 10
-168.253507
 20
136.880247
 10
-168.719528
 20
137.024473
 10
-169.189507
 20
137.154955
 10
-170.619228
 20
137.463958
 10
-172.070317
 20
137.649327
 10
-172.556915
 20
137.68365
 10
-173.044304
 20
137.704243
 10
-173.532089
 20
137.711107
 10
-174.019874
 20
137.704243
 10
-174.507264
 20
137.68365
 10
-174.993862
 20
137.649327
 10
-176.44495
 20
137.463958
 10
-177.874671
 20
137.154955
 10
-178.34465
 20
137.024473
 10
-178.810672
 20
136.880247
 10
-179.272341
 20
136.722275
 10
-179.713446
 20
136.556765
 10
-180.149656
 20
136.378501
 10
-180.580498
 20
136.187537
 10
-181.8361
 20
135.53899
 10
-183.026411
 20
134.778097
 10
-183.40647
 20
134.499753
 10
-183.777387
 20
134.209143
 10
-184.138691
 20
133.906321
 10
-184.580273
 20
133.506798
 10
-185.004584
 20
133.088558
 10
-185.410422
 20
132.652258
 10
-186.505094
 20
131.24156
 10
-186.825034
 20
130.739582
 10
-187.120497
 20
130.222826
 10
-187.390282
 20
129.691948
 10
-187.730935
 20
128.905918
 10
-188.014082
 20
128.096705
 10
-188.237746
 20
127.268946
 10
-188.399953
 20
126.427277
 10
-188.498726
 20
125.576335
 10
-188.532089
 20
124.720756
 10
-188.498726
 20
123.865178
 10
-188.399953
 20
123.014235
 10
-188.237746
 20
122.172566
 10
-188.014082
 20
121.344807
 10
-187.730935
 20
120.535594
 10
-187.390282
 20
119.749564
 10
-187.120497
 20
119.218686
 10
-186.825034
 20
118.701931
 10
-186.505094
 20
118.199953
 10
-185.410422
 20
116.789254
 10
-185.004584
 20
116.352954
 10
-184.580273
 20
115.934714
 10
-184.138691
 20
115.535191
 10
-183.654793
 20
115.13414
 10
-183.154084
 20
114.75483
 10
-182.637681
 20
114.397392
 10
-181.0055
 20
113.457585
 10
-180.437509
 20
113.188913
 10
-179.859417
 20
112.942755
 10
-179.272341
 20
112.719237
 10
-178.655795
 20
112.511663
 10
-178.031746
 20
112.328525
 10
-177.401131
 20
112.169817
 10
-175.479273
 20
111.840241
 10
-174.831775
 20
111.779219
 10
-174.182401
 20
111.742608
 10
-173.532089
 20
111.730406
 10
-172.881777
 20
111.742608
 10
-172.232404
 20
111.779219
 10
-171.584906
 20
111.840241
 10
-169.663047
 20
112.169817
 10
-169.032432
 20
112.328525
 10
-168.408383
 20
112.511663
 10
-167.791838
 20
112.719237
 10
-167.204762
 20
112.942755
 10
-166.626669
 20
113.188913
 10
-166.058678
 20
113.457585
 10
-164.426497
 20
114.397392
 10
-163.910095
 20
114.75483
 10
-163.409386
 20
115.13414
 10
-162.925488
 20
115.535191
 10
-162.483905
 20
115.934714
 10
-162.059595
 20
116.352954
 10
-161.653756
 20
116.789254
 10
-160.559085
 20
118.199953
 10
-160.239145
 20
118.701931
 10
-159.943682
 20
119.218686
 10
-159.673896
 20
119.749564
 10
-159.27195
 20
120.695731
 10
-158.953382
 20
121.673945
 10
-158.721607
 20
122.676195
 10
-158.580038
 20
123.69447
 10
-158.532089
 20
124.720756
  0
LWPOLYLINE
  5
29B
100
AcDbEntity
  8
2
370
    50
100
AcDbPolyline
 90
      114
 70
     0
 10
-170.532089
 20
63.28077
 10
-170.535592
 20
63.348847
 10
-170.545759
 20
63.416602
 10
-170.562077
 20
63.483713
 10
-170.642812
 20
63.677955
 10
-170.678608
 20
63.739265
 10
-170.717992
 20
63.798319
 10
-170.760451
 20
63.854795
 10
-170.82022
 20
63.924757
 10
-170.884027
 20
63.990017
 10
-170.951479
 20
64.050888
 10
-171.171782
 20
64.21029
 10
-171.249891
 20
64.256727
 10
-171.329684
 20
64.300336
 10
-171.410769
 20
64.34143
 10
-171.488483
 20
64.378292
 10
-171.566961
 20
64.413223
 10
-171.646157
 20
64.446268
 10
-171.887624
 20
64.534565
 10
-172.133981
 20
64.607584
 10
-172.216981
 20
64.628747
 10
-172.300349
 20
64.6484
 10
-172.384039
 20
64.666589
 10
-172.47847
 20
64.685343
 10
-172.573224
 20
64.702332
 10
-172.668273
 20
64.717581
 10
-172.954888
 20
64.753147
 10
-173.243092
 20
64.773979
 10
-173.339375
 20
64.777769
 10
-173.435718
 20
64.780024
 10
-173.532089
 20
64.78077
 10
-173.628461
 20
64.780024
 10
-173.724803
 20
64.777769
 10
-173.821087
 20
64.773979
 10
-174.10929
 20
64.753147
 10
-174.395906
 20
64.717581
 10
-174.490954
 20
64.702332
 10
-174.585709
 20
64.685343
 10
-174.68014
 20
64.666589
 10
-174.76383
 20
64.6484
 10
-174.847197
 20
64.628747
 10
-174.930197
 20
64.607584
 10
-175.176554
 20
64.534565
 10
-175.418021
 20
64.446268
 10
-175.497218
 20
64.413223
 10
-175.575695
 20
64.378292
 10
-175.65341
 20
64.34143
 10
-175.734494
 20
64.300336
 10
-175.814287
 20
64.256727
 10
-175.892397
 20
64.21029
 10
-176.1127
 20
64.050888
 10
-176.180151
 20
63.990017
 10
-176.243958
 20
63.924757
 10
-176.303728
 20
63.854795
 10
-176.346187
 20
63.798319
 10
-176.385571
 20
63.739265
 10
-176.421367
 20
63.677955
 10
-176.502102
 20
63.483713
 10
-176.51842
 20
63.416602
 10
-176.528586
 20
63.348847
 10
-176.532089
 20
63.28077
 10
-176.528586
 20
63.212692
 10
-176.51842
 20
63.144937
 10
-176.502102
 20
63.077827
 10
-176.421367
 20
62.883584
 10
-176.385571
 20
62.822275
 10
-176.346187
 20
62.76322
 10
-176.303728
 20
62.706744
 10
-176.243958
 20
62.636783
 10
-176.180151
 20
62.571522
 10
-176.1127
 20
62.510651
 10
-175.892397
 20
62.351249
 10
-175.814287
 20
62.304812
 10
-175.734494
 20
62.261203
 10
-175.65341
 20
62.220109
 10
-175.549619
 20
62.171391
 10
-175.444497
 20
62.12608
 10
-175.338149
 20
62.084063
 10
-175.012786
 20
61.976675
 10
-174.902574
 20
61.94673
 10
-174.791657
 20
61.919525
 10
-174.68014
 20
61.89495
 10
-174.554158
 20
61.870339
 10
-174.427619
 20
61.84885
 10
-174.300593
 20
61.830423
 10
-173.917282
 20
61.79291
 10
-173.789
 20
61.786125
 10
-173.66058
 20
61.782098
 10
-173.532089
 20
61.78077
 10
-173.403599
 20
61.782098
 10
-173.275178
 20
61.786125
 10
-173.146897
 20
61.79291
 10
-172.763586
 20
61.830423
 10
-172.636559
 20
61.84885
 10
-172.51002
 20
61.870339
 10
-172.384039
 20
61.89495
 10
-172.272521
 20
61.919525
 10
-172.161604
 20
61.94673
 10
-172.051392
 20
61.976675
 10
-171.72603
 20
62.084063
 10
-171.619681
 20
62.12608
 10
-171.51456
 20
62.171391
 10
-171.410769
 20
62.220109
 10
-171.289602
 20
62.282673
 10
-171.171782
 20
62.351249
 10
-171.058633
 20
62.42689
 10
-170.951479
 20
62.510651
 10
-170.851644
 20
62.603584
 10
-170.760451
 20
62.706744
 10
-170.686214
 20
62.810273
 10
-170.623269
 20
62.921319
 10
-170.574607
 20
63.038004
 10
-170.543217
 20
63.158447
 10
-170.532089
 20
63.28077
  0
LWPOLYLINE
  5
30F
100
AcDbEntity
  8
2
370
    50
100
AcDbPolyline
 90
      114
 70
     0
 10
-158.532089
 20
124.720756
 10
-158.546966
 20
125.291428
 10
-158.591207
 20
125.860726
 10
-158.664226
 20
126.427277
 10
-159.050097
 20
128.096705
 10
-159.232374
 20
128.638527
 10
-159.440502
 20
129.170733
 10
-159.673896
 20
129.691948
 10
-159.873781
 20
130.091405
 10
-160.088279
 20
130.48301
 10
-160.316882
 20
130.866487
 10
-161.082262
 20
131.965381
 10
-161.956356
 20
132.981151
 10
-162.269516
 20
133.299977
 10
-162.592729
 20
133.608459
 10
-162.925488
 20
133.906321
 10
-163.286791
 20
134.209143
 10
-163.657709
 20
134.499753
 10
-164.037768
 20
134.778097
 10
-165.228078
 20
135.53899
 10
-166.483681
 20
136.187537
 10
-166.914523
 20
136.378501
 10
-167.350732
 20
136.556765
 10
-167.791838
 20
136.722275
 10
-168.253507
 20
136.880247
 10
-168.719528
 20
137.024473
 10
-169.189507
 20
137.154955
 10
-170.619228
 20
137.463958
 10
-172.070317
 20
137.649327
 10
-172.556915
 20
137.68365
 10
-173.044304
 20
137.704243
 10
-173.532089
 20
137.711107
 10
-174.019874
 20
137.704243
 10
-174.507264
 20
137.68365
 10
-174.993862
 20
137.649327
 10
-176.44495
 20
137.463958
 10
-177.874671
 20
137.154955
 10
-178.34465
 20
137.024473
 10
-178.810672
 20
136.880247
 10
-179.272341
 20
136.722275
 10
-179.713446
 20
136.556765
 10
-180.149656
 20
136.378501
 10
-180.580498
 20
136.187537
 10
-181.8361
 20
135.53899
 10
-183.026411
 20
134.778097
 10
-183.40647
 20
134.499753
 10
-183.777387
 20
134.209143
 10
-184.138691
 20
133.906321
 10
-184.580273
 20
133.506798
 10
-185.004584
 20
133.088558
 10
-185.410422
 20
132.652258
 10
-186.505094
 20
131.24156
 10
-186.825034
 20
130.739582
 10
-187.120497
 20
130.222826
 10
-187.390282
 20
129.691948
 10
-187.730935
 20
128.905918
 10
-188.014082
 20
128.096705
 10
-188.237746
 20
127.268946
 10
-188.399953
 20
126.427277
 10
-188.498726
 20
125.576335
 10
-188.532089
 20
124.720756
 10
-188.498726
 20
123.865178
 10
-188.399953
 20
123.014235
 10
-188.237746
 20
122.172566
 10
-188.014082
 20
121.344807
 10
-187.730935
 20
120.535594
 10
-187.390282
 20
119.749564
 10
-187.120497
 20
119.218686
 10
-186.825034
 20
118.701931
 10
-186.505094
 20
118.199953
 10
-185.410422
 20
116.789254
 10
-185.004584
 20
116.352954
 10
-184.580273
 20
115.934714
 10
-184.138691
 20
115.535191
 10
-183.654793
 20
115.13414
 10
-183.154084
 20
114.75483
 10
-182.637681
 20
114.397392
 10
-181.0055
 20
113.457585
 10
-180.437509
 20
113.188913
 10
-179.859417
 20
112.942755
 10
-179.272341
 20
112.719237
 10
-178.655795
 20
112.511663
 10
-178.031746
 20
112.328525
 10
-177.401131
 20
112.169817
 10
-175.479273
 20
111.840241
 10
-174.831775
 20
111.779219
 10
-174.182401
 20
111.742608
 10
-173.532089
 20
111.730406
 10
-172.881777
 20
111.742608
 10
-172.232404
 20
111.779219
 10
-171.584906
 20
111.840241
 10
-169.663047
 20
112.169817
 10
-169.032432
 20
112.328525
 10
-168.408383
 20
112.511663
 10
-167.791838
 20
112.719237
 10
-167.204762
 20
112.942755
 10
-166.626669
 20
113.188913
 10
-166.058678
 20
113.457585
 10
-164.426497
 20
114.397392
 10
-163.910095
 20
114.75483
 10
-163.409386
 20
115.13414
 10
-162.925488
 20
115.535191
 10
-162.483905
 20
115.934714
 10
-162.059595
 20
116.352954
 10
-161.653756
 20
116.789254
 10
-160.559085
 20
118.199953
 10
-160.239145
 20
118.701931
 10
-159.943682
 20
119.218686
 10
-159.673896
 20
119.749564
 10
-159.27195
 20
120.695731
 10
-158.953382
 20
121.673945
 10
-158.721607
 20
122.676195
 10
-158.580038
 20
123.69447
 10
-158.532089
 20
124.720756
  0
LINE
  5
383
100
AcDbEntity
  8
2
370
    50
100
AcDbLine
 10
179.793942
 20
37.421355
 30
0.0
 11
130.794093
 21
-11.578645
 31
0.0
  0
LINE
  5
384
100
AcDbEntity
  8
2
370
    50
100
AcDbLine
 10
-158.532089
 20
84.721342
 30
0.0
 11
-158.532089
 21
62.391074
 31
0.0
  0
LINE
  5
385
100
AcDbEntity
  8
2
370
    50
100
AcDbLine
 10
-188.532089
 20
84.721342
 30
0.0
 11
-188.532089
 21
62.391074
 31
0.0
  0
ELLIPSE
  5
386
100
AcDbEntity
  8
2
370
    50
100
AcDbEllipse
 10
-173.532089
 20
63.28077
 30
0.0
 11
3.0
 21
0.0
 31
0.0
210
0.0
220
0.0
230
1.0
 40
0.5
 41
0.0
 42
6.2831849999999996
  0
ELLIPSE
  5
387
100
AcDbEntity
  8
2
370
    50
100
AcDbEllipse
 10
-173.532089
 20
65.532771
 30
0.0
 11
3.0
 21
0.0
 31
0.0
210
0.0
220
0.0
230
1.0
 40
0.5
 41
3.9906640000000002
 42
5.4341140000000001
  0
LINE
  5
388
100
AcDbEntity
  8
2
370
    50
100
AcDbLine
 10
-158.532089
 20
124.720756
 30
0.0
 11
-158.532089
 21
62.391074
 31
0.0
  0
LINE
  5
389
100
AcDbEntity
  8
2
370
    50
100
AcDbLine
 10
-188.532089
 20
124.720756
 30
0.0
 11
-188.532089
 21
62.391074
 31
0.0
  0
ELLIPSE
  5
38A
100
AcDbEntity
  8
2
370
    50
100
AcDbEllipse
 10
-173.532089
 20
124.720756
 30
0.0
 11
15.0
 21
0.0
 31
0.0
210
0.0
220
0.0
230
1.0
 40
0.866023
 41
0.0
 42
6.2831849999999996
  0
ELLIPSE
  5
38B
100
AcDbEntity
  8
2
370
    50
100
AcDbEllipse
 10
-173.532089
 20
84.721342
 30
0.0
 11
15.0
 21
0.0
 31
0.0
210
0.0
220
0.0
230
1.0
 40
0.866038
 41
4.5719279999999998
 42
0.0
  0
ELLIPSE
  5
38C
100
AcDbEntity
  8
2
370
    50
100
AcDbEllipse
 10
-173.532089
 20
84.721342
 30
0.0
 11
15.0
 21
0.0
 31
0.0
210
0.0
220
0.0
230
1.0
 40
0.866038
 41
3.1415929999999999
 42
4.5719279999999998
  0
LINE
  5
38D
100
AcDbEntity
  8
2
370
    50
100
AcDbLine
 10
-185.032089
 20
103.22418
 30
0.0
 11
-185.032089
 21
98.109943
 31
0.0
  0
LINE
  5
38E
100
AcDbEntity
  8
2
370
    50
100
AcDbLine
 10
-162.032089
 20
103.22418
 30
0.0
 11
-162.032089
 21
98.109943
 31
0.0
  0
ELLIPSE
  5
38F
100
AcDbEntity
  8
2
370
    50
100
AcDbEllipse
 10
-173.532089
 20
98.109943
 30
0.0
 11
11.5
 21
0.0
 31
0.0
210
0.0
220
0.0
230
1.0
 40
0.422617
 41
0.0
 42
6.2831849999999996
  0
ELLIPSE
  5
390
100
AcDbEntity
  8
2
370
    50
100
AcDbEllipse
 10
-173.532089
 20
103.22418
 30
0.0
 11
11.800000000000001
 21
0.0
 31
0.0
210
0.0
220
0.0
230
1.0
 40
0.50191
 41
6.0572109999999997
 42
3.3675670000000002
  0
ELLIPSE
  5
391
100
AcDbEntity
  8
2
370
    50
100
AcDbEllipse
 10
-173.532089
 20
103.22418
 30
0.0
 11
11.5
 21
0.0
 31
0.0
210
0.0
220
0.0
230
1.0
 40
0.501908
 41
0.0
 42
3.1415929999999999
  0
ELLIPSE
  5
392
100
AcDbEntity
  8
2
370
    50
100
AcDbEllipse
 10
-173.532089
 20
98.155496
 30
0.0
 11
9.4499999999999993
 21
0.0
 31
0.0
210
0.0
220
0.0
230
1.0
 40
0.422618
 41
0.0
 42
6.2831849999999996
  0
ELLIPSE
  5
393
100
AcDbEntity
  8
2
370
    50
100
AcDbEllipse
 10
-173.532089
 20
93.720726
 30
0.0
 11
15.0
 21
0.0
 31
0.0
210
0.0
220
0.0
230
1.0
 40
0.866025
 41
3.785094
 42
5.6396839999999999
  0
ELLIPSE
  5
394
100
AcDbEntity
  8
2
370
    50
100
AcDbEllipse
 10
-173.532089
 20
95.820766
 30
0.0
 11
15.0
 21
0.0
 31
0.0
210
0.0
220
0.0
230
1.0
 40
0.866028
 41
3.785094
 42
5.6396839999999999
  0
LINE
  5
395
100
AcDbEntity
  8
2
370
    50
100
AcDbLine
 10
-161.532089
 20
85.926497
 30
0.0
 11
-161.532089
 21
88.026513
 31
0.0
  0
LINE
  5
396
100
AcDbEntity
  8
2
370
    50
100
AcDbLine
 10
-185.532089
 20
85.926497
 30
0.0
 11
-185.532089
 21
88.026513
 31
0.0
  0
LINE
  5
397
100
AcDbEntity
  8
2
370
    50
100
AcDbLine
 10
-161.632089
 20
87.91236
 30
0.0
 11
-161.632089
 21
86.150194
 31
0.0
  0
LINE
  5
398
100
AcDbEntity
  8
2
370
    50
100
AcDbLine
 10
-185.432089
 20
87.91236
 30
0.0
 11
-185.432089
 21
86.150194
 31
0.0
  0
ELLIPSE
  5
399
100
AcDbEntity
  8
2
370
    50
100
AcDbEllipse
 10
-173.532089
 20
93.770726
 30
0.0
 11
14.800000000000001
 21
0.0
 31
0.0
210
0.0
220
0.0
230
1.0
 40
0.866025
 41
3.7783060000000002
 42
5.6464720000000002
  0
LINE
  5
39A
100
AcDbEntity
  8
2
370
    50
100
AcDbLine
 10
-175.582089
 20
71.852657
 30
0.0
 11
-175.582089
 21
69.455398
 31
0.0
  0
LINE
  5
39B
100
AcDbEntity
  8
2
370
    50
100
AcDbLine
 10
-171.482089
 20
71.852657
 30
0.0
 11
-171.482089
 21
69.455398
 31
0.0
  0
ELLIPSE
  5
39C
100
AcDbEntity
  8
2
370
    50
100
AcDbEllipse
 10
-173.532089
 20
69.455398
 30
0.0
 11
2.0499999999999998
 21
0.0
 31
0.0
210
0.0
220
0.0
230
1.0
 40
0.5
 41
3.1415929999999999
 42
0.0
  0
LINE
  5
39D
100
AcDbEntity
  8
2
370
    50
100
AcDbLine
 10
-171.582089
 20
69.858569
 30
0.0
 11
-175.482089
 21
69.858569
 31
0.0
  0
LINE
  5
39E
100
AcDbEntity
  8
2
370
    50
100
AcDbLine
 10
-171.582089
 20
71.841006
 30
0.0
 11
-171.582089
 21
69.858569
 31
0.0
  0
LINE
  5
39F
100
AcDbEntity
  8
2
370
    50
100
AcDbLine
 10
-175.482089
 20
71.841006
 30
0.0
 11
-175.482089
 21
69.858569
 31
0.0
  0
LINE
  5
3A0
100
AcDbEntity
  8
2
370
    50
100
AcDbLine
 10
-151.468089
 20
26.672087
 30
0.0
 11
-151.468089
 21
29.672087
 31
0.0
  0
LINE
  5
3A1
100
AcDbEntity
  8
2
370
    50
100
AcDbLine
 10
-149.032089
 20
25.422087
 30
0.0
 11
-150.218089
 21
25.422087
 31
0.0
  0
LINE
  5
3A2
100
AcDbEntity
  8
2
370
    50
100
AcDbLine
 10
-149.032089
 20
30.922087
 30
0.0
 11
-150.218089
 21
30.922087
 31
0.0
  0
ARC
  5
3A3
100
AcDbEntity
  8
2
370
    50
100
AcDbCircle
 10
-150.218089
 20
26.672087
 30
0.0
 40
1.25
100
AcDbArc
 50
180.0
 51
270.0
  0
ARC
  5
3A4
100
AcDbEntity
  8
2
370
    50
100
AcDbCircle
 10
-150.218089
 20
29.672087
 30
0.0
 40
1.25
100
AcDbArc
 50
90.0
 51
180.0
  0
LINE
  5
3A5
100
AcDbEntity
  8
2
370
    25
100
AcDbLine
 10
-151.244917
 20
25.959258
 30
0.0
 11
-149.032089
 21
28.172087
 31
0.0
  0
LINE
  5
3A6
100
AcDbEntity
  8
2
370
    25
100
AcDbLine
 10
-150.359815
 20
25.430147
 30
0.0
 11
-149.032089
 21
26.757873
 31
0.0
  0
LINE
  5
3A7
100
AcDbEntity
  8
2
370
    25
100
AcDbLine
 10
-151.468089
 20
27.1503
 30
0.0
 11
-149.032089
 21
29.5863
 31
0.0
  0
LINE
  5
3A8
100
AcDbEntity
  8
2
370
    25
100
AcDbLine
 10
-149.110516
 20
30.922087
 30
0.0
 11
-151.468089
 21
28.564514
 31
0.0
  0
LINE
  5
3A9
100
AcDbEntity
  8
2
370
    25
100
AcDbLine
 10
-151.415298
 20
30.031519
 30
0.0
 11
-150.577521
 21
30.869295
 31
0.0
  0
POINT
  5
3AA
100
AcDbEntity
  8
2
370
    50
100
AcDbPoint
 10
92.117395
 20
71.730593
 30
0.0
  0
LINE
  5
3AB
100
AcDbEntity
  8
2
370
    25
  6
CENTER
100
AcDbLine
 10
-165.47959
 20
-187.678386
 30
0.0
 11
-103.273731
 21
-99.934676
 31
0.0
  0
LINE
  5
3AC
100
AcDbEntity
  8
2
370
    25
  6
CENTER
100
AcDbLine
 10
-181.47959
 20
-177.678387
 30
0.0
 11
-243.68559
 21
-89.93443
 31
0.0
  0
LINE
  5
3AD
100
AcDbEntity
  8
2
370
    25
  6
CENTER
100
AcDbLine
 10
-173.532089
 20
-260.79007
 30
0.0
 11
15.156493
 21
-260.79007
 31
0.0
  0
LINE
  5
3AE
100
AcDbEntity
  8
2
370
    25
  6
CENTER
100
AcDbLine
 10
15.156493
 20
-260.79007
 30
0.0
 11
15.156493
 21
-182.51407
 31
0.0
  0
LINE
  5
3AF
100
AcDbEntity
  8
2
370
    50
100
AcDbLine
 10
295.880284
 20
-97.17811
 30
0.0
 11
295.880284
 21
-76.67811
 31
0.0
  0
ARC
  5
3B0
100
AcDbEntity
  8
2
370
    50
100
AcDbCircle
 10
288.380284
 20
-73.344777
 30
0.0
 40
4.166667
100
AcDbArc
 50
233.130102
 51
306.869898
  0
ARC
  5
3B1
100
AcDbEntity
  8
2
370
    50
100
AcDbCircle
 10
293.380284
 20
-80.011444
 30
0.0
 40
4.166667
100
AcDbArc
 50
53.130102
 51
126.869898
  0
ARC
  5
3B2
100
AcDbEntity
  8
2
370
    50
100
AcDbCircle
 10
293.380284
 20
-73.344777
 30
0.0
 40
4.166667
100
AcDbArc
 50
233.130102
 51
306.869898
  0
LINE
  5
3B3
100
AcDbEntity
  8
2
370
    50
100
AcDbLine
 10
285.881219
 20
-97.17811
 30
0.0
 11
285.881219
 21
-76.67811
 31
0.0
  0
LINE
  5
3B4
100
AcDbEntity
  8
2
370
    50
100
AcDbLine
 10
95.948463
 20
198.630602
 30
0.0
 11
130.693802
 21
178.570371
 31
0.0
  0
LINE
  5
3B5
100
AcDbEntity
  8
2
370
    50
100
AcDbLine
 10
99.948463
 20
205.558805
 30
0.0
 11
144.857161
 21
179.630756
 31
0.0
  0
LINE
  5
3B6
100
AcDbEntity
  8
2
370
    50
100
AcDbLine
 10
95.76545
 20
199.313615
 30
0.0
 11
99.26545
 21
205.375793
 31
0.0
  0
LINE
  5
3B7
100
AcDbEntity
  8
2
370
    50
100
AcDbLine
 10
99.948463
 20
205.558805
 30
0.0
 11
99.26545
 21
205.375793
 31
0.0
  0
LINE
  5
3B8
100
AcDbEntity
  8
2
370
    50
100
AcDbLine
 10
95.76545
 20
199.313615
 30
0.0
 11
95.948463
 21
198.630602
 31
0.0
  0
LINE
  5
3B9
100
AcDbEntity
  8
2
370
    50
100
AcDbLine
 10
99.948463
 20
205.558805
 30
0.0
 11
95.948463
 21
198.630602
 31
0.0
  0
POINT
  5
3BA
100
AcDbEntity
  8
2
370
    50
100
AcDbPoint
 10
99.948463
 20
205.558805
 30
0.0
  0
POINT
  5
3BB
100
AcDbEntity
  8
2
370
    50
100
AcDbPoint
 10
70.794469
 20
164.221357
 30
0.0
  0
LINE
  5
3BC
100
AcDbEntity
  8
2
370
    50
100
AcDbLine
 10
166.254546
 20
-89.653041
 30
0.0
 11
166.254546
 21
-79.148232
 31
0.0
  0
LINE
  5
3BD
100
AcDbEntity
  8
2
370
    25
  6
CENTER
100
AcDbLine
 10
161.254678
 20
-176.654105
 30
0.0
 11
75.253773
 21
-55.832084
 31
0.0
  0
LINE
  5
3BE
100
AcDbEntity
  8
2
370
    25
  6
CENTER
100
AcDbLine
 10
165.754678
 20
-57.174896
 30
0.0
 11
165.754678
 21
-81.071608
 31
0.0
  0
LINE
  5
3BF
100
AcDbEntity
  8
2
370
    50
100
AcDbLine
 10
169.754546
 20
-57.174896
 30
0.0
 11
169.754546
 21
-78.817564
 31
0.0
  0
LINE
  5
3C0
100
AcDbEntity
  8
2
370
    50
100
AcDbLine
 10
161.754546
 20
-57.174896
 30
0.0
 11
161.754546
 21
-78.899461
 31
0.0
  0
ARC
  5
3C1
100
AcDbEntity
  8
2
370
    50
100
AcDbCircle
 10
163.754546
 20
-76.150898
 30
0.0
 40
3.333333
100
AcDbArc
 50
233.130102
 51
306.869898
  0
ARC
  5
3C2
100
AcDbEntity
  8
2
370
    50
100
AcDbCircle
 10
167.754546
 20
-81.484231
 30
0.0
 40
3.333333
100
AcDbArc
 50
53.130102
 51
126.869898
  0
ARC
  5
3C3
100
AcDbEntity
  8
2
370
    50
100
AcDbCircle
 10
167.754546
 20
-76.150898
 30
0.0
 40
3.333333
100
AcDbArc
 50
233.130102
 51
306.869898
  0
POINT
  5
3C4
100
AcDbEntity
  8
2
370
    50
100
AcDbPoint
 10
155.254678
 20
90.321997
 30
0.0
  0
LINE
  5
3C5
100
AcDbEntity
  8
2
370
    50
100
AcDbLine
 10
35.18387
 20
98.110327
 30
0.0
 11
35.18387
 21
97.663307
 31
0.0
  0
LINE
  5
3C6
100
AcDbEntity
  8
2
370
    25
  6
CENTER
100
AcDbLine
 10
31.97887
 20
91.237105
 30
0.0
 11
38.842529
 21
105.956269
 31
0.0
  0
ARC
  5
3C7
100
AcDbEntity
  8
2
370
    50
100
AcDbCircle
 10
-249.48559
 20
-155.805798
 30
0.0
 40
0.2
100
AcDbArc
 50
180.0
 51
270.0
  0
ARC
  5
3C8
100
AcDbEntity
  8
2
370
    50
100
AcDbCircle
 10
-237.88559
 20
-155.805798
 30
0.0
 40
0.2
100
AcDbArc
 50
270.0
 51
360.0
  0
LINE
  5
3C9
100
AcDbEntity
  8
2
370
    50
100
AcDbLine
 10
-236.68559
 20
-156.005798
 30
0.0
 11
-250.68559
 21
-156.005798
 31
0.0
  0
ARC
  5
3CA
100
AcDbEntity
  8
2
370
    50
100
AcDbCircle
 10
-237.884996
 20
-155.805115
 30
0.0
 40
0.2
100
AcDbArc
 50
270.0
 51
360.0
  0
ARC
  5
3CB
100
AcDbEntity
  8
2
370
    50
100
AcDbCircle
 10
-249.484996
 20
-155.805115
 30
0.0
 40
0.2
100
AcDbArc
 50
180.0
 51
270.0
  0
LINE
  5
3CC
100
AcDbEntity
  8
2
370
    50
100
AcDbLine
 10
-250.684996
 20
-156.005115
 30
0.0
 11
-236.684996
 21
-156.005115
 31
0.0
  0
LINE
  5
3CD
100
AcDbEntity
  8
2
370
    50
100
AcDbLine
 10
-251.184996
 20
-156.505115
 30
0.0
 11
-250.684996
 21
-156.005115
 31
0.0
  0
LINE
  5
3CE
100
AcDbEntity
  8
2
370
    25
100
AcDbLine
 10
-250.184857
 20
-169.804493
 30
0.0
 11
-250.184857
 21
-166.804493
 31
0.0
  0
LINE
  5
3CF
100
AcDbEntity
  8
2
370
    50
100
AcDbLine
 10
-252.584996
 20
-161.40575
 30
0.0
 11
-252.584996
 21
-163.80575
 31
0.0
  0
LINE
  5
3D0
100
AcDbEntity
  8
2
370
    50
100
AcDbLine
 10
-252.384996
 20
-161.20575
 30
0.0
 11
-252.584996
 21
-161.40575
 31
0.0
  0
LINE
  5
3D1
100
AcDbEntity
  8
2
370
    50
100
AcDbLine
 10
-252.384996
 20
-164.00575
 30
0.0
 11
-252.584996
 21
-163.80575
 31
0.0
  0
LINE
  5
3D2
100
AcDbEntity
  8
2
370
    50
100
AcDbLine
 10
-251.184996
 20
-161.20575
 30
0.0
 11
-251.184996
 21
-160.804493
 31
0.0
  0
LINE
  5
3D3
100
AcDbEntity
  8
2
370
    50
100
AcDbLine
 10
-251.184996
 20
-156.505115
 30
0.0
 11
-251.184996
 21
-157.804493
 31
0.0
  0
LINE
  5
3D4
100
AcDbEntity
  8
2
370
    50
100
AcDbLine
 10
-234.784996
 20
-161.405115
 30
0.0
 11
-234.784996
 21
-163.805115
 31
0.0
  0
LINE
  5
3D5
100
AcDbEntity
  8
2
370
    50
100
AcDbLine
 10
-252.584996
 20
-161.405115
 30
0.0
 11
-252.584996
 21
-163.805115
 31
0.0
  0
LINE
  5
3D6
100
AcDbEntity
  8
2
370
    50
100
AcDbLine
 10
-252.384996
 20
-161.205115
 30
0.0
 11
-252.584996
 21
-161.405115
 31
0.0
  0
LINE
  5
3D7
100
AcDbEntity
  8
2
370
    50
100
AcDbLine
 10
-234.984996
 20
-161.205115
 30
0.0
 11
-234.784996
 21
-161.405115
 31
0.0
  0
LINE
  5
3D8
100
AcDbEntity
  8
2
370
    50
100
AcDbLine
 10
-234.984996
 20
-164.005115
 30
0.0
 11
-234.784996
 21
-163.805115
 31
0.0
  0
LINE
  5
3D9
100
AcDbEntity
  8
2
370
    50
100
AcDbLine
 10
-234.684996
 20
-169.805115
 30
0.0
 11
-252.684996
 21
-169.805115
 31
0.0
  0
LINE
  5
3DA
100
AcDbEntity
  8
2
370
    50
100
AcDbLine
 10
-235.384996
 20
-157.805115
 30
0.0
 11
-251.984996
 21
-157.805115
 31
0.0
  0
LINE
  5
3DB
100
AcDbEntity
  8
2
370
    50
100
AcDbLine
 10
-247.684996
 20
-158.805115
 30
0.0
 11
-247.684996
 21
-168.805115
 31
0.0
  0
LINE
  5
3DC
100
AcDbEntity
  8
2
370
    50
100
AcDbLine
 10
-239.684996
 20
-158.805115
 30
0.0
 11
-239.684996
 21
-168.805115
 31
0.0
  0
LINE
  5
3DD
100
AcDbEntity
  8
2
370
    50
100
AcDbLine
 10
-258.184996
 20
-156.805115
 30
0.0
 11
-258.184996
 21
-168.805115
 31
0.0
  0
LINE
  5
3DE
100
AcDbEntity
  8
2
370
    50
100
AcDbLine
 10
-229.184996
 20
-156.805115
 30
0.0
 11
-229.184996
 21
-168.805115
 31
0.0
  0
ARC
  5
3DF
100
AcDbEntity
  8
2
370
    50
100
AcDbCircle
 10
-230.184996
 20
-156.805115
 30
0.0
 40
1.0
100
AcDbArc
 50
0.0
 51
90.0
  0
ARC
  5
3E0
100
AcDbEntity
  8
2
370
    50
100
AcDbCircle
 10
-257.184996
 20
-156.805115
 30
0.0
 40
1.0
100
AcDbArc
 50
90.0
 51
180.0
  0
ARC
  5
3E1
100
AcDbEntity
  8
2
370
    50
100
AcDbCircle
 10
-257.184996
 20
-168.805115
 30
0.0
 40
1.0
100
AcDbArc
 50
180.0
 51
270.0
  0
ARC
  5
3E2
100
AcDbEntity
  8
2
370
    50
100
AcDbCircle
 10
-230.184996
 20
-168.805115
 30
0.0
 40
1.0
100
AcDbArc
 50
270.0
 51
360.0
  0
LINE
  5
3E3
100
AcDbEntity
  8
2
370
    50
100
AcDbLine
 10
-257.184996
 20
-155.805115
 30
0.0
 11
-249.684996
 21
-155.805115
 31
0.0
  0
LINE
  5
3E4
100
AcDbEntity
  8
2
370
    50
100
AcDbLine
 10
-237.684996
 20
-155.805115
 30
0.0
 11
-230.184996
 21
-155.805115
 31
0.0
  0
LINE
  5
3E5
100
AcDbEntity
  8
2
370
    50
100
AcDbLine
 10
-257.184996
 20
-169.805115
 30
0.0
 11
-251.184996
 21
-169.805115
 31
0.0
  0
LINE
  5
3E6
100
AcDbEntity
  8
2
370
    50
100
AcDbLine
 10
-235.384996
 20
-169.805115
 30
0.0
 11
-230.184996
 21
-169.805115
 31
0.0
  0
LINE
  5
3E7
100
AcDbEntity
  8
2
370
    50
100
AcDbLine
 10
-235.384996
 20
-160.805115
 30
0.0
 11
-239.684996
 21
-160.805115
 31
0.0
  0
LINE
  5
3E8
100
AcDbEntity
  8
2
370
    50
100
AcDbLine
 10
-247.684996
 20
-160.805115
 30
0.0
 11
-251.984996
 21
-160.805115
 31
0.0
  0
LINE
  5
3E9
100
AcDbEntity
  8
2
370
    50
100
AcDbLine
 10
-234.984996
 20
-161.205115
 30
0.0
 11
-239.684996
 21
-161.205115
 31
0.0
  0
LINE
  5
3EA
100
AcDbEntity
  8
2
370
    50
100
AcDbLine
 10
-247.684996
 20
-161.205115
 30
0.0
 11
-252.384996
 21
-161.205115
 31
0.0
  0
LINE
  5
3EB
100
AcDbEntity
  8
2
370
    50
100
AcDbLine
 10
-234.784996
 20
-161.405115
 30
0.0
 11
-239.684996
 21
-161.405115
 31
0.0
  0
LINE
  5
3EC
100
AcDbEntity
  8
2
370
    50
100
AcDbLine
 10
-247.684996
 20
-161.405115
 30
0.0
 11
-252.584996
 21
-161.405115
 31
0.0
  0
LINE
  5
3ED
100
AcDbEntity
  8
2
370
    50
100
AcDbLine
 10
-234.784996
 20
-163.805115
 30
0.0
 11
-239.684996
 21
-163.805115
 31
0.0
  0
LINE
  5
3EE
100
AcDbEntity
  8
2
370
    50
100
AcDbLine
 10
-247.684996
 20
-163.805115
 30
0.0
 11
-252.584996
 21
-163.805115
 31
0.0
  0
LINE
  5
3EF
100
AcDbEntity
  8
2
370
    50
100
AcDbLine
 10
-235.384996
 20
-166.805115
 30
0.0
 11
-239.684996
 21
-166.805115
 31
0.0
  0
LINE
  5
3F0
100
AcDbEntity
  8
2
370
    50
100
AcDbLine
 10
-247.684996
 20
-166.805115
 30
0.0
 11
-251.984996
 21
-166.805115
 31
0.0
  0
ARC
  5
3F1
100
AcDbEntity
  8
2
370
    50
100
AcDbCircle
 10
-240.684996
 20
-158.805115
 30
0.0
 40
1.0
100
AcDbArc
 50
0.0
 51
90.0
  0
ARC
  5
3F2
100
AcDbEntity
  8
2
370
    50
100
AcDbCircle
 10
-246.684996
 20
-158.805115
 30
0.0
 40
1.0
100
AcDbArc
 50
90.0
 51
180.0
  0
ARC
  5
3F3
100
AcDbEntity
  8
2
370
    50
100
AcDbCircle
 10
-246.684996
 20
-168.805115
 30
0.0
 40
1.0
100
AcDbArc
 50
180.0
 51
270.0
  0
ARC
  5
3F4
100
AcDbEntity
  8
2
370
    50
100
AcDbCircle
 10
-240.684996
 20
-168.805115
 30
0.0
 40
1.0
100
AcDbArc
 50
270.0
 51
0.0
  0
LINE
  5
3F5
100
AcDbEntity
  8
2
370
    50
100
AcDbLine
 10
-251.984996
 20
-157.805115
 30
0.0
 11
-251.984996
 21
-160.805115
 31
0.0
  0
LINE
  5
3F6
100
AcDbEntity
  8
2
370
    50
100
AcDbLine
 10
-235.384996
 20
-157.805115
 30
0.0
 11
-235.384996
 21
-160.805115
 31
0.0
  0
LINE
  5
3F7
100
AcDbEntity
  8
2
370
    50
100
AcDbLine
 10
-235.384996
 20
-166.805115
 30
0.0
 11
-235.384996
 21
-169.805115
 31
0.0
  0
LINE
  5
3F8
100
AcDbEntity
  8
2
370
    50
100
AcDbLine
 10
-251.984996
 20
-166.805115
 30
0.0
 11
-251.984996
 21
-169.805115
 31
0.0
  0
LINE
  5
3F9
100
AcDbEntity
  8
2
370
    50
100
AcDbLine
 10
-251.184996
 20
-161.205115
 30
0.0
 11
-251.184996
 21
-160.805115
 31
0.0
  0
LINE
  5
3FA
100
AcDbEntity
  8
2
370
    50
100
AcDbLine
 10
-236.184996
 20
-161.205115
 30
0.0
 11
-236.184996
 21
-160.805115
 31
0.0
  0
LINE
  5
3FB
100
AcDbEntity
  8
2
370
    25
100
AcDbLine
 10
-248.684996
 20
-169.505698
 30
0.0
 11
-248.684996
 21
-167.200476
 31
0.0
  0
LINE
  5
3FC
100
AcDbEntity
  8
2
370
    25
100
AcDbLine
 10
-248.684997
 20
-160.543929
 30
0.0
 11
-248.684996
 21
-158.111724
 31
0.0
  0
LINE
  5
3FD
100
AcDbEntity
  8
2
370
    25
100
AcDbLine
 10
-238.684996
 20
-169.505698
 30
0.0
 11
-238.684996
 21
-167.200476
 31
0.0
  0
LINE
  5
3FE
100
AcDbEntity
  8
2
370
    25
100
AcDbLine
 10
-238.684996
 20
-160.50125
 30
0.0
 11
-238.684996
 21
-158.032202
 31
0.0
  0
LINE
  5
3FF
100
AcDbEntity
  8
2
370
    50
100
AcDbLine
 10
-252.484996
 20
-168.805115
 30
0.0
 11
-252.484996
 21
-166.205115
 31
0.0
  0
LINE
  5
400
100
AcDbEntity
  8
2
370
    50
100
AcDbLine
 10
-252.484996
 20
-161.305115
 30
0.0
 11
-252.484996
 21
-156.805115
 31
0.0
  0
LINE
  5
401
100
AcDbEntity
  8
2
370
    50
100
AcDbLine
 10
-234.884996
 20
-168.805115
 30
0.0
 11
-234.884996
 21
-166.205115
 31
0.0
  0
LINE
  5
402
100
AcDbEntity
  8
2
370
    50
100
AcDbLine
 10
-234.884996
 20
-161.305115
 30
0.0
 11
-234.884996
 21
-156.805115
 31
0.0
  0
ARC
  5
403
100
AcDbEntity
  8
2
370
    50
100
AcDbCircle
 10
-251.484996
 20
-156.805115
 30
0.0
 40
1.0
100
AcDbArc
 50
90.0
 51
180.0
  0
ARC
  5
404
100
AcDbEntity
  8
2
370
    50
100
AcDbCircle
 10
-235.884996
 20
-156.805115
 30
0.0
 40
1.0
100
AcDbArc
 50
0.0
 51
90.0
  0
ARC
  5
405
100
AcDbEntity
  8
2
370
    50
100
AcDbCircle
 10
-253.484996
 20
-168.805115
 30
0.0
 40
1.0
100
AcDbArc
 50
270.0
 51
0.0
  0
ARC
  5
406
100
AcDbEntity
  8
2
370
    50
100
AcDbCircle
 10
-233.884996
 20
-168.805115
 30
0.0
 40
1.0
100
AcDbArc
 50
180.0
 51
270.0
  0
LINE
  5
407
100
AcDbEntity
  8
2
370
    50
100
AcDbLine
 10
-236.184996
 20
-156.505115
 30
0.0
 11
-236.184996
 21
-157.804493
 31
0.0
  0
ARC
  5
408
100
AcDbEntity
  8
2
370
    50
100
AcDbCircle
 10
-235.884996
 20
-156.805115
 30
0.0
 40
1.0
100
AcDbArc
 50
0.0
 51
90.0
  0
LINE
  5
409
100
AcDbEntity
  8
2
370
    50
100
AcDbLine
 10
-236.184996
 20
-156.505115
 30
0.0
 11
-236.684996
 21
-156.005115
 31
0.0
  0
LINE
  5
40A
100
AcDbEntity
  8
2
370
    50
100
AcDbLine
 10
-234.684996
 20
-164.205115
 30
0.0
 11
-234.684996
 21
-166.005115
 31
0.0
  0
LINE
  5
40B
100
AcDbEntity
  8
2
370
    50
100
AcDbLine
 10
-252.684996
 20
-164.205115
 30
0.0
 11
-252.684996
 21
-166.005115
 31
0.0
  0
LINE
  5
40C
100
AcDbEntity
  8
2
370
    50
100
AcDbLine
 10
-234.884996
 20
-164.005115
 30
0.0
 11
-234.684996
 21
-164.205115
 31
0.0
  0
LINE
  5
40D
100
AcDbEntity
  8
2
370
    50
100
AcDbLine
 10
-234.684996
 20
-166.005115
 30
0.0
 11
-234.884996
 21
-166.205115
 31
0.0
  0
LINE
  5
40E
100
AcDbEntity
  8
2
370
    50
100
AcDbLine
 10
-252.484996
 20
-164.005115
 30
0.0
 11
-252.684996
 21
-164.205115
 31
0.0
  0
LINE
  5
40F
100
AcDbEntity
  8
2
370
    50
100
AcDbLine
 10
-252.684996
 20
-166.005115
 30
0.0
 11
-252.484996
 21
-166.205115
 31
0.0
  0
LINE
  5
410
100
AcDbEntity
  8
2
370
    50
100
AcDbLine
 10
-251.184996
 20
-170.205115
 30
0.0
 11
-251.184996
 21
-169.805115
 31
0.0
  0
LINE
  5
411
100
AcDbEntity
  8
2
370
    50
100
AcDbLine
 10
-251.184996
 20
-166.805115
 30
0.0
 11
-251.184996
 21
-166.205115
 31
0.0
  0
LINE
  5
412
100
AcDbEntity
  8
2
370
    50
100
AcDbLine
 10
-236.184996
 20
-170.205115
 30
0.0
 11
-236.184996
 21
-169.805115
 31
0.0
  0
LINE
  5
413
100
AcDbEntity
  8
2
370
    50
100
AcDbLine
 10
-236.184996
 20
-166.805115
 30
0.0
 11
-236.184996
 21
-166.205115
 31
0.0
  0
LINE
  5
414
100
AcDbEntity
  8
2
370
    50
100
AcDbLine
 10
-234.884996
 20
-166.205115
 30
0.0
 11
-239.684996
 21
-166.205115
 31
0.0
  0
LINE
  5
415
100
AcDbEntity
  8
2
370
    50
100
AcDbLine
 10
-247.684996
 20
-166.205115
 30
0.0
 11
-252.484996
 21
-166.205115
 31
0.0
  0
LINE
  5
416
100
AcDbEntity
  8
2
370
    50
100
AcDbLine
 10
-234.684996
 20
-166.005115
 30
0.0
 11
-239.684996
 21
-166.005115
 31
0.0
  0
LINE
  5
417
100
AcDbEntity
  8
2
370
    50
100
AcDbLine
 10
-247.684996
 20
-166.005115
 30
0.0
 11
-252.684996
 21
-166.005115
 31
0.0
  0
LINE
  5
418
100
AcDbEntity
  8
2
370
    50
100
AcDbLine
 10
-234.684996
 20
-164.205115
 30
0.0
 11
-239.684996
 21
-164.205115
 31
0.0
  0
LINE
  5
419
100
AcDbEntity
  8
2
370
    50
100
AcDbLine
 10
-247.684996
 20
-164.205115
 30
0.0
 11
-252.684996
 21
-164.205115
 31
0.0
  0
LINE
  5
41A
100
AcDbEntity
  8
2
370
    50
100
AcDbLine
 10
-234.884996
 20
-164.005115
 30
0.0
 11
-239.684996
 21
-164.005115
 31
0.0
  0
LINE
  5
41B
100
AcDbEntity
  8
2
370
    50
100
AcDbLine
 10
-247.684996
 20
-164.005115
 30
0.0
 11
-252.484996
 21
-164.005115
 31
0.0
  0
LINE
  5
41C
100
AcDbEntity
  8
2
370
    25
100
AcDbLine
 10
-237.185136
 20
-169.804493
 30
0.0
 11
-237.185136
 21
-166.804493
 31
0.0
  0
LINE
  5
41D
100
AcDbEntity
  8
2
370
    25
100
AcDbLine
 10
-250.184857
 20
-160.805115
 30
0.0
 11
-250.184857
 21
-157.805115
 31
0.0
  0
LINE
  5
41E
100
AcDbEntity
  8
2
370
    25
100
AcDbLine
 10
-237.185136
 20
-160.805115
 30
0.0
 11
-237.185136
 21
-157.805115
 31
0.0
  0
ARC
  5
41F
100
AcDbEntity
  8
2
370
    50
100
AcDbCircle
 10
-109.07359
 20
-165.807798
 30
0.0
 40
0.2
100
AcDbArc
 50
180.0
 51
270.0
  0
ARC
  5
420
100
AcDbEntity
  8
2
370
    50
100
AcDbCircle
 10
-97.47359
 20
-165.807798
 30
0.0
 40
0.2
100
AcDbArc
 50
270.0
 51
360.0
  0
LINE
  5
421
100
AcDbEntity
  8
2
370
    50
100
AcDbLine
 10
-96.27359
 20
-166.007798
 30
0.0
 11
-110.27359
 21
-166.007798
 31
0.0
  0
ARC
  5
422
100
AcDbEntity
  8
2
370
    50
100
AcDbCircle
 10
-97.472996
 20
-165.807115
 30
0.0
 40
0.2
100
AcDbArc
 50
270.0
 51
360.0
  0
ARC
  5
423
100
AcDbEntity
  8
2
370
    50
100
AcDbCircle
 10
-109.072996
 20
-165.807115
 30
0.0
 40
0.2
100
AcDbArc
 50
180.0
 51
270.0
  0
LINE
  5
424
100
AcDbEntity
  8
2
370
    50
100
AcDbLine
 10
-110.272996
 20
-166.007115
 30
0.0
 11
-96.272996
 21
-166.007115
 31
0.0
  0
LINE
  5
425
100
AcDbEntity
  8
2
370
    50
100
AcDbLine
 10
-110.772996
 20
-166.507115
 30
0.0
 11
-110.272996
 21
-166.007115
 31
0.0
  0
LINE
  5
426
100
AcDbEntity
  8
2
370
    25
100
AcDbLine
 10
-109.772857
 20
-179.806493
 30
0.0
 11
-109.772857
 21
-176.806493
 31
0.0
  0
LINE
  5
427
100
AcDbEntity
  8
2
370
    50
100
AcDbLine
 10
-112.172996
 20
-171.40775
 30
0.0
 11
-112.172996
 21
-173.80775
 31
0.0
  0
LINE
  5
428
100
AcDbEntity
  8
2
370
    50
100
AcDbLine
 10
-111.972996
 20
-171.20775
 30
0.0
 11
-112.172996
 21
-171.40775
 31
0.0
  0
LINE
  5
429
100
AcDbEntity
  8
2
370
    50
100
AcDbLine
 10
-111.972996
 20
-174.00775
 30
0.0
 11
-112.172996
 21
-173.80775
 31
0.0
  0
LINE
  5
42A
100
AcDbEntity
  8
2
370
    50
100
AcDbLine
 10
-110.772996
 20
-171.20775
 30
0.0
 11
-110.772996
 21
-170.806493
 31
0.0
  0
LINE
  5
42B
100
AcDbEntity
  8
2
370
    50
100
AcDbLine
 10
-110.772996
 20
-166.507115
 30
0.0
 11
-110.772996
 21
-167.806493
 31
0.0
  0
LINE
  5
42C
100
AcDbEntity
  8
2
370
    50
100
AcDbLine
 10
-94.372996
 20
-171.407115
 30
0.0
 11
-94.372996
 21
-173.807115
 31
0.0
  0
LINE
  5
42D
100
AcDbEntity
  8
2
370
    50
100
AcDbLine
 10
-112.172996
 20
-171.407115
 30
0.0
 11
-112.172996
 21
-173.807115
 31
0.0
  0
LINE
  5
42E
100
AcDbEntity
  8
2
370
    50
100
AcDbLine
 10
-111.972996
 20
-171.207115
 30
0.0
 11
-112.172996
 21
-171.407115
 31
0.0
  0
LINE
  5
42F
100
AcDbEntity
  8
2
370
    50
100
AcDbLine
 10
-94.572996
 20
-171.207115
 30
0.0
 11
-94.372996
 21
-171.407115
 31
0.0
  0
LINE
  5
430
100
AcDbEntity
  8
2
370
    50
100
AcDbLine
 10
-94.572996
 20
-174.007115
 30
0.0
 11
-94.372996
 21
-173.807115
 31
0.0
  0
LINE
  5
431
100
AcDbEntity
  8
2
370
    50
100
AcDbLine
 10
-94.272996
 20
-179.807115
 30
0.0
 11
-112.272996
 21
-179.807115
 31
0.0
  0
LINE
  5
432
100
AcDbEntity
  8
2
370
    50
100
AcDbLine
 10
-94.972996
 20
-167.807115
 30
0.0
 11
-111.572996
 21
-167.807115
 31
0.0
  0
LINE
  5
433
100
AcDbEntity
  8
2
370
    50
100
AcDbLine
 10
-107.272996
 20
-168.807115
 30
0.0
 11
-107.272996
 21
-178.807115
 31
0.0
  0
LINE
  5
434
100
AcDbEntity
  8
2
370
    50
100
AcDbLine
 10
-99.272996
 20
-168.807115
 30
0.0
 11
-99.272996
 21
-178.807115
 31
0.0
  0
LINE
  5
435
100
AcDbEntity
  8
2
370
    50
100
AcDbLine
 10
-117.772996
 20
-166.807115
 30
0.0
 11
-117.772996
 21
-178.807115
 31
0.0
  0
LINE
  5
436
100
AcDbEntity
  8
2
370
    50
100
AcDbLine
 10
-88.772996
 20
-166.807115
 30
0.0
 11
-88.772996
 21
-178.807115
 31
0.0
  0
ARC
  5
437
100
AcDbEntity
  8
2
370
    50
100
AcDbCircle
 10
-89.772996
 20
-166.807115
 30
0.0
 40
1.0
100
AcDbArc
 50
0.0
 51
90.0
  0
ARC
  5
438
100
AcDbEntity
  8
2
370
    50
100
AcDbCircle
 10
-116.772996
 20
-166.807115
 30
0.0
 40
1.0
100
AcDbArc
 50
90.0
 51
180.0
  0
ARC
  5
439
100
AcDbEntity
  8
2
370
    50
100
AcDbCircle
 10
-116.772996
 20
-178.807115
 30
0.0
 40
1.0
100
AcDbArc
 50
180.0
 51
270.0
  0
ARC
  5
43A
100
AcDbEntity
  8
2
370
    50
100
AcDbCircle
 10
-89.772996
 20
-178.807115
 30
0.0
 40
1.0
100
AcDbArc
 50
270.0
 51
360.0
  0
LINE
  5
43B
100
AcDbEntity
  8
2
370
    50
100
AcDbLine
 10
-116.772996
 20
-165.807115
 30
0.0
 11
-109.272996
 21
-165.807115
 31
0.0
  0
LINE
  5
43C
100
AcDbEntity
  8
2
370
    50
100
AcDbLine
 10
-97.272996
 20
-165.807115
 30
0.0
 11
-89.772996
 21
-165.807115
 31
0.0
  0
LINE
  5
43D
100
AcDbEntity
  8
2
370
    50
100
AcDbLine
 10
-116.772996
 20
-179.807115
 30
0.0
 11
-110.772996
 21
-179.807115
 31
0.0
  0
LINE
  5
43E
100
AcDbEntity
  8
2
370
    50
100
AcDbLine
 10
-94.972996
 20
-179.807115
 30
0.0
 11
-89.772996
 21
-179.807115
 31
0.0
  0
LINE
  5
43F
100
AcDbEntity
  8
2
370
    50
100
AcDbLine
 10
-94.972996
 20
-170.807115
 30
0.0
 11
-99.272996
 21
-170.807115
 31
0.0
  0
LINE
  5
440
100
AcDbEntity
  8
2
370
    50
100
AcDbLine
 10
-107.272996
 20
-170.807115
 30
0.0
 11
-111.572996
 21
-170.807115
 31
0.0
  0
LINE
  5
441
100
AcDbEntity
  8
2
370
    50
100
AcDbLine
 10
-94.572996
 20
-171.207115
 30
0.0
 11
-99.272996
 21
-171.207115
 31
0.0
  0
LINE
  5
442
100
AcDbEntity
  8
2
370
    50
100
AcDbLine
 10
-107.272996
 20
-171.207115
 30
0.0
 11
-111.972996
 21
-171.207115
 31
0.0
  0
LINE
  5
443
100
AcDbEntity
  8
2
370
    50
100
AcDbLine
 10
-94.372996
 20
-171.407115
 30
0.0
 11
-99.272996
 21
-171.407115
 31
0.0
  0
LINE
  5
444
100
AcDbEntity
  8
2
370
    50
100
AcDbLine
 10
-107.272996
 20
-171.407115
 30
0.0
 11
-112.172996
 21
-171.407115
 31
0.0
  0
LINE
  5
445
100
AcDbEntity
  8
2
370
    50
100
AcDbLine
 10
-94.372996
 20
-173.807115
 30
0.0
 11
-99.272996
 21
-173.807115
 31
0.0
  0
LINE
  5
446
100
AcDbEntity
  8
2
370
    50
100
AcDbLine
 10
-107.272996
 20
-173.807115
 30
0.0
 11
-112.172996
 21
-173.807115
 31
0.0
  0
LINE
  5
447
100
AcDbEntity
  8
2
370
    50
100
AcDbLine
 10
-94.972996
 20
-176.807115
 30
0.0
 11
-99.272996
 21
-176.807115
 31
0.0
  0
LINE
  5
448
100
AcDbEntity
  8
2
370
    50
100
AcDbLine
 10
-107.272996
 20
-176.807115
 30
0.0
 11
-111.572996
 21
-176.807115
 31
0.0
  0
ARC
  5
449
100
AcDbEntity
  8
2
370
    50
100
AcDbCircle
 10
-100.272996
 20
-168.807115
 30
0.0
 40
1.0
100
AcDbArc
 50
0.0
 51
90.0
  0
ARC
  5
44A
100
AcDbEntity
  8
2
370
    50
100
AcDbCircle
 10
-106.272996
 20
-168.807115
 30
0.0
 40
1.0
100
AcDbArc
 50
90.0
 51
180.0
  0
ARC
  5
44B
100
AcDbEntity
  8
2
370
    50
100
AcDbCircle
 10
-106.272996
 20
-178.807115
 30
0.0
 40
1.0
100
AcDbArc
 50
180.0
 51
270.0
  0
ARC
  5
44C
100
AcDbEntity
  8
2
370
    50
100
AcDbCircle
 10
-100.272996
 20
-178.807115
 30
0.0
 40
1.0
100
AcDbArc
 50
270.0
 51
0.0
  0
LINE
  5
44D
100
AcDbEntity
  8
2
370
    50
100
AcDbLine
 10
-111.572996
 20
-167.807115
 30
0.0
 11
-111.572996
 21
-170.807115
 31
0.0
  0
LINE
  5
44E
100
AcDbEntity
  8
2
370
    50
100
AcDbLine
 10
-94.972996
 20
-167.807115
 30
0.0
 11
-94.972996
 21
-170.807115
 31
0.0
  0
LINE
  5
44F
100
AcDbEntity
  8
2
370
    50
100
AcDbLine
 10
-94.972996
 20
-176.807115
 30
0.0
 11
-94.972996
 21
-179.807115
 31
0.0
  0
LINE
  5
450
100
AcDbEntity
  8
2
370
    50
100
AcDbLine
 10
-111.572996
 20
-176.807115
 30
0.0
 11
-111.572996
 21
-179.807115
 31
0.0
  0
LINE
  5
451
100
AcDbEntity
  8
2
370
    50
100
AcDbLine
 10
-110.772996
 20
-171.207115
 30
0.0
 11
-110.772996
 21
-170.807115
 31
0.0
  0
LINE
  5
452
100
AcDbEntity
  8
2
370
    50
100
AcDbLine
 10
-95.772996
 20
-171.207115
 30
0.0
 11
-95.772996
 21
-170.807115
 31
0.0
  0
LINE
  5
453
100
AcDbEntity
  8
2
370
    25
100
AcDbLine
 10
-108.272996
 20
-179.507698
 30
0.0
 11
-108.272996
 21
-177.202476
 31
0.0
  0
LINE
  5
454
100
AcDbEntity
  8
2
370
    25
100
AcDbLine
 10
-108.272997
 20
-170.545929
 30
0.0
 11
-108.272996
 21
-168.113724
 31
0.0
  0
LINE
  5
455
100
AcDbEntity
  8
2
370
    25
100
AcDbLine
 10
-98.272996
 20
-179.507698
 30
0.0
 11
-98.272996
 21
-177.202476
 31
0.0
  0
LINE
  5
456
100
AcDbEntity
  8
2
370
    25
100
AcDbLine
 10
-98.272996
 20
-170.50325
 30
0.0
 11
-98.272996
 21
-168.034202
 31
0.0
  0
LINE
  5
457
100
AcDbEntity
  8
2
370
    50
100
AcDbLine
 10
-112.072996
 20
-178.807115
 30
0.0
 11
-112.072996
 21
-176.207115
 31
0.0
  0
LINE
  5
458
100
AcDbEntity
  8
2
370
    50
100
AcDbLine
 10
-112.072996
 20
-171.307115
 30
0.0
 11
-112.072996
 21
-166.807115
 31
0.0
  0
LINE
  5
459
100
AcDbEntity
  8
2
370
    50
100
AcDbLine
 10
-94.472996
 20
-178.807115
 30
0.0
 11
-94.472996
 21
-176.207115
 31
0.0
  0
LINE
  5
45A
100
AcDbEntity
  8
2
370
    50
100
AcDbLine
 10
-94.472996
 20
-171.307115
 30
0.0
 11
-94.472996
 21
-166.807115
 31
0.0
  0
ARC
  5
45B
100
AcDbEntity
  8
2
370
    50
100
AcDbCircle
 10
-111.072996
 20
-166.807115
 30
0.0
 40
1.0
100
AcDbArc
 50
90.0
 51
180.0
  0
ARC
  5
45C
100
AcDbEntity
  8
2
370
    50
100
AcDbCircle
 10
-95.472996
 20
-166.807115
 30
0.0
 40
1.0
100
AcDbArc
 50
0.0
 51
90.0
  0
ARC
  5
45D
100
AcDbEntity
  8
2
370
    50
100
AcDbCircle
 10
-113.072996
 20
-178.807115
 30
0.0
 40
1.0
100
AcDbArc
 50
270.0
 51
0.0
  0
ARC
  5
45E
100
AcDbEntity
  8
2
370
    50
100
AcDbCircle
 10
-93.472996
 20
-178.807115
 30
0.0
 40
1.0
100
AcDbArc
 50
180.0
 51
270.0
  0
LINE
  5
45F
100
AcDbEntity
  8
2
370
    50
100
AcDbLine
 10
-95.772996
 20
-166.507115
 30
0.0
 11
-95.772996
 21
-167.806493
 31
0.0
  0
ARC
  5
460
100
AcDbEntity
  8
2
370
    50
100
AcDbCircle
 10
-95.472996
 20
-166.807115
 30
0.0
 40
1.0
100
AcDbArc
 50
0.0
 51
90.0
  0
LINE
  5
461
100
AcDbEntity
  8
2
370
    50
100
AcDbLine
 10
-95.772996
 20
-166.507115
 30
0.0
 11
-96.272996
 21
-166.007115
 31
0.0
  0
LINE
  5
462
100
AcDbEntity
  8
2
370
    50
100
AcDbLine
 10
-94.272996
 20
-174.207115
 30
0.0
 11
-94.272996
 21
-176.007115
 31
0.0
  0
LINE
  5
463
100
AcDbEntity
  8
2
370
    50
100
AcDbLine
 10
-112.272996
 20
-174.207115
 30
0.0
 11
-112.272996
 21
-176.007115
 31
0.0
  0
LINE
  5
464
100
AcDbEntity
  8
2
370
    50
100
AcDbLine
 10
-94.272996
 20
-180.207115
 30
0.0
 11
-112.272996
 21
-180.207115
 31
0.0
  0
LINE
  5
465
100
AcDbEntity
  8
2
370
    50
100
AcDbLine
 10
-94.472996
 20
-174.007115
 30
0.0
 11
-94.272996
 21
-174.207115
 31
0.0
  0
LINE
  5
466
100
AcDbEntity
  8
2
370
    50
100
AcDbLine
 10
-94.272996
 20
-176.007115
 30
0.0
 11
-94.472996
 21
-176.207115
 31
0.0
  0
LINE
  5
467
100
AcDbEntity
  8
2
370
    50
100
AcDbLine
 10
-112.072996
 20
-174.007115
 30
0.0
 11
-112.272996
 21
-174.207115
 31
0.0
  0
LINE
  5
468
100
AcDbEntity
  8
2
370
    50
100
AcDbLine
 10
-112.272996
 20
-176.007115
 30
0.0
 11
-112.072996
 21
-176.207115
 31
0.0
  0
LINE
  5
469
100
AcDbEntity
  8
2
370
    50
100
AcDbLine
 10
-110.772996
 20
-180.207115
 30
0.0
 11
-110.772996
 21
-179.807115
 31
0.0
  0
LINE
  5
46A
100
AcDbEntity
  8
2
370
    50
100
AcDbLine
 10
-110.772996
 20
-176.807115
 30
0.0
 11
-110.772996
 21
-176.207115
 31
0.0
  0
LINE
  5
46B
100
AcDbEntity
  8
2
370
    50
100
AcDbLine
 10
-95.772996
 20
-180.207115
 30
0.0
 11
-95.772996
 21
-179.807115
 31
0.0
  0
LINE
  5
46C
100
AcDbEntity
  8
2
370
    50
100
AcDbLine
 10
-95.772996
 20
-176.807115
 30
0.0
 11
-95.772996
 21
-176.207115
 31
0.0
  0
LINE
  5
46D
100
AcDbEntity
  8
2
370
    50
100
AcDbLine
 10
-94.472996
 20
-176.207115
 30
0.0
 11
-99.272996
 21
-176.207115
 31
0.0
  0
LINE
  5
46E
100
AcDbEntity
  8
2
370
    50
100
AcDbLine
 10
-107.272996
 20
-176.207115
 30
0.0
 11
-112.072996
 21
-176.207115
 31
0.0
  0
LINE
  5
46F
100
AcDbEntity
  8
2
370
    50
100
AcDbLine
 10
-94.272996
 20
-176.007115
 30
0.0
 11
-99.272996
 21
-176.007115
 31
0.0
  0
LINE
  5
470
100
AcDbEntity
  8
2
370
    50
100
AcDbLine
 10
-107.272996
 20
-176.007115
 30
0.0
 11
-112.272996
 21
-176.007115
 31
0.0
  0
LINE
  5
471
100
AcDbEntity
  8
2
370
    50
100
AcDbLine
 10
-94.272996
 20
-174.207115
 30
0.0
 11
-99.272996
 21
-174.207115
 31
0.0
  0
LINE
  5
472
100
AcDbEntity
  8
2
370
    50
100
AcDbLine
 10
-107.272996
 20
-174.207115
 30
0.0
 11
-112.272996
 21
-174.207115
 31
0.0
  0
LINE
  5
473
100
AcDbEntity
  8
2
370
    50
100
AcDbLine
 10
-94.472996
 20
-174.007115
 30
0.0
 11
-99.272996
 21
-174.007115
 31
0.0
  0
LINE
  5
474
100
AcDbEntity
  8
2
370
    50
100
AcDbLine
 10
-107.272996
 20
-174.007115
 30
0.0
 11
-112.072996
 21
-174.007115
 31
0.0
  0
LINE
  5
475
100
AcDbEntity
  8
2
370
    25
100
AcDbLine
 10
-96.773136
 20
-179.806493
 30
0.0
 11
-96.773136
 21
-176.806493
 31
0.0
  0
LINE
  5
476
100
AcDbEntity
  8
2
370
    25
100
AcDbLine
 10
-109.772857
 20
-170.807115
 30
0.0
 11
-109.772857
 21
-167.807115
 31
0.0
  0
LINE
  5
477
100
AcDbEntity
  8
2
370
    25
100
AcDbLine
 10
-96.773136
 20
-170.807115
 30
0.0
 11
-96.773136
 21
-167.807115
 31
0.0
  0
LINE
  5
478
100
AcDbEntity
  8
2
370
    50
100
AcDbLine
 10
-112.272996
 20
-180.207115
 30
0.0
 11
-113.272996
 21
-181.207115
 31
0.0
  0
LINE
  5
479
100
AcDbEntity
  8
2
370
    50
100
AcDbLine
 10
-94.272996
 20
-180.207115
 30
0.0
 11
-93.272996
 21
-181.207115
 31
0.0
  0
LINE
  5
47A
100
AcDbEntity
  8
2
370
    50
100
AcDbLine
 10
-93.272996
 20
-181.207115
 30
0.0
 11
-93.272996
 21
-190.007115
 31
0.0
  0
LINE
  5
47B
100
AcDbEntity
  8
2
370
    50
100
AcDbLine
 10
-113.272996
 20
-181.207115
 30
0.0
 11
-113.272996
 21
-190.007115
 31
0.0
  0
LINE
  5
47C
100
AcDbEntity
  8
2
370
    50
100
AcDbLine
 10
-91.272996
 20
-190.007115
 30
0.0
 11
-115.272996
 21
-190.007115
 31
0.0
  0
LINE
  5
47D
100
AcDbEntity
  8
2
370
    50
100
AcDbLine
 10
-90.272996
 20
-191.007115
 30
0.0
 11
-90.272996
 21
-200.007115
 31
0.0
  0
LINE
  5
47E
100
AcDbEntity
  8
2
370
    50
100
AcDbLine
 10
-91.272996
 20
-190.007115
 30
0.0
 11
-90.272996
 21
-191.007115
 31
0.0
  0
LINE
  5
47F
100
AcDbEntity
  8
2
370
    50
100
AcDbLine
 10
-91.272996
 20
-201.007115
 30
0.0
 11
-90.272996
 21
-200.007115
 31
0.0
  0
LINE
  5
480
100
AcDbEntity
  8
2
370
    50
100
AcDbLine
 10
-116.272996
 20
-191.007115
 30
0.0
 11
-116.272996
 21
-200.007115
 31
0.0
  0
LINE
  5
481
100
AcDbEntity
  8
2
370
    50
100
AcDbLine
 10
-115.272996
 20
-190.007115
 30
0.0
 11
-116.272996
 21
-191.007115
 31
0.0
  0
LINE
  5
482
100
AcDbEntity
  8
2
370
    50
100
AcDbLine
 10
-115.272996
 20
-201.007115
 30
0.0
 11
-116.272996
 21
-200.007115
 31
0.0
  0
LINE
  5
483
100
AcDbEntity
  8
2
370
    50
100
AcDbLine
 10
-91.272996
 20
-201.007115
 30
0.0
 11
-115.272996
 21
-201.007115
 31
0.0
  0
LINE
  5
484
100
AcDbEntity
  8
2
370
    50
100
AcDbLine
 10
-110.201387
 20
-200.007115
 30
0.0
 11
-110.201387
 21
-191.007115
 31
0.0
  0
LINE
  5
485
100
AcDbEntity
  8
2
370
    50
100
AcDbLine
 10
-96.344606
 20
-200.007115
 30
0.0
 11
-96.344606
 21
-191.007115
 31
0.0
  0
ARC
  5
486
100
AcDbEntity
  8
2
370
    50
100
AcDbCircle
 10
-103.272996
 20
-214.508411
 30
0.0
 40
24.501296
100
AcDbArc
 50
73.574016
 51
106.425984
  0
ARC
  5
487
100
AcDbEntity
  8
2
370
    50
100
AcDbCircle
 10
-103.272996
 20
-176.505819
 30
0.0
 40
24.501296
100
AcDbArc
 50
253.574016
 51
286.425984
  0
ARC
  5
488
100
AcDbEntity
  8
2
370
    50
100
AcDbCircle
 10
-113.237192
 20
-195.899059
 30
0.0
 40
5.108056
100
AcDbArc
 50
233.536034
 51
306.463966
  0
ARC
  5
489
100
AcDbEntity
  8
2
370
    50
100
AcDbCircle
 10
-93.308801
 20
-195.899059
 30
0.0
 40
5.108056
100
AcDbArc
 50
233.536034
 51
306.463966
  0
ARC
  5
48A
100
AcDbEntity
  8
2
370
    50
100
AcDbCircle
 10
-93.308801
 20
-195.11517
 30
0.0
 40
5.108056
100
AcDbArc
 50
53.536034
 51
126.463966
  0
ARC
  5
48B
100
AcDbEntity
  8
2
370
    50
100
AcDbCircle
 10
-113.237192
 20
-195.11517
 30
0.0
 40
5.108056
100
AcDbArc
 50
53.536034
 51
126.463966
  0
LINE
  5
48C
100
AcDbEntity
  8
2
370
    50
100
AcDbLine
 10
-113.272996
 20
-181.207115
 30
0.0
 11
-93.272996
 21
-181.207115
 31
0.0
  0
POINT
  5
48D
100
AcDbEntity
  8
2
370
    50
100
AcDbPoint
 10
-103.272996
 20
-180.207115
 30
0.0
  0
POINT
  5
48E
100
AcDbEntity
  8
2
370
    50
100
AcDbPoint
 10
-103.272996
 20
-180.207115
 30
0.0
  0
POINT
  5
48F
100
AcDbEntity
  8
2
370
    50
100
AcDbPoint
 10
-243.684996
 20
-170.205115
 30
0.0
  0
LINE
  5
490
100
AcDbEntity
  8
2
370
    50
100
AcDbLine
 10
-233.685549
 20
-171.205414
 30
0.0
 11
-233.685549
 21
-180.005414
 31
0.0
  0
LINE
  5
491
100
AcDbEntity
  8
2
370
    50
100
AcDbLine
 10
-253.685549
 20
-171.205414
 30
0.0
 11
-253.685549
 21
-180.005414
 31
0.0
  0
LINE
  5
492
100
AcDbEntity
  8
2
370
    50
100
AcDbLine
 10
-252.685549
 20
-170.205414
 30
0.0
 11
-253.685549
 21
-171.205414
 31
0.0
  0
LINE
  5
493
100
AcDbEntity
  8
2
370
    50
100
AcDbLine
 10
-234.685549
 20
-170.205414
 30
0.0
 11
-233.685549
 21
-171.205414
 31
0.0
  0
LINE
  5
494
100
AcDbEntity
  8
2
370
    50
100
AcDbLine
 10
-234.685549
 20
-170.205414
 30
0.0
 11
-252.685549
 21
-170.205414
 31
0.0
  0
LINE
  5
495
100
AcDbEntity
  8
2
370
    50
100
AcDbLine
 10
-231.685549
 20
-180.005414
 30
0.0
 11
-255.685549
 21
-180.005414
 31
0.0
  0
LINE
  5
496
100
AcDbEntity
  8
2
370
    50
100
AcDbLine
 10
-230.685549
 20
-181.005414
 30
0.0
 11
-230.685549
 21
-190.005414
 31
0.0
  0
LINE
  5
497
100
AcDbEntity
  8
2
370
    50
100
AcDbLine
 10
-231.685549
 20
-180.005414
 30
0.0
 11
-230.685549
 21
-181.005414
 31
0.0
  0
LINE
  5
498
100
AcDbEntity
  8
2
370
    50
100
AcDbLine
 10
-256.685549
 20
-181.005414
 30
0.0
 11
-256.685549
 21
-190.005414
 31
0.0
  0
LINE
  5
499
100
AcDbEntity
  8
2
370
    50
100
AcDbLine
 10
-255.685549
 20
-180.005414
 30
0.0
 11
-256.685549
 21
-181.005414
 31
0.0
  0
LINE
  5
49A
100
AcDbEntity
  8
2
370
    25
100
AcDbLine
 10
-253.685549
 20
-171.205414
 30
0.0
 11
-233.685549
 21
-171.205414
 31
0.0
  0
LINE
  5
49B
100
AcDbEntity
  8
2
370
    50
100
AcDbLine
 10
-250.613939
 20
-190.005414
 30
0.0
 11
-250.613939
 21
-181.005414
 31
0.0
  0
LINE
  5
49C
100
AcDbEntity
  8
2
370
    50
100
AcDbLine
 10
-236.757158
 20
-190.005414
 30
0.0
 11
-236.757158
 21
-181.005414
 31
0.0
  0
ARC
  5
49D
100
AcDbEntity
  8
2
370
    50
100
AcDbCircle
 10
-243.685549
 20
-204.506711
 30
0.0
 40
24.501296
100
AcDbArc
 50
73.574016
 51
106.425984
  0
ARC
  5
49E
100
AcDbEntity
  8
2
370
    50
100
AcDbCircle
 10
-233.721353
 20
-185.11347
 30
0.0
 40
5.108056
100
AcDbArc
 50
53.536034
 51
126.463966
  0
ARC
  5
49F
100
AcDbEntity
  8
2
370
    50
100
AcDbCircle
 10
-253.649744
 20
-185.11347
 30
0.0
 40
5.108056
100
AcDbArc
 50
53.536034
 51
126.463966
  0
LINE
  5
4A0
100
AcDbEntity
  8
2
370
    50
100
AcDbLine
 10
-230.685549
 20
-181.005414
 30
0.0
 11
-230.685549
 21
-189.005414
 31
0.0
  0
LINE
  5
4A1
100
AcDbEntity
  8
2
370
    50
100
AcDbLine
 10
-231.685549
 20
-191.005414
 30
0.0
 11
-230.685549
 21
-190.005414
 31
0.0
  0
LINE
  5
4A2
100
AcDbEntity
  8
2
370
    50
100
AcDbLine
 10
-256.685549
 20
-181.005414
 30
0.0
 11
-256.685549
 21
-189.005414
 31
0.0
  0
LINE
  5
4A3
100
AcDbEntity
  8
2
370
    50
100
AcDbLine
 10
-255.685549
 20
-191.005414
 30
0.0
 11
-256.685549
 21
-190.005414
 31
0.0
  0
LINE
  5
4A4
100
AcDbEntity
  8
2
370
    50
100
AcDbLine
 10
-231.685549
 20
-191.005414
 30
0.0
 11
-255.685549
 21
-191.005414
 31
0.0
  0
LINE
  5
4A5
100
AcDbEntity
  8
2
370
    50
100
AcDbLine
 10
-250.613939
 20
-189.005414
 30
0.0
 11
-250.613939
 21
-181.005414
 31
0.0
  0
LINE
  5
4A6
100
AcDbEntity
  8
2
370
    50
100
AcDbLine
 10
-236.757158
 20
-189.005414
 30
0.0
 11
-236.757158
 21
-181.005414
 31
0.0
  0
ARC
  5
4A7
100
AcDbEntity
  8
2
370
    50
100
AcDbCircle
 10
-243.685549
 20
-166.504118
 30
0.0
 40
24.501296
100
AcDbArc
 50
253.574016
 51
286.425984
  0
ARC
  5
4A8
100
AcDbEntity
  8
2
370
    50
100
AcDbCircle
 10
-253.649744
 20
-185.897359
 30
0.0
 40
5.108056
100
AcDbArc
 50
233.536034
 51
306.463966
  0
ARC
  5
4A9
100
AcDbEntity
  8
2
370
    50
100
AcDbCircle
 10
-233.721353
 20
-185.897359
 30
0.0
 40
5.108056
100
AcDbArc
 50
233.536034
 51
306.463966
  0
POINT
  5
4AA
100
AcDbEntity
  8
2
370
    50
100
AcDbPoint
 10
-243.685549
 20
-170.205414
 30
0.0
  0
LINE
  5
4AB
100
AcDbEntity
  8
2
370
    50
100
AcDbLine
 10
66.354206
 20
-144.983387
 30
0.0
 11
66.354206
 21
-142.183387
 31
0.0
  0
LINE
  5
4AC
100
AcDbEntity
  8
2
370
    50
100
AcDbLine
 10
84.154206
 20
-144.983387
 30
0.0
 11
84.154206
 21
-142.183387
 31
0.0
  0
LINE
  5
4AD
100
AcDbEntity
  8
2
370
    50
100
AcDbLine
 10
82.254206
 20
-136.983387
 30
0.0
 11
68.254206
 21
-136.983387
 31
0.0
  0
LINE
  5
4AE
100
AcDbEntity
  8
2
370
    50
100
AcDbLine
 10
68.254206
 20
-136.983387
 30
0.0
 11
67.754206
 21
-137.483387
 31
0.0
  0
LINE
  5
4AF
100
AcDbEntity
  8
2
370
    50
100
AcDbLine
 10
82.754206
 20
-137.483387
 30
0.0
 11
82.254206
 21
-136.983387
 31
0.0
  0
LINE
  5
4B0
100
AcDbEntity
  8
2
370
    50
100
AcDbLine
 10
84.154206
 20
-144.983387
 30
0.0
 11
66.354206
 21
-144.983387
 31
0.0
  0
LINE
  5
4B1
100
AcDbEntity
  8
2
370
    50
100
AcDbLine
 10
84.154206
 20
-142.183387
 30
0.0
 11
66.354206
 21
-142.183387
 31
0.0
  0
LINE
  5
4B2
100
AcDbEntity
  8
2
370
    50
100
AcDbLine
 10
82.754206
 20
-137.483387
 30
0.0
 11
67.754206
 21
-137.483387
 31
0.0
  0
LINE
  5
4B3
100
AcDbEntity
  8
2
370
    50
100
AcDbLine
 10
66.254206
 20
-145.183387
 30
0.0
 11
66.254206
 21
-147.183387
 31
0.0
  0
LINE
  5
4B4
100
AcDbEntity
  8
2
370
    50
100
AcDbLine
 10
84.254206
 20
-145.183387
 30
0.0
 11
84.254206
 21
-147.183387
 31
0.0
  0
LINE
  5
4B5
100
AcDbEntity
  8
2
370
    50
100
AcDbLine
 10
66.254206
 20
-147.183387
 30
0.0
 11
84.254206
 21
-147.183387
 31
0.0
  0
LINE
  5
4B6
100
AcDbEntity
  8
2
370
    50
100
AcDbLine
 10
66.254206
 20
-145.183387
 30
0.0
 11
66.454206
 21
-144.983387
 31
0.0
  0
LINE
  5
4B7
100
AcDbEntity
  8
2
370
    50
100
AcDbLine
 10
84.054206
 20
-144.983387
 30
0.0
 11
84.254206
 21
-145.183387
 31
0.0
  0
LINE
  5
4B8
100
AcDbEntity
  8
2
370
    50
100
AcDbLine
 10
60.754659
 20
-150.283387
 30
0.0
 11
60.754659
 21
-139.283387
 31
0.0
  0
LINE
  5
4B9
100
AcDbEntity
  8
2
370
    50
100
AcDbLine
 10
64.254659
 20
-142.783387
 30
0.0
 11
64.254659
 21
-146.783387
 31
0.0
  0
LINE
  5
4BA
100
AcDbEntity
  8
2
370
    50
100
AcDbLine
 10
90.754659
 20
-149.783387
 30
0.0
 11
90.754659
 21
-137.783387
 31
0.0
  0
LINE
  5
4BB
100
AcDbEntity
  8
2
370
    50
100
AcDbLine
 10
89.754659
 20
-136.783387
 30
0.0
 11
85.754659
 21
-136.783387
 31
0.0
  0
ARC
  5
4BC
100
AcDbEntity
  8
2
370
    50
100
AcDbCircle
 10
65.254659
 20
-142.783387
 30
0.0
 40
1.0
100
AcDbArc
 50
90.0
 51
180.0
  0
ARC
  5
4BD
100
AcDbEntity
  8
2
370
    50
100
AcDbCircle
 10
65.254659
 20
-146.783387
 30
0.0
 40
1.0
100
AcDbArc
 50
180.0
 51
270.0
  0
ARC
  5
4BE
100
AcDbEntity
  8
2
370
    50
100
AcDbCircle
 10
89.754659
 20
-137.783387
 30
0.0
 40
1.0
100
AcDbArc
 50
0.0
 51
90.0
  0
ARC
  5
4BF
100
AcDbEntity
  8
2
370
    50
100
AcDbCircle
 10
89.754659
 20
-149.783387
 30
0.0
 40
1.0
100
AcDbArc
 50
270.0
 51
360.0
  0
ARC
  5
4C0
100
AcDbEntity
  8
2
370
    50
100
AcDbCircle
 10
61.254659
 20
-139.283387
 30
0.0
 40
0.5
100
AcDbArc
 50
90.0
 51
180.0
  0
ARC
  5
4C1
100
AcDbEntity
  8
2
370
    50
100
AcDbCircle
 10
61.254659
 20
-150.283387
 30
0.0
 40
0.5
100
AcDbArc
 50
180.0
 51
270.0
  0
LINE
  5
4C2
100
AcDbEntity
  8
2
370
    50
100
AcDbLine
 10
89.754659
 20
-150.783387
 30
0.0
 11
82.754206
 21
-150.783387
 31
0.0
  0
LINE
  5
4C3
100
AcDbEntity
  8
2
370
    50
100
AcDbLine
 10
84.754659
 20
-149.783387
 30
0.0
 11
84.754659
 21
-137.783387
 31
0.0
  0
LINE
  5
4C4
100
AcDbEntity
  8
2
370
    50
100
AcDbLine
 10
84.754659
 20
-138.783387
 30
0.0
 11
82.754206
 21
-138.783387
 31
0.0
  0
LINE
  5
4C5
100
AcDbEntity
  8
2
370
    50
100
AcDbLine
 10
82.754206
 20
-138.783387
 30
0.0
 11
61.254659
 21
-138.783387
 31
0.0
  0
LINE
  5
4C6
100
AcDbEntity
  8
2
370
    50
100
AcDbLine
 10
82.754206
 20
-150.783387
 30
0.0
 11
61.254659
 21
-150.783387
 31
0.0
  0
ARC
  5
4C7
100
AcDbEntity
  8
2
370
    50
100
AcDbCircle
 10
85.754659
 20
-149.783387
 30
0.0
 40
1.0
100
AcDbArc
 50
180.0
 51
270.0
  0
LINE
  5
4C8
100
AcDbEntity
  8
2
370
    50
100
AcDbLine
 10
84.754659
 20
-141.783387
 30
0.0
 11
82.754206
 21
-141.783387
 31
0.0
  0
LINE
  5
4C9
100
AcDbEntity
  8
2
370
    50
100
AcDbLine
 10
82.754206
 20
-141.783387
 30
0.0
 11
65.254659
 21
-141.783387
 31
0.0
  0
LINE
  5
4CA
100
AcDbEntity
  8
2
370
    50
100
AcDbLine
 10
84.754659
 20
-147.783387
 30
0.0
 11
82.754206
 21
-147.783387
 31
0.0
  0
LINE
  5
4CB
100
AcDbEntity
  8
2
370
    50
100
AcDbLine
 10
82.754206
 20
-147.783387
 30
0.0
 11
65.254659
 21
-147.783387
 31
0.0
  0
LINE
  5
4CC
100
AcDbEntity
  8
2
370
    50
100
AcDbLine
 10
67.754206
 20
-142.183387
 30
0.0
 11
67.754206
 21
-141.783387
 31
0.0
  0
LINE
  5
4CD
100
AcDbEntity
  8
2
370
    50
100
AcDbLine
 10
67.754206
 20
-138.783387
 30
0.0
 11
67.754206
 21
-137.483387
 31
0.0
  0
LINE
  5
4CE
100
AcDbEntity
  8
2
370
    50
100
AcDbLine
 10
82.754206
 20
-142.183387
 30
0.0
 11
82.754206
 21
-141.783387
 31
0.0
  0
LINE
  5
4CF
100
AcDbEntity
  8
2
370
    50
100
AcDbLine
 10
82.754206
 20
-138.783387
 30
0.0
 11
82.754206
 21
-137.483387
 31
0.0
  0
LINE
  5
4D0
100
AcDbEntity
  8
2
370
    50
100
AcDbLine
 10
82.754206
 20
-147.783387
 30
0.0
 11
82.754206
 21
-147.183387
 31
0.0
  0
LINE
  5
4D1
100
AcDbEntity
  8
2
370
    50
100
AcDbLine
 10
67.754206
 20
-147.783387
 30
0.0
 11
67.754206
 21
-147.183387
 31
0.0
  0
ARC
  5
4D2
100
AcDbEntity
  8
2
370
    50
100
AcDbCircle
 10
85.754659
 20
-137.783387
 30
0.0
 40
1.0
100
AcDbArc
 50
90.0
 51
180.0
  0
LINE
  5
4D3
100
AcDbEntity
  8
2
370
    25
100
AcDbLine
 10
83.754206
 20
-150.783387
 30
0.0
 11
83.754206
 21
-147.783387
 31
0.0
  0
LINE
  5
4D4
100
AcDbEntity
  8
2
370
    25
100
AcDbLine
 10
83.754206
 20
-141.783387
 30
0.0
 11
83.754206
 21
-138.783387
 31
0.0
  0
LINE
  5
4D5
100
AcDbEntity
  8
2
370
    25
100
AcDbLine
 10
66.754206
 20
-150.783387
 30
0.0
 11
66.754206
 21
-147.783387
 31
0.0
  0
LINE
  5
4D6
100
AcDbEntity
  8
2
370
    25
100
AcDbLine
 10
66.754206
 20
-141.783387
 30
0.0
 11
66.754206
 21
-138.783387
 31
0.0
  0
LINE
  5
4D7
100
AcDbEntity
  8
2
370
    50
100
AcDbLine
 10
82.754327
 20
-151.182723
 30
0.0
 11
82.754327
 21
-150.782723
 31
0.0
  0
LINE
  5
4D8
100
AcDbEntity
  8
2
370
    50
100
AcDbLine
 10
67.754327
 20
-151.182723
 30
0.0
 11
67.754327
 21
-150.782723
 31
0.0
  0
LINE
  5
4D9
100
AcDbEntity
  8
2
370
    50
100
AcDbLine
 10
85.25387
 20
-152.18212
 30
0.0
 11
85.25387
 21
-160.982317
 31
0.0
  0
LINE
  5
4DA
100
AcDbEntity
  8
2
370
    50
100
AcDbLine
 10
85.25387
 20
-152.18212
 30
0.0
 11
84.25387
 21
-151.18212
 31
0.0
  0
LINE
  5
4DB
100
AcDbEntity
  8
2
370
    50
100
AcDbLine
 10
85.25387
 20
-152.18212
 30
0.0
 11
65.25387
 21
-152.18212
 31
0.0
  0
LINE
  5
4DC
100
AcDbEntity
  8
2
370
    50
100
AcDbLine
 10
65.25387
 20
-152.18212
 30
0.0
 11
65.25387
 21
-159.48212
 31
0.0
  0
LINE
  5
4DD
100
AcDbEntity
  8
2
370
    50
100
AcDbLine
 10
66.25387
 20
-151.18212
 30
0.0
 11
84.25387
 21
-151.18212
 31
0.0
  0
LINE
  5
4DE
100
AcDbEntity
  8
2
370
    50
100
AcDbLine
 10
66.25387
 20
-151.18212
 30
0.0
 11
65.25387
 21
-152.18212
 31
0.0
  0
LINE
  5
4DF
100
AcDbEntity
  8
2
370
    50
100
AcDbLine
 10
65.25387
 20
-152.18212
 30
0.0
 11
65.25387
 21
-160.982317
 31
0.0
  0
POINT
  5
4E0
100
AcDbEntity
  8
2
370
    50
100
AcDbPoint
 10
75.253329
 20
-171.982317
 30
0.0
  0
LINE
  5
4E1
100
AcDbEntity
  8
2
370
    50
100
AcDbLine
 10
63.253329
 20
-160.982317
 30
0.0
 11
87.253329
 21
-160.982317
 31
0.0
  0
LINE
  5
4E2
100
AcDbEntity
  8
2
370
    50
100
AcDbLine
 10
63.253329
 20
-171.982317
 30
0.0
 11
87.253329
 21
-171.982317
 31
0.0
  0
LINE
  5
4E3
100
AcDbEntity
  8
2
370
    50
100
AcDbLine
 10
87.253329
 20
-171.982317
 30
0.0
 11
87.253329
 21
-160.982317
 31
0.0
  0
LINE
  5
4E4
100
AcDbEntity
  8
2
370
    50
100
AcDbLine
 10
63.253329
 20
-171.982317
 30
0.0
 11
63.253329
 21
-160.982317
 31
0.0
  0
ARC
  5
4E5
100
AcDbEntity
  8
2
370
    50
100
AcDbCircle
 10
81.253329
 20
-179.484474
 30
0.0
 40
18.502157
100
AcDbArc
 50
71.077645
 51
108.922355
  0
ARC
  5
4E6
100
AcDbEntity
  8
2
370
    50
100
AcDbCircle
 10
69.253329
 20
-179.484474
 30
0.0
 40
18.502157
100
AcDbArc
 50
71.077645
 51
108.922355
  0
ARC
  5
4E7
100
AcDbEntity
  8
2
370
    50
100
AcDbCircle
 10
81.253329
 20
-153.480161
 30
0.0
 40
18.502157
100
AcDbArc
 50
251.077645
 51
288.922355
  0
ARC
  5
4E8
100
AcDbEntity
  8
2
370
    50
100
AcDbCircle
 10
69.253329
 20
-153.480161
 30
0.0
 40
18.502157
100
AcDbArc
 50
251.077645
 51
288.922355
  0
LINE
  5
4E9
100
AcDbEntity
  8
2
370
    50
100
AcDbLine
 10
75.253329
 20
-161.982194
 30
0.0
 11
75.253329
 21
-170.982441
 31
0.0
  0
POINT
  5
4EA
100
AcDbEntity
  8
2
370
    50
100
AcDbPoint
 10
75.253329
 20
-171.982317
 30
0.0
  0
POINT
  5
4EB
100
AcDbEntity
  8
2
370
    50
100
AcDbPoint
 10
75.253329
 20
-171.982317
 30
0.0
  0
POINT
  5
4EC
100
AcDbEntity
  8
2
370
    50
100
AcDbPoint
 10
75.253329
 20
-162.48212
 30
0.0
  0
POINT
  5
4ED
100
AcDbEntity
  8
2
370
    50
100
AcDbPoint
 10
75.25387
 20
-151.18212
 30
0.0
  0
POINT
  5
4EE
100
AcDbEntity
  8
2
370
    50
100
AcDbPoint
 10
75.254327
 20
-151.182723
 30
0.0
  0
LINE
  5
4EF
100
AcDbEntity
  8
2
370
    25
  6
CENTER
100
AcDbLine
 10
290.880284
 20
-82.856462
 30
0.0
 11
290.880284
 21
17.740199
 31
0.0
  0
LINE
  5
4F0
100
AcDbEntity
  8
2
370
    50
100
AcDbLine
 10
290.879974
 20
-148.513894
 30
0.0
 11
279.87966
 21
-148.513894
 31
0.0
  0
ARC
  5
4F1
100
AcDbEntity
  8
2
370
    50
100
AcDbCircle
 10
279.87966
 20
-147.513894
 30
0.0
 40
1.0
100
AcDbArc
 50
180.0
 51
270.0
  0
LINE
  5
4F2
100
AcDbEntity
  8
2
370
    50
100
AcDbLine
 10
278.879974
 20
-124.513792
 30
0.0
 11
278.879974
 21
-147.488861
 31
0.0
  0
LINE
  5
4F3
100
AcDbEntity
  8
2
370
    50
100
AcDbLine
 10
290.879974
 20
-123.513792
 30
0.0
 11
279.879974
 21
-123.513792
 31
0.0
  0
ARC
  5
4F4
100
AcDbEntity
  8
2
370
    50
100
AcDbCircle
 10
279.879974
 20
-124.513792
 30
0.0
 40
1.0
100
AcDbArc
 50
90.0
 51
180.0
  0
LINE
  5
4F5
100
AcDbEntity
  8
2
370
    50
100
AcDbLine
 10
280.379974
 20
-118.479478
 30
0.0
 11
280.379974
 21
-123.513792
 31
0.0
  0
LINE
  5
4F6
100
AcDbEntity
  8
2
370
    50
100
AcDbLine
 10
278.879974
 20
-101.779478
 30
0.0
 11
278.879974
 21
-117.479478
 31
0.0
  0
LINE
  5
4F7
100
AcDbEntity
  8
2
370
    50
100
AcDbLine
 10
283.879974
 20
-100.67811
 30
0.0
 11
283.879974
 21
-97.47811
 31
0.0
  0
LINE
  5
4F8
100
AcDbEntity
  8
2
370
    50
100
AcDbLine
 10
283.879974
 20
-100.67811
 30
0.0
 11
290.879974
 21
-100.67811
 31
0.0
  0
LINE
  5
4F9
100
AcDbEntity
  8
2
370
    50
100
AcDbLine
 10
290.879974
 20
-101.479478
 30
0.0
 11
279.179974
 21
-101.479478
 31
0.0
  0
LINE
  5
4FA
100
AcDbEntity
  8
2
370
    50
100
AcDbLine
 10
284.279974
 20
-101.479478
 30
0.0
 11
284.279974
 21
-100.67811
 31
0.0
  0
LINE
  5
4FB
100
AcDbEntity
  8
2
370
    50
100
AcDbLine
 10
290.879974
 20
-118.479478
 30
0.0
 11
279.879974
 21
-118.479478
 31
0.0
  0
ARC
  5
4FC
100
AcDbEntity
  8
2
370
    50
100
AcDbCircle
 10
279.879974
 20
-117.479478
 30
0.0
 40
1.0
100
AcDbArc
 50
180.0
 51
270.0
  0
ARC
  5
4FD
100
AcDbEntity
  8
2
370
    50
100
AcDbCircle
 10
279.179974
 20
-101.779478
 30
0.0
 40
0.3
100
AcDbArc
 50
90.0
 51
180.0
  0
LINE
  5
4FE
100
AcDbEntity
  8
2
370
    50
100
AcDbLine
 10
284.179974
 20
-97.17811
 30
0.0
 11
283.879974
 21
-97.47811
 31
0.0
  0
ARC
  5
4FF
100
AcDbEntity
  8
2
370
    50
100
AcDbCircle
 10
288.379506
 20
-73.344777
 30
0.0
 40
4.166667
100
AcDbArc
 50
233.130102
 51
306.869898
  0
ARC
  5
500
100
AcDbEntity
  8
2
370
    50
100
AcDbCircle
 10
293.379506
 20
-80.011444
 30
0.0
 40
4.166667
100
AcDbArc
 50
53.130102
 51
126.869898
  0
ARC
  5
501
100
AcDbEntity
  8
2
370
    50
100
AcDbCircle
 10
293.379506
 20
-73.344777
 30
0.0
 40
4.166667
100
AcDbArc
 50
233.130102
 51
306.869898
  0
LINE
  5
502
100
AcDbEntity
  8
2
370
    50
100
AcDbLine
 10
284.179974
 20
-97.17811
 30
0.0
 11
290.879974
 21
-97.17811
 31
0.0
  0
LINE
  5
503
100
AcDbEntity
  8
2
370
    50
100
AcDbLine
 10
285.880441
 20
-97.17811
 30
0.0
 11
285.880441
 21
-76.67811
 31
0.0
  0
LINE
  5
504
100
AcDbEntity
  8
2
370
    25
100
AcDbLine
 10
283.879974
 20
-97.47811
 30
0.0
 11
290.879974
 21
-97.47811
 31
0.0
  0
ELLIPSE
  5
505
100
AcDbEntity
  8
2
370
    50
100
AcDbEllipse
 10
281.038578
 20
-121.263792
 30
0.0
 11
0.0
 21
1.0
 31
0.0
210
0.0
220
0.0
230
1.0
 40
0.31
 41
1.5325029999999999
 42
3.1415929999999999
  0
LINE
  5
506
100
AcDbEntity
  8
2
370
    50
100
AcDbLine
 10
280.728806
 20
-121.302076
 30
0.0
 11
280.728806
 21
-119.225508
 31
0.0
  0
ELLIPSE
  5
507
100
AcDbEntity
  8
2
370
    50
100
AcDbEllipse
 10
281.038578
 20
-119.263792
 30
0.0
 11
0.0
 21
1.0
 31
0.0
210
0.0
220
0.0
230
1.0
 40
0.31
 41
0.669206
 42
1.6090899999999999
  0
ELLIPSE
  5
508
100
AcDbEntity
  8
2
370
    25
100
AcDbEllipse
 10
282.643444
 20
-119.263792
 30
0.0
 11
0.0
 21
1.0
 31
0.0
210
0.0
220
0.0
230
1.0
 40
0.5
 41
0.669206
 42
1.5707960000000001
  0
LINE
  5
509
100
AcDbEntity
  8
2
370
    25
100
AcDbLine
 10
282.143444
 20
-121.263792
 30
0.0
 11
282.143444
 21
-119.263792
 31
0.0
  0
ELLIPSE
  5
50A
100
AcDbEntity
  8
2
370
    25
100
AcDbEllipse
 10
282.643444
 20
-121.263792
 30
0.0
 11
0.0
 21
1.0
 31
0.0
210
0.0
220
0.0
230
1.0
 40
0.5
 41
1.5707960000000001
 42
3.1415929999999999
  0
LINE
  5
50B
100
AcDbEntity
  8
2
370
    50
100
AcDbLine
 10
281.038578
 20
-122.263792
 30
0.0
 11
282.788578
 21
-122.263792
 31
0.0
  0
ELLIPSE
  5
50C
100
AcDbEntity
  8
2
370
    50
100
AcDbEllipse
 10
282.788578
 20
-121.263792
 30
0.0
 11
0.0
 21
1.0
 31
0.0
210
0.0
220
0.0
230
1.0
 40
0.69
 41
3.1415929999999999
 42
4.7123889999999999
  0
LINE
  5
50D
100
AcDbEntity
  8
2
370
    50
100
AcDbLine
 10
283.478578
 20
-119.263792
 30
0.0
 11
283.478578
 21
-121.263792
 31
0.0
  0
ELLIPSE
  5
50E
100
AcDbEntity
  8
2
370
    50
100
AcDbEllipse
 10
282.788578
 20
-119.263792
 30
0.0
 11
0.0
 21
1.0
 31
0.0
210
0.0
220
0.0
230
1.0
 40
0.69
 41
4.7123889999999999
 42
5.6139789999999996
  0
ARC
  5
50F
100
AcDbEntity
  8
2
370
    50
100
AcDbCircle
 10
289.12966
 20
-119.263792
 30
0.0
 40
1.0
100
AcDbArc
 50
128.342671
 51
180.0
  0
LINE
  5
510
100
AcDbEntity
  8
2
370
    50
100
AcDbLine
 10
288.12966
 20
-121.263792
 30
0.0
 11
288.12966
 21
-119.263792
 31
0.0
  0
ARC
  5
511
100
AcDbEntity
  8
2
370
    50
100
AcDbCircle
 10
289.12966
 20
-121.263792
 30
0.0
 40
1.0
100
AcDbArc
 50
180.0
 51
270.0
  0
LINE
  5
512
100
AcDbEntity
  8
2
370
    50
100
AcDbLine
 10
289.12966
 20
-122.263792
 30
0.0
 11
290.87966
 21
-122.263792
 31
0.0
  0
LINE
  5
513
100
AcDbEntity
  8
2
370
    50
100
AcDbLine
 10
282.689213
 20
-146.513894
 30
0.0
 11
282.689213
 21
-125.513792
 31
0.0
  0
LINE
  5
514
100
AcDbEntity
  8
2
370
    50
100
AcDbLine
 10
279.189213
 20
-125.513792
 30
0.0
 11
282.689213
 21
-125.513792
 31
0.0
  0
LINE
  5
515
100
AcDbEntity
  8
2
370
    50
100
AcDbLine
 10
287.37966
 20
-125.513792
 30
0.0
 11
290.87966
 21
-125.513792
 31
0.0
  0
LINE
  5
516
100
AcDbEntity
  8
2
370
    50
100
AcDbLine
 10
279.189213
 20
-146.513894
 30
0.0
 11
282.689213
 21
-146.513894
 31
0.0
  0
LINE
  5
517
100
AcDbEntity
  8
2
370
    50
100
AcDbLine
 10
279.189213
 20
-146.513894
 30
0.0
 11
279.189213
 21
-125.513792
 31
0.0
  0
LINE
  5
518
100
AcDbEntity
  8
2
370
    50
100
AcDbLine
 10
290.879974
 20
-115.479478
 30
0.0
 11
278.879974
 21
-115.479478
 31
0.0
  0
LINE
  5
519
100
AcDbEntity
  8
2
370
    50
100
AcDbLine
 10
279.029974
 20
-101.629478
 30
0.0
 11
279.029974
 21
-115.479478
 31
0.0
  0
ARC
  5
51A
100
AcDbEntity
  8
2
370
    50
100
AcDbCircle
 10
279.179974
 20
-101.629478
 30
0.0
 40
0.15
100
AcDbArc
 50
90.0
 51
180.0
  0
LINE
  5
51B
100
AcDbEntity
  8
2
370
    50
100
AcDbLine
 10
287.37966
 20
-125.513792
 30
0.0
 11
287.37966
 21
-146.513894
 31
0.0
  0
LINE
  5
51C
100
AcDbEntity
  8
2
370
    50
100
AcDbLine
 10
287.37966
 20
-146.513894
 30
0.0
 11
290.879506
 21
-146.513894
 31
0.0
  0
LINE
  5
51D
100
AcDbEntity
  8
2
370
    50
100
AcDbLine
 10
290.879039
 20
-148.513894
 30
0.0
 11
301.879353
 21
-148.513894
 31
0.0
  0
ARC
  5
51E
100
AcDbEntity
  8
2
370
    50
100
AcDbCircle
 10
301.879353
 20
-147.513894
 30
0.0
 40
1.0
100
AcDbArc
 50
270.0
 51
360.0
  0
LINE
  5
51F
100
AcDbEntity
  8
2
370
    50
100
AcDbLine
 10
302.879039
 20
-124.513792
 30
0.0
 11
302.879039
 21
-147.488861
 31
0.0
  0
LINE
  5
520
100
AcDbEntity
  8
2
370
    50
100
AcDbLine
 10
290.879039
 20
-123.513792
 30
0.0
 11
301.879039
 21
-123.513792
 31
0.0
  0
ARC
  5
521
100
AcDbEntity
  8
2
370
    50
100
AcDbCircle
 10
301.879039
 20
-124.513792
 30
0.0
 40
1.0
100
AcDbArc
 50
0.0
 51
90.0
  0
LINE
  5
522
100
AcDbEntity
  8
2
370
    50
100
AcDbLine
 10
301.379039
 20
-118.479478
 30
0.0
 11
301.379039
 21
-123.513792
 31
0.0
  0
LINE
  5
523
100
AcDbEntity
  8
2
370
    50
100
AcDbLine
 10
302.879039
 20
-101.779478
 30
0.0
 11
302.879039
 21
-117.479478
 31
0.0
  0
LINE
  5
524
100
AcDbEntity
  8
2
370
    50
100
AcDbLine
 10
297.879039
 20
-100.67811
 30
0.0
 11
297.879039
 21
-97.47811
 31
0.0
  0
LINE
  5
525
100
AcDbEntity
  8
2
370
    50
100
AcDbLine
 10
297.879039
 20
-100.67811
 30
0.0
 11
290.879039
 21
-100.67811
 31
0.0
  0
LINE
  5
526
100
AcDbEntity
  8
2
370
    50
100
AcDbLine
 10
290.879039
 20
-101.479478
 30
0.0
 11
302.579039
 21
-101.479478
 31
0.0
  0
LINE
  5
527
100
AcDbEntity
  8
2
370
    50
100
AcDbLine
 10
297.479039
 20
-101.479478
 30
0.0
 11
297.479039
 21
-100.67811
 31
0.0
  0
LINE
  5
528
100
AcDbEntity
  8
2
370
    50
100
AcDbLine
 10
290.879039
 20
-118.479478
 30
0.0
 11
301.879039
 21
-118.479478
 31
0.0
  0
ARC
  5
529
100
AcDbEntity
  8
2
370
    50
100
AcDbCircle
 10
301.879039
 20
-117.479478
 30
0.0
 40
1.0
100
AcDbArc
 50
270.0
 51
360.0
  0
ARC
  5
52A
100
AcDbEntity
  8
2
370
    50
100
AcDbCircle
 10
302.579039
 20
-101.779478
 30
0.0
 40
0.3
100
AcDbArc
 50
0.0
 51
90.0
  0
LINE
  5
52B
100
AcDbEntity
  8
2
370
    50
100
AcDbLine
 10
297.579039
 20
-97.17811
 30
0.0
 11
297.879039
 21
-97.47811
 31
0.0
  0
LINE
  5
52C
100
AcDbEntity
  8
2
370
    50
100
AcDbLine
 10
297.579039
 20
-97.17811
 30
0.0
 11
290.879039
 21
-97.17811
 31
0.0
  0
LINE
  5
52D
100
AcDbEntity
  8
2
370
    50
100
AcDbLine
 10
295.878572
 20
-97.17811
 30
0.0
 11
295.878572
 21
-76.67811
 31
0.0
  0
LINE
  5
52E
100
AcDbEntity
  8
2
370
    25
100
AcDbLine
 10
297.879039
 20
-97.47811
 30
0.0
 11
290.879039
 21
-97.47811
 31
0.0
  0
ELLIPSE
  5
52F
100
AcDbEntity
  8
2
370
    50
100
AcDbEllipse
 10
300.720435
 20
-121.263792
 30
0.0
 11
0.0
 21
1.0
 31
0.0
210
0.0
220
0.0
230
1.0
 40
0.31
 41
3.1415929999999999
 42
4.7506820000000003
  0
LINE
  5
530
100
AcDbEntity
  8
2
370
    50
100
AcDbLine
 10
301.030207
 20
-121.302076
 30
0.0
 11
301.030207
 21
-119.225508
 31
0.0
  0
ELLIPSE
  5
531
100
AcDbEntity
  8
2
370
    50
100
AcDbEllipse
 10
300.720435
 20
-119.263792
 30
0.0
 11
0.0
 21
1.0
 31
0.0
210
0.0
220
0.0
230
1.0
 40
0.31
 41
4.6740959999999996
 42
5.6139789999999996
  0
ELLIPSE
  5
532
100
AcDbEntity
  8
2
370
    25
100
AcDbEllipse
 10
299.115569
 20
-119.263792
 30
0.0
 11
0.0
 21
1.0
 31
0.0
210
0.0
220
0.0
230
1.0
 40
0.5
 41
4.7123889999999999
 42
5.6139789999999996
  0
LINE
  5
533
100
AcDbEntity
  8
2
370
    25
100
AcDbLine
 10
299.615569
 20
-121.263792
 30
0.0
 11
299.615569
 21
-119.263792
 31
0.0
  0
ELLIPSE
  5
534
100
AcDbEntity
  8
2
370
    25
100
AcDbEllipse
 10
299.115569
 20
-121.263792
 30
0.0
 11
0.0
 21
1.0
 31
0.0
210
0.0
220
0.0
230
1.0
 40
0.5
 41
3.1415929999999999
 42
4.7123889999999999
  0
LINE
  5
535
100
AcDbEntity
  8
2
370
    50
100
AcDbLine
 10
300.720435
 20
-122.263792
 30
0.0
 11
298.970435
 21
-122.263792
 31
0.0
  0
ELLIPSE
  5
536
100
AcDbEntity
  8
2
370
    50
100
AcDbEllipse
 10
298.970435
 20
-121.263792
 30
0.0
 11
0.0
 21
1.0
 31
0.0
210
0.0
220
0.0
230
1.0
 40
0.69
 41
1.5707960000000001
 42
3.1415929999999999
  0
LINE
  5
537
100
AcDbEntity
  8
2
370
    50
100
AcDbLine
 10
298.280435
 20
-119.263792
 30
0.0
 11
298.280435
 21
-121.263792
 31
0.0
  0
ELLIPSE
  5
538
100
AcDbEntity
  8
2
370
    50
100
AcDbEllipse
 10
298.970435
 20
-119.263792
 30
0.0
 11
0.0
 21
1.0
 31
0.0
210
0.0
220
0.0
230
1.0
 40
0.69
 41
0.669206
 42
1.5707960000000001
  0
ARC
  5
539
100
AcDbEntity
  8
2
370
    50
100
AcDbCircle
 10
292.629353
 20
-119.263792
 30
0.0
 40
1.0
100
AcDbArc
 50
0.0
 51
51.657329
  0
LINE
  5
53A
100
AcDbEntity
  8
2
370
    50
100
AcDbLine
 10
293.629353
 20
-121.263792
 30
0.0
 11
293.629353
 21
-119.263792
 31
0.0
  0
ARC
  5
53B
100
AcDbEntity
  8
2
370
    50
100
AcDbCircle
 10
292.629353
 20
-121.263792
 30
0.0
 40
1.0
100
AcDbArc
 50
270.0
 51
360.0
  0
LINE
  5
53C
100
AcDbEntity
  8
2
370
    50
100
AcDbLine
 10
292.629353
 20
-122.263792
 30
0.0
 11
290.879353
 21
-122.263792
 31
0.0
  0
LINE
  5
53D
100
AcDbEntity
  8
2
370
    50
100
AcDbLine
 10
299.0698
 20
-146.513894
 30
0.0
 11
299.0698
 21
-125.513792
 31
0.0
  0
LINE
  5
53E
100
AcDbEntity
  8
2
370
    50
100
AcDbLine
 10
302.5698
 20
-125.513792
 30
0.0
 11
299.0698
 21
-125.513792
 31
0.0
  0
LINE
  5
53F
100
AcDbEntity
  8
2
370
    50
100
AcDbLine
 10
294.379353
 20
-125.513792
 30
0.0
 11
290.879353
 21
-125.513792
 31
0.0
  0
LINE
  5
540
100
AcDbEntity
  8
2
370
    50
100
AcDbLine
 10
302.5698
 20
-146.513894
 30
0.0
 11
299.0698
 21
-146.513894
 31
0.0
  0
LINE
  5
541
100
AcDbEntity
  8
2
370
    50
100
AcDbLine
 10
302.5698
 20
-146.513894
 30
0.0
 11
302.5698
 21
-125.513792
 31
0.0
  0
LINE
  5
542
100
AcDbEntity
  8
2
370
    50
100
AcDbLine
 10
290.879039
 20
-115.479478
 30
0.0
 11
302.879039
 21
-115.479478
 31
0.0
  0
LINE
  5
543
100
AcDbEntity
  8
2
370
    50
100
AcDbLine
 10
302.729039
 20
-101.629478
 30
0.0
 11
302.729039
 21
-115.479478
 31
0.0
  0
ARC
  5
544
100
AcDbEntity
  8
2
370
    50
100
AcDbCircle
 10
302.579039
 20
-101.629478
 30
0.0
 40
0.15
100
AcDbArc
 50
0.0
 51
90.0
  0
LINE
  5
545
100
AcDbEntity
  8
2
370
    50
100
AcDbLine
 10
294.379353
 20
-125.513792
 30
0.0
 11
294.379353
 21
-146.513894
 31
0.0
  0
LINE
  5
546
100
AcDbEntity
  8
2
370
    50
100
AcDbLine
 10
294.379353
 20
-146.513894
 30
0.0
 11
290.879506
 21
-146.513894
 31
0.0
  0
LINE
  5
547
100
AcDbEntity
  8
2
370
    25
  6
CENTER
100
AcDbLine
 10
15.156493
 20
-182.51407
 30
0.0
 11
204.174332
 21
-182.51407
 31
0.0
  0
POINT
  5
548
100
AcDbEntity
  8
2
370
    50
100
AcDbPoint
 10
290.879506
 20
-182.51407
 30
0.0
  0
LINE
  5
549
100
AcDbEntity
  8
2
370
    50
100
AcDbLine
 10
303.880303
 20
-199.013894
 30
0.0
 11
303.880303
 21
-170.013894
 31
0.0
  0
LINE
  5
54A
100
AcDbEntity
  8
2
370
    50
100
AcDbLine
 10
290.879951
 20
-199.513894
 30
0.0
 11
278.380303
 21
-199.513894
 31
0.0
  0
LINE
  5
54B
100
AcDbEntity
  8
2
370
    50
100
AcDbLine
 10
290.879951
 20
-199.513894
 30
0.0
 11
303.380303
 21
-199.513894
 31
0.0
  0
LINE
  5
54C
100
AcDbEntity
  8
2
370
    50
100
AcDbLine
 10
302.879951
 20
-208.013894
 30
0.0
 11
302.879951
 21
-200.013894
 31
0.0
  0
LINE
  5
54D
100
AcDbEntity
  8
2
370
    50
100
AcDbLine
 10
278.879951
 20
-208.013894
 30
0.0
 11
278.879951
 21
-200.013894
 31
0.0
  0
LINE
  5
54E
100
AcDbEntity
  8
2
370
    50
100
AcDbLine
 10
301.379951
 20
-209.513894
 30
0.0
 11
280.379951
 21
-209.513894
 31
0.0
  0
LINE
  5
54F
100
AcDbEntity
  8
2
370
    50
100
AcDbLine
 10
280.379951
 20
-209.513894
 30
0.0
 11
278.879951
 21
-208.013894
 31
0.0
  0
LINE
  5
550
100
AcDbEntity
  8
2
370
    50
100
AcDbLine
 10
301.379951
 20
-209.513894
 30
0.0
 11
302.879951
 21
-208.013894
 31
0.0
  0
LINE
  5
551
100
AcDbEntity
  8
2
370
    50
100
AcDbLine
 10
277.880303
 20
-199.013894
 30
0.0
 11
277.880303
 21
-194.013894
 31
0.0
  0
LINE
  5
552
100
AcDbEntity
  8
2
370
    50
100
AcDbLine
 10
277.880303
 20
-171.013894
 30
0.0
 11
277.880303
 21
-170.013894
 31
0.0
  0
LINE
  5
553
100
AcDbEntity
  8
2
370
    50
100
AcDbLine
 10
273.879807
 20
-171.013894
 30
0.0
 11
277.880303
 21
-171.013894
 31
0.0
  0
LINE
  5
554
100
AcDbEntity
  8
2
370
    50
100
AcDbLine
 10
278.380303
 20
-169.513894
 30
0.0
 11
290.879951
 21
-169.513894
 31
0.0
  0
LINE
  5
555
100
AcDbEntity
  8
2
370
    50
100
AcDbLine
 10
290.879951
 20
-169.513894
 30
0.0
 11
303.380303
 21
-169.513894
 31
0.0
  0
LINE
  5
556
100
AcDbEntity
  8
2
370
    50
100
AcDbLine
 10
278.380303
 20
-169.513894
 30
0.0
 11
277.880303
 21
-170.013894
 31
0.0
  0
LINE
  5
557
100
AcDbEntity
  8
2
370
    50
100
AcDbLine
 10
303.380303
 20
-169.513894
 30
0.0
 11
303.880303
 21
-170.013894
 31
0.0
  0
LINE
  5
558
100
AcDbEntity
  8
2
370
    50
100
AcDbLine
 10
278.380303
 20
-199.513894
 30
0.0
 11
277.880303
 21
-199.013894
 31
0.0
  0
LINE
  5
559
100
AcDbEntity
  8
2
370
    50
100
AcDbLine
 10
303.880303
 20
-199.013894
 30
0.0
 11
303.380303
 21
-199.513894
 31
0.0
  0
LINE
  5
55A
100
AcDbEntity
  8
2
370
    50
100
AcDbLine
 10
273.879807
 20
-171.763894
 30
0.0
 11
274.880303
 21
-171.763894
 31
0.0
  0
LINE
  5
55B
100
AcDbEntity
  8
2
370
    50
100
AcDbLine
 10
299.879951
 20
-169.513894
 30
0.0
 11
299.879951
 21
-168.513779
 31
0.0
  0
LINE
  5
55C
100
AcDbEntity
  8
2
370
    50
100
AcDbLine
 10
281.879951
 20
-169.513894
 30
0.0
 11
281.879951
 21
-168.513779
 31
0.0
  0
LINE
  5
55D
100
AcDbEntity
  8
2
370
    50
100
AcDbLine
 10
274.880303
 20
-171.763894
 30
0.0
 11
276.179341
 21
-171.013894
 31
0.0
  0
LINE
  5
55E
100
AcDbEntity
  8
2
370
    50
100
AcDbLine
 10
273.879807
 20
-193.263894
 30
0.0
 11
274.880303
 21
-193.263894
 31
0.0
  0
LINE
  5
55F
100
AcDbEntity
  8
2
370
    50
100
AcDbLine
 10
274.880303
 20
-193.263894
 30
0.0
 11
276.179341
 21
-194.013894
 31
0.0
  0
LINE
  5
560
100
AcDbEntity
  8
2
370
    50
100
AcDbLine
 10
273.879807
 20
-194.013894
 30
0.0
 11
277.880303
 21
-194.013894
 31
0.0
  0
LINE
  5
561
100
AcDbEntity
  8
2
370
    50
100
AcDbLine
 10
277.379506
 20
-154.513779
 30
0.0
 11
277.379506
 21
-166.513779
 31
0.0
  0
LINE
  5
562
100
AcDbEntity
  8
2
370
    50
100
AcDbLine
 10
304.379506
 20
-154.513779
 30
0.0
 11
304.379506
 21
-166.513779
 31
0.0
  0
ARC
  5
563
100
AcDbEntity
  8
2
370
    50
100
AcDbCircle
 10
279.379506
 20
-154.513779
 30
0.0
 40
2.0
100
AcDbArc
 50
90.0
 51
180.0
  0
ARC
  5
564
100
AcDbEntity
  8
2
370
    50
100
AcDbCircle
 10
279.379506
 20
-166.513779
 30
0.0
 40
2.0
100
AcDbArc
 50
180.0
 51
270.0
  0
ARC
  5
565
100
AcDbEntity
  8
2
370
    50
100
AcDbCircle
 10
302.379506
 20
-166.513779
 30
0.0
 40
2.0
100
AcDbArc
 50
270.0
 51
360.0
  0
ARC
  5
566
100
AcDbEntity
  8
2
370
    50
100
AcDbCircle
 10
302.379506
 20
-154.513779
 30
0.0
 40
2.0
100
AcDbArc
 50
360.0
 51
90.0
  0
LINE
  5
567
100
AcDbEntity
  8
2
370
    50
100
AcDbLine
 10
302.379506
 20
-168.513779
 30
0.0
 11
290.879951
 21
-168.513779
 31
0.0
  0
LINE
  5
568
100
AcDbEntity
  8
2
370
    50
100
AcDbLine
 10
290.879951
 20
-168.513779
 30
0.0
 11
279.379506
 21
-168.513779
 31
0.0
  0
LINE
  5
569
100
AcDbEntity
  8
2
370
    50
100
AcDbLine
 10
278.879951
 20
-200.013894
 30
0.0
 11
279.379951
 21
-199.513894
 31
0.0
  0
LINE
  5
56A
100
AcDbEntity
  8
2
370
    50
100
AcDbLine
 10
302.879951
 20
-200.013894
 30
0.0
 11
302.379951
 21
-199.513894
 31
0.0
  0
LINE
  5
56B
100
AcDbEntity
  8
2
370
    50
100
AcDbLine
 10
302.379506
 20
-152.513779
 30
0.0
 11
279.379506
 21
-152.513779
 31
0.0
  0
LINE
  5
56C
100
AcDbEntity
  8
2
370
    50
100
AcDbLine
 10
300.629951
 20
-153.812932
 30
0.0
 11
297.629951
 21
-153.812932
 31
0.0
  0
ARC
  5
56D
100
AcDbEntity
  8
2
370
    50
100
AcDbCircle
 10
302.629951
 20
-154.703014
 30
0.0
 40
2.18912
100
AcDbArc
 50
90.396924
 51
156.008986
  0
LINE
  5
56E
100
AcDbEntity
  8
2
370
    50
100
AcDbLine
 10
297.629951
 20
-158.513894
 30
0.0
 11
297.629951
 21
-153.812932
 31
0.0
  0
LINE
  5
56F
100
AcDbEntity
  8
2
370
    50
100
AcDbLine
 10
300.629959
 20
-158.513894
 30
0.0
 11
300.629951
 21
-153.812932
 31
0.0
  0
ARC
  5
570
100
AcDbEntity
  8
2
370
    50
100
AcDbCircle
 10
290.879951
 20
-170.700427
 30
0.0
 40
18.186533
100
AcDbArc
 50
68.213211
 51
90.0
  0
LINE
  5
571
100
AcDbEntity
  8
2
370
    50
100
AcDbLine
 10
300.629951
 20
-167.214856
 30
0.0
 11
297.629951
 21
-167.214856
 31
0.0
  0
ARC
  5
572
100
AcDbEntity
  8
2
370
    50
100
AcDbCircle
 10
302.629951
 20
-166.324774
 30
0.0
 40
2.18912
100
AcDbArc
 50
203.991014
 51
266.621413
  0
LINE
  5
573
100
AcDbEntity
  8
2
370
    50
100
AcDbLine
 10
297.629951
 20
-158.513894
 30
0.0
 11
297.629951
 21
-167.214856
 31
0.0
  0
LINE
  5
574
100
AcDbEntity
  8
2
370
    50
100
AcDbLine
 10
300.629959
 20
-158.513894
 30
0.0
 11
300.629959
 21
-167.214856
 31
0.0
  0
ARC
  5
575
100
AcDbEntity
  8
2
370
    50
100
AcDbCircle
 10
290.879951
 20
-150.32736
 30
0.0
 40
18.186533
100
AcDbArc
 50
270.0
 51
291.786789
  0
LINE
  5
576
100
AcDbEntity
  8
2
370
    50
100
AcDbLine
 10
281.130303
 20
-153.812932
 30
0.0
 11
284.130303
 21
-153.812932
 31
0.0
  0
ARC
  5
577
100
AcDbEntity
  8
2
370
    50
100
AcDbCircle
 10
279.130303
 20
-154.703014
 30
0.0
 40
2.18912
100
AcDbArc
 50
23.991014
 51
89.304196
  0
LINE
  5
578
100
AcDbEntity
  8
2
370
    50
100
AcDbLine
 10
284.130303
 20
-158.513894
 30
0.0
 11
284.130303
 21
-153.812932
 31
0.0
  0
LINE
  5
579
100
AcDbEntity
  8
2
370
    50
100
AcDbLine
 10
281.130295
 20
-158.513894
 30
0.0
 11
281.130303
 21
-153.812932
 31
0.0
  0
ARC
  5
57A
100
AcDbEntity
  8
2
370
    50
100
AcDbCircle
 10
290.880303
 20
-170.700427
 30
0.0
 40
18.186533
100
AcDbArc
 50
90.0
 51
111.786789
  0
LINE
  5
57B
100
AcDbEntity
  8
2
370
    50
100
AcDbLine
 10
281.130303
 20
-167.214856
 30
0.0
 11
284.130303
 21
-167.214856
 31
0.0
  0
ARC
  5
57C
100
AcDbEntity
  8
2
370
    50
100
AcDbCircle
 10
279.130303
 20
-166.324774
 30
0.0
 40
2.18912
100
AcDbArc
 50
273.362072
 51
336.008986
  0
LINE
  5
57D
100
AcDbEntity
  8
2
370
    50
100
AcDbLine
 10
284.130303
 20
-158.513894
 30
0.0
 11
284.130303
 21
-167.214856
 31
0.0
  0
LINE
  5
57E
100
AcDbEntity
  8
2
370
    50
100
AcDbLine
 10
281.130295
 20
-158.513894
 30
0.0
 11
281.130295
 21
-167.214856
 31
0.0
  0
ARC
  5
57F
100
AcDbEntity
  8
2
370
    50
100
AcDbCircle
 10
290.880303
 20
-150.32736
 30
0.0
 40
18.186533
100
AcDbArc
 50
248.213211
 51
270.0
  0
LINE
  5
580
100
AcDbEntity
  8
2
370
    50
100
AcDbLine
 10
302.879951
 20
-200.013894
 30
0.0
 11
278.879951
 21
-200.013894
 31
0.0
  0
LINE
  5
581
100
AcDbEntity
  8
2
370
    50
100
AcDbLine
 10
278.879951
 20
-208.013894
 30
0.0
 11
302.879951
 21
-208.013894
 31
0.0
  0
LINE
  5
582
100
AcDbEntity
  8
2
370
    50
100
AcDbLine
 10
301.879951
 20
-208.013894
 30
0.0
 11
301.879951
 21
-200.013894
 31
0.0
  0
LINE
  5
583
100
AcDbEntity
  8
2
370
    50
100
AcDbLine
 10
300.879951
 20
-208.013894
 30
0.0
 11
300.879951
 21
-200.013894
 31
0.0
  0
LINE
  5
584
100
AcDbEntity
  8
2
370
    50
100
AcDbLine
 10
299.879951
 20
-208.013894
 30
0.0
 11
299.879951
 21
-200.013894
 31
0.0
  0
LINE
  5
585
100
AcDbEntity
  8
2
370
    50
100
AcDbLine
 10
298.879951
 20
-208.013894
 30
0.0
 11
298.879951
 21
-200.013894
 31
0.0
  0
LINE
  5
586
100
AcDbEntity
  8
2
370
    50
100
AcDbLine
 10
297.879951
 20
-208.013894
 30
0.0
 11
297.879951
 21
-200.013894
 31
0.0
  0
LINE
  5
587
100
AcDbEntity
  8
2
370
    50
100
AcDbLine
 10
296.879951
 20
-208.013894
 30
0.0
 11
296.879951
 21
-200.013894
 31
0.0
  0
LINE
  5
588
100
AcDbEntity
  8
2
370
    50
100
AcDbLine
 10
295.879951
 20
-208.013894
 30
0.0
 11
295.879951
 21
-200.013894
 31
0.0
  0
LINE
  5
589
100
AcDbEntity
  8
2
370
    50
100
AcDbLine
 10
294.879951
 20
-208.013894
 30
0.0
 11
294.879951
 21
-200.013894
 31
0.0
  0
LINE
  5
58A
100
AcDbEntity
  8
2
370
    50
100
AcDbLine
 10
293.879951
 20
-208.013894
 30
0.0
 11
293.879951
 21
-200.013894
 31
0.0
  0
LINE
  5
58B
100
AcDbEntity
  8
2
370
    50
100
AcDbLine
 10
292.879951
 20
-208.013894
 30
0.0
 11
292.879951
 21
-200.013894
 31
0.0
  0
LINE
  5
58C
100
AcDbEntity
  8
2
370
    50
100
AcDbLine
 10
291.879951
 20
-208.013894
 30
0.0
 11
291.879951
 21
-200.013894
 31
0.0
  0
LINE
  5
58D
100
AcDbEntity
  8
2
370
    50
100
AcDbLine
 10
290.879951
 20
-208.013894
 30
0.0
 11
290.879951
 21
-200.013894
 31
0.0
  0
LINE
  5
58E
100
AcDbEntity
  8
2
370
    50
100
AcDbLine
 10
289.879951
 20
-208.013894
 30
0.0
 11
289.879951
 21
-200.013894
 31
0.0
  0
LINE
  5
58F
100
AcDbEntity
  8
2
370
    50
100
AcDbLine
 10
288.879951
 20
-208.013894
 30
0.0
 11
288.879951
 21
-200.013894
 31
0.0
  0
LINE
  5
590
100
AcDbEntity
  8
2
370
    50
100
AcDbLine
 10
287.879951
 20
-208.013894
 30
0.0
 11
287.879951
 21
-200.013894
 31
0.0
  0
LINE
  5
591
100
AcDbEntity
  8
2
370
    50
100
AcDbLine
 10
286.879951
 20
-208.013894
 30
0.0
 11
286.879951
 21
-200.013894
 31
0.0
  0
LINE
  5
592
100
AcDbEntity
  8
2
370
    50
100
AcDbLine
 10
285.879951
 20
-208.013894
 30
0.0
 11
285.879951
 21
-200.013894
 31
0.0
  0
LINE
  5
593
100
AcDbEntity
  8
2
370
    50
100
AcDbLine
 10
284.879951
 20
-208.013894
 30
0.0
 11
284.879951
 21
-200.013894
 31
0.0
  0
LINE
  5
594
100
AcDbEntity
  8
2
370
    50
100
AcDbLine
 10
283.879951
 20
-208.013894
 30
0.0
 11
283.879951
 21
-200.013894
 31
0.0
  0
LINE
  5
595
100
AcDbEntity
  8
2
370
    50
100
AcDbLine
 10
282.879951
 20
-208.013894
 30
0.0
 11
282.879951
 21
-200.013894
 31
0.0
  0
LINE
  5
596
100
AcDbEntity
  8
2
370
    50
100
AcDbLine
 10
281.879951
 20
-208.013894
 30
0.0
 11
281.879951
 21
-200.013894
 31
0.0
  0
LINE
  5
597
100
AcDbEntity
  8
2
370
    50
100
AcDbLine
 10
280.879951
 20
-208.013894
 30
0.0
 11
280.879951
 21
-200.013894
 31
0.0
  0
LINE
  5
598
100
AcDbEntity
  8
2
370
    50
100
AcDbLine
 10
279.879951
 20
-208.013894
 30
0.0
 11
279.879951
 21
-200.013894
 31
0.0
  0
LINE
  5
599
100
AcDbEntity
  8
2
370
    50
100
AcDbLine
 10
277.379506
 20
-154.513779
 30
0.0
 11
277.379506
 21
-166.513779
 31
0.0
  0
LINE
  5
59A
100
AcDbEntity
  8
2
370
    50
100
AcDbLine
 10
304.379506
 20
-154.513779
 30
0.0
 11
304.379506
 21
-166.513779
 31
0.0
  0
ARC
  5
59B
100
AcDbEntity
  8
2
370
    50
100
AcDbCircle
 10
279.379506
 20
-154.513779
 30
0.0
 40
2.0
100
AcDbArc
 50
90.0
 51
180.0
  0
ARC
  5
59C
100
AcDbEntity
  8
2
370
    50
100
AcDbCircle
 10
302.379506
 20
-154.513779
 30
0.0
 40
2.0
100
AcDbArc
 50
360.0
 51
90.0
  0
LINE
  5
59D
100
AcDbEntity
  8
2
370
    50
100
AcDbLine
 10
302.379506
 20
-152.513779
 30
0.0
 11
279.379506
 21
-152.513779
 31
0.0
  0
LINE
  5
59E
100
AcDbEntity
  8
2
370
    50
100
AcDbLine
 10
300.629951
 20
-153.812932
 30
0.0
 11
297.629951
 21
-153.812932
 31
0.0
  0
ARC
  5
59F
100
AcDbEntity
  8
2
370
    50
100
AcDbCircle
 10
302.629951
 20
-154.703014
 30
0.0
 40
2.18912
100
AcDbArc
 50
90.396924
 51
156.008986
  0
LINE
  5
5A0
100
AcDbEntity
  8
2
370
    50
100
AcDbLine
 10
297.629951
 20
-158.513894
 30
0.0
 11
297.629951
 21
-153.812932
 31
0.0
  0
LINE
  5
5A1
100
AcDbEntity
  8
2
370
    50
100
AcDbLine
 10
300.629959
 20
-158.513894
 30
0.0
 11
300.629951
 21
-153.812932
 31
0.0
  0
ARC
  5
5A2
100
AcDbEntity
  8
2
370
    50
100
AcDbCircle
 10
290.879951
 20
-170.700427
 30
0.0
 40
18.186533
100
AcDbArc
 50
68.213211
 51
90.0
  0
LINE
  5
5A3
100
AcDbEntity
  8
2
370
    50
100
AcDbLine
 10
281.130303
 20
-153.812932
 30
0.0
 11
284.130303
 21
-153.812932
 31
0.0
  0
ARC
  5
5A4
100
AcDbEntity
  8
2
370
    50
100
AcDbCircle
 10
279.130303
 20
-154.703014
 30
0.0
 40
2.18912
100
AcDbArc
 50
23.991014
 51
89.304196
  0
LINE
  5
5A5
100
AcDbEntity
  8
2
370
    50
100
AcDbLine
 10
284.130303
 20
-158.513894
 30
0.0
 11
284.130303
 21
-153.812932
 31
0.0
  0
LINE
  5
5A6
100
AcDbEntity
  8
2
370
    50
100
AcDbLine
 10
281.130295
 20
-158.513894
 30
0.0
 11
281.130303
 21
-153.812932
 31
0.0
  0
ARC
  5
5A7
100
AcDbEntity
  8
2
370
    50
100
AcDbCircle
 10
290.880303
 20
-170.700427
 30
0.0
 40
18.186533
100
AcDbArc
 50
90.0
 51
111.786789
  0
POINT
  5
5A8
100
AcDbEntity
  8
2
370
    50
100
AcDbPoint
 10
290.879506
 20
-152.513779
 30
0.0
  0
LINE
  5
5A9
100
AcDbEntity
  8
2
370
    50
100
AcDbLine
 10
262.879807
 20
-195.26407
 30
0.0
 11
262.879807
 21
-169.76407
 31
0.0
  0
LINE
  5
5AA
100
AcDbEntity
  8
2
370
    50
100
AcDbLine
 10
264.611858
 20
-168.76407
 30
0.0
 11
272.147756
 21
-168.76407
 31
0.0
  0
LINE
  5
5AB
100
AcDbEntity
  8
2
370
    50
100
AcDbLine
 10
264.611858
 20
-169.016181
 30
0.0
 11
272.147756
 21
-169.016181
 31
0.0
  0
LINE
  5
5AC
100
AcDbEntity
  8
2
370
    50
100
AcDbLine
 10
264.611858
 20
-173.495299
 30
0.0
 11
272.147756
 21
-173.495299
 31
0.0
  0
LINE
  5
5AD
100
AcDbEntity
  8
2
370
    50
100
AcDbLine
 10
264.611858
 20
-178.034952
 30
0.0
 11
272.147756
 21
-178.034952
 31
0.0
  0
LINE
  5
5AE
100
AcDbEntity
  8
2
370
    50
100
AcDbLine
 10
262.879807
 20
-169.76407
 30
0.0
 11
264.611858
 21
-168.76407
 31
0.0
  0
LINE
  5
5AF
100
AcDbEntity
  8
2
370
    50
100
AcDbLine
 10
273.879807
 20
-169.76407
 30
0.0
 11
272.147756
 21
-168.76407
 31
0.0
  0
LINE
  5
5B0
100
AcDbEntity
  8
2
370
    50
100
AcDbLine
 10
272.147756
 20
-168.76407
 30
0.0
 11
272.147756
 21
-169.016181
 31
0.0
  0
LINE
  5
5B1
100
AcDbEntity
  8
2
370
    50
100
AcDbLine
 10
264.611858
 20
-168.76407
 30
0.0
 11
264.611858
 21
-169.016181
 31
0.0
  0
LINE
  5
5B2
100
AcDbEntity
  8
2
370
    50
100
AcDbLine
 10
264.611858
 20
-173.495299
 30
0.0
 11
264.611858
 21
-178.034952
 31
0.0
  0
LINE
  5
5B3
100
AcDbEntity
  8
2
370
    50
100
AcDbLine
 10
272.147756
 20
-173.495299
 30
0.0
 11
272.147756
 21
-178.034952
 31
0.0
  0
ARC
  5
5B4
100
AcDbEntity
  8
2
370
    50
100
AcDbCircle
 10
271.684399
 20
-182.51407
 30
0.0
 40
8.371579
100
AcDbArc
 50
147.653468
 51
212.346532
  0
ARC
  5
5B5
100
AcDbEntity
  8
2
370
    50
100
AcDbCircle
 10
265.075215
 20
-182.51407
 30
0.0
 40
8.371579
100
AcDbArc
 50
327.653468
 51
32.346532
  0
ARC
  5
5B6
100
AcDbEntity
  8
2
370
    50
100
AcDbCircle
 10
265.892854
 20
-171.25574
 30
0.0
 40
2.580034
100
AcDbArc
 50
119.768942
 51
240.231058
  0
ARC
  5
5B7
100
AcDbEntity
  8
2
370
    50
100
AcDbCircle
 10
270.86676
 20
-171.25574
 30
0.0
 40
2.580034
100
AcDbArc
 50
299.768942
 51
60.231058
  0
LINE
  5
5B8
100
AcDbEntity
  8
2
370
    50
100
AcDbLine
 10
253.379807
 20
-172.01407
 30
0.0
 11
252.879807
 21
-172.51407
 31
0.0
  0
LINE
  5
5B9
100
AcDbEntity
  8
2
370
    50
100
AcDbLine
 10
253.379807
 20
-172.01407
 30
0.0
 11
253.379807
 21
-193.01407
 31
0.0
  0
LINE
  5
5BA
100
AcDbEntity
  8
2
370
    25
100
AcDbLine
 10
257.879807
 20
-192.51407
 30
0.0
 11
257.879807
 21
-172.51407
 31
0.0
  0
LINE
  5
5BB
100
AcDbEntity
  8
2
370
    50
100
AcDbLine
 10
262.879807
 20
-172.01407
 30
0.0
 11
258.379807
 21
-172.01407
 31
0.0
  0
LINE
  5
5BC
100
AcDbEntity
  8
2
370
    50
100
AcDbLine
 10
257.379807
 20
-172.01407
 30
0.0
 11
253.379807
 21
-172.01407
 31
0.0
  0
LINE
  5
5BD
100
AcDbEntity
  8
2
370
    50
100
AcDbLine
 10
257.379807
 20
-172.01407
 30
0.0
 11
257.379807
 21
-193.01407
 31
0.0
  0
LINE
  5
5BE
100
AcDbEntity
  8
2
370
    50
100
AcDbLine
 10
258.379807
 20
-172.01407
 30
0.0
 11
258.379807
 21
-193.01407
 31
0.0
  0
LINE
  5
5BF
100
AcDbEntity
  8
2
370
    50
100
AcDbLine
 10
302.379507
 20
-150.513894
 30
0.0
 11
279.379506
 21
-150.513894
 31
0.0
  0
LINE
  5
5C0
100
AcDbEntity
  8
2
370
    50
100
AcDbLine
 10
279.379506
 20
-148.713894
 30
0.0
 11
279.379506
 21
-152.513779
 31
0.0
  0
LINE
  5
5C1
100
AcDbEntity
  8
2
370
    25
100
AcDbLine
 10
280.079506
 20
-150.513894
 30
0.0
 11
280.079506
 21
-152.513779
 31
0.0
  0
LINE
  5
5C2
100
AcDbEntity
  8
2
370
    50
100
AcDbLine
 10
279.579506
 20
-148.513894
 30
0.0
 11
279.379506
 21
-148.713894
 31
0.0
  0
LINE
  5
5C3
100
AcDbEntity
  8
2
370
    50
100
AcDbLine
 10
280.079506
 20
-150.513894
 30
0.0
 11
279.379506
 21
-149.813894
 31
0.0
  0
LINE
  5
5C4
100
AcDbEntity
  8
2
370
    25
100
AcDbLine
 10
302.379507
 20
-148.713894
 30
0.0
 11
279.379506
 21
-148.713894
 31
0.0
  0
LINE
  5
5C5
100
AcDbEntity
  8
2
370
    50
100
AcDbLine
 10
273.879807
 20
-195.26407
 30
0.0
 11
273.879807
 21
-169.76407
 31
0.0
  0
LINE
  5
5C6
100
AcDbEntity
  8
2
370
    50
100
AcDbLine
 10
252.879807
 20
-192.51407
 30
0.0
 11
252.879807
 21
-172.51407
 31
0.0
  0
POINT
  5
5C7
100
AcDbEntity
  8
2
370
    50
100
AcDbPoint
 10
290.879506
 20
-182.51407
 30
0.0
  0
LINE
  5
5C8
100
AcDbEntity
  8
2
370
    50
100
AcDbLine
 10
302.179507
 20
-148.513894
 30
0.0
 11
302.379507
 21
-148.713894
 31
0.0
  0
LINE
  5
5C9
100
AcDbEntity
  8
2
370
    50
100
AcDbLine
 10
302.379507
 20
-148.713894
 30
0.0
 11
302.379507
 21
-152.513779
 31
0.0
  0
LINE
  5
5CA
100
AcDbEntity
  8
2
370
    50
100
AcDbLine
 10
301.679507
 20
-150.513894
 30
0.0
 11
302.379507
 21
-149.813894
 31
0.0
  0
LINE
  5
5CB
100
AcDbEntity
  8
2
370
    25
100
AcDbLine
 10
301.679507
 20
-150.513894
 30
0.0
 11
301.679507
 21
-152.513779
 31
0.0
  0
LINE
  5
5CC
100
AcDbEntity
  8
2
370
    50
100
AcDbLine
 10
279.579506
 20
-148.513894
 30
0.0
 11
302.179507
 21
-148.513894
 31
0.0
  0
POINT
  5
5CD
100
AcDbEntity
  8
2
370
    50
100
AcDbPoint
 10
252.879807
 20
-182.51407
 30
0.0
  0
LINE
  5
5CE
100
AcDbEntity
  8
2
370
    50
100
AcDbLine
 10
253.379807
 20
-193.01407
 30
0.0
 11
252.879807
 21
-192.51407
 31
0.0
  0
LINE
  5
5CF
100
AcDbEntity
  8
2
370
    50
100
AcDbLine
 10
257.379807
 20
-193.01407
 30
0.0
 11
253.379807
 21
-193.01407
 31
0.0
  0
LINE
  5
5D0
100
AcDbEntity
  8
2
370
    50
100
AcDbLine
 10
257.879807
 20
-192.51407
 30
0.0
 11
257.379807
 21
-193.01407
 31
0.0
  0
LINE
  5
5D1
100
AcDbEntity
  8
2
370
    50
100
AcDbLine
 10
257.879807
 20
-192.51407
 30
0.0
 11
258.379807
 21
-193.01407
 31
0.0
  0
LINE
  5
5D2
100
AcDbEntity
  8
2
370
    50
100
AcDbLine
 10
262.879807
 20
-193.01407
 30
0.0
 11
258.379807
 21
-193.01407
 31
0.0
  0
LINE
  5
5D3
100
AcDbEntity
  8
2
370
    50
100
AcDbLine
 10
262.879807
 20
-195.26407
 30
0.0
 11
264.611858
 21
-196.26407
 31
0.0
  0
LINE
  5
5D4
100
AcDbEntity
  8
2
370
    50
100
AcDbLine
 10
262.879807
 20
-195.26407
 30
0.0
 11
264.611858
 21
-196.26407
 31
0.0
  0
LINE
  5
5D5
100
AcDbEntity
  8
2
370
    50
100
AcDbLine
 10
264.611858
 20
-196.26407
 30
0.0
 11
272.147756
 21
-196.26407
 31
0.0
  0
LINE
  5
5D6
100
AcDbEntity
  8
2
370
    50
100
AcDbLine
 10
264.611858
 20
-196.011959
 30
0.0
 11
272.147756
 21
-196.011959
 31
0.0
  0
LINE
  5
5D7
100
AcDbEntity
  8
2
370
    50
100
AcDbLine
 10
264.611858
 20
-196.26407
 30
0.0
 11
264.611858
 21
-196.011959
 31
0.0
  0
ARC
  5
5D8
100
AcDbEntity
  8
2
370
    50
100
AcDbCircle
 10
265.892854
 20
-193.7724
 30
0.0
 40
2.580034
100
AcDbArc
 50
119.768942
 51
240.231058
  0
LINE
  5
5D9
100
AcDbEntity
  8
2
370
    50
100
AcDbLine
 10
264.611858
 20
-196.011959
 30
0.0
 11
272.147756
 21
-196.011959
 31
0.0
  0
LINE
  5
5DA
100
AcDbEntity
  8
2
370
    50
100
AcDbLine
 10
272.147756
 20
-196.26407
 30
0.0
 11
272.147756
 21
-196.011959
 31
0.0
  0
ARC
  5
5DB
100
AcDbEntity
  8
2
370
    50
100
AcDbCircle
 10
270.86676
 20
-193.7724
 30
0.0
 40
2.580034
100
AcDbArc
 50
299.768942
 51
60.231058
  0
LINE
  5
5DC
100
AcDbEntity
  8
2
370
    50
100
AcDbLine
 10
273.879807
 20
-195.26407
 30
0.0
 11
272.147756
 21
-196.26407
 31
0.0
  0
LINE
  5
5DD
100
AcDbEntity
  8
2
370
    50
100
AcDbLine
 10
264.611858
 20
-191.532841
 30
0.0
 11
272.147756
 21
-191.532841
 31
0.0
  0
LINE
  5
5DE
100
AcDbEntity
  8
2
370
    50
100
AcDbLine
 10
264.611858
 20
-191.532841
 30
0.0
 11
264.611858
 21
-186.993188
 31
0.0
  0
LINE
  5
5DF
100
AcDbEntity
  8
2
370
    50
100
AcDbLine
 10
272.147756
 20
-191.532841
 30
0.0
 11
272.147756
 21
-186.993188
 31
0.0
  0
LINE
  5
5E0
100
AcDbEntity
  8
2
370
    50
100
AcDbLine
 10
264.611858
 20
-186.993188
 30
0.0
 11
272.147756
 21
-186.993188
 31
0.0
  0
LINE
  5
5E1
100
AcDbEntity
  8
2
370
    50
100
AcDbLine
 10
274.880303
 20
-171.013894
 30
0.0
 11
274.880303
 21
-194.013894
 31
0.0
  0
POINT
  5
5E2
100
AcDbEntity
  8
2
370
    50
100
AcDbPoint
 10
290.879506
 20
-148.513894
 30
0.0
  0
POINT
  5
5E3
100
AcDbEntity
  8
2
370
    50
100
AcDbPoint
 10
290.879506
 20
-120.67811
 30
0.0
  0
LINE
  5
5E4
100
AcDbEntity
  8
2
370
    50
100
AcDbLine
 10
252.880316
 20
-190.36514
 30
0.0
 11
252.880316
 21
-174.663429
 31
0.0
  0
LINE
  5
5E5
100
AcDbEntity
  8
2
370
    50
100
AcDbLine
 10
239.430201
 20
-174.513769
 30
0.0
 11
245.530201
 21
-174.513769
 31
0.0
  0
LINE
  5
5E6
100
AcDbEntity
  8
2
370
    50
100
AcDbLine
 10
239.430201
 20
-190.513769
 30
0.0
 11
245.530201
 21
-190.513769
 31
0.0
  0
LINE
  5
5E7
100
AcDbEntity
  8
2
370
    50
100
AcDbLine
 10
239.230201
 20
-174.713769
 30
0.0
 11
239.230201
 21
-190.313769
 31
0.0
  0
LINE
  5
5E8
100
AcDbEntity
  8
2
370
    50
100
AcDbLine
 10
245.730201
 20
-174.713769
 30
0.0
 11
245.730201
 21
-190.313769
 31
0.0
  0
LINE
  5
5E9
100
AcDbEntity
  8
2
370
    50
100
AcDbLine
 10
207.42483
 20
-175.887324
 30
0.0
 11
204.035954
 21
-189.287324
 31
0.0
  0
LINE
  5
5EA
100
AcDbEntity
  8
2
370
    50
100
AcDbLine
 10
207.241111
 20
-176.613769
 30
0.0
 11
209.304079
 21
-176.613769
 31
0.0
  0
LINE
  5
5EB
100
AcDbEntity
  8
2
370
    50
100
AcDbLine
 10
204.256877
 20
-188.413769
 30
0.0
 11
206.319844
 21
-188.413769
 31
0.0
  0
LINE
  5
5EC
100
AcDbEntity
  8
2
370
    50
100
AcDbLine
 10
239.230201
 20
-174.713769
 30
0.0
 11
239.430201
 21
-174.513769
 31
0.0
  0
LINE
  5
5ED
100
AcDbEntity
  8
2
370
    50
100
AcDbLine
 10
245.530201
 20
-174.513769
 30
0.0
 11
245.730201
 21
-174.713769
 31
0.0
  0
LINE
  5
5EE
100
AcDbEntity
  8
2
370
    25
100
AcDbLine
 10
239.430201
 20
-174.513769
 30
0.0
 11
239.430201
 21
-190.513769
 31
0.0
  0
LINE
  5
5EF
100
AcDbEntity
  8
2
370
    25
100
AcDbLine
 10
245.530201
 20
-174.513769
 30
0.0
 11
245.530201
 21
-190.513769
 31
0.0
  0
LINE
  5
5F0
100
AcDbEntity
  8
2
370
    50
100
AcDbLine
 10
245.730201
 20
-190.313769
 30
0.0
 11
245.530201
 21
-190.513769
 31
0.0
  0
LINE
  5
5F1
100
AcDbEntity
  8
2
370
    50
100
AcDbLine
 10
246.030201
 20
-190.513769
 30
0.0
 11
252.879734
 21
-190.513769
 31
0.0
  0
LINE
  5
5F2
100
AcDbEntity
  8
2
370
    50
100
AcDbLine
 10
246.030201
 20
-174.513769
 30
0.0
 11
252.879734
 21
-174.513769
 31
0.0
  0
LINE
  5
5F3
100
AcDbEntity
  8
2
370
    50
100
AcDbLine
 10
246.030201
 20
-190.513769
 30
0.0
 11
245.730201
 21
-190.213769
 31
0.0
  0
LINE
  5
5F4
100
AcDbEntity
  8
2
370
    50
100
AcDbLine
 10
246.030201
 20
-174.513769
 30
0.0
 11
245.730201
 21
-174.813769
 31
0.0
  0
LINE
  5
5F5
100
AcDbEntity
  8
2
370
    25
100
AcDbLine
 10
246.030201
 20
-181.513769
 30
0.0
 11
252.879734
 21
-181.513769
 31
0.0
  0
LINE
  5
5F6
100
AcDbEntity
  8
2
370
    25
100
AcDbLine
 10
246.030201
 20
-179.513769
 30
0.0
 11
252.879734
 21
-179.513769
 31
0.0
  0
LINE
  5
5F7
100
AcDbEntity
  8
2
370
    25
100
AcDbLine
 10
246.030201
 20
-178.013769
 30
0.0
 11
252.879734
 21
-178.013769
 31
0.0
  0
LINE
  5
5F8
100
AcDbEntity
  8
2
370
    25
100
AcDbLine
 10
246.030201
 20
-177.013769
 30
0.0
 11
252.879734
 21
-177.013769
 31
0.0
  0
LINE
  5
5F9
100
AcDbEntity
  8
2
370
    25
100
AcDbLine
 10
246.030201
 20
-176.013769
 30
0.0
 11
252.879734
 21
-176.013769
 31
0.0
  0
LINE
  5
5FA
100
AcDbEntity
  8
2
370
    25
100
AcDbLine
 10
246.030201
 20
-175.013769
 30
0.0
 11
252.879734
 21
-175.013769
 31
0.0
  0
LINE
  5
5FB
100
AcDbEntity
  8
2
370
    50
100
AcDbLine
 10
246.030201
 20
-174.513769
 30
0.0
 11
246.030201
 21
-190.513769
 31
0.0
  0
LINE
  5
5FC
100
AcDbEntity
  8
2
370
    25
100
AcDbLine
 10
246.030201
 20
-183.513769
 30
0.0
 11
252.879734
 21
-183.513769
 31
0.0
  0
LINE
  5
5FD
100
AcDbEntity
  8
2
370
    25
100
AcDbLine
 10
246.030201
 20
-185.513769
 30
0.0
 11
252.879734
 21
-185.513769
 31
0.0
  0
LINE
  5
5FE
100
AcDbEntity
  8
2
370
    25
100
AcDbLine
 10
246.030201
 20
-187.013769
 30
0.0
 11
252.879734
 21
-187.013769
 31
0.0
  0
LINE
  5
5FF
100
AcDbEntity
  8
2
370
    25
100
AcDbLine
 10
246.030201
 20
-188.013769
 30
0.0
 11
252.879734
 21
-188.013769
 31
0.0
  0
LINE
  5
600
100
AcDbEntity
  8
2
370
    25
100
AcDbLine
 10
246.030201
 20
-189.013769
 30
0.0
 11
252.879734
 21
-189.013769
 31
0.0
  0
LINE
  5
601
100
AcDbEntity
  8
2
370
    25
100
AcDbLine
 10
246.030201
 20
-190.013769
 30
0.0
 11
252.879734
 21
-190.013769
 31
0.0
  0
LINE
  5
602
100
AcDbEntity
  8
2
370
    50
100
AcDbLine
 10
252.879734
 20
-192.513769
 30
0.0
 11
252.879734
 21
-172.513769
 31
0.0
  0
POINT
  5
603
100
AcDbEntity
  8
2
370
    50
100
AcDbPoint
 10
252.879734
 20
-182.513769
 30
0.0
  0
LINE
  5
604
100
AcDbEntity
  8
2
370
    50
100
AcDbLine
 10
204.367582
 20
-175.740214
 30
0.0
 11
200.978706
 21
-189.140214
 31
0.0
  0
ARC
  5
605
100
AcDbEntity
  8
2
370
    50
100
AcDbCircle
 10
204.658425
 20
-175.813769
 30
0.0
 40
0.3
100
AcDbArc
 50
90.0
 51
165.807415
  0
LINE
  5
606
100
AcDbEntity
  8
2
370
    50
100
AcDbLine
 10
204.658425
 20
-175.513769
 30
0.0
 11
207.133987
 21
-175.513769
 31
0.0
  0
ARC
  5
607
100
AcDbEntity
  8
2
370
    50
100
AcDbCircle
 10
207.133987
 20
-175.813769
 30
0.0
 40
0.3
100
AcDbArc
 50
345.807415
 51
90.0
  0
ARC
  5
608
100
AcDbEntity
  8
2
370
    50
100
AcDbCircle
 10
201.269549
 20
-189.213769
 30
0.0
 40
0.3
100
AcDbArc
 50
165.807415
 51
270.0
  0
LINE
  5
609
100
AcDbEntity
  8
2
370
    50
100
AcDbLine
 10
201.269549
 20
-189.513769
 30
0.0
 11
203.74511
 21
-189.513769
 31
0.0
  0
ARC
  5
60A
100
AcDbEntity
  8
2
370
    50
100
AcDbCircle
 10
203.74511
 20
-189.213769
 30
0.0
 40
0.3
100
AcDbArc
 50
270.0
 51
345.807415
  0
LINE
  5
60B
100
AcDbEntity
  8
2
370
    50
100
AcDbLine
 10
202.26741
 20
-175.887324
 30
0.0
 11
198.878534
 21
-189.287324
 31
0.0
  0
LINE
  5
60C
100
AcDbEntity
  8
2
370
    50
100
AcDbLine
 10
199.210163
 20
-175.740214
 30
0.0
 11
195.821287
 21
-189.140214
 31
0.0
  0
LINE
  5
60D
100
AcDbEntity
  8
2
370
    50
100
AcDbLine
 10
196.11213
 20
-189.513769
 30
0.0
 11
198.587691
 21
-189.513769
 31
0.0
  0
LINE
  5
60E
100
AcDbEntity
  8
2
370
    50
100
AcDbLine
 10
199.501006
 20
-175.513769
 30
0.0
 11
201.976567
 21
-175.513769
 31
0.0
  0
ARC
  5
60F
100
AcDbEntity
  8
2
370
    50
100
AcDbCircle
 10
199.501006
 20
-175.813769
 30
0.0
 40
0.3
100
AcDbArc
 50
90.0
 51
165.807415
  0
ARC
  5
610
100
AcDbEntity
  8
2
370
    50
100
AcDbCircle
 10
201.976567
 20
-175.813769
 30
0.0
 40
0.3
100
AcDbArc
 50
345.807415
 51
90.0
  0
ARC
  5
611
100
AcDbEntity
  8
2
370
    50
100
AcDbCircle
 10
198.587691
 20
-189.213769
 30
0.0
 40
0.3
100
AcDbArc
 50
270.0
 51
345.807415
  0
ARC
  5
612
100
AcDbEntity
  8
2
370
    50
100
AcDbCircle
 10
196.11213
 20
-189.213769
 30
0.0
 40
0.3
100
AcDbArc
 50
165.807415
 51
270.0
  0
LINE
  5
613
100
AcDbEntity
  8
2
370
    50
100
AcDbLine
 10
202.083691
 20
-176.613769
 30
0.0
 11
204.146659
 21
-176.613769
 31
0.0
  0
LINE
  5
614
100
AcDbEntity
  8
2
370
    50
100
AcDbLine
 10
199.099457
 20
-188.413769
 30
0.0
 11
201.162425
 21
-188.413769
 31
0.0
  0
LINE
  5
615
100
AcDbEntity
  8
2
370
    50
100
AcDbLine
 10
196.926272
 20
-176.613769
 30
0.0
 11
198.98924
 21
-176.613769
 31
0.0
  0
LINE
  5
616
100
AcDbEntity
  8
2
370
    50
100
AcDbLine
 10
193.942038
 20
-188.413769
 30
0.0
 11
196.005005
 21
-188.413769
 31
0.0
  0
LINE
  5
617
100
AcDbEntity
  8
2
370
    50
100
AcDbLine
 10
212.582249
 20
-175.887324
 30
0.0
 11
209.193373
 21
-189.287324
 31
0.0
  0
ARC
  5
618
100
AcDbEntity
  8
2
370
    50
100
AcDbCircle
 10
208.90253
 20
-189.213769
 30
0.0
 40
0.3
100
AcDbArc
 50
270.0
 51
345.807415
  0
LINE
  5
619
100
AcDbEntity
  8
2
370
    50
100
AcDbLine
 10
206.426969
 20
-189.513769
 30
0.0
 11
208.90253
 21
-189.513769
 31
0.0
  0
ARC
  5
61A
100
AcDbEntity
  8
2
370
    50
100
AcDbCircle
 10
206.426969
 20
-189.213769
 30
0.0
 40
0.3
100
AcDbArc
 50
165.807415
 51
270.0
  0
LINE
  5
61B
100
AcDbEntity
  8
2
370
    50
100
AcDbLine
 10
209.525002
 20
-175.740214
 30
0.0
 11
206.136125
 21
-189.140214
 31
0.0
  0
ARC
  5
61C
100
AcDbEntity
  8
2
370
    50
100
AcDbCircle
 10
209.815845
 20
-175.813769
 30
0.0
 40
0.3
100
AcDbArc
 50
90.0
 51
165.807415
  0
LINE
  5
61D
100
AcDbEntity
  8
2
370
    50
100
AcDbLine
 10
209.815845
 20
-175.513769
 30
0.0
 11
212.291406
 21
-175.513769
 31
0.0
  0
ARC
  5
61E
100
AcDbEntity
  8
2
370
    50
100
AcDbCircle
 10
212.291406
 20
-175.813769
 30
0.0
 40
0.3
100
AcDbArc
 50
345.807415
 51
90.0
  0
LINE
  5
61F
100
AcDbEntity
  8
2
370
    50
100
AcDbLine
 10
212.39853
 20
-176.613769
 30
0.0
 11
214.461498
 21
-176.613769
 31
0.0
  0
LINE
  5
620
100
AcDbEntity
  8
2
370
    50
100
AcDbLine
 10
209.414296
 20
-188.413769
 30
0.0
 11
211.477264
 21
-188.413769
 31
0.0
  0
LINE
  5
621
100
AcDbEntity
  8
2
370
    50
100
AcDbLine
 10
219.544679
 20
-168.750107
 30
0.0
 11
212.189222
 21
-197.83442
 31
0.0
  0
LINE
  5
622
100
AcDbEntity
  8
2
370
    50
100
AcDbLine
 10
214.682421
 20
-175.740214
 30
0.0
 11
211.293545
 21
-189.140214
 31
0.0
  0
ARC
  5
623
100
AcDbEntity
  8
2
370
    50
100
AcDbCircle
 10
214.973264
 20
-175.813769
 30
0.0
 40
0.3
100
AcDbArc
 50
90.0
 51
165.807415
  0
LINE
  5
624
100
AcDbEntity
  8
2
370
    50
100
AcDbLine
 10
214.973264
 20
-175.513769
 30
0.0
 11
217.448826
 21
-175.513769
 31
0.0
  0
ARC
  5
625
100
AcDbEntity
  8
2
370
    50
100
AcDbCircle
 10
217.448826
 20
-175.813769
 30
0.0
 40
0.3
100
AcDbArc
 50
345.807415
 51
90.0
  0
ARC
  5
626
100
AcDbEntity
  8
2
370
    50
100
AcDbCircle
 10
211.584388
 20
-189.213769
 30
0.0
 40
0.3
100
AcDbArc
 50
165.807415
 51
270.0
  0
LINE
  5
627
100
AcDbEntity
  8
2
370
    50
100
AcDbLine
 10
211.584388
 20
-189.513769
 30
0.0
 11
214.059949
 21
-189.513769
 31
0.0
  0
ARC
  5
628
100
AcDbEntity
  8
2
370
    50
100
AcDbCircle
 10
214.059949
 20
-189.213769
 30
0.0
 40
0.3
100
AcDbArc
 50
270.0
 51
345.807415
  0
LINE
  5
629
100
AcDbEntity
  8
2
370
    50
100
AcDbLine
 10
222.897088
 20
-175.887324
 30
0.0
 11
219.508212
 21
-189.287324
 31
0.0
  0
LINE
  5
62A
100
AcDbEntity
  8
2
370
    50
100
AcDbLine
 10
222.713369
 20
-176.613769
 30
0.0
 11
224.776337
 21
-176.613769
 31
0.0
  0
LINE
  5
62B
100
AcDbEntity
  8
2
370
    50
100
AcDbLine
 10
219.729135
 20
-188.413769
 30
0.0
 11
221.792103
 21
-188.413769
 31
0.0
  0
LINE
  5
62C
100
AcDbEntity
  8
2
370
    50
100
AcDbLine
 10
221.48363
 20
-169.240485
 30
0.0
 11
214.128172
 21
-198.324797
 31
0.0
  0
ARC
  5
62D
100
AcDbEntity
  8
2
370
    50
100
AcDbCircle
 10
220.130684
 20
-175.813769
 30
0.0
 40
0.3
100
AcDbArc
 50
90.0
 51
165.807415
  0
LINE
  5
62E
100
AcDbEntity
  8
2
370
    50
100
AcDbLine
 10
220.130684
 20
-175.513769
 30
0.0
 11
222.606245
 21
-175.513769
 31
0.0
  0
ARC
  5
62F
100
AcDbEntity
  8
2
370
    50
100
AcDbCircle
 10
222.606245
 20
-175.813769
 30
0.0
 40
0.3
100
AcDbArc
 50
345.807415
 51
90.0
  0
ARC
  5
630
100
AcDbEntity
  8
2
370
    50
100
AcDbCircle
 10
216.741808
 20
-189.213769
 30
0.0
 40
0.3
100
AcDbArc
 50
165.807415
 51
270.0
  0
LINE
  5
631
100
AcDbEntity
  8
2
370
    50
100
AcDbLine
 10
216.741808
 20
-189.513769
 30
0.0
 11
219.217369
 21
-189.513769
 31
0.0
  0
ARC
  5
632
100
AcDbEntity
  8
2
370
    50
100
AcDbCircle
 10
219.217369
 20
-189.213769
 30
0.0
 40
0.3
100
AcDbArc
 50
270.0
 51
345.807415
  0
LINE
  5
633
100
AcDbEntity
  8
2
370
    50
100
AcDbLine
 10
228.054508
 20
-175.887324
 30
0.0
 11
224.665631
 21
-189.287324
 31
0.0
  0
LINE
  5
634
100
AcDbEntity
  8
2
370
    50
100
AcDbLine
 10
227.870789
 20
-176.613769
 30
0.0
 11
229.933756
 21
-176.613769
 31
0.0
  0
LINE
  5
635
100
AcDbEntity
  8
2
370
    50
100
AcDbLine
 10
224.886554
 20
-188.413769
 30
0.0
 11
226.949522
 21
-188.413769
 31
0.0
  0
LINE
  5
636
100
AcDbEntity
  8
2
370
    50
100
AcDbLine
 10
224.99726
 20
-175.740214
 30
0.0
 11
221.608384
 21
-189.140214
 31
0.0
  0
ARC
  5
637
100
AcDbEntity
  8
2
370
    50
100
AcDbCircle
 10
225.288103
 20
-175.813769
 30
0.0
 40
0.3
100
AcDbArc
 50
90.0
 51
165.807415
  0
LINE
  5
638
100
AcDbEntity
  8
2
370
    50
100
AcDbLine
 10
225.288103
 20
-175.513769
 30
0.0
 11
227.763665
 21
-175.513769
 31
0.0
  0
ARC
  5
639
100
AcDbEntity
  8
2
370
    50
100
AcDbCircle
 10
227.763665
 20
-175.813769
 30
0.0
 40
0.3
100
AcDbArc
 50
345.807415
 51
90.0
  0
ARC
  5
63A
100
AcDbEntity
  8
2
370
    50
100
AcDbCircle
 10
221.899227
 20
-189.213769
 30
0.0
 40
0.3
100
AcDbArc
 50
165.807415
 51
270.0
  0
LINE
  5
63B
100
AcDbEntity
  8
2
370
    50
100
AcDbLine
 10
221.899227
 20
-189.513769
 30
0.0
 11
224.374788
 21
-189.513769
 31
0.0
  0
ARC
  5
63C
100
AcDbEntity
  8
2
370
    50
100
AcDbCircle
 10
224.374788
 20
-189.213769
 30
0.0
 40
0.3
100
AcDbArc
 50
270.0
 51
345.807415
  0
LINE
  5
63D
100
AcDbEntity
  8
2
370
    50
100
AcDbLine
 10
233.211927
 20
-175.887324
 30
0.0
 11
229.823051
 21
-189.287324
 31
0.0
  0
LINE
  5
63E
100
AcDbEntity
  8
2
370
    50
100
AcDbLine
 10
233.028208
 20
-176.613769
 30
0.0
 11
235.091176
 21
-176.613769
 31
0.0
  0
LINE
  5
63F
100
AcDbEntity
  8
2
370
    50
100
AcDbLine
 10
230.043974
 20
-188.413769
 30
0.0
 11
232.106942
 21
-188.413769
 31
0.0
  0
LINE
  5
640
100
AcDbEntity
  8
2
370
    50
100
AcDbLine
 10
230.15468
 20
-175.740214
 30
0.0
 11
226.765803
 21
-189.140214
 31
0.0
  0
ARC
  5
641
100
AcDbEntity
  8
2
370
    50
100
AcDbCircle
 10
230.445523
 20
-175.813769
 30
0.0
 40
0.3
100
AcDbArc
 50
90.0
 51
165.807415
  0
LINE
  5
642
100
AcDbEntity
  8
2
370
    50
100
AcDbLine
 10
230.445523
 20
-175.513769
 30
0.0
 11
232.921084
 21
-175.513769
 31
0.0
  0
ARC
  5
643
100
AcDbEntity
  8
2
370
    50
100
AcDbCircle
 10
232.921084
 20
-175.813769
 30
0.0
 40
0.3
100
AcDbArc
 50
345.807415
 51
90.0
  0
ARC
  5
644
100
AcDbEntity
  8
2
370
    50
100
AcDbCircle
 10
227.056646
 20
-189.213769
 30
0.0
 40
0.3
100
AcDbArc
 50
165.807415
 51
270.0
  0
LINE
  5
645
100
AcDbEntity
  8
2
370
    50
100
AcDbLine
 10
227.056646
 20
-189.513769
 30
0.0
 11
229.532208
 21
-189.513769
 31
0.0
  0
ARC
  5
646
100
AcDbEntity
  8
2
370
    50
100
AcDbCircle
 10
229.532208
 20
-189.213769
 30
0.0
 40
0.3
100
AcDbArc
 50
270.0
 51
345.807415
  0
LINE
  5
647
100
AcDbEntity
  8
2
370
    50
100
AcDbLine
 10
238.369347
 20
-175.887324
 30
0.0
 11
234.98047
 21
-189.287324
 31
0.0
  0
LINE
  5
648
100
AcDbEntity
  8
2
370
    50
100
AcDbLine
 10
238.185628
 20
-176.613769
 30
0.0
 11
239.230201
 21
-176.613769
 31
0.0
  0
LINE
  5
649
100
AcDbEntity
  8
2
370
    50
100
AcDbLine
 10
235.201393
 20
-188.413769
 30
0.0
 11
237.264361
 21
-188.413769
 31
0.0
  0
LINE
  5
64A
100
AcDbEntity
  8
2
370
    50
100
AcDbLine
 10
235.312099
 20
-175.740214
 30
0.0
 11
231.923223
 21
-189.140214
 31
0.0
  0
ARC
  5
64B
100
AcDbEntity
  8
2
370
    50
100
AcDbCircle
 10
235.602942
 20
-175.813769
 30
0.0
 40
0.3
100
AcDbArc
 50
90.0
 51
165.807415
  0
LINE
  5
64C
100
AcDbEntity
  8
2
370
    50
100
AcDbLine
 10
235.602942
 20
-175.513769
 30
0.0
 11
238.078503
 21
-175.513769
 31
0.0
  0
ARC
  5
64D
100
AcDbEntity
  8
2
370
    50
100
AcDbCircle
 10
238.078503
 20
-175.813769
 30
0.0
 40
0.3
100
AcDbArc
 50
345.807415
 51
90.0
  0
ARC
  5
64E
100
AcDbEntity
  8
2
370
    50
100
AcDbCircle
 10
232.214066
 20
-189.213769
 30
0.0
 40
0.3
100
AcDbArc
 50
165.807415
 51
270.0
  0
LINE
  5
64F
100
AcDbEntity
  8
2
370
    50
100
AcDbLine
 10
232.214066
 20
-189.513769
 30
0.0
 11
234.689627
 21
-189.513769
 31
0.0
  0
ARC
  5
650
100
AcDbEntity
  8
2
370
    50
100
AcDbCircle
 10
234.689627
 20
-189.213769
 30
0.0
 40
0.3
100
AcDbArc
 50
270.0
 51
345.807415
  0
LINE
  5
651
100
AcDbEntity
  8
2
370
    50
100
AcDbLine
 10
239.230201
 20
-180.640615
 30
0.0
 11
237.080642
 21
-189.140214
 31
0.0
  0
ARC
  5
652
100
AcDbEntity
  8
2
370
    50
100
AcDbCircle
 10
237.371485
 20
-189.213769
 30
0.0
 40
0.3
100
AcDbArc
 50
165.807415
 51
270.0
  0
LINE
  5
653
100
AcDbEntity
  8
2
370
    50
100
AcDbLine
 10
237.371485
 20
-189.513769
 30
0.0
 11
239.230201
 21
-189.513769
 31
0.0
  0
LINE
  5
654
100
AcDbEntity
  8
2
370
    50
100
AcDbLine
 10
239.230201
 20
-190.313769
 30
0.0
 11
239.430201
 21
-190.513769
 31
0.0
  0
LINE
  5
655
100
AcDbEntity
  8
2
370
    50
100
AcDbLine
 10
219.544736
 20
-168.750121
 30
0.0
 11
221.48363
 21
-169.240485
 31
0.0
  0
LINE
  5
656
100
AcDbEntity
  8
2
370
    50
100
AcDbLine
 10
212.189068
 20
-197.834381
 30
0.0
 11
214.128172
 21
-198.324797
 31
0.0
  0
POINT
  5
657
100
AcDbEntity
  8
2
370
    50
100
AcDbPoint
 10
290.879506
 20
-182.51407
 30
0.0
  0
POINT
  5
658
100
AcDbEntity
  8
2
370
    50
100
AcDbPoint
 10
290.880284
 20
-97.17811
 30
0.0
  0
POINT
  5
659
100
AcDbEntity
  8
2
370
    50
100
AcDbPoint
 10
290.880284
 20
-97.17811
 30
0.0
  0
LINE
  5
65A
100
AcDbEntity
  8
2
370
    50
100
AcDbLine
 10
-170.584316
 20
-82.450195
 30
0.0
 11
-170.584316
 21
-100.678255
 31
0.0
  0
LINE
  5
65B
100
AcDbEntity
  8
2
370
    50
100
AcDbLine
 10
-176.584316
 20
-84.732643
 30
0.0
 11
-176.584316
 21
-90.678255
 31
0.0
  0
LINE
  5
65C
100
AcDbEntity
  8
2
370
    50
100
AcDbLine
 10
-179.784539
 20
-66.126516
 30
0.0
 11
-179.784539
 21
-65.112611
 31
0.0
  0
LINE
  5
65D
100
AcDbEntity
  8
2
370
    50
100
AcDbLine
 10
-167.384539
 20
-64.051484
 30
0.0
 11
-167.384539
 21
-63.037562
 31
0.0
  0
LINE
  5
65E
100
AcDbEntity
  8
2
370
    50
100
AcDbLine
 10
-180.584539
 20
-65.010235
 30
0.0
 11
-180.584539
 21
-62.374082
 31
0.0
  0
LINE
  5
65F
100
AcDbEntity
  8
2
370
    50
100
AcDbLine
 10
-180.351529
 20
-65.207492
 30
0.0
 11
-166.751529
 21
-62.931633
 31
0.0
  0
ARC
  5
660
100
AcDbEntity
  8
2
370
    50
100
AcDbCircle
 10
-180.384539
 20
-65.010235
 30
0.0
 40
0.2
100
AcDbArc
 50
180.0
 51
279.5
  0
LINE
  5
661
100
AcDbEntity
  8
2
370
    50
100
AcDbLine
 10
-166.584539
 20
-62.734376
 30
0.0
 11
-166.584539
 21
-60.098222
 31
0.0
  0
ARC
  5
662
100
AcDbEntity
  8
2
370
    50
100
AcDbCircle
 10
-166.784539
 20
-62.734376
 30
0.0
 40
0.2
100
AcDbArc
 50
279.5
 51
360.0
  0
ARC
  5
663
100
AcDbEntity
  8
2
370
    50
100
AcDbCircle
 10
-166.784539
 20
-60.098222
 30
0.0
 40
0.2
100
AcDbArc
 50
0.0
 51
99.5
  0
LINE
  5
664
100
AcDbEntity
  8
2
370
    50
100
AcDbLine
 10
-166.817548
 20
-59.900586
 30
0.0
 11
-180.417551
 21
-62.176844
 31
0.0
  0
LINE
  5
665
100
AcDbEntity
  8
2
370
    50
100
AcDbLine
 10
-179.784539
 20
-70.182516
 30
0.0
 11
-179.784539
 21
-69.168611
 31
0.0
  0
LINE
  5
666
100
AcDbEntity
  8
2
370
    50
100
AcDbLine
 10
-167.384539
 20
-68.107484
 30
0.0
 11
-167.384539
 21
-67.093562
 31
0.0
  0
LINE
  5
667
100
AcDbEntity
  8
2
370
    50
100
AcDbLine
 10
-180.584539
 20
-69.066235
 30
0.0
 11
-180.584539
 21
-66.430082
 31
0.0
  0
LINE
  5
668
100
AcDbEntity
  8
2
370
    50
100
AcDbLine
 10
-180.351529
 20
-69.263492
 30
0.0
 11
-166.751529
 21
-66.987633
 31
0.0
  0
ARC
  5
669
100
AcDbEntity
  8
2
370
    50
100
AcDbCircle
 10
-180.384539
 20
-69.066235
 30
0.0
 40
0.2
100
AcDbArc
 50
180.0
 51
279.5
  0
LINE
  5
66A
100
AcDbEntity
  8
2
370
    50
100
AcDbLine
 10
-166.584539
 20
-66.790376
 30
0.0
 11
-166.584539
 21
-64.154222
 31
0.0
  0
ARC
  5
66B
100
AcDbEntity
  8
2
370
    50
100
AcDbCircle
 10
-166.784539
 20
-66.790376
 30
0.0
 40
0.2
100
AcDbArc
 50
279.5
 51
360.0
  0
ARC
  5
66C
100
AcDbEntity
  8
2
370
    50
100
AcDbCircle
 10
-166.784539
 20
-64.154222
 30
0.0
 40
0.2
100
AcDbArc
 50
0.0
 51
99.5
  0
LINE
  5
66D
100
AcDbEntity
  8
2
370
    50
100
AcDbLine
 10
-166.817548
 20
-63.956586
 30
0.0
 11
-180.417551
 21
-66.232844
 31
0.0
  0
LINE
  5
66E
100
AcDbEntity
  8
2
370
    50
100
AcDbLine
 10
-179.784539
 20
-74.238516
 30
0.0
 11
-179.784539
 21
-73.224611
 31
0.0
  0
LINE
  5
66F
100
AcDbEntity
  8
2
370
    50
100
AcDbLine
 10
-167.384539
 20
-72.163484
 30
0.0
 11
-167.384539
 21
-71.149562
 31
0.0
  0
LINE
  5
670
100
AcDbEntity
  8
2
370
    50
100
AcDbLine
 10
-180.584539
 20
-73.122235
 30
0.0
 11
-180.584539
 21
-70.486082
 31
0.0
  0
LINE
  5
671
100
AcDbEntity
  8
2
370
    50
100
AcDbLine
 10
-180.351529
 20
-73.319492
 30
0.0
 11
-166.751529
 21
-71.043633
 31
0.0
  0
ARC
  5
672
100
AcDbEntity
  8
2
370
    50
100
AcDbCircle
 10
-180.384539
 20
-73.122235
 30
0.0
 40
0.2
100
AcDbArc
 50
180.0
 51
279.5
  0
LINE
  5
673
100
AcDbEntity
  8
2
370
    50
100
AcDbLine
 10
-166.584539
 20
-70.846376
 30
0.0
 11
-166.584539
 21
-68.210222
 31
0.0
  0
ARC
  5
674
100
AcDbEntity
  8
2
370
    50
100
AcDbCircle
 10
-166.784539
 20
-70.846376
 30
0.0
 40
0.2
100
AcDbArc
 50
279.5
 51
360.0
  0
ARC
  5
675
100
AcDbEntity
  8
2
370
    50
100
AcDbCircle
 10
-166.784539
 20
-68.210222
 30
0.0
 40
0.2
100
AcDbArc
 50
0.0
 51
99.5
  0
LINE
  5
676
100
AcDbEntity
  8
2
370
    50
100
AcDbLine
 10
-166.817548
 20
-68.012586
 30
0.0
 11
-180.417551
 21
-70.288844
 31
0.0
  0
LINE
  5
677
100
AcDbEntity
  8
2
370
    50
100
AcDbLine
 10
-179.784539
 20
-78.294516
 30
0.0
 11
-179.784539
 21
-77.280611
 31
0.0
  0
LINE
  5
678
100
AcDbEntity
  8
2
370
    50
100
AcDbLine
 10
-167.384539
 20
-76.219484
 30
0.0
 11
-167.384539
 21
-75.205562
 31
0.0
  0
LINE
  5
679
100
AcDbEntity
  8
2
370
    50
100
AcDbLine
 10
-180.584539
 20
-77.178235
 30
0.0
 11
-180.584539
 21
-74.542082
 31
0.0
  0
LINE
  5
67A
100
AcDbEntity
  8
2
370
    50
100
AcDbLine
 10
-180.351529
 20
-77.375492
 30
0.0
 11
-166.751529
 21
-75.099633
 31
0.0
  0
ARC
  5
67B
100
AcDbEntity
  8
2
370
    50
100
AcDbCircle
 10
-180.384539
 20
-77.178235
 30
0.0
 40
0.2
100
AcDbArc
 50
180.0
 51
279.5
  0
LINE
  5
67C
100
AcDbEntity
  8
2
370
    50
100
AcDbLine
 10
-166.584539
 20
-74.902376
 30
0.0
 11
-166.584539
 21
-72.266222
 31
0.0
  0
ARC
  5
67D
100
AcDbEntity
  8
2
370
    50
100
AcDbCircle
 10
-166.784539
 20
-74.902376
 30
0.0
 40
0.2
100
AcDbArc
 50
279.5
 51
360.0
  0
ARC
  5
67E
100
AcDbEntity
  8
2
370
    50
100
AcDbCircle
 10
-166.784539
 20
-72.266222
 30
0.0
 40
0.2
100
AcDbArc
 50
0.0
 51
99.5
  0
LINE
  5
67F
100
AcDbEntity
  8
2
370
    50
100
AcDbLine
 10
-166.817548
 20
-72.068586
 30
0.0
 11
-180.417551
 21
-74.344844
 31
0.0
  0
LINE
  5
680
100
AcDbEntity
  8
2
370
    50
100
AcDbLine
 10
-179.784539
 20
-82.350516
 30
0.0
 11
-179.784539
 21
-81.336611
 31
0.0
  0
LINE
  5
681
100
AcDbEntity
  8
2
370
    50
100
AcDbLine
 10
-167.384539
 20
-80.275484
 30
0.0
 11
-167.384539
 21
-79.261562
 31
0.0
  0
LINE
  5
682
100
AcDbEntity
  8
2
370
    50
100
AcDbLine
 10
-180.584539
 20
-81.234235
 30
0.0
 11
-180.584539
 21
-78.598082
 31
0.0
  0
LINE
  5
683
100
AcDbEntity
  8
2
370
    50
100
AcDbLine
 10
-180.351529
 20
-81.431492
 30
0.0
 11
-166.751529
 21
-79.155633
 31
0.0
  0
ARC
  5
684
100
AcDbEntity
  8
2
370
    50
100
AcDbCircle
 10
-180.384539
 20
-81.234235
 30
0.0
 40
0.2
100
AcDbArc
 50
180.0
 51
279.5
  0
LINE
  5
685
100
AcDbEntity
  8
2
370
    50
100
AcDbLine
 10
-166.584539
 20
-78.958376
 30
0.0
 11
-166.584539
 21
-76.322222
 31
0.0
  0
ARC
  5
686
100
AcDbEntity
  8
2
370
    50
100
AcDbCircle
 10
-166.784539
 20
-78.958376
 30
0.0
 40
0.2
100
AcDbArc
 50
279.5
 51
360.0
  0
ARC
  5
687
100
AcDbEntity
  8
2
370
    50
100
AcDbCircle
 10
-166.784539
 20
-76.322222
 30
0.0
 40
0.2
100
AcDbArc
 50
0.0
 51
99.5
  0
LINE
  5
688
100
AcDbEntity
  8
2
370
    50
100
AcDbLine
 10
-166.817548
 20
-76.124586
 30
0.0
 11
-180.417551
 21
-78.400844
 31
0.0
  0
ARC
  5
689
100
AcDbEntity
  8
2
370
    50
100
AcDbCircle
 10
-180.384539
 20
-78.598082
 30
0.0
 40
0.2
100
AcDbArc
 50
99.5
 51
180.0
  0
ARC
  5
68A
100
AcDbEntity
  8
2
370
    50
100
AcDbCircle
 10
-180.384539
 20
-74.542082
 30
0.0
 40
0.2
100
AcDbArc
 50
99.5
 51
180.0
  0
ARC
  5
68B
100
AcDbEntity
  8
2
370
    50
100
AcDbCircle
 10
-180.384539
 20
-70.486082
 30
0.0
 40
0.2
100
AcDbArc
 50
99.5
 51
180.0
  0
ARC
  5
68C
100
AcDbEntity
  8
2
370
    50
100
AcDbCircle
 10
-180.384539
 20
-66.430082
 30
0.0
 40
0.2
100
AcDbArc
 50
99.5
 51
180.0
  0
ARC
  5
68D
100
AcDbEntity
  8
2
370
    50
100
AcDbCircle
 10
-180.384539
 20
-62.374082
 30
0.0
 40
0.2
100
AcDbArc
 50
99.5
 51
180.0
  0
LINE
  5
68E
100
AcDbEntity
  8
2
370
    50
100
AcDbLine
 10
-179.784539
 20
-62.070516
 30
0.0
 11
-179.784539
 21
-61.056611
 31
0.0
  0
LINE
  5
68F
100
AcDbEntity
  8
2
370
    50
100
AcDbLine
 10
-167.384539
 20
-59.995484
 30
0.0
 11
-167.384539
 21
-58.981562
 31
0.0
  0
LINE
  5
690
100
AcDbEntity
  8
2
370
    50
100
AcDbLine
 10
-180.584539
 20
-60.954235
 30
0.0
 11
-180.584539
 21
-58.678376
 31
0.0
  0
LINE
  5
691
100
AcDbEntity
  8
2
370
    50
100
AcDbLine
 10
-180.351529
 20
-61.151492
 30
0.0
 11
-166.751529
 21
-58.875633
 31
0.0
  0
ARC
  5
692
100
AcDbEntity
  8
2
370
    50
100
AcDbCircle
 10
-180.384539
 20
-60.954235
 30
0.0
 40
0.2
100
AcDbArc
 50
180.0
 51
279.5
  0
ARC
  5
693
100
AcDbEntity
  8
2
370
    50
100
AcDbCircle
 10
-166.784539
 20
-58.678376
 30
0.0
 40
0.2
100
AcDbArc
 50
279.5
 51
360.0
  0
LINE
  5
694
100
AcDbEntity
  8
2
370
    50
100
AcDbLine
 10
-180.584539
 20
-83.528745
 30
0.0
 11
-180.584539
 21
-82.654082
 31
0.0
  0
LINE
  5
695
100
AcDbEntity
  8
2
370
    50
100
AcDbLine
 10
-167.035909
 20
-83.259222
 30
0.0
 11
-166.751529
 21
-83.211633
 31
0.0
  0
LINE
  5
696
100
AcDbEntity
  8
2
370
    50
100
AcDbLine
 10
-166.584539
 20
-83.014376
 30
0.0
 11
-166.584539
 21
-80.378222
 31
0.0
  0
ARC
  5
697
100
AcDbEntity
  8
2
370
    50
100
AcDbCircle
 10
-166.784539
 20
-83.014376
 30
0.0
 40
0.2
100
AcDbArc
 50
279.5
 51
360.0
  0
ARC
  5
698
100
AcDbEntity
  8
2
370
    50
100
AcDbCircle
 10
-166.784539
 20
-80.378222
 30
0.0
 40
0.2
100
AcDbArc
 50
0.0
 51
99.5
  0
LINE
  5
699
100
AcDbEntity
  8
2
370
    50
100
AcDbLine
 10
-166.817548
 20
-80.180586
 30
0.0
 11
-180.417551
 21
-82.456844
 31
0.0
  0
ARC
  5
69A
100
AcDbEntity
  8
2
370
    50
100
AcDbCircle
 10
-180.384539
 20
-82.654082
 30
0.0
 40
0.2
100
AcDbArc
 50
99.5
 51
180.0
  0
ARC
  5
69B
100
AcDbEntity
  8
2
370
    50
100
AcDbCircle
 10
-177.084539
 20
-78.919562
 30
0.0
 40
5.833333
100
AcDbArc
 50
233.130102
 51
306.869898
  0
ARC
  5
69C
100
AcDbEntity
  8
2
370
    50
100
AcDbCircle
 10
-170.084539
 20
-88.252896
 30
0.0
 40
5.833333
100
AcDbArc
 50
53.130102
 51
126.869898
  0
ARC
  5
69D
100
AcDbEntity
  8
2
370
    50
100
AcDbCircle
 10
-177.084539
 20
-88.252896
 30
0.0
 40
5.833333
100
AcDbArc
 50
53.130102
 51
126.869898
  0
POINT
  5
69E
100
AcDbEntity
  8
2
370
    50
100
AcDbPoint
 10
-173.532089
 20
-58.67843
 30
0.0
  0
POINT
  5
69F
100
AcDbEntity
  8
2
370
    50
100
AcDbPoint
 10
-173.532089
 20
-58.67843
 30
0.0
  0
LINE
  5
6A0
100
AcDbEntity
  8
2
370
    50
100
AcDbLine
 10
-151.468089
 20
37.421797
 30
0.0
 11
-151.468089
 21
40.421797
 31
0.0
  0
LINE
  5
6A1
100
AcDbEntity
  8
2
370
    50
100
AcDbLine
 10
-149.032089
 20
36.171797
 30
0.0
 11
-150.218089
 21
36.171797
 31
0.0
  0
LINE
  5
6A2
100
AcDbEntity
  8
2
370
    50
100
AcDbLine
 10
-149.032089
 20
41.671797
 30
0.0
 11
-150.218089
 21
41.671797
 31
0.0
  0
ARC
  5
6A3
100
AcDbEntity
  8
2
370
    50
100
AcDbCircle
 10
-150.218089
 20
37.421797
 30
0.0
 40
1.25
100
AcDbArc
 50
180.0
 51
270.0
  0
ARC
  5
6A4
100
AcDbEntity
  8
2
370
    50
100
AcDbCircle
 10
-150.218089
 20
40.421797
 30
0.0
 40
1.25
100
AcDbArc
 50
90.0
 51
180.0
  0
LINE
  5
6A5
100
AcDbEntity
  8
2
370
    25
100
AcDbLine
 10
-151.244917
 20
36.708969
 30
0.0
 11
-149.032089
 21
38.921797
 31
0.0
  0
LINE
  5
6A6
100
AcDbEntity
  8
2
370
    25
100
AcDbLine
 10
-150.359815
 20
36.179858
 30
0.0
 11
-149.032089
 21
37.507584
 31
0.0
  0
LINE
  5
6A7
100
AcDbEntity
  8
2
370
    25
100
AcDbLine
 10
-151.468089
 20
37.900011
 30
0.0
 11
-149.032089
 21
40.336011
 31
0.0
  0
LINE
  5
6A8
100
AcDbEntity
  8
2
370
    25
100
AcDbLine
 10
-149.110516
 20
41.671797
 30
0.0
 11
-151.468089
 21
39.314225
 31
0.0
  0
LINE
  5
6A9
100
AcDbEntity
  8
2
370
    25
100
AcDbLine
 10
-151.415298
 20
40.781229
 30
0.0
 11
-150.577521
 21
41.619006
 31
0.0
  0
LINE
  5
6AA
100
AcDbEntity
  8
2
370
    50
100
AcDbLine
 10
-243.685336
 20
-155.004017
 30
0.0
 11
-250.28559
 21
-155.004017
 31
0.0
  0
LINE
  5
6AB
100
AcDbEntity
  8
2
370
    50
100
AcDbLine
 10
-243.685336
 20
-155.004017
 30
0.0
 11
-237.08559
 21
-155.004017
 31
0.0
  0
LINE
  5
6AC
100
AcDbEntity
  8
2
370
    50
100
AcDbLine
 10
-250.28559
 20
-126.004017
 30
0.0
 11
-243.68559
 21
-126.004017
 31
0.0
  0
LINE
  5
6AD
100
AcDbEntity
  8
2
370
    50
100
AcDbLine
 10
-250.28559
 20
-131.504017
 30
0.0
 11
-243.68559
 21
-131.504017
 31
0.0
  0
LINE
  5
6AE
100
AcDbEntity
  8
2
370
    50
100
AcDbLine
 10
-250.28559
 20
-133.504017
 30
0.0
 11
-243.68559
 21
-133.504017
 31
0.0
  0
LINE
  5
6AF
100
AcDbEntity
  8
2
370
    50
100
AcDbLine
 10
-250.28559
 20
-138.504017
 30
0.0
 11
-243.68559
 21
-138.504017
 31
0.0
  0
LINE
  5
6B0
100
AcDbEntity
  8
2
370
    50
100
AcDbLine
 10
-250.28559
 20
-140.504017
 30
0.0
 11
-243.68559
 21
-140.504017
 31
0.0
  0
LINE
  5
6B1
100
AcDbEntity
  8
2
370
    50
100
AcDbLine
 10
-250.28559
 20
-145.504017
 30
0.0
 11
-243.68559
 21
-145.504017
 31
0.0
  0
LINE
  5
6B2
100
AcDbEntity
  8
2
370
    50
100
AcDbLine
 10
-250.28559
 20
-147.504017
 30
0.0
 11
-243.68559
 21
-147.504017
 31
0.0
  0
LINE
  5
6B3
100
AcDbEntity
  8
2
370
    50
100
AcDbLine
 10
-250.68559
 20
-126.804017
 30
0.0
 11
-250.68559
 21
-130.704017
 31
0.0
  0
LINE
  5
6B4
100
AcDbEntity
  8
2
370
    50
100
AcDbLine
 10
-250.68559
 20
-134.304017
 30
0.0
 11
-250.68559
 21
-137.704017
 31
0.0
  0
LINE
  5
6B5
100
AcDbEntity
  8
2
370
    50
100
AcDbLine
 10
-250.68559
 20
-141.304017
 30
0.0
 11
-250.68559
 21
-144.704017
 31
0.0
  0
LINE
  5
6B6
100
AcDbEntity
  8
2
370
    50
100
AcDbLine
 10
-250.68559
 20
-148.304017
 30
0.0
 11
-250.68559
 21
-154.204017
 31
0.0
  0
LINE
  5
6B7
100
AcDbEntity
  8
2
370
    50
100
AcDbLine
 10
-250.28559
 20
-145.504017
 30
0.0
 11
-250.28559
 21
-147.504017
 31
0.0
  0
LINE
  5
6B8
100
AcDbEntity
  8
2
370
    50
100
AcDbLine
 10
-250.28559
 20
-131.504017
 30
0.0
 11
-250.28559
 21
-133.504017
 31
0.0
  0
LINE
  5
6B9
100
AcDbEntity
  8
2
370
    50
100
AcDbLine
 10
-250.28559
 20
-138.504017
 30
0.0
 11
-250.28559
 21
-140.504017
 31
0.0
  0
ARC
  5
6BA
100
AcDbEntity
  8
2
370
    50
100
AcDbCircle
 10
-249.68559
 20
-148.304017
 30
0.0
 40
1.0
100
AcDbArc
 50
126.869898
 51
180.0
  0
ARC
  5
6BB
100
AcDbEntity
  8
2
370
    50
100
AcDbCircle
 10
-249.68559
 20
-144.704017
 30
0.0
 40
1.0
100
AcDbArc
 50
180.0
 51
233.130102
  0
ARC
  5
6BC
100
AcDbEntity
  8
2
370
    50
100
AcDbCircle
 10
-249.68559
 20
-141.304017
 30
0.0
 40
1.0
100
AcDbArc
 50
126.869898
 51
180.0
  0
ARC
  5
6BD
100
AcDbEntity
  8
2
370
    50
100
AcDbCircle
 10
-249.68559
 20
-137.704017
 30
0.0
 40
1.0
100
AcDbArc
 50
180.0
 51
233.130102
  0
ARC
  5
6BE
100
AcDbEntity
  8
2
370
    50
100
AcDbCircle
 10
-249.68559
 20
-134.304017
 30
0.0
 40
1.0
100
AcDbArc
 50
126.869898
 51
180.0
  0
ARC
  5
6BF
100
AcDbEntity
  8
2
370
    50
100
AcDbCircle
 10
-249.68559
 20
-130.704017
 30
0.0
 40
1.0
100
AcDbArc
 50
180.0
 51
233.130102
  0
ARC
  5
6C0
100
AcDbEntity
  8
2
370
    50
100
AcDbCircle
 10
-249.68559
 20
-126.804017
 30
0.0
 40
1.0
100
AcDbArc
 50
126.869898
 51
180.0
  0
LINE
  5
6C1
100
AcDbEntity
  8
2
370
    50
100
AcDbLine
 10
-237.08559
 20
-126.004017
 30
0.0
 11
-243.68559
 21
-126.004017
 31
0.0
  0
ARC
  5
6C2
100
AcDbEntity
  8
2
370
    50
100
AcDbCircle
 10
-237.68559
 20
-126.804017
 30
0.0
 40
1.0
100
AcDbArc
 50
0.0
 51
53.130102
  0
LINE
  5
6C3
100
AcDbEntity
  8
2
370
    50
100
AcDbLine
 10
-236.68559
 20
-126.804017
 30
0.0
 11
-236.68559
 21
-130.704017
 31
0.0
  0
ARC
  5
6C4
100
AcDbEntity
  8
2
370
    50
100
AcDbCircle
 10
-237.68559
 20
-130.704017
 30
0.0
 40
1.0
100
AcDbArc
 50
306.869898
 51
0.0
  0
LINE
  5
6C5
100
AcDbEntity
  8
2
370
    50
100
AcDbLine
 10
-237.08559
 20
-131.504017
 30
0.0
 11
-237.08559
 21
-133.504017
 31
0.0
  0
LINE
  5
6C6
100
AcDbEntity
  8
2
370
    50
100
AcDbLine
 10
-237.08559
 20
-131.504017
 30
0.0
 11
-243.68559
 21
-131.504017
 31
0.0
  0
LINE
  5
6C7
100
AcDbEntity
  8
2
370
    50
100
AcDbLine
 10
-237.08559
 20
-133.504017
 30
0.0
 11
-243.68559
 21
-133.504017
 31
0.0
  0
ARC
  5
6C8
100
AcDbEntity
  8
2
370
    50
100
AcDbCircle
 10
-237.68559
 20
-134.304017
 30
0.0
 40
1.0
100
AcDbArc
 50
0.0
 51
53.130102
  0
LINE
  5
6C9
100
AcDbEntity
  8
2
370
    50
100
AcDbLine
 10
-236.68559
 20
-134.304017
 30
0.0
 11
-236.68559
 21
-137.704017
 31
0.0
  0
ARC
  5
6CA
100
AcDbEntity
  8
2
370
    50
100
AcDbCircle
 10
-237.68559
 20
-137.704017
 30
0.0
 40
1.0
100
AcDbArc
 50
306.869898
 51
0.0
  0
LINE
  5
6CB
100
AcDbEntity
  8
2
370
    50
100
AcDbLine
 10
-237.08559
 20
-138.504017
 30
0.0
 11
-243.68559
 21
-138.504017
 31
0.0
  0
LINE
  5
6CC
100
AcDbEntity
  8
2
370
    50
100
AcDbLine
 10
-237.08559
 20
-138.504017
 30
0.0
 11
-237.08559
 21
-140.504017
 31
0.0
  0
LINE
  5
6CD
100
AcDbEntity
  8
2
370
    50
100
AcDbLine
 10
-237.08559
 20
-140.504017
 30
0.0
 11
-243.68559
 21
-140.504017
 31
0.0
  0
ARC
  5
6CE
100
AcDbEntity
  8
2
370
    50
100
AcDbCircle
 10
-237.68559
 20
-141.304017
 30
0.0
 40
1.0
100
AcDbArc
 50
0.0
 51
53.130102
  0
LINE
  5
6CF
100
AcDbEntity
  8
2
370
    50
100
AcDbLine
 10
-236.68559
 20
-141.304017
 30
0.0
 11
-236.68559
 21
-144.704017
 31
0.0
  0
ARC
  5
6D0
100
AcDbEntity
  8
2
370
    50
100
AcDbCircle
 10
-237.68559
 20
-144.704017
 30
0.0
 40
1.0
100
AcDbArc
 50
306.869898
 51
0.0
  0
LINE
  5
6D1
100
AcDbEntity
  8
2
370
    50
100
AcDbLine
 10
-237.08559
 20
-145.504017
 30
0.0
 11
-243.68559
 21
-145.504017
 31
0.0
  0
LINE
  5
6D2
100
AcDbEntity
  8
2
370
    50
100
AcDbLine
 10
-237.08559
 20
-145.504017
 30
0.0
 11
-237.08559
 21
-147.504017
 31
0.0
  0
LINE
  5
6D3
100
AcDbEntity
  8
2
370
    50
100
AcDbLine
 10
-237.08559
 20
-147.504017
 30
0.0
 11
-243.68559
 21
-147.504017
 31
0.0
  0
ARC
  5
6D4
100
AcDbEntity
  8
2
370
    50
100
AcDbCircle
 10
-237.68559
 20
-148.304017
 30
0.0
 40
1.0
100
AcDbArc
 50
0.0
 51
53.130102
  0
LINE
  5
6D5
100
AcDbEntity
  8
2
370
    50
100
AcDbLine
 10
-236.68559
 20
-148.304017
 30
0.0
 11
-236.68559
 21
-154.204017
 31
0.0
  0
ARC
  5
6D6
100
AcDbEntity
  8
2
370
    50
100
AcDbCircle
 10
-249.68559
 20
-154.204017
 30
0.0
 40
1.0
100
AcDbArc
 50
180.0
 51
233.130102
  0
ARC
  5
6D7
100
AcDbEntity
  8
2
370
    50
100
AcDbCircle
 10
-237.68559
 20
-154.204017
 30
0.0
 40
1.0
100
AcDbArc
 50
306.869898
 51
0.0
  0
LINE
  5
6D8
100
AcDbEntity
  8
2
370
    50
100
AcDbLine
 10
-250.13559
 20
-126.004017
 30
0.0
 11
-250.13559
 21
-107.493201
 31
0.0
  0
LINE
  5
6D9
100
AcDbEntity
  8
2
370
    50
100
AcDbLine
 10
-237.23559
 20
-126.004017
 30
0.0
 11
-237.23559
 21
-107.493201
 31
0.0
  0
LINE
  5
6DA
100
AcDbEntity
  8
2
370
    50
100
AcDbLine
 10
-249.93559
 20
-156.004017
 30
0.0
 11
-249.93559
 21
-155.004017
 31
0.0
  0
LINE
  5
6DB
100
AcDbEntity
  8
2
370
    50
100
AcDbLine
 10
-237.43559
 20
-156.004017
 30
0.0
 11
-237.43559
 21
-155.004017
 31
0.0
  0
ARC
  5
6DC
100
AcDbEntity
  8
2
370
    50
100
AcDbCircle
 10
-246.91059
 20
-103.193201
 30
0.0
 40
5.375
100
AcDbArc
 50
233.130102
 51
306.869898
  0
ARC
  5
6DD
100
AcDbEntity
  8
2
370
    50
100
AcDbCircle
 10
-240.46059
 20
-111.793201
 30
0.0
 40
5.375
100
AcDbArc
 50
53.130102
 51
126.869898
  0
ARC
  5
6DE
100
AcDbEntity
  8
2
370
    50
100
AcDbCircle
 10
-240.46059
 20
-103.193201
 30
0.0
 40
5.375
100
AcDbArc
 50
233.130102
 51
306.869898
  0
LINE
  5
6DF
100
AcDbEntity
  8
2
370
    50
100
AcDbLine
 10
75.254026
 20
-135.982289
 30
0.0
 11
68.653773
 21
-135.982289
 31
0.0
  0
LINE
  5
6E0
100
AcDbEntity
  8
2
370
    50
100
AcDbLine
 10
75.254026
 20
-135.982289
 30
0.0
 11
81.853773
 21
-135.982289
 31
0.0
  0
LINE
  5
6E1
100
AcDbEntity
  8
2
370
    50
100
AcDbLine
 10
68.653773
 20
-106.982289
 30
0.0
 11
75.253773
 21
-106.982289
 31
0.0
  0
LINE
  5
6E2
100
AcDbEntity
  8
2
370
    50
100
AcDbLine
 10
68.653773
 20
-112.482289
 30
0.0
 11
75.253773
 21
-112.482289
 31
0.0
  0
LINE
  5
6E3
100
AcDbEntity
  8
2
370
    50
100
AcDbLine
 10
68.653773
 20
-114.482289
 30
0.0
 11
75.253773
 21
-114.482289
 31
0.0
  0
LINE
  5
6E4
100
AcDbEntity
  8
2
370
    50
100
AcDbLine
 10
68.653773
 20
-119.482289
 30
0.0
 11
75.253773
 21
-119.482289
 31
0.0
  0
LINE
  5
6E5
100
AcDbEntity
  8
2
370
    50
100
AcDbLine
 10
68.653773
 20
-121.482289
 30
0.0
 11
75.253773
 21
-121.482289
 31
0.0
  0
LINE
  5
6E6
100
AcDbEntity
  8
2
370
    50
100
AcDbLine
 10
68.653773
 20
-126.482289
 30
0.0
 11
75.253773
 21
-126.482289
 31
0.0
  0
LINE
  5
6E7
100
AcDbEntity
  8
2
370
    50
100
AcDbLine
 10
68.653773
 20
-128.482289
 30
0.0
 11
75.253773
 21
-128.482289
 31
0.0
  0
LINE
  5
6E8
100
AcDbEntity
  8
2
370
    50
100
AcDbLine
 10
68.253773
 20
-107.782289
 30
0.0
 11
68.253773
 21
-111.682289
 31
0.0
  0
LINE
  5
6E9
100
AcDbEntity
  8
2
370
    50
100
AcDbLine
 10
68.253773
 20
-115.282289
 30
0.0
 11
68.253773
 21
-118.682289
 31
0.0
  0
LINE
  5
6EA
100
AcDbEntity
  8
2
370
    50
100
AcDbLine
 10
68.253773
 20
-122.282289
 30
0.0
 11
68.253773
 21
-125.682289
 31
0.0
  0
LINE
  5
6EB
100
AcDbEntity
  8
2
370
    50
100
AcDbLine
 10
68.253773
 20
-129.282289
 30
0.0
 11
68.253773
 21
-135.182289
 31
0.0
  0
LINE
  5
6EC
100
AcDbEntity
  8
2
370
    50
100
AcDbLine
 10
68.653773
 20
-126.482289
 30
0.0
 11
68.653773
 21
-128.482289
 31
0.0
  0
LINE
  5
6ED
100
AcDbEntity
  8
2
370
    50
100
AcDbLine
 10
68.653773
 20
-112.482289
 30
0.0
 11
68.653773
 21
-114.482289
 31
0.0
  0
LINE
  5
6EE
100
AcDbEntity
  8
2
370
    50
100
AcDbLine
 10
68.653773
 20
-119.482289
 30
0.0
 11
68.653773
 21
-121.482289
 31
0.0
  0
ARC
  5
6EF
100
AcDbEntity
  8
2
370
    50
100
AcDbCircle
 10
69.253773
 20
-129.282289
 30
0.0
 40
1.0
100
AcDbArc
 50
126.869898
 51
180.0
  0
ARC
  5
6F0
100
AcDbEntity
  8
2
370
    50
100
AcDbCircle
 10
69.253773
 20
-125.682289
 30
0.0
 40
1.0
100
AcDbArc
 50
180.0
 51
233.130102
  0
ARC
  5
6F1
100
AcDbEntity
  8
2
370
    50
100
AcDbCircle
 10
69.253773
 20
-122.282289
 30
0.0
 40
1.0
100
AcDbArc
 50
126.869898
 51
180.0
  0
ARC
  5
6F2
100
AcDbEntity
  8
2
370
    50
100
AcDbCircle
 10
69.253773
 20
-118.682289
 30
0.0
 40
1.0
100
AcDbArc
 50
180.0
 51
233.130102
  0
ARC
  5
6F3
100
AcDbEntity
  8
2
370
    50
100
AcDbCircle
 10
69.253773
 20
-115.282289
 30
0.0
 40
1.0
100
AcDbArc
 50
126.869898
 51
180.0
  0
ARC
  5
6F4
100
AcDbEntity
  8
2
370
    50
100
AcDbCircle
 10
69.253773
 20
-111.682289
 30
0.0
 40
1.0
100
AcDbArc
 50
180.0
 51
233.130102
  0
ARC
  5
6F5
100
AcDbEntity
  8
2
370
    50
100
AcDbCircle
 10
69.253773
 20
-107.782289
 30
0.0
 40
1.0
100
AcDbArc
 50
126.869898
 51
180.0
  0
LINE
  5
6F6
100
AcDbEntity
  8
2
370
    50
100
AcDbLine
 10
81.853773
 20
-106.982289
 30
0.0
 11
75.253773
 21
-106.982289
 31
0.0
  0
ARC
  5
6F7
100
AcDbEntity
  8
2
370
    50
100
AcDbCircle
 10
81.253773
 20
-107.782289
 30
0.0
 40
1.0
100
AcDbArc
 50
0.0
 51
53.130102
  0
LINE
  5
6F8
100
AcDbEntity
  8
2
370
    50
100
AcDbLine
 10
82.253773
 20
-107.782289
 30
0.0
 11
82.253773
 21
-111.682289
 31
0.0
  0
ARC
  5
6F9
100
AcDbEntity
  8
2
370
    50
100
AcDbCircle
 10
81.253773
 20
-111.682289
 30
0.0
 40
1.0
100
AcDbArc
 50
306.869898
 51
0.0
  0
LINE
  5
6FA
100
AcDbEntity
  8
2
370
    50
100
AcDbLine
 10
81.853773
 20
-112.482289
 30
0.0
 11
81.853773
 21
-114.482289
 31
0.0
  0
LINE
  5
6FB
100
AcDbEntity
  8
2
370
    50
100
AcDbLine
 10
81.853773
 20
-112.482289
 30
0.0
 11
75.253773
 21
-112.482289
 31
0.0
  0
LINE
  5
6FC
100
AcDbEntity
  8
2
370
    50
100
AcDbLine
 10
81.853773
 20
-114.482289
 30
0.0
 11
75.253773
 21
-114.482289
 31
0.0
  0
ARC
  5
6FD
100
AcDbEntity
  8
2
370
    50
100
AcDbCircle
 10
81.253773
 20
-115.282289
 30
0.0
 40
1.0
100
AcDbArc
 50
0.0
 51
53.130102
  0
LINE
  5
6FE
100
AcDbEntity
  8
2
370
    50
100
AcDbLine
 10
82.253773
 20
-115.282289
 30
0.0
 11
82.253773
 21
-118.682289
 31
0.0
  0
ARC
  5
6FF
100
AcDbEntity
  8
2
370
    50
100
AcDbCircle
 10
81.253773
 20
-118.682289
 30
0.0
 40
1.0
100
AcDbArc
 50
306.869898
 51
0.0
  0
LINE
  5
700
100
AcDbEntity
  8
2
370
    50
100
AcDbLine
 10
81.853773
 20
-119.482289
 30
0.0
 11
75.253773
 21
-119.482289
 31
0.0
  0
LINE
  5
701
100
AcDbEntity
  8
2
370
    50
100
AcDbLine
 10
81.853773
 20
-119.482289
 30
0.0
 11
81.853773
 21
-121.482289
 31
0.0
  0
LINE
  5
702
100
AcDbEntity
  8
2
370
    50
100
AcDbLine
 10
81.853773
 20
-121.482289
 30
0.0
 11
75.253773
 21
-121.482289
 31
0.0
  0
ARC
  5
703
100
AcDbEntity
  8
2
370
    50
100
AcDbCircle
 10
81.253773
 20
-122.282289
 30
0.0
 40
1.0
100
AcDbArc
 50
0.0
 51
53.130102
  0
LINE
  5
704
100
AcDbEntity
  8
2
370
    50
100
AcDbLine
 10
82.253773
 20
-122.282289
 30
0.0
 11
82.253773
 21
-125.682289
 31
0.0
  0
ARC
  5
705
100
AcDbEntity
  8
2
370
    50
100
AcDbCircle
 10
81.253773
 20
-125.682289
 30
0.0
 40
1.0
100
AcDbArc
 50
306.869898
 51
0.0
  0
LINE
  5
706
100
AcDbEntity
  8
2
370
    50
100
AcDbLine
 10
81.853773
 20
-126.482289
 30
0.0
 11
75.253773
 21
-126.482289
 31
0.0
  0
LINE
  5
707
100
AcDbEntity
  8
2
370
    50
100
AcDbLine
 10
81.853773
 20
-126.482289
 30
0.0
 11
81.853773
 21
-128.482289
 31
0.0
  0
LINE
  5
708
100
AcDbEntity
  8
2
370
    50
100
AcDbLine
 10
81.853773
 20
-128.482289
 30
0.0
 11
75.253773
 21
-128.482289
 31
0.0
  0
ARC
  5
709
100
AcDbEntity
  8
2
370
    50
100
AcDbCircle
 10
81.253773
 20
-129.282289
 30
0.0
 40
1.0
100
AcDbArc
 50
0.0
 51
53.130102
  0
LINE
  5
70A
100
AcDbEntity
  8
2
370
    50
100
AcDbLine
 10
82.253773
 20
-129.282289
 30
0.0
 11
82.253773
 21
-135.182289
 31
0.0
  0
ARC
  5
70B
100
AcDbEntity
  8
2
370
    50
100
AcDbCircle
 10
69.253773
 20
-135.182289
 30
0.0
 40
1.0
100
AcDbArc
 50
180.0
 51
233.130102
  0
ARC
  5
70C
100
AcDbEntity
  8
2
370
    50
100
AcDbCircle
 10
81.253773
 20
-135.182289
 30
0.0
 40
1.0
100
AcDbArc
 50
306.869898
 51
0.0
  0
LINE
  5
70D
100
AcDbEntity
  8
2
370
    50
100
AcDbLine
 10
68.803773
 20
-106.982289
 30
0.0
 11
68.803773
 21
-88.471472
 31
0.0
  0
LINE
  5
70E
100
AcDbEntity
  8
2
370
    50
100
AcDbLine
 10
81.703773
 20
-106.982289
 30
0.0
 11
81.703773
 21
-88.471472
 31
0.0
  0
LINE
  5
70F
100
AcDbEntity
  8
2
370
    50
100
AcDbLine
 10
69.003773
 20
-136.982289
 30
0.0
 11
69.003773
 21
-135.982289
 31
0.0
  0
LINE
  5
710
100
AcDbEntity
  8
2
370
    50
100
AcDbLine
 10
81.503773
 20
-136.982289
 30
0.0
 11
81.503773
 21
-135.982289
 31
0.0
  0
ARC
  5
711
100
AcDbEntity
  8
2
370
    50
100
AcDbCircle
 10
72.028773
 20
-84.171472
 30
0.0
 40
5.375
100
AcDbArc
 50
233.130102
 51
306.869898
  0
ARC
  5
712
100
AcDbEntity
  8
2
370
    50
100
AcDbCircle
 10
78.478773
 20
-92.771472
 30
0.0
 40
5.375
100
AcDbArc
 50
53.130102
 51
126.869898
  0
ARC
  5
713
100
AcDbEntity
  8
2
370
    50
100
AcDbCircle
 10
78.478773
 20
-84.171472
 30
0.0
 40
5.375
100
AcDbArc
 50
233.130102
 51
306.869898
  0
LINE
  5
714
100
AcDbEntity
  8
2
370
    50
100
AcDbLine
 10
-103.273478
 20
-165.006699
 30
0.0
 11
-109.873731
 21
-165.006699
 31
0.0
  0
LINE
  5
715
100
AcDbEntity
  8
2
370
    50
100
AcDbLine
 10
-103.273478
 20
-165.006699
 30
0.0
 11
-96.673731
 21
-165.006699
 31
0.0
  0
LINE
  5
716
100
AcDbEntity
  8
2
370
    50
100
AcDbLine
 10
-109.873731
 20
-136.006699
 30
0.0
 11
-103.273731
 21
-136.006699
 31
0.0
  0
LINE
  5
717
100
AcDbEntity
  8
2
370
    50
100
AcDbLine
 10
-109.873731
 20
-141.506699
 30
0.0
 11
-103.273731
 21
-141.506699
 31
0.0
  0
LINE
  5
718
100
AcDbEntity
  8
2
370
    50
100
AcDbLine
 10
-109.873731
 20
-143.506699
 30
0.0
 11
-103.273731
 21
-143.506699
 31
0.0
  0
LINE
  5
719
100
AcDbEntity
  8
2
370
    50
100
AcDbLine
 10
-109.873731
 20
-148.506699
 30
0.0
 11
-103.273731
 21
-148.506699
 31
0.0
  0
LINE
  5
71A
100
AcDbEntity
  8
2
370
    50
100
AcDbLine
 10
-109.873731
 20
-150.506699
 30
0.0
 11
-103.273731
 21
-150.506699
 31
0.0
  0
LINE
  5
71B
100
AcDbEntity
  8
2
370
    50
100
AcDbLine
 10
-109.873731
 20
-155.506699
 30
0.0
 11
-103.273731
 21
-155.506699
 31
0.0
  0
LINE
  5
71C
100
AcDbEntity
  8
2
370
    50
100
AcDbLine
 10
-109.873731
 20
-157.506699
 30
0.0
 11
-103.273731
 21
-157.506699
 31
0.0
  0
LINE
  5
71D
100
AcDbEntity
  8
2
370
    50
100
AcDbLine
 10
-110.273731
 20
-136.806699
 30
0.0
 11
-110.273731
 21
-140.706699
 31
0.0
  0
LINE
  5
71E
100
AcDbEntity
  8
2
370
    50
100
AcDbLine
 10
-110.273731
 20
-144.306699
 30
0.0
 11
-110.273731
 21
-147.706699
 31
0.0
  0
LINE
  5
71F
100
AcDbEntity
  8
2
370
    50
100
AcDbLine
 10
-110.273731
 20
-151.306699
 30
0.0
 11
-110.273731
 21
-154.706699
 31
0.0
  0
LINE
  5
720
100
AcDbEntity
  8
2
370
    50
100
AcDbLine
 10
-110.273731
 20
-158.306699
 30
0.0
 11
-110.273731
 21
-164.206699
 31
0.0
  0
LINE
  5
721
100
AcDbEntity
  8
2
370
    50
100
AcDbLine
 10
-109.873731
 20
-155.506699
 30
0.0
 11
-109.873731
 21
-157.506699
 31
0.0
  0
LINE
  5
722
100
AcDbEntity
  8
2
370
    50
100
AcDbLine
 10
-109.873731
 20
-141.506699
 30
0.0
 11
-109.873731
 21
-143.506699
 31
0.0
  0
LINE
  5
723
100
AcDbEntity
  8
2
370
    50
100
AcDbLine
 10
-109.873731
 20
-148.506699
 30
0.0
 11
-109.873731
 21
-150.506699
 31
0.0
  0
ARC
  5
724
100
AcDbEntity
  8
2
370
    50
100
AcDbCircle
 10
-109.273731
 20
-158.306699
 30
0.0
 40
1.0
100
AcDbArc
 50
126.869898
 51
180.0
  0
ARC
  5
725
100
AcDbEntity
  8
2
370
    50
100
AcDbCircle
 10
-109.273731
 20
-154.706699
 30
0.0
 40
1.0
100
AcDbArc
 50
180.0
 51
233.130102
  0
ARC
  5
726
100
AcDbEntity
  8
2
370
    50
100
AcDbCircle
 10
-109.273731
 20
-151.306699
 30
0.0
 40
1.0
100
AcDbArc
 50
126.869898
 51
180.0
  0
ARC
  5
727
100
AcDbEntity
  8
2
370
    50
100
AcDbCircle
 10
-109.273731
 20
-147.706699
 30
0.0
 40
1.0
100
AcDbArc
 50
180.0
 51
233.130102
  0
ARC
  5
728
100
AcDbEntity
  8
2
370
    50
100
AcDbCircle
 10
-109.273731
 20
-144.306699
 30
0.0
 40
1.0
100
AcDbArc
 50
126.869898
 51
180.0
  0
ARC
  5
729
100
AcDbEntity
  8
2
370
    50
100
AcDbCircle
 10
-109.273731
 20
-140.706699
 30
0.0
 40
1.0
100
AcDbArc
 50
180.0
 51
233.130102
  0
ARC
  5
72A
100
AcDbEntity
  8
2
370
    50
100
AcDbCircle
 10
-109.273731
 20
-136.806699
 30
0.0
 40
1.0
100
AcDbArc
 50
126.869898
 51
180.0
  0
LINE
  5
72B
100
AcDbEntity
  8
2
370
    50
100
AcDbLine
 10
-96.673731
 20
-136.006699
 30
0.0
 11
-103.273731
 21
-136.006699
 31
0.0
  0
ARC
  5
72C
100
AcDbEntity
  8
2
370
    50
100
AcDbCircle
 10
-97.273731
 20
-136.806699
 30
0.0
 40
1.0
100
AcDbArc
 50
0.0
 51
53.130102
  0
LINE
  5
72D
100
AcDbEntity
  8
2
370
    50
100
AcDbLine
 10
-96.273731
 20
-136.806699
 30
0.0
 11
-96.273731
 21
-140.706699
 31
0.0
  0
ARC
  5
72E
100
AcDbEntity
  8
2
370
    50
100
AcDbCircle
 10
-97.273731
 20
-140.706699
 30
0.0
 40
1.0
100
AcDbArc
 50
306.869898
 51
0.0
  0
LINE
  5
72F
100
AcDbEntity
  8
2
370
    50
100
AcDbLine
 10
-96.673731
 20
-141.506699
 30
0.0
 11
-96.673731
 21
-143.506699
 31
0.0
  0
LINE
  5
730
100
AcDbEntity
  8
2
370
    50
100
AcDbLine
 10
-96.673731
 20
-141.506699
 30
0.0
 11
-103.273731
 21
-141.506699
 31
0.0
  0
LINE
  5
731
100
AcDbEntity
  8
2
370
    50
100
AcDbLine
 10
-96.673731
 20
-143.506699
 30
0.0
 11
-103.273731
 21
-143.506699
 31
0.0
  0
ARC
  5
732
100
AcDbEntity
  8
2
370
    50
100
AcDbCircle
 10
-97.273731
 20
-144.306699
 30
0.0
 40
1.0
100
AcDbArc
 50
0.0
 51
53.130102
  0
LINE
  5
733
100
AcDbEntity
  8
2
370
    50
100
AcDbLine
 10
-96.273731
 20
-144.306699
 30
0.0
 11
-96.273731
 21
-147.706699
 31
0.0
  0
ARC
  5
734
100
AcDbEntity
  8
2
370
    50
100
AcDbCircle
 10
-97.273731
 20
-147.706699
 30
0.0
 40
1.0
100
AcDbArc
 50
306.869898
 51
0.0
  0
LINE
  5
735
100
AcDbEntity
  8
2
370
    50
100
AcDbLine
 10
-96.673731
 20
-148.506699
 30
0.0
 11
-103.273731
 21
-148.506699
 31
0.0
  0
LINE
  5
736
100
AcDbEntity
  8
2
370
    50
100
AcDbLine
 10
-96.673731
 20
-148.506699
 30
0.0
 11
-96.673731
 21
-150.506699
 31
0.0
  0
LINE
  5
737
100
AcDbEntity
  8
2
370
    50
100
AcDbLine
 10
-96.673731
 20
-150.506699
 30
0.0
 11
-103.273731
 21
-150.506699
 31
0.0
  0
ARC
  5
738
100
AcDbEntity
  8
2
370
    50
100
AcDbCircle
 10
-97.273731
 20
-151.306699
 30
0.0
 40
1.0
100
AcDbArc
 50
0.0
 51
53.130102
  0
LINE
  5
739
100
AcDbEntity
  8
2
370
    50
100
AcDbLine
 10
-96.273731
 20
-151.306699
 30
0.0
 11
-96.273731
 21
-154.706699
 31
0.0
  0
ARC
  5
73A
100
AcDbEntity
  8
2
370
    50
100
AcDbCircle
 10
-97.273731
 20
-154.706699
 30
0.0
 40
1.0
100
AcDbArc
 50
306.869898
 51
0.0
  0
LINE
  5
73B
100
AcDbEntity
  8
2
370
    50
100
AcDbLine
 10
-96.673731
 20
-155.506699
 30
0.0
 11
-103.273731
 21
-155.506699
 31
0.0
  0
LINE
  5
73C
100
AcDbEntity
  8
2
370
    50
100
AcDbLine
 10
-96.673731
 20
-155.506699
 30
0.0
 11
-96.673731
 21
-157.506699
 31
0.0
  0
LINE
  5
73D
100
AcDbEntity
  8
2
370
    50
100
AcDbLine
 10
-96.673731
 20
-157.506699
 30
0.0
 11
-103.273731
 21
-157.506699
 31
0.0
  0
ARC
  5
73E
100
AcDbEntity
  8
2
370
    50
100
AcDbCircle
 10
-97.273731
 20
-158.306699
 30
0.0
 40
1.0
100
AcDbArc
 50
0.0
 51
53.130102
  0
LINE
  5
73F
100
AcDbEntity
  8
2
370
    50
100
AcDbLine
 10
-96.273731
 20
-158.306699
 30
0.0
 11
-96.273731
 21
-164.206699
 31
0.0
  0
ARC
  5
740
100
AcDbEntity
  8
2
370
    50
100
AcDbCircle
 10
-109.273731
 20
-164.206699
 30
0.0
 40
1.0
100
AcDbArc
 50
180.0
 51
233.130102
  0
ARC
  5
741
100
AcDbEntity
  8
2
370
    50
100
AcDbCircle
 10
-97.273731
 20
-164.206699
 30
0.0
 40
1.0
100
AcDbArc
 50
306.869898
 51
0.0
  0
LINE
  5
742
100
AcDbEntity
  8
2
370
    50
100
AcDbLine
 10
-109.723731
 20
-136.006699
 30
0.0
 11
-109.723731
 21
-117.495883
 31
0.0
  0
LINE
  5
743
100
AcDbEntity
  8
2
370
    50
100
AcDbLine
 10
-96.823731
 20
-136.006699
 30
0.0
 11
-96.823731
 21
-117.495883
 31
0.0
  0
LINE
  5
744
100
AcDbEntity
  8
2
370
    50
100
AcDbLine
 10
-109.523731
 20
-166.006699
 30
0.0
 11
-109.523731
 21
-165.006699
 31
0.0
  0
LINE
  5
745
100
AcDbEntity
  8
2
370
    50
100
AcDbLine
 10
-97.023731
 20
-166.006699
 30
0.0
 11
-97.023731
 21
-165.006699
 31
0.0
  0
ARC
  5
746
100
AcDbEntity
  8
2
370
    50
100
AcDbCircle
 10
-106.498731
 20
-113.195883
 30
0.0
 40
5.375
100
AcDbArc
 50
233.130102
 51
306.869898
  0
ARC
  5
747
100
AcDbEntity
  8
2
370
    50
100
AcDbCircle
 10
-100.048731
 20
-121.795883
 30
0.0
 40
5.375
100
AcDbArc
 50
53.130102
 51
126.869898
  0
ARC
  5
748
100
AcDbEntity
  8
2
370
    50
100
AcDbCircle
 10
-100.048731
 20
-113.195883
 30
0.0
 40
5.375
100
AcDbArc
 50
233.130102
 51
306.869898
  0
LINE
  5
749
100
AcDbEntity
  8
2
370
    50
100
AcDbLine
 10
155.254678
 20
-110.764291
 30
0.0
 11
155.254678
 21
-105.441642
 31
0.0
  0
LINE
  5
74A
100
AcDbEntity
  8
2
370
    50
100
AcDbLine
 10
167.254678
 20
-110.764291
 30
0.0
 11
167.254678
 21
-105.441642
 31
0.0
  0
LINE
  5
74B
100
AcDbEntity
  8
2
370
    50
100
AcDbLine
 10
163.652593
 20
-105.441642
 30
0.0
 11
163.652593
 21
-110.764291
 31
0.0
  0
LINE
  5
74C
100
AcDbEntity
  8
2
370
    50
100
AcDbLine
 10
164.818859
 20
-105.441642
 30
0.0
 11
164.818859
 21
-110.764291
 31
0.0
  0
LINE
  5
74D
100
AcDbEntity
  8
2
370
    50
100
AcDbLine
 10
167.216775
 20
-105.441642
 30
0.0
 11
167.216775
 21
-110.764291
 31
0.0
  0
LINE
  5
74E
100
AcDbEntity
  8
2
370
    50
100
AcDbLine
 10
166.754678
 20
-111.052967
 30
0.0
 11
167.254678
 21
-110.764291
 31
0.0
  0
LINE
  5
74F
100
AcDbEntity
  8
2
370
    50
100
AcDbLine
 10
164.818859
 20
-110.764291
 30
0.0
 11
163.652593
 21
-110.764291
 31
0.0
  0
LINE
  5
750
100
AcDbEntity
  8
2
370
    50
100
AcDbLine
 10
155.254678
 20
-110.764291
 30
0.0
 11
155.754678
 21
-111.052967
 31
0.0
  0
LINE
  5
751
100
AcDbEntity
  8
2
370
    50
100
AcDbLine
 10
155.254678
 20
-105.441642
 30
0.0
 11
155.754678
 21
-105.152967
 31
0.0
  0
ARC
  5
752
100
AcDbEntity
  8
2
370
    50
100
AcDbCircle
 10
161.254678
 20
-100.949337
 30
0.0
 40
10.10363
100
AcDbArc
 50
270.0
 51
283.729133
  0
ARC
  5
753
100
AcDbEntity
  8
2
370
    50
100
AcDbCircle
 10
161.254678
 20
-115.256596
 30
0.0
 40
10.10363
100
AcDbArc
 50
76.270867
 51
90.0
  0
LINE
  5
754
100
AcDbEntity
  8
2
370
    50
100
AcDbLine
 10
164.818859
 20
-105.441642
 30
0.0
 11
163.652593
 21
-105.441642
 31
0.0
  0
LINE
  5
755
100
AcDbEntity
  8
2
370
    50
100
AcDbLine
 10
167.254678
 20
-110.764291
 30
0.0
 11
167.216775
 21
-110.764291
 31
0.0
  0
ARC
  5
756
100
AcDbEntity
  8
2
370
    50
100
AcDbCircle
 10
166.017817
 20
-108.418806
 30
0.0
 40
2.634161
100
AcDbArc
 50
242.924933
 51
297.075067
  0
ARC
  5
757
100
AcDbEntity
  8
2
370
    50
100
AcDbCircle
 10
166.017817
 20
-107.787127
 30
0.0
 40
2.634161
100
AcDbArc
 50
62.924933
 51
117.075067
  0
LINE
  5
758
100
AcDbEntity
  8
2
370
    50
100
AcDbLine
 10
166.754678
 20
-105.152967
 30
0.0
 11
167.254678
 21
-105.441642
 31
0.0
  0
ARC
  5
759
100
AcDbEntity
  8
2
370
    50
100
AcDbCircle
 10
161.254678
 20
-100.949337
 30
0.0
 40
10.10363
100
AcDbArc
 50
256.270867
 51
270.0
  0
LINE
  5
75A
100
AcDbEntity
  8
2
370
    50
100
AcDbLine
 10
157.690496
 20
-110.764291
 30
0.0
 11
158.856762
 21
-110.764291
 31
0.0
  0
ARC
  5
75B
100
AcDbEntity
  8
2
370
    50
100
AcDbCircle
 10
156.491538
 20
-108.418806
 30
0.0
 40
2.634161
100
AcDbArc
 50
242.924933
 51
297.075067
  0
LINE
  5
75C
100
AcDbEntity
  8
2
370
    50
100
AcDbLine
 10
155.29258
 20
-110.764291
 30
0.0
 11
155.254678
 21
-110.764291
 31
0.0
  0
LINE
  5
75D
100
AcDbEntity
  8
2
370
    50
100
AcDbLine
 10
155.754678
 20
-111.052967
 30
0.0
 11
166.754678
 21
-111.052967
 31
0.0
  0
LINE
  5
75E
100
AcDbEntity
  8
2
370
    50
100
AcDbLine
 10
154.654678
 20
-140.052967
 30
0.0
 11
161.254678
 21
-140.052967
 31
0.0
  0
LINE
  5
75F
100
AcDbEntity
  8
2
370
    50
100
AcDbLine
 10
154.654678
 20
-134.552967
 30
0.0
 11
161.254678
 21
-134.552967
 31
0.0
  0
LINE
  5
760
100
AcDbEntity
  8
2
370
    50
100
AcDbLine
 10
154.654678
 20
-132.552967
 30
0.0
 11
161.254678
 21
-132.552967
 31
0.0
  0
LINE
  5
761
100
AcDbEntity
  8
2
370
    50
100
AcDbLine
 10
154.654678
 20
-127.552967
 30
0.0
 11
161.254678
 21
-127.552967
 31
0.0
  0
LINE
  5
762
100
AcDbEntity
  8
2
370
    50
100
AcDbLine
 10
154.654678
 20
-125.552967
 30
0.0
 11
161.254678
 21
-125.552967
 31
0.0
  0
LINE
  5
763
100
AcDbEntity
  8
2
370
    50
100
AcDbLine
 10
154.654678
 20
-120.552967
 30
0.0
 11
161.254678
 21
-120.552967
 31
0.0
  0
LINE
  5
764
100
AcDbEntity
  8
2
370
    50
100
AcDbLine
 10
154.654678
 20
-118.552967
 30
0.0
 11
161.254678
 21
-118.552967
 31
0.0
  0
LINE
  5
765
100
AcDbEntity
  8
2
370
    50
100
AcDbLine
 10
154.254678
 20
-139.252967
 30
0.0
 11
154.254678
 21
-135.352967
 31
0.0
  0
LINE
  5
766
100
AcDbEntity
  8
2
370
    50
100
AcDbLine
 10
154.254678
 20
-131.752967
 30
0.0
 11
154.254678
 21
-128.352967
 31
0.0
  0
LINE
  5
767
100
AcDbEntity
  8
2
370
    50
100
AcDbLine
 10
154.254678
 20
-124.752967
 30
0.0
 11
154.254678
 21
-121.352967
 31
0.0
  0
LINE
  5
768
100
AcDbEntity
  8
2
370
    50
100
AcDbLine
 10
154.254678
 20
-117.752967
 30
0.0
 11
154.254678
 21
-111.852967
 31
0.0
  0
LINE
  5
769
100
AcDbEntity
  8
2
370
    50
100
AcDbLine
 10
154.654678
 20
-120.552967
 30
0.0
 11
154.654678
 21
-118.552967
 31
0.0
  0
LINE
  5
76A
100
AcDbEntity
  8
2
370
    50
100
AcDbLine
 10
154.654678
 20
-134.552967
 30
0.0
 11
154.654678
 21
-132.552967
 31
0.0
  0
LINE
  5
76B
100
AcDbEntity
  8
2
370
    50
100
AcDbLine
 10
154.654678
 20
-127.552967
 30
0.0
 11
154.654678
 21
-125.552967
 31
0.0
  0
ARC
  5
76C
100
AcDbEntity
  8
2
370
    50
100
AcDbCircle
 10
155.254678
 20
-117.752967
 30
0.0
 40
1.0
100
AcDbArc
 50
180.0
 51
233.130102
  0
ARC
  5
76D
100
AcDbEntity
  8
2
370
    50
100
AcDbCircle
 10
155.254678
 20
-121.352967
 30
0.0
 40
1.0
100
AcDbArc
 50
126.869898
 51
180.0
  0
ARC
  5
76E
100
AcDbEntity
  8
2
370
    50
100
AcDbCircle
 10
155.254678
 20
-124.752967
 30
0.0
 40
1.0
100
AcDbArc
 50
180.0
 51
233.130102
  0
ARC
  5
76F
100
AcDbEntity
  8
2
370
    50
100
AcDbCircle
 10
155.254678
 20
-128.352967
 30
0.0
 40
1.0
100
AcDbArc
 50
126.869898
 51
180.0
  0
ARC
  5
770
100
AcDbEntity
  8
2
370
    50
100
AcDbCircle
 10
155.254678
 20
-131.752967
 30
0.0
 40
1.0
100
AcDbArc
 50
180.0
 51
233.130102
  0
ARC
  5
771
100
AcDbEntity
  8
2
370
    50
100
AcDbCircle
 10
155.254678
 20
-135.352967
 30
0.0
 40
1.0
100
AcDbArc
 50
126.869898
 51
180.0
  0
ARC
  5
772
100
AcDbEntity
  8
2
370
    50
100
AcDbCircle
 10
155.254678
 20
-139.252967
 30
0.0
 40
1.0
100
AcDbArc
 50
180.0
 51
233.130102
  0
LINE
  5
773
100
AcDbEntity
  8
2
370
    50
100
AcDbLine
 10
167.854678
 20
-140.052967
 30
0.0
 11
161.254678
 21
-140.052967
 31
0.0
  0
ARC
  5
774
100
AcDbEntity
  8
2
370
    50
100
AcDbCircle
 10
167.254678
 20
-139.252967
 30
0.0
 40
1.0
100
AcDbArc
 50
306.869898
 51
360.0
  0
LINE
  5
775
100
AcDbEntity
  8
2
370
    50
100
AcDbLine
 10
168.254678
 20
-139.252967
 30
0.0
 11
168.254678
 21
-135.352967
 31
0.0
  0
ARC
  5
776
100
AcDbEntity
  8
2
370
    50
100
AcDbCircle
 10
167.254678
 20
-135.352967
 30
0.0
 40
1.0
100
AcDbArc
 50
360.0
 51
53.130102
  0
LINE
  5
777
100
AcDbEntity
  8
2
370
    50
100
AcDbLine
 10
167.854678
 20
-134.552967
 30
0.0
 11
167.854678
 21
-132.552967
 31
0.0
  0
LINE
  5
778
100
AcDbEntity
  8
2
370
    50
100
AcDbLine
 10
167.854678
 20
-134.552967
 30
0.0
 11
161.254678
 21
-134.552967
 31
0.0
  0
LINE
  5
779
100
AcDbEntity
  8
2
370
    50
100
AcDbLine
 10
167.854678
 20
-132.552967
 30
0.0
 11
161.254678
 21
-132.552967
 31
0.0
  0
ARC
  5
77A
100
AcDbEntity
  8
2
370
    50
100
AcDbCircle
 10
167.254678
 20
-131.752967
 30
0.0
 40
1.0
100
AcDbArc
 50
306.869898
 51
360.0
  0
LINE
  5
77B
100
AcDbEntity
  8
2
370
    50
100
AcDbLine
 10
168.254678
 20
-131.752967
 30
0.0
 11
168.254678
 21
-128.352967
 31
0.0
  0
ARC
  5
77C
100
AcDbEntity
  8
2
370
    50
100
AcDbCircle
 10
167.254678
 20
-128.352967
 30
0.0
 40
1.0
100
AcDbArc
 50
360.0
 51
53.130102
  0
LINE
  5
77D
100
AcDbEntity
  8
2
370
    50
100
AcDbLine
 10
167.854678
 20
-127.552967
 30
0.0
 11
161.254678
 21
-127.552967
 31
0.0
  0
LINE
  5
77E
100
AcDbEntity
  8
2
370
    50
100
AcDbLine
 10
167.854678
 20
-127.552967
 30
0.0
 11
167.854678
 21
-125.552967
 31
0.0
  0
LINE
  5
77F
100
AcDbEntity
  8
2
370
    50
100
AcDbLine
 10
167.854678
 20
-125.552967
 30
0.0
 11
161.254678
 21
-125.552967
 31
0.0
  0
ARC
  5
780
100
AcDbEntity
  8
2
370
    50
100
AcDbCircle
 10
167.254678
 20
-124.752967
 30
0.0
 40
1.0
100
AcDbArc
 50
306.869898
 51
360.0
  0
LINE
  5
781
100
AcDbEntity
  8
2
370
    50
100
AcDbLine
 10
168.254678
 20
-124.752967
 30
0.0
 11
168.254678
 21
-121.352967
 31
0.0
  0
ARC
  5
782
100
AcDbEntity
  8
2
370
    50
100
AcDbCircle
 10
167.254678
 20
-121.352967
 30
0.0
 40
1.0
100
AcDbArc
 50
360.0
 51
53.130102
  0
LINE
  5
783
100
AcDbEntity
  8
2
370
    50
100
AcDbLine
 10
167.854678
 20
-120.552967
 30
0.0
 11
161.254678
 21
-120.552967
 31
0.0
  0
LINE
  5
784
100
AcDbEntity
  8
2
370
    50
100
AcDbLine
 10
167.854678
 20
-120.552967
 30
0.0
 11
167.854678
 21
-118.552967
 31
0.0
  0
LINE
  5
785
100
AcDbEntity
  8
2
370
    50
100
AcDbLine
 10
167.854678
 20
-118.552967
 30
0.0
 11
161.254678
 21
-118.552967
 31
0.0
  0
ARC
  5
786
100
AcDbEntity
  8
2
370
    50
100
AcDbCircle
 10
167.254678
 20
-117.752967
 30
0.0
 40
1.0
100
AcDbArc
 50
306.869898
 51
360.0
  0
LINE
  5
787
100
AcDbEntity
  8
2
370
    50
100
AcDbLine
 10
168.254678
 20
-117.752967
 30
0.0
 11
168.254678
 21
-111.852967
 31
0.0
  0
ARC
  5
788
100
AcDbEntity
  8
2
370
    50
100
AcDbCircle
 10
167.254678
 20
-111.852967
 30
0.0
 40
1.0
100
AcDbArc
 50
360.0
 51
53.130102
  0
LINE
  5
789
100
AcDbEntity
  8
2
370
    50
100
AcDbLine
 10
154.654678
 20
-111.052967
 30
0.0
 11
167.854678
 21
-111.052967
 31
0.0
  0
ARC
  5
78A
100
AcDbEntity
  8
2
370
    50
100
AcDbCircle
 10
155.254678
 20
-111.852967
 30
0.0
 40
1.0
100
AcDbArc
 50
126.869898
 51
180.0
  0
LINE
  5
78B
100
AcDbEntity
  8
2
370
    50
100
AcDbLine
 10
154.804678
 20
-147.400973
 30
0.0
 11
154.804678
 21
-140.052967
 31
0.0
  0
LINE
  5
78C
100
AcDbEntity
  8
2
370
    50
100
AcDbLine
 10
167.704678
 20
-147.400973
 30
0.0
 11
167.704678
 21
-140.052967
 31
0.0
  0
ARC
  5
78D
100
AcDbEntity
  8
2
370
    50
100
AcDbCircle
 10
161.254678
 20
-115.256596
 30
0.0
 40
10.10363
100
AcDbArc
 50
90.0
 51
103.729133
  0
LINE
  5
78E
100
AcDbEntity
  8
2
370
    50
100
AcDbLine
 10
157.690496
 20
-105.441642
 30
0.0
 11
158.856762
 21
-105.441642
 31
0.0
  0
ARC
  5
78F
100
AcDbEntity
  8
2
370
    50
100
AcDbCircle
 10
156.491538
 20
-107.787127
 30
0.0
 40
2.634161
100
AcDbArc
 50
62.924933
 51
117.075067
  0
LINE
  5
790
100
AcDbEntity
  8
2
370
    50
100
AcDbLine
 10
158.856762
 20
-105.441642
 30
0.0
 11
158.856762
 21
-110.764291
 31
0.0
  0
LINE
  5
791
100
AcDbEntity
  8
2
370
    50
100
AcDbLine
 10
157.690496
 20
-105.441642
 30
0.0
 11
157.690496
 21
-110.764291
 31
0.0
  0
LINE
  5
792
100
AcDbEntity
  8
2
370
    50
100
AcDbLine
 10
155.29258
 20
-105.441642
 30
0.0
 11
155.29258
 21
-110.764291
 31
0.0
  0
ARC
  5
793
100
AcDbEntity
  8
2
370
    50
100
AcDbCircle
 10
158.029723
 20
-143.100913
 30
0.0
 40
5.375075
100
AcDbArc
 50
233.130102
 51
306.869898
  0
ARC
  5
794
100
AcDbEntity
  8
2
370
    50
100
AcDbCircle
 10
164.479813
 20
-151.701034
 30
0.0
 40
5.375075
100
AcDbArc
 50
53.130102
 51
126.869898
  0
ARC
  5
795
100
AcDbEntity
  8
2
370
    50
100
AcDbCircle
 10
158.029723
 20
-151.701034
 30
0.0
 40
5.375075
100
AcDbArc
 50
53.130102
 51
126.869898
  0
LINE
  5
796
100
AcDbEntity
  8
2
370
    50
100
AcDbLine
 10
-187.47959
 20
-111.78958
 30
0.0
 11
-187.47959
 21
-106.46693
 31
0.0
  0
LINE
  5
797
100
AcDbEntity
  8
2
370
    50
100
AcDbLine
 10
-175.47959
 20
-111.78958
 30
0.0
 11
-175.47959
 21
-106.46693
 31
0.0
  0
LINE
  5
798
100
AcDbEntity
  8
2
370
    50
100
AcDbLine
 10
-179.081674
 20
-106.46693
 30
0.0
 11
-179.081674
 21
-111.78958
 31
0.0
  0
LINE
  5
799
100
AcDbEntity
  8
2
370
    50
100
AcDbLine
 10
-177.915408
 20
-106.46693
 30
0.0
 11
-177.915408
 21
-111.78958
 31
0.0
  0
LINE
  5
79A
100
AcDbEntity
  8
2
370
    50
100
AcDbLine
 10
-175.517492
 20
-106.46693
 30
0.0
 11
-175.517492
 21
-111.78958
 31
0.0
  0
LINE
  5
79B
100
AcDbEntity
  8
2
370
    50
100
AcDbLine
 10
-175.97959
 20
-112.078255
 30
0.0
 11
-175.47959
 21
-111.78958
 31
0.0
  0
LINE
  5
79C
100
AcDbEntity
  8
2
370
    50
100
AcDbLine
 10
-177.915408
 20
-111.78958
 30
0.0
 11
-179.081674
 21
-111.78958
 31
0.0
  0
LINE
  5
79D
100
AcDbEntity
  8
2
370
    50
100
AcDbLine
 10
-187.47959
 20
-111.78958
 30
0.0
 11
-186.97959
 21
-112.078255
 31
0.0
  0
LINE
  5
79E
100
AcDbEntity
  8
2
370
    50
100
AcDbLine
 10
-187.47959
 20
-106.46693
 30
0.0
 11
-186.97959
 21
-106.178255
 31
0.0
  0
ARC
  5
79F
100
AcDbEntity
  8
2
370
    50
100
AcDbCircle
 10
-181.47959
 20
-101.974625
 30
0.0
 40
10.10363
100
AcDbArc
 50
270.0
 51
283.729133
  0
ARC
  5
7A0
100
AcDbEntity
  8
2
370
    50
100
AcDbCircle
 10
-181.47959
 20
-116.281885
 30
0.0
 40
10.10363
100
AcDbArc
 50
76.270867
 51
90.0
  0
LINE
  5
7A1
100
AcDbEntity
  8
2
370
    50
100
AcDbLine
 10
-177.915408
 20
-106.46693
 30
0.0
 11
-179.081674
 21
-106.46693
 31
0.0
  0
LINE
  5
7A2
100
AcDbEntity
  8
2
370
    50
100
AcDbLine
 10
-175.47959
 20
-111.78958
 30
0.0
 11
-175.517492
 21
-111.78958
 31
0.0
  0
ARC
  5
7A3
100
AcDbEntity
  8
2
370
    50
100
AcDbCircle
 10
-176.71645
 20
-109.444095
 30
0.0
 40
2.634161
100
AcDbArc
 50
242.924933
 51
297.075067
  0
ARC
  5
7A4
100
AcDbEntity
  8
2
370
    50
100
AcDbCircle
 10
-176.71645
 20
-108.812416
 30
0.0
 40
2.634161
100
AcDbArc
 50
62.924933
 51
117.075067
  0
LINE
  5
7A5
100
AcDbEntity
  8
2
370
    50
100
AcDbLine
 10
-175.97959
 20
-106.178255
 30
0.0
 11
-175.47959
 21
-106.46693
 31
0.0
  0
ARC
  5
7A6
100
AcDbEntity
  8
2
370
    50
100
AcDbCircle
 10
-181.47959
 20
-101.974625
 30
0.0
 40
10.10363
100
AcDbArc
 50
256.270867
 51
270.0
  0
LINE
  5
7A7
100
AcDbEntity
  8
2
370
    50
100
AcDbLine
 10
-185.043771
 20
-111.78958
 30
0.0
 11
-183.877505
 21
-111.78958
 31
0.0
  0
ARC
  5
7A8
100
AcDbEntity
  8
2
370
    50
100
AcDbCircle
 10
-186.242729
 20
-109.444095
 30
0.0
 40
2.634161
100
AcDbArc
 50
242.924933
 51
297.075067
  0
LINE
  5
7A9
100
AcDbEntity
  8
2
370
    50
100
AcDbLine
 10
-187.441687
 20
-111.78958
 30
0.0
 11
-187.47959
 21
-111.78958
 31
0.0
  0
LINE
  5
7AA
100
AcDbEntity
  8
2
370
    50
100
AcDbLine
 10
-186.97959
 20
-112.078255
 30
0.0
 11
-175.97959
 21
-112.078255
 31
0.0
  0
LINE
  5
7AB
100
AcDbEntity
  8
2
370
    50
100
AcDbLine
 10
-188.07959
 20
-141.078255
 30
0.0
 11
-181.47959
 21
-141.078255
 31
0.0
  0
LINE
  5
7AC
100
AcDbEntity
  8
2
370
    50
100
AcDbLine
 10
-188.07959
 20
-135.578255
 30
0.0
 11
-181.47959
 21
-135.578255
 31
0.0
  0
LINE
  5
7AD
100
AcDbEntity
  8
2
370
    50
100
AcDbLine
 10
-188.07959
 20
-133.578255
 30
0.0
 11
-181.47959
 21
-133.578255
 31
0.0
  0
LINE
  5
7AE
100
AcDbEntity
  8
2
370
    50
100
AcDbLine
 10
-188.07959
 20
-128.578255
 30
0.0
 11
-181.47959
 21
-128.578255
 31
0.0
  0
LINE
  5
7AF
100
AcDbEntity
  8
2
370
    50
100
AcDbLine
 10
-188.07959
 20
-126.578255
 30
0.0
 11
-181.47959
 21
-126.578255
 31
0.0
  0
LINE
  5
7B0
100
AcDbEntity
  8
2
370
    50
100
AcDbLine
 10
-188.07959
 20
-121.578255
 30
0.0
 11
-181.47959
 21
-121.578255
 31
0.0
  0
LINE
  5
7B1
100
AcDbEntity
  8
2
370
    50
100
AcDbLine
 10
-188.07959
 20
-119.578255
 30
0.0
 11
-181.47959
 21
-119.578255
 31
0.0
  0
LINE
  5
7B2
100
AcDbEntity
  8
2
370
    50
100
AcDbLine
 10
-188.47959
 20
-140.278255
 30
0.0
 11
-188.47959
 21
-136.378255
 31
0.0
  0
LINE
  5
7B3
100
AcDbEntity
  8
2
370
    50
100
AcDbLine
 10
-188.47959
 20
-132.778255
 30
0.0
 11
-188.47959
 21
-129.378255
 31
0.0
  0
LINE
  5
7B4
100
AcDbEntity
  8
2
370
    50
100
AcDbLine
 10
-188.47959
 20
-125.778255
 30
0.0
 11
-188.47959
 21
-122.378255
 31
0.0
  0
LINE
  5
7B5
100
AcDbEntity
  8
2
370
    50
100
AcDbLine
 10
-188.47959
 20
-118.778255
 30
0.0
 11
-188.47959
 21
-112.878255
 31
0.0
  0
LINE
  5
7B6
100
AcDbEntity
  8
2
370
    50
100
AcDbLine
 10
-188.07959
 20
-121.578255
 30
0.0
 11
-188.07959
 21
-119.578255
 31
0.0
  0
LINE
  5
7B7
100
AcDbEntity
  8
2
370
    50
100
AcDbLine
 10
-188.07959
 20
-135.578255
 30
0.0
 11
-188.07959
 21
-133.578255
 31
0.0
  0
LINE
  5
7B8
100
AcDbEntity
  8
2
370
    50
100
AcDbLine
 10
-188.07959
 20
-128.578255
 30
0.0
 11
-188.07959
 21
-126.578255
 31
0.0
  0
ARC
  5
7B9
100
AcDbEntity
  8
2
370
    50
100
AcDbCircle
 10
-187.47959
 20
-118.778255
 30
0.0
 40
1.0
100
AcDbArc
 50
180.0
 51
233.130102
  0
ARC
  5
7BA
100
AcDbEntity
  8
2
370
    50
100
AcDbCircle
 10
-187.47959
 20
-122.378255
 30
0.0
 40
1.0
100
AcDbArc
 50
126.869898
 51
180.0
  0
ARC
  5
7BB
100
AcDbEntity
  8
2
370
    50
100
AcDbCircle
 10
-187.47959
 20
-125.778255
 30
0.0
 40
1.0
100
AcDbArc
 50
180.0
 51
233.130102
  0
ARC
  5
7BC
100
AcDbEntity
  8
2
370
    50
100
AcDbCircle
 10
-187.47959
 20
-129.378255
 30
0.0
 40
1.0
100
AcDbArc
 50
126.869898
 51
180.0
  0
ARC
  5
7BD
100
AcDbEntity
  8
2
370
    50
100
AcDbCircle
 10
-187.47959
 20
-132.778255
 30
0.0
 40
1.0
100
AcDbArc
 50
180.0
 51
233.130102
  0
ARC
  5
7BE
100
AcDbEntity
  8
2
370
    50
100
AcDbCircle
 10
-187.47959
 20
-136.378255
 30
0.0
 40
1.0
100
AcDbArc
 50
126.869898
 51
180.0
  0
ARC
  5
7BF
100
AcDbEntity
  8
2
370
    50
100
AcDbCircle
 10
-187.47959
 20
-140.278255
 30
0.0
 40
1.0
100
AcDbArc
 50
180.0
 51
233.130102
  0
LINE
  5
7C0
100
AcDbEntity
  8
2
370
    50
100
AcDbLine
 10
-174.87959
 20
-141.078255
 30
0.0
 11
-181.47959
 21
-141.078255
 31
0.0
  0
ARC
  5
7C1
100
AcDbEntity
  8
2
370
    50
100
AcDbCircle
 10
-175.47959
 20
-140.278255
 30
0.0
 40
1.0
100
AcDbArc
 50
306.869898
 51
360.0
  0
LINE
  5
7C2
100
AcDbEntity
  8
2
370
    50
100
AcDbLine
 10
-174.47959
 20
-140.278255
 30
0.0
 11
-174.47959
 21
-136.378255
 31
0.0
  0
ARC
  5
7C3
100
AcDbEntity
  8
2
370
    50
100
AcDbCircle
 10
-175.47959
 20
-136.378255
 30
0.0
 40
1.0
100
AcDbArc
 50
360.0
 51
53.130102
  0
LINE
  5
7C4
100
AcDbEntity
  8
2
370
    50
100
AcDbLine
 10
-174.87959
 20
-135.578255
 30
0.0
 11
-174.87959
 21
-133.578255
 31
0.0
  0
LINE
  5
7C5
100
AcDbEntity
  8
2
370
    50
100
AcDbLine
 10
-174.87959
 20
-135.578255
 30
0.0
 11
-181.47959
 21
-135.578255
 31
0.0
  0
LINE
  5
7C6
100
AcDbEntity
  8
2
370
    50
100
AcDbLine
 10
-174.87959
 20
-133.578255
 30
0.0
 11
-181.47959
 21
-133.578255
 31
0.0
  0
ARC
  5
7C7
100
AcDbEntity
  8
2
370
    50
100
AcDbCircle
 10
-175.47959
 20
-132.778255
 30
0.0
 40
1.0
100
AcDbArc
 50
306.869898
 51
360.0
  0
LINE
  5
7C8
100
AcDbEntity
  8
2
370
    50
100
AcDbLine
 10
-174.47959
 20
-132.778255
 30
0.0
 11
-174.47959
 21
-129.378255
 31
0.0
  0
ARC
  5
7C9
100
AcDbEntity
  8
2
370
    50
100
AcDbCircle
 10
-175.47959
 20
-129.378255
 30
0.0
 40
1.0
100
AcDbArc
 50
360.0
 51
53.130102
  0
LINE
  5
7CA
100
AcDbEntity
  8
2
370
    50
100
AcDbLine
 10
-174.87959
 20
-128.578255
 30
0.0
 11
-181.47959
 21
-128.578255
 31
0.0
  0
LINE
  5
7CB
100
AcDbEntity
  8
2
370
    50
100
AcDbLine
 10
-174.87959
 20
-128.578255
 30
0.0
 11
-174.87959
 21
-126.578255
 31
0.0
  0
LINE
  5
7CC
100
AcDbEntity
  8
2
370
    50
100
AcDbLine
 10
-174.87959
 20
-126.578255
 30
0.0
 11
-181.47959
 21
-126.578255
 31
0.0
  0
ARC
  5
7CD
100
AcDbEntity
  8
2
370
    50
100
AcDbCircle
 10
-175.47959
 20
-125.778255
 30
0.0
 40
1.0
100
AcDbArc
 50
306.869898
 51
360.0
  0
LINE
  5
7CE
100
AcDbEntity
  8
2
370
    50
100
AcDbLine
 10
-174.47959
 20
-125.778255
 30
0.0
 11
-174.47959
 21
-122.378255
 31
0.0
  0
ARC
  5
7CF
100
AcDbEntity
  8
2
370
    50
100
AcDbCircle
 10
-175.47959
 20
-122.378255
 30
0.0
 40
1.0
100
AcDbArc
 50
360.0
 51
53.130102
  0
LINE
  5
7D0
100
AcDbEntity
  8
2
370
    50
100
AcDbLine
 10
-174.87959
 20
-121.578255
 30
0.0
 11
-181.47959
 21
-121.578255
 31
0.0
  0
LINE
  5
7D1
100
AcDbEntity
  8
2
370
    50
100
AcDbLine
 10
-174.87959
 20
-121.578255
 30
0.0
 11
-174.87959
 21
-119.578255
 31
0.0
  0
LINE
  5
7D2
100
AcDbEntity
  8
2
370
    50
100
AcDbLine
 10
-174.87959
 20
-119.578255
 30
0.0
 11
-181.47959
 21
-119.578255
 31
0.0
  0
ARC
  5
7D3
100
AcDbEntity
  8
2
370
    50
100
AcDbCircle
 10
-175.47959
 20
-118.778255
 30
0.0
 40
1.0
100
AcDbArc
 50
306.869898
 51
360.0
  0
LINE
  5
7D4
100
AcDbEntity
  8
2
370
    50
100
AcDbLine
 10
-174.47959
 20
-118.778255
 30
0.0
 11
-174.47959
 21
-112.878255
 31
0.0
  0
ARC
  5
7D5
100
AcDbEntity
  8
2
370
    50
100
AcDbCircle
 10
-175.47959
 20
-112.878255
 30
0.0
 40
1.0
100
AcDbArc
 50
360.0
 51
53.130102
  0
LINE
  5
7D6
100
AcDbEntity
  8
2
370
    50
100
AcDbLine
 10
-188.07959
 20
-112.078255
 30
0.0
 11
-174.87959
 21
-112.078255
 31
0.0
  0
ARC
  5
7D7
100
AcDbEntity
  8
2
370
    50
100
AcDbCircle
 10
-187.47959
 20
-112.878255
 30
0.0
 40
1.0
100
AcDbArc
 50
126.869898
 51
180.0
  0
LINE
  5
7D8
100
AcDbEntity
  8
2
370
    50
100
AcDbLine
 10
-187.92959
 20
-148.426262
 30
0.0
 11
-187.92959
 21
-141.078255
 31
0.0
  0
LINE
  5
7D9
100
AcDbEntity
  8
2
370
    50
100
AcDbLine
 10
-175.02959
 20
-148.426262
 30
0.0
 11
-175.02959
 21
-141.078255
 31
0.0
  0
ARC
  5
7DA
100
AcDbEntity
  8
2
370
    50
100
AcDbCircle
 10
-181.47959
 20
-116.281885
 30
0.0
 40
10.10363
100
AcDbArc
 50
90.0
 51
103.729133
  0
LINE
  5
7DB
100
AcDbEntity
  8
2
370
    50
100
AcDbLine
 10
-185.043771
 20
-106.46693
 30
0.0
 11
-183.877505
 21
-106.46693
 31
0.0
  0
ARC
  5
7DC
100
AcDbEntity
  8
2
370
    50
100
AcDbCircle
 10
-186.242729
 20
-108.812416
 30
0.0
 40
2.634161
100
AcDbArc
 50
62.924933
 51
117.075067
  0
LINE
  5
7DD
100
AcDbEntity
  8
2
370
    50
100
AcDbLine
 10
-183.877505
 20
-106.46693
 30
0.0
 11
-183.877505
 21
-111.78958
 31
0.0
  0
LINE
  5
7DE
100
AcDbEntity
  8
2
370
    50
100
AcDbLine
 10
-185.043771
 20
-106.46693
 30
0.0
 11
-185.043771
 21
-111.78958
 31
0.0
  0
LINE
  5
7DF
100
AcDbEntity
  8
2
370
    50
100
AcDbLine
 10
-187.441687
 20
-106.46693
 30
0.0
 11
-187.441687
 21
-111.78958
 31
0.0
  0
ARC
  5
7E0
100
AcDbEntity
  8
2
370
    50
100
AcDbCircle
 10
-184.704544
 20
-144.126202
 30
0.0
 40
5.375075
100
AcDbArc
 50
233.130102
 51
306.869898
  0
ARC
  5
7E1
100
AcDbEntity
  8
2
370
    50
100
AcDbCircle
 10
-178.254454
 20
-152.726322
 30
0.0
 40
5.375075
100
AcDbArc
 50
53.130102
 51
126.869898
  0
ARC
  5
7E2
100
AcDbEntity
  8
2
370
    50
100
AcDbCircle
 10
-184.704544
 20
-152.726322
 30
0.0
 40
5.375075
100
AcDbArc
 50
53.130102
 51
126.869898
  0
LINE
  5
7E3
100
AcDbEntity
  8
2
370
    50
100
AcDbLine
 10
-171.47959
 20
-121.789708
 30
0.0
 11
-171.47959
 21
-116.467058
 31
0.0
  0
LINE
  5
7E4
100
AcDbEntity
  8
2
370
    50
100
AcDbLine
 10
-159.47959
 20
-121.789708
 30
0.0
 11
-159.47959
 21
-116.467058
 31
0.0
  0
LINE
  5
7E5
100
AcDbEntity
  8
2
370
    50
100
AcDbLine
 10
-163.081674
 20
-116.467058
 30
0.0
 11
-163.081674
 21
-121.789708
 31
0.0
  0
LINE
  5
7E6
100
AcDbEntity
  8
2
370
    50
100
AcDbLine
 10
-161.915408
 20
-116.467058
 30
0.0
 11
-161.915408
 21
-121.789708
 31
0.0
  0
LINE
  5
7E7
100
AcDbEntity
  8
2
370
    50
100
AcDbLine
 10
-159.517492
 20
-116.467058
 30
0.0
 11
-159.517492
 21
-121.789708
 31
0.0
  0
LINE
  5
7E8
100
AcDbEntity
  8
2
370
    50
100
AcDbLine
 10
-159.97959
 20
-122.078383
 30
0.0
 11
-159.47959
 21
-121.789708
 31
0.0
  0
LINE
  5
7E9
100
AcDbEntity
  8
2
370
    50
100
AcDbLine
 10
-161.915408
 20
-121.789708
 30
0.0
 11
-163.081674
 21
-121.789708
 31
0.0
  0
LINE
  5
7EA
100
AcDbEntity
  8
2
370
    50
100
AcDbLine
 10
-171.47959
 20
-121.789708
 30
0.0
 11
-170.97959
 21
-122.078383
 31
0.0
  0
LINE
  5
7EB
100
AcDbEntity
  8
2
370
    50
100
AcDbLine
 10
-171.47959
 20
-116.467058
 30
0.0
 11
-170.97959
 21
-116.178383
 31
0.0
  0
ARC
  5
7EC
100
AcDbEntity
  8
2
370
    50
100
AcDbCircle
 10
-165.47959
 20
-111.974753
 30
0.0
 40
10.10363
100
AcDbArc
 50
270.0
 51
283.729133
  0
ARC
  5
7ED
100
AcDbEntity
  8
2
370
    50
100
AcDbCircle
 10
-165.47959
 20
-126.282013
 30
0.0
 40
10.10363
100
AcDbArc
 50
76.270867
 51
90.0
  0
LINE
  5
7EE
100
AcDbEntity
  8
2
370
    50
100
AcDbLine
 10
-161.915408
 20
-116.467058
 30
0.0
 11
-163.081674
 21
-116.467058
 31
0.0
  0
LINE
  5
7EF
100
AcDbEntity
  8
2
370
    50
100
AcDbLine
 10
-159.47959
 20
-121.789708
 30
0.0
 11
-159.517492
 21
-121.789708
 31
0.0
  0
ARC
  5
7F0
100
AcDbEntity
  8
2
370
    50
100
AcDbCircle
 10
-160.71645
 20
-119.444222
 30
0.0
 40
2.634161
100
AcDbArc
 50
242.924933
 51
297.075067
  0
ARC
  5
7F1
100
AcDbEntity
  8
2
370
    50
100
AcDbCircle
 10
-160.71645
 20
-118.812543
 30
0.0
 40
2.634161
100
AcDbArc
 50
62.924933
 51
117.075067
  0
LINE
  5
7F2
100
AcDbEntity
  8
2
370
    50
100
AcDbLine
 10
-159.97959
 20
-116.178383
 30
0.0
 11
-159.47959
 21
-116.467058
 31
0.0
  0
ARC
  5
7F3
100
AcDbEntity
  8
2
370
    50
100
AcDbCircle
 10
-165.47959
 20
-111.974753
 30
0.0
 40
10.10363
100
AcDbArc
 50
256.270867
 51
270.0
  0
LINE
  5
7F4
100
AcDbEntity
  8
2
370
    50
100
AcDbLine
 10
-169.043771
 20
-121.789708
 30
0.0
 11
-167.877505
 21
-121.789708
 31
0.0
  0
ARC
  5
7F5
100
AcDbEntity
  8
2
370
    50
100
AcDbCircle
 10
-170.242729
 20
-119.444222
 30
0.0
 40
2.634161
100
AcDbArc
 50
242.924933
 51
297.075067
  0
LINE
  5
7F6
100
AcDbEntity
  8
2
370
    50
100
AcDbLine
 10
-171.441687
 20
-121.789708
 30
0.0
 11
-171.47959
 21
-121.789708
 31
0.0
  0
LINE
  5
7F7
100
AcDbEntity
  8
2
370
    50
100
AcDbLine
 10
-170.97959
 20
-122.078383
 30
0.0
 11
-159.97959
 21
-122.078383
 31
0.0
  0
LINE
  5
7F8
100
AcDbEntity
  8
2
370
    50
100
AcDbLine
 10
-172.07959
 20
-151.078383
 30
0.0
 11
-165.47959
 21
-151.078383
 31
0.0
  0
LINE
  5
7F9
100
AcDbEntity
  8
2
370
    50
100
AcDbLine
 10
-172.07959
 20
-145.578383
 30
0.0
 11
-165.47959
 21
-145.578383
 31
0.0
  0
LINE
  5
7FA
100
AcDbEntity
  8
2
370
    50
100
AcDbLine
 10
-172.07959
 20
-143.578383
 30
0.0
 11
-165.47959
 21
-143.578383
 31
0.0
  0
LINE
  5
7FB
100
AcDbEntity
  8
2
370
    50
100
AcDbLine
 10
-172.07959
 20
-138.578383
 30
0.0
 11
-165.47959
 21
-138.578383
 31
0.0
  0
LINE
  5
7FC
100
AcDbEntity
  8
2
370
    50
100
AcDbLine
 10
-172.07959
 20
-136.578383
 30
0.0
 11
-165.47959
 21
-136.578383
 31
0.0
  0
LINE
  5
7FD
100
AcDbEntity
  8
2
370
    50
100
AcDbLine
 10
-172.07959
 20
-131.578383
 30
0.0
 11
-165.47959
 21
-131.578383
 31
0.0
  0
LINE
  5
7FE
100
AcDbEntity
  8
2
370
    50
100
AcDbLine
 10
-172.07959
 20
-129.578383
 30
0.0
 11
-165.47959
 21
-129.578383
 31
0.0
  0
LINE
  5
7FF
100
AcDbEntity
  8
2
370
    50
100
AcDbLine
 10
-172.47959
 20
-150.278383
 30
0.0
 11
-172.47959
 21
-146.378383
 31
0.0
  0
LINE
  5
800
100
AcDbEntity
  8
2
370
    50
100
AcDbLine
 10
-172.47959
 20
-142.778383
 30
0.0
 11
-172.47959
 21
-139.378383
 31
0.0
  0
LINE
  5
801
100
AcDbEntity
  8
2
370
    50
100
AcDbLine
 10
-172.47959
 20
-135.778383
 30
0.0
 11
-172.47959
 21
-132.378383
 31
0.0
  0
LINE
  5
802
100
AcDbEntity
  8
2
370
    50
100
AcDbLine
 10
-172.47959
 20
-128.778383
 30
0.0
 11
-172.47959
 21
-122.878383
 31
0.0
  0
LINE
  5
803
100
AcDbEntity
  8
2
370
    50
100
AcDbLine
 10
-172.07959
 20
-131.578383
 30
0.0
 11
-172.07959
 21
-129.578383
 31
0.0
  0
LINE
  5
804
100
AcDbEntity
  8
2
370
    50
100
AcDbLine
 10
-172.07959
 20
-145.578383
 30
0.0
 11
-172.07959
 21
-143.578383
 31
0.0
  0
LINE
  5
805
100
AcDbEntity
  8
2
370
    50
100
AcDbLine
 10
-172.07959
 20
-138.578383
 30
0.0
 11
-172.07959
 21
-136.578383
 31
0.0
  0
ARC
  5
806
100
AcDbEntity
  8
2
370
    50
100
AcDbCircle
 10
-171.47959
 20
-128.778383
 30
0.0
 40
1.0
100
AcDbArc
 50
180.0
 51
233.130102
  0
ARC
  5
807
100
AcDbEntity
  8
2
370
    50
100
AcDbCircle
 10
-171.47959
 20
-132.378383
 30
0.0
 40
1.0
100
AcDbArc
 50
126.869898
 51
180.0
  0
ARC
  5
808
100
AcDbEntity
  8
2
370
    50
100
AcDbCircle
 10
-171.47959
 20
-135.778383
 30
0.0
 40
1.0
100
AcDbArc
 50
180.0
 51
233.130102
  0
ARC
  5
809
100
AcDbEntity
  8
2
370
    50
100
AcDbCircle
 10
-171.47959
 20
-139.378383
 30
0.0
 40
1.0
100
AcDbArc
 50
126.869898
 51
180.0
  0
ARC
  5
80A
100
AcDbEntity
  8
2
370
    50
100
AcDbCircle
 10
-171.47959
 20
-142.778383
 30
0.0
 40
1.0
100
AcDbArc
 50
180.0
 51
233.130102
  0
ARC
  5
80B
100
AcDbEntity
  8
2
370
    50
100
AcDbCircle
 10
-171.47959
 20
-146.378383
 30
0.0
 40
1.0
100
AcDbArc
 50
126.869898
 51
180.0
  0
ARC
  5
80C
100
AcDbEntity
  8
2
370
    50
100
AcDbCircle
 10
-171.47959
 20
-150.278383
 30
0.0
 40
1.0
100
AcDbArc
 50
180.0
 51
233.130102
  0
LINE
  5
80D
100
AcDbEntity
  8
2
370
    50
100
AcDbLine
 10
-158.87959
 20
-151.078383
 30
0.0
 11
-165.47959
 21
-151.078383
 31
0.0
  0
ARC
  5
80E
100
AcDbEntity
  8
2
370
    50
100
AcDbCircle
 10
-159.47959
 20
-150.278383
 30
0.0
 40
1.0
100
AcDbArc
 50
306.869898
 51
360.0
  0
LINE
  5
80F
100
AcDbEntity
  8
2
370
    50
100
AcDbLine
 10
-158.47959
 20
-150.278383
 30
0.0
 11
-158.47959
 21
-146.378383
 31
0.0
  0
ARC
  5
810
100
AcDbEntity
  8
2
370
    50
100
AcDbCircle
 10
-159.47959
 20
-146.378383
 30
0.0
 40
1.0
100
AcDbArc
 50
360.0
 51
53.130102
  0
LINE
  5
811
100
AcDbEntity
  8
2
370
    50
100
AcDbLine
 10
-158.87959
 20
-145.578383
 30
0.0
 11
-158.87959
 21
-143.578383
 31
0.0
  0
LINE
  5
812
100
AcDbEntity
  8
2
370
    50
100
AcDbLine
 10
-158.87959
 20
-145.578383
 30
0.0
 11
-165.47959
 21
-145.578383
 31
0.0
  0
LINE
  5
813
100
AcDbEntity
  8
2
370
    50
100
AcDbLine
 10
-158.87959
 20
-143.578383
 30
0.0
 11
-165.47959
 21
-143.578383
 31
0.0
  0
ARC
  5
814
100
AcDbEntity
  8
2
370
    50
100
AcDbCircle
 10
-159.47959
 20
-142.778383
 30
0.0
 40
1.0
100
AcDbArc
 50
306.869898
 51
360.0
  0
LINE
  5
815
100
AcDbEntity
  8
2
370
    50
100
AcDbLine
 10
-158.47959
 20
-142.778383
 30
0.0
 11
-158.47959
 21
-139.378383
 31
0.0
  0
ARC
  5
816
100
AcDbEntity
  8
2
370
    50
100
AcDbCircle
 10
-159.47959
 20
-139.378383
 30
0.0
 40
1.0
100
AcDbArc
 50
360.0
 51
53.130102
  0
LINE
  5
817
100
AcDbEntity
  8
2
370
    50
100
AcDbLine
 10
-158.87959
 20
-138.578383
 30
0.0
 11
-165.47959
 21
-138.578383
 31
0.0
  0
LINE
  5
818
100
AcDbEntity
  8
2
370
    50
100
AcDbLine
 10
-158.87959
 20
-138.578383
 30
0.0
 11
-158.87959
 21
-136.578383
 31
0.0
  0
LINE
  5
819
100
AcDbEntity
  8
2
370
    50
100
AcDbLine
 10
-158.87959
 20
-136.578383
 30
0.0
 11
-165.47959
 21
-136.578383
 31
0.0
  0
ARC
  5
81A
100
AcDbEntity
  8
2
370
    50
100
AcDbCircle
 10
-159.47959
 20
-135.778383
 30
0.0
 40
1.0
100
AcDbArc
 50
306.869898
 51
360.0
  0
LINE
  5
81B
100
AcDbEntity
  8
2
370
    50
100
AcDbLine
 10
-158.47959
 20
-135.778383
 30
0.0
 11
-158.47959
 21
-132.378383
 31
0.0
  0
ARC
  5
81C
100
AcDbEntity
  8
2
370
    50
100
AcDbCircle
 10
-159.47959
 20
-132.378383
 30
0.0
 40
1.0
100
AcDbArc
 50
360.0
 51
53.130102
  0
LINE
  5
81D
100
AcDbEntity
  8
2
370
    50
100
AcDbLine
 10
-158.87959
 20
-131.578383
 30
0.0
 11
-165.47959
 21
-131.578383
 31
0.0
  0
LINE
  5
81E
100
AcDbEntity
  8
2
370
    50
100
AcDbLine
 10
-158.87959
 20
-131.578383
 30
0.0
 11
-158.87959
 21
-129.578383
 31
0.0
  0
LINE
  5
81F
100
AcDbEntity
  8
2
370
    50
100
AcDbLine
 10
-158.87959
 20
-129.578383
 30
0.0
 11
-165.47959
 21
-129.578383
 31
0.0
  0
ARC
  5
820
100
AcDbEntity
  8
2
370
    50
100
AcDbCircle
 10
-159.47959
 20
-128.778383
 30
0.0
 40
1.0
100
AcDbArc
 50
306.869898
 51
360.0
  0
LINE
  5
821
100
AcDbEntity
  8
2
370
    50
100
AcDbLine
 10
-158.47959
 20
-128.778383
 30
0.0
 11
-158.47959
 21
-122.878383
 31
0.0
  0
ARC
  5
822
100
AcDbEntity
  8
2
370
    50
100
AcDbCircle
 10
-159.47959
 20
-122.878383
 30
0.0
 40
1.0
100
AcDbArc
 50
360.0
 51
53.130102
  0
LINE
  5
823
100
AcDbEntity
  8
2
370
    50
100
AcDbLine
 10
-172.07959
 20
-122.078383
 30
0.0
 11
-158.87959
 21
-122.078383
 31
0.0
  0
ARC
  5
824
100
AcDbEntity
  8
2
370
    50
100
AcDbCircle
 10
-171.47959
 20
-122.878383
 30
0.0
 40
1.0
100
AcDbArc
 50
126.869898
 51
180.0
  0
LINE
  5
825
100
AcDbEntity
  8
2
370
    50
100
AcDbLine
 10
-171.92959
 20
-158.42639
 30
0.0
 11
-171.92959
 21
-151.078383
 31
0.0
  0
LINE
  5
826
100
AcDbEntity
  8
2
370
    50
100
AcDbLine
 10
-159.02959
 20
-158.42639
 30
0.0
 11
-159.02959
 21
-151.078383
 31
0.0
  0
ARC
  5
827
100
AcDbEntity
  8
2
370
    50
100
AcDbCircle
 10
-165.47959
 20
-126.282013
 30
0.0
 40
10.10363
100
AcDbArc
 50
90.0
 51
103.729133
  0
LINE
  5
828
100
AcDbEntity
  8
2
370
    50
100
AcDbLine
 10
-169.043771
 20
-116.467058
 30
0.0
 11
-167.877505
 21
-116.467058
 31
0.0
  0
ARC
  5
829
100
AcDbEntity
  8
2
370
    50
100
AcDbCircle
 10
-170.242729
 20
-118.812543
 30
0.0
 40
2.634161
100
AcDbArc
 50
62.924933
 51
117.075067
  0
LINE
  5
82A
100
AcDbEntity
  8
2
370
    50
100
AcDbLine
 10
-167.877505
 20
-116.467058
 30
0.0
 11
-167.877505
 21
-121.789708
 31
0.0
  0
LINE
  5
82B
100
AcDbEntity
  8
2
370
    50
100
AcDbLine
 10
-169.043771
 20
-116.467058
 30
0.0
 11
-169.043771
 21
-121.789708
 31
0.0
  0
LINE
  5
82C
100
AcDbEntity
  8
2
370
    50
100
AcDbLine
 10
-171.441687
 20
-116.467058
 30
0.0
 11
-171.441687
 21
-121.789708
 31
0.0
  0
ARC
  5
82D
100
AcDbEntity
  8
2
370
    50
100
AcDbCircle
 10
-168.704544
 20
-154.126329
 30
0.0
 40
5.375075
100
AcDbArc
 50
233.130102
 51
306.869898
  0
ARC
  5
82E
100
AcDbEntity
  8
2
370
    50
100
AcDbCircle
 10
-162.254454
 20
-162.72645
 30
0.0
 40
5.375075
100
AcDbArc
 50
53.130102
 51
126.869898
  0
ARC
  5
82F
100
AcDbEntity
  8
2
370
    50
100
AcDbCircle
 10
-168.704544
 20
-162.72645
 30
0.0
 40
5.375075
100
AcDbArc
 50
53.130102
 51
126.869898
  0
POINT
  5
830
100
AcDbEntity
  8
3
370
    50
100
AcDbPoint
 10
103.653404
 20
99.711546
 30
0.0
  0
POINT
  5
831
100
AcDbEntity
  8
3
370
    50
100
AcDbPoint
 10
103.653404
 20
99.711546
 30
0.0
  0
HATCH
  5
832
100
AcDbEntity
  8
3
370
    25
100
AcDbHatch
 10
0.0
 20
0.0
 30
0.0
210
0.0
220
0.0
230
1.0
  2
_U
 70
     0
 71
     1
 91
        1
 92
        1
 93
        5
 72
     1
 10
131.78190000000001
 20
-10.590838
 11
177.036734
 21
34.663995999999997
 72
     1
 10
177.036734
 20
34.663995999999997
 11
179.15805399999999
 21
32.542675000000003
 72
     1
 10
179.15805399999999
 20
32.542675000000003
 11
137.794093
 21
-8.8212860000000006
 72
     1
 10
137.794093
 20
-8.8212860000000006
 11
133.90322
 21
-12.712159
 72
     1
 10
133.90322
 20
-12.712159
 11
131.78190000000001
 21
-10.590838
 97
        5
330
0
330
0
330
0
330
0
330
0
 75
     0
 76
     0
 52
45.0
 41
1.0
 77
     0
 78
     1
 53
45.0
 43
0.0
 44
0.0
 45
-2.828427
 46
2.828427
 79
     0
 98
        1
 10
0.0
 20
0.0
  0
HATCH
  5
833
100
AcDbEntity
  8
3
370
    25
100
AcDbHatch
 10
0.0
 20
0.0
 30
0.0
210
0.0
220
0.0
230
1.0
  2
_U
 70
     0
 71
     1
 91
        2
 92
        1
 93
        5
 72
     1
 10
131.78190000000001
 20
-10.590838
 11
177.036734
 21
34.663995999999997
 72
     1
 10
177.036734
 20
34.663995999999997
 11
179.15805399999999
 21
32.542675000000003
 72
     1
 10
179.15805399999999
 20
32.542675000000003
 11
137.794093
 21
-8.8212860000000006
 72
     1
 10
137.794093
 20
-8.8212860000000006
 11
133.90322
 21
-12.712159
 72
     1
 10
133.90322
 20
-12.712159
 11
131.78190000000001
 21
-10.590838
 97
        5
330
0
330
0
330
0
330
0
330
0
 92
        0
 93
        5
 72
     1
 10
131.78190000000001
 20
-10.590838
 11
177.036734
 21
34.663995999999997
 72
     1
 10
177.036734
 20
34.663995999999997
 11
179.15805399999999
 21
32.542675000000003
 72
     1
 10
179.15805399999999
 20
32.542675000000003
 11
137.794093
 21
-8.8212860000000006
 72
     1
 10
137.794093
 20
-8.8212860000000006
 11
133.90322
 21
-12.712159
 72
     1
 10
133.90322
 20
-12.712159
 11
131.78190000000001
 21
-10.590838
 97
        5
330
0
330
0
330
0
330
0
330
0
 75
     0
 76
     0
 52
45.0
 41
1.0
 77
     0
 78
     1
 53
45.0
 43
0.0
 44
0.0
 45
-2.828427
 46
2.828427
 79
     0
 98
        1
 10
0.0
 20
0.0
  0
HATCH
  5
834
100
AcDbEntity
  8
3
370
    25
100
AcDbHatch
 10
0.0
 20
0.0
 30
0.0
210
0.0
220
0.0
230
1.0
  2
_U
 70
     0
 71
     1
 91
        1
 92
        1
 93
        5
 72
     1
 10
131.78190000000001
 20
-10.590838
 11
133.90322
 21
-12.712159
 72
     1
 10
133.90322
 20
-12.712159
 11
137.794093
 21
-8.8212860000000006
 72
     1
 10
137.794093
 20
-8.8212860000000006
 11
179.15805399999999
 21
32.542675000000003
 72
     1
 10
179.15805399999999
 20
32.542675000000003
 11
177.036734
 21
34.663995999999997
 72
     1
 10
177.036734
 20
34.663995999999997
 11
131.78190000000001
 21
-10.590838
 97
        5
330
0
330
0
330
0
330
0
330
0
 75
     0
 76
     0
 52
0.0
 41
1.0
 77
     0
 78
     1
 53
0.0
 43
0.0
 44
0.0
 45
0.0
 46
1.0
 79
     0
 98
        1
 10
0.0
 20
0.0
  0
TEXT
  5
835
100
AcDbEntity
  8
3
370
    50
100
AcDbText
 10
-135.053804
 20
168.38085
 30
0.0
 40
6.4
  1
青色
 72
     5
 11
-123.533804
 21
168.38085
 31
0.0
100
AcDbText
  0
TEXT
  5
836
100
AcDbEntity
  8
3
370
    50
100
AcDbText
 10
-141.453804
 20
160.98085
 30
0.0
 40
6.4
  1
（水表示）
 72
     5
 11
-110.733804
 21
160.98085
 31
0.0
100
AcDbText
  0
TEXT
  5
837
100
AcDbEntity
  8
3
370
    50
100
AcDbText
 10
-225.098424
 20
168.38085
 30
0.0
 40
6.4
  1
赤色
 72
     5
 11
-213.578424
 21
168.38085
 31
0.0
100
AcDbText
  0
TEXT
  5
838
100
AcDbEntity
  8
3
370
    50
100
AcDbText
 10
-237.898425
 20
160.98085
 30
0.0
 40
6.4
  1
（湯表示）
 72
     5
 11
-207.178424
 21
160.98085
 31
0.0
100
AcDbText
  0
LWPOLYLINE
  5
839
100
AcDbEntity
  8
3
370
    25
100
AcDbPolyline
 90
        3
 70
     0
 10
-171.699364
 20
148.851523
 10
-145.540611
 20
168.790213
 10
-140.715172
 20
168.790213
  0
LINE
  5
83E
100
AcDbEntity
  8
3
370
    25
100
AcDbLine
 10
-168.626517
 20
151.193704
 30
0.0
 11
-169.254102
 21
152.017071
 31
0.0
  0
LINE
  5
83F
100
AcDbEntity
  8
3
370
    25
100
AcDbLine
 10
-169.254102
 20
152.017071
 30
0.0
 11
-171.699364
 21
148.851523
 31
0.0
  0
LINE
  5
840
100
AcDbEntity
  8
3
370
    25
100
AcDbLine
 10
-171.699364
 20
148.851523
 30
0.0
 11
-167.998931
 21
150.370338
 31
0.0
  0
LINE
  5
841
100
AcDbEntity
  8
3
370
    25
100
AcDbLine
 10
-167.998931
 20
150.370338
 30
0.0
 11
-168.626517
 21
151.193704
 31
0.0
  0
LWPOLYLINE
  5
842
100
AcDbEntity
  8
3
370
    25
100
AcDbPolyline
 90
        3
 70
     0
 10
-175.652864
 20
148.851523
 10
-201.811617
 20
168.790213
 10
-206.637056
 20
168.790213
  0
LINE
  5
847
100
AcDbEntity
  8
3
370
    25
100
AcDbLine
 10
-178.725712
 20
151.193704
 30
0.0
 11
-179.353297
 21
150.370338
 31
0.0
  0
LINE
  5
848
100
AcDbEntity
  8
3
370
    25
100
AcDbLine
 10
-179.353297
 20
150.370338
 30
0.0
 11
-175.652864
 21
148.851523
 31
0.0
  0
LINE
  5
849
100
AcDbEntity
  8
3
370
    25
100
AcDbLine
 10
-175.652864
 20
148.851523
 30
0.0
 11
-178.098126
 21
152.017071
 31
0.0
  0
LINE
  5
84A
100
AcDbEntity
  8
3
370
    25
100
AcDbLine
 10
-178.098126
 20
152.017071
 30
0.0
 11
-178.725712
 21
151.193704
 31
0.0
  0
TEXT
  5
84B
100
AcDbEntity
  8
3
370
    50
100
AcDbText
 10
-71.197346
 20
-183.585069
 30
0.0
 40
7.0
  1
２４六角
 72
     5
 11
-44.597346
 21
-183.585069
 31
0.0
100
AcDbText
  0
TEXT
  5
84C
100
AcDbEntity
  8
3
370
    50
100
AcDbText
 10
-71.245932
 20
-228.230897
 30
0.0
 40
6.4
  1
Ｇ１／２
 72
     5
 11
-46.925932
 21
-228.230897
 31
0.0
100
AcDbText
  0
LWPOLYLINE
  5
84D
100
AcDbEntity
  8
3
370
    25
100
AcDbPolyline
 90
        3
 70
     0
 10
-90.335351
 20
-196.394838
 10
-72.581319
 20
-184.903688
 10
-44.327458
 20
-184.903688
  0
LINE
  5
852
100
AcDbEntity
  8
3
370
    25
100
AcDbLine
 10
-87.091772
 20
-194.295458
 30
0.0
 11
-87.654299
 21
-193.426343
 31
0.0
  0
LINE
  5
853
100
AcDbEntity
  8
3
370
    25
100
AcDbLine
 10
-87.654299
 20
-193.426343
 30
0.0
 11
-90.335351
 21
-196.394838
 31
0.0
  0
LINE
  5
854
100
AcDbEntity
  8
3
370
    25
100
AcDbLine
 10
-90.335351
 20
-196.394838
 30
0.0
 11
-86.529245
 21
-195.164572
 31
0.0
  0
LINE
  5
855
100
AcDbEntity
  8
3
370
    25
100
AcDbLine
 10
-86.529245
 20
-195.164572
 30
0.0
 11
-87.091772
 21
-194.295458
 31
0.0
  0
LWPOLYLINE
  5
856
100
AcDbEntity
  8
3
370
    25
100
AcDbPolyline
 90
        3
 70
     0
 10
-99.704976
 20
-201.800684
 10
-70.886006
 20
-228.984422
 10
-44.51582
 20
-228.984422
  0
LINE
  5
85B
100
AcDbEntity
  8
3
370
    25
100
AcDbLine
 10
-96.894349
 20
-204.451831
 30
0.0
 11
-96.183977
 21
-203.698726
 31
0.0
  0
LINE
  5
85C
100
AcDbEntity
  8
3
370
    25
100
AcDbLine
 10
-96.183977
 20
-203.698726
 30
0.0
 11
-99.704976
 21
-201.800684
 31
0.0
  0
LINE
  5
85D
100
AcDbEntity
  8
3
370
    25
100
AcDbLine
 10
-99.704976
 20
-201.800684
 30
0.0
 11
-97.604722
 21
-205.204936
 31
0.0
  0
LINE
  5
85E
100
AcDbEntity
  8
3
370
    25
100
AcDbLine
 10
-97.604722
 20
-205.204936
 30
0.0
 11
-96.894349
 21
-204.451831
 31
0.0
  0
TEXT
  5
85F
100
AcDbEntity
  8
3
370
    50
100
AcDbText
 10
-111.331103
 20
-30.251258
 30
0.0
 40
7.0
  1
Ｗ３５山１６
 72
     5
 11
-70.731103
 21
-30.251258
 31
0.0
100
AcDbText
  0
TEXT
  5
860
100
AcDbEntity
  8
3
370
    50
100
AcDbText
 10
-123.331103
 20
-38.251258
 30
0.0
 40
7.0
  1
（取付穴φ３７±１）
 72
     5
 11
-54.731103
 21
-38.251258
 31
0.0
100
AcDbText
  0
LWPOLYLINE
  5
861
100
AcDbEntity
  8
3
370
    25
100
AcDbPolyline
 90
        3
 70
     0
 10
-156.004892
 20
-12.613628
 10
-123.810687
 20
-30.589149
 10
-56.409564
 20
-30.589149
  0
LINE
  5
866
100
AcDbEntity
  8
3
370
    25
100
AcDbLine
 10
-152.631412
 20
-14.497198
 30
0.0
 11
-152.126711
 21
-13.593277
 31
0.0
  0
LINE
  5
867
100
AcDbEntity
  8
3
370
    25
100
AcDbLine
 10
-152.126711
 20
-13.593277
 30
0.0
 11
-156.004892
 21
-12.613628
 31
0.0
  0
LINE
  5
868
100
AcDbEntity
  8
3
370
    25
100
AcDbLine
 10
-156.004892
 20
-12.613628
 30
0.0
 11
-153.136113
 21
-15.40112
 31
0.0
  0
LINE
  5
869
100
AcDbEntity
  8
3
370
    25
100
AcDbLine
 10
-153.136113
 20
-15.40112
 30
0.0
 11
-152.631412
 21
-14.497198
 31
0.0
  0
TEXT
  5
86A
100
AcDbEntity
  8
3
370
    50
100
AcDbText
 10
-124.796662
 20
-72.626819
 30
0.0
 40
7.0
  1
４６六角
 72
     5
 11
-98.196662
 21
-72.626819
 31
0.0
100
AcDbText
  0
LWPOLYLINE
  5
86B
100
AcDbEntity
  8
3
370
    25
100
AcDbPolyline
 90
        3
 70
     0
 10
-150.55756
 20
-46.961082
 10
-124.494752
 20
-74.136581
 10
-92.491425
 20
-74.136581
  0
LINE
  5
870
100
AcDbEntity
  8
3
370
    25
100
AcDbLine
 10
-147.883194
 20
-49.749624
 30
0.0
 11
-147.136006
 21
-49.03303
 31
0.0
  0
LINE
  5
871
100
AcDbEntity
  8
3
370
    25
100
AcDbLine
 10
-147.136006
 20
-49.03303
 30
0.0
 11
-150.55756
 21
-46.961082
 31
0.0
  0
LINE
  5
872
100
AcDbEntity
  8
3
370
    25
100
AcDbLine
 10
-150.55756
 20
-46.961082
 30
0.0
 11
-148.630381
 21
-50.466218
 31
0.0
  0
LINE
  5
873
100
AcDbEntity
  8
3
370
    25
100
AcDbLine
 10
-148.630381
 20
-50.466218
 30
0.0
 11
-147.883194
 21
-49.749624
 31
0.0
  0
POINT
  5
874
100
AcDbEntity
  8
3
370
    50
100
AcDbPoint
 10
-173.531953
 20
164.220997
 30
0.0
  0
POINT
  5
875
100
AcDbEntity
  8
3
370
    50
100
AcDbPoint
 10
-173.531621
 20
148.887392
 30
0.0
  0
TEXT
  5
876
100
AcDbEntity
  8
3
370
    50
100
AcDbText
 10
216.463943
 20
-271.889221
 30
0.0
 40
8.0
  1
外観寸法図
 72
     5
 11
254.863943
 21
-271.889221
 31
0.0
100
AcDbText
  0
TEXT
  5
877
100
AcDbEntity
  8
3
370
    50
100
AcDbText
 10
278.864227
 20
-238.275513
 30
0.0
 40
7.0
  1
１　２
 72
     5
 11
298.464227
 21
-238.275513
 31
0.0
100
AcDbText
  0
TEXT
  5
878
100
AcDbEntity
  8
3
370
    50
100
AcDbText
 10
69.092052
 20
176.192556
 30
0.0
 40
7.0
  1
止水
 72
     5
 11
81.692052
 21
176.192556
 31
0.0
100
AcDbText
  0
TEXT
  5
879
100
AcDbEntity
  8
3
370
    50
100
AcDbText
 10
96.74859
 20
213.180517
 30
0.0
 40
7.0
  1
吐水
 72
     5
 11
109.34859
 21
213.180517
 31
0.0
100
AcDbText
  0
DIMENSION
  5
87A
100
AcDbEntity
  8
3
370
    25
100
AcDbDimension
  2
*D0
 10
80.115981
 20
168.221357
 30
0.0
 11
68.680223
 21
204.870217
 31
0.0
 70
     2
 71
     0
 72
     0
 41
0.0
 42
0.0
  3
Standard
100
AcDb2LineAngularDimension
 13
124.703034
 23
191.421434
 33
0.0
 14
164.886746
 24
168.221357
 34
0.0
 15
164.886746
 25
168.221357
 35
0.0
 16
65.962623
 26
194.727996
 36
0.0
1001
ACAD
1000
DSTYLE
1002
{
1070
   275
1070
     0
1070
   179
1070
     0
1002
}
  0
DIMENSION
  5
87B
100
AcDbEntity
  8
3
370
    25
100
AcDbDimension
  2
*D1
 10
35.18387
 20
98.104855
 30
0.0
 11
33.975933
 21
44.149219
 31
0.0
 70
     2
 71
     0
 72
     0
 41
0.0
 42
0.0
  3
Standard
100
AcDb2LineAngularDimension
 13
35.181591
 23
98.105361
 33
0.0
 14
35.18387
 24
98.11025
 34
0.0
 15
35.18387
 25
98.11025
 35
0.0
 16
23.508385
 26
45.445538
 36
0.0
1001
ACAD
1000
DSTYLE
1002
{
1070
   275
1070
     0
1070
   179
1070
     0
1002
}
  0
POINT
  5
87C
100
AcDbEntity
  8
3
370
    50
100
AcDbPoint
 10
155.254678
 20
12.882015
 30
0.0
  0
LINE
  5
87D
100
AcDbEntity
  8
3
370
    50
100
AcDbLine
 10
37.898567
 20
137.345466
 30
0.0
 11
38.201594
 21
137.345466
 31
0.0
  0
TEXT
  5
87E
100
AcDbEntity
  8
3
370
    50
100
AcDbText
 10
-60.771954
 20
98.72041
 30
0.0
 40
7.0
  1
１９３
 50
90.0
 72
     5
 11
-60.771954
 21
118.32041
 31
0.0
100
AcDbText
  0
DIMENSION
  5
87F
100
AcDbEntity
  8
3
370
    25
100
AcDbDimension
  2
*D2
 10
-59.771954
 20
205.558805
 30
0.0
 11
-62.271954
 21
109.22041
 31
0.0
 71
     0
 72
     0
 41
0.0
 42
0.0
  3
Standard
100
AcDbAlignedDimension
 13
155.254678
 23
12.882015
 33
0.0
 14
99.948463
 24
205.558805
 34
0.0
 50
90.0
100
AcDbRotatedDimension
  0
POINT
  5
880
100
AcDbEntity
  8
3
370
    50
100
AcDbPoint
 10
290.880284
 20
-77.17811
 30
0.0
  0
TEXT
  5
881
100
AcDbEntity
  8
3
370
    50
100
AcDbText
 10
84.719274
 20
-14.557295
 30
0.0
 40
7.0
  1
１２１
 72
     5
 11
104.319274
 21
-14.557295
 31
0.0
100
AcDbText
  0
DIMENSION
  5
882
100
AcDbEntity
  8
3
370
    25
100
AcDbDimension
  2
*D3
 10
155.254678
 20
-15.557295
 30
0.0
 11
95.219274
 21
-13.557295
 31
0.0
 71
     0
 72
     0
 41
0.0
 42
0.0
  3
Standard
100
AcDbAlignedDimension
 13
35.18387
 23
98.110327
 33
0.0
 14
155.254678
 24
-10.080653
 34
0.0
100
AcDbRotatedDimension
  0
TEXT
  5
883
100
AcDbEntity
  8
3
370
    50
100
AcDbText
 10
0.713744
 20
48.496171
 30
0.0
 40
7.0
  1
８６
 50
90.0
 72
     5
 11
0.713744
 21
61.096171
 31
0.0
100
AcDbText
  0
DIMENSION
  5
884
100
AcDbEntity
  8
3
370
    25
100
AcDbDimension
  2
*D4
 10
1.713744
 20
98.110327
 30
0.0
 11
-0.786256
 21
55.496171
 31
0.0
 71
     0
 72
     0
 41
0.0
 42
0.0
  3
Standard
100
AcDbAlignedDimension
 13
155.254678
 23
12.882015
 33
0.0
 14
35.18387
 24
98.110327
 34
0.0
 50
90.0
100
AcDbRotatedDimension
  0
TEXT
  5
885
100
AcDbEntity
  8
3
370
    50
100
AcDbText
 10
-21.345037
 20
64.61374
 30
0.0
 40
7.0
  1
１２５
 50
90.0
 72
     5
 11
-21.345037
 21
84.21374
 31
0.0
100
AcDbText
  0
DIMENSION
  5
886
100
AcDbEntity
  8
3
370
    25
100
AcDbDimension
  2
*D5
 10
-20.345037
 20
137.345466
 30
0.0
 11
-22.845037
 21
75.11374
 31
0.0
 71
     0
 72
     0
 41
0.0
 42
0.0
  3
Standard
100
AcDbAlignedDimension
 13
155.254678
 23
12.882015
 33
0.0
 14
37.898567
 24
137.345466
 34
0.0
 50
90.0
100
AcDbRotatedDimension
  0
TEXT
  5
887
100
AcDbEntity
  8
3
370
    50
100
AcDbText
 10
-40.309891
 20
80.051686
 30
0.0
 40
7.0
  1
１５６
 50
90.0
 72
     5
 11
-40.309891
 21
99.651686
 31
0.0
100
AcDbText
  0
DIMENSION
  5
888
100
AcDbEntity
  8
3
370
    25
100
AcDbDimension
  2
*D6
 10
-39.309891
 20
168.221357
 30
0.0
 11
-41.809891
 21
90.551686
 31
0.0
 71
     0
 72
     0
 41
0.0
 42
0.0
  3
Standard
100
AcDbAlignedDimension
 13
155.254678
 23
12.882015
 33
0.0
 14
71.294469
 24
168.221357
 34
0.0
 50
90.0
100
AcDbRotatedDimension
  0
POINT
  5
889
100
AcDbEntity
  8
3
370
    50
100
AcDbPoint
 10
75.253773
 20
-162.483387
 30
0.0
  0
POINT
  5
88A
100
AcDbEntity
  8
3
370
    50
100
AcDbPoint
 10
-173.532089
 20
12.882015
 30
0.0
  0
TEXT
  5
88B
100
AcDbEntity
  8
3
370
    50
100
AcDbText
 10
0.713744
 20
-148.300686
 30
0.0
 40
7.0
  1
湯側：４０４，水側：４１４（金具先端まで）
 50
90.0
 72
     5
 11
0.713744
 21
-2.700686
 31
0.0
100
AcDbText
  0
DIMENSION
  5
88C
100
AcDbEntity
  8
3
370
    25
100
AcDbDimension
  2
*D7
 10
1.713744
 20
12.882015
 30
0.0
 11
-0.786256
 21
-74.800686
 31
0.0
 71
     0
 72
     0
 41
0.0
 42
0.0
  3
Standard
100
AcDbAlignedDimension
 13
75.253773
 23
-162.483387
 33
0.0
 14
155.254678
 24
12.882015
 34
0.0
 50
90.0
100
AcDbRotatedDimension
  0
POINT
  5
88D
100
AcDbEntity
  8
3
370
    50
100
AcDbPoint
 10
130.794093
 20
49.400591
 30
0.0
  0
POINT
  5
88E
100
AcDbEntity
  8
3
370
    50
100
AcDbPoint
 10
155.254678
 20
-15.4023
 30
0.0
  0
TEXT
  5
88F
100
AcDbEntity
  8
3
370
    50
100
AcDbText
 10
88.974367
 20
-34.306546
 30
0.0
 40
7.0
  1
ＭＡＸ　１８
 50
315.000088
 72
     5
 11
117.682947
 21
-63.015037
 31
0.0
100
AcDbText
  0
DIMENSION
  5
890
100
AcDbEntity
  8
3
370
    25
100
AcDbDimension
  2
*D8
 10
108.419816
 20
-55.166146
 30
0.0
 11
104.884291
 21
-48.448658
 31
0.0
 70
     1
 71
     0
 72
     0
 41
0.0
 42
0.0
  3
Standard
100
AcDbAlignedDimension
 13
130.794093
 23
-11.578645
 33
0.0
 14
128.738173
 24
-34.847725
 34
0.0
 50
135.000088
  0
TEXT
  5
891
100
AcDbEntity
  8
3
370
    50
100
AcDbText
 10
333.76947
 20
-92.398048
 30
0.0
 40
7.0
  1
２０４（金具先端まで）
 50
90.0
 72
     5
 11
333.76947
 21
-16.798048
 31
0.0
100
AcDbText
  0
DIMENSION
  5
892
100
AcDbEntity
  8
3
370
    25
100
AcDbDimension
  2
*D9
 10
334.76947
 20
12.882015
 30
0.0
 11
332.26947
 21
-53.898048
 31
0.0
 71
     0
 72
     0
 41
0.0
 42
0.0
  3
Standard
100
AcDbAlignedDimension
 13
290.879506
 23
-120.67811
 33
0.0
 14
155.254678
 24
12.882015
 34
0.0
 50
90.0
100
AcDbRotatedDimension
  0
TEXT
  5
893
100
AcDbEntity
  8
3
370
    50
100
AcDbText
 10
200.788045
 20
-153.22133
 30
0.0
 40
7.0
  1
逆止弁内蔵
 72
     5
 11
234.388045
 21
-153.22133
 31
0.0
100
AcDbText
  0
LWPOLYLINE
  5
894
100
AcDbEntity
  8
3
370
    25
100
AcDbPolyline
 90
        3
 70
     0
 10
290.380559
 20
-181.4198
 10
244.451264
 20
-150.123033
 10
238.375451
 20
-150.123033
  0
LINE
  5
899
100
AcDbEntity
  8
3
370
    25
100
AcDbLine
 10
287.187658
 20
-179.24412
 30
0.0
 11
286.604686
 21
-180.099655
 31
0.0
  0
LINE
  5
89A
100
AcDbEntity
  8
3
370
    25
100
AcDbLine
 10
286.604686
 20
-180.099655
 30
0.0
 11
290.380559
 21
-181.4198
 31
0.0
  0
LINE
  5
89B
100
AcDbEntity
  8
3
370
    25
100
AcDbLine
 10
290.380559
 20
-181.4198
 30
0.0
 11
287.77063
 21
-178.388584
 31
0.0
  0
LINE
  5
89C
100
AcDbEntity
  8
3
370
    25
100
AcDbLine
 10
287.77063
 20
-178.388584
 30
0.0
 11
287.187658
 21
-179.24412
 31
0.0
  0
POINT
  5
89D
100
AcDbEntity
  8
3
370
    50
100
AcDbPoint
 10
-173.532089
 20
-58.67843
 30
0.0
  0
DIMENSION
  5
89E
100
AcDbEntity
  8
3
370
    25
100
AcDbDimension
  2
*D10
 10
-149.032089
 20
52.203226
 30
0.0
 11
-216.532089
 21
56.703226
 31
0.0
 70
     1
 71
     0
 72
     0
 41
0.0
 42
0.0
  3
Standard
100
AcDbAlignedDimension
 13
-198.032089
 23
41.97128
 33
0.0
 14
-149.032089
 24
41.97128
 34
0.0
  0
TEXT
  5
89F
100
AcDbEntity
  8
3
370
    50
100
AcDbText
 10
79.587402
 20
-234.816727
 30
0.0
 40
6.0
  1
ＭＬＺ６５５ＭＭＤＡＨ
 72
     5
 11
144.387402
 21
-234.816727
 31
0.0
100
AcDbText
  0
TEXT
  5
8A0
100
AcDbEntity
  8
3
370
    50
100
AcDbText
 10
71.888153
 20
-226.545441
 30
0.0
 40
6.0
  1
台付シングル湯水混合水栓（寒）
 72
     5
 11
160.688153
 21
-226.545441
 31
0.0
100
AcDbText
  0
TEXT
  5
8A1
100
AcDbEntity
  8
3
370
    50
100
AcDbText
 10
328.822723
 20
-272.437149
 30
0.0
 40
7.0
  1
１１０１００
 72
     5
 11
369.422723
 21
-272.437149
 31
0.0
100
AcDbText
  0
TEXT
  5
8A2
100
AcDbEntity
  8
3
370
    50
100
AcDbText
 10
-116.018577
 20
-268.997421
 30
0.0
 40
7.0
  1
外径φ１４，Ｌ＝１０００
 72
     5
 11
-33.418577
 21
-268.997421
 31
0.0
100
AcDbText
  0
ENDSEC
  0
SECTION
  2
OBJECTS
  0
DICTIONARY
  5
91F
100
AcDbDictionary
280
     0
281
     1
  3
ACAD_GROUP
350
920
  3
ACAD_MLINESTYLE
350
921
  0
DICTIONARY
  5
920
102
{ACAD_REACTORS
330
91F
102
}
100
AcDbDictionary
280
     0
281
     1
  0
DICTIONARY
  5
921
102
{ACAD_REACTORS
330
91F
102
}
100
AcDbDictionary
280
     0
281
     1
  3
Standard
350
922
  0
MLINESTYLE
  5
922
102
{ACAD_REACTORS
330
921
102
}
100
AcDbMlineStyle
  2
Standard
 70
     0
  3

 62
     0
 51
90.0
 52
90.0
 71
     2
 49
0.5
 62
   256
  6
ByLayer
 49
-0.5
 62
   256
  6
ByLayer
  0
ENDSEC
  0
EOF
