  0
SECTION
  2
HEADER
  9
$ACADVER
  1
AC1015
  9
$ACADMAINTVER
 70
     6
  9
$DWGCODEPAGE
  3
ANSI_932
  9
$INSBASE
 10
0.0
 20
0.0
 30
0.0
  9
$EXTMIN
 10
-420.0
 20
-297.0
 30
1.000000E+20
  9
$EXTMAX
 10
420.0
 20
297.0
 30
-1.000000E+20
  9
$LIMMIN
 10
-420.0
 20
-297.0
  9
$LIMMAX
 10
420.0
 20
297.0
  9
$ORTHOMODE
 70
     0
  9
$REGENMODE
 70
     1
  9
$FILLMODE
 70
     1
  9
$QTEXTMODE
 70
     0
  9
$MIRRTEXT
 70
     1
  9
$LTSCALE
 40
1.0
  9
$ATTMODE
 70
     1
  9
$TEXTSIZE
 40
0.2
  9
$TRACEWID
 40
0.05
  9
$TEXTSTYLE
  7
STANDARD
  9
$CLAYER
  8
0
  9
$CELTYPE
  6
CONTINUOUS
  9
$CECOLOR
 62
   256
  9
$CELTSCALE
 40
1.0
  9
$DISPSILH
 70
     0
  9
$DIMSCALE
 40
2.0
  9
$DIMASZ
 40
2.0
  9
$DIMEXO
 40
1.0
  9
$DIMDLI
 40
0.38
  9
$DIMRND
 40
0.0
  9
$DIMDLE
 40
0.0
  9
$DIMEXE
 40
2.0
  9
$DIMTP
 40
0.0
  9
$DIMTM
 40
0.0
  9
$DIMTXT
 40
3.5
  9
$DIMCEN
 40
0.09
  9
$DIMTSZ
 40
0.0
  9
$DIMTOL
 70
     0
  9
$DIMLIM
 70
     0
  9
$DIMTIH
 70
     0
  9
$DIMTOH
 70
     0
  9
$DIMSE1
 70
     0
  9
$DIMSE2
 70
     0
  9
$DIMTAD
 70
     1
  9
$DIMZIN
 70
     0
  9
$DIMBLK
  1

  9
$DIMASO
 70
     1
  9
$DIMSHO
 70
     1
  9
$DIMPOST
  1

  9
$DIMAPOST
  1

  9
$DIMALT
 70
     0
  9
$DIMALTD
 70
     2
  9
$DIMALTF
 40
25.4
  9
$DIMLFAC
 40
1.0
  9
$DIMTOFL
 70
     0
  9
$DIMTVP
 40
0.0
  9
$DIMTIX
 70
     0
  9
$DIMSOXD
 70
     0
  9
$DIMSAH
 70
     0
  9
$DIMBLK1
  1

  9
$DIMBLK2
  1

  9
$DIMSTYLE
  2
Standard
  9
$DIMCLRD
 70
     0
  9
$DIMCLRE
 70
     0
  9
$DIMCLRT
 70
     0
  9
$DIMTFAC
 40
1.0
  9
$DIMGAP
 40
0.5
  9
$DIMJUST
 70
     0
  9
$DIMSD1
 70
     0
  9
$DIMSD2
 70
     0
  9
$DIMTOLJ
 70
     1
  9
$DIMTZIN
 70
     0
  9
$DIMALTZ
 70
     0
  9
$DIMALTTZ
 70
     0
  9
$DIMUPT
 70
     0
  9
$DIMDEC
 70
     3
  9
$DIMTDEC
 70
     4
  9
$DIMALTU
 70
     2
  9
$DIMALTTD
 70
     2
  9
$DIMTXSTY
  7
STANDARD
  9
$DIMAUNIT
 70
     0
  9
$DIMADEC
 70
     0
  9
$DIMALTRND
 40
0.0
  9
$DIMAZIN
 70
     0
  9
$DIMDSEP
 70
     0
  9
$DIMATFIT
 70
     3
  9
$DIMFRAC
 70
     0
  9
$DIMLDRBLK
  1

  9
$DIMLUNIT
 70
     2
  9
$DIMLWD
 70
     0
  9
$DIMLWE
 70
     0
  9
$DIMTMOVE
 70
     0
  9
$LUNITS
 70
     2
  9
$LUPREC
 70
     4
  9
$SKETCHINC
 40
0.1
  9
$FILLETRAD
 40
0.0
  9
$AUNITS
 70
     0
  9
$AUPREC
 70
     0
  9
$MENU
  1
acad
  9
$ELEVATION
 40
0.0
  9
$PELEVATION
 40
0.0
  9
$THICKNESS
 40
0.0
  9
$LIMCHECK
 70
     0
  9
$CHAMFERA
 40
0.0
  9
$CHAMFERB
 40
0.0
  9
$CHAMFERC
 40
0.0
  9
$CHAMFERD
 40
0.0
  9
$SKPOLY
 70
     0
  9
$TDCREATE
 40
2453708.000000000
  9
$TDUCREATE
 40
0.000000000
  9
$TDUPDATE
 40
0.000000000
  9
$TDUUPDATE
 40
2447892.625000000
  9
$TDINDWG
 40
0.0000000000
  9
$TDUSRTIMER
 40
0.0000000000
  9
$USRTIMER
 70
     1
  9
$ANGBASE
 50
0.0
  9
$ANGDIR
 70
     0
  9
$PDMODE
 70
     0
  9
$PDSIZE
 40
0.0
  9
$PLINEWID
 40
0.0
  9
$SPLFRAME
 70
     0
  9
$SPLINETYPE
 70
     6
  9
$SPLINESEGS
 70
     8
  9
$HANDSEED
  5
6BA
  9
$SURFTAB1
 70
     6
  9
$SURFTAB2
 70
     6
  9
$SURFTYPE
 70
     6
  9
$SURFU
 70
     6
  9
$SURFV
 70
     6
  9
$UCSBASE
  2

  9
$UCSNAME
  2

  9
$UCSORG
 10
0.0
 20
0.0
 30
0.0
  9
$UCSXDIR
 10
1.0
 20
0.0
 30
0.0
  9
$UCSYDIR
 10
0.0
 20
1.0
 30
0.0
  9
$UCSORTHOREF
  2

  9
$UCSORTHOVIEW
 70
     0
  9
$UCSORGTOP
 10
0.0
 20
0.0
 30
0.0
  9
$UCSORGBOTTOM
 10
0.0
 20
0.0
 30
0.0
  9
$UCSORGLEFT
 10
0.0
 20
0.0
 30
0.0
  9
$UCSORGRIGHT
 10
0.0
 20
0.0
 30
0.0
  9
$UCSORGFRONT
 10
0.0
 20
0.0
 30
0.0
  9
$UCSORGBACK
 10
0.0
 20
0.0
 30
0.0
  9
$PUCSBASE
  2

  9
$PUCSNAME
  2

  9
$PUCSORG
 10
0.0
 20
0.0
 30
0.0
  9
$PUCSXDIR
 10
1.0
 20
0.0
 30
0.0
  9
$PUCSYDIR
 10
0.0
 20
1.0
 30
0.0
  9
$PUCSORTHOREF
  2

  9
$PUCSORTHOVIEW
 70
     0
  9
$PUCSORGTOP
 10
0.0
 20
0.0
 30
0.0
  9
$PUCSORGBOTTOM
 10
0.0
 20
0.0
 30
0.0
  9
$PUCSORGLEFT
 10
0.0
 20
0.0
 30
0.0
  9
$PUCSORGRIGHT
 10
0.0
 20
0.0
 30
0.0
  9
$PUCSORGFRONT
 10
0.0
 20
0.0
 30
0.0
  9
$PUCSORGBACK
 10
0.0
 20
0.0
 30
0.0
  9
$USERI1
 70
     0
  9
$USERI2
 70
     0
  9
$USERI3
 70
     0
  9
$USERI4
 70
     0
  9
$USERI5
 70
     0
  9
$USERR1
 40
0.0
  9
$USERR2
 40
0.0
  9
$USERR3
 40
0.0
  9
$USERR4
 40
0.0
  9
$USERR5
 40
0.0
  9
$WORLDVIEW
 70
     1
  9
$SHADEDGE
 70
     3
  9
$SHADEDIF
 70
    70
  9
$TILEMODE
 70
     1
  9
$MAXACTVP
 70
    16
  9
$PINSBASE
 10
0.0
 20
0.0
 30
0.0
  9
$PLIMCHECK
 70
     0
  9
$PEXTMIN
 10
1.000000E+20
 20
1.000000E+20
 30
1.000000E+20
  9
$PEXTMAX
 10
-1.000000E+20
 20
-1.000000E+20
 30
-1.000000E+20
  9
$PLIMMIN
 10
0.0
 20
0.0
  9
$PLIMMAX
 10
12.0
 20
9.0
  9
$UNITMODE
 70
     0
  9
$VISRETAIN
 70
     0
  9
$PLINEGEN
 70
     1
  9
$PSLTSCALE
 70
     0
  9
$TREEDEPTH
 70
  3020
  9
$CMLSTYLE
  2
Standard
  9
$CMLJUST
 70
     0
  9
$CMLSCALE
 40
1.0
  9
$PROXYGRAPHICS
 70
     0
  9
$MEASUREMENT
 70
     0
  9
$CELWEIGHT
370
     0
  9
$ENDCAPS
280
     0
  9
$JOINSTYLE
280
     0
  9
$LWDISPLAY
290
     0
  9
$INSUNITS
 70
     0
  9
$HYPERLINKBASE
  1

  9
$STYLESHEET
  1

  9
$XEDIT
290
     1
  9
$CEPSNTYPE
380
     0
  9
$PSTYLEMODE
290
     1
  9
$FINGERPRINTGUID
  2

  9
$VERSIONGUID
  2

  9
$EXTNAMES
290
     1
  9
$PSVPSCALE
 40
0.0
  0
ENDSEC
  0
SECTION
  2
CLASSES
  0
CLASS
  1
LWPOLYLINE
  2
AcDbPolyline
  3
AutoCAD 2000
 90
        0
280
     0
281
     1
  0
CLASS
  1
IMAGE
  2
AcDbRasterImage
  3
ISM
 90
      127
280
     0
281
     1
  0
CLASS
  1
OLE2FRAME
  2
AcDbOle2Frame
  3
AutoCAD 2000
 90
        0
280
     0
281
     1
  0
CLASS
  1
HATCH
  2
AcDbHatch
  3
AutoCAD 2000
 90
        0
280
     0
281
     1
  0
CLASS
  1
DICTIONARYVAR
  2
AcDbDictionaryVar
  3
AutoCAD 2000
 90
        0
280
     0
281
     0
  0
CLASS
  1
RASTERVARIABLES
  2
AcDbRasterVariables
  3
ISM
 90
        0
280
     0
281
     0
  0
CLASS
  1
IMAGEDEF
  2
AcDbRasterImageDef
  3
ISM
 90
        0
280
     0
281
     0
  0
CLASS
  1
IMAGEDEF_REACTOR
  2
AcDbRasterImageDefReactor
  3
ISM
 90
        1
280
     0
281
     0
  0
CLASS
  1
IDBUFFER
  2
AcDbIdBuffer
  3
AutoCAD 2000
 90
        0
280
     0
281
     0
  0
CLASS
  1
SPATIAL_FILTER
  2
AcDbSpatialFilter
  3
AutoCAD 2000
 90
        0
280
     0
281
     0
  0
CLASS
  1
XRECORD
  2
AcDbXrecord
  3
AutoCAD 2000
 90
        0
280
     0
281
     0
  0
CLASS
  1
SORTENTSTABLE
  2
AcDbSortentsTable
  3
AutoCAD 2000
 90
        0
280
     0
281
     0
  0
CLASS
  1
LAYER_INDEX
  2
AcDbLayerIndex
  3
AutoCAD 2000
 90
        0
280
     0
281
     0
  0
CLASS
  1
SPATIAL_INDEX
  2
AcDbSpatialIndex
  3
AutoCAD 2000
 90
        0
280
     0
281
     0
  0
CLASS
  1
OBJECT_PTR
  2
CAseDLPNTableRecord
  3
"ASE-LPNTableRecord"
 90
        1
280
     0
281
     0
  0
CLASS
  1
LAYOUT
  2
AcDbLayout
  3
AutoCAD 2000
 90
        0
280
     0
281
     0
  0
CLASS
  1
PLOTSETTINGS
  2
AcDbPlotSettings
  3
AutoCAD 2000
 90
        0
280
     0
281
     0
  0
CLASS
  1
ACDBDICTIONARYWDFLT
  2
AcDbDictionaryWithDefault
  3
AutoCAD 2000
 90
        0
280
     0
281
     0
  0
CLASS
  1
ACDBPLACEHOLDER
  2
AcDbPlaceHolder
  3
AutoCAD 2000
 90
        0
280
     0
281
     0
  0
CLASS
  1
VBA_PROJECT
  2
AcDbVbaProject
  3
acadvba
 90
        0
280
     0
281
     0
  0
CLASS
  1
WIPEOUT
  2
AcDbWipeout
  3
WipeOut|AutoCAD Express Tool|expresstools@autodesk.com
 90
      127
280
     0
281
     1
  0
CLASS
  1
WIPEOUTVARIABLES
  2
AcDbWipeoutVariables
  3
WipeOut|AutoCAD Express Tool|expresstools@autodesk.com
 90
        0
280
     0
281
     0
  0
CLASS
  1
RTEXT
  2
RText
  3
RText|AutoCAD Express Tool|expresstools@autodesk.com
 90
        0
280
     0
281
     1
  0
CLASS
  1
ARCALIGNEDTEXT
  2
AcDbArcAlignedText
  3
ATEXT|AutoCAD Express Tool|expresstools@autodesk.com
 90
        0
280
     0
281
     1
  0
ENDSEC
  0
SECTION
  2
TABLES
  0
TABLE
  2
VPORT
  5
6
100
AcDbSymbolTable
 70
     1
  0
VPORT
  5
19
100
AcDbSymbolTableRecord
100
AcDbViewportTableRecord
  2
*ACTIVE
 70
     0
 10
0.0
 20
0.0
 11
1.0
 21
1.0
 12
0.0
 22
0.0
 13
0.0
 23
0.0
 14
1.0
 24
1.0
 15
0.0
 25
0.0
 16
0.0
 26
0.0
 36
1.0
 17
0.0
 27
0.0
 37
0.0
 40
594.0
 41
1.414141
 42
50.0
 43
0.0
 44
0.0
 50
0.0
 51
0.0
 71
     0
 72
   500
 73
     1
 74
     1
 75
     0
 76
     0
 77
     0
 78
     0
281
     0
 65
     0
110
0.0
120
0.0
130
0.0
111
1.0
121
0.0
131
0.0
112
0.0
122
1.0
132
0.0
345
0
346
0
 79
     0
146
0.0
  0
ENDTAB
  0
TABLE
  2
LTYPE
  5
3
100
AcDbSymbolTable
 70
     9
  0
LTYPE
  5
C
100
AcDbSymbolTableRecord
100
AcDbLinetypeTableRecord
  2
ByBlock
 70
    64
  3

 72
    65
 73
     0
 40
0.0
  0
LTYPE
  5
D
100
AcDbSymbolTableRecord
100
AcDbLinetypeTableRecord
  2
ByLayer
 70
    64
  3

 72
    65
 73
     0
 40
0.0
  0
LTYPE
  5
E
100
AcDbSymbolTableRecord
100
AcDbLinetypeTableRecord
  2
CONTINUOUS
 70
     0
  3
Solid line
 72
    65
 73
     0
 40
0.0
  0
LTYPE
  5
F
100
AcDbSymbolTableRecord
100
AcDbLinetypeTableRecord
  2
DASHED
 70
     0
  3
__ __ __ __ __ __ __ __ __ __ __ __ __ __ __
 72
    65
 73
     2
 40
2.0
 49
1.2
 74
     0
 49
-0.8
 74
     0
  0
LTYPE
  5
10
100
AcDbSymbolTableRecord
100
AcDbLinetypeTableRecord
  2
CENTER
 70
     0
  3
____ _ ____ _ ____ _ ____ _ ____ _ ____ _ ____
 72
    65
 73
     4
 40
12.0
 49
9.0
 74
     0
 49
-1.0
 74
     0
 49
1.0
 74
     0
 49
-1.0
 74
     0
  0
LTYPE
  5
11
100
AcDbSymbolTableRecord
100
AcDbLinetypeTableRecord
  2
HIDDEN
 70
     0
  3
_ _ _ _ _ _ _ _ _ _ _ _ _ _ _ _ _ _ _ _ _ _ _
 72
    65
 73
     2
 40
3.2
 49
2.4
 74
     0
 49
-0.8
 74
     0
  0
LTYPE
  5
12
100
AcDbSymbolTableRecord
100
AcDbLinetypeTableRecord
  2
PHANTOM
 70
     0
  3
_____ _ _ _____ _ _ _____ _ _ _____ _ _ _____
 72
    65
 73
     6
 40
13.5
 49
9.0
 74
     0
 49
-1.0
 74
     0
 49
1.0
 74
     0
 49
-0.5
 74
     0
 49
1.0
 74
     0
 49
-1.0
 74
     0
  0
LTYPE
  5
13
100
AcDbSymbolTableRecord
100
AcDbLinetypeTableRecord
  2
DOT
 70
     0
  3
...............................................
 72
    65
 73
     2
 40
1.0
 49
0.5
 74
     0
 49
-0.5
 74
     0
  0
LTYPE
  5
14
100
AcDbSymbolTableRecord
100
AcDbLinetypeTableRecord
  2
DASHDOT
 70
     0
  3
__ . __ . __ . __ . __ . __ . __ . __ . __ . __
 72
    65
 73
     4
 40
8.0
 49
5.0
 74
     0
 49
-1.0
 74
     0
 49
1.0
 74
     0
 49
-1.0
 74
     0
  0
ENDTAB
  0
TABLE
  2
LAYER
  5
1
100
AcDbSymbolTable
 70
     4
  0
LAYER
  5
15
100
AcDbSymbolTableRecord
100
AcDbLayerTableRecord
  2
0
 70
     0
 62
   225
  6
CONTINUOUS
290
     1
370
    -3
390
0
  0
LAYER
  5
16
100
AcDbSymbolTableRecord
100
AcDbLayerTableRecord
  2
1
 70
     0
 62
     2
  6
CONTINUOUS
290
     1
370
    -3
390
0
  0
LAYER
  5
17
100
AcDbSymbolTableRecord
100
AcDbLayerTableRecord
  2
2
 70
     0
 62
     3
  6
CONTINUOUS
290
     1
370
    -3
390
0
  0
LAYER
  5
18
100
AcDbSymbolTableRecord
100
AcDbLayerTableRecord
  2
3
 70
     0
 62
     4
  6
CONTINUOUS
290
     1
370
    -3
390
0
  0
ENDTAB
  0
TABLE
  2
STYLE
  5
2
100
AcDbSymbolTable
 70
     1
  0
STYLE
  5
1B
100
AcDbSymbolTableRecord
100
AcDbTextStyleTableRecord
  2
STANDARD
 70
    64
 40
0.0
 41
1.0
 50
0.0
 71
     0
 42
1.0
  3
txt
  4
BIGFONT
  0
ENDTAB
  0
TABLE
  2
VIEW
  5
4
100
AcDbSymbolTable
 70
     0
  0
ENDTAB
  0
TABLE
  2
UCS
  5
5
100
AcDbSymbolTable
 70
     0
  0
ENDTAB
  0
TABLE
  2
APPID
  5
7
100
AcDbSymbolTable
 70
     1
  0
APPID
  5
1A
100
AcDbSymbolTableRecord
100
AcDbRegAppTableRecord
  2
ACAD
 70
     0
  0
ENDTAB
  0
TABLE
  2
DIMSTYLE
  5
8
100
AcDbSymbolTable
 70
     1
100
AcDbDimStyleTable
 71
     0
  0
DIMSTYLE
105
2E
100
AcDbSymbolTableRecord
100
AcDbDimStyleTableRecord
  2
Standard
 70
     0
  3

  4

 40
2.0
 41
2.0
 42
1.0
 43
0.38
 44
2.0
 45
0.0
 46
0.0
 47
0.0
 48
0.0
 71
     0
 72
     0
 73
     0
 74
     0
 75
     0
 76
     0
 77
     1
 78
     0
 79
     0
140
3.5
141
0.09
142
0.0
143
25.4
144
1.0
145
0.0
146
1.0
147
0.5
148
0.0
170
     0
171
     2
172
     0
173
     0
174
     0
175
     0
176
     0
177
     0
178
     0
179
     0
271
     3
272
     4
273
     2
274
     2
275
     0
276
     0
277
     2
278
    46
279
     0
280
     0
281
     0
282
     0
283
     1
284
     0
285
     0
286
     0
288
     0
289
     3
340
1B
341
0
342
0
343
0
344
0
371
    -2
372
    -2
  0
ENDTAB
  0
TABLE
  2
BLOCK_RECORD
  5
29
100
AcDbSymbolTable
 70
    11
  0
BLOCK_RECORD
  5
27
100
AcDbSymbolTableRecord
100
AcDbBlockTableRecord
  2
*Model_Space
340
0
  0
BLOCK_RECORD
  5
28
100
AcDbSymbolTableRecord
100
AcDbBlockTableRecord
  2
*Paper_Space
340
0
  0
BLOCK_RECORD
  5
1C
100
AcDbSymbolTableRecord
100
AcDbBlockTableRecord
  2
*D0
340
0
  0
BLOCK_RECORD
  5
1D
100
AcDbSymbolTableRecord
100
AcDbBlockTableRecord
  2
*D1
340
0
  0
BLOCK_RECORD
  5
1E
100
AcDbSymbolTableRecord
100
AcDbBlockTableRecord
  2
*D2
340
0
  0
BLOCK_RECORD
  5
1F
100
AcDbSymbolTableRecord
100
AcDbBlockTableRecord
  2
*D3
340
0
  0
BLOCK_RECORD
  5
20
100
AcDbSymbolTableRecord
100
AcDbBlockTableRecord
  2
*D4
340
0
  0
BLOCK_RECORD
  5
21
100
AcDbSymbolTableRecord
100
AcDbBlockTableRecord
  2
*D5
340
0
  0
BLOCK_RECORD
  5
22
100
AcDbSymbolTableRecord
100
AcDbBlockTableRecord
  2
*D6
340
0
  0
BLOCK_RECORD
  5
23
100
AcDbSymbolTableRecord
100
AcDbBlockTableRecord
  2
*D7
340
0
  0
BLOCK_RECORD
  5
24
100
AcDbSymbolTableRecord
100
AcDbBlockTableRecord
  2
*D8
340
0
  0
BLOCK_RECORD
  5
25
100
AcDbSymbolTableRecord
100
AcDbBlockTableRecord
  2
*D9
340
0
  0
BLOCK_RECORD
  5
26
100
AcDbSymbolTableRecord
100
AcDbBlockTableRecord
  2
*D10
340
0
  0
ENDTAB
  0
ENDSEC
  0
SECTION
  2
BLOCKS
  0
BLOCK
  5
2A
100
AcDbEntity
  8
0
390
0
100
AcDbBlockBegin
  2
*Model_Space
 70
     0
 10
0.0
 20
0.0
 30
0.0
  3
*Model_Space
  1

  0
ENDBLK
  5
2B
100
AcDbEntity
  8
0
390
0
100
AcDbBlockEnd
  0
BLOCK
  5
2C
100
AcDbEntity
 67
     1
  8
0
390
0
100
AcDbBlockBegin
  2
*Paper_Space
 70
     0
 10
0.0
 20
0.0
 30
0.0
  3
*Paper_Space
  1

  0
ENDBLK
  5
2D
100
AcDbEntity
 67
     1
  8
0
390
0
100
AcDbBlockEnd
  0
BLOCK
  5
639
100
AcDbEntity
  8
3
100
AcDbBlockBegin
  2
*D0
 70
     1
 10
0.0
 20
0.0
 30
0.0
  3
*D0
  1

  0
TEXT
  5
63A
100
AcDbEntity
  8
3
370
    25
100
AcDbText
 10
-227.032089
 20
42.453515
 30
0.0
 40
7.0
  1
φ４９
 72
     5
 11
-207.432089
 21
42.453515
 31
0.0
100
AcDbText
  0
LINE
  5
63B
100
AcDbEntity
  8
3
370
    25
100
AcDbLine
 10
-198.032089
 20
33.22157
 30
0.0
 11
-198.032089
 21
43.453515
 31
0.0
  0
LINE
  5
63C
100
AcDbEntity
  8
3
370
    25
100
AcDbLine
 10
-198.032089
 20
41.453515
 30
0.0
 11
-201.895792
 21
42.488791
 31
0.0
  0
LINE
  5
63D
100
AcDbEntity
  8
3
370
    25
100
AcDbLine
 10
-198.032089
 20
41.453515
 30
0.0
 11
-201.895792
 21
40.418239
 31
0.0
  0
LINE
  5
63E
100
AcDbEntity
  8
3
370
    25
100
AcDbLine
 10
-201.895792
 20
42.488791
 30
0.0
 11
-201.895792
 21
40.418239
 31
0.0
  0
LINE
  5
63F
100
AcDbEntity
  8
3
370
    25
100
AcDbLine
 10
-227.032089
 20
41.453515
 30
0.0
 11
-139.032089
 21
41.453515
 31
0.0
  0
LINE
  5
640
100
AcDbEntity
  8
3
370
    25
100
AcDbLine
 10
-149.032089
 20
41.453515
 30
0.0
 11
-145.168386
 21
40.418239
 31
0.0
  0
LINE
  5
641
100
AcDbEntity
  8
3
370
    25
100
AcDbLine
 10
-149.032089
 20
41.453515
 30
0.0
 11
-145.168386
 21
42.488791
 31
0.0
  0
LINE
  5
642
100
AcDbEntity
  8
3
370
    25
100
AcDbLine
 10
-145.168386
 20
40.418239
 30
0.0
 11
-145.168386
 21
42.488791
 31
0.0
  0
LINE
  5
643
100
AcDbEntity
  8
3
370
    25
100
AcDbLine
 10
-149.032089
 20
33.22157
 30
0.0
 11
-149.032089
 21
43.453515
 31
0.0
  0
ENDBLK
  5
644
100
AcDbEntity
  8
3
100
AcDbBlockEnd
  0
BLOCK
  5
645
100
AcDbEntity
  8
3
100
AcDbBlockBegin
  2
*D1
 70
     1
 10
0.0
 20
0.0
 30
0.0
  3
*D1
  1

  0
TEXT
  5
646
100
AcDbEntity
  8
3
370
    25
100
AcDbText
 10
63.245023
 20
184.585775
 30
0.0
 40
7.0
  1
３０゜
 50
75.0
 72
     5
 11
68.317876
 21
203.517921
 31
0.0
100
AcDbText
  0
LINE
  5
647
100
AcDbEntity
  8
3
370
    25
100
AcDbLine
 10
122.970983
 20
192.421434
 30
0.0
 11
74.461753
 21
220.428251
 31
0.0
  0
LINE
  5
648
100
AcDbEntity
  8
3
370
    25
100
AcDbLine
 10
78.115981
 20
168.221357
 30
0.0
 11
60.472958
 21
168.221357
 31
0.0
  0
LINE
  5
649
100
AcDbEntity
  8
3
370
    25
100
AcDbLine
 10
76.193804
 20
219.428251
 30
0.0
 11
73.419233
 21
216.546974
 31
0.0
  0
LINE
  5
64A
100
AcDbEntity
  8
3
370
    25
100
AcDbLine
 10
76.193804
 20
219.428251
 30
0.0
 11
75.231594
 21
215.545707
 31
0.0
  0
LINE
  5
64B
100
AcDbEntity
  8
3
370
    25
100
AcDbLine
 10
73.419233
 20
216.546974
 30
0.0
 11
75.231594
 21
215.545707
 31
0.0
  0
LINE
  5
64C
100
AcDbEntity
  8
3
370
    25
100
AcDbLine
 10
62.472958
 20
168.221357
 30
0.0
 11
63.580932
 21
172.064844
 31
0.0
  0
LINE
  5
64D
100
AcDbEntity
  8
3
370
    25
100
AcDbLine
 10
62.472958
 20
168.221357
 30
0.0
 11
61.510748
 21
172.103901
 31
0.0
  0
LINE
  5
64E
100
AcDbEntity
  8
3
370
    25
100
AcDbLine
 10
63.580932
 20
172.064844
 30
0.0
 11
61.510748
 21
172.103901
 31
0.0
  0
ARC
  5
64F
100
AcDbEntity
  8
3
370
    25
100
AcDbCircle
 10
164.886746
 20
168.221357
 30
0.0
 40
102.413788
100
AcDbArc
 50
150.0
 51
180.0
  0
ENDBLK
  5
650
100
AcDbEntity
  8
3
100
AcDbBlockEnd
  0
BLOCK
  5
651
100
AcDbEntity
  8
3
100
AcDbBlockBegin
  2
*D2
 70
     1
 10
0.0
 20
0.0
 30
0.0
  3
*D2
  1

  0
TEXT
  5
652
100
AcDbEntity
  8
3
370
    25
100
AcDbText
 10
13.473717
 20
48.69445
 30
0.0
 40
7.0
  1
２５゜
 50
347.5
 72
     5
 11
32.609119
 21
44.452234
 31
0.0
100
AcDbText
  0
LINE
  5
653
100
AcDbEntity
  8
3
370
    25
100
AcDbLine
 10
34.336592
 20
96.292635
 30
0.0
 11
11.547804
 21
47.405233
 31
0.0
  0
LINE
  5
654
100
AcDbEntity
  8
3
370
    25
100
AcDbLine
 10
35.18387
 20
96.104855
 30
0.0
 11
35.18387
 21
42.166865
 31
0.0
  0
LINE
  5
655
100
AcDbEntity
  8
3
370
    25
100
AcDbLine
 10
12.392803
 20
49.21796
 30
0.0
 11
15.547417
 21
46.758607
 31
0.0
  0
LINE
  5
656
100
AcDbEntity
  8
3
370
    25
100
AcDbLine
 10
12.392803
 20
49.21796
 30
0.0
 11
16.354455
 21
48.665404
 31
0.0
  0
LINE
  5
657
100
AcDbEntity
  8
3
370
    25
100
AcDbLine
 10
15.547417
 20
46.758607
 30
0.0
 11
16.354455
 21
48.665404
 31
0.0
  0
LINE
  5
658
100
AcDbEntity
  8
3
370
    25
100
AcDbLine
 10
35.18387
 20
44.166865
 30
0.0
 11
31.359721
 21
45.339846
 31
0.0
  0
LINE
  5
659
100
AcDbEntity
  8
3
370
    25
100
AcDbLine
 10
35.18387
 20
44.166865
 30
0.0
 11
31.285569
 21
43.270622
 31
0.0
  0
LINE
  5
65A
100
AcDbEntity
  8
3
370
    25
100
AcDbLine
 10
31.359721
 20
45.339846
 30
0.0
 11
31.285569
 21
43.270622
 31
0.0
  0
ARC
  5
65B
100
AcDbEntity
  8
3
370
    25
100
AcDbCircle
 10
35.18387
 20
98.11025
 30
0.0
 40
53.943385
100
AcDbArc
 50
245.007492
 51
270.0
  0
ENDBLK
  5
65C
100
AcDbEntity
  8
3
100
AcDbBlockEnd
  0
BLOCK
  5
65D
100
AcDbEntity
  8
3
100
AcDbBlockBegin
  2
*D3
 70
     1
 10
0.0
 20
0.0
 30
0.0
  3
*D3
  1

  0
LINE
  5
65E
100
AcDbEntity
  8
3
370
    25
100
AcDbLine
 10
153.254678
 20
12.882015
 30
0.0
 11
-61.771954
 21
12.882015
 31
0.0
  0
LINE
  5
65F
100
AcDbEntity
  8
3
370
    25
100
AcDbLine
 10
-59.771954
 20
12.882015
 30
0.0
 11
-58.736678
 21
16.745718
 31
0.0
  0
LINE
  5
660
100
AcDbEntity
  8
3
370
    25
100
AcDbLine
 10
-59.771954
 20
12.882015
 30
0.0
 11
-60.80723
 21
16.745718
 31
0.0
  0
LINE
  5
661
100
AcDbEntity
  8
3
370
    25
100
AcDbLine
 10
-58.736678
 20
16.745718
 30
0.0
 11
-60.80723
 21
16.745718
 31
0.0
  0
LINE
  5
662
100
AcDbEntity
  8
3
370
    25
100
AcDbLine
 10
-59.771954
 20
12.882015
 30
0.0
 11
-59.771954
 21
205.558805
 31
0.0
  0
LINE
  5
663
100
AcDbEntity
  8
3
370
    25
100
AcDbLine
 10
-59.771954
 20
205.558805
 30
0.0
 11
-60.80723
 21
201.695102
 31
0.0
  0
LINE
  5
664
100
AcDbEntity
  8
3
370
    25
100
AcDbLine
 10
-59.771954
 20
205.558805
 30
0.0
 11
-58.736678
 21
201.695102
 31
0.0
  0
LINE
  5
665
100
AcDbEntity
  8
3
370
    25
100
AcDbLine
 10
-60.80723
 20
201.695102
 30
0.0
 11
-58.736678
 21
201.695102
 31
0.0
  0
LINE
  5
666
100
AcDbEntity
  8
3
370
    25
100
AcDbLine
 10
97.948463
 20
205.558805
 30
0.0
 11
-61.771954
 21
205.558805
 31
0.0
  0
ENDBLK
  5
667
100
AcDbEntity
  8
3
100
AcDbBlockEnd
  0
BLOCK
  5
668
100
AcDbEntity
  8
3
100
AcDbBlockBegin
  2
*D4
 70
     1
 10
0.0
 20
0.0
 30
0.0
  3
*D4
  1

  0
LINE
  5
669
100
AcDbEntity
  8
3
370
    25
100
AcDbLine
 10
252.880284
 20
-87.17811
 30
0.0
 11
292.075073
 21
-87.17811
 31
0.0
  0
LINE
  5
66A
100
AcDbEntity
  8
3
370
    25
100
AcDbLine
 10
290.075073
 20
-87.17811
 30
0.0
 11
291.110349
 21
-83.314407
 31
0.0
  0
LINE
  5
66B
100
AcDbEntity
  8
3
370
    25
100
AcDbLine
 10
290.075073
 20
-87.17811
 30
0.0
 11
289.039797
 21
-83.314407
 31
0.0
  0
LINE
  5
66C
100
AcDbEntity
  8
3
370
    25
100
AcDbLine
 10
291.110349
 20
-83.314407
 30
0.0
 11
289.039797
 21
-83.314407
 31
0.0
  0
LINE
  5
66D
100
AcDbEntity
  8
3
370
    25
100
AcDbLine
 10
290.075073
 20
-87.17811
 30
0.0
 11
290.075073
 21
12.882015
 31
0.0
  0
LINE
  5
66E
100
AcDbEntity
  8
3
370
    25
100
AcDbLine
 10
290.075073
 20
12.882015
 30
0.0
 11
289.039797
 21
9.018312
 31
0.0
  0
LINE
  5
66F
100
AcDbEntity
  8
3
370
    25
100
AcDbLine
 10
290.075073
 20
12.882015
 30
0.0
 11
291.110349
 21
9.018312
 31
0.0
  0
LINE
  5
670
100
AcDbEntity
  8
3
370
    25
100
AcDbLine
 10
289.039797
 20
9.018312
 30
0.0
 11
291.110349
 21
9.018312
 31
0.0
  0
LINE
  5
671
100
AcDbEntity
  8
3
370
    25
100
AcDbLine
 10
157.254678
 20
12.882015
 30
0.0
 11
292.075073
 21
12.882015
 31
0.0
  0
ENDBLK
  5
672
100
AcDbEntity
  8
3
100
AcDbBlockEnd
  0
BLOCK
  5
673
100
AcDbEntity
  8
3
100
AcDbBlockBegin
  2
*D5
 70
     1
 10
0.0
 20
0.0
 30
0.0
  3
*D5
  1

  0
LINE
  5
674
100
AcDbEntity
  8
3
370
    25
100
AcDbLine
 10
35.18387
 20
96.110327
 30
0.0
 11
35.18387
 21
-17.557295
 31
0.0
  0
LINE
  5
675
100
AcDbEntity
  8
3
370
    25
100
AcDbLine
 10
35.18387
 20
-15.557295
 30
0.0
 11
39.047573
 21
-16.592571
 31
0.0
  0
LINE
  5
676
100
AcDbEntity
  8
3
370
    25
100
AcDbLine
 10
35.18387
 20
-15.557295
 30
0.0
 11
39.047573
 21
-14.522019
 31
0.0
  0
LINE
  5
677
100
AcDbEntity
  8
3
370
    25
100
AcDbLine
 10
39.047573
 20
-16.592571
 30
0.0
 11
39.047573
 21
-14.522019
 31
0.0
  0
LINE
  5
678
100
AcDbEntity
  8
3
370
    25
100
AcDbLine
 10
35.18387
 20
-15.557295
 30
0.0
 11
155.254678
 21
-15.557295
 31
0.0
  0
LINE
  5
679
100
AcDbEntity
  8
3
370
    25
100
AcDbLine
 10
155.254678
 20
-15.557295
 30
0.0
 11
151.390975
 21
-14.522019
 31
0.0
  0
LINE
  5
67A
100
AcDbEntity
  8
3
370
    25
100
AcDbLine
 10
155.254678
 20
-15.557295
 30
0.0
 11
151.390975
 21
-16.592571
 31
0.0
  0
LINE
  5
67B
100
AcDbEntity
  8
3
370
    25
100
AcDbLine
 10
151.390975
 20
-14.522019
 30
0.0
 11
151.390975
 21
-16.592571
 31
0.0
  0
LINE
  5
67C
100
AcDbEntity
  8
3
370
    25
100
AcDbLine
 10
155.254678
 20
-12.080653
 30
0.0
 11
155.254678
 21
-17.557295
 31
0.0
  0
ENDBLK
  5
67D
100
AcDbEntity
  8
3
100
AcDbBlockEnd
  0
BLOCK
  5
67E
100
AcDbEntity
  8
3
100
AcDbBlockBegin
  2
*D6
 70
     1
 10
0.0
 20
0.0
 30
0.0
  3
*D6
  1

  0
LINE
  5
67F
100
AcDbEntity
  8
3
370
    25
100
AcDbLine
 10
153.254678
 20
12.882015
 30
0.0
 11
-0.286256
 21
12.882015
 31
0.0
  0
LINE
  5
680
100
AcDbEntity
  8
3
370
    25
100
AcDbLine
 10
1.713744
 20
12.882015
 30
0.0
 11
2.74902
 21
16.745718
 31
0.0
  0
LINE
  5
681
100
AcDbEntity
  8
3
370
    25
100
AcDbLine
 10
1.713744
 20
12.882015
 30
0.0
 11
0.678468
 21
16.745718
 31
0.0
  0
LINE
  5
682
100
AcDbEntity
  8
3
370
    25
100
AcDbLine
 10
2.74902
 20
16.745718
 30
0.0
 11
0.678468
 21
16.745718
 31
0.0
  0
LINE
  5
683
100
AcDbEntity
  8
3
370
    25
100
AcDbLine
 10
1.713744
 20
12.882015
 30
0.0
 11
1.713744
 21
98.110327
 31
0.0
  0
LINE
  5
684
100
AcDbEntity
  8
3
370
    25
100
AcDbLine
 10
1.713744
 20
98.110327
 30
0.0
 11
0.678468
 21
94.246624
 31
0.0
  0
LINE
  5
685
100
AcDbEntity
  8
3
370
    25
100
AcDbLine
 10
1.713744
 20
98.110327
 30
0.0
 11
2.74902
 21
94.246624
 31
0.0
  0
LINE
  5
686
100
AcDbEntity
  8
3
370
    25
100
AcDbLine
 10
0.678468
 20
94.246624
 30
0.0
 11
2.74902
 21
94.246624
 31
0.0
  0
LINE
  5
687
100
AcDbEntity
  8
3
370
    25
100
AcDbLine
 10
33.18387
 20
98.110327
 30
0.0
 11
-0.286256
 21
98.110327
 31
0.0
  0
ENDBLK
  5
688
100
AcDbEntity
  8
3
100
AcDbBlockEnd
  0
BLOCK
  5
689
100
AcDbEntity
  8
3
100
AcDbBlockBegin
  2
*D7
 70
     1
 10
0.0
 20
0.0
 30
0.0
  3
*D7
  1

  0
LINE
  5
68A
100
AcDbEntity
  8
3
370
    25
100
AcDbLine
 10
153.254678
 20
12.882015
 30
0.0
 11
-22.345037
 21
12.882015
 31
0.0
  0
LINE
  5
68B
100
AcDbEntity
  8
3
370
    25
100
AcDbLine
 10
-20.345037
 20
12.882015
 30
0.0
 11
-19.309761
 21
16.745718
 31
0.0
  0
LINE
  5
68C
100
AcDbEntity
  8
3
370
    25
100
AcDbLine
 10
-20.345037
 20
12.882015
 30
0.0
 11
-21.380313
 21
16.745718
 31
0.0
  0
LINE
  5
68D
100
AcDbEntity
  8
3
370
    25
100
AcDbLine
 10
-19.309761
 20
16.745718
 30
0.0
 11
-21.380313
 21
16.745718
 31
0.0
  0
LINE
  5
68E
100
AcDbEntity
  8
3
370
    25
100
AcDbLine
 10
-20.345037
 20
12.882015
 30
0.0
 11
-20.345037
 21
137.345466
 31
0.0
  0
LINE
  5
68F
100
AcDbEntity
  8
3
370
    25
100
AcDbLine
 10
-20.345037
 20
137.345466
 30
0.0
 11
-21.380313
 21
133.481763
 31
0.0
  0
LINE
  5
690
100
AcDbEntity
  8
3
370
    25
100
AcDbLine
 10
-20.345037
 20
137.345466
 30
0.0
 11
-19.309761
 21
133.481763
 31
0.0
  0
LINE
  5
691
100
AcDbEntity
  8
3
370
    25
100
AcDbLine
 10
-21.380313
 20
133.481763
 30
0.0
 11
-19.309761
 21
133.481763
 31
0.0
  0
LINE
  5
692
100
AcDbEntity
  8
3
370
    25
100
AcDbLine
 10
35.898567
 20
137.345466
 30
0.0
 11
-22.345037
 21
137.345466
 31
0.0
  0
ENDBLK
  5
693
100
AcDbEntity
  8
3
100
AcDbBlockEnd
  0
BLOCK
  5
694
100
AcDbEntity
  8
3
100
AcDbBlockBegin
  2
*D8
 70
     1
 10
0.0
 20
0.0
 30
0.0
  3
*D8
  1

  0
LINE
  5
695
100
AcDbEntity
  8
3
370
    25
100
AcDbLine
 10
153.254678
 20
12.882015
 30
0.0
 11
-41.309891
 21
12.882015
 31
0.0
  0
LINE
  5
696
100
AcDbEntity
  8
3
370
    25
100
AcDbLine
 10
-39.309891
 20
12.882015
 30
0.0
 11
-38.274615
 21
16.745718
 31
0.0
  0
LINE
  5
697
100
AcDbEntity
  8
3
370
    25
100
AcDbLine
 10
-39.309891
 20
12.882015
 30
0.0
 11
-40.345167
 21
16.745718
 31
0.0
  0
LINE
  5
698
100
AcDbEntity
  8
3
370
    25
100
AcDbLine
 10
-38.274615
 20
16.745718
 30
0.0
 11
-40.345167
 21
16.745718
 31
0.0
  0
LINE
  5
699
100
AcDbEntity
  8
3
370
    25
100
AcDbLine
 10
-39.309891
 20
12.882015
 30
0.0
 11
-39.309891
 21
168.221357
 31
0.0
  0
LINE
  5
69A
100
AcDbEntity
  8
3
370
    25
100
AcDbLine
 10
-39.309891
 20
168.221357
 30
0.0
 11
-40.345167
 21
164.357654
 31
0.0
  0
LINE
  5
69B
100
AcDbEntity
  8
3
370
    25
100
AcDbLine
 10
-39.309891
 20
168.221357
 30
0.0
 11
-38.274615
 21
164.357654
 31
0.0
  0
LINE
  5
69C
100
AcDbEntity
  8
3
370
    25
100
AcDbLine
 10
-40.345167
 20
164.357654
 30
0.0
 11
-38.274615
 21
164.357654
 31
0.0
  0
LINE
  5
69D
100
AcDbEntity
  8
3
370
    25
100
AcDbLine
 10
69.294469
 20
168.221357
 30
0.0
 11
-41.309891
 21
168.221357
 31
0.0
  0
ENDBLK
  5
69E
100
AcDbEntity
  8
3
100
AcDbBlockEnd
  0
BLOCK
  5
69F
100
AcDbEntity
  8
3
100
AcDbBlockBegin
  2
*D9
 70
     1
 10
0.0
 20
0.0
 30
0.0
  3
*D9
  1

  0
LINE
  5
6A0
100
AcDbEntity
  8
3
370
    25
100
AcDbLine
 10
73.253773
 20
-162.483387
 30
0.0
 11
-0.286256
 21
-162.483387
 31
0.0
  0
LINE
  5
6A1
100
AcDbEntity
  8
3
370
    25
100
AcDbLine
 10
1.713744
 20
-162.483387
 30
0.0
 11
2.74902
 21
-158.619684
 31
0.0
  0
LINE
  5
6A2
100
AcDbEntity
  8
3
370
    25
100
AcDbLine
 10
1.713744
 20
-162.483387
 30
0.0
 11
0.678468
 21
-158.619684
 31
0.0
  0
LINE
  5
6A3
100
AcDbEntity
  8
3
370
    25
100
AcDbLine
 10
2.74902
 20
-158.619684
 30
0.0
 11
0.678468
 21
-158.619684
 31
0.0
  0
LINE
  5
6A4
100
AcDbEntity
  8
3
370
    25
100
AcDbLine
 10
1.713744
 20
-162.483387
 30
0.0
 11
1.713744
 21
12.882015
 31
0.0
  0
LINE
  5
6A5
100
AcDbEntity
  8
3
370
    25
100
AcDbLine
 10
1.713744
 20
12.882015
 30
0.0
 11
0.678468
 21
9.018312
 31
0.0
  0
LINE
  5
6A6
100
AcDbEntity
  8
3
370
    25
100
AcDbLine
 10
1.713744
 20
12.882015
 30
0.0
 11
2.74902
 21
9.018312
 31
0.0
  0
LINE
  5
6A7
100
AcDbEntity
  8
3
370
    25
100
AcDbLine
 10
0.678468
 20
9.018312
 30
0.0
 11
2.74902
 21
9.018312
 31
0.0
  0
LINE
  5
6A8
100
AcDbEntity
  8
3
370
    25
100
AcDbLine
 10
153.254678
 20
12.882015
 30
0.0
 11
-0.286256
 21
12.882015
 31
0.0
  0
ENDBLK
  5
6A9
100
AcDbEntity
  8
3
100
AcDbBlockEnd
  0
BLOCK
  5
6AA
100
AcDbEntity
  8
3
100
AcDbBlockBegin
  2
*D10
 70
     1
 10
0.0
 20
0.0
 30
0.0
  3
*D10
  1

  0
LINE
  5
6AB
100
AcDbEntity
  8
3
370
    25
100
AcDbLine
 10
129.379882
 20
-12.992861
 30
0.0
 11
96.399027
 21
-45.973817
 31
0.0
  0
LINE
  5
6AC
100
AcDbEntity
  8
3
370
    25
100
AcDbLine
 10
97.813238
 20
-44.559601
 30
0.0
 11
99.813244
 21
-48.023699
 31
0.0
  0
LINE
  5
6AD
100
AcDbEntity
  8
3
370
    25
100
AcDbLine
 10
97.813238
 20
-44.559601
 30
0.0
 11
101.277343
 21
-46.559596
 31
0.0
  0
LINE
  5
6AE
100
AcDbEntity
  8
3
370
    25
100
AcDbLine
 10
99.813244
 20
-48.023699
 30
0.0
 11
101.277343
 21
-46.559596
 31
0.0
  0
LINE
  5
6AF
100
AcDbEntity
  8
3
370
    25
100
AcDbLine
 10
97.813238
 20
-44.559601
 30
0.0
 11
108.419815
 21
-55.166145
 31
0.0
  0
LINE
  5
6B0
100
AcDbEntity
  8
3
370
    25
100
AcDbLine
 10
108.419815
 20
-55.166145
 30
0.0
 11
106.41981
 21
-51.702047
 31
0.0
  0
LINE
  5
6B1
100
AcDbEntity
  8
3
370
    25
100
AcDbLine
 10
108.419815
 20
-55.166145
 30
0.0
 11
104.955711
 21
-53.166151
 31
0.0
  0
LINE
  5
6B2
100
AcDbEntity
  8
3
370
    25
100
AcDbLine
 10
106.41981
 20
-51.702047
 30
0.0
 11
104.955711
 21
-53.166151
 31
0.0
  0
LINE
  5
6B3
100
AcDbEntity
  8
3
370
    25
100
AcDbLine
 10
127.323962
 20
-36.261941
 30
0.0
 11
107.005604
 21
-56.580361
 31
0.0
  0
ENDBLK
  5
6B4
100
AcDbEntity
  8
3
100
AcDbBlockEnd
  0
ENDSEC
  0
SECTION
  2
ENTITIES
  0
LINE
  5
2F
100
AcDbEntity
  8
1
370
   100
100
AcDbLine
 10
-384.001978
 20
276.500324
 30
0.0
 11
384.001978
 21
276.500324
 31
0.0
  0
LINE
  5
30
100
AcDbEntity
  8
1
370
   100
100
AcDbLine
 10
-384.001978
 20
276.500324
 30
0.0
 11
-384.001978
 21
-276.500324
 31
0.0
  0
LINE
  5
31
100
AcDbEntity
  8
1
370
   100
100
AcDbLine
 10
-384.001978
 20
-276.500324
 30
0.0
 11
384.001978
 21
-276.500324
 31
0.0
  0
LINE
  5
32
100
AcDbEntity
  8
1
370
   100
100
AcDbLine
 10
384.001978
 20
-276.500324
 30
0.0
 11
384.001978
 21
276.500324
 31
0.0
  0
TEXT
  5
33
100
AcDbEntity
  8
1
370
    50
100
AcDbText
 10
348.648035
 20
-224.7813
 30
0.0
 40
6.0
  1
設計
 72
     5
 11
359.448035
 21
-224.7813
 31
0.0
100
AcDbText
  0
TEXT
  5
34
100
AcDbEntity
  8
1
370
    50
100
AcDbText
 10
368.14707
 20
-224.628101
 30
0.0
 40
6.0
  1
製図
 72
     5
 11
378.94707
 21
-224.628101
 31
0.0
100
AcDbText
  0
TEXT
  5
35
100
AcDbEntity
  8
1
370
    50
100
AcDbText
 10
308.025337
 20
-224.7813
 30
0.0
 40
6.0
  1
承認
 72
     5
 11
318.825337
 21
-224.7813
 31
0.0
100
AcDbText
  0
TEXT
  5
36
100
AcDbEntity
  8
1
370
    50
100
AcDbText
 10
328.009271
 20
-224.726463
 30
0.0
 40
6.0
  1
検図
 72
     5
 11
338.809271
 21
-224.726463
 31
0.0
100
AcDbText
  0
LINE
  5
37
100
AcDbEntity
  8
1
370
    25
100
AcDbLine
 10
274.001978
 20
-226.500324
 30
0.0
 11
384.001978
 21
-226.500324
 31
0.0
  0
LINE
  5
38
100
AcDbEntity
  8
1
370
    25
100
AcDbLine
 10
331.501978
 20
-244.500324
 30
0.0
 11
331.501978
 21
-258.500324
 31
0.0
  0
TEXT
  5
39
100
AcDbEntity
  8
1
370
    50
100
AcDbText
 10
308.571182
 20
-254.540971
 30
0.0
 40
6.0
  1
日　付
 72
     5
 11
325.371182
 21
-254.540971
 31
0.0
100
AcDbText
  0
LINE
  5
3A
100
AcDbEntity
  8
1
370
    50
100
AcDbLine
 10
30.001978
 20
-258.500324
 30
0.0
 11
384.001978
 21
-258.500324
 31
0.0
  0
TEXT
  5
3B
100
AcDbEntity
  8
1
370
    50
100
AcDbText
 10
276.794603
 20
-254.850849
 30
0.0
 40
6.0
  1
第三角法
 72
     5
 11
299.594603
 21
-254.850849
 31
0.0
100
AcDbText
  0
TEXT
  5
3C
100
AcDbEntity
  8
1
370
    50
100
AcDbText
 10
280.107011
 20
-224.526463
 30
0.0
 40
6.0
  1
尺　度
 72
     5
 11
296.907011
 21
-224.526463
 31
0.0
100
AcDbText
  0
LINE
  5
3D
100
AcDbEntity
  8
1
370
   100
100
AcDbLine
 10
30.001978
 20
-216.500324
 30
0.0
 11
384.001978
 21
-216.500324
 31
0.0
  0
LINE
  5
3E
100
AcDbEntity
  8
1
370
    50
100
AcDbLine
 10
201.001978
 20
-216.500324
 30
0.0
 11
201.001978
 21
-276.500324
 31
0.0
  0
LINE
  5
3F
100
AcDbEntity
  8
1
370
    25
100
AcDbLine
 10
364.001978
 20
-244.500324
 30
0.0
 11
364.001978
 21
-216.500324
 31
0.0
  0
LINE
  5
40
100
AcDbEntity
  8
1
370
    25
100
AcDbLine
 10
344.001978
 20
-244.500324
 30
0.0
 11
344.001978
 21
-216.500324
 31
0.0
  0
LINE
  5
41
100
AcDbEntity
  8
1
370
    25
100
AcDbLine
 10
324.001978
 20
-244.500324
 30
0.0
 11
324.001978
 21
-216.500324
 31
0.0
  0
LINE
  5
42
100
AcDbEntity
  8
1
370
    50
100
AcDbLine
 10
274.001978
 20
-276.500324
 30
0.0
 11
274.001978
 21
-216.500324
 31
0.0
  0
LINE
  5
43
100
AcDbEntity
  8
1
370
    50
100
AcDbLine
 10
179.001978
 20
-216.500324
 30
0.0
 11
179.001978
 21
-276.500324
 31
0.0
  0
LINE
  5
44
100
AcDbEntity
  8
1
370
    50
100
AcDbLine
 10
52.001978
 20
-216.500324
 30
0.0
 11
52.001978
 21
-258.500324
 31
0.0
  0
LINE
  5
45
100
AcDbEntity
  8
1
370
    50
100
AcDbLine
 10
274.001978
 20
-244.500324
 30
0.0
 11
384.001978
 21
-244.500324
 31
0.0
  0
TEXT
  5
46
100
AcDbEntity
  8
1
370
    50
100
AcDbText
 10
276.120721
 20
-270.409382
 30
0.0
 40
6.0
  1
コードＮｏ
 41
0.9
 72
     5
 11
302.040721
 21
-270.409382
 31
0.0
100
AcDbText
  0
TEXT
  5
47
100
AcDbEntity
  8
1
370
   100
100
AcDbText
 10
41.906366
 20
-271.404102
 30
0.0
 40
8.0
  1
ミズタニバルブ工業株式会社
 41
1.2
 72
     5
 11
164.786366
 21
-271.404102
 31
0.0
100
AcDbText
  0
LINE
  5
48
100
AcDbEntity
  8
1
370
    50
100
AcDbLine
 10
30.001978
 20
-237.500324
 30
0.0
 11
274.001978
 21
-237.500324
 31
0.0
  0
LINE
  5
49
100
AcDbEntity
  8
1
370
    50
100
AcDbLine
 10
104.501978
 20
-237.500324
 30
0.0
 11
104.501978
 21
-258.500324
 31
0.0
  0
LINE
  5
4A
100
AcDbEntity
  8
1
370
    50
100
AcDbLine
 10
126.501978
 20
-237.500324
 30
0.0
 11
126.501978
 21
-258.500324
 31
0.0
  0
LINE
  5
4B
100
AcDbEntity
  8
1
370
    50
100
AcDbLine
 10
304.001978
 20
-276.500324
 30
0.0
 11
304.001978
 21
-216.500324
 31
0.0
  0
TEXT
  5
4C
100
AcDbEntity
  8
1
370
    50
100
AcDbText
 10
334.117723
 20
-254.628736
 30
0.0
 40
6.0
  1
　　・　　・
 72
     5
 11
368.917723
 21
-254.628736
 31
0.0
100
AcDbText
  0
LINE
  5
4D
100
AcDbEntity
  8
1
370
   100
100
AcDbLine
 10
30.001978
 20
-216.500324
 30
0.0
 11
30.001978
 21
-276.500324
 31
0.0
  0
TEXT
  5
4E
100
AcDbEntity
  8
1
370
    50
100
AcDbText
 10
279.852174
 20
-238.541935
 30
0.0
 40
6.0
  1
　／ 
 72
     5
 11
290.652174
 21
-238.541935
 31
0.0
100
AcDbText
  0
TEXT
  5
4F
100
AcDbEntity
  8
1
370
    50
100
AcDbText
 10
182.923715
 20
-270.553352
 30
0.0
 40
6.0
  1
備 考 
 72
     5
 11
196.723715
 21
-270.553352
 31
0.0
100
AcDbText
  0
TEXT
  5
50
100
AcDbEntity
  8
1
370
    50
100
AcDbText
 10
182.532126
 20
-229.420283
 30
0.0
 40
6.0
  1
仕 上
 72
     5
 11
196.332126
 21
-229.420283
 31
0.0
100
AcDbText
  0
TEXT
  5
51
100
AcDbEntity
  8
1
370
    50
100
AcDbText
 10
182.466768
 20
-247.420109
 30
0.0
 40
6.0
  1
表 面
 72
     5
 11
196.266768
 21
-247.420109
 31
0.0
100
AcDbText
  0
TEXT
  5
52
100
AcDbEntity
  8
1
370
    50
100
AcDbText
 10
182.466768
 20
-254.420109
 30
0.0
 40
6.0
  1
処 理
 72
     5
 11
196.266768
 21
-254.420109
 31
0.0
100
AcDbText
  0
TEXT
  5
53
100
AcDbEntity
  8
1
370
    50
100
AcDbText
 10
33.812943
 20
-230.221842
 30
0.0
 40
6.0
  1
品 名
 72
     5
 11
47.612943
 21
-230.221842
 31
0.0
100
AcDbText
  0
TEXT
  5
54
100
AcDbEntity
  8
1
370
    50
100
AcDbText
 10
33.417358
 20
-250.990977
 30
0.0
 40
6.0
  1
材 質
 72
     5
 11
47.217358
 21
-250.990977
 31
0.0
100
AcDbText
  0
TEXT
  5
55
100
AcDbEntity
  8
1
370
    50
100
AcDbText
 10
107.917358
 20
-250.990977
 30
0.0
 40
6.0
  1
規 格
 72
     5
 11
121.717358
 21
-250.990977
 31
0.0
100
AcDbText
  0
POINT
  5
56
100
AcDbEntity
  8
1
370
    50
100
AcDbPoint
 10
-384.001978
 20
0.0
 30
0.0
  0
POINT
  5
57
100
AcDbEntity
  8
1
370
    50
100
AcDbPoint
 10
0.0
 20
276.500324
 30
0.0
  0
POINT
  5
58
100
AcDbEntity
  8
1
370
    50
100
AcDbPoint
 10
0.0
 20
0.0
 30
0.0
  0
LINE
  5
59
100
AcDbEntity
  8
2
370
    25
  6
CENTER
100
AcDbLine
 10
250.880284
 20
-202.060844
 30
0.0
 11
15.156493
 21
-202.060844
 31
0.0
  0
LINE
  5
5A
100
AcDbEntity
  8
2
370
    25
  6
CENTER
100
AcDbLine
 10
-173.532089
 20
177.683703
 30
0.0
 11
-173.532089
 21
-260.79007
 31
0.0
  0
LINE
  5
5B
100
AcDbEntity
  8
2
370
    50
100
AcDbLine
 10
-190.232566
 20
-58.67843
 30
0.0
 11
-156.832566
 21
-58.67843
 31
0.0
  0
LINE
  5
5C
100
AcDbEntity
  8
2
370
    50
100
AcDbLine
 10
-156.832566
 20
-58.67843
 30
0.0
 11
-156.032566
 21
-57.87843
 31
0.0
  0
LINE
  5
5D
100
AcDbEntity
  8
2
370
    50
100
AcDbLine
 10
-191.032566
 20
-57.87843
 30
0.0
 11
-190.232566
 21
-58.67843
 31
0.0
  0
LINE
  5
5E
100
AcDbEntity
  8
2
370
    50
100
AcDbLine
 10
-156.032566
 20
-57.87843
 30
0.0
 11
-191.032566
 21
-57.87843
 31
0.0
  0
LINE
  5
5F
100
AcDbEntity
  8
2
370
    50
100
AcDbLine
 10
-187.281816
 20
-90.678255
 30
0.0
 11
-175.781816
 21
-90.678255
 31
0.0
  0
LINE
  5
60
100
AcDbEntity
  8
2
370
    50
100
AcDbLine
 10
-187.281816
 20
-106.178255
 30
0.0
 11
-175.781816
 21
-106.178255
 31
0.0
  0
LINE
  5
61
100
AcDbEntity
  8
2
370
    50
100
AcDbLine
 10
-175.531816
 20
-90.928255
 30
0.0
 11
-175.531816
 21
-105.928255
 31
0.0
  0
LINE
  5
62
100
AcDbEntity
  8
2
370
    50
100
AcDbLine
 10
-177.016272
 20
-91.178255
 30
0.0
 11
-177.016272
 21
-105.678255
 31
0.0
  0
LINE
  5
63
100
AcDbEntity
  8
2
370
    50
100
AcDbLine
 10
-180.047361
 20
-91.178255
 30
0.0
 11
-180.047361
 21
-105.678255
 31
0.0
  0
ARC
  5
64
100
AcDbEntity
  8
2
370
    50
100
AcDbCircle
 10
-178.531816
 20
-93.22513
 30
0.0
 40
2.546875
100
AcDbArc
 50
53.483062
 51
126.516938
  0
LINE
  5
65
100
AcDbEntity
  8
2
370
    50
100
AcDbLine
 10
-183.016272
 20
-91.178255
 30
0.0
 11
-180.047361
 21
-91.178255
 31
0.0
  0
LINE
  5
66
100
AcDbEntity
  8
2
370
    50
100
AcDbLine
 10
-177.016272
 20
-91.178255
 30
0.0
 11
-175.531816
 21
-91.178255
 31
0.0
  0
ARC
  5
67
100
AcDbEntity
  8
2
370
    50
100
AcDbCircle
 10
-178.531816
 20
-103.63138
 30
0.0
 40
2.546875
100
AcDbArc
 50
233.483062
 51
306.516938
  0
LINE
  5
68
100
AcDbEntity
  8
2
370
    50
100
AcDbLine
 10
-175.781816
 20
-90.678255
 30
0.0
 11
-175.531816
 21
-90.928255
 31
0.0
  0
LINE
  5
69
100
AcDbEntity
  8
2
370
    50
100
AcDbLine
 10
-175.781816
 20
-106.178255
 30
0.0
 11
-175.531816
 21
-105.928255
 31
0.0
  0
LINE
  5
6A
100
AcDbEntity
  8
2
370
    50
100
AcDbLine
 10
-183.016272
 20
-105.678255
 30
0.0
 11
-180.047361
 21
-105.678255
 31
0.0
  0
LINE
  5
6B
100
AcDbEntity
  8
2
370
    50
100
AcDbLine
 10
-177.016272
 20
-105.678255
 30
0.0
 11
-175.531816
 21
-105.678255
 31
0.0
  0
LINE
  5
6C
100
AcDbEntity
  8
2
370
    50
100
AcDbLine
 10
-183.016272
 20
-91.178255
 30
0.0
 11
-183.016272
 21
-105.678255
 31
0.0
  0
ARC
  5
6D
100
AcDbEntity
  8
2
370
    50
100
AcDbCircle
 10
-184.531816
 20
-103.63138
 30
0.0
 40
2.546875
100
AcDbArc
 50
233.483062
 51
306.516938
  0
LINE
  5
6E
100
AcDbEntity
  8
2
370
    50
100
AcDbLine
 10
-186.047361
 20
-91.178255
 30
0.0
 11
-186.047361
 21
-105.678255
 31
0.0
  0
ARC
  5
6F
100
AcDbEntity
  8
2
370
    50
100
AcDbCircle
 10
-184.531816
 20
-93.22513
 30
0.0
 40
2.546875
100
AcDbArc
 50
53.483062
 51
126.516938
  0
LINE
  5
70
100
AcDbEntity
  8
2
370
    50
100
AcDbLine
 10
-186.047361
 20
-91.178255
 30
0.0
 11
-187.531816
 21
-91.178255
 31
0.0
  0
LINE
  5
71
100
AcDbEntity
  8
2
370
    50
100
AcDbLine
 10
-186.047361
 20
-105.678255
 30
0.0
 11
-187.531816
 21
-105.678255
 31
0.0
  0
LINE
  5
72
100
AcDbEntity
  8
2
370
    50
100
AcDbLine
 10
-187.531816
 20
-90.928255
 30
0.0
 11
-187.531816
 21
-105.928255
 31
0.0
  0
LINE
  5
73
100
AcDbEntity
  8
2
370
    50
100
AcDbLine
 10
-187.281816
 20
-106.178255
 30
0.0
 11
-187.531816
 21
-105.928255
 31
0.0
  0
LINE
  5
74
100
AcDbEntity
  8
2
370
    50
100
AcDbLine
 10
-187.281816
 20
-90.678255
 30
0.0
 11
-187.531816
 21
-90.928255
 31
0.0
  0
LINE
  5
75
100
AcDbEntity
  8
2
370
    50
100
AcDbLine
 10
-159.781816
 20
-100.678255
 30
0.0
 11
-171.281816
 21
-100.678255
 31
0.0
  0
LINE
  5
76
100
AcDbEntity
  8
2
370
    50
100
AcDbLine
 10
-159.781816
 20
-116.178255
 30
0.0
 11
-171.281816
 21
-116.178255
 31
0.0
  0
LINE
  5
77
100
AcDbEntity
  8
2
370
    50
100
AcDbLine
 10
-171.531816
 20
-100.928255
 30
0.0
 11
-171.531816
 21
-115.928255
 31
0.0
  0
LINE
  5
78
100
AcDbEntity
  8
2
370
    50
100
AcDbLine
 10
-170.047361
 20
-101.178255
 30
0.0
 11
-170.047361
 21
-115.678255
 31
0.0
  0
LINE
  5
79
100
AcDbEntity
  8
2
370
    50
100
AcDbLine
 10
-167.016272
 20
-101.178255
 30
0.0
 11
-167.016272
 21
-115.678255
 31
0.0
  0
ARC
  5
7A
100
AcDbEntity
  8
2
370
    50
100
AcDbCircle
 10
-168.531816
 20
-103.22513
 30
0.0
 40
2.546875
100
AcDbArc
 50
53.483062
 51
126.516938
  0
LINE
  5
7B
100
AcDbEntity
  8
2
370
    50
100
AcDbLine
 10
-164.047361
 20
-101.178255
 30
0.0
 11
-167.016272
 21
-101.178255
 31
0.0
  0
LINE
  5
7C
100
AcDbEntity
  8
2
370
    50
100
AcDbLine
 10
-170.047361
 20
-101.178255
 30
0.0
 11
-171.531816
 21
-101.178255
 31
0.0
  0
ARC
  5
7D
100
AcDbEntity
  8
2
370
    50
100
AcDbCircle
 10
-168.531816
 20
-113.63138
 30
0.0
 40
2.546875
100
AcDbArc
 50
233.483062
 51
306.516938
  0
LINE
  5
7E
100
AcDbEntity
  8
2
370
    50
100
AcDbLine
 10
-171.281816
 20
-100.678255
 30
0.0
 11
-171.531816
 21
-100.928255
 31
0.0
  0
LINE
  5
7F
100
AcDbEntity
  8
2
370
    50
100
AcDbLine
 10
-171.281816
 20
-116.178255
 30
0.0
 11
-171.531816
 21
-115.928255
 31
0.0
  0
LINE
  5
80
100
AcDbEntity
  8
2
370
    50
100
AcDbLine
 10
-164.047361
 20
-115.678255
 30
0.0
 11
-167.016272
 21
-115.678255
 31
0.0
  0
LINE
  5
81
100
AcDbEntity
  8
2
370
    50
100
AcDbLine
 10
-170.047361
 20
-115.678255
 30
0.0
 11
-171.531816
 21
-115.678255
 31
0.0
  0
LINE
  5
82
100
AcDbEntity
  8
2
370
    50
100
AcDbLine
 10
-164.047361
 20
-101.178255
 30
0.0
 11
-164.047361
 21
-115.678255
 31
0.0
  0
ARC
  5
83
100
AcDbEntity
  8
2
370
    50
100
AcDbCircle
 10
-162.531816
 20
-113.63138
 30
0.0
 40
2.546875
100
AcDbArc
 50
233.483062
 51
306.516938
  0
LINE
  5
84
100
AcDbEntity
  8
2
370
    50
100
AcDbLine
 10
-161.016272
 20
-101.178255
 30
0.0
 11
-161.016272
 21
-115.678255
 31
0.0
  0
ARC
  5
85
100
AcDbEntity
  8
2
370
    50
100
AcDbCircle
 10
-162.531816
 20
-103.22513
 30
0.0
 40
2.546875
100
AcDbArc
 50
53.483062
 51
126.516938
  0
LINE
  5
86
100
AcDbEntity
  8
2
370
    50
100
AcDbLine
 10
-161.016272
 20
-101.178255
 30
0.0
 11
-159.531816
 21
-101.178255
 31
0.0
  0
LINE
  5
87
100
AcDbEntity
  8
2
370
    50
100
AcDbLine
 10
-161.016272
 20
-115.678255
 30
0.0
 11
-159.531816
 21
-115.678255
 31
0.0
  0
LINE
  5
88
100
AcDbEntity
  8
2
370
    50
100
AcDbLine
 10
-159.531816
 20
-100.928255
 30
0.0
 11
-159.531816
 21
-115.928255
 31
0.0
  0
LINE
  5
89
100
AcDbEntity
  8
2
370
    50
100
AcDbLine
 10
-159.781816
 20
-116.178255
 30
0.0
 11
-159.531816
 21
-115.928255
 31
0.0
  0
LINE
  5
8A
100
AcDbEntity
  8
2
370
    50
100
AcDbLine
 10
-159.781816
 20
-100.678255
 30
0.0
 11
-159.531816
 21
-100.928255
 31
0.0
  0
LINE
  5
8B
100
AcDbEntity
  8
2
370
    50
100
AcDbLine
 10
-160.531816
 20
-58.678255
 30
0.0
 11
-160.531816
 21
-100.678255
 31
0.0
  0
LINE
  5
8C
100
AcDbEntity
  8
2
370
    50
100
AcDbLine
 10
-186.531816
 20
-58.678255
 30
0.0
 11
-186.531816
 21
-90.678255
 31
0.0
  0
LINE
  5
8D
100
AcDbEntity
  8
2
370
    50
100
AcDbLine
 10
-177.47959
 20
-147.468445
 30
0.0
 11
-177.47959
 21
-183.152598
 31
0.0
  0
LINE
  5
8E
100
AcDbEntity
  8
2
370
    50
100
AcDbLine
 10
-187.22959
 20
-106.178383
 30
0.0
 11
-175.72959
 21
-106.178383
 31
0.0
  0
LINE
  5
8F
100
AcDbEntity
  8
2
370
    50
100
AcDbLine
 10
-169.47959
 20
-159.740784
 30
0.0
 11
-169.47959
 21
-183.173991
 31
0.0
  0
LINE
  5
90
100
AcDbEntity
  8
2
370
    50
100
AcDbLine
 10
-159.72959
 20
-116.178383
 30
0.0
 11
-171.22959
 21
-116.178383
 31
0.0
  0
ARC
  5
91
100
AcDbEntity
  8
2
370
    50
100
AcDbCircle
 10
-175.47959
 20
-180.517502
 30
0.0
 40
3.333333
100
AcDbArc
 50
233.130102
 51
306.869898
  0
ARC
  5
92
100
AcDbEntity
  8
2
370
    50
100
AcDbCircle
 10
-171.47959
 20
-185.850835
 30
0.0
 40
3.333333
100
AcDbArc
 50
53.130102
 51
126.869898
  0
ARC
  5
93
100
AcDbEntity
  8
2
370
    50
100
AcDbCircle
 10
-175.47959
 20
-185.850835
 30
0.0
 40
3.333333
100
AcDbArc
 50
53.130102
 51
126.869898
  0
LINE
  5
94
100
AcDbEntity
  8
2
370
    25
  6
CENTER
100
AcDbLine
 10
-243.68559
 20
-89.93443
 30
0.0
 11
-243.68559
 21
-109.98481
 31
0.0
  0
ARC
  5
95
100
AcDbEntity
  8
2
370
    50
100
AcDbCircle
 10
-249.48559
 20
-155.805798
 30
0.0
 40
0.2
100
AcDbArc
 50
180.0
 51
270.0
  0
ARC
  5
96
100
AcDbEntity
  8
2
370
    50
100
AcDbCircle
 10
-237.88559
 20
-155.805798
 30
0.0
 40
0.2
100
AcDbArc
 50
270.0
 51
360.0
  0
LINE
  5
97
100
AcDbEntity
  8
2
370
    50
100
AcDbLine
 10
-236.68559
 20
-156.005798
 30
0.0
 11
-250.68559
 21
-156.005798
 31
0.0
  0
LINE
  5
98
100
AcDbEntity
  8
2
370
    25
  6
CENTER
100
AcDbLine
 10
-103.273731
 20
-99.934676
 30
0.0
 11
-103.273731
 21
-120.570717
 31
0.0
  0
ARC
  5
99
100
AcDbEntity
  8
2
370
    50
100
AcDbCircle
 10
-237.884996
 20
-155.805115
 30
0.0
 40
0.2
100
AcDbArc
 50
270.0
 51
360.0
  0
ARC
  5
9A
100
AcDbEntity
  8
2
370
    50
100
AcDbCircle
 10
-249.484996
 20
-155.805115
 30
0.0
 40
0.2
100
AcDbArc
 50
180.0
 51
270.0
  0
LINE
  5
9B
100
AcDbEntity
  8
2
370
    50
100
AcDbLine
 10
-250.684996
 20
-156.005115
 30
0.0
 11
-236.684996
 21
-156.005115
 31
0.0
  0
LINE
  5
9C
100
AcDbEntity
  8
2
370
    50
100
AcDbLine
 10
-251.184996
 20
-156.505115
 30
0.0
 11
-250.684996
 21
-156.005115
 31
0.0
  0
LINE
  5
9D
100
AcDbEntity
  8
2
370
    50
100
AcDbLine
 10
-250.184857
 20
-169.804493
 30
0.0
 11
-250.184857
 21
-166.804493
 31
0.0
  0
LINE
  5
9E
100
AcDbEntity
  8
2
370
    50
100
AcDbLine
 10
-252.584996
 20
-161.40575
 30
0.0
 11
-252.584996
 21
-163.80575
 31
0.0
  0
LINE
  5
9F
100
AcDbEntity
  8
2
370
    50
100
AcDbLine
 10
-252.384996
 20
-161.20575
 30
0.0
 11
-252.584996
 21
-161.40575
 31
0.0
  0
LINE
  5
A0
100
AcDbEntity
  8
2
370
    50
100
AcDbLine
 10
-252.384996
 20
-164.00575
 30
0.0
 11
-252.584996
 21
-163.80575
 31
0.0
  0
LINE
  5
A1
100
AcDbEntity
  8
2
370
    50
100
AcDbLine
 10
-251.184996
 20
-161.20575
 30
0.0
 11
-251.184996
 21
-160.804493
 31
0.0
  0
LINE
  5
A2
100
AcDbEntity
  8
2
370
    50
100
AcDbLine
 10
-251.184996
 20
-156.505115
 30
0.0
 11
-251.184996
 21
-157.804493
 31
0.0
  0
LINE
  5
A3
100
AcDbEntity
  8
2
370
    50
100
AcDbLine
 10
-234.784996
 20
-161.405115
 30
0.0
 11
-234.784996
 21
-163.805115
 31
0.0
  0
LINE
  5
A4
100
AcDbEntity
  8
2
370
    50
100
AcDbLine
 10
-252.584996
 20
-161.405115
 30
0.0
 11
-252.584996
 21
-163.805115
 31
0.0
  0
LINE
  5
A5
100
AcDbEntity
  8
2
370
    50
100
AcDbLine
 10
-252.384996
 20
-161.205115
 30
0.0
 11
-252.584996
 21
-161.405115
 31
0.0
  0
LINE
  5
A6
100
AcDbEntity
  8
2
370
    50
100
AcDbLine
 10
-234.984996
 20
-161.205115
 30
0.0
 11
-234.784996
 21
-161.405115
 31
0.0
  0
LINE
  5
A7
100
AcDbEntity
  8
2
370
    50
100
AcDbLine
 10
-234.984996
 20
-164.005115
 30
0.0
 11
-234.784996
 21
-163.805115
 31
0.0
  0
LINE
  5
A8
100
AcDbEntity
  8
2
370
    50
100
AcDbLine
 10
-234.684996
 20
-169.805115
 30
0.0
 11
-252.684996
 21
-169.805115
 31
0.0
  0
LINE
  5
A9
100
AcDbEntity
  8
2
370
    50
100
AcDbLine
 10
-235.384996
 20
-157.805115
 30
0.0
 11
-251.984996
 21
-157.805115
 31
0.0
  0
LINE
  5
AA
100
AcDbEntity
  8
2
370
    50
100
AcDbLine
 10
-247.684996
 20
-158.805115
 30
0.0
 11
-247.684996
 21
-168.805115
 31
0.0
  0
LINE
  5
AB
100
AcDbEntity
  8
2
370
    50
100
AcDbLine
 10
-239.684996
 20
-158.805115
 30
0.0
 11
-239.684996
 21
-168.805115
 31
0.0
  0
LINE
  5
AC
100
AcDbEntity
  8
2
370
    50
100
AcDbLine
 10
-258.184996
 20
-156.805115
 30
0.0
 11
-258.184996
 21
-168.805115
 31
0.0
  0
LINE
  5
AD
100
AcDbEntity
  8
2
370
    50
100
AcDbLine
 10
-229.184996
 20
-156.805115
 30
0.0
 11
-229.184996
 21
-168.805115
 31
0.0
  0
ARC
  5
AE
100
AcDbEntity
  8
2
370
    50
100
AcDbCircle
 10
-230.184996
 20
-156.805115
 30
0.0
 40
1.0
100
AcDbArc
 50
0.0
 51
90.0
  0
ARC
  5
AF
100
AcDbEntity
  8
2
370
    50
100
AcDbCircle
 10
-257.184996
 20
-156.805115
 30
0.0
 40
1.0
100
AcDbArc
 50
90.0
 51
180.0
  0
ARC
  5
B0
100
AcDbEntity
  8
2
370
    50
100
AcDbCircle
 10
-257.184996
 20
-168.805115
 30
0.0
 40
1.0
100
AcDbArc
 50
180.0
 51
270.0
  0
ARC
  5
B1
100
AcDbEntity
  8
2
370
    50
100
AcDbCircle
 10
-230.184996
 20
-168.805115
 30
0.0
 40
1.0
100
AcDbArc
 50
270.0
 51
360.0
  0
LINE
  5
B2
100
AcDbEntity
  8
2
370
    50
100
AcDbLine
 10
-257.184996
 20
-155.805115
 30
0.0
 11
-249.684996
 21
-155.805115
 31
0.0
  0
LINE
  5
B3
100
AcDbEntity
  8
2
370
    50
100
AcDbLine
 10
-237.684996
 20
-155.805115
 30
0.0
 11
-230.184996
 21
-155.805115
 31
0.0
  0
LINE
  5
B4
100
AcDbEntity
  8
2
370
    50
100
AcDbLine
 10
-257.184996
 20
-169.805115
 30
0.0
 11
-251.184996
 21
-169.805115
 31
0.0
  0
LINE
  5
B5
100
AcDbEntity
  8
2
370
    50
100
AcDbLine
 10
-235.384996
 20
-169.805115
 30
0.0
 11
-230.184996
 21
-169.805115
 31
0.0
  0
LINE
  5
B6
100
AcDbEntity
  8
2
370
    50
100
AcDbLine
 10
-235.384996
 20
-160.805115
 30
0.0
 11
-239.684996
 21
-160.805115
 31
0.0
  0
LINE
  5
B7
100
AcDbEntity
  8
2
370
    50
100
AcDbLine
 10
-247.684996
 20
-160.805115
 30
0.0
 11
-251.984996
 21
-160.805115
 31
0.0
  0
LINE
  5
B8
100
AcDbEntity
  8
2
370
    50
100
AcDbLine
 10
-234.984996
 20
-161.205115
 30
0.0
 11
-239.684996
 21
-161.205115
 31
0.0
  0
LINE
  5
B9
100
AcDbEntity
  8
2
370
    50
100
AcDbLine
 10
-247.684996
 20
-161.205115
 30
0.0
 11
-252.384996
 21
-161.205115
 31
0.0
  0
LINE
  5
BA
100
AcDbEntity
  8
2
370
    50
100
AcDbLine
 10
-234.784996
 20
-161.405115
 30
0.0
 11
-239.684996
 21
-161.405115
 31
0.0
  0
LINE
  5
BB
100
AcDbEntity
  8
2
370
    50
100
AcDbLine
 10
-247.684996
 20
-161.405115
 30
0.0
 11
-252.584996
 21
-161.405115
 31
0.0
  0
LINE
  5
BC
100
AcDbEntity
  8
2
370
    50
100
AcDbLine
 10
-234.784996
 20
-163.805115
 30
0.0
 11
-239.684996
 21
-163.805115
 31
0.0
  0
LINE
  5
BD
100
AcDbEntity
  8
2
370
    50
100
AcDbLine
 10
-247.684996
 20
-163.805115
 30
0.0
 11
-252.584996
 21
-163.805115
 31
0.0
  0
LINE
  5
BE
100
AcDbEntity
  8
2
370
    50
100
AcDbLine
 10
-235.384996
 20
-166.805115
 30
0.0
 11
-239.684996
 21
-166.805115
 31
0.0
  0
LINE
  5
BF
100
AcDbEntity
  8
2
370
    50
100
AcDbLine
 10
-247.684996
 20
-166.805115
 30
0.0
 11
-251.984996
 21
-166.805115
 31
0.0
  0
ARC
  5
C0
100
AcDbEntity
  8
2
370
    50
100
AcDbCircle
 10
-240.684996
 20
-158.805115
 30
0.0
 40
1.0
100
AcDbArc
 50
0.0
 51
90.0
  0
ARC
  5
C1
100
AcDbEntity
  8
2
370
    50
100
AcDbCircle
 10
-246.684996
 20
-158.805115
 30
0.0
 40
1.0
100
AcDbArc
 50
90.0
 51
180.0
  0
ARC
  5
C2
100
AcDbEntity
  8
2
370
    50
100
AcDbCircle
 10
-246.684996
 20
-168.805115
 30
0.0
 40
1.0
100
AcDbArc
 50
180.0
 51
270.0
  0
ARC
  5
C3
100
AcDbEntity
  8
2
370
    50
100
AcDbCircle
 10
-240.684996
 20
-168.805115
 30
0.0
 40
1.0
100
AcDbArc
 50
270.0
 51
360.0
  0
LINE
  5
C4
100
AcDbEntity
  8
2
370
    50
100
AcDbLine
 10
-251.984996
 20
-157.805115
 30
0.0
 11
-251.984996
 21
-160.805115
 31
0.0
  0
LINE
  5
C5
100
AcDbEntity
  8
2
370
    50
100
AcDbLine
 10
-235.384996
 20
-157.805115
 30
0.0
 11
-235.384996
 21
-160.805115
 31
0.0
  0
LINE
  5
C6
100
AcDbEntity
  8
2
370
    50
100
AcDbLine
 10
-235.384996
 20
-166.805115
 30
0.0
 11
-235.384996
 21
-169.805115
 31
0.0
  0
LINE
  5
C7
100
AcDbEntity
  8
2
370
    50
100
AcDbLine
 10
-251.984996
 20
-166.805115
 30
0.0
 11
-251.984996
 21
-169.805115
 31
0.0
  0
LINE
  5
C8
100
AcDbEntity
  8
2
370
    50
100
AcDbLine
 10
-251.184996
 20
-161.205115
 30
0.0
 11
-251.184996
 21
-160.805115
 31
0.0
  0
LINE
  5
C9
100
AcDbEntity
  8
2
370
    50
100
AcDbLine
 10
-236.184996
 20
-161.205115
 30
0.0
 11
-236.184996
 21
-160.805115
 31
0.0
  0
LINE
  5
CA
100
AcDbEntity
  8
2
370
    50
100
AcDbLine
 10
-248.684996
 20
-169.505698
 30
0.0
 11
-248.684996
 21
-167.200476
 31
0.0
  0
LINE
  5
CB
100
AcDbEntity
  8
2
370
    50
100
AcDbLine
 10
-248.684997
 20
-160.543929
 30
0.0
 11
-248.684996
 21
-158.111724
 31
0.0
  0
LINE
  5
CC
100
AcDbEntity
  8
2
370
    50
100
AcDbLine
 10
-238.684996
 20
-169.505698
 30
0.0
 11
-238.684996
 21
-167.200476
 31
0.0
  0
LINE
  5
CD
100
AcDbEntity
  8
2
370
    50
100
AcDbLine
 10
-238.684996
 20
-160.50125
 30
0.0
 11
-238.684996
 21
-158.032202
 31
0.0
  0
LINE
  5
CE
100
AcDbEntity
  8
2
370
    50
100
AcDbLine
 10
-252.484996
 20
-168.805115
 30
0.0
 11
-252.484996
 21
-166.205115
 31
0.0
  0
LINE
  5
CF
100
AcDbEntity
  8
2
370
    50
100
AcDbLine
 10
-252.484996
 20
-161.305115
 30
0.0
 11
-252.484996
 21
-156.805115
 31
0.0
  0
LINE
  5
D0
100
AcDbEntity
  8
2
370
    50
100
AcDbLine
 10
-234.884996
 20
-168.805115
 30
0.0
 11
-234.884996
 21
-166.205115
 31
0.0
  0
LINE
  5
D1
100
AcDbEntity
  8
2
370
    50
100
AcDbLine
 10
-234.884996
 20
-161.305115
 30
0.0
 11
-234.884996
 21
-156.805115
 31
0.0
  0
ARC
  5
D2
100
AcDbEntity
  8
2
370
    50
100
AcDbCircle
 10
-251.484996
 20
-156.805115
 30
0.0
 40
1.0
100
AcDbArc
 50
90.0
 51
180.0
  0
ARC
  5
D3
100
AcDbEntity
  8
2
370
    50
100
AcDbCircle
 10
-235.884996
 20
-156.805115
 30
0.0
 40
1.0
100
AcDbArc
 50
0.0
 51
90.0
  0
ARC
  5
D4
100
AcDbEntity
  8
2
370
    50
100
AcDbCircle
 10
-253.484996
 20
-168.805115
 30
0.0
 40
1.0
100
AcDbArc
 50
270.0
 51
360.0
  0
ARC
  5
D5
100
AcDbEntity
  8
2
370
    50
100
AcDbCircle
 10
-233.884996
 20
-168.805115
 30
0.0
 40
1.0
100
AcDbArc
 50
180.0
 51
270.0
  0
LINE
  5
D6
100
AcDbEntity
  8
2
370
    50
100
AcDbLine
 10
-236.184996
 20
-156.505115
 30
0.0
 11
-236.184996
 21
-157.804493
 31
0.0
  0
ARC
  5
D7
100
AcDbEntity
  8
2
370
    50
100
AcDbCircle
 10
-235.884996
 20
-156.805115
 30
0.0
 40
1.0
100
AcDbArc
 50
0.0
 51
90.0
  0
LINE
  5
D8
100
AcDbEntity
  8
2
370
    50
100
AcDbLine
 10
-236.184996
 20
-156.505115
 30
0.0
 11
-236.684996
 21
-156.005115
 31
0.0
  0
LINE
  5
D9
100
AcDbEntity
  8
2
370
    50
100
AcDbLine
 10
-234.684996
 20
-164.205115
 30
0.0
 11
-234.684996
 21
-166.005115
 31
0.0
  0
LINE
  5
DA
100
AcDbEntity
  8
2
370
    50
100
AcDbLine
 10
-252.684996
 20
-164.205115
 30
0.0
 11
-252.684996
 21
-166.005115
 31
0.0
  0
LINE
  5
DB
100
AcDbEntity
  8
2
370
    50
100
AcDbLine
 10
-233.684996
 20
-171.205115
 30
0.0
 11
-233.684996
 21
-198.705115
 31
0.0
  0
LINE
  5
DC
100
AcDbEntity
  8
2
370
    50
100
AcDbLine
 10
-253.684996
 20
-171.205115
 30
0.0
 11
-253.684996
 21
-198.705115
 31
0.0
  0
LINE
  5
DD
100
AcDbEntity
  8
2
370
    50
100
AcDbLine
 10
-252.684996
 20
-170.205115
 30
0.0
 11
-253.684996
 21
-171.205115
 31
0.0
  0
LINE
  5
DE
100
AcDbEntity
  8
2
370
    50
100
AcDbLine
 10
-234.684996
 20
-170.205115
 30
0.0
 11
-233.684996
 21
-171.205115
 31
0.0
  0
LINE
  5
DF
100
AcDbEntity
  8
2
370
    50
100
AcDbLine
 10
-234.684996
 20
-170.205115
 30
0.0
 11
-252.684996
 21
-170.205115
 31
0.0
  0
LINE
  5
E0
100
AcDbEntity
  8
2
370
    50
100
AcDbLine
 10
-231.684996
 20
-198.705115
 30
0.0
 11
-255.684996
 21
-198.705115
 31
0.0
  0
LINE
  5
E1
100
AcDbEntity
  8
2
370
    50
100
AcDbLine
 10
-230.684996
 20
-199.705115
 30
0.0
 11
-230.684996
 21
-208.705115
 31
0.0
  0
LINE
  5
E2
100
AcDbEntity
  8
2
370
    50
100
AcDbLine
 10
-231.684996
 20
-198.705115
 30
0.0
 11
-230.684996
 21
-199.705115
 31
0.0
  0
LINE
  5
E3
100
AcDbEntity
  8
2
370
    50
100
AcDbLine
 10
-234.884996
 20
-164.005115
 30
0.0
 11
-234.684996
 21
-164.205115
 31
0.0
  0
LINE
  5
E4
100
AcDbEntity
  8
2
370
    50
100
AcDbLine
 10
-234.684996
 20
-166.005115
 30
0.0
 11
-234.884996
 21
-166.205115
 31
0.0
  0
LINE
  5
E5
100
AcDbEntity
  8
2
370
    50
100
AcDbLine
 10
-252.484996
 20
-164.005115
 30
0.0
 11
-252.684996
 21
-164.205115
 31
0.0
  0
LINE
  5
E6
100
AcDbEntity
  8
2
370
    50
100
AcDbLine
 10
-252.684996
 20
-166.005115
 30
0.0
 11
-252.484996
 21
-166.205115
 31
0.0
  0
LINE
  5
E7
100
AcDbEntity
  8
2
370
    50
100
AcDbLine
 10
-256.684996
 20
-199.705115
 30
0.0
 11
-256.684996
 21
-208.705115
 31
0.0
  0
LINE
  5
E8
100
AcDbEntity
  8
2
370
    50
100
AcDbLine
 10
-255.684996
 20
-198.705115
 30
0.0
 11
-256.684996
 21
-199.705115
 31
0.0
  0
LINE
  5
E9
100
AcDbEntity
  8
2
370
    50
100
AcDbLine
 10
-253.684996
 20
-171.205115
 30
0.0
 11
-233.684996
 21
-171.205115
 31
0.0
  0
LINE
  5
EA
100
AcDbEntity
  8
2
370
    50
100
AcDbLine
 10
-250.613387
 20
-208.705115
 30
0.0
 11
-250.613387
 21
-199.705115
 31
0.0
  0
LINE
  5
EB
100
AcDbEntity
  8
2
370
    50
100
AcDbLine
 10
-236.756606
 20
-208.705115
 30
0.0
 11
-236.756606
 21
-199.705115
 31
0.0
  0
ARC
  5
EC
100
AcDbEntity
  8
2
370
    50
100
AcDbCircle
 10
-243.684996
 20
-223.206411
 30
0.0
 40
24.501296
100
AcDbArc
 50
73.574016
 51
106.425984
  0
ARC
  5
ED
100
AcDbEntity
  8
2
370
    50
100
AcDbCircle
 10
-233.720801
 20
-203.81317
 30
0.0
 40
5.108056
100
AcDbArc
 50
53.536034
 51
126.463966
  0
ARC
  5
EE
100
AcDbEntity
  8
2
370
    50
100
AcDbCircle
 10
-253.649192
 20
-203.81317
 30
0.0
 40
5.108056
100
AcDbArc
 50
53.536034
 51
126.463966
  0
LINE
  5
EF
100
AcDbEntity
  8
2
370
    50
100
AcDbLine
 10
-251.184996
 20
-170.205115
 30
0.0
 11
-251.184996
 21
-169.805115
 31
0.0
  0
LINE
  5
F0
100
AcDbEntity
  8
2
370
    50
100
AcDbLine
 10
-251.184996
 20
-166.805115
 30
0.0
 11
-251.184996
 21
-166.205115
 31
0.0
  0
LINE
  5
F1
100
AcDbEntity
  8
2
370
    50
100
AcDbLine
 10
-236.184996
 20
-170.205115
 30
0.0
 11
-236.184996
 21
-169.805115
 31
0.0
  0
LINE
  5
F2
100
AcDbEntity
  8
2
370
    50
100
AcDbLine
 10
-236.184996
 20
-166.805115
 30
0.0
 11
-236.184996
 21
-166.205115
 31
0.0
  0
LINE
  5
F3
100
AcDbEntity
  8
2
370
    50
100
AcDbLine
 10
-234.884996
 20
-166.205115
 30
0.0
 11
-239.684996
 21
-166.205115
 31
0.0
  0
LINE
  5
F4
100
AcDbEntity
  8
2
370
    50
100
AcDbLine
 10
-247.684996
 20
-166.205115
 30
0.0
 11
-252.484996
 21
-166.205115
 31
0.0
  0
LINE
  5
F5
100
AcDbEntity
  8
2
370
    50
100
AcDbLine
 10
-234.684996
 20
-166.005115
 30
0.0
 11
-239.684996
 21
-166.005115
 31
0.0
  0
LINE
  5
F6
100
AcDbEntity
  8
2
370
    50
100
AcDbLine
 10
-247.684996
 20
-166.005115
 30
0.0
 11
-252.684996
 21
-166.005115
 31
0.0
  0
LINE
  5
F7
100
AcDbEntity
  8
2
370
    50
100
AcDbLine
 10
-234.684996
 20
-164.205115
 30
0.0
 11
-239.684996
 21
-164.205115
 31
0.0
  0
LINE
  5
F8
100
AcDbEntity
  8
2
370
    50
100
AcDbLine
 10
-247.684996
 20
-164.205115
 30
0.0
 11
-252.684996
 21
-164.205115
 31
0.0
  0
LINE
  5
F9
100
AcDbEntity
  8
2
370
    50
100
AcDbLine
 10
-234.884996
 20
-164.005115
 30
0.0
 11
-239.684996
 21
-164.005115
 31
0.0
  0
LINE
  5
FA
100
AcDbEntity
  8
2
370
    50
100
AcDbLine
 10
-247.684996
 20
-164.005115
 30
0.0
 11
-252.484996
 21
-164.005115
 31
0.0
  0
LINE
  5
FB
100
AcDbEntity
  8
2
370
    50
100
AcDbLine
 10
-237.185136
 20
-169.804493
 30
0.0
 11
-237.185136
 21
-166.804493
 31
0.0
  0
LINE
  5
FC
100
AcDbEntity
  8
2
370
    50
100
AcDbLine
 10
-250.184857
 20
-160.805115
 30
0.0
 11
-250.184857
 21
-157.805115
 31
0.0
  0
LINE
  5
FD
100
AcDbEntity
  8
2
370
    50
100
AcDbLine
 10
-237.185136
 20
-160.805115
 30
0.0
 11
-237.185136
 21
-157.805115
 31
0.0
  0
ARC
  5
FE
100
AcDbEntity
  8
2
370
    50
100
AcDbCircle
 10
-109.07359
 20
-165.807798
 30
0.0
 40
0.2
100
AcDbArc
 50
180.0
 51
270.0
  0
ARC
  5
FF
100
AcDbEntity
  8
2
370
    50
100
AcDbCircle
 10
-97.47359
 20
-165.807798
 30
0.0
 40
0.2
100
AcDbArc
 50
270.0
 51
360.0
  0
LINE
  5
100
100
AcDbEntity
  8
2
370
    50
100
AcDbLine
 10
-96.27359
 20
-166.007798
 30
0.0
 11
-110.27359
 21
-166.007798
 31
0.0
  0
ARC
  5
101
100
AcDbEntity
  8
2
370
    50
100
AcDbCircle
 10
-97.472996
 20
-165.807115
 30
0.0
 40
0.2
100
AcDbArc
 50
270.0
 51
360.0
  0
ARC
  5
102
100
AcDbEntity
  8
2
370
    50
100
AcDbCircle
 10
-109.072996
 20
-165.807115
 30
0.0
 40
0.2
100
AcDbArc
 50
180.0
 51
270.0
  0
LINE
  5
103
100
AcDbEntity
  8
2
370
    50
100
AcDbLine
 10
-110.272996
 20
-166.007115
 30
0.0
 11
-96.272996
 21
-166.007115
 31
0.0
  0
LINE
  5
104
100
AcDbEntity
  8
2
370
    50
100
AcDbLine
 10
-110.772996
 20
-166.507115
 30
0.0
 11
-110.272996
 21
-166.007115
 31
0.0
  0
LINE
  5
105
100
AcDbEntity
  8
2
370
    50
100
AcDbLine
 10
-109.772857
 20
-179.806493
 30
0.0
 11
-109.772857
 21
-176.806493
 31
0.0
  0
LINE
  5
106
100
AcDbEntity
  8
2
370
    50
100
AcDbLine
 10
-112.172996
 20
-171.40775
 30
0.0
 11
-112.172996
 21
-173.80775
 31
0.0
  0
LINE
  5
107
100
AcDbEntity
  8
2
370
    50
100
AcDbLine
 10
-111.972996
 20
-171.20775
 30
0.0
 11
-112.172996
 21
-171.40775
 31
0.0
  0
LINE
  5
108
100
AcDbEntity
  8
2
370
    50
100
AcDbLine
 10
-111.972996
 20
-174.00775
 30
0.0
 11
-112.172996
 21
-173.80775
 31
0.0
  0
LINE
  5
109
100
AcDbEntity
  8
2
370
    50
100
AcDbLine
 10
-110.772996
 20
-171.20775
 30
0.0
 11
-110.772996
 21
-170.806493
 31
0.0
  0
LINE
  5
10A
100
AcDbEntity
  8
2
370
    50
100
AcDbLine
 10
-110.772996
 20
-166.507115
 30
0.0
 11
-110.772996
 21
-167.806493
 31
0.0
  0
LINE
  5
10B
100
AcDbEntity
  8
2
370
    50
100
AcDbLine
 10
-94.372996
 20
-171.407115
 30
0.0
 11
-94.372996
 21
-173.807115
 31
0.0
  0
LINE
  5
10C
100
AcDbEntity
  8
2
370
    50
100
AcDbLine
 10
-112.172996
 20
-171.407115
 30
0.0
 11
-112.172996
 21
-173.807115
 31
0.0
  0
LINE
  5
10D
100
AcDbEntity
  8
2
370
    50
100
AcDbLine
 10
-111.972996
 20
-171.207115
 30
0.0
 11
-112.172996
 21
-171.407115
 31
0.0
  0
LINE
  5
10E
100
AcDbEntity
  8
2
370
    50
100
AcDbLine
 10
-94.572996
 20
-171.207115
 30
0.0
 11
-94.372996
 21
-171.407115
 31
0.0
  0
LINE
  5
10F
100
AcDbEntity
  8
2
370
    50
100
AcDbLine
 10
-94.572996
 20
-174.007115
 30
0.0
 11
-94.372996
 21
-173.807115
 31
0.0
  0
LINE
  5
110
100
AcDbEntity
  8
2
370
    50
100
AcDbLine
 10
-94.272996
 20
-179.807115
 30
0.0
 11
-112.272996
 21
-179.807115
 31
0.0
  0
LINE
  5
111
100
AcDbEntity
  8
2
370
    50
100
AcDbLine
 10
-94.972996
 20
-167.807115
 30
0.0
 11
-111.572996
 21
-167.807115
 31
0.0
  0
LINE
  5
112
100
AcDbEntity
  8
2
370
    50
100
AcDbLine
 10
-107.272996
 20
-168.807115
 30
0.0
 11
-107.272996
 21
-178.807115
 31
0.0
  0
LINE
  5
113
100
AcDbEntity
  8
2
370
    50
100
AcDbLine
 10
-99.272996
 20
-168.807115
 30
0.0
 11
-99.272996
 21
-178.807115
 31
0.0
  0
LINE
  5
114
100
AcDbEntity
  8
2
370
    50
100
AcDbLine
 10
-117.772996
 20
-166.807115
 30
0.0
 11
-117.772996
 21
-178.807115
 31
0.0
  0
LINE
  5
115
100
AcDbEntity
  8
2
370
    50
100
AcDbLine
 10
-88.772996
 20
-166.807115
 30
0.0
 11
-88.772996
 21
-178.807115
 31
0.0
  0
ARC
  5
116
100
AcDbEntity
  8
2
370
    50
100
AcDbCircle
 10
-89.772996
 20
-166.807115
 30
0.0
 40
1.0
100
AcDbArc
 50
0.0
 51
90.0
  0
ARC
  5
117
100
AcDbEntity
  8
2
370
    50
100
AcDbCircle
 10
-116.772996
 20
-166.807115
 30
0.0
 40
1.0
100
AcDbArc
 50
90.0
 51
180.0
  0
ARC
  5
118
100
AcDbEntity
  8
2
370
    50
100
AcDbCircle
 10
-116.772996
 20
-178.807115
 30
0.0
 40
1.0
100
AcDbArc
 50
180.0
 51
270.0
  0
ARC
  5
119
100
AcDbEntity
  8
2
370
    50
100
AcDbCircle
 10
-89.772996
 20
-178.807115
 30
0.0
 40
1.0
100
AcDbArc
 50
270.0
 51
360.0
  0
LINE
  5
11A
100
AcDbEntity
  8
2
370
    50
100
AcDbLine
 10
-116.772996
 20
-165.807115
 30
0.0
 11
-109.272996
 21
-165.807115
 31
0.0
  0
LINE
  5
11B
100
AcDbEntity
  8
2
370
    50
100
AcDbLine
 10
-97.272996
 20
-165.807115
 30
0.0
 11
-89.772996
 21
-165.807115
 31
0.0
  0
LINE
  5
11C
100
AcDbEntity
  8
2
370
    50
100
AcDbLine
 10
-116.772996
 20
-179.807115
 30
0.0
 11
-110.772996
 21
-179.807115
 31
0.0
  0
LINE
  5
11D
100
AcDbEntity
  8
2
370
    50
100
AcDbLine
 10
-94.972996
 20
-179.807115
 30
0.0
 11
-89.772996
 21
-179.807115
 31
0.0
  0
LINE
  5
11E
100
AcDbEntity
  8
2
370
    50
100
AcDbLine
 10
-94.972996
 20
-170.807115
 30
0.0
 11
-99.272996
 21
-170.807115
 31
0.0
  0
LINE
  5
11F
100
AcDbEntity
  8
2
370
    50
100
AcDbLine
 10
-107.272996
 20
-170.807115
 30
0.0
 11
-111.572996
 21
-170.807115
 31
0.0
  0
LINE
  5
120
100
AcDbEntity
  8
2
370
    50
100
AcDbLine
 10
-94.572996
 20
-171.207115
 30
0.0
 11
-99.272996
 21
-171.207115
 31
0.0
  0
LINE
  5
121
100
AcDbEntity
  8
2
370
    50
100
AcDbLine
 10
-107.272996
 20
-171.207115
 30
0.0
 11
-111.972996
 21
-171.207115
 31
0.0
  0
LINE
  5
122
100
AcDbEntity
  8
2
370
    50
100
AcDbLine
 10
-94.372996
 20
-171.407115
 30
0.0
 11
-99.272996
 21
-171.407115
 31
0.0
  0
LINE
  5
123
100
AcDbEntity
  8
2
370
    50
100
AcDbLine
 10
-107.272996
 20
-171.407115
 30
0.0
 11
-112.172996
 21
-171.407115
 31
0.0
  0
LINE
  5
124
100
AcDbEntity
  8
2
370
    50
100
AcDbLine
 10
-94.372996
 20
-173.807115
 30
0.0
 11
-99.272996
 21
-173.807115
 31
0.0
  0
LINE
  5
125
100
AcDbEntity
  8
2
370
    50
100
AcDbLine
 10
-107.272996
 20
-173.807115
 30
0.0
 11
-112.172996
 21
-173.807115
 31
0.0
  0
LINE
  5
126
100
AcDbEntity
  8
2
370
    50
100
AcDbLine
 10
-94.972996
 20
-176.807115
 30
0.0
 11
-99.272996
 21
-176.807115
 31
0.0
  0
LINE
  5
127
100
AcDbEntity
  8
2
370
    50
100
AcDbLine
 10
-107.272996
 20
-176.807115
 30
0.0
 11
-111.572996
 21
-176.807115
 31
0.0
  0
ARC
  5
128
100
AcDbEntity
  8
2
370
    50
100
AcDbCircle
 10
-100.272996
 20
-168.807115
 30
0.0
 40
1.0
100
AcDbArc
 50
0.0
 51
90.0
  0
ARC
  5
129
100
AcDbEntity
  8
2
370
    50
100
AcDbCircle
 10
-106.272996
 20
-168.807115
 30
0.0
 40
1.0
100
AcDbArc
 50
90.0
 51
180.0
  0
ARC
  5
12A
100
AcDbEntity
  8
2
370
    50
100
AcDbCircle
 10
-106.272996
 20
-178.807115
 30
0.0
 40
1.0
100
AcDbArc
 50
180.0
 51
270.0
  0
ARC
  5
12B
100
AcDbEntity
  8
2
370
    50
100
AcDbCircle
 10
-100.272996
 20
-178.807115
 30
0.0
 40
1.0
100
AcDbArc
 50
270.0
 51
360.0
  0
LINE
  5
12C
100
AcDbEntity
  8
2
370
    50
100
AcDbLine
 10
-111.572996
 20
-167.807115
 30
0.0
 11
-111.572996
 21
-170.807115
 31
0.0
  0
LINE
  5
12D
100
AcDbEntity
  8
2
370
    50
100
AcDbLine
 10
-94.972996
 20
-167.807115
 30
0.0
 11
-94.972996
 21
-170.807115
 31
0.0
  0
LINE
  5
12E
100
AcDbEntity
  8
2
370
    50
100
AcDbLine
 10
-94.972996
 20
-176.807115
 30
0.0
 11
-94.972996
 21
-179.807115
 31
0.0
  0
LINE
  5
12F
100
AcDbEntity
  8
2
370
    50
100
AcDbLine
 10
-111.572996
 20
-176.807115
 30
0.0
 11
-111.572996
 21
-179.807115
 31
0.0
  0
LINE
  5
130
100
AcDbEntity
  8
2
370
    50
100
AcDbLine
 10
-110.772996
 20
-171.207115
 30
0.0
 11
-110.772996
 21
-170.807115
 31
0.0
  0
LINE
  5
131
100
AcDbEntity
  8
2
370
    50
100
AcDbLine
 10
-95.772996
 20
-171.207115
 30
0.0
 11
-95.772996
 21
-170.807115
 31
0.0
  0
LINE
  5
132
100
AcDbEntity
  8
2
370
    50
100
AcDbLine
 10
-108.272996
 20
-179.507698
 30
0.0
 11
-108.272996
 21
-177.202476
 31
0.0
  0
LINE
  5
133
100
AcDbEntity
  8
2
370
    50
100
AcDbLine
 10
-108.272997
 20
-170.545929
 30
0.0
 11
-108.272996
 21
-168.113724
 31
0.0
  0
LINE
  5
134
100
AcDbEntity
  8
2
370
    50
100
AcDbLine
 10
-98.272996
 20
-179.507698
 30
0.0
 11
-98.272996
 21
-177.202476
 31
0.0
  0
LINE
  5
135
100
AcDbEntity
  8
2
370
    50
100
AcDbLine
 10
-98.272996
 20
-170.50325
 30
0.0
 11
-98.272996
 21
-168.034202
 31
0.0
  0
LINE
  5
136
100
AcDbEntity
  8
2
370
    50
100
AcDbLine
 10
-112.072996
 20
-178.807115
 30
0.0
 11
-112.072996
 21
-176.207115
 31
0.0
  0
LINE
  5
137
100
AcDbEntity
  8
2
370
    50
100
AcDbLine
 10
-112.072996
 20
-171.307115
 30
0.0
 11
-112.072996
 21
-166.807115
 31
0.0
  0
LINE
  5
138
100
AcDbEntity
  8
2
370
    50
100
AcDbLine
 10
-94.472996
 20
-178.807115
 30
0.0
 11
-94.472996
 21
-176.207115
 31
0.0
  0
LINE
  5
139
100
AcDbEntity
  8
2
370
    50
100
AcDbLine
 10
-94.472996
 20
-171.307115
 30
0.0
 11
-94.472996
 21
-166.807115
 31
0.0
  0
ARC
  5
13A
100
AcDbEntity
  8
2
370
    50
100
AcDbCircle
 10
-111.072996
 20
-166.807115
 30
0.0
 40
1.0
100
AcDbArc
 50
90.0
 51
180.0
  0
ARC
  5
13B
100
AcDbEntity
  8
2
370
    50
100
AcDbCircle
 10
-95.472996
 20
-166.807115
 30
0.0
 40
1.0
100
AcDbArc
 50
0.0
 51
90.0
  0
ARC
  5
13C
100
AcDbEntity
  8
2
370
    50
100
AcDbCircle
 10
-113.072996
 20
-178.807115
 30
0.0
 40
1.0
100
AcDbArc
 50
270.0
 51
360.0
  0
ARC
  5
13D
100
AcDbEntity
  8
2
370
    50
100
AcDbCircle
 10
-93.472996
 20
-178.807115
 30
0.0
 40
1.0
100
AcDbArc
 50
180.0
 51
270.0
  0
LINE
  5
13E
100
AcDbEntity
  8
2
370
    50
100
AcDbLine
 10
-95.772996
 20
-166.507115
 30
0.0
 11
-95.772996
 21
-167.806493
 31
0.0
  0
ARC
  5
13F
100
AcDbEntity
  8
2
370
    50
100
AcDbCircle
 10
-95.472996
 20
-166.807115
 30
0.0
 40
1.0
100
AcDbArc
 50
0.0
 51
90.0
  0
LINE
  5
140
100
AcDbEntity
  8
2
370
    50
100
AcDbLine
 10
-95.772996
 20
-166.507115
 30
0.0
 11
-96.272996
 21
-166.007115
 31
0.0
  0
LINE
  5
141
100
AcDbEntity
  8
2
370
    50
100
AcDbLine
 10
-94.272996
 20
-174.207115
 30
0.0
 11
-94.272996
 21
-176.007115
 31
0.0
  0
LINE
  5
142
100
AcDbEntity
  8
2
370
    50
100
AcDbLine
 10
-112.272996
 20
-174.207115
 30
0.0
 11
-112.272996
 21
-176.007115
 31
0.0
  0
LINE
  5
143
100
AcDbEntity
  8
2
370
    50
100
AcDbLine
 10
-93.272996
 20
-181.207115
 30
0.0
 11
-93.272996
 21
-208.707115
 31
0.0
  0
LINE
  5
144
100
AcDbEntity
  8
2
370
    50
100
AcDbLine
 10
-113.272996
 20
-181.207115
 30
0.0
 11
-113.272996
 21
-208.707115
 31
0.0
  0
LINE
  5
145
100
AcDbEntity
  8
2
370
    50
100
AcDbLine
 10
-112.272996
 20
-180.207115
 30
0.0
 11
-113.272996
 21
-181.207115
 31
0.0
  0
LINE
  5
146
100
AcDbEntity
  8
2
370
    50
100
AcDbLine
 10
-94.272996
 20
-180.207115
 30
0.0
 11
-93.272996
 21
-181.207115
 31
0.0
  0
LINE
  5
147
100
AcDbEntity
  8
2
370
    50
100
AcDbLine
 10
-94.272996
 20
-180.207115
 30
0.0
 11
-112.272996
 21
-180.207115
 31
0.0
  0
LINE
  5
148
100
AcDbEntity
  8
2
370
    50
100
AcDbLine
 10
-94.472996
 20
-174.007115
 30
0.0
 11
-94.272996
 21
-174.207115
 31
0.0
  0
LINE
  5
149
100
AcDbEntity
  8
2
370
    50
100
AcDbLine
 10
-94.272996
 20
-176.007115
 30
0.0
 11
-94.472996
 21
-176.207115
 31
0.0
  0
LINE
  5
14A
100
AcDbEntity
  8
2
370
    50
100
AcDbLine
 10
-112.072996
 20
-174.007115
 30
0.0
 11
-112.272996
 21
-174.207115
 31
0.0
  0
LINE
  5
14B
100
AcDbEntity
  8
2
370
    50
100
AcDbLine
 10
-112.272996
 20
-176.007115
 30
0.0
 11
-112.072996
 21
-176.207115
 31
0.0
  0
LINE
  5
14C
100
AcDbEntity
  8
2
370
    50
100
AcDbLine
 10
-113.272996
 20
-181.207115
 30
0.0
 11
-93.272996
 21
-181.207115
 31
0.0
  0
LINE
  5
14D
100
AcDbEntity
  8
2
370
    50
100
AcDbLine
 10
-110.772996
 20
-180.207115
 30
0.0
 11
-110.772996
 21
-179.807115
 31
0.0
  0
LINE
  5
14E
100
AcDbEntity
  8
2
370
    50
100
AcDbLine
 10
-110.772996
 20
-176.807115
 30
0.0
 11
-110.772996
 21
-176.207115
 31
0.0
  0
LINE
  5
14F
100
AcDbEntity
  8
2
370
    50
100
AcDbLine
 10
-95.772996
 20
-180.207115
 30
0.0
 11
-95.772996
 21
-179.807115
 31
0.0
  0
LINE
  5
150
100
AcDbEntity
  8
2
370
    50
100
AcDbLine
 10
-95.772996
 20
-176.807115
 30
0.0
 11
-95.772996
 21
-176.207115
 31
0.0
  0
LINE
  5
151
100
AcDbEntity
  8
2
370
    50
100
AcDbLine
 10
-94.472996
 20
-176.207115
 30
0.0
 11
-99.272996
 21
-176.207115
 31
0.0
  0
LINE
  5
152
100
AcDbEntity
  8
2
370
    50
100
AcDbLine
 10
-107.272996
 20
-176.207115
 30
0.0
 11
-112.072996
 21
-176.207115
 31
0.0
  0
LINE
  5
153
100
AcDbEntity
  8
2
370
    50
100
AcDbLine
 10
-94.272996
 20
-176.007115
 30
0.0
 11
-99.272996
 21
-176.007115
 31
0.0
  0
LINE
  5
154
100
AcDbEntity
  8
2
370
    50
100
AcDbLine
 10
-107.272996
 20
-176.007115
 30
0.0
 11
-112.272996
 21
-176.007115
 31
0.0
  0
LINE
  5
155
100
AcDbEntity
  8
2
370
    50
100
AcDbLine
 10
-94.272996
 20
-174.207115
 30
0.0
 11
-99.272996
 21
-174.207115
 31
0.0
  0
LINE
  5
156
100
AcDbEntity
  8
2
370
    50
100
AcDbLine
 10
-107.272996
 20
-174.207115
 30
0.0
 11
-112.272996
 21
-174.207115
 31
0.0
  0
LINE
  5
157
100
AcDbEntity
  8
2
370
    50
100
AcDbLine
 10
-94.472996
 20
-174.007115
 30
0.0
 11
-99.272996
 21
-174.007115
 31
0.0
  0
LINE
  5
158
100
AcDbEntity
  8
2
370
    50
100
AcDbLine
 10
-107.272996
 20
-174.007115
 30
0.0
 11
-112.072996
 21
-174.007115
 31
0.0
  0
LINE
  5
159
100
AcDbEntity
  8
2
370
    50
100
AcDbLine
 10
-96.773136
 20
-179.806493
 30
0.0
 11
-96.773136
 21
-176.806493
 31
0.0
  0
LINE
  5
15A
100
AcDbEntity
  8
2
370
    50
100
AcDbLine
 10
-109.772857
 20
-170.807115
 30
0.0
 11
-109.772857
 21
-167.807115
 31
0.0
  0
LINE
  5
15B
100
AcDbEntity
  8
2
370
    50
100
AcDbLine
 10
-96.773136
 20
-170.807115
 30
0.0
 11
-96.773136
 21
-167.807115
 31
0.0
  0
LINE
  5
15C
100
AcDbEntity
  8
2
370
    50
100
AcDbLine
 10
-93.272996
 20
-181.207115
 30
0.0
 11
-93.272996
 21
-208.707115
 31
0.0
  0
LINE
  5
15D
100
AcDbEntity
  8
2
370
    50
100
AcDbLine
 10
-113.272996
 20
-181.207115
 30
0.0
 11
-113.272996
 21
-208.707115
 31
0.0
  0
LINE
  5
15E
100
AcDbEntity
  8
2
370
    50
100
AcDbLine
 10
-91.272996
 20
-208.707115
 30
0.0
 11
-115.272996
 21
-208.707115
 31
0.0
  0
LINE
  5
15F
100
AcDbEntity
  8
2
370
    50
100
AcDbLine
 10
-90.272996
 20
-209.707115
 30
0.0
 11
-90.272996
 21
-218.707115
 31
0.0
  0
LINE
  5
160
100
AcDbEntity
  8
2
370
    50
100
AcDbLine
 10
-91.272996
 20
-208.707115
 30
0.0
 11
-90.272996
 21
-209.707115
 31
0.0
  0
LINE
  5
161
100
AcDbEntity
  8
2
370
    50
100
AcDbLine
 10
-91.272996
 20
-219.707115
 30
0.0
 11
-90.272996
 21
-218.707115
 31
0.0
  0
LINE
  5
162
100
AcDbEntity
  8
2
370
    50
100
AcDbLine
 10
-116.272996
 20
-209.707115
 30
0.0
 11
-116.272996
 21
-218.707115
 31
0.0
  0
LINE
  5
163
100
AcDbEntity
  8
2
370
    50
100
AcDbLine
 10
-115.272996
 20
-208.707115
 30
0.0
 11
-116.272996
 21
-209.707115
 31
0.0
  0
LINE
  5
164
100
AcDbEntity
  8
2
370
    50
100
AcDbLine
 10
-115.272996
 20
-219.707115
 30
0.0
 11
-116.272996
 21
-218.707115
 31
0.0
  0
LINE
  5
165
100
AcDbEntity
  8
2
370
    50
100
AcDbLine
 10
-91.272996
 20
-219.707115
 30
0.0
 11
-115.272996
 21
-219.707115
 31
0.0
  0
LINE
  5
166
100
AcDbEntity
  8
2
370
    50
100
AcDbLine
 10
-110.201387
 20
-218.707115
 30
0.0
 11
-110.201387
 21
-209.707115
 31
0.0
  0
LINE
  5
167
100
AcDbEntity
  8
2
370
    50
100
AcDbLine
 10
-96.344606
 20
-218.707115
 30
0.0
 11
-96.344606
 21
-209.707115
 31
0.0
  0
ARC
  5
168
100
AcDbEntity
  8
2
370
    50
100
AcDbCircle
 10
-103.272996
 20
-233.208411
 30
0.0
 40
24.501296
100
AcDbArc
 50
73.574016
 51
106.425984
  0
ARC
  5
169
100
AcDbEntity
  8
2
370
    50
100
AcDbCircle
 10
-103.272996
 20
-195.205819
 30
0.0
 40
24.501296
100
AcDbArc
 50
253.574016
 51
286.425984
  0
ARC
  5
16A
100
AcDbEntity
  8
2
370
    50
100
AcDbCircle
 10
-113.237192
 20
-214.599059
 30
0.0
 40
5.108056
100
AcDbArc
 50
233.536034
 51
306.463966
  0
ARC
  5
16B
100
AcDbEntity
  8
2
370
    50
100
AcDbCircle
 10
-93.308801
 20
-214.599059
 30
0.0
 40
5.108056
100
AcDbArc
 50
233.536034
 51
306.463966
  0
ARC
  5
16C
100
AcDbEntity
  8
2
370
    50
100
AcDbCircle
 10
-93.308801
 20
-213.81517
 30
0.0
 40
5.108056
100
AcDbArc
 50
53.536034
 51
126.463966
  0
ARC
  5
16D
100
AcDbEntity
  8
2
370
    50
100
AcDbCircle
 10
-113.237192
 20
-213.81517
 30
0.0
 40
5.108056
100
AcDbArc
 50
53.536034
 51
126.463966
  0
LINE
  5
16E
100
AcDbEntity
  8
2
370
    50
100
AcDbLine
 10
-230.684996
 20
-199.705115
 30
0.0
 11
-230.684996
 21
-208.705115
 31
0.0
  0
LINE
  5
16F
100
AcDbEntity
  8
2
370
    50
100
AcDbLine
 10
-231.684996
 20
-209.705115
 30
0.0
 11
-230.684996
 21
-208.705115
 31
0.0
  0
LINE
  5
170
100
AcDbEntity
  8
2
370
    50
100
AcDbLine
 10
-256.684996
 20
-199.705115
 30
0.0
 11
-256.684996
 21
-208.705115
 31
0.0
  0
LINE
  5
171
100
AcDbEntity
  8
2
370
    50
100
AcDbLine
 10
-255.684996
 20
-209.705115
 30
0.0
 11
-256.684996
 21
-208.705115
 31
0.0
  0
LINE
  5
172
100
AcDbEntity
  8
2
370
    50
100
AcDbLine
 10
-231.684996
 20
-209.705115
 30
0.0
 11
-255.684996
 21
-209.705115
 31
0.0
  0
LINE
  5
173
100
AcDbEntity
  8
2
370
    50
100
AcDbLine
 10
-250.613387
 20
-208.705115
 30
0.0
 11
-250.613387
 21
-199.705115
 31
0.0
  0
LINE
  5
174
100
AcDbEntity
  8
2
370
    50
100
AcDbLine
 10
-236.756606
 20
-208.705115
 30
0.0
 11
-236.756606
 21
-199.705115
 31
0.0
  0
ARC
  5
175
100
AcDbEntity
  8
2
370
    50
100
AcDbCircle
 10
-243.684996
 20
-185.203819
 30
0.0
 40
24.501296
100
AcDbArc
 50
253.574016
 51
286.425984
  0
ARC
  5
176
100
AcDbEntity
  8
2
370
    50
100
AcDbCircle
 10
-253.649192
 20
-204.597059
 30
0.0
 40
5.108056
100
AcDbArc
 50
233.536034
 51
306.463966
  0
ARC
  5
177
100
AcDbEntity
  8
2
370
    50
100
AcDbCircle
 10
-233.720801
 20
-204.597059
 30
0.0
 40
5.108056
100
AcDbArc
 50
233.536034
 51
306.463966
  0
LINE
  5
178
100
AcDbEntity
  8
2
370
    25
  6
CENTER
100
AcDbLine
 10
-181.47959
 20
-177.678387
 30
0.0
 11
-181.47959
 21
-147.488983
 31
0.0
  0
LINE
  5
179
100
AcDbEntity
  8
2
370
    25
  6
CENTER
100
AcDbLine
 10
-165.47959
 20
-187.678386
 30
0.0
 11
-165.47959
 21
-157.608536
 31
0.0
  0
LINE
  5
17A
100
AcDbEntity
  8
2
370
    50
100
AcDbLine
 10
-156.032566
 20
-57.87843
 30
0.0
 11
-156.032566
 21
-51.705461
 31
0.0
  0
LINE
  5
17B
100
AcDbEntity
  8
2
370
    50
100
AcDbLine
 10
-156.832566
 20
-58.67843
 30
0.0
 11
-156.832566
 21
-51.705461
 31
0.0
  0
LINE
  5
17C
100
AcDbEntity
  8
2
370
    50
100
AcDbLine
 10
-190.232566
 20
-58.67843
 30
0.0
 11
-190.232566
 21
-51.705461
 31
0.0
  0
LINE
  5
17D
100
AcDbEntity
  8
2
370
    50
100
AcDbLine
 10
-191.032566
 20
-57.87843
 30
0.0
 11
-191.032566
 21
-51.705461
 31
0.0
  0
ELLIPSE
  5
17E
100
AcDbEntity
  8
2
370
    50
100
AcDbEllipse
 10
-173.532089
 20
12.921051
 30
0.0
 11
24.5
 21
0.0
 31
0.0
210
0.0
220
0.0
230
1.0
 40
1.0
 41
3.1415929999999999
 42
0.0
  0
LINE
  5
17F
100
AcDbEntity
  8
2
370
    50
100
AcDbLine
 10
-198.531421
 20
-39.205461
 30
0.0
 11
-148.531421
 21
-39.205461
 31
0.0
  0
LINE
  5
180
100
AcDbEntity
  8
2
370
    50
100
AcDbLine
 10
-147.532089
 20
-39.705461
 30
0.0
 11
-199.532089
 21
-39.705461
 31
0.0
  0
LINE
  5
181
100
AcDbEntity
  8
2
370
    50
100
AcDbLine
 10
-150.532089
 20
-51.705461
 30
0.0
 11
-196.532089
 21
-51.705461
 31
0.0
  0
LINE
  5
182
100
AcDbEntity
  8
2
370
    50
100
AcDbLine
 10
-199.532089
 20
-41.705461
 30
0.0
 11
-199.532089
 21
-39.705461
 31
0.0
  0
LINE
  5
183
100
AcDbEntity
  8
2
370
    50
100
AcDbLine
 10
-147.532089
 20
-41.705461
 30
0.0
 11
-147.532089
 21
-39.705461
 31
0.0
  0
LINE
  5
184
100
AcDbEntity
  8
2
370
    50
100
AcDbLine
 10
-196.532089
 20
-51.705461
 30
0.0
 11
-196.532089
 21
-43.705461
 31
0.0
  0
LINE
  5
185
100
AcDbEntity
  8
2
370
    50
100
AcDbLine
 10
-150.532089
 20
-51.705461
 30
0.0
 11
-150.532089
 21
-43.705461
 31
0.0
  0
LINE
  5
186
100
AcDbEntity
  8
2
370
    50
100
AcDbLine
 10
-148.532089
 20
-42.705461
 30
0.0
 11
-198.532089
 21
-42.705461
 31
0.0
  0
LINE
  5
187
100
AcDbEntity
  8
2
370
    50
100
AcDbLine
 10
-195.532089
 20
-50.613461
 30
0.0
 11
-195.532089
 21
-42.705461
 31
0.0
  0
LINE
  5
188
100
AcDbEntity
  8
2
370
    50
100
AcDbLine
 10
-151.532089
 20
-50.613461
 30
0.0
 11
-151.532089
 21
-42.705461
 31
0.0
  0
LINE
  5
189
100
AcDbEntity
  8
2
370
    50
100
AcDbLine
 10
-172.532089
 20
-50.613461
 30
0.0
 11
-172.532089
 21
-42.705461
 31
0.0
  0
LINE
  5
18A
100
AcDbEntity
  8
2
370
    50
100
AcDbLine
 10
-174.532089
 20
-50.613461
 30
0.0
 11
-174.532089
 21
-42.705461
 31
0.0
  0
LINE
  5
18B
100
AcDbEntity
  8
2
370
    50
100
AcDbLine
 10
-195.532089
 20
-50.613461
 30
0.0
 11
-196.532089
 21
-50.613461
 31
0.0
  0
LINE
  5
18C
100
AcDbEntity
  8
2
370
    50
100
AcDbLine
 10
-150.532089
 20
-50.613461
 30
0.0
 11
-151.532089
 21
-50.613461
 31
0.0
  0
LINE
  5
18D
100
AcDbEntity
  8
2
370
    50
100
AcDbLine
 10
-172.532089
 20
-50.613461
 30
0.0
 11
-174.532089
 21
-50.613461
 31
0.0
  0
ARC
  5
18E
100
AcDbEntity
  8
2
370
    50
100
AcDbCircle
 10
-185.032089
 20
-0.678692
 30
0.0
 40
51.026769
100
AcDbArc
 50
258.125168
 51
281.874832
  0
ARC
  5
18F
100
AcDbEntity
  8
2
370
    50
100
AcDbCircle
 10
-162.032089
 20
-0.678692
 30
0.0
 40
51.026769
100
AcDbArc
 50
258.125168
 51
281.874832
  0
ARC
  5
190
100
AcDbEntity
  8
2
370
    50
100
AcDbCircle
 10
-197.532089
 20
-43.705461
 30
0.0
 40
1.0
100
AcDbArc
 50
0.0
 51
90.0
  0
ARC
  5
191
100
AcDbEntity
  8
2
370
    50
100
AcDbCircle
 10
-149.532089
 20
-43.705461
 30
0.0
 40
1.0
100
AcDbArc
 50
90.0
 51
180.0
  0
ARC
  5
192
100
AcDbEntity
  8
2
370
    50
100
AcDbCircle
 10
-198.532089
 20
-41.705461
 30
0.0
 40
1.0
100
AcDbArc
 50
180.0
 51
270.0
  0
ARC
  5
193
100
AcDbEntity
  8
2
370
    50
100
AcDbCircle
 10
-148.532089
 20
-41.705461
 30
0.0
 40
1.0
100
AcDbArc
 50
270.0
 51
360.0
  0
LINE
  5
194
100
AcDbEntity
  8
2
370
    50
100
AcDbLine
 10
-191.032566
 20
-15.166553
 30
0.0
 11
-191.032566
 21
-6.744369
 31
0.0
  0
LINE
  5
195
100
AcDbEntity
  8
2
370
    50
100
AcDbLine
 10
-190.232566
 20
-17.670672
 30
0.0
 11
-190.232566
 21
-5.005021
 31
0.0
  0
LINE
  5
196
100
AcDbEntity
  8
2
370
    50
100
AcDbLine
 10
-156.832566
 20
-17.673045
 30
0.0
 11
-156.832566
 21
-5.00591
 31
0.0
  0
LINE
  5
197
100
AcDbEntity
  8
2
370
    50
100
AcDbLine
 10
-156.032566
 20
-15.170518
 30
0.0
 11
-156.032566
 21
-6.740404
 31
0.0
  0
LINE
  5
198
100
AcDbEntity
  8
2
370
    50
100
AcDbLine
 10
-146.032089
 20
-39.205461
 30
0.0
 11
-201.032089
 21
-39.205461
 31
0.0
  0
LINE
  5
199
100
AcDbEntity
  8
2
370
    50
100
AcDbLine
 10
-201.032089
 20
-10.955461
 30
0.0
 11
-201.032089
 21
-39.205461
 31
0.0
  0
LINE
  5
19A
100
AcDbEntity
  8
2
370
    50
100
AcDbLine
 10
-146.032089
 20
-10.955461
 30
0.0
 11
-146.032089
 21
-39.205461
 31
0.0
  0
ELLIPSE
  5
19B
100
AcDbEntity
  8
2
370
    50
100
AcDbEllipse
 10
-173.532089
 20
-10.955461
 30
0.0
 11
27.5
 21
0.0
 31
0.0
210
0.0
220
0.0
230
1.0
 40
0.945455
 41
2.5420889999999998
 42
0.599504
  0
ARC
  5
19C
100
AcDbEntity
  8
2
370
    50
100
AcDbCircle
 10
-173.532089
 20
-10.955461
 30
0.0
 40
18.0
100
AcDbArc
 50
160.010434
 51
19.989566
  0
LINE
  5
19D
100
AcDbEntity
  8
2
370
    50
100
AcDbLine
 10
-191.532089
 20
-28.955461
 30
0.0
 11
-192.532089
 21
-27.955461
 31
0.0
  0
POINT
  5
19E
100
AcDbEntity
  8
2
370
    50
100
AcDbPoint
 10
-173.532089
 20
-10.955461
 30
0.0
  0
ARC
  5
19F
100
AcDbEntity
  8
2
370
    50
100
AcDbCircle
 10
-173.532089
 20
-10.955461
 30
0.0
 40
25.455844
100
AcDbArc
 50
149.451987
 51
30.548013
  0
LINE
  5
1A0
100
AcDbEntity
  8
2
370
    50
100
AcDbLine
 10
137.794093
 20
-8.821286
 30
0.0
 11
133.90322
 21
-12.712159
 31
0.0
  0
LINE
  5
1A1
100
AcDbEntity
  8
2
370
    50
100
AcDbLine
 10
131.7819
 20
-10.590838
 30
0.0
 11
133.90322
 21
-12.712159
 31
0.0
  0
LINE
  5
1A2
100
AcDbEntity
  8
2
370
    50
100
AcDbLine
 10
177.036734
 20
34.663996
 30
0.0
 11
179.158054
 21
32.542675
 31
0.0
  0
LINE
  5
1A3
100
AcDbEntity
  8
2
370
    50
100
AcDbLine
 10
130.794274
 20
131.220997
 30
0.0
 11
130.794274
 21
145.221225
 31
0.0
  0
LINE
  5
1A4
100
AcDbEntity
  8
2
370
    50
100
AcDbLine
 10
155.294093
 20
130.720997
 30
0.0
 11
131.294274
 21
130.720997
 31
0.0
  0
ARC
  5
1A5
100
AcDbEntity
  8
2
370
    50
100
AcDbCircle
 10
131.294274
 20
131.220997
 30
0.0
 40
0.5
100
AcDbArc
 50
180.0
 51
270.0
  0
ARC
  5
1A6
100
AcDbEntity
  8
2
370
    50
100
AcDbCircle
 10
137.00856
 20
148.887225
 30
0.0
 40
7.614286
100
AcDbArc
 50
144.699752
 51
215.300248
  0
LINE
  5
1A7
100
AcDbEntity
  8
2
370
    50
100
AcDbLine
 10
130.794274
 20
151.137225
 30
0.0
 11
130.794274
 21
150.137225
 31
0.0
  0
LINE
  5
1A8
100
AcDbEntity
  8
2
370
    50
100
AcDbLine
 10
130.794093
 20
144.887225
 30
0.0
 11
130.794093
 21
145.387225
 31
0.0
  0
LINE
  5
1A9
100
AcDbEntity
  8
2
370
    50
100
AcDbLine
 10
130.794093
 20
152.887225
 30
0.0
 11
130.794093
 21
152.713299
 31
0.0
  0
LINE
  5
1AA
100
AcDbEntity
  8
2
370
    50
100
AcDbLine
 10
130.794274
 20
152.387225
 30
0.0
 11
130.794274
 21
152.670517
 31
0.0
  0
LINE
  5
1AB
100
AcDbEntity
  8
2
370
    50
100
AcDbLine
 10
130.794274
 20
147.637225
 30
0.0
 11
130.794274
 21
146.637225
 31
0.0
  0
ARC
  5
1AC
100
AcDbEntity
  8
2
370
    50
100
AcDbCircle
 10
132.794274
 20
171.720997
 30
0.0
 40
2.0
100
AcDbArc
 50
90.0
 51
180.0
  0
LINE
  5
1AD
100
AcDbEntity
  8
2
370
    50
100
AcDbLine
 10
130.794274
 20
131.220997
 30
0.0
 11
130.794274
 21
145.221225
 31
0.0
  0
LINE
  5
1AE
100
AcDbEntity
  8
2
370
    50
100
AcDbLine
 10
134.305604
 20
130.720997
 30
0.0
 11
131.294274
 21
130.720997
 31
0.0
  0
ARC
  5
1AF
100
AcDbEntity
  8
2
370
    50
100
AcDbCircle
 10
131.294274
 20
131.220997
 30
0.0
 40
0.5
100
AcDbArc
 50
180.0
 51
270.0
  0
ARC
  5
1B0
100
AcDbEntity
  8
2
370
    50
100
AcDbCircle
 10
137.00856
 20
148.887225
 30
0.0
 40
7.614286
100
AcDbArc
 50
144.699752
 51
215.300248
  0
LINE
  5
1B1
100
AcDbEntity
  8
2
370
    50
100
AcDbLine
 10
130.794274
 20
151.137225
 30
0.0
 11
130.794274
 21
150.137225
 31
0.0
  0
LINE
  5
1B2
100
AcDbEntity
  8
2
370
    50
100
AcDbLine
 10
130.794093
 20
144.887225
 30
0.0
 11
130.794093
 21
145.387225
 31
0.0
  0
LINE
  5
1B3
100
AcDbEntity
  8
2
370
    50
100
AcDbLine
 10
130.794093
 20
152.887225
 30
0.0
 11
130.794093
 21
152.387225
 31
0.0
  0
LINE
  5
1B4
100
AcDbEntity
  8
2
370
    50
100
AcDbLine
 10
130.794274
 20
152.387225
 30
0.0
 11
130.794274
 21
152.670517
 31
0.0
  0
LINE
  5
1B5
100
AcDbEntity
  8
2
370
    50
100
AcDbLine
 10
130.794274
 20
147.637225
 30
0.0
 11
130.794274
 21
146.637225
 31
0.0
  0
ARC
  5
1B6
100
AcDbEntity
  8
2
370
    50
100
AcDbCircle
 10
132.794274
 20
171.720997
 30
0.0
 40
2.0
100
AcDbArc
 50
90.0
 51
180.0
  0
LINE
  5
1B7
100
AcDbEntity
  8
2
370
    50
100
AcDbLine
 10
132.794274
 20
173.721002
 30
0.0
 11
177.794093
 21
173.721002
 31
0.0
  0
LINE
  5
1B8
100
AcDbEntity
  8
2
370
    50
100
AcDbLine
 10
155.294093
 20
130.720997
 30
0.0
 11
179.794093
 21
144.866079
 31
0.0
  0
LINE
  5
1B9
100
AcDbEntity
  8
2
370
    50
100
AcDbLine
 10
179.794093
 20
144.866079
 30
0.0
 11
179.794093
 21
171.721002
 31
0.0
  0
ARC
  5
1BA
100
AcDbEntity
  8
2
370
    50
100
AcDbCircle
 10
177.794093
 20
171.721002
 30
0.0
 40
2.0
100
AcDbArc
 50
0.0
 51
90.0
  0
LINE
  5
1BB
100
AcDbEntity
  8
2
370
    50
100
AcDbLine
 10
176.294093
 20
128.720997
 30
0.0
 11
176.294093
 21
130.220044
 31
0.0
  0
LINE
  5
1BC
100
AcDbEntity
  8
2
370
    50
100
AcDbLine
 10
134.294093
 20
128.720997
 30
0.0
 11
134.294093
 21
130.17404
 31
0.0
  0
ARC
  5
1BD
100
AcDbEntity
  8
2
370
    50
100
AcDbCircle
 10
147.294093
 20
130.17404
 30
0.0
 40
13.0
100
AcDbArc
 50
177.588647
 51
180.0
  0
LINE
  5
1BE
100
AcDbEntity
  8
2
370
    50
100
AcDbLine
 10
130.79465
 20
168.221357
 30
0.0
 11
130.79465
 21
171.721357
 31
0.0
  0
LINE
  5
1BF
100
AcDbEntity
  8
2
370
    50
100
AcDbLine
 10
71.294469
 20
160.221357
 30
0.0
 11
130.79465
 21
160.221357
 31
0.0
  0
LINE
  5
1C0
100
AcDbEntity
  8
2
370
    50
100
AcDbLine
 10
71.294469
 20
168.221357
 30
0.0
 11
130.79465
 21
168.221357
 31
0.0
  0
LINE
  5
1C1
100
AcDbEntity
  8
2
370
    50
100
AcDbLine
 10
130.79465
 20
152.387225
 30
0.0
 11
130.79465
 21
160.221357
 31
0.0
  0
LINE
  5
1C2
100
AcDbEntity
  8
2
370
    50
100
AcDbLine
 10
70.794469
 20
160.721357
 30
0.0
 11
70.794469
 21
167.721357
 31
0.0
  0
LINE
  5
1C3
100
AcDbEntity
  8
2
370
    50
100
AcDbLine
 10
71.294469
 20
168.221357
 30
0.0
 11
70.794469
 21
167.721357
 31
0.0
  0
LINE
  5
1C4
100
AcDbEntity
  8
2
370
    50
100
AcDbLine
 10
70.794469
 20
160.721357
 30
0.0
 11
71.294469
 21
160.221357
 31
0.0
  0
ARC
  5
1C5
100
AcDbEntity
  8
2
370
    50
100
AcDbCircle
 10
163.294093
 20
130.17404
 30
0.0
 40
13.0
100
AcDbArc
 50
0.202757
 51
50.128644
  0
LINE
  5
1C6
100
AcDbEntity
  8
2
370
    50
100
AcDbLine
 10
77.392541
 20
82.426177
 30
0.0
 11
76.792541
 21
81.386947
 31
0.0
  0
LINE
  5
1C7
100
AcDbEntity
  8
2
370
    50
100
AcDbLine
 10
73.928439
 20
84.426177
 30
0.0
 11
73.328439
 21
83.386947
 31
0.0
  0
LINE
  5
1C8
100
AcDbEntity
  8
2
370
    50
100
AcDbLine
 10
73.511452
 20
82.703934
 30
0.0
 11
76.109528
 21
81.203934
 31
0.0
  0
ARC
  5
1C9
100
AcDbEntity
  8
2
370
    50
100
AcDbCircle
 10
76.359528
 20
81.636947
 30
0.0
 40
0.5
100
AcDbArc
 50
240.0
 51
330.0
  0
ARC
  5
1CA
100
AcDbEntity
  8
2
370
    50
100
AcDbCircle
 10
73.761452
 20
83.136947
 30
0.0
 40
0.5
100
AcDbArc
 50
150.0
 51
240.0
  0
LINE
  5
1CB
100
AcDbEntity
  8
2
370
    50
100
AcDbLine
 10
27.310573
 20
109.147165
 30
0.0
 11
23.701629
 21
111.23079
 31
0.0
  0
LINE
  5
1CC
100
AcDbEntity
  8
2
370
    50
100
AcDbLine
 10
38.701594
 20
137.211491
 30
0.0
 11
106.684165
 21
97.961735
 31
0.0
  0
LINE
  5
1CD
100
AcDbEntity
  8
2
370
    50
100
AcDbLine
 10
37.335568
 20
136.845466
 30
0.0
 11
23.335568
 21
112.596754
 31
0.0
  0
ARC
  5
1CE
100
AcDbEntity
  8
2
370
    50
100
AcDbCircle
 10
24.201594
 20
112.096754
 30
0.0
 40
1.0
100
AcDbArc
 50
150.0
 51
240.0
  0
LINE
  5
1CF
100
AcDbEntity
  8
2
370
    50
100
AcDbLine
 10
27.571372
 20
108.996512
 30
0.0
 11
72.718631
 21
82.930729
 31
0.0
  0
LINE
  5
1D0
100
AcDbEntity
  8
2
370
    50
100
AcDbLine
 10
76.702348
 20
80.630729
 30
0.0
 11
91.684165
 21
71.980973
 31
0.0
  0
ARC
  5
1D1
100
AcDbEntity
  8
2
370
    50
100
AcDbCircle
 10
72.818631
 20
83.103934
 30
0.0
 40
0.2
100
AcDbArc
 50
240.0
 51
330.0
  0
LINE
  5
1D2
100
AcDbEntity
  8
2
370
    50
100
AcDbLine
 10
73.841837
 20
84.476177
 30
0.0
 11
72.991837
 21
83.003934
 31
0.0
  0
LINE
  5
1D3
100
AcDbEntity
  8
2
370
    50
100
AcDbLine
 10
77.479143
 20
82.376177
 30
0.0
 11
76.629143
 21
80.903934
 31
0.0
  0
ARC
  5
1D4
100
AcDbEntity
  8
2
370
    50
100
AcDbCircle
 10
76.802348
 20
80.803934
 30
0.0
 40
0.2
100
AcDbArc
 50
150.0
 51
240.0
  0
ARC
  5
1D5
100
AcDbEntity
  8
2
370
    50
100
AcDbCircle
 10
106.43395
 20
97.52835
 30
0.0
 40
0.5
100
AcDbArc
 50
330.0
 51
60.0
  0
ARC
  5
1D6
100
AcDbEntity
  8
2
370
    50
100
AcDbCircle
 10
38.201594
 20
136.345466
 30
0.0
 40
1.0
100
AcDbArc
 50
60.0
 51
150.0
  0
ARC
  5
1D7
100
AcDbEntity
  8
2
370
    50
100
AcDbCircle
 10
91.934165
 20
72.413986
 30
0.0
 40
0.5
100
AcDbArc
 50
240.0
 51
330.0
  0
LINE
  5
1D8
100
AcDbEntity
  8
2
370
    50
100
AcDbLine
 10
27.027007
 20
109.3108
 30
0.0
 11
27.571372
 21
108.996512
 31
0.0
  0
LINE
  5
1D9
100
AcDbEntity
  8
2
370
    50
100
AcDbLine
 10
47.566042
 20
97.452583
 30
0.0
 11
47.826813
 21
97.302027
 31
0.0
  0
LINE
  5
1DA
100
AcDbEntity
  8
2
370
    50
100
AcDbLine
 10
25.214514
 20
102.759114
 30
0.0
 11
35.1839
 21
98.110313
 31
0.0
  0
LINE
  5
1DB
100
AcDbEntity
  8
2
370
    50
100
AcDbLine
 10
27.571402
 20
108.996576
 30
0.0
 11
24.97267
 21
103.423577
 31
0.0
  0
LINE
  5
1DC
100
AcDbEntity
  8
2
370
    50
100
AcDbLine
 10
45.153286
 20
93.461513
 30
0.0
 11
35.1839
 21
98.110313
 31
0.0
  0
LINE
  5
1DD
100
AcDbEntity
  8
2
370
    50
100
AcDbLine
 10
47.566042
 20
97.452583
 30
0.0
 11
45.817749
 21
93.703357
 31
0.0
  0
ARC
  5
1DE
100
AcDbEntity
  8
2
370
    50
100
AcDbCircle
 10
45.364595
 20
93.914666
 30
0.0
 40
0.5
100
AcDbArc
 50
245.0
 51
335.0
  0
ARC
  5
1DF
100
AcDbEntity
  8
2
370
    50
100
AcDbCircle
 10
25.425824
 20
103.212268
 30
0.0
 40
0.5
100
AcDbArc
 50
155.0
 51
245.0
  0
LINE
  5
1E0
100
AcDbEntity
  8
2
370
    50
100
AcDbLine
 10
107.377097
 20
97.561928
 30
0.0
 11
115.793942
 21
92.702461
 31
0.0
  0
LINE
  5
1E1
100
AcDbEntity
  8
2
370
    50
100
AcDbLine
 10
120.794064
 20
55.17411
 30
0.0
 11
92.376875
 21
71.580782
 31
0.0
  0
LINE
  5
1E2
100
AcDbEntity
  8
2
370
    50
100
AcDbLine
 10
107.377097
 20
97.561928
 30
0.0
 11
106.967289
 21
97.452121
 31
0.0
  0
LINE
  5
1E3
100
AcDbEntity
  8
2
370
    50
100
AcDbLine
 10
92.267068
 20
71.990589
 30
0.0
 11
92.376875
 21
71.580782
 31
0.0
  0
LINE
  5
1E4
100
AcDbEntity
  8
2
370
    50
100
AcDbLine
 10
130.794093
 20
-11.578645
 30
0.0
 11
130.794093
 21
37.853652
 31
0.0
  0
LINE
  5
1E5
100
AcDbEntity
  8
2
370
    50
100
AcDbLine
 10
130.793942
 20
101.362715
 30
0.0
 11
130.793942
 21
128.521997
 31
0.0
  0
LINE
  5
1E6
100
AcDbEntity
  8
2
370
    50
100
AcDbLine
 10
179.593942
 20
128.721997
 30
0.0
 11
130.993942
 21
128.721997
 31
0.0
  0
LINE
  5
1E7
100
AcDbEntity
  8
2
370
    50
100
AcDbLine
 10
130.993942
 20
128.721997
 30
0.0
 11
130.793942
 21
128.521997
 31
0.0
  0
LINE
  5
1E8
100
AcDbEntity
  8
2
370
    50
100
AcDbLine
 10
179.593942
 20
128.721997
 30
0.0
 11
179.793942
 21
128.521997
 31
0.0
  0
LINE
  5
1E9
100
AcDbEntity
  8
2
370
    50
100
AcDbLine
 10
92.267206
 20
71.990073
 30
0.0
 11
106.967608
 21
97.451916
 31
0.0
  0
LINE
  5
1EA
100
AcDbEntity
  8
2
370
    50
100
AcDbLine
 10
92.267386
 20
71.990385
 30
0.0
 11
92.377194
 21
71.580578
 31
0.0
  0
LINE
  5
1EB
100
AcDbEntity
  8
2
370
    50
100
AcDbLine
 10
107.377416
 20
97.561724
 30
0.0
 11
106.967608
 21
97.451916
 31
0.0
  0
LINE
  5
1EC
100
AcDbEntity
  8
2
370
    50
100
AcDbLine
 10
137.794093
 20
-8.821286
 30
0.0
 11
179.158054
 21
32.542675
 31
0.0
  0
LINE
  5
1ED
100
AcDbEntity
  8
2
370
    50
100
AcDbLine
 10
177.036734
 20
34.663996
 30
0.0
 11
131.7819
 21
-10.590838
 31
0.0
  0
LINE
  5
1EE
100
AcDbEntity
  8
2
370
    50
100
AcDbLine
 10
179.793942
 20
128.521997
 30
0.0
 11
179.793942
 21
37.421355
 31
0.0
  0
LINE
  5
1EF
100
AcDbEntity
  8
2
370
    50
100
AcDbLine
 10
179.791778
 20
43.12012
 30
0.0
 11
179.592157
 21
42.920499
 31
0.0
  0
POINT
  5
1F0
100
AcDbEntity
  8
2
370
    50
100
AcDbPoint
 10
35.18387
 20
98.110327
 30
0.0
  0
ARC
  5
1F1
100
AcDbEntity
  8
2
370
    50
100
AcDbCircle
 10
115.302717
 20
164.221357
 30
0.0
 40
16.0
100
AcDbArc
 50
345.522488
 51
14.477512
  0
LINE
  5
1F2
100
AcDbEntity
  8
2
370
    50
100
AcDbLine
 10
130.79465
 20
152.387225
 30
0.0
 11
130.79465
 21
145.387225
 31
0.0
  0
LINE
  5
1F3
100
AcDbEntity
  8
2
370
    50
100
AcDbLine
 10
172.004678
 20
-57.174896
 30
0.0
 11
172.754678
 21
-56.424896
 31
0.0
  0
LINE
  5
1F4
100
AcDbEntity
  8
2
370
    50
100
AcDbLine
 10
138.504678
 20
-57.174896
 30
0.0
 11
137.754678
 21
-56.424896
 31
0.0
  0
LINE
  5
1F5
100
AcDbEntity
  8
2
370
    50
100
AcDbLine
 10
172.004678
 20
-51.830957
 30
0.0
 11
172.004678
 21
-57.174896
 31
0.0
  0
LINE
  5
1F6
100
AcDbEntity
  8
2
370
    50
100
AcDbLine
 10
138.504678
 20
-57.174896
 30
0.0
 11
172.004678
 21
-57.174896
 31
0.0
  0
LINE
  5
1F7
100
AcDbEntity
  8
2
370
    50
100
AcDbLine
 10
127.754678
 20
-39.330957
 30
0.0
 11
182.754678
 21
-39.330957
 31
0.0
  0
LINE
  5
1F8
100
AcDbEntity
  8
2
370
    50
100
AcDbLine
 10
127.754678
 20
-37.245435
 30
0.0
 11
182.754678
 21
17.754565
 31
0.0
  0
LINE
  5
1F9
100
AcDbEntity
  8
2
370
    50
100
AcDbLine
 10
182.754678
 20
-39.330957
 30
0.0
 11
182.754678
 21
17.754565
 31
0.0
  0
LINE
  5
1FA
100
AcDbEntity
  8
2
370
    50
100
AcDbLine
 10
127.754678
 20
-39.330957
 30
0.0
 11
127.754678
 21
-37.245435
 31
0.0
  0
LINE
  5
1FB
100
AcDbEntity
  8
2
370
    50
100
AcDbLine
 10
129.254678
 20
-39.830957
 30
0.0
 11
129.254678
 21
-50.739046
 31
0.0
  0
LINE
  5
1FC
100
AcDbEntity
  8
2
370
    50
100
AcDbLine
 10
132.254678
 20
-51.830957
 30
0.0
 11
129.254678
 21
-50.739046
 31
0.0
  0
LINE
  5
1FD
100
AcDbEntity
  8
2
370
    50
100
AcDbLine
 10
181.254678
 20
-39.830957
 30
0.0
 11
181.254678
 21
-50.739046
 31
0.0
  0
LINE
  5
1FE
100
AcDbEntity
  8
2
370
    50
100
AcDbLine
 10
178.254678
 20
-51.830957
 30
0.0
 11
181.254678
 21
-50.739046
 31
0.0
  0
LINE
  5
1FF
100
AcDbEntity
  8
2
370
    50
100
AcDbLine
 10
129.254678
 20
-39.830957
 30
0.0
 11
181.254678
 21
-39.830957
 31
0.0
  0
LINE
  5
200
100
AcDbEntity
  8
2
370
    50
100
AcDbLine
 10
132.254678
 20
-51.830957
 30
0.0
 11
178.254678
 21
-51.830957
 31
0.0
  0
LINE
  5
201
100
AcDbEntity
  8
2
370
    50
100
AcDbLine
 10
130.254678
 20
-39.330957
 30
0.0
 11
130.254678
 21
-39.830957
 31
0.0
  0
LINE
  5
202
100
AcDbEntity
  8
2
370
    50
100
AcDbLine
 10
180.254678
 20
-39.330957
 30
0.0
 11
180.254678
 21
-39.830957
 31
0.0
  0
LINE
  5
203
100
AcDbEntity
  8
2
370
    50
100
AcDbLine
 10
128.738173
 20
-34.847725
 30
0.0
 11
179.649862
 21
16.063963
 31
0.0
  0
LINE
  5
204
100
AcDbEntity
  8
2
370
    50
100
AcDbLine
 10
179.649862
 20
16.063963
 30
0.0
 11
180.356968
 21
15.356856
 31
0.0
  0
LINE
  5
205
100
AcDbEntity
  8
2
370
    50
100
AcDbLine
 10
128.738173
 20
-34.847725
 30
0.0
 11
129.44528
 21
-35.554832
 31
0.0
  0
LINE
  5
206
100
AcDbEntity
  8
2
370
    50
100
AcDbLine
 10
172.754678
 20
-56.424896
 30
0.0
 11
172.754678
 21
-51.830957
 31
0.0
  0
LINE
  5
207
100
AcDbEntity
  8
2
370
    50
100
AcDbLine
 10
137.754678
 20
-56.424896
 30
0.0
 11
137.754678
 21
-51.830957
 31
0.0
  0
LINE
  5
208
100
AcDbEntity
  8
2
370
    50
100
AcDbLine
 10
138.504678
 20
-57.174896
 30
0.0
 11
138.504678
 21
-51.830957
 31
0.0
  0
LINE
  5
209
100
AcDbEntity
  8
2
370
    50
100
AcDbLine
 10
172.754678
 20
-56.424896
 30
0.0
 11
137.754678
 21
-56.424896
 31
0.0
  0
LINE
  5
20A
100
AcDbEntity
  8
2
370
    50
100
AcDbLine
 10
167.379033
 20
-50.739046
 30
0.0
 11
167.379033
 21
-42.830957
 31
0.0
  0
LINE
  5
20B
100
AcDbEntity
  8
2
370
    50
100
AcDbLine
 10
143.130322
 20
-50.739046
 30
0.0
 11
143.130322
 21
-42.830957
 31
0.0
  0
LINE
  5
20C
100
AcDbEntity
  8
2
370
    50
100
AcDbLine
 10
169.111084
 20
-50.739046
 30
0.0
 11
169.111084
 21
-42.830957
 31
0.0
  0
LINE
  5
20D
100
AcDbEntity
  8
2
370
    50
100
AcDbLine
 10
141.398271
 20
-50.739046
 30
0.0
 11
141.398271
 21
-42.830957
 31
0.0
  0
ARC
  5
20E
100
AcDbEntity
  8
2
370
    50
100
AcDbCircle
 10
155.254678
 20
16.028195
 30
0.0
 40
67.859152
100
AcDbArc
 50
259.707733
 51
280.292267
  0
ARC
  5
20F
100
AcDbEntity
  8
2
370
    50
100
AcDbCircle
 10
175.182287
 20
-34.406561
 30
0.0
 40
17.424396
100
AcDbArc
 50
249.608612
 51
290.0
  0
ARC
  5
210
100
AcDbEntity
  8
2
370
    50
100
AcDbCircle
 10
135.327069
 20
-34.406561
 30
0.0
 40
17.424396
100
AcDbArc
 50
250.0
 51
290.391388
  0
LINE
  5
211
100
AcDbEntity
  8
2
370
    50
100
AcDbLine
 10
141.398271
 20
-50.739046
 30
0.0
 11
143.130322
 21
-50.739046
 31
0.0
  0
LINE
  5
212
100
AcDbEntity
  8
2
370
    50
100
AcDbLine
 10
167.379033
 20
-50.739046
 30
0.0
 11
169.111084
 21
-50.739046
 31
0.0
  0
LINE
  5
213
100
AcDbEntity
  8
2
370
    50
100
AcDbLine
 10
129.254678
 20
-42.830957
 30
0.0
 11
141.398271
 21
-42.830957
 31
0.0
  0
LINE
  5
214
100
AcDbEntity
  8
2
370
    50
100
AcDbLine
 10
143.130322
 20
-42.830957
 30
0.0
 11
167.379033
 21
-42.830957
 31
0.0
  0
LINE
  5
215
100
AcDbEntity
  8
2
370
    50
100
AcDbLine
 10
169.111084
 20
-42.830957
 30
0.0
 11
181.254678
 21
-42.830957
 31
0.0
  0
LINE
  5
216
100
AcDbEntity
  8
2
370
    50
100
AcDbLine
 10
137.754678
 20
-25.831221
 30
0.0
 11
137.754678
 21
-8.860701
 31
0.0
  0
LINE
  5
217
100
AcDbEntity
  8
2
370
    50
100
AcDbLine
 10
138.504678
 20
-25.081221
 30
0.0
 11
138.504678
 21
-8.110701
 31
0.0
  0
LINE
  5
218
100
AcDbEntity
  8
2
370
    50
100
AcDbLine
 10
172.004678
 20
8.418779
 30
0.0
 11
172.004678
 21
25.389299
 31
0.0
  0
LINE
  5
219
100
AcDbEntity
  8
2
370
    50
100
AcDbLine
 10
172.754678
 20
9.168779
 30
0.0
 11
172.754678
 21
26.139299
 31
0.0
  0
LINE
  5
21A
100
AcDbEntity
  8
2
370
    50
100
AcDbLine
 10
77.392541
 20
82.426177
 30
0.0
 11
73.928439
 21
84.426177
 31
0.0
  0
LINE
  5
21B
100
AcDbEntity
  8
2
370
    50
100
AcDbLine
 10
77.479143
 20
82.376177
 30
0.0
 11
73.841837
 21
84.476177
 31
0.0
  0
LINE
  5
21C
100
AcDbEntity
  8
2
370
    25
  6
CENTER
100
AcDbLine
 10
155.254678
 20
184.257935
 30
0.0
 11
155.254678
 21
-60.81646
 31
0.0
  0
POINT
  5
21D
100
AcDbEntity
  8
2
370
    50
100
AcDbPoint
 10
155.254678
 20
173.721002
 30
0.0
  0
POINT
  5
21E
100
AcDbEntity
  8
2
370
    50
100
AcDbPoint
 10
155.254678
 20
173.721002
 30
0.0
  0
LINE
  5
21F
100
AcDbEntity
  8
2
370
    50
100
AcDbLine
 10
155.255106
 20
-57.174404
 30
0.0
 11
156.355106
 21
-57.174404
 31
0.0
  0
LINE
  5
220
100
AcDbEntity
  8
2
370
    50
100
AcDbLine
 10
154.666106
 20
-57.174404
 30
0.0
 11
155.255106
 21
-57.174404
 31
0.0
  0
LINE
  5
221
100
AcDbEntity
  8
2
370
    50
100
AcDbLine
 10
155.255106
 20
-57.174404
 30
0.0
 11
156.355106
 21
-57.174404
 31
0.0
  0
LINE
  5
222
100
AcDbEntity
  8
2
370
    50
100
AcDbLine
 10
154.666106
 20
-57.174404
 30
0.0
 11
155.255106
 21
-57.174404
 31
0.0
  0
POINT
  5
223
100
AcDbEntity
  8
2
370
    50
100
AcDbPoint
 10
155.254678
 20
-57.174896
 30
0.0
  0
LINE
  5
224
100
AcDbEntity
  8
2
370
    50
100
AcDbLine
 10
155.254678
 20
-57.174896
 30
0.0
 11
156.354678
 21
-57.174896
 31
0.0
  0
LINE
  5
225
100
AcDbEntity
  8
2
370
    50
100
AcDbLine
 10
138.554678
 20
-57.174896
 30
0.0
 11
171.954678
 21
-57.174896
 31
0.0
  0
LINE
  5
226
100
AcDbEntity
  8
2
370
    50
100
AcDbLine
 10
154.665678
 20
-57.174896
 30
0.0
 11
155.254678
 21
-57.174896
 31
0.0
  0
LINE
  5
227
100
AcDbEntity
  8
2
370
    25
  6
CENTER
100
AcDbLine
 10
165.754678
 20
-81.071608
 30
0.0
 11
250.880284
 21
-13.847838
 31
0.0
  0
LINE
  5
228
100
AcDbEntity
  8
2
370
    25
  6
CENTER
100
AcDbLine
 10
75.253773
 20
-90.610657
 30
0.0
 11
75.253773
 21
-55.832084
 31
0.0
  0
LINE
  5
229
100
AcDbEntity
  8
2
370
    25
  6
CENTER
100
AcDbLine
 10
161.254678
 20
-176.654105
 30
0.0
 11
161.254678
 21
-146.975189
 31
0.0
  0
LINE
  5
22A
100
AcDbEntity
  8
2
370
    50
100
AcDbLine
 10
167.254546
 20
-105.152967
 30
0.0
 11
155.254546
 21
-105.152967
 31
0.0
  0
LINE
  5
22B
100
AcDbEntity
  8
2
370
    50
100
AcDbLine
 10
167.254546
 20
-105.441642
 30
0.0
 11
167.216644
 21
-105.441642
 31
0.0
  0
LINE
  5
22C
100
AcDbEntity
  8
2
370
    50
100
AcDbLine
 10
155.254546
 20
-89.653041
 30
0.0
 11
167.254546
 21
-89.653041
 31
0.0
  0
LINE
  5
22D
100
AcDbEntity
  8
2
370
    50
100
AcDbLine
 10
66.354206
 20
-144.983387
 30
0.0
 11
66.354206
 21
-142.183387
 31
0.0
  0
LINE
  5
22E
100
AcDbEntity
  8
2
370
    50
100
AcDbLine
 10
84.154206
 20
-144.983387
 30
0.0
 11
84.154206
 21
-142.183387
 31
0.0
  0
LINE
  5
22F
100
AcDbEntity
  8
2
370
    50
100
AcDbLine
 10
82.254206
 20
-136.983387
 30
0.0
 11
68.254206
 21
-136.983387
 31
0.0
  0
LINE
  5
230
100
AcDbEntity
  8
2
370
    50
100
AcDbLine
 10
68.254206
 20
-136.983387
 30
0.0
 11
67.754206
 21
-137.483387
 31
0.0
  0
LINE
  5
231
100
AcDbEntity
  8
2
370
    50
100
AcDbLine
 10
82.754206
 20
-137.483387
 30
0.0
 11
82.254206
 21
-136.983387
 31
0.0
  0
LINE
  5
232
100
AcDbEntity
  8
2
370
    50
100
AcDbLine
 10
84.154206
 20
-144.983387
 30
0.0
 11
66.354206
 21
-144.983387
 31
0.0
  0
LINE
  5
233
100
AcDbEntity
  8
2
370
    50
100
AcDbLine
 10
84.154206
 20
-142.183387
 30
0.0
 11
66.354206
 21
-142.183387
 31
0.0
  0
LINE
  5
234
100
AcDbEntity
  8
2
370
    50
100
AcDbLine
 10
82.754206
 20
-137.483387
 30
0.0
 11
67.754206
 21
-137.483387
 31
0.0
  0
LINE
  5
235
100
AcDbEntity
  8
2
370
    50
100
AcDbLine
 10
66.254206
 20
-145.183387
 30
0.0
 11
66.254206
 21
-147.183387
 31
0.0
  0
LINE
  5
236
100
AcDbEntity
  8
2
370
    50
100
AcDbLine
 10
84.254206
 20
-145.183387
 30
0.0
 11
84.254206
 21
-147.183387
 31
0.0
  0
LINE
  5
237
100
AcDbEntity
  8
2
370
    50
100
AcDbLine
 10
66.254206
 20
-147.183387
 30
0.0
 11
84.254206
 21
-147.183387
 31
0.0
  0
LINE
  5
238
100
AcDbEntity
  8
2
370
    50
100
AcDbLine
 10
66.254206
 20
-145.183387
 30
0.0
 11
66.454206
 21
-144.983387
 31
0.0
  0
LINE
  5
239
100
AcDbEntity
  8
2
370
    50
100
AcDbLine
 10
84.054206
 20
-144.983387
 30
0.0
 11
84.254206
 21
-145.183387
 31
0.0
  0
LINE
  5
23A
100
AcDbEntity
  8
2
370
    50
100
AcDbLine
 10
60.754659
 20
-150.283387
 30
0.0
 11
60.754659
 21
-139.283387
 31
0.0
  0
LINE
  5
23B
100
AcDbEntity
  8
2
370
    50
100
AcDbLine
 10
64.254659
 20
-142.783387
 30
0.0
 11
64.254659
 21
-146.783387
 31
0.0
  0
LINE
  5
23C
100
AcDbEntity
  8
2
370
    50
100
AcDbLine
 10
90.754659
 20
-149.783387
 30
0.0
 11
90.754659
 21
-137.783387
 31
0.0
  0
LINE
  5
23D
100
AcDbEntity
  8
2
370
    50
100
AcDbLine
 10
89.754659
 20
-136.783387
 30
0.0
 11
85.754659
 21
-136.783387
 31
0.0
  0
ARC
  5
23E
100
AcDbEntity
  8
2
370
    50
100
AcDbCircle
 10
65.254659
 20
-142.783387
 30
0.0
 40
1.0
100
AcDbArc
 50
90.0
 51
180.0
  0
ARC
  5
23F
100
AcDbEntity
  8
2
370
    50
100
AcDbCircle
 10
65.254659
 20
-146.783387
 30
0.0
 40
1.0
100
AcDbArc
 50
180.0
 51
270.0
  0
ARC
  5
240
100
AcDbEntity
  8
2
370
    50
100
AcDbCircle
 10
89.754659
 20
-137.783387
 30
0.0
 40
1.0
100
AcDbArc
 50
0.0
 51
90.0
  0
ARC
  5
241
100
AcDbEntity
  8
2
370
    50
100
AcDbCircle
 10
89.754659
 20
-149.783387
 30
0.0
 40
1.0
100
AcDbArc
 50
270.0
 51
360.0
  0
ARC
  5
242
100
AcDbEntity
  8
2
370
    50
100
AcDbCircle
 10
61.254659
 20
-139.283387
 30
0.0
 40
0.5
100
AcDbArc
 50
90.0
 51
180.0
  0
ARC
  5
243
100
AcDbEntity
  8
2
370
    50
100
AcDbCircle
 10
61.254659
 20
-150.283387
 30
0.0
 40
0.5
100
AcDbArc
 50
180.0
 51
270.0
  0
LINE
  5
244
100
AcDbEntity
  8
2
370
    50
100
AcDbLine
 10
89.754659
 20
-150.783387
 30
0.0
 11
82.754206
 21
-150.783387
 31
0.0
  0
LINE
  5
245
100
AcDbEntity
  8
2
370
    50
100
AcDbLine
 10
84.754659
 20
-149.783387
 30
0.0
 11
84.754659
 21
-137.783387
 31
0.0
  0
LINE
  5
246
100
AcDbEntity
  8
2
370
    50
100
AcDbLine
 10
84.754659
 20
-138.783387
 30
0.0
 11
82.754206
 21
-138.783387
 31
0.0
  0
LINE
  5
247
100
AcDbEntity
  8
2
370
    50
100
AcDbLine
 10
82.754206
 20
-138.783387
 30
0.0
 11
61.254659
 21
-138.783387
 31
0.0
  0
LINE
  5
248
100
AcDbEntity
  8
2
370
    50
100
AcDbLine
 10
82.754206
 20
-150.783387
 30
0.0
 11
61.254659
 21
-150.783387
 31
0.0
  0
ARC
  5
249
100
AcDbEntity
  8
2
370
    50
100
AcDbCircle
 10
85.754659
 20
-149.783387
 30
0.0
 40
1.0
100
AcDbArc
 50
180.0
 51
270.0
  0
LINE
  5
24A
100
AcDbEntity
  8
2
370
    50
100
AcDbLine
 10
84.754659
 20
-141.783387
 30
0.0
 11
82.754206
 21
-141.783387
 31
0.0
  0
LINE
  5
24B
100
AcDbEntity
  8
2
370
    50
100
AcDbLine
 10
82.754206
 20
-141.783387
 30
0.0
 11
65.254659
 21
-141.783387
 31
0.0
  0
LINE
  5
24C
100
AcDbEntity
  8
2
370
    50
100
AcDbLine
 10
84.754659
 20
-147.783387
 30
0.0
 11
82.754206
 21
-147.783387
 31
0.0
  0
LINE
  5
24D
100
AcDbEntity
  8
2
370
    50
100
AcDbLine
 10
82.754206
 20
-147.783387
 30
0.0
 11
65.254659
 21
-147.783387
 31
0.0
  0
LINE
  5
24E
100
AcDbEntity
  8
2
370
    50
100
AcDbLine
 10
156.254546
 20
-89.653041
 30
0.0
 11
156.254546
 21
-57.174896
 31
0.0
  0
LINE
  5
24F
100
AcDbEntity
  8
2
370
    50
100
AcDbLine
 10
67.754206
 20
-142.183387
 30
0.0
 11
67.754206
 21
-141.783387
 31
0.0
  0
LINE
  5
250
100
AcDbEntity
  8
2
370
    50
100
AcDbLine
 10
67.754206
 20
-138.783387
 30
0.0
 11
67.754206
 21
-137.483387
 31
0.0
  0
LINE
  5
251
100
AcDbEntity
  8
2
370
    50
100
AcDbLine
 10
82.754206
 20
-142.183387
 30
0.0
 11
82.754206
 21
-141.783387
 31
0.0
  0
LINE
  5
252
100
AcDbEntity
  8
2
370
    50
100
AcDbLine
 10
82.754206
 20
-138.783387
 30
0.0
 11
82.754206
 21
-137.483387
 31
0.0
  0
LINE
  5
253
100
AcDbEntity
  8
2
370
    50
100
AcDbLine
 10
82.754206
 20
-147.783387
 30
0.0
 11
82.754206
 21
-147.183387
 31
0.0
  0
LINE
  5
254
100
AcDbEntity
  8
2
370
    50
100
AcDbLine
 10
67.754206
 20
-147.783387
 30
0.0
 11
67.754206
 21
-147.183387
 31
0.0
  0
ARC
  5
255
100
AcDbEntity
  8
2
370
    50
100
AcDbCircle
 10
85.754659
 20
-137.783387
 30
0.0
 40
1.0
100
AcDbArc
 50
90.0
 51
180.0
  0
LINE
  5
256
100
AcDbEntity
  8
2
370
    50
100
AcDbLine
 10
83.754206
 20
-150.783387
 30
0.0
 11
83.754206
 21
-147.783387
 31
0.0
  0
LINE
  5
257
100
AcDbEntity
  8
2
370
    50
100
AcDbLine
 10
83.754206
 20
-141.783387
 30
0.0
 11
83.754206
 21
-138.783387
 31
0.0
  0
LINE
  5
258
100
AcDbEntity
  8
2
370
    50
100
AcDbLine
 10
66.754206
 20
-150.783387
 30
0.0
 11
66.754206
 21
-147.783387
 31
0.0
  0
LINE
  5
259
100
AcDbEntity
  8
2
370
    50
100
AcDbLine
 10
66.754206
 20
-141.783387
 30
0.0
 11
66.754206
 21
-138.783387
 31
0.0
  0
ARC
  5
25A
100
AcDbEntity
  8
2
370
    50
100
AcDbCircle
 10
143.982045
 20
-81.453179
 30
0.0
 40
0.2
100
AcDbArc
 50
99.5
 51
180.0
  0
LINE
  5
25B
100
AcDbEntity
  8
2
370
    50
100
AcDbLine
 10
144.582045
 20
-81.149612
 30
0.0
 11
144.582045
 21
-80.135707
 31
0.0
  0
LINE
  5
25C
100
AcDbEntity
  8
2
370
    50
100
AcDbLine
 10
156.254546
 20
-79.196344
 30
0.0
 11
143.949033
 21
-81.25594
 31
0.0
  0
LINE
  5
25D
100
AcDbEntity
  8
2
370
    50
100
AcDbLine
 10
143.782045
 20
-80.033332
 30
0.0
 11
143.782045
 21
-77.397179
 31
0.0
  0
ARC
  5
25E
100
AcDbEntity
  8
2
370
    50
100
AcDbCircle
 10
143.982045
 20
-77.397179
 30
0.0
 40
0.2
100
AcDbArc
 50
99.5
 51
180.0
  0
LINE
  5
25F
100
AcDbEntity
  8
2
370
    50
100
AcDbLine
 10
144.015055
 20
-80.230589
 30
0.0
 11
156.254546
 21
-78.182401
 31
0.0
  0
ARC
  5
260
100
AcDbEntity
  8
2
370
    50
100
AcDbCircle
 10
143.982045
 20
-80.033332
 30
0.0
 40
0.2
100
AcDbArc
 50
180.0
 51
279.5
  0
LINE
  5
261
100
AcDbEntity
  8
2
370
    50
100
AcDbLine
 10
144.582045
 20
-77.093612
 30
0.0
 11
144.582045
 21
-76.079707
 31
0.0
  0
LINE
  5
262
100
AcDbEntity
  8
2
370
    50
100
AcDbLine
 10
156.254546
 20
-75.140344
 30
0.0
 11
143.949033
 21
-77.19994
 31
0.0
  0
LINE
  5
263
100
AcDbEntity
  8
2
370
    50
100
AcDbLine
 10
143.782045
 20
-75.977332
 30
0.0
 11
143.782045
 21
-73.341179
 31
0.0
  0
ARC
  5
264
100
AcDbEntity
  8
2
370
    50
100
AcDbCircle
 10
143.982045
 20
-73.341179
 30
0.0
 40
0.2
100
AcDbArc
 50
99.5
 51
180.0
  0
LINE
  5
265
100
AcDbEntity
  8
2
370
    50
100
AcDbLine
 10
144.015055
 20
-76.174589
 30
0.0
 11
156.254546
 21
-74.126401
 31
0.0
  0
ARC
  5
266
100
AcDbEntity
  8
2
370
    50
100
AcDbCircle
 10
143.982045
 20
-75.977332
 30
0.0
 40
0.2
100
AcDbArc
 50
180.0
 51
279.5
  0
LINE
  5
267
100
AcDbEntity
  8
2
370
    50
100
AcDbLine
 10
144.582045
 20
-73.037612
 30
0.0
 11
144.582045
 21
-72.023707
 31
0.0
  0
LINE
  5
268
100
AcDbEntity
  8
2
370
    50
100
AcDbLine
 10
156.254546
 20
-71.084344
 30
0.0
 11
143.949033
 21
-73.14394
 31
0.0
  0
LINE
  5
269
100
AcDbEntity
  8
2
370
    50
100
AcDbLine
 10
144.015055
 20
-72.118589
 30
0.0
 11
156.254546
 21
-70.070401
 31
0.0
  0
LINE
  5
26A
100
AcDbEntity
  8
2
370
    50
100
AcDbLine
 10
143.782045
 20
-71.921332
 30
0.0
 11
143.782045
 21
-69.285179
 31
0.0
  0
ARC
  5
26B
100
AcDbEntity
  8
2
370
    50
100
AcDbCircle
 10
143.982045
 20
-71.921332
 30
0.0
 40
0.2
100
AcDbArc
 50
180.0
 51
279.5
  0
LINE
  5
26C
100
AcDbEntity
  8
2
370
    50
100
AcDbLine
 10
156.254546
 20
-67.028344
 30
0.0
 11
143.949033
 21
-69.08794
 31
0.0
  0
ARC
  5
26D
100
AcDbEntity
  8
2
370
    50
100
AcDbCircle
 10
143.982045
 20
-69.285179
 30
0.0
 40
0.2
100
AcDbArc
 50
99.5
 51
180.0
  0
LINE
  5
26E
100
AcDbEntity
  8
2
370
    50
100
AcDbLine
 10
144.582045
 20
-68.981612
 30
0.0
 11
144.582045
 21
-67.967707
 31
0.0
  0
LINE
  5
26F
100
AcDbEntity
  8
2
370
    50
100
AcDbLine
 10
144.582045
 20
-64.925612
 30
0.0
 11
144.582045
 21
-63.911707
 31
0.0
  0
ARC
  5
270
100
AcDbEntity
  8
2
370
    50
100
AcDbCircle
 10
143.982045
 20
-65.229179
 30
0.0
 40
0.2
100
AcDbArc
 50
99.5
 51
180.0
  0
LINE
  5
271
100
AcDbEntity
  8
2
370
    50
100
AcDbLine
 10
143.782045
 20
-67.865332
 30
0.0
 11
143.782045
 21
-65.229179
 31
0.0
  0
ARC
  5
272
100
AcDbEntity
  8
2
370
    50
100
AcDbCircle
 10
143.982045
 20
-67.865332
 30
0.0
 40
0.2
100
AcDbArc
 50
180.0
 51
279.5
  0
LINE
  5
273
100
AcDbEntity
  8
2
370
    50
100
AcDbLine
 10
144.015055
 20
-68.062589
 30
0.0
 11
156.254546
 21
-66.014401
 31
0.0
  0
LINE
  5
274
100
AcDbEntity
  8
2
370
    50
100
AcDbLine
 10
143.782045
 20
-63.809332
 30
0.0
 11
143.782045
 21
-61.173179
 31
0.0
  0
ARC
  5
275
100
AcDbEntity
  8
2
370
    50
100
AcDbCircle
 10
143.982045
 20
-63.809332
 30
0.0
 40
0.2
100
AcDbArc
 50
180.0
 51
279.5
  0
ARC
  5
276
100
AcDbEntity
  8
2
370
    50
100
AcDbCircle
 10
143.982045
 20
-61.173179
 30
0.0
 40
0.2
100
AcDbArc
 50
99.5
 51
180.0
  0
LINE
  5
277
100
AcDbEntity
  8
2
370
    50
100
AcDbLine
 10
144.582045
 20
-60.869612
 30
0.0
 11
144.582045
 21
-59.855707
 31
0.0
  0
LINE
  5
278
100
AcDbEntity
  8
2
370
    50
100
AcDbLine
 10
156.254546
 20
-62.972344
 30
0.0
 11
143.949033
 21
-65.03194
 31
0.0
  0
LINE
  5
279
100
AcDbEntity
  8
2
370
    50
100
AcDbLine
 10
144.015055
 20
-64.006589
 30
0.0
 11
156.254546
 21
-61.958401
 31
0.0
  0
LINE
  5
27A
100
AcDbEntity
  8
2
370
    50
100
AcDbLine
 10
143.949033
 20
-60.97594
 30
0.0
 11
156.254546
 21
-58.916344
 31
0.0
  0
ARC
  5
27B
100
AcDbEntity
  8
2
370
    50
100
AcDbCircle
 10
143.982045
 20
-59.753332
 30
0.0
 40
0.2
100
AcDbArc
 50
180.0
 51
279.5
  0
LINE
  5
27C
100
AcDbEntity
  8
2
370
    50
100
AcDbLine
 10
144.015055
 20
-59.950589
 30
0.0
 11
156.254546
 21
-57.902401
 31
0.0
  0
LINE
  5
27D
100
AcDbEntity
  8
2
370
    50
100
AcDbLine
 10
155.254546
 20
-105.152967
 30
0.0
 11
155.254546
 21
-89.653041
 31
0.0
  0
LINE
  5
27E
100
AcDbEntity
  8
2
370
    50
100
AcDbLine
 10
167.254546
 20
-89.653041
 30
0.0
 11
167.254546
 21
-105.152967
 31
0.0
  0
LINE
  5
27F
100
AcDbEntity
  8
2
370
    50
100
AcDbLine
 10
162.739002
 20
-89.941717
 30
0.0
 11
162.739002
 21
-104.864291
 31
0.0
  0
LINE
  5
280
100
AcDbEntity
  8
2
370
    50
100
AcDbLine
 10
159.770091
 20
-89.941717
 30
0.0
 11
159.770091
 21
-104.864291
 31
0.0
  0
LINE
  5
281
100
AcDbEntity
  8
2
370
    50
100
AcDbLine
 10
165.770091
 20
-89.941717
 30
0.0
 11
165.770091
 21
-104.864291
 31
0.0
  0
LINE
  5
282
100
AcDbEntity
  8
2
370
    50
100
AcDbLine
 10
156.739002
 20
-89.941717
 30
0.0
 11
156.739002
 21
-104.864291
 31
0.0
  0
ARC
  5
283
100
AcDbEntity
  8
2
370
    50
100
AcDbCircle
 10
164.254546
 20
-93.775683
 30
0.0
 40
4.122642
100
AcDbArc
 50
68.431404
 51
111.568596
  0
ARC
  5
284
100
AcDbEntity
  8
2
370
    50
100
AcDbCircle
 10
158.254546
 20
-93.775683
 30
0.0
 40
4.122642
100
AcDbArc
 50
68.431404
 51
111.568596
  0
ARC
  5
285
100
AcDbEntity
  8
2
370
    50
100
AcDbCircle
 10
158.254546
 20
-101.030325
 30
0.0
 40
4.122642
100
AcDbArc
 50
248.431404
 51
291.568596
  0
ARC
  5
286
100
AcDbEntity
  8
2
370
    50
100
AcDbCircle
 10
164.285743
 20
-101.192423
 30
0.0
 40
3.960544
100
AcDbArc
 50
247.012044
 51
292.01095
  0
LINE
  5
287
100
AcDbEntity
  8
2
370
    50
100
AcDbLine
 10
165.770091
 20
-89.941717
 30
0.0
 11
167.254546
 21
-89.941717
 31
0.0
  0
LINE
  5
288
100
AcDbEntity
  8
2
370
    50
100
AcDbLine
 10
155.254546
 20
-89.941717
 30
0.0
 11
156.739002
 21
-89.941717
 31
0.0
  0
LINE
  5
289
100
AcDbEntity
  8
2
370
    50
100
AcDbLine
 10
159.770091
 20
-89.941717
 30
0.0
 11
162.739002
 21
-89.941717
 31
0.0
  0
LINE
  5
28A
100
AcDbEntity
  8
2
370
    50
100
AcDbLine
 10
165.770091
 20
-104.864291
 30
0.0
 11
167.254546
 21
-104.864291
 31
0.0
  0
LINE
  5
28B
100
AcDbEntity
  8
2
370
    50
100
AcDbLine
 10
155.254546
 20
-104.864291
 30
0.0
 11
156.739002
 21
-104.864291
 31
0.0
  0
LINE
  5
28C
100
AcDbEntity
  8
2
370
    50
100
AcDbLine
 10
159.770091
 20
-104.864291
 30
0.0
 11
162.801395
 21
-104.864291
 31
0.0
  0
LINE
  5
28D
100
AcDbEntity
  8
2
370
    50
100
AcDbLine
 10
85.254327
 20
-152.182723
 30
0.0
 11
85.254327
 21
-179.682723
 31
0.0
  0
LINE
  5
28E
100
AcDbEntity
  8
2
370
    50
100
AcDbLine
 10
84.254327
 20
-151.182723
 30
0.0
 11
85.254327
 21
-152.182723
 31
0.0
  0
LINE
  5
28F
100
AcDbEntity
  8
2
370
    50
100
AcDbLine
 10
66.254327
 20
-151.182723
 30
0.0
 11
65.254327
 21
-152.182723
 31
0.0
  0
LINE
  5
290
100
AcDbEntity
  8
2
370
    50
100
AcDbLine
 10
85.254327
 20
-152.182723
 30
0.0
 11
65.254327
 21
-152.182723
 31
0.0
  0
LINE
  5
291
100
AcDbEntity
  8
2
370
    50
100
AcDbLine
 10
65.254327
 20
-152.182723
 30
0.0
 11
65.254327
 21
-179.682723
 31
0.0
  0
LINE
  5
292
100
AcDbEntity
  8
2
370
    50
100
AcDbLine
 10
66.254327
 20
-151.182723
 30
0.0
 11
84.254327
 21
-151.182723
 31
0.0
  0
LINE
  5
293
100
AcDbEntity
  8
2
370
    50
100
AcDbLine
 10
82.754327
 20
-151.182723
 30
0.0
 11
82.754327
 21
-150.782723
 31
0.0
  0
LINE
  5
294
100
AcDbEntity
  8
2
370
    50
100
AcDbLine
 10
67.754327
 20
-151.182723
 30
0.0
 11
67.754327
 21
-150.782723
 31
0.0
  0
LINE
  5
295
100
AcDbEntity
  8
2
370
    50
100
AcDbLine
 10
66.254327
 20
-151.182723
 30
0.0
 11
65.254327
 21
-152.182723
 31
0.0
  0
LINE
  5
296
100
AcDbEntity
  8
2
370
    50
100
AcDbLine
 10
84.254327
 20
-151.182723
 30
0.0
 11
85.254327
 21
-152.182723
 31
0.0
  0
LINE
  5
297
100
AcDbEntity
  8
2
370
    50
100
AcDbLine
 10
65.253773
 20
-152.183431
 30
0.0
 11
65.253773
 21
-179.683431
 31
0.0
  0
LINE
  5
298
100
AcDbEntity
  8
2
370
    50
100
AcDbLine
 10
85.253773
 20
-152.183431
 30
0.0
 11
85.253773
 21
-179.683431
 31
0.0
  0
LINE
  5
299
100
AcDbEntity
  8
2
370
    50
100
AcDbLine
 10
63.253773
 20
-179.683431
 30
0.0
 11
87.253773
 21
-179.683431
 31
0.0
  0
LINE
  5
29A
100
AcDbEntity
  8
2
370
    50
100
AcDbLine
 10
63.253773
 20
-190.683431
 30
0.0
 11
87.253773
 21
-190.683431
 31
0.0
  0
LINE
  5
29B
100
AcDbEntity
  8
2
370
    50
100
AcDbLine
 10
87.253773
 20
-190.683431
 30
0.0
 11
87.253773
 21
-179.683431
 31
0.0
  0
LINE
  5
29C
100
AcDbEntity
  8
2
370
    50
100
AcDbLine
 10
63.253773
 20
-190.683431
 30
0.0
 11
63.253773
 21
-179.683431
 31
0.0
  0
ARC
  5
29D
100
AcDbEntity
  8
2
370
    50
100
AcDbCircle
 10
81.253773
 20
-198.185587
 30
0.0
 40
18.502157
100
AcDbArc
 50
71.077645
 51
108.922355
  0
ARC
  5
29E
100
AcDbEntity
  8
2
370
    50
100
AcDbCircle
 10
69.253773
 20
-198.185587
 30
0.0
 40
18.502157
100
AcDbArc
 50
71.077645
 51
108.922355
  0
ARC
  5
29F
100
AcDbEntity
  8
2
370
    50
100
AcDbCircle
 10
81.253773
 20
-172.181274
 30
0.0
 40
18.502157
100
AcDbArc
 50
251.077645
 51
288.922355
  0
ARC
  5
2A0
100
AcDbEntity
  8
2
370
    50
100
AcDbCircle
 10
69.253773
 20
-172.181274
 30
0.0
 40
18.502157
100
AcDbArc
 50
251.077645
 51
288.922355
  0
LINE
  5
2A1
100
AcDbEntity
  8
2
370
    50
100
AcDbLine
 10
75.253773
 20
-180.683308
 30
0.0
 11
75.253773
 21
-189.683554
 31
0.0
  0
LINE
  5
2A2
100
AcDbEntity
  8
2
370
    50
100
AcDbLine
 10
143.782045
 20
-59.809332
 30
0.0
 11
143.782045
 21
-57.174896
 31
0.0
  0
LINE
  5
2A3
100
AcDbEntity
  8
2
370
    25
  6
CENTER
100
AcDbLine
 10
150.782045
 20
-76.624756
 30
0.0
 11
150.782045
 21
-202.060844
 31
0.0
  0
LINE
  5
2A4
100
AcDbEntity
  8
2
370
    25
  6
CENTER
100
AcDbLine
 10
250.880284
 20
-46.091931
 30
0.0
 11
250.880284
 21
-13.847838
 31
0.0
  0
POINT
  5
2A5
100
AcDbEntity
  8
2
370
    50
100
AcDbPoint
 10
155.254678
 20
-57.174896
 30
0.0
  0
POINT
  5
2A6
100
AcDbEntity
  8
2
370
    50
100
AcDbPoint
 10
384.001978
 20
-216.500324
 30
0.0
  0
ARC
  5
2A7
100
AcDbEntity
  8
2
370
    50
100
AcDbCircle
 10
120.793942
 20
101.362715
 30
0.0
 40
10.0
100
AcDbArc
 50
240.0
 51
360.0
  0
ARC
  5
2A8
100
AcDbEntity
  8
2
370
    50
100
AcDbCircle
 10
110.794093
 20
37.853652
 30
0.0
 40
20.0
100
AcDbArc
 50
0.0
 51
60.0
  0
ARC
  5
2A9
100
AcDbEntity
  8
2
370
    50
100
AcDbCircle
 10
70.410929
 20
69.608035
 30
0.0
 40
70.0
100
AcDbArc
 50
333.02292
 51
26.977353
  0
LINE
  5
2AA
100
AcDbEntity
  8
2
370
    50
100
AcDbLine
 10
179.793942
 20
37.421355
 30
0.0
 11
130.794093
 21
-11.578645
 31
0.0
  0
POINT
  5
2AB
100
AcDbEntity
  8
2
370
    50
100
AcDbPoint
 10
155.254678
 20
-8.331221
 30
0.0
  0
LINE
  5
2AC
100
AcDbEntity
  8
2
370
    50
100
AcDbLine
 10
-151.468089
 20
26.672087
 30
0.0
 11
-151.468089
 21
29.672087
 31
0.0
  0
LINE
  5
2AD
100
AcDbEntity
  8
2
370
    50
100
AcDbLine
 10
-149.032089
 20
25.422087
 30
0.0
 11
-150.218089
 21
25.422087
 31
0.0
  0
LINE
  5
2AE
100
AcDbEntity
  8
2
370
    50
100
AcDbLine
 10
-149.032089
 20
30.922087
 30
0.0
 11
-150.218089
 21
30.922087
 31
0.0
  0
ARC
  5
2AF
100
AcDbEntity
  8
2
370
    50
100
AcDbCircle
 10
-150.218089
 20
26.672087
 30
0.0
 40
1.25
100
AcDbArc
 50
180.0
 51
270.0
  0
ARC
  5
2B0
100
AcDbEntity
  8
2
370
    50
100
AcDbCircle
 10
-150.218089
 20
29.672087
 30
0.0
 40
1.25
100
AcDbArc
 50
90.0
 51
180.0
  0
LINE
  5
2B1
100
AcDbEntity
  8
2
370
    50
100
AcDbLine
 10
-151.244917
 20
25.959258
 30
0.0
 11
-149.032089
 21
28.172087
 31
0.0
  0
LINE
  5
2B2
100
AcDbEntity
  8
2
370
    50
100
AcDbLine
 10
-150.359815
 20
25.430147
 30
0.0
 11
-149.032089
 21
26.757873
 31
0.0
  0
LINE
  5
2B3
100
AcDbEntity
  8
2
370
    50
100
AcDbLine
 10
-151.468089
 20
27.1503
 30
0.0
 11
-149.032089
 21
29.5863
 31
0.0
  0
LINE
  5
2B4
100
AcDbEntity
  8
2
370
    50
100
AcDbLine
 10
-149.110516
 20
30.922087
 30
0.0
 11
-151.468089
 21
28.564514
 31
0.0
  0
LINE
  5
2B5
100
AcDbEntity
  8
2
370
    50
100
AcDbLine
 10
-151.415298
 20
30.031519
 30
0.0
 11
-150.577521
 21
30.869295
 31
0.0
  0
POINT
  5
2B6
100
AcDbEntity
  8
2
370
    50
100
AcDbPoint
 10
92.117395
 20
71.730593
 30
0.0
  0
LINE
  5
2B7
100
AcDbEntity
  8
2
370
    25
  6
CENTER
100
AcDbLine
 10
-165.47959
 20
-187.678386
 30
0.0
 11
-103.273731
 21
-99.934676
 31
0.0
  0
LINE
  5
2B8
100
AcDbEntity
  8
2
370
    25
  6
CENTER
100
AcDbLine
 10
-181.47959
 20
-177.678387
 30
0.0
 11
-243.68559
 21
-89.93443
 31
0.0
  0
LINE
  5
2B9
100
AcDbEntity
  8
2
370
    25
  6
CENTER
100
AcDbLine
 10
-173.532089
 20
-260.79007
 30
0.0
 11
15.156493
 21
-260.79007
 31
0.0
  0
LINE
  5
2BA
100
AcDbEntity
  8
2
370
    25
  6
CENTER
100
AcDbLine
 10
15.156493
 20
-260.79007
 30
0.0
 11
15.156493
 21
-202.060844
 31
0.0
  0
LINE
  5
2BB
100
AcDbEntity
  8
2
370
    50
100
AcDbLine
 10
261.880751
 20
-113.513894
 30
0.0
 11
239.880438
 21
-113.513894
 31
0.0
  0
ARC
  5
2BC
100
AcDbEntity
  8
2
370
    50
100
AcDbCircle
 10
239.880438
 20
-112.513894
 30
0.0
 40
1.0
100
AcDbArc
 50
180.0
 51
270.0
  0
LINE
  5
2BD
100
AcDbEntity
  8
2
370
    50
100
AcDbLine
 10
238.880751
 20
-89.513792
 30
0.0
 11
238.880751
 21
-112.488861
 31
0.0
  0
LINE
  5
2BE
100
AcDbEntity
  8
2
370
    50
100
AcDbLine
 10
262.880751
 20
-89.513792
 30
0.0
 11
262.880751
 21
-112.513894
 31
0.0
  0
LINE
  5
2BF
100
AcDbEntity
  8
2
370
    50
100
AcDbLine
 10
261.880751
 20
-88.513792
 30
0.0
 11
239.880751
 21
-88.513792
 31
0.0
  0
ARC
  5
2C0
100
AcDbEntity
  8
2
370
    50
100
AcDbCircle
 10
239.880751
 20
-89.513792
 30
0.0
 40
1.0
100
AcDbArc
 50
90.0
 51
180.0
  0
ARC
  5
2C1
100
AcDbEntity
  8
2
370
    50
100
AcDbCircle
 10
261.880751
 20
-89.513792
 30
0.0
 40
1.0
100
AcDbArc
 50
0.0
 51
90.0
  0
LINE
  5
2C2
100
AcDbEntity
  8
2
370
    50
100
AcDbLine
 10
240.380751
 20
-83.479478
 30
0.0
 11
240.380751
 21
-88.513792
 31
0.0
  0
LINE
  5
2C3
100
AcDbEntity
  8
2
370
    50
100
AcDbLine
 10
261.380751
 20
-83.479478
 30
0.0
 11
261.380751
 21
-88.513792
 31
0.0
  0
LINE
  5
2C4
100
AcDbEntity
  8
2
370
    50
100
AcDbLine
 10
238.880751
 20
-66.779478
 30
0.0
 11
238.880751
 21
-82.479478
 31
0.0
  0
LINE
  5
2C5
100
AcDbEntity
  8
2
370
    50
100
AcDbLine
 10
243.880751
 20
-65.67811
 30
0.0
 11
243.880751
 21
-62.47811
 31
0.0
  0
LINE
  5
2C6
100
AcDbEntity
  8
2
370
    50
100
AcDbLine
 10
257.880751
 20
-65.67811
 30
0.0
 11
257.880751
 21
-62.47811
 31
0.0
  0
LINE
  5
2C7
100
AcDbEntity
  8
2
370
    50
100
AcDbLine
 10
243.880751
 20
-65.67811
 30
0.0
 11
257.880751
 21
-65.67811
 31
0.0
  0
LINE
  5
2C8
100
AcDbEntity
  8
2
370
    50
100
AcDbLine
 10
262.580751
 20
-66.479478
 30
0.0
 11
239.180751
 21
-66.479478
 31
0.0
  0
LINE
  5
2C9
100
AcDbEntity
  8
2
370
    50
100
AcDbLine
 10
244.280751
 20
-66.479478
 30
0.0
 11
244.280751
 21
-65.67811
 31
0.0
  0
LINE
  5
2CA
100
AcDbEntity
  8
2
370
    50
100
AcDbLine
 10
257.480751
 20
-66.513792
 30
0.0
 11
257.480751
 21
-65.67811
 31
0.0
  0
LINE
  5
2CB
100
AcDbEntity
  8
2
370
    50
100
AcDbLine
 10
261.880751
 20
-83.479478
 30
0.0
 11
239.880751
 21
-83.479478
 31
0.0
  0
ARC
  5
2CC
100
AcDbEntity
  8
2
370
    50
100
AcDbCircle
 10
239.880751
 20
-82.479478
 30
0.0
 40
1.0
100
AcDbArc
 50
180.0
 51
270.0
  0
ARC
  5
2CD
100
AcDbEntity
  8
2
370
    50
100
AcDbCircle
 10
239.180751
 20
-66.779478
 30
0.0
 40
0.3
100
AcDbArc
 50
90.0
 51
180.0
  0
ARC
  5
2CE
100
AcDbEntity
  8
2
370
    50
100
AcDbCircle
 10
262.580751
 20
-66.779478
 30
0.0
 40
0.3
100
AcDbArc
 50
0.0
 51
90.0
  0
LINE
  5
2CF
100
AcDbEntity
  8
2
370
    50
100
AcDbLine
 10
262.880751
 20
-66.779478
 30
0.0
 11
262.880751
 21
-82.479478
 31
0.0
  0
ARC
  5
2D0
100
AcDbEntity
  8
2
370
    50
100
AcDbCircle
 10
261.880751
 20
-82.479478
 30
0.0
 40
1.0
100
AcDbArc
 50
270.0
 51
360.0
  0
LINE
  5
2D1
100
AcDbEntity
  8
2
370
    50
100
AcDbLine
 10
257.580751
 20
-62.17811
 30
0.0
 11
257.880751
 21
-62.47811
 31
0.0
  0
LINE
  5
2D2
100
AcDbEntity
  8
2
370
    50
100
AcDbLine
 10
244.180751
 20
-62.17811
 30
0.0
 11
243.880751
 21
-62.47811
 31
0.0
  0
LINE
  5
2D3
100
AcDbEntity
  8
2
370
    50
100
AcDbLine
 10
255.880284
 20
-62.17811
 30
0.0
 11
255.880284
 21
-41.67811
 31
0.0
  0
ARC
  5
2D4
100
AcDbEntity
  8
2
370
    50
100
AcDbCircle
 10
248.380284
 20
-38.344777
 30
0.0
 40
4.166667
100
AcDbArc
 50
233.130102
 51
306.869898
  0
ARC
  5
2D5
100
AcDbEntity
  8
2
370
    50
100
AcDbCircle
 10
253.380284
 20
-45.011444
 30
0.0
 40
4.166667
100
AcDbArc
 50
53.130102
 51
126.869898
  0
ARC
  5
2D6
100
AcDbEntity
  8
2
370
    50
100
AcDbCircle
 10
253.380284
 20
-38.344777
 30
0.0
 40
4.166667
100
AcDbArc
 50
233.130102
 51
306.869898
  0
LINE
  5
2D7
100
AcDbEntity
  8
2
370
    50
100
AcDbLine
 10
244.180751
 20
-62.17811
 30
0.0
 11
257.580751
 21
-62.17811
 31
0.0
  0
LINE
  5
2D8
100
AcDbEntity
  8
2
370
    50
100
AcDbLine
 10
245.881219
 20
-62.17811
 30
0.0
 11
245.881219
 21
-41.67811
 31
0.0
  0
ARC
  5
2D9
100
AcDbEntity
  8
2
370
    50
100
AcDbCircle
 10
261.880751
 20
-112.513894
 30
0.0
 40
1.0
100
AcDbArc
 50
270.0
 51
360.0
  0
LINE
  5
2DA
100
AcDbEntity
  8
2
370
    50
100
AcDbLine
 10
243.880751
 20
-62.47811
 30
0.0
 11
257.880751
 21
-62.47811
 31
0.0
  0
ELLIPSE
  5
2DB
100
AcDbEntity
  8
2
370
    50
100
AcDbEllipse
 10
241.039356
 20
-86.263792
 30
0.0
 11
0.0
 21
1.0
 31
0.0
210
0.0
220
0.0
230
1.0
 40
0.31
 41
1.5325029999999999
 42
3.1415929999999999
  0
LINE
  5
2DC
100
AcDbEntity
  8
2
370
    50
100
AcDbLine
 10
240.729583
 20
-86.302076
 30
0.0
 11
240.729583
 21
-84.225508
 31
0.0
  0
ELLIPSE
  5
2DD
100
AcDbEntity
  8
2
370
    50
100
AcDbEllipse
 10
241.039356
 20
-84.263792
 30
0.0
 11
0.0
 21
1.0
 31
0.0
210
0.0
220
0.0
230
1.0
 40
0.31
 41
0.669206
 42
1.6090899999999999
  0
ELLIPSE
  5
2DE
100
AcDbEntity
  8
2
370
    50
100
AcDbEllipse
 10
242.644222
 20
-84.263792
 30
0.0
 11
0.0
 21
1.0
 31
0.0
210
0.0
220
0.0
230
1.0
 40
0.5
 41
0.669206
 42
1.5707960000000001
  0
LINE
  5
2DF
100
AcDbEntity
  8
2
370
    50
100
AcDbLine
 10
242.144222
 20
-86.263792
 30
0.0
 11
242.144222
 21
-84.263792
 31
0.0
  0
ELLIPSE
  5
2E0
100
AcDbEntity
  8
2
370
    50
100
AcDbEllipse
 10
242.644222
 20
-86.263792
 30
0.0
 11
0.0
 21
1.0
 31
0.0
210
0.0
220
0.0
230
1.0
 40
0.5
 41
1.5707960000000001
 42
3.1415929999999999
  0
LINE
  5
2E1
100
AcDbEntity
  8
2
370
    50
100
AcDbLine
 10
241.039356
 20
-87.263792
 30
0.0
 11
242.789356
 21
-87.263792
 31
0.0
  0
ELLIPSE
  5
2E2
100
AcDbEntity
  8
2
370
    50
100
AcDbEllipse
 10
242.789356
 20
-86.263792
 30
0.0
 11
0.0
 21
1.0
 31
0.0
210
0.0
220
0.0
230
1.0
 40
0.69
 41
3.1415929999999999
 42
4.7123889999999999
  0
LINE
  5
2E3
100
AcDbEntity
  8
2
370
    50
100
AcDbLine
 10
243.479356
 20
-84.263792
 30
0.0
 11
243.479356
 21
-86.263792
 31
0.0
  0
ELLIPSE
  5
2E4
100
AcDbEntity
  8
2
370
    50
100
AcDbEllipse
 10
242.789356
 20
-84.263792
 30
0.0
 11
0.0
 21
1.0
 31
0.0
210
0.0
220
0.0
230
1.0
 40
0.69
 41
4.7123889999999999
 42
5.6139789999999996
  0
ARC
  5
2E5
100
AcDbEntity
  8
2
370
    50
100
AcDbCircle
 10
249.130438
 20
-84.263792
 30
0.0
 40
1.0
100
AcDbArc
 50
128.342671
 51
180.0
  0
LINE
  5
2E6
100
AcDbEntity
  8
2
370
    50
100
AcDbLine
 10
248.130438
 20
-86.263792
 30
0.0
 11
248.130438
 21
-84.263792
 31
0.0
  0
ARC
  5
2E7
100
AcDbEntity
  8
2
370
    50
100
AcDbCircle
 10
249.130438
 20
-86.263792
 30
0.0
 40
1.0
100
AcDbArc
 50
180.0
 51
270.0
  0
LINE
  5
2E8
100
AcDbEntity
  8
2
370
    50
100
AcDbLine
 10
249.130438
 20
-87.263792
 30
0.0
 11
252.630131
 21
-87.263792
 31
0.0
  0
LINE
  5
2E9
100
AcDbEntity
  8
2
370
    50
100
AcDbLine
 10
242.68999
 20
-111.513894
 30
0.0
 11
242.68999
 21
-90.513792
 31
0.0
  0
LINE
  5
2EA
100
AcDbEntity
  8
2
370
    50
100
AcDbLine
 10
239.18999
 20
-90.513792
 30
0.0
 11
242.68999
 21
-90.513792
 31
0.0
  0
LINE
  5
2EB
100
AcDbEntity
  8
2
370
    50
100
AcDbLine
 10
247.380438
 20
-90.513792
 30
0.0
 11
254.380131
 21
-90.513792
 31
0.0
  0
LINE
  5
2EC
100
AcDbEntity
  8
2
370
    50
100
AcDbLine
 10
239.18999
 20
-111.513894
 30
0.0
 11
242.68999
 21
-111.513894
 31
0.0
  0
LINE
  5
2ED
100
AcDbEntity
  8
2
370
    50
100
AcDbLine
 10
239.18999
 20
-111.513894
 30
0.0
 11
239.18999
 21
-90.513792
 31
0.0
  0
LINE
  5
2EE
100
AcDbEntity
  8
2
370
    50
100
AcDbLine
 10
262.880751
 20
-80.479478
 30
0.0
 11
238.880751
 21
-80.479478
 31
0.0
  0
LINE
  5
2EF
100
AcDbEntity
  8
2
370
    50
100
AcDbLine
 10
239.030751
 20
-66.629478
 30
0.0
 11
239.030751
 21
-80.479478
 31
0.0
  0
ARC
  5
2F0
100
AcDbEntity
  8
2
370
    50
100
AcDbCircle
 10
239.180751
 20
-66.629478
 30
0.0
 40
0.15
100
AcDbArc
 50
90.0
 51
180.0
  0
LINE
  5
2F1
100
AcDbEntity
  8
2
370
    50
100
AcDbLine
 10
247.380438
 20
-90.513792
 30
0.0
 11
247.380438
 21
-111.513894
 31
0.0
  0
LINE
  5
2F2
100
AcDbEntity
  8
2
370
    50
100
AcDbLine
 10
247.380438
 20
-111.513894
 30
0.0
 11
254.380131
 21
-111.513894
 31
0.0
  0
LINE
  5
2F3
100
AcDbEntity
  8
2
370
    50
100
AcDbLine
 10
262.729817
 20
-66.629478
 30
0.0
 11
262.729817
 21
-80.479478
 31
0.0
  0
ARC
  5
2F4
100
AcDbEntity
  8
2
370
    50
100
AcDbCircle
 10
262.579817
 20
-66.629478
 30
0.0
 40
0.15
100
AcDbArc
 50
0.0
 51
90.0
  0
ELLIPSE
  5
2F5
100
AcDbEntity
  8
2
370
    50
100
AcDbEllipse
 10
260.721212
 20
-86.263792
 30
0.0
 11
0.0
 21
1.0
 31
0.0
210
0.0
220
0.0
230
1.0
 40
0.31
 41
3.1415929999999999
 42
4.7506820000000003
  0
LINE
  5
2F6
100
AcDbEntity
  8
2
370
    50
100
AcDbLine
 10
261.030985
 20
-86.302076
 30
0.0
 11
261.030985
 21
-84.225508
 31
0.0
  0
LINE
  5
2F7
100
AcDbEntity
  8
2
370
    50
100
AcDbLine
 10
259.616346
 20
-86.263792
 30
0.0
 11
259.616346
 21
-84.263792
 31
0.0
  0
ELLIPSE
  5
2F8
100
AcDbEntity
  8
2
370
    50
100
AcDbEllipse
 10
259.116346
 20
-86.263792
 30
0.0
 11
0.0
 21
1.0
 31
0.0
210
0.0
220
0.0
230
1.0
 40
0.5
 41
3.1415929999999999
 42
4.7123889999999999
  0
LINE
  5
2F9
100
AcDbEntity
  8
2
370
    50
100
AcDbLine
 10
260.721212
 20
-87.263792
 30
0.0
 11
258.971212
 21
-87.263792
 31
0.0
  0
ELLIPSE
  5
2FA
100
AcDbEntity
  8
2
370
    50
100
AcDbEllipse
 10
258.971212
 20
-86.263792
 30
0.0
 11
0.0
 21
1.0
 31
0.0
210
0.0
220
0.0
230
1.0
 40
0.69
 41
1.5707960000000001
 42
3.1415929999999999
  0
LINE
  5
2FB
100
AcDbEntity
  8
2
370
    50
100
AcDbLine
 10
258.281212
 20
-84.263792
 30
0.0
 11
258.281212
 21
-86.263792
 31
0.0
  0
ELLIPSE
  5
2FC
100
AcDbEntity
  8
2
370
    50
100
AcDbEllipse
 10
260.721212
 20
-84.263792
 30
0.0
 11
0.0
 21
1.0
 31
0.0
210
0.0
220
0.0
230
1.0
 40
0.31
 41
4.6740959999999996
 42
5.6139789999999996
  0
ELLIPSE
  5
2FD
100
AcDbEntity
  8
2
370
    50
100
AcDbEllipse
 10
259.116346
 20
-84.263792
 30
0.0
 11
0.0
 21
1.0
 31
0.0
210
0.0
220
0.0
230
1.0
 40
0.5
 41
4.7123889999999999
 42
5.6139789999999996
  0
LINE
  5
2FE
100
AcDbEntity
  8
2
370
    50
100
AcDbLine
 10
259.616346
 20
-86.263792
 30
0.0
 11
259.616346
 21
-84.263792
 31
0.0
  0
LINE
  5
2FF
100
AcDbEntity
  8
2
370
    50
100
AcDbLine
 10
258.281212
 20
-84.263792
 30
0.0
 11
258.281212
 21
-86.263792
 31
0.0
  0
ELLIPSE
  5
300
100
AcDbEntity
  8
2
370
    50
100
AcDbEllipse
 10
258.971212
 20
-84.263792
 30
0.0
 11
0.0
 21
1.0
 31
0.0
210
0.0
220
0.0
230
1.0
 40
0.69
 41
0.669206
 42
1.5707960000000001
  0
ARC
  5
301
100
AcDbEntity
  8
2
370
    50
100
AcDbCircle
 10
252.630131
 20
-84.263792
 30
0.0
 40
1.0
100
AcDbArc
 50
0.0
 51
51.657329
  0
LINE
  5
302
100
AcDbEntity
  8
2
370
    50
100
AcDbLine
 10
253.630131
 20
-86.263792
 30
0.0
 11
253.630131
 21
-84.263792
 31
0.0
  0
ARC
  5
303
100
AcDbEntity
  8
2
370
    50
100
AcDbCircle
 10
252.630131
 20
-86.263792
 30
0.0
 40
1.0
100
AcDbArc
 50
270.0
 51
360.0
  0
LINE
  5
304
100
AcDbEntity
  8
2
370
    50
100
AcDbLine
 10
262.570578
 20
-90.513792
 30
0.0
 11
259.070578
 21
-90.513792
 31
0.0
  0
LINE
  5
305
100
AcDbEntity
  8
2
370
    50
100
AcDbLine
 10
262.570578
 20
-111.513894
 30
0.0
 11
262.570578
 21
-90.513792
 31
0.0
  0
LINE
  5
306
100
AcDbEntity
  8
2
370
    50
100
AcDbLine
 10
259.070578
 20
-111.513894
 30
0.0
 11
259.070578
 21
-90.513792
 31
0.0
  0
LINE
  5
307
100
AcDbEntity
  8
2
370
    50
100
AcDbLine
 10
254.380131
 20
-90.513792
 30
0.0
 11
254.380131
 21
-111.513894
 31
0.0
  0
LINE
  5
308
100
AcDbEntity
  8
2
370
    50
100
AcDbLine
 10
262.570578
 20
-111.513894
 30
0.0
 11
259.070578
 21
-111.513894
 31
0.0
  0
LINE
  5
309
100
AcDbEntity
  8
2
370
    50
100
AcDbLine
 10
258.730674
 20
-113.514462
 30
0.0
 11
243.028963
 21
-113.514462
 31
0.0
  0
POINT
  5
30A
100
AcDbEntity
  8
2
370
    50
100
AcDbPoint
 10
250.880448
 20
-117.514206
 30
0.0
  0
LINE
  5
30B
100
AcDbEntity
  8
2
370
    50
100
AcDbLine
 10
242.880448
 20
-126.963854
 30
0.0
 11
242.880448
 21
-120.863854
 31
0.0
  0
LINE
  5
30C
100
AcDbEntity
  8
2
370
    50
100
AcDbLine
 10
258.880448
 20
-126.963854
 30
0.0
 11
258.880448
 21
-120.863854
 31
0.0
  0
LINE
  5
30D
100
AcDbEntity
  8
2
370
    50
100
AcDbLine
 10
243.080448
 20
-127.163854
 30
0.0
 11
258.680448
 21
-127.163854
 31
0.0
  0
LINE
  5
30E
100
AcDbEntity
  8
2
370
    50
100
AcDbLine
 10
243.080448
 20
-120.663854
 30
0.0
 11
258.680448
 21
-120.663854
 31
0.0
  0
LINE
  5
30F
100
AcDbEntity
  8
2
370
    50
100
AcDbLine
 10
244.106894
 20
-192.971634
 30
0.0
 11
257.506894
 21
-196.36051
 31
0.0
  0
LINE
  5
310
100
AcDbEntity
  8
2
370
    50
100
AcDbLine
 10
244.254003
 20
-189.914386
 30
0.0
 11
257.654003
 21
-193.303262
 31
0.0
  0
LINE
  5
311
100
AcDbEntity
  8
2
370
    50
100
AcDbLine
 10
257.880448
 20
-196.069667
 30
0.0
 11
257.880448
 21
-193.594106
 31
0.0
  0
LINE
  5
312
100
AcDbEntity
  8
2
370
    50
100
AcDbLine
 10
243.880448
 20
-192.680791
 30
0.0
 11
243.880448
 21
-190.205229
 31
0.0
  0
LINE
  5
313
100
AcDbEntity
  8
2
370
    50
100
AcDbLine
 10
256.780448
 20
-193.082339
 30
0.0
 11
256.780448
 21
-191.019372
 31
0.0
  0
LINE
  5
314
100
AcDbEntity
  8
2
370
    50
100
AcDbLine
 10
256.780448
 20
-198.239759
 30
0.0
 11
256.780448
 21
-196.176791
 31
0.0
  0
LINE
  5
315
100
AcDbEntity
  8
2
370
    50
100
AcDbLine
 10
244.980448
 20
-190.098105
 30
0.0
 11
244.980448
 21
-188.035137
 31
0.0
  0
LINE
  5
316
100
AcDbEntity
  8
2
370
    50
100
AcDbLine
 10
244.980448
 20
-195.255525
 30
0.0
 11
244.980448
 21
-193.192557
 31
0.0
  0
ARC
  5
317
100
AcDbEntity
  8
2
370
    50
100
AcDbCircle
 10
244.180448
 20
-192.680791
 30
0.0
 40
0.3
100
AcDbArc
 50
180.0
 51
255.807415
  0
ARC
  5
318
100
AcDbEntity
  8
2
370
    50
100
AcDbCircle
 10
244.180448
 20
-190.205229
 30
0.0
 40
0.3
100
AcDbArc
 50
75.807415
 51
180.0
  0
ARC
  5
319
100
AcDbEntity
  8
2
370
    50
100
AcDbCircle
 10
257.580448
 20
-193.594106
 30
0.0
 40
0.3
100
AcDbArc
 50
0.0
 51
75.807415
  0
ARC
  5
31A
100
AcDbEntity
  8
2
370
    50
100
AcDbCircle
 10
257.580448
 20
-196.069667
 30
0.0
 40
0.3
100
AcDbArc
 50
255.807415
 51
360.0
  0
LINE
  5
31B
100
AcDbEntity
  8
2
370
    50
100
AcDbLine
 10
258.880448
 20
-126.963854
 30
0.0
 11
258.680448
 21
-127.163854
 31
0.0
  0
LINE
  5
31C
100
AcDbEntity
  8
2
370
    50
100
AcDbLine
 10
243.080448
 20
-127.163854
 30
0.0
 11
242.880448
 21
-126.963854
 31
0.0
  0
LINE
  5
31D
100
AcDbEntity
  8
2
370
    50
100
AcDbLine
 10
242.880448
 20
-120.863854
 30
0.0
 11
243.080448
 21
-120.663854
 31
0.0
  0
LINE
  5
31E
100
AcDbEntity
  8
2
370
    50
100
AcDbLine
 10
242.880448
 20
-126.963854
 30
0.0
 11
258.880448
 21
-126.963854
 31
0.0
  0
LINE
  5
31F
100
AcDbEntity
  8
2
370
    50
100
AcDbLine
 10
242.880448
 20
-120.863854
 30
0.0
 11
258.880448
 21
-120.863854
 31
0.0
  0
LINE
  5
320
100
AcDbEntity
  8
2
370
    50
100
AcDbLine
 10
258.680448
 20
-120.663854
 30
0.0
 11
258.880448
 21
-120.863854
 31
0.0
  0
LINE
  5
321
100
AcDbEntity
  8
2
370
    50
100
AcDbLine
 10
258.880448
 20
-120.363854
 30
0.0
 11
258.880448
 21
-113.514321
 31
0.0
  0
LINE
  5
322
100
AcDbEntity
  8
2
370
    50
100
AcDbLine
 10
242.880448
 20
-120.363854
 30
0.0
 11
242.880448
 21
-113.514321
 31
0.0
  0
LINE
  5
323
100
AcDbEntity
  8
2
370
    50
100
AcDbLine
 10
258.880448
 20
-120.363854
 30
0.0
 11
258.580448
 21
-120.663854
 31
0.0
  0
LINE
  5
324
100
AcDbEntity
  8
2
370
    50
100
AcDbLine
 10
242.880448
 20
-120.363854
 30
0.0
 11
243.180448
 21
-120.663854
 31
0.0
  0
LINE
  5
325
100
AcDbEntity
  8
2
370
    50
100
AcDbLine
 10
249.880448
 20
-120.363854
 30
0.0
 11
249.880448
 21
-113.514321
 31
0.0
  0
LINE
  5
326
100
AcDbEntity
  8
2
370
    50
100
AcDbLine
 10
247.880448
 20
-120.363854
 30
0.0
 11
247.880448
 21
-113.514321
 31
0.0
  0
LINE
  5
327
100
AcDbEntity
  8
2
370
    50
100
AcDbLine
 10
246.380448
 20
-120.363854
 30
0.0
 11
246.380448
 21
-113.514321
 31
0.0
  0
LINE
  5
328
100
AcDbEntity
  8
2
370
    50
100
AcDbLine
 10
245.380448
 20
-120.363854
 30
0.0
 11
245.380448
 21
-113.514321
 31
0.0
  0
LINE
  5
329
100
AcDbEntity
  8
2
370
    50
100
AcDbLine
 10
244.380448
 20
-120.363854
 30
0.0
 11
244.380448
 21
-113.514321
 31
0.0
  0
LINE
  5
32A
100
AcDbEntity
  8
2
370
    50
100
AcDbLine
 10
243.380448
 20
-120.363854
 30
0.0
 11
243.380448
 21
-113.514321
 31
0.0
  0
LINE
  5
32B
100
AcDbEntity
  8
2
370
    50
100
AcDbLine
 10
242.880448
 20
-120.363854
 30
0.0
 11
258.880448
 21
-120.363854
 31
0.0
  0
LINE
  5
32C
100
AcDbEntity
  8
2
370
    50
100
AcDbLine
 10
251.880448
 20
-120.363854
 30
0.0
 11
251.880448
 21
-113.514321
 31
0.0
  0
LINE
  5
32D
100
AcDbEntity
  8
2
370
    50
100
AcDbLine
 10
253.880448
 20
-120.363854
 30
0.0
 11
253.880448
 21
-113.514321
 31
0.0
  0
LINE
  5
32E
100
AcDbEntity
  8
2
370
    50
100
AcDbLine
 10
255.380448
 20
-120.363854
 30
0.0
 11
255.380448
 21
-113.514321
 31
0.0
  0
LINE
  5
32F
100
AcDbEntity
  8
2
370
    50
100
AcDbLine
 10
256.380448
 20
-120.363854
 30
0.0
 11
256.380448
 21
-113.514321
 31
0.0
  0
LINE
  5
330
100
AcDbEntity
  8
2
370
    50
100
AcDbLine
 10
257.380448
 20
-120.363854
 30
0.0
 11
257.380448
 21
-113.514321
 31
0.0
  0
LINE
  5
331
100
AcDbEntity
  8
2
370
    50
100
AcDbLine
 10
258.380448
 20
-120.363854
 30
0.0
 11
258.380448
 21
-113.514321
 31
0.0
  0
LINE
  5
332
100
AcDbEntity
  8
2
370
    50
100
AcDbLine
 10
244.106894
 20
-187.814214
 30
0.0
 11
257.506894
 21
-191.203091
 31
0.0
  0
LINE
  5
333
100
AcDbEntity
  8
2
370
    50
100
AcDbLine
 10
236.626408
 20
-182.827939
 30
0.0
 11
265.710721
 21
-190.183397
 31
0.0
  0
LINE
  5
334
100
AcDbEntity
  8
2
370
    50
100
AcDbLine
 10
257.880448
 20
-190.912247
 30
0.0
 11
257.880448
 21
-188.436686
 31
0.0
  0
ARC
  5
335
100
AcDbEntity
  8
2
370
    50
100
AcDbCircle
 10
257.580448
 20
-188.436686
 30
0.0
 40
0.3
100
AcDbArc
 50
0.0
 51
75.807415
  0
ARC
  5
336
100
AcDbEntity
  8
2
370
    50
100
AcDbCircle
 10
257.580448
 20
-190.912247
 30
0.0
 40
0.3
100
AcDbArc
 50
255.807415
 51
360.0
  0
ARC
  5
337
100
AcDbEntity
  8
2
370
    50
100
AcDbCircle
 10
244.180448
 20
-185.04781
 30
0.0
 40
0.3
100
AcDbArc
 50
75.807415
 51
180.0
  0
LINE
  5
338
100
AcDbEntity
  8
2
370
    50
100
AcDbLine
 10
243.880448
 20
-187.523371
 30
0.0
 11
243.880448
 21
-185.04781
 31
0.0
  0
ARC
  5
339
100
AcDbEntity
  8
2
370
    50
100
AcDbCircle
 10
244.180448
 20
-187.523371
 30
0.0
 40
0.3
100
AcDbArc
 50
180.0
 51
255.807415
  0
LINE
  5
33A
100
AcDbEntity
  8
2
370
    50
100
AcDbLine
 10
244.254003
 20
-179.599547
 30
0.0
 11
257.654003
 21
-182.988423
 31
0.0
  0
LINE
  5
33B
100
AcDbEntity
  8
2
370
    50
100
AcDbLine
 10
257.880448
 20
-185.754828
 30
0.0
 11
257.880448
 21
-183.279267
 31
0.0
  0
LINE
  5
33C
100
AcDbEntity
  8
2
370
    50
100
AcDbLine
 10
243.880448
 20
-182.365952
 30
0.0
 11
243.880448
 21
-179.89039
 31
0.0
  0
LINE
  5
33D
100
AcDbEntity
  8
2
370
    50
100
AcDbLine
 10
256.780448
 20
-141.5075
 30
0.0
 11
256.780448
 21
-139.444533
 31
0.0
  0
LINE
  5
33E
100
AcDbEntity
  8
2
370
    50
100
AcDbLine
 10
244.980448
 20
-138.523266
 30
0.0
 11
244.980448
 21
-136.460298
 31
0.0
  0
ARC
  5
33F
100
AcDbEntity
  8
2
370
    50
100
AcDbCircle
 10
244.180448
 20
-182.365952
 30
0.0
 40
0.3
100
AcDbArc
 50
180.0
 51
255.807415
  0
ARC
  5
340
100
AcDbEntity
  8
2
370
    50
100
AcDbCircle
 10
244.180448
 20
-179.89039
 30
0.0
 40
0.3
100
AcDbArc
 50
75.807415
 51
180.0
  0
ARC
  5
341
100
AcDbEntity
  8
2
370
    50
100
AcDbCircle
 10
257.580448
 20
-183.279267
 30
0.0
 40
0.3
100
AcDbArc
 50
0.0
 51
75.807415
  0
ARC
  5
342
100
AcDbEntity
  8
2
370
    50
100
AcDbCircle
 10
257.580448
 20
-185.754828
 30
0.0
 40
0.3
100
AcDbArc
 50
255.807415
 51
360.0
  0
LINE
  5
343
100
AcDbEntity
  8
2
370
    50
100
AcDbLine
 10
244.106894
 20
-136.239375
 30
0.0
 11
257.506894
 21
-139.628252
 31
0.0
  0
LINE
  5
344
100
AcDbEntity
  8
2
370
    50
100
AcDbLine
 10
244.254003
 20
-133.182128
 30
0.0
 11
257.654003
 21
-136.571004
 31
0.0
  0
LINE
  5
345
100
AcDbEntity
  8
2
370
    50
100
AcDbLine
 10
257.880448
 20
-139.337408
 30
0.0
 11
257.880448
 21
-136.861847
 31
0.0
  0
LINE
  5
346
100
AcDbEntity
  8
2
370
    50
100
AcDbLine
 10
243.880448
 20
-135.948532
 30
0.0
 11
243.880448
 21
-133.472971
 31
0.0
  0
LINE
  5
347
100
AcDbEntity
  8
2
370
    50
100
AcDbLine
 10
256.780448
 20
-136.350081
 30
0.0
 11
256.780448
 21
-134.287113
 31
0.0
  0
LINE
  5
348
100
AcDbEntity
  8
2
370
    50
100
AcDbLine
 10
244.980448
 20
-133.365847
 30
0.0
 11
244.980448
 21
-131.302879
 31
0.0
  0
ARC
  5
349
100
AcDbEntity
  8
2
370
    50
100
AcDbCircle
 10
244.180448
 20
-135.948532
 30
0.0
 40
0.3
100
AcDbArc
 50
180.0
 51
255.807415
  0
ARC
  5
34A
100
AcDbEntity
  8
2
370
    50
100
AcDbCircle
 10
244.180448
 20
-133.472971
 30
0.0
 40
0.3
100
AcDbArc
 50
75.807415
 51
180.0
  0
ARC
  5
34B
100
AcDbEntity
  8
2
370
    50
100
AcDbCircle
 10
257.580448
 20
-136.861847
 30
0.0
 40
0.3
100
AcDbArc
 50
0.0
 51
75.807415
  0
ARC
  5
34C
100
AcDbEntity
  8
2
370
    50
100
AcDbCircle
 10
257.580448
 20
-139.337408
 30
0.0
 40
0.3
100
AcDbArc
 50
255.807415
 51
360.0
  0
LINE
  5
34D
100
AcDbEntity
  8
2
370
    50
100
AcDbLine
 10
244.106894
 20
-131.081956
 30
0.0
 11
257.506894
 21
-134.470832
 31
0.0
  0
LINE
  5
34E
100
AcDbEntity
  8
2
370
    50
100
AcDbLine
 10
244.254003
 20
-128.024708
 30
0.0
 11
257.654003
 21
-131.413585
 31
0.0
  0
LINE
  5
34F
100
AcDbEntity
  8
2
370
    50
100
AcDbLine
 10
257.880448
 20
-134.179989
 30
0.0
 11
257.880448
 21
-131.704428
 31
0.0
  0
LINE
  5
350
100
AcDbEntity
  8
2
370
    50
100
AcDbLine
 10
243.880448
 20
-130.791113
 30
0.0
 11
243.880448
 21
-128.315552
 31
0.0
  0
LINE
  5
351
100
AcDbEntity
  8
2
370
    50
100
AcDbLine
 10
256.780448
 20
-131.192662
 30
0.0
 11
256.780448
 21
-129.129694
 31
0.0
  0
LINE
  5
352
100
AcDbEntity
  8
2
370
    50
100
AcDbLine
 10
244.980448
 20
-128.208427
 30
0.0
 11
244.980448
 21
-127.163854
 31
0.0
  0
ARC
  5
353
100
AcDbEntity
  8
2
370
    50
100
AcDbCircle
 10
244.180448
 20
-130.791113
 30
0.0
 40
0.3
100
AcDbArc
 50
180.0
 51
255.807415
  0
ARC
  5
354
100
AcDbEntity
  8
2
370
    50
100
AcDbCircle
 10
244.180448
 20
-128.315552
 30
0.0
 40
0.3
100
AcDbArc
 50
75.807415
 51
180.0
  0
ARC
  5
355
100
AcDbEntity
  8
2
370
    50
100
AcDbCircle
 10
257.580448
 20
-131.704428
 30
0.0
 40
0.3
100
AcDbArc
 50
0.0
 51
75.807415
  0
ARC
  5
356
100
AcDbEntity
  8
2
370
    50
100
AcDbCircle
 10
257.580448
 20
-134.179989
 30
0.0
 40
0.3
100
AcDbArc
 50
255.807415
 51
360.0
  0
LINE
  5
357
100
AcDbEntity
  8
2
370
    50
100
AcDbLine
 10
249.007294
 20
-127.163854
 30
0.0
 11
257.506894
 21
-129.313413
 31
0.0
  0
LINE
  5
358
100
AcDbEntity
  8
2
370
    50
100
AcDbLine
 10
257.880448
 20
-129.02257
 30
0.0
 11
257.880448
 21
-127.163854
 31
0.0
  0
ARC
  5
359
100
AcDbEntity
  8
2
370
    50
100
AcDbCircle
 10
257.580448
 20
-129.02257
 30
0.0
 40
0.3
100
AcDbArc
 50
255.807415
 51
360.0
  0
LINE
  5
35A
100
AcDbEntity
  8
2
370
    50
100
AcDbLine
 10
250.880284
 20
-202.060844
 30
0.0
 11
250.880284
 21
-193.287867
 31
0.0
  0
LINE
  5
35B
100
AcDbEntity
  8
2
370
    50
100
AcDbLine
 10
266.20106
 20
-188.2446
 30
0.0
 11
237.116801
 21
-180.888931
 31
0.0
  0
LINE
  5
35C
100
AcDbEntity
  8
2
370
    50
100
AcDbLine
 10
237.116801
 20
-180.888931
 30
0.0
 11
236.626408
 21
-182.827939
 31
0.0
  0
LINE
  5
35D
100
AcDbEntity
  8
2
370
    50
100
AcDbLine
 10
266.20106
 20
-188.2446
 30
0.0
 11
265.710721
 21
-190.183397
 31
0.0
  0
LINE
  5
35E
100
AcDbEntity
  8
2
370
    50
100
AcDbLine
 10
256.780448
 20
-151.822339
 30
0.0
 11
256.780448
 21
-149.759372
 31
0.0
  0
LINE
  5
35F
100
AcDbEntity
  8
2
370
    50
100
AcDbLine
 10
244.980448
 20
-148.838105
 30
0.0
 11
244.980448
 21
-146.775137
 31
0.0
  0
LINE
  5
360
100
AcDbEntity
  8
2
370
    50
100
AcDbLine
 10
244.106894
 20
-146.554214
 30
0.0
 11
257.506894
 21
-149.943091
 31
0.0
  0
LINE
  5
361
100
AcDbEntity
  8
2
370
    50
100
AcDbLine
 10
244.254003
 20
-143.496967
 30
0.0
 11
257.654003
 21
-146.885843
 31
0.0
  0
LINE
  5
362
100
AcDbEntity
  8
2
370
    50
100
AcDbLine
 10
257.880448
 20
-149.652247
 30
0.0
 11
257.880448
 21
-147.176686
 31
0.0
  0
LINE
  5
363
100
AcDbEntity
  8
2
370
    50
100
AcDbLine
 10
243.880448
 20
-146.263371
 30
0.0
 11
243.880448
 21
-143.78781
 31
0.0
  0
LINE
  5
364
100
AcDbEntity
  8
2
370
    50
100
AcDbLine
 10
256.780448
 20
-146.66492
 30
0.0
 11
256.780448
 21
-144.601952
 31
0.0
  0
LINE
  5
365
100
AcDbEntity
  8
2
370
    50
100
AcDbLine
 10
244.980448
 20
-143.680686
 30
0.0
 11
244.980448
 21
-141.617718
 31
0.0
  0
ARC
  5
366
100
AcDbEntity
  8
2
370
    50
100
AcDbCircle
 10
244.180448
 20
-146.263371
 30
0.0
 40
0.3
100
AcDbArc
 50
180.0
 51
255.807415
  0
ARC
  5
367
100
AcDbEntity
  8
2
370
    50
100
AcDbCircle
 10
244.180448
 20
-143.78781
 30
0.0
 40
0.3
100
AcDbArc
 50
75.807415
 51
180.0
  0
ARC
  5
368
100
AcDbEntity
  8
2
370
    50
100
AcDbCircle
 10
257.580448
 20
-147.176686
 30
0.0
 40
0.3
100
AcDbArc
 50
0.0
 51
75.807415
  0
ARC
  5
369
100
AcDbEntity
  8
2
370
    50
100
AcDbCircle
 10
257.580448
 20
-149.652247
 30
0.0
 40
0.3
100
AcDbArc
 50
255.807415
 51
360.0
  0
LINE
  5
36A
100
AcDbEntity
  8
2
370
    50
100
AcDbLine
 10
244.106894
 20
-141.396795
 30
0.0
 11
257.506894
 21
-144.785671
 31
0.0
  0
LINE
  5
36B
100
AcDbEntity
  8
2
370
    50
100
AcDbLine
 10
244.254003
 20
-138.339547
 30
0.0
 11
257.654003
 21
-141.728423
 31
0.0
  0
LINE
  5
36C
100
AcDbEntity
  8
2
370
    50
100
AcDbLine
 10
257.880448
 20
-144.494828
 30
0.0
 11
257.880448
 21
-142.019267
 31
0.0
  0
LINE
  5
36D
100
AcDbEntity
  8
2
370
    50
100
AcDbLine
 10
243.880448
 20
-141.105952
 30
0.0
 11
243.880448
 21
-138.63039
 31
0.0
  0
ARC
  5
36E
100
AcDbEntity
  8
2
370
    50
100
AcDbCircle
 10
244.180448
 20
-141.105952
 30
0.0
 40
0.3
100
AcDbArc
 50
180.0
 51
255.807415
  0
ARC
  5
36F
100
AcDbEntity
  8
2
370
    50
100
AcDbCircle
 10
244.180448
 20
-138.63039
 30
0.0
 40
0.3
100
AcDbArc
 50
75.807415
 51
180.0
  0
ARC
  5
370
100
AcDbEntity
  8
2
370
    50
100
AcDbCircle
 10
257.580448
 20
-142.019267
 30
0.0
 40
0.3
100
AcDbArc
 50
0.0
 51
75.807415
  0
ARC
  5
371
100
AcDbEntity
  8
2
370
    50
100
AcDbCircle
 10
257.580448
 20
-144.494828
 30
0.0
 40
0.3
100
AcDbArc
 50
255.807415
 51
360.0
  0
LINE
  5
372
100
AcDbEntity
  8
2
370
    50
100
AcDbLine
 10
256.780448
 20
-162.137178
 30
0.0
 11
256.780448
 21
-160.074211
 31
0.0
  0
LINE
  5
373
100
AcDbEntity
  8
2
370
    50
100
AcDbLine
 10
244.980448
 20
-159.152944
 30
0.0
 11
244.980448
 21
-157.089976
 31
0.0
  0
LINE
  5
374
100
AcDbEntity
  8
2
370
    50
100
AcDbLine
 10
244.106894
 20
-156.869053
 30
0.0
 11
257.506894
 21
-160.257929
 31
0.0
  0
LINE
  5
375
100
AcDbEntity
  8
2
370
    50
100
AcDbLine
 10
244.254003
 20
-153.811806
 30
0.0
 11
257.654003
 21
-157.200682
 31
0.0
  0
LINE
  5
376
100
AcDbEntity
  8
2
370
    50
100
AcDbLine
 10
257.880448
 20
-159.967086
 30
0.0
 11
257.880448
 21
-157.491525
 31
0.0
  0
LINE
  5
377
100
AcDbEntity
  8
2
370
    50
100
AcDbLine
 10
243.880448
 20
-156.57821
 30
0.0
 11
243.880448
 21
-154.102649
 31
0.0
  0
LINE
  5
378
100
AcDbEntity
  8
2
370
    50
100
AcDbLine
 10
256.780448
 20
-156.979759
 30
0.0
 11
256.780448
 21
-154.916791
 31
0.0
  0
LINE
  5
379
100
AcDbEntity
  8
2
370
    50
100
AcDbLine
 10
244.980448
 20
-153.995525
 30
0.0
 11
244.980448
 21
-151.932557
 31
0.0
  0
ARC
  5
37A
100
AcDbEntity
  8
2
370
    50
100
AcDbCircle
 10
244.180448
 20
-156.57821
 30
0.0
 40
0.3
100
AcDbArc
 50
180.0
 51
255.807415
  0
ARC
  5
37B
100
AcDbEntity
  8
2
370
    50
100
AcDbCircle
 10
244.180448
 20
-154.102649
 30
0.0
 40
0.3
100
AcDbArc
 50
75.807415
 51
180.0
  0
ARC
  5
37C
100
AcDbEntity
  8
2
370
    50
100
AcDbCircle
 10
257.580448
 20
-157.491525
 30
0.0
 40
0.3
100
AcDbArc
 50
0.0
 51
75.807415
  0
ARC
  5
37D
100
AcDbEntity
  8
2
370
    50
100
AcDbCircle
 10
257.580448
 20
-159.967086
 30
0.0
 40
0.3
100
AcDbArc
 50
255.807415
 51
360.0
  0
LINE
  5
37E
100
AcDbEntity
  8
2
370
    50
100
AcDbLine
 10
244.106894
 20
-151.711634
 30
0.0
 11
257.506894
 21
-155.10051
 31
0.0
  0
LINE
  5
37F
100
AcDbEntity
  8
2
370
    50
100
AcDbLine
 10
244.254003
 20
-148.654386
 30
0.0
 11
257.654003
 21
-152.043262
 31
0.0
  0
LINE
  5
380
100
AcDbEntity
  8
2
370
    50
100
AcDbLine
 10
257.880448
 20
-154.809667
 30
0.0
 11
257.880448
 21
-152.334106
 31
0.0
  0
LINE
  5
381
100
AcDbEntity
  8
2
370
    50
100
AcDbLine
 10
243.880448
 20
-151.420791
 30
0.0
 11
243.880448
 21
-148.945229
 31
0.0
  0
ARC
  5
382
100
AcDbEntity
  8
2
370
    50
100
AcDbCircle
 10
244.180448
 20
-151.420791
 30
0.0
 40
0.3
100
AcDbArc
 50
180.0
 51
255.807415
  0
ARC
  5
383
100
AcDbEntity
  8
2
370
    50
100
AcDbCircle
 10
244.180448
 20
-148.945229
 30
0.0
 40
0.3
100
AcDbArc
 50
75.807415
 51
180.0
  0
ARC
  5
384
100
AcDbEntity
  8
2
370
    50
100
AcDbCircle
 10
257.580448
 20
-152.334106
 30
0.0
 40
0.3
100
AcDbArc
 50
0.0
 51
75.807415
  0
ARC
  5
385
100
AcDbEntity
  8
2
370
    50
100
AcDbCircle
 10
257.580448
 20
-154.809667
 30
0.0
 40
0.3
100
AcDbArc
 50
255.807415
 51
360.0
  0
LINE
  5
386
100
AcDbEntity
  8
2
370
    50
100
AcDbLine
 10
244.980448
 20
-169.467783
 30
0.0
 11
244.980448
 21
-167.404815
 31
0.0
  0
LINE
  5
387
100
AcDbEntity
  8
2
370
    50
100
AcDbLine
 10
244.106894
 20
-167.183892
 30
0.0
 11
251.650766
 21
-169.091747
 31
0.0
  0
LINE
  5
388
100
AcDbEntity
  8
2
370
    50
100
AcDbLine
 10
244.254003
 20
-164.126645
 30
0.0
 11
257.654003
 21
-167.515521
 31
0.0
  0
LINE
  5
389
100
AcDbEntity
  8
2
370
    50
100
AcDbLine
 10
257.880448
 20
-169.524358
 30
0.0
 11
257.880448
 21
-167.806364
 31
0.0
  0
LINE
  5
38A
100
AcDbEntity
  8
2
370
    50
100
AcDbLine
 10
243.880448
 20
-166.893049
 30
0.0
 11
243.880448
 21
-164.417488
 31
0.0
  0
LINE
  5
38B
100
AcDbEntity
  8
2
370
    50
100
AcDbLine
 10
256.780448
 20
-167.294598
 30
0.0
 11
256.780448
 21
-165.23163
 31
0.0
  0
LINE
  5
38C
100
AcDbEntity
  8
2
370
    50
100
AcDbLine
 10
244.980448
 20
-164.310364
 30
0.0
 11
244.980448
 21
-162.247396
 31
0.0
  0
ARC
  5
38D
100
AcDbEntity
  8
2
370
    50
100
AcDbCircle
 10
244.180448
 20
-166.893049
 30
0.0
 40
0.3
100
AcDbArc
 50
180.0
 51
255.807415
  0
ARC
  5
38E
100
AcDbEntity
  8
2
370
    50
100
AcDbCircle
 10
244.180448
 20
-164.417488
 30
0.0
 40
0.3
100
AcDbArc
 50
75.807415
 51
180.0
  0
ARC
  5
38F
100
AcDbEntity
  8
2
370
    50
100
AcDbCircle
 10
257.580448
 20
-167.806364
 30
0.0
 40
0.3
100
AcDbArc
 50
0.0
 51
75.807415
  0
LINE
  5
390
100
AcDbEntity
  8
2
370
    50
100
AcDbLine
 10
244.106894
 20
-162.026473
 30
0.0
 11
257.506894
 21
-165.415349
 31
0.0
  0
LINE
  5
391
100
AcDbEntity
  8
2
370
    50
100
AcDbLine
 10
244.254003
 20
-158.969225
 30
0.0
 11
257.654003
 21
-162.358101
 31
0.0
  0
LINE
  5
392
100
AcDbEntity
  8
2
370
    50
100
AcDbLine
 10
257.880448
 20
-165.124506
 30
0.0
 11
257.880448
 21
-162.648944
 31
0.0
  0
LINE
  5
393
100
AcDbEntity
  8
2
370
    50
100
AcDbLine
 10
243.880448
 20
-161.73563
 30
0.0
 11
243.880448
 21
-159.260068
 31
0.0
  0
ARC
  5
394
100
AcDbEntity
  8
2
370
    50
100
AcDbCircle
 10
244.180448
 20
-161.73563
 30
0.0
 40
0.3
100
AcDbArc
 50
180.0
 51
255.807415
  0
ARC
  5
395
100
AcDbEntity
  8
2
370
    50
100
AcDbCircle
 10
244.180448
 20
-159.260068
 30
0.0
 40
0.3
100
AcDbArc
 50
75.807415
 51
180.0
  0
ARC
  5
396
100
AcDbEntity
  8
2
370
    50
100
AcDbCircle
 10
257.580448
 20
-162.648944
 30
0.0
 40
0.3
100
AcDbArc
 50
0.0
 51
75.807415
  0
ARC
  5
397
100
AcDbEntity
  8
2
370
    50
100
AcDbCircle
 10
257.580448
 20
-165.124506
 30
0.0
 40
0.3
100
AcDbArc
 50
255.807415
 51
360.0
  0
LINE
  5
398
100
AcDbEntity
  8
2
370
    50
100
AcDbLine
 10
256.780448
 20
-182.766856
 30
0.0
 11
256.780448
 21
-180.703888
 31
0.0
  0
LINE
  5
399
100
AcDbEntity
  8
2
370
    50
100
AcDbLine
 10
244.980448
 20
-179.782622
 30
0.0
 11
244.980448
 21
-177.719654
 31
0.0
  0
LINE
  5
39A
100
AcDbEntity
  8
2
370
    50
100
AcDbLine
 10
244.106894
 20
-177.498731
 30
0.0
 11
257.506894
 21
-180.887607
 31
0.0
  0
LINE
  5
39B
100
AcDbEntity
  8
2
370
    50
100
AcDbLine
 10
248.968941
 20
-175.633897
 30
0.0
 11
257.654003
 21
-177.83036
 31
0.0
  0
LINE
  5
39C
100
AcDbEntity
  8
2
370
    50
100
AcDbLine
 10
257.880448
 20
-180.596764
 30
0.0
 11
257.880448
 21
-178.121203
 31
0.0
  0
LINE
  5
39D
100
AcDbEntity
  8
2
370
    50
100
AcDbLine
 10
243.880448
 20
-177.207888
 30
0.0
 11
243.880448
 21
-174.732327
 31
0.0
  0
LINE
  5
39E
100
AcDbEntity
  8
2
370
    50
100
AcDbLine
 10
256.780448
 20
-177.609437
 30
0.0
 11
256.780448
 21
-175.546469
 31
0.0
  0
ARC
  5
39F
100
AcDbEntity
  8
2
370
    50
100
AcDbCircle
 10
244.180448
 20
-177.207888
 30
0.0
 40
0.3
100
AcDbArc
 50
180.0
 51
255.807415
  0
ARC
  5
3A0
100
AcDbEntity
  8
2
370
    50
100
AcDbCircle
 10
257.580448
 20
-178.121203
 30
0.0
 40
0.3
100
AcDbArc
 50
0.0
 51
75.807415
  0
ARC
  5
3A1
100
AcDbEntity
  8
2
370
    50
100
AcDbCircle
 10
257.580448
 20
-180.596764
 30
0.0
 40
0.3
100
AcDbArc
 50
255.807415
 51
360.0
  0
LINE
  5
3A2
100
AcDbEntity
  8
2
370
    50
100
AcDbLine
 10
251.696331
 20
-174.260689
 30
0.0
 11
257.506894
 21
-175.730188
 31
0.0
  0
LINE
  5
3A3
100
AcDbEntity
  8
2
370
    50
100
AcDbLine
 10
244.254003
 20
-169.284064
 30
0.0
 11
249.136101
 21
-170.518753
 31
0.0
  0
LINE
  5
3A4
100
AcDbEntity
  8
2
370
    50
100
AcDbLine
 10
257.880448
 20
-175.439345
 30
0.0
 11
257.880448
 21
-174.6937
 31
0.0
  0
ARC
  5
3A5
100
AcDbEntity
  8
2
370
    50
100
AcDbCircle
 10
244.180448
 20
-169.574907
 30
0.0
 40
0.3
100
AcDbArc
 50
75.807415
 51
180.0
  0
ARC
  5
3A6
100
AcDbEntity
  8
2
370
    50
100
AcDbCircle
 10
257.580448
 20
-175.439345
 30
0.0
 40
0.3
100
AcDbArc
 50
255.807415
 51
360.0
  0
ARC
  5
3A7
100
AcDbEntity
  8
2
370
    50
100
AcDbCircle
 10
247.380025
 20
-164.908132
 30
0.0
 40
5.833333
100
AcDbArc
 50
233.130102
 51
306.869898
  0
ARC
  5
3A8
100
AcDbEntity
  8
2
370
    50
100
AcDbCircle
 10
254.380025
 20
-174.241466
 30
0.0
 40
5.833333
100
AcDbArc
 50
53.130102
 51
126.869898
  0
ARC
  5
3A9
100
AcDbEntity
  8
2
370
    50
100
AcDbCircle
 10
254.380025
 20
-164.908132
 30
0.0
 40
5.833333
100
AcDbArc
 50
233.130102
 51
306.869898
  0
POINT
  5
3AA
100
AcDbEntity
  8
2
370
    50
100
AcDbPoint
 10
243.880448
 20
-169.574907
 30
0.0
  0
ARC
  5
3AB
100
AcDbEntity
  8
2
370
    50
100
AcDbCircle
 10
254.413433
 20
-179.373636
 30
0.0
 40
5.833333
100
AcDbArc
 50
53.130102
 51
126.869898
  0
ARC
  5
3AC
100
AcDbEntity
  8
2
370
    50
100
AcDbCircle
 10
247.413433
 20
-170.040303
 30
0.0
 40
5.833333
100
AcDbArc
 50
233.130102
 51
306.869898
  0
ARC
  5
3AD
100
AcDbEntity
  8
2
370
    50
100
AcDbCircle
 10
247.413433
 20
-179.373636
 30
0.0
 40
5.833333
100
AcDbArc
 50
53.130102
 51
126.869898
  0
POINT
  5
3AE
100
AcDbEntity
  8
2
370
    50
100
AcDbPoint
 10
250.880284
 20
-185.401241
 30
0.0
  0
POINT
  5
3AF
100
AcDbEntity
  8
2
370
    50
100
AcDbPoint
 10
250.880284
 20
-13.847838
 30
0.0
  0
LINE
  5
3B0
100
AcDbEntity
  8
2
370
    50
100
AcDbLine
 10
95.948463
 20
198.630602
 30
0.0
 11
130.693802
 21
178.570371
 31
0.0
  0
LINE
  5
3B1
100
AcDbEntity
  8
2
370
    50
100
AcDbLine
 10
99.948463
 20
205.558805
 30
0.0
 11
144.857161
 21
179.630756
 31
0.0
  0
LINE
  5
3B2
100
AcDbEntity
  8
2
370
    50
100
AcDbLine
 10
95.76545
 20
199.313615
 30
0.0
 11
99.26545
 21
205.375793
 31
0.0
  0
LINE
  5
3B3
100
AcDbEntity
  8
2
370
    50
100
AcDbLine
 10
99.948463
 20
205.558805
 30
0.0
 11
99.26545
 21
205.375793
 31
0.0
  0
LINE
  5
3B4
100
AcDbEntity
  8
2
370
    50
100
AcDbLine
 10
95.76545
 20
199.313615
 30
0.0
 11
95.948463
 21
198.630602
 31
0.0
  0
LINE
  5
3B5
100
AcDbEntity
  8
2
370
    50
100
AcDbLine
 10
99.948463
 20
205.558805
 30
0.0
 11
95.948463
 21
198.630602
 31
0.0
  0
POINT
  5
3B6
100
AcDbEntity
  8
2
370
    50
100
AcDbPoint
 10
99.948463
 20
205.558805
 30
0.0
  0
POINT
  5
3B7
100
AcDbEntity
  8
2
370
    50
100
AcDbPoint
 10
70.794469
 20
164.221357
 30
0.0
  0
LINE
  5
3B8
100
AcDbEntity
  8
2
370
    50
100
AcDbLine
 10
166.254546
 20
-89.653041
 30
0.0
 11
166.254546
 21
-79.148232
 31
0.0
  0
LINE
  5
3B9
100
AcDbEntity
  8
2
370
    25
  6
CENTER
100
AcDbLine
 10
161.254678
 20
-176.654105
 30
0.0
 11
75.253773
 21
-55.832084
 31
0.0
  0
LINE
  5
3BA
100
AcDbEntity
  8
2
370
    25
  6
CENTER
100
AcDbLine
 10
165.754678
 20
-57.174896
 30
0.0
 11
165.754678
 21
-81.071608
 31
0.0
  0
LINE
  5
3BB
100
AcDbEntity
  8
2
370
    50
100
AcDbLine
 10
169.754546
 20
-57.174896
 30
0.0
 11
169.754546
 21
-78.817564
 31
0.0
  0
LINE
  5
3BC
100
AcDbEntity
  8
2
370
    50
100
AcDbLine
 10
161.754546
 20
-57.174896
 30
0.0
 11
161.754546
 21
-78.899461
 31
0.0
  0
ARC
  5
3BD
100
AcDbEntity
  8
2
370
    50
100
AcDbCircle
 10
163.754546
 20
-76.150898
 30
0.0
 40
3.333333
100
AcDbArc
 50
233.130102
 51
306.869898
  0
ARC
  5
3BE
100
AcDbEntity
  8
2
370
    50
100
AcDbCircle
 10
167.754546
 20
-81.484231
 30
0.0
 40
3.333333
100
AcDbArc
 50
53.130102
 51
126.869898
  0
ARC
  5
3BF
100
AcDbEntity
  8
2
370
    50
100
AcDbCircle
 10
167.754546
 20
-76.150898
 30
0.0
 40
3.333333
100
AcDbArc
 50
233.130102
 51
306.869898
  0
POINT
  5
3C0
100
AcDbEntity
  8
2
370
    50
100
AcDbPoint
 10
155.254678
 20
90.321997
 30
0.0
  0
LINE
  5
3C1
100
AcDbEntity
  8
2
370
    50
100
AcDbLine
 10
35.18387
 20
98.110327
 30
0.0
 11
35.18387
 21
97.663307
 31
0.0
  0
LINE
  5
3C2
100
AcDbEntity
  8
2
370
    25
  6
CENTER
100
AcDbLine
 10
31.97887
 20
91.237105
 30
0.0
 11
38.842529
 21
105.956269
 31
0.0
  0
LINE
  5
3C3
100
AcDbEntity
  8
2
370
    50
100
AcDbLine
 10
-170.584316
 20
-82.450195
 30
0.0
 11
-170.584316
 21
-100.678255
 31
0.0
  0
LINE
  5
3C4
100
AcDbEntity
  8
2
370
    50
100
AcDbLine
 10
-176.584316
 20
-84.732643
 30
0.0
 11
-176.584316
 21
-90.678255
 31
0.0
  0
LINE
  5
3C5
100
AcDbEntity
  8
2
370
    50
100
AcDbLine
 10
-179.784539
 20
-66.126516
 30
0.0
 11
-179.784539
 21
-65.112611
 31
0.0
  0
LINE
  5
3C6
100
AcDbEntity
  8
2
370
    50
100
AcDbLine
 10
-167.384539
 20
-64.051484
 30
0.0
 11
-167.384539
 21
-63.037562
 31
0.0
  0
LINE
  5
3C7
100
AcDbEntity
  8
2
370
    50
100
AcDbLine
 10
-180.584539
 20
-65.010235
 30
0.0
 11
-180.584539
 21
-62.374082
 31
0.0
  0
LINE
  5
3C8
100
AcDbEntity
  8
2
370
    50
100
AcDbLine
 10
-180.351529
 20
-65.207492
 30
0.0
 11
-166.751529
 21
-62.931633
 31
0.0
  0
ARC
  5
3C9
100
AcDbEntity
  8
2
370
    50
100
AcDbCircle
 10
-180.384539
 20
-65.010235
 30
0.0
 40
0.2
100
AcDbArc
 50
180.0
 51
279.5
  0
LINE
  5
3CA
100
AcDbEntity
  8
2
370
    50
100
AcDbLine
 10
-166.584539
 20
-62.734376
 30
0.0
 11
-166.584539
 21
-60.098222
 31
0.0
  0
ARC
  5
3CB
100
AcDbEntity
  8
2
370
    50
100
AcDbCircle
 10
-166.784539
 20
-62.734376
 30
0.0
 40
0.2
100
AcDbArc
 50
279.5
 51
360.0
  0
ARC
  5
3CC
100
AcDbEntity
  8
2
370
    50
100
AcDbCircle
 10
-166.784539
 20
-60.098222
 30
0.0
 40
0.2
100
AcDbArc
 50
0.0
 51
99.5
  0
LINE
  5
3CD
100
AcDbEntity
  8
2
370
    50
100
AcDbLine
 10
-166.817548
 20
-59.900586
 30
0.0
 11
-180.417551
 21
-62.176844
 31
0.0
  0
LINE
  5
3CE
100
AcDbEntity
  8
2
370
    50
100
AcDbLine
 10
-179.784539
 20
-70.182516
 30
0.0
 11
-179.784539
 21
-69.168611
 31
0.0
  0
LINE
  5
3CF
100
AcDbEntity
  8
2
370
    50
100
AcDbLine
 10
-167.384539
 20
-68.107484
 30
0.0
 11
-167.384539
 21
-67.093562
 31
0.0
  0
LINE
  5
3D0
100
AcDbEntity
  8
2
370
    50
100
AcDbLine
 10
-180.584539
 20
-69.066235
 30
0.0
 11
-180.584539
 21
-66.430082
 31
0.0
  0
LINE
  5
3D1
100
AcDbEntity
  8
2
370
    50
100
AcDbLine
 10
-180.351529
 20
-69.263492
 30
0.0
 11
-166.751529
 21
-66.987633
 31
0.0
  0
ARC
  5
3D2
100
AcDbEntity
  8
2
370
    50
100
AcDbCircle
 10
-180.384539
 20
-69.066235
 30
0.0
 40
0.2
100
AcDbArc
 50
180.0
 51
279.5
  0
LINE
  5
3D3
100
AcDbEntity
  8
2
370
    50
100
AcDbLine
 10
-166.584539
 20
-66.790376
 30
0.0
 11
-166.584539
 21
-64.154222
 31
0.0
  0
ARC
  5
3D4
100
AcDbEntity
  8
2
370
    50
100
AcDbCircle
 10
-166.784539
 20
-66.790376
 30
0.0
 40
0.2
100
AcDbArc
 50
279.5
 51
360.0
  0
ARC
  5
3D5
100
AcDbEntity
  8
2
370
    50
100
AcDbCircle
 10
-166.784539
 20
-64.154222
 30
0.0
 40
0.2
100
AcDbArc
 50
0.0
 51
99.5
  0
LINE
  5
3D6
100
AcDbEntity
  8
2
370
    50
100
AcDbLine
 10
-166.817548
 20
-63.956586
 30
0.0
 11
-180.417551
 21
-66.232844
 31
0.0
  0
LINE
  5
3D7
100
AcDbEntity
  8
2
370
    50
100
AcDbLine
 10
-179.784539
 20
-74.238516
 30
0.0
 11
-179.784539
 21
-73.224611
 31
0.0
  0
LINE
  5
3D8
100
AcDbEntity
  8
2
370
    50
100
AcDbLine
 10
-167.384539
 20
-72.163484
 30
0.0
 11
-167.384539
 21
-71.149562
 31
0.0
  0
LINE
  5
3D9
100
AcDbEntity
  8
2
370
    50
100
AcDbLine
 10
-180.584539
 20
-73.122235
 30
0.0
 11
-180.584539
 21
-70.486082
 31
0.0
  0
LINE
  5
3DA
100
AcDbEntity
  8
2
370
    50
100
AcDbLine
 10
-180.351529
 20
-73.319492
 30
0.0
 11
-166.751529
 21
-71.043633
 31
0.0
  0
ARC
  5
3DB
100
AcDbEntity
  8
2
370
    50
100
AcDbCircle
 10
-180.384539
 20
-73.122235
 30
0.0
 40
0.2
100
AcDbArc
 50
180.0
 51
279.5
  0
LINE
  5
3DC
100
AcDbEntity
  8
2
370
    50
100
AcDbLine
 10
-166.584539
 20
-70.846376
 30
0.0
 11
-166.584539
 21
-68.210222
 31
0.0
  0
ARC
  5
3DD
100
AcDbEntity
  8
2
370
    50
100
AcDbCircle
 10
-166.784539
 20
-70.846376
 30
0.0
 40
0.2
100
AcDbArc
 50
279.5
 51
360.0
  0
ARC
  5
3DE
100
AcDbEntity
  8
2
370
    50
100
AcDbCircle
 10
-166.784539
 20
-68.210222
 30
0.0
 40
0.2
100
AcDbArc
 50
0.0
 51
99.5
  0
LINE
  5
3DF
100
AcDbEntity
  8
2
370
    50
100
AcDbLine
 10
-166.817548
 20
-68.012586
 30
0.0
 11
-180.417551
 21
-70.288844
 31
0.0
  0
LINE
  5
3E0
100
AcDbEntity
  8
2
370
    50
100
AcDbLine
 10
-179.784539
 20
-78.294516
 30
0.0
 11
-179.784539
 21
-77.280611
 31
0.0
  0
LINE
  5
3E1
100
AcDbEntity
  8
2
370
    50
100
AcDbLine
 10
-167.384539
 20
-76.219484
 30
0.0
 11
-167.384539
 21
-75.205562
 31
0.0
  0
LINE
  5
3E2
100
AcDbEntity
  8
2
370
    50
100
AcDbLine
 10
-180.584539
 20
-77.178235
 30
0.0
 11
-180.584539
 21
-74.542082
 31
0.0
  0
LINE
  5
3E3
100
AcDbEntity
  8
2
370
    50
100
AcDbLine
 10
-180.351529
 20
-77.375492
 30
0.0
 11
-166.751529
 21
-75.099633
 31
0.0
  0
ARC
  5
3E4
100
AcDbEntity
  8
2
370
    50
100
AcDbCircle
 10
-180.384539
 20
-77.178235
 30
0.0
 40
0.2
100
AcDbArc
 50
180.0
 51
279.5
  0
LINE
  5
3E5
100
AcDbEntity
  8
2
370
    50
100
AcDbLine
 10
-166.584539
 20
-74.902376
 30
0.0
 11
-166.584539
 21
-72.266222
 31
0.0
  0
ARC
  5
3E6
100
AcDbEntity
  8
2
370
    50
100
AcDbCircle
 10
-166.784539
 20
-74.902376
 30
0.0
 40
0.2
100
AcDbArc
 50
279.5
 51
360.0
  0
ARC
  5
3E7
100
AcDbEntity
  8
2
370
    50
100
AcDbCircle
 10
-166.784539
 20
-72.266222
 30
0.0
 40
0.2
100
AcDbArc
 50
0.0
 51
99.5
  0
LINE
  5
3E8
100
AcDbEntity
  8
2
370
    50
100
AcDbLine
 10
-166.817548
 20
-72.068586
 30
0.0
 11
-180.417551
 21
-74.344844
 31
0.0
  0
LINE
  5
3E9
100
AcDbEntity
  8
2
370
    50
100
AcDbLine
 10
-179.784539
 20
-82.350516
 30
0.0
 11
-179.784539
 21
-81.336611
 31
0.0
  0
LINE
  5
3EA
100
AcDbEntity
  8
2
370
    50
100
AcDbLine
 10
-167.384539
 20
-80.275484
 30
0.0
 11
-167.384539
 21
-79.261562
 31
0.0
  0
LINE
  5
3EB
100
AcDbEntity
  8
2
370
    50
100
AcDbLine
 10
-180.584539
 20
-81.234235
 30
0.0
 11
-180.584539
 21
-78.598082
 31
0.0
  0
LINE
  5
3EC
100
AcDbEntity
  8
2
370
    50
100
AcDbLine
 10
-180.351529
 20
-81.431492
 30
0.0
 11
-166.751529
 21
-79.155633
 31
0.0
  0
ARC
  5
3ED
100
AcDbEntity
  8
2
370
    50
100
AcDbCircle
 10
-180.384539
 20
-81.234235
 30
0.0
 40
0.2
100
AcDbArc
 50
180.0
 51
279.5
  0
LINE
  5
3EE
100
AcDbEntity
  8
2
370
    50
100
AcDbLine
 10
-166.584539
 20
-78.958376
 30
0.0
 11
-166.584539
 21
-76.322222
 31
0.0
  0
ARC
  5
3EF
100
AcDbEntity
  8
2
370
    50
100
AcDbCircle
 10
-166.784539
 20
-78.958376
 30
0.0
 40
0.2
100
AcDbArc
 50
279.5
 51
360.0
  0
ARC
  5
3F0
100
AcDbEntity
  8
2
370
    50
100
AcDbCircle
 10
-166.784539
 20
-76.322222
 30
0.0
 40
0.2
100
AcDbArc
 50
0.0
 51
99.5
  0
LINE
  5
3F1
100
AcDbEntity
  8
2
370
    50
100
AcDbLine
 10
-166.817548
 20
-76.124586
 30
0.0
 11
-180.417551
 21
-78.400844
 31
0.0
  0
ARC
  5
3F2
100
AcDbEntity
  8
2
370
    50
100
AcDbCircle
 10
-180.384539
 20
-78.598082
 30
0.0
 40
0.2
100
AcDbArc
 50
99.5
 51
180.0
  0
ARC
  5
3F3
100
AcDbEntity
  8
2
370
    50
100
AcDbCircle
 10
-180.384539
 20
-74.542082
 30
0.0
 40
0.2
100
AcDbArc
 50
99.5
 51
180.0
  0
ARC
  5
3F4
100
AcDbEntity
  8
2
370
    50
100
AcDbCircle
 10
-180.384539
 20
-70.486082
 30
0.0
 40
0.2
100
AcDbArc
 50
99.5
 51
180.0
  0
ARC
  5
3F5
100
AcDbEntity
  8
2
370
    50
100
AcDbCircle
 10
-180.384539
 20
-66.430082
 30
0.0
 40
0.2
100
AcDbArc
 50
99.5
 51
180.0
  0
ARC
  5
3F6
100
AcDbEntity
  8
2
370
    50
100
AcDbCircle
 10
-180.384539
 20
-62.374082
 30
0.0
 40
0.2
100
AcDbArc
 50
99.5
 51
180.0
  0
LINE
  5
3F7
100
AcDbEntity
  8
2
370
    50
100
AcDbLine
 10
-179.784539
 20
-62.070516
 30
0.0
 11
-179.784539
 21
-61.056611
 31
0.0
  0
LINE
  5
3F8
100
AcDbEntity
  8
2
370
    50
100
AcDbLine
 10
-167.384539
 20
-59.995484
 30
0.0
 11
-167.384539
 21
-58.981562
 31
0.0
  0
LINE
  5
3F9
100
AcDbEntity
  8
2
370
    50
100
AcDbLine
 10
-180.584539
 20
-60.954235
 30
0.0
 11
-180.584539
 21
-58.678376
 31
0.0
  0
LINE
  5
3FA
100
AcDbEntity
  8
2
370
    50
100
AcDbLine
 10
-180.351529
 20
-61.151492
 30
0.0
 11
-166.751529
 21
-58.875633
 31
0.0
  0
ARC
  5
3FB
100
AcDbEntity
  8
2
370
    50
100
AcDbCircle
 10
-180.384539
 20
-60.954235
 30
0.0
 40
0.2
100
AcDbArc
 50
180.0
 51
279.5
  0
ARC
  5
3FC
100
AcDbEntity
  8
2
370
    50
100
AcDbCircle
 10
-166.784539
 20
-58.678376
 30
0.0
 40
0.2
100
AcDbArc
 50
279.5
 51
360.0
  0
LINE
  5
3FD
100
AcDbEntity
  8
2
370
    50
100
AcDbLine
 10
-180.584539
 20
-83.528745
 30
0.0
 11
-180.584539
 21
-82.654082
 31
0.0
  0
LINE
  5
3FE
100
AcDbEntity
  8
2
370
    50
100
AcDbLine
 10
-167.035909
 20
-83.259222
 30
0.0
 11
-166.751529
 21
-83.211633
 31
0.0
  0
LINE
  5
3FF
100
AcDbEntity
  8
2
370
    50
100
AcDbLine
 10
-166.584539
 20
-83.014376
 30
0.0
 11
-166.584539
 21
-80.378222
 31
0.0
  0
ARC
  5
400
100
AcDbEntity
  8
2
370
    50
100
AcDbCircle
 10
-166.784539
 20
-83.014376
 30
0.0
 40
0.2
100
AcDbArc
 50
279.5
 51
360.0
  0
ARC
  5
401
100
AcDbEntity
  8
2
370
    50
100
AcDbCircle
 10
-166.784539
 20
-80.378222
 30
0.0
 40
0.2
100
AcDbArc
 50
0.0
 51
99.5
  0
LINE
  5
402
100
AcDbEntity
  8
2
370
    50
100
AcDbLine
 10
-166.817548
 20
-80.180586
 30
0.0
 11
-180.417551
 21
-82.456844
 31
0.0
  0
ARC
  5
403
100
AcDbEntity
  8
2
370
    50
100
AcDbCircle
 10
-180.384539
 20
-82.654082
 30
0.0
 40
0.2
100
AcDbArc
 50
99.5
 51
180.0
  0
ARC
  5
404
100
AcDbEntity
  8
2
370
    50
100
AcDbCircle
 10
-177.084539
 20
-78.919562
 30
0.0
 40
5.833333
100
AcDbArc
 50
233.130102
 51
306.869898
  0
ARC
  5
405
100
AcDbEntity
  8
2
370
    50
100
AcDbCircle
 10
-170.084539
 20
-88.252896
 30
0.0
 40
5.833333
100
AcDbArc
 50
53.130102
 51
126.869898
  0
ARC
  5
406
100
AcDbEntity
  8
2
370
    50
100
AcDbCircle
 10
-177.084539
 20
-88.252896
 30
0.0
 40
5.833333
100
AcDbArc
 50
53.130102
 51
126.869898
  0
POINT
  5
407
100
AcDbEntity
  8
2
370
    50
100
AcDbPoint
 10
-173.532089
 20
-58.67843
 30
0.0
  0
POINT
  5
408
100
AcDbEntity
  8
2
370
    50
100
AcDbPoint
 10
-173.532089
 20
-58.67843
 30
0.0
  0
LINE
  5
409
100
AcDbEntity
  8
2
370
    50
100
AcDbLine
 10
-198.031772
 20
131.220998
 30
0.0
 11
-198.031772
 21
171.720998
 31
0.0
  0
ARC
  5
40A
100
AcDbEntity
  8
2
370
    50
100
AcDbCircle
 10
-197.531772
 20
131.220998
 30
0.0
 40
0.5
100
AcDbArc
 50
180.0
 51
270.0
  0
LINE
  5
40B
100
AcDbEntity
  8
2
370
    50
100
AcDbLine
 10
-198.031953
 20
144.887225
 30
0.0
 11
-198.031953
 21
145.387225
 31
0.0
  0
ARC
  5
40C
100
AcDbEntity
  8
2
370
    50
100
AcDbCircle
 10
-196.031772
 20
171.720998
 30
0.0
 40
2.0
100
AcDbArc
 50
90.0
 51
180.0
  0
LINE
  5
40D
100
AcDbEntity
  8
2
370
    50
100
AcDbLine
 10
-198.031772
 20
131.220998
 30
0.0
 11
-198.031772
 21
145.221225
 31
0.0
  0
LINE
  5
40E
100
AcDbEntity
  8
2
370
    50
100
AcDbLine
 10
-193.275572
 20
130.720998
 30
0.0
 11
-197.531772
 21
130.720998
 31
0.0
  0
ARC
  5
40F
100
AcDbEntity
  8
2
370
    50
100
AcDbCircle
 10
-197.531772
 20
131.220998
 30
0.0
 40
0.5
100
AcDbArc
 50
180.0
 51
270.0
  0
LINE
  5
410
100
AcDbEntity
  8
2
370
    50
100
AcDbLine
 10
-198.031953
 20
144.887225
 30
0.0
 11
-198.031953
 21
145.387225
 31
0.0
  0
ARC
  5
411
100
AcDbEntity
  8
2
370
    50
100
AcDbCircle
 10
-196.031772
 20
171.720998
 30
0.0
 40
2.0
100
AcDbArc
 50
90.0
 51
180.0
  0
LINE
  5
412
100
AcDbEntity
  8
2
370
    50
100
AcDbLine
 10
-196.031772
 20
173.721002
 30
0.0
 11
-151.031953
 21
173.721002
 31
0.0
  0
LINE
  5
413
100
AcDbEntity
  8
2
370
    50
100
AcDbLine
 10
-149.031953
 20
131.220998
 30
0.0
 11
-149.031953
 21
171.721002
 31
0.0
  0
ARC
  5
414
100
AcDbEntity
  8
2
370
    50
100
AcDbCircle
 10
-151.031953
 20
171.721002
 30
0.0
 40
2.0
100
AcDbArc
 50
0.0
 51
90.0
  0
CIRCLE
  5
415
100
AcDbEntity
  8
2
370
    50
100
AcDbCircle
 10
-173.531953
 20
164.220998
 30
0.0
 40
4.0
  0
CIRCLE
  5
416
100
AcDbEntity
  8
2
370
    25
100
AcDbCircle
 10
-173.531953
 20
164.220998
 30
0.0
 40
3.5
  0
ARC
  5
417
100
AcDbEntity
  8
2
370
    50
100
AcDbCircle
 10
-149.531953
 20
131.220998
 30
0.0
 40
0.5
100
AcDbArc
 50
270.0
 51
360.0
  0
LINE
  5
418
100
AcDbEntity
  8
2
370
    50
100
AcDbLine
 10
-151.531542
 20
128.721212
 30
0.0
 11
-151.731542
 21
128.721212
 31
0.0
  0
LINE
  5
419
100
AcDbEntity
  8
2
370
    50
100
AcDbLine
 10
-151.531542
 20
128.721212
 30
0.0
 11
-151.731542
 21
128.721212
 31
0.0
  0
LINE
  5
41A
100
AcDbEntity
  8
2
370
    50
100
AcDbLine
 10
-151.531542
 20
128.721212
 30
0.0
 11
-151.731542
 21
128.721212
 31
0.0
  0
LINE
  5
41B
100
AcDbEntity
  8
2
370
    50
100
AcDbLine
 10
-151.531542
 20
128.721212
 30
0.0
 11
-151.731542
 21
128.721212
 31
0.0
  0
LINE
  5
41C
100
AcDbEntity
  8
2
370
    50
100
AcDbLine
 10
-149.032089
 20
128.221212
 30
0.0
 11
-149.281416
 21
128.221212
 31
0.0
  0
LINE
  5
41D
100
AcDbEntity
  8
2
370
    50
100
AcDbLine
 10
-197.581416
 20
128.721212
 30
0.0
 11
-187.803099
 21
128.721212
 31
0.0
  0
LINE
  5
41E
100
AcDbEntity
  8
2
370
    50
100
AcDbLine
 10
-197.581416
 20
128.721212
 30
0.0
 11
-197.131668
 21
128.721212
 31
0.0
  0
LINE
  5
41F
100
AcDbEntity
  8
2
370
    50
100
AcDbLine
 10
-198.032089
 20
128.221212
 30
0.0
 11
-197.781416
 21
128.221212
 31
0.0
  0
LINE
  5
420
100
AcDbEntity
  8
2
370
    50
100
AcDbLine
 10
-197.781416
 20
128.221212
 30
0.0
 11
-197.781416
 21
128.521212
 31
0.0
  0
LINE
  5
421
100
AcDbEntity
  8
2
370
    50
100
AcDbLine
 10
-149.281416
 20
128.221212
 30
0.0
 11
-149.281416
 21
128.521212
 31
0.0
  0
LINE
  5
422
100
AcDbEntity
  8
2
370
    50
100
AcDbLine
 10
-149.481416
 20
128.721212
 30
0.0
 11
-149.281416
 21
128.521212
 31
0.0
  0
LINE
  5
423
100
AcDbEntity
  8
2
370
    50
100
AcDbLine
 10
-197.581416
 20
128.721212
 30
0.0
 11
-197.781416
 21
128.521212
 31
0.0
  0
LINE
  5
424
100
AcDbEntity
  8
2
370
    50
100
AcDbLine
 10
-158.532089
 20
84.721342
 30
0.0
 11
-158.532089
 21
62.391074
 31
0.0
  0
LINE
  5
425
100
AcDbEntity
  8
2
370
    50
100
AcDbLine
 10
-188.532089
 20
84.721342
 30
0.0
 11
-188.532089
 21
62.391074
 31
0.0
  0
ELLIPSE
  5
426
100
AcDbEntity
  8
2
370
    50
100
AcDbEllipse
 10
-173.532089
 20
62.391074
 30
0.0
 11
15.0
 21
0.0
 31
0.0
210
0.0
220
0.0
230
1.0
 40
0.866038
 41
3.1415929999999999
 42
0.0
  0
ELLIPSE
  5
427
100
AcDbEntity
  8
2
370
    50
100
AcDbEllipse
 10
-173.532089
 20
63.28077
 30
0.0
 11
3.0
 21
0.0
 31
0.0
210
0.0
220
0.0
230
1.0
 40
0.5
 41
0.0
 42
6.2831849999999996
  0
ELLIPSE
  5
428
100
AcDbEntity
  8
2
370
    50
100
AcDbEllipse
 10
-173.532089
 20
65.532771
 30
0.0
 11
3.0
 21
0.0
 31
0.0
210
0.0
220
0.0
230
1.0
 40
0.5
 41
3.9906640000000002
 42
5.4341140000000001
  0
LINE
  5
429
100
AcDbEntity
  8
2
370
    50
100
AcDbLine
 10
-175.632089
 20
71.858706
 30
0.0
 11
-175.632089
 21
69.48077
 31
0.0
  0
LINE
  5
42A
100
AcDbEntity
  8
2
370
    50
100
AcDbLine
 10
-171.432089
 20
71.858706
 30
0.0
 11
-171.432089
 21
69.48077
 31
0.0
  0
ELLIPSE
  5
42B
100
AcDbEntity
  8
2
370
    50
100
AcDbEllipse
 10
-173.532089
 20
69.48077
 30
0.0
 11
2.1000000000000001
 21
0.0
 31
0.0
210
0.0
220
0.0
230
1.0
 40
0.5
 41
3.1415929999999999
 42
0.0
  0
LINE
  5
42C
100
AcDbEntity
  8
2
370
    50
100
AcDbLine
 10
-152.532416
 20
128.721212
 30
0.0
 11
-152.532416
 21
130.174255
 31
0.0
  0
LINE
  5
42D
100
AcDbEntity
  8
2
370
    50
100
AcDbLine
 10
-194.532416
 20
128.721212
 30
0.0
 11
-194.532416
 21
130.174255
 31
0.0
  0
ARC
  5
42E
100
AcDbEntity
  8
2
370
    50
100
AcDbCircle
 10
-165.532416
 20
130.174255
 30
0.0
 40
13.0
100
AcDbArc
 50
0.0
 51
2.410407
  0
ARC
  5
42F
100
AcDbEntity
  8
2
370
    50
100
AcDbCircle
 10
-181.532416
 20
130.174255
 30
0.0
 40
13.0
100
AcDbArc
 50
177.589593
 51
180.0
  0
LINE
  5
430
100
AcDbEntity
  8
2
370
    50
100
AcDbLine
 10
-198.032089
 20
128.221212
 30
0.0
 11
-198.032089
 21
12.921052
 31
0.0
  0
LINE
  5
431
100
AcDbEntity
  8
2
370
    50
100
AcDbLine
 10
-149.032089
 20
128.221212
 30
0.0
 11
-149.032089
 21
12.921052
 31
0.0
  0
LINE
  5
432
100
AcDbEntity
  8
2
370
    50
100
AcDbLine
 10
-158.532089
 20
124.720757
 30
0.0
 11
-158.532089
 21
62.391074
 31
0.0
  0
LINE
  5
433
100
AcDbEntity
  8
2
370
    50
100
AcDbLine
 10
-188.532089
 20
124.720757
 30
0.0
 11
-188.532089
 21
62.391074
 31
0.0
  0
ELLIPSE
  5
434
100
AcDbEntity
  8
2
370
    50
100
AcDbEllipse
 10
-173.532089
 20
124.720757
 30
0.0
 11
15.0
 21
0.0
 31
0.0
210
0.0
220
0.0
230
1.0
 40
0.866023
 41
0.0
 42
6.2831849999999996
  0
LINE
  5
435
100
AcDbEntity
  8
2
370
    50
100
AcDbLine
 10
-197.531772
 20
130.720998
 30
0.0
 11
-186.836071
 21
130.720998
 31
0.0
  0
LINE
  5
436
100
AcDbEntity
  8
2
370
    50
100
AcDbLine
 10
-160.228108
 20
130.720998
 30
0.0
 11
-149.531953
 21
130.720998
 31
0.0
  0
LINE
  5
437
100
AcDbEntity
  8
2
370
    50
100
AcDbLine
 10
-159.26108
 20
128.721212
 30
0.0
 11
-149.481416
 21
128.721212
 31
0.0
  0
ELLIPSE
  5
438
100
AcDbEntity
  8
2
370
    50
100
AcDbEllipse
 10
-173.532089
 20
84.721342
 30
0.0
 11
15.0
 21
0.0
 31
0.0
210
0.0
220
0.0
230
1.0
 40
0.866038
 41
4.5719279999999998
 42
0.0
  0
ELLIPSE
  5
439
100
AcDbEntity
  8
2
370
    50
100
AcDbEllipse
 10
-173.532089
 20
84.721342
 30
0.0
 11
15.0
 21
0.0
 31
0.0
210
0.0
220
0.0
230
1.0
 40
0.866038
 41
3.1415929999999999
 42
4.5719279999999998
  0
LINE
  5
43A
100
AcDbEntity
  8
2
370
    50
100
AcDbLine
 10
-171.432089
 20
69.90356
 30
0.0
 11
-175.632089
 21
69.90356
 31
0.0
  0
LINE
  5
43B
100
AcDbEntity
  8
2
370
    50
100
AcDbLine
 10
-185.032089
 20
103.22418
 30
0.0
 11
-185.032089
 21
98.109943
 31
0.0
  0
LINE
  5
43C
100
AcDbEntity
  8
2
370
    50
100
AcDbLine
 10
-162.032089
 20
103.22418
 30
0.0
 11
-162.032089
 21
98.109943
 31
0.0
  0
ELLIPSE
  5
43D
100
AcDbEntity
  8
2
370
    50
100
AcDbEllipse
 10
-173.532089
 20
98.109943
 30
0.0
 11
11.5
 21
0.0
 31
0.0
210
0.0
220
0.0
230
1.0
 40
0.422617
 41
0.0
 42
6.2831849999999996
  0
ELLIPSE
  5
43E
100
AcDbEntity
  8
2
370
    50
100
AcDbEllipse
 10
-173.532089
 20
103.22418
 30
0.0
 11
11.800000000000001
 21
0.0
 31
0.0
210
0.0
220
0.0
230
1.0
 40
0.50191
 41
6.0572109999999997
 42
3.3675670000000002
  0
ELLIPSE
  5
43F
100
AcDbEntity
  8
2
370
    50
100
AcDbEllipse
 10
-173.532089
 20
103.22418
 30
0.0
 11
11.5
 21
0.0
 31
0.0
210
0.0
220
0.0
230
1.0
 40
0.501908
 41
0.0
 42
3.1415929999999999
  0
ELLIPSE
  5
440
100
AcDbEntity
  8
2
370
    50
100
AcDbEllipse
 10
-173.532089
 20
98.155496
 30
0.0
 11
9.4499999999999993
 21
0.0
 31
0.0
210
0.0
220
0.0
230
1.0
 40
0.422618
 41
0.0
 42
6.2831849999999996
  0
ELLIPSE
  5
441
100
AcDbEntity
  8
2
370
    50
100
AcDbEllipse
 10
-173.532089
 20
93.720726
 30
0.0
 11
15.0
 21
0.0
 31
0.0
210
0.0
220
0.0
230
1.0
 40
0.866025
 41
3.785094
 42
5.6396839999999999
  0
ELLIPSE
  5
442
100
AcDbEntity
  8
2
370
    50
100
AcDbEllipse
 10
-173.532089
 20
95.820766
 30
0.0
 11
15.0
 21
0.0
 31
0.0
210
0.0
220
0.0
230
1.0
 40
0.866028
 41
3.785094
 42
5.6396839999999999
  0
LINE
  5
443
100
AcDbEntity
  8
2
370
    50
100
AcDbLine
 10
-161.532089
 20
85.926497
 30
0.0
 11
-161.532089
 21
88.026514
 31
0.0
  0
LINE
  5
444
100
AcDbEntity
  8
2
370
    50
100
AcDbLine
 10
-185.532089
 20
85.926497
 30
0.0
 11
-185.532089
 21
88.026514
 31
0.0
  0
LINE
  5
445
100
AcDbEntity
  8
2
370
    50
100
AcDbLine
 10
-161.632089
 20
87.91236
 30
0.0
 11
-161.632089
 21
86.150195
 31
0.0
  0
LINE
  5
446
100
AcDbEntity
  8
2
370
    50
100
AcDbLine
 10
-185.432089
 20
87.91236
 30
0.0
 11
-185.432089
 21
86.150195
 31
0.0
  0
ELLIPSE
  5
447
100
AcDbEntity
  8
2
370
    50
100
AcDbEllipse
 10
-173.532089
 20
93.770726
 30
0.0
 11
14.800000000000001
 21
0.0
 31
0.0
210
0.0
220
0.0
230
1.0
 40
0.866025
 41
3.7783060000000002
 42
5.6464720000000002
  0
CIRCLE
  5
448
100
AcDbEntity
  8
2
370
    50
100
AcDbCircle
 10
-173.531621
 20
148.887393
 30
0.0
 40
4.0
  0
LINE
  5
449
100
AcDbEntity
  8
2
370
    25
100
AcDbLine
 10
-173.531621
 20
144.887393
 30
0.0
 11
-169.531621
 21
148.887393
 31
0.0
  0
LINE
  5
44A
100
AcDbEntity
  8
2
370
    25
100
AcDbLine
 10
-173.531621
 20
147.008713
 30
0.0
 11
-169.92439
 21
150.615944
 31
0.0
  0
LINE
  5
44B
100
AcDbEntity
  8
2
370
    25
100
AcDbLine
 10
-173.531621
 20
149.130033
 30
0.0
 11
-170.827117
 21
151.834537
 31
0.0
  0
LINE
  5
44C
100
AcDbEntity
  8
2
370
    25
100
AcDbLine
 10
-173.531621
 20
151.251354
 30
0.0
 11
-172.143986
 21
152.638988
 31
0.0
  0
HATCH
  5
44D
100
AcDbEntity
  8
2
370
    25
100
AcDbHatch
 10
0.0
 20
0.0
 30
0.0
210
0.0
220
0.0
230
1.0
  2
_U
 70
     0
 71
     1
 91
        1
 92
        1
 93
        2
 72
     2
 10
-173.531621
 20
148.887393
 40
4.0
 50
90.0
 51
270.0
 73
     1
 72
     1
 10
-173.531621
 20
144.887393
 11
-173.531621
 21
152.887393
 97
        2
330
0
330
0
 75
     0
 76
     0
 52
45.0
 41
1.0
 77
     0
 78
     1
 53
45.0
 43
0.0
 44
0.0
 45
-0.353553
 46
0.353553
 79
     0
 98
        1
 10
0.0
 20
0.0
  0
LINE
  5
44E
100
AcDbEntity
  8
2
370
    50
100
AcDbLine
 10
-173.531621
 20
152.887393
 30
0.0
 11
-173.531621
 21
144.887393
 31
0.0
  0
POINT
  5
44F
100
AcDbEntity
  8
2
370
    50
100
AcDbPoint
 10
-173.531953
 20
164.220998
 30
0.0
  0
POINT
  5
450
100
AcDbEntity
  8
2
370
    50
100
AcDbPoint
 10
-173.531863
 20
173.721002
 30
0.0
  0
POINT
  5
451
100
AcDbEntity
  8
2
370
    50
100
AcDbPoint
 10
-173.531863
 20
173.721002
 30
0.0
  0
LINE
  5
452
100
AcDbEntity
  8
2
370
    50
100
AcDbLine
 10
155.254678
 20
-110.764292
 30
0.0
 11
155.254678
 21
-105.441642
 31
0.0
  0
LINE
  5
453
100
AcDbEntity
  8
2
370
    50
100
AcDbLine
 10
167.254678
 20
-110.764292
 30
0.0
 11
167.254678
 21
-105.441642
 31
0.0
  0
LINE
  5
454
100
AcDbEntity
  8
2
370
    50
100
AcDbLine
 10
163.652594
 20
-105.441642
 30
0.0
 11
163.652594
 21
-110.764292
 31
0.0
  0
LINE
  5
455
100
AcDbEntity
  8
2
370
    50
100
AcDbLine
 10
164.81886
 20
-105.441642
 30
0.0
 11
164.81886
 21
-110.764292
 31
0.0
  0
LINE
  5
456
100
AcDbEntity
  8
2
370
    50
100
AcDbLine
 10
167.216776
 20
-105.441642
 30
0.0
 11
167.216776
 21
-110.764292
 31
0.0
  0
LINE
  5
457
100
AcDbEntity
  8
2
370
    50
100
AcDbLine
 10
166.754678
 20
-111.052967
 30
0.0
 11
167.254678
 21
-110.764292
 31
0.0
  0
LINE
  5
458
100
AcDbEntity
  8
2
370
    50
100
AcDbLine
 10
164.81886
 20
-110.764292
 30
0.0
 11
163.652594
 21
-110.764292
 31
0.0
  0
LINE
  5
459
100
AcDbEntity
  8
2
370
    50
100
AcDbLine
 10
155.254678
 20
-110.764292
 30
0.0
 11
155.754678
 21
-111.052967
 31
0.0
  0
LINE
  5
45A
100
AcDbEntity
  8
2
370
    50
100
AcDbLine
 10
155.254678
 20
-105.441642
 30
0.0
 11
155.754678
 21
-105.152967
 31
0.0
  0
ARC
  5
45B
100
AcDbEntity
  8
2
370
    50
100
AcDbCircle
 10
161.254678
 20
-100.949337
 30
0.0
 40
10.10363
100
AcDbArc
 50
270.0
 51
283.729133
  0
ARC
  5
45C
100
AcDbEntity
  8
2
370
    50
100
AcDbCircle
 10
161.254678
 20
-115.256597
 30
0.0
 40
10.10363
100
AcDbArc
 50
76.270867
 51
90.0
  0
LINE
  5
45D
100
AcDbEntity
  8
2
370
    50
100
AcDbLine
 10
164.81886
 20
-105.441642
 30
0.0
 11
163.652594
 21
-105.441642
 31
0.0
  0
LINE
  5
45E
100
AcDbEntity
  8
2
370
    50
100
AcDbLine
 10
167.254678
 20
-110.764292
 30
0.0
 11
167.216776
 21
-110.764292
 31
0.0
  0
ARC
  5
45F
100
AcDbEntity
  8
2
370
    50
100
AcDbCircle
 10
166.017818
 20
-108.418806
 30
0.0
 40
2.634161
100
AcDbArc
 50
242.924933
 51
297.075067
  0
ARC
  5
460
100
AcDbEntity
  8
2
370
    50
100
AcDbCircle
 10
166.017818
 20
-107.787128
 30
0.0
 40
2.634161
100
AcDbArc
 50
62.924933
 51
117.075067
  0
LINE
  5
461
100
AcDbEntity
  8
2
370
    50
100
AcDbLine
 10
166.754678
 20
-105.152967
 30
0.0
 11
167.254678
 21
-105.441642
 31
0.0
  0
ARC
  5
462
100
AcDbEntity
  8
2
370
    50
100
AcDbCircle
 10
161.254678
 20
-100.949337
 30
0.0
 40
10.10363
100
AcDbArc
 50
256.270867
 51
270.0
  0
LINE
  5
463
100
AcDbEntity
  8
2
370
    50
100
AcDbLine
 10
157.690496
 20
-110.764292
 30
0.0
 11
158.856762
 21
-110.764292
 31
0.0
  0
ARC
  5
464
100
AcDbEntity
  8
2
370
    50
100
AcDbCircle
 10
156.491538
 20
-108.418806
 30
0.0
 40
2.634161
100
AcDbArc
 50
242.924933
 51
297.075067
  0
LINE
  5
465
100
AcDbEntity
  8
2
370
    50
100
AcDbLine
 10
155.29258
 20
-110.764292
 30
0.0
 11
155.254678
 21
-110.764292
 31
0.0
  0
LINE
  5
466
100
AcDbEntity
  8
2
370
    50
100
AcDbLine
 10
155.754678
 20
-111.052967
 30
0.0
 11
166.754678
 21
-111.052967
 31
0.0
  0
LINE
  5
467
100
AcDbEntity
  8
2
370
    50
100
AcDbLine
 10
154.654678
 20
-140.052967
 30
0.0
 11
161.254678
 21
-140.052967
 31
0.0
  0
LINE
  5
468
100
AcDbEntity
  8
2
370
    50
100
AcDbLine
 10
154.654678
 20
-134.552967
 30
0.0
 11
161.254678
 21
-134.552967
 31
0.0
  0
LINE
  5
469
100
AcDbEntity
  8
2
370
    50
100
AcDbLine
 10
154.654678
 20
-132.552967
 30
0.0
 11
161.254678
 21
-132.552967
 31
0.0
  0
LINE
  5
46A
100
AcDbEntity
  8
2
370
    50
100
AcDbLine
 10
154.654678
 20
-127.552967
 30
0.0
 11
161.254678
 21
-127.552967
 31
0.0
  0
LINE
  5
46B
100
AcDbEntity
  8
2
370
    50
100
AcDbLine
 10
154.654678
 20
-125.552967
 30
0.0
 11
161.254678
 21
-125.552967
 31
0.0
  0
LINE
  5
46C
100
AcDbEntity
  8
2
370
    50
100
AcDbLine
 10
154.654678
 20
-120.552967
 30
0.0
 11
161.254678
 21
-120.552967
 31
0.0
  0
LINE
  5
46D
100
AcDbEntity
  8
2
370
    50
100
AcDbLine
 10
154.654678
 20
-118.552967
 30
0.0
 11
161.254678
 21
-118.552967
 31
0.0
  0
LINE
  5
46E
100
AcDbEntity
  8
2
370
    50
100
AcDbLine
 10
154.254678
 20
-139.252967
 30
0.0
 11
154.254678
 21
-135.352967
 31
0.0
  0
LINE
  5
46F
100
AcDbEntity
  8
2
370
    50
100
AcDbLine
 10
154.254678
 20
-131.752967
 30
0.0
 11
154.254678
 21
-128.352967
 31
0.0
  0
LINE
  5
470
100
AcDbEntity
  8
2
370
    50
100
AcDbLine
 10
154.254678
 20
-124.752967
 30
0.0
 11
154.254678
 21
-121.352967
 31
0.0
  0
LINE
  5
471
100
AcDbEntity
  8
2
370
    50
100
AcDbLine
 10
154.254678
 20
-117.752967
 30
0.0
 11
154.254678
 21
-111.852967
 31
0.0
  0
LINE
  5
472
100
AcDbEntity
  8
2
370
    50
100
AcDbLine
 10
154.654678
 20
-120.552967
 30
0.0
 11
154.654678
 21
-118.552967
 31
0.0
  0
LINE
  5
473
100
AcDbEntity
  8
2
370
    50
100
AcDbLine
 10
154.654678
 20
-134.552967
 30
0.0
 11
154.654678
 21
-132.552967
 31
0.0
  0
LINE
  5
474
100
AcDbEntity
  8
2
370
    50
100
AcDbLine
 10
154.654678
 20
-127.552967
 30
0.0
 11
154.654678
 21
-125.552967
 31
0.0
  0
ARC
  5
475
100
AcDbEntity
  8
2
370
    50
100
AcDbCircle
 10
155.254678
 20
-117.752967
 30
0.0
 40
1.0
100
AcDbArc
 50
180.0
 51
233.130102
  0
ARC
  5
476
100
AcDbEntity
  8
2
370
    50
100
AcDbCircle
 10
155.254678
 20
-121.352967
 30
0.0
 40
1.0
100
AcDbArc
 50
126.869898
 51
180.0
  0
ARC
  5
477
100
AcDbEntity
  8
2
370
    50
100
AcDbCircle
 10
155.254678
 20
-124.752967
 30
0.0
 40
1.0
100
AcDbArc
 50
180.0
 51
233.130102
  0
ARC
  5
478
100
AcDbEntity
  8
2
370
    50
100
AcDbCircle
 10
155.254678
 20
-128.352967
 30
0.0
 40
1.0
100
AcDbArc
 50
126.869898
 51
180.0
  0
ARC
  5
479
100
AcDbEntity
  8
2
370
    50
100
AcDbCircle
 10
155.254678
 20
-131.752967
 30
0.0
 40
1.0
100
AcDbArc
 50
180.0
 51
233.130102
  0
ARC
  5
47A
100
AcDbEntity
  8
2
370
    50
100
AcDbCircle
 10
155.254678
 20
-135.352967
 30
0.0
 40
1.0
100
AcDbArc
 50
126.869898
 51
180.0
  0
ARC
  5
47B
100
AcDbEntity
  8
2
370
    50
100
AcDbCircle
 10
155.254678
 20
-139.252967
 30
0.0
 40
1.0
100
AcDbArc
 50
180.0
 51
233.130102
  0
LINE
  5
47C
100
AcDbEntity
  8
2
370
    50
100
AcDbLine
 10
167.854678
 20
-140.052967
 30
0.0
 11
161.254678
 21
-140.052967
 31
0.0
  0
ARC
  5
47D
100
AcDbEntity
  8
2
370
    50
100
AcDbCircle
 10
167.254678
 20
-139.252967
 30
0.0
 40
1.0
100
AcDbArc
 50
306.869898
 51
360.0
  0
LINE
  5
47E
100
AcDbEntity
  8
2
370
    50
100
AcDbLine
 10
168.254678
 20
-139.252967
 30
0.0
 11
168.254678
 21
-135.352967
 31
0.0
  0
ARC
  5
47F
100
AcDbEntity
  8
2
370
    50
100
AcDbCircle
 10
167.254678
 20
-135.352967
 30
0.0
 40
1.0
100
AcDbArc
 50
360.0
 51
53.130102
  0
LINE
  5
480
100
AcDbEntity
  8
2
370
    50
100
AcDbLine
 10
167.854678
 20
-134.552967
 30
0.0
 11
167.854678
 21
-132.552967
 31
0.0
  0
LINE
  5
481
100
AcDbEntity
  8
2
370
    50
100
AcDbLine
 10
167.854678
 20
-134.552967
 30
0.0
 11
161.254678
 21
-134.552967
 31
0.0
  0
LINE
  5
482
100
AcDbEntity
  8
2
370
    50
100
AcDbLine
 10
167.854678
 20
-132.552967
 30
0.0
 11
161.254678
 21
-132.552967
 31
0.0
  0
ARC
  5
483
100
AcDbEntity
  8
2
370
    50
100
AcDbCircle
 10
167.254678
 20
-131.752967
 30
0.0
 40
1.0
100
AcDbArc
 50
306.869898
 51
360.0
  0
LINE
  5
484
100
AcDbEntity
  8
2
370
    50
100
AcDbLine
 10
168.254678
 20
-131.752967
 30
0.0
 11
168.254678
 21
-128.352967
 31
0.0
  0
ARC
  5
485
100
AcDbEntity
  8
2
370
    50
100
AcDbCircle
 10
167.254678
 20
-128.352967
 30
0.0
 40
1.0
100
AcDbArc
 50
360.0
 51
53.130102
  0
LINE
  5
486
100
AcDbEntity
  8
2
370
    50
100
AcDbLine
 10
167.854678
 20
-127.552967
 30
0.0
 11
161.254678
 21
-127.552967
 31
0.0
  0
LINE
  5
487
100
AcDbEntity
  8
2
370
    50
100
AcDbLine
 10
167.854678
 20
-127.552967
 30
0.0
 11
167.854678
 21
-125.552967
 31
0.0
  0
LINE
  5
488
100
AcDbEntity
  8
2
370
    50
100
AcDbLine
 10
167.854678
 20
-125.552967
 30
0.0
 11
161.254678
 21
-125.552967
 31
0.0
  0
ARC
  5
489
100
AcDbEntity
  8
2
370
    50
100
AcDbCircle
 10
167.254678
 20
-124.752967
 30
0.0
 40
1.0
100
AcDbArc
 50
306.869898
 51
360.0
  0
LINE
  5
48A
100
AcDbEntity
  8
2
370
    50
100
AcDbLine
 10
168.254678
 20
-124.752967
 30
0.0
 11
168.254678
 21
-121.352967
 31
0.0
  0
ARC
  5
48B
100
AcDbEntity
  8
2
370
    50
100
AcDbCircle
 10
167.254678
 20
-121.352967
 30
0.0
 40
1.0
100
AcDbArc
 50
360.0
 51
53.130102
  0
LINE
  5
48C
100
AcDbEntity
  8
2
370
    50
100
AcDbLine
 10
167.854678
 20
-120.552967
 30
0.0
 11
161.254678
 21
-120.552967
 31
0.0
  0
LINE
  5
48D
100
AcDbEntity
  8
2
370
    50
100
AcDbLine
 10
167.854678
 20
-120.552967
 30
0.0
 11
167.854678
 21
-118.552967
 31
0.0
  0
LINE
  5
48E
100
AcDbEntity
  8
2
370
    50
100
AcDbLine
 10
167.854678
 20
-118.552967
 30
0.0
 11
161.254678
 21
-118.552967
 31
0.0
  0
ARC
  5
48F
100
AcDbEntity
  8
2
370
    50
100
AcDbCircle
 10
167.254678
 20
-117.752967
 30
0.0
 40
1.0
100
AcDbArc
 50
306.869898
 51
360.0
  0
LINE
  5
490
100
AcDbEntity
  8
2
370
    50
100
AcDbLine
 10
168.254678
 20
-117.752967
 30
0.0
 11
168.254678
 21
-111.852967
 31
0.0
  0
ARC
  5
491
100
AcDbEntity
  8
2
370
    50
100
AcDbCircle
 10
167.254678
 20
-111.852967
 30
0.0
 40
1.0
100
AcDbArc
 50
360.0
 51
53.130102
  0
LINE
  5
492
100
AcDbEntity
  8
2
370
    50
100
AcDbLine
 10
154.654678
 20
-111.052967
 30
0.0
 11
167.854678
 21
-111.052967
 31
0.0
  0
ARC
  5
493
100
AcDbEntity
  8
2
370
    50
100
AcDbCircle
 10
155.254678
 20
-111.852967
 30
0.0
 40
1.0
100
AcDbArc
 50
126.869898
 51
180.0
  0
LINE
  5
494
100
AcDbEntity
  8
2
370
    50
100
AcDbLine
 10
154.804678
 20
-147.400974
 30
0.0
 11
154.804678
 21
-140.052967
 31
0.0
  0
LINE
  5
495
100
AcDbEntity
  8
2
370
    50
100
AcDbLine
 10
167.704678
 20
-147.400974
 30
0.0
 11
167.704678
 21
-140.052967
 31
0.0
  0
ARC
  5
496
100
AcDbEntity
  8
2
370
    50
100
AcDbCircle
 10
161.254678
 20
-115.256597
 30
0.0
 40
10.10363
100
AcDbArc
 50
90.0
 51
103.729133
  0
LINE
  5
497
100
AcDbEntity
  8
2
370
    50
100
AcDbLine
 10
157.690496
 20
-105.441642
 30
0.0
 11
158.856762
 21
-105.441642
 31
0.0
  0
ARC
  5
498
100
AcDbEntity
  8
2
370
    50
100
AcDbCircle
 10
156.491538
 20
-107.787128
 30
0.0
 40
2.634161
100
AcDbArc
 50
62.924933
 51
117.075067
  0
LINE
  5
499
100
AcDbEntity
  8
2
370
    50
100
AcDbLine
 10
158.856762
 20
-105.441642
 30
0.0
 11
158.856762
 21
-110.764292
 31
0.0
  0
LINE
  5
49A
100
AcDbEntity
  8
2
370
    50
100
AcDbLine
 10
157.690496
 20
-105.441642
 30
0.0
 11
157.690496
 21
-110.764292
 31
0.0
  0
LINE
  5
49B
100
AcDbEntity
  8
2
370
    50
100
AcDbLine
 10
155.29258
 20
-105.441642
 30
0.0
 11
155.29258
 21
-110.764292
 31
0.0
  0
ARC
  5
49C
100
AcDbEntity
  8
2
370
    50
100
AcDbCircle
 10
158.029723
 20
-143.100914
 30
0.0
 40
5.375075
100
AcDbArc
 50
233.130102
 51
306.869898
  0
ARC
  5
49D
100
AcDbEntity
  8
2
370
    50
100
AcDbCircle
 10
164.479814
 20
-151.701034
 30
0.0
 40
5.375075
100
AcDbArc
 50
53.130102
 51
126.869898
  0
ARC
  5
49E
100
AcDbEntity
  8
2
370
    50
100
AcDbCircle
 10
158.029723
 20
-151.701034
 30
0.0
 40
5.375075
100
AcDbArc
 50
53.130102
 51
126.869898
  0
LINE
  5
49F
100
AcDbEntity
  8
2
370
    50
100
AcDbLine
 10
-171.47959
 20
-121.789708
 30
0.0
 11
-171.47959
 21
-116.467058
 31
0.0
  0
LINE
  5
4A0
100
AcDbEntity
  8
2
370
    50
100
AcDbLine
 10
-159.47959
 20
-121.789708
 30
0.0
 11
-159.47959
 21
-116.467058
 31
0.0
  0
LINE
  5
4A1
100
AcDbEntity
  8
2
370
    50
100
AcDbLine
 10
-163.081674
 20
-116.467058
 30
0.0
 11
-163.081674
 21
-121.789708
 31
0.0
  0
LINE
  5
4A2
100
AcDbEntity
  8
2
370
    50
100
AcDbLine
 10
-161.915408
 20
-116.467058
 30
0.0
 11
-161.915408
 21
-121.789708
 31
0.0
  0
LINE
  5
4A3
100
AcDbEntity
  8
2
370
    50
100
AcDbLine
 10
-159.517492
 20
-116.467058
 30
0.0
 11
-159.517492
 21
-121.789708
 31
0.0
  0
LINE
  5
4A4
100
AcDbEntity
  8
2
370
    50
100
AcDbLine
 10
-159.97959
 20
-122.078383
 30
0.0
 11
-159.47959
 21
-121.789708
 31
0.0
  0
LINE
  5
4A5
100
AcDbEntity
  8
2
370
    50
100
AcDbLine
 10
-161.915408
 20
-121.789708
 30
0.0
 11
-163.081674
 21
-121.789708
 31
0.0
  0
LINE
  5
4A6
100
AcDbEntity
  8
2
370
    50
100
AcDbLine
 10
-171.47959
 20
-121.789708
 30
0.0
 11
-170.97959
 21
-122.078383
 31
0.0
  0
LINE
  5
4A7
100
AcDbEntity
  8
2
370
    50
100
AcDbLine
 10
-171.47959
 20
-116.467058
 30
0.0
 11
-170.97959
 21
-116.178383
 31
0.0
  0
ARC
  5
4A8
100
AcDbEntity
  8
2
370
    50
100
AcDbCircle
 10
-165.47959
 20
-111.974753
 30
0.0
 40
10.10363
100
AcDbArc
 50
270.0
 51
283.729133
  0
ARC
  5
4A9
100
AcDbEntity
  8
2
370
    50
100
AcDbCircle
 10
-165.47959
 20
-126.282013
 30
0.0
 40
10.10363
100
AcDbArc
 50
76.270867
 51
90.0
  0
LINE
  5
4AA
100
AcDbEntity
  8
2
370
    50
100
AcDbLine
 10
-161.915408
 20
-116.467058
 30
0.0
 11
-163.081674
 21
-116.467058
 31
0.0
  0
LINE
  5
4AB
100
AcDbEntity
  8
2
370
    50
100
AcDbLine
 10
-159.47959
 20
-121.789708
 30
0.0
 11
-159.517492
 21
-121.789708
 31
0.0
  0
ARC
  5
4AC
100
AcDbEntity
  8
2
370
    50
100
AcDbCircle
 10
-160.71645
 20
-119.444222
 30
0.0
 40
2.634161
100
AcDbArc
 50
242.924933
 51
297.075067
  0
ARC
  5
4AD
100
AcDbEntity
  8
2
370
    50
100
AcDbCircle
 10
-160.71645
 20
-118.812544
 30
0.0
 40
2.634161
100
AcDbArc
 50
62.924933
 51
117.075067
  0
LINE
  5
4AE
100
AcDbEntity
  8
2
370
    50
100
AcDbLine
 10
-159.97959
 20
-116.178383
 30
0.0
 11
-159.47959
 21
-116.467058
 31
0.0
  0
ARC
  5
4AF
100
AcDbEntity
  8
2
370
    50
100
AcDbCircle
 10
-165.47959
 20
-111.974753
 30
0.0
 40
10.10363
100
AcDbArc
 50
256.270867
 51
270.0
  0
LINE
  5
4B0
100
AcDbEntity
  8
2
370
    50
100
AcDbLine
 10
-169.043772
 20
-121.789708
 30
0.0
 11
-167.877506
 21
-121.789708
 31
0.0
  0
ARC
  5
4B1
100
AcDbEntity
  8
2
370
    50
100
AcDbCircle
 10
-170.24273
 20
-119.444222
 30
0.0
 40
2.634161
100
AcDbArc
 50
242.924933
 51
297.075067
  0
LINE
  5
4B2
100
AcDbEntity
  8
2
370
    50
100
AcDbLine
 10
-171.441688
 20
-121.789708
 30
0.0
 11
-171.47959
 21
-121.789708
 31
0.0
  0
LINE
  5
4B3
100
AcDbEntity
  8
2
370
    50
100
AcDbLine
 10
-170.97959
 20
-122.078383
 30
0.0
 11
-159.97959
 21
-122.078383
 31
0.0
  0
LINE
  5
4B4
100
AcDbEntity
  8
2
370
    50
100
AcDbLine
 10
-172.07959
 20
-151.078383
 30
0.0
 11
-165.47959
 21
-151.078383
 31
0.0
  0
LINE
  5
4B5
100
AcDbEntity
  8
2
370
    50
100
AcDbLine
 10
-172.07959
 20
-145.578383
 30
0.0
 11
-165.47959
 21
-145.578383
 31
0.0
  0
LINE
  5
4B6
100
AcDbEntity
  8
2
370
    50
100
AcDbLine
 10
-172.07959
 20
-143.578383
 30
0.0
 11
-165.47959
 21
-143.578383
 31
0.0
  0
LINE
  5
4B7
100
AcDbEntity
  8
2
370
    50
100
AcDbLine
 10
-172.07959
 20
-138.578383
 30
0.0
 11
-165.47959
 21
-138.578383
 31
0.0
  0
LINE
  5
4B8
100
AcDbEntity
  8
2
370
    50
100
AcDbLine
 10
-172.07959
 20
-136.578383
 30
0.0
 11
-165.47959
 21
-136.578383
 31
0.0
  0
LINE
  5
4B9
100
AcDbEntity
  8
2
370
    50
100
AcDbLine
 10
-172.07959
 20
-131.578383
 30
0.0
 11
-165.47959
 21
-131.578383
 31
0.0
  0
LINE
  5
4BA
100
AcDbEntity
  8
2
370
    50
100
AcDbLine
 10
-172.07959
 20
-129.578383
 30
0.0
 11
-165.47959
 21
-129.578383
 31
0.0
  0
LINE
  5
4BB
100
AcDbEntity
  8
2
370
    50
100
AcDbLine
 10
-172.47959
 20
-150.278383
 30
0.0
 11
-172.47959
 21
-146.378383
 31
0.0
  0
LINE
  5
4BC
100
AcDbEntity
  8
2
370
    50
100
AcDbLine
 10
-172.47959
 20
-142.778383
 30
0.0
 11
-172.47959
 21
-139.378383
 31
0.0
  0
LINE
  5
4BD
100
AcDbEntity
  8
2
370
    50
100
AcDbLine
 10
-172.47959
 20
-135.778383
 30
0.0
 11
-172.47959
 21
-132.378383
 31
0.0
  0
LINE
  5
4BE
100
AcDbEntity
  8
2
370
    50
100
AcDbLine
 10
-172.47959
 20
-128.778383
 30
0.0
 11
-172.47959
 21
-122.878383
 31
0.0
  0
LINE
  5
4BF
100
AcDbEntity
  8
2
370
    50
100
AcDbLine
 10
-172.07959
 20
-131.578383
 30
0.0
 11
-172.07959
 21
-129.578383
 31
0.0
  0
LINE
  5
4C0
100
AcDbEntity
  8
2
370
    50
100
AcDbLine
 10
-172.07959
 20
-145.578383
 30
0.0
 11
-172.07959
 21
-143.578383
 31
0.0
  0
LINE
  5
4C1
100
AcDbEntity
  8
2
370
    50
100
AcDbLine
 10
-172.07959
 20
-138.578383
 30
0.0
 11
-172.07959
 21
-136.578383
 31
0.0
  0
ARC
  5
4C2
100
AcDbEntity
  8
2
370
    50
100
AcDbCircle
 10
-171.47959
 20
-128.778383
 30
0.0
 40
1.0
100
AcDbArc
 50
180.0
 51
233.130102
  0
ARC
  5
4C3
100
AcDbEntity
  8
2
370
    50
100
AcDbCircle
 10
-171.47959
 20
-132.378383
 30
0.0
 40
1.0
100
AcDbArc
 50
126.869898
 51
180.0
  0
ARC
  5
4C4
100
AcDbEntity
  8
2
370
    50
100
AcDbCircle
 10
-171.47959
 20
-135.778383
 30
0.0
 40
1.0
100
AcDbArc
 50
180.0
 51
233.130102
  0
ARC
  5
4C5
100
AcDbEntity
  8
2
370
    50
100
AcDbCircle
 10
-171.47959
 20
-139.378383
 30
0.0
 40
1.0
100
AcDbArc
 50
126.869898
 51
180.0
  0
ARC
  5
4C6
100
AcDbEntity
  8
2
370
    50
100
AcDbCircle
 10
-171.47959
 20
-142.778383
 30
0.0
 40
1.0
100
AcDbArc
 50
180.0
 51
233.130102
  0
ARC
  5
4C7
100
AcDbEntity
  8
2
370
    50
100
AcDbCircle
 10
-171.47959
 20
-146.378383
 30
0.0
 40
1.0
100
AcDbArc
 50
126.869898
 51
180.0
  0
ARC
  5
4C8
100
AcDbEntity
  8
2
370
    50
100
AcDbCircle
 10
-171.47959
 20
-150.278383
 30
0.0
 40
1.0
100
AcDbArc
 50
180.0
 51
233.130102
  0
LINE
  5
4C9
100
AcDbEntity
  8
2
370
    50
100
AcDbLine
 10
-158.87959
 20
-151.078383
 30
0.0
 11
-165.47959
 21
-151.078383
 31
0.0
  0
ARC
  5
4CA
100
AcDbEntity
  8
2
370
    50
100
AcDbCircle
 10
-159.47959
 20
-150.278383
 30
0.0
 40
1.0
100
AcDbArc
 50
306.869898
 51
360.0
  0
LINE
  5
4CB
100
AcDbEntity
  8
2
370
    50
100
AcDbLine
 10
-158.47959
 20
-150.278383
 30
0.0
 11
-158.47959
 21
-146.378383
 31
0.0
  0
ARC
  5
4CC
100
AcDbEntity
  8
2
370
    50
100
AcDbCircle
 10
-159.47959
 20
-146.378383
 30
0.0
 40
1.0
100
AcDbArc
 50
360.0
 51
53.130102
  0
LINE
  5
4CD
100
AcDbEntity
  8
2
370
    50
100
AcDbLine
 10
-158.87959
 20
-145.578383
 30
0.0
 11
-158.87959
 21
-143.578383
 31
0.0
  0
LINE
  5
4CE
100
AcDbEntity
  8
2
370
    50
100
AcDbLine
 10
-158.87959
 20
-145.578383
 30
0.0
 11
-165.47959
 21
-145.578383
 31
0.0
  0
LINE
  5
4CF
100
AcDbEntity
  8
2
370
    50
100
AcDbLine
 10
-158.87959
 20
-143.578383
 30
0.0
 11
-165.47959
 21
-143.578383
 31
0.0
  0
ARC
  5
4D0
100
AcDbEntity
  8
2
370
    50
100
AcDbCircle
 10
-159.47959
 20
-142.778383
 30
0.0
 40
1.0
100
AcDbArc
 50
306.869898
 51
360.0
  0
LINE
  5
4D1
100
AcDbEntity
  8
2
370
    50
100
AcDbLine
 10
-158.47959
 20
-142.778383
 30
0.0
 11
-158.47959
 21
-139.378383
 31
0.0
  0
ARC
  5
4D2
100
AcDbEntity
  8
2
370
    50
100
AcDbCircle
 10
-159.47959
 20
-139.378383
 30
0.0
 40
1.0
100
AcDbArc
 50
360.0
 51
53.130102
  0
LINE
  5
4D3
100
AcDbEntity
  8
2
370
    50
100
AcDbLine
 10
-158.87959
 20
-138.578383
 30
0.0
 11
-165.47959
 21
-138.578383
 31
0.0
  0
LINE
  5
4D4
100
AcDbEntity
  8
2
370
    50
100
AcDbLine
 10
-158.87959
 20
-138.578383
 30
0.0
 11
-158.87959
 21
-136.578383
 31
0.0
  0
LINE
  5
4D5
100
AcDbEntity
  8
2
370
    50
100
AcDbLine
 10
-158.87959
 20
-136.578383
 30
0.0
 11
-165.47959
 21
-136.578383
 31
0.0
  0
ARC
  5
4D6
100
AcDbEntity
  8
2
370
    50
100
AcDbCircle
 10
-159.47959
 20
-135.778383
 30
0.0
 40
1.0
100
AcDbArc
 50
306.869898
 51
360.0
  0
LINE
  5
4D7
100
AcDbEntity
  8
2
370
    50
100
AcDbLine
 10
-158.47959
 20
-135.778383
 30
0.0
 11
-158.47959
 21
-132.378383
 31
0.0
  0
ARC
  5
4D8
100
AcDbEntity
  8
2
370
    50
100
AcDbCircle
 10
-159.47959
 20
-132.378383
 30
0.0
 40
1.0
100
AcDbArc
 50
360.0
 51
53.130102
  0
LINE
  5
4D9
100
AcDbEntity
  8
2
370
    50
100
AcDbLine
 10
-158.87959
 20
-131.578383
 30
0.0
 11
-165.47959
 21
-131.578383
 31
0.0
  0
LINE
  5
4DA
100
AcDbEntity
  8
2
370
    50
100
AcDbLine
 10
-158.87959
 20
-131.578383
 30
0.0
 11
-158.87959
 21
-129.578383
 31
0.0
  0
LINE
  5
4DB
100
AcDbEntity
  8
2
370
    50
100
AcDbLine
 10
-158.87959
 20
-129.578383
 30
0.0
 11
-165.47959
 21
-129.578383
 31
0.0
  0
ARC
  5
4DC
100
AcDbEntity
  8
2
370
    50
100
AcDbCircle
 10
-159.47959
 20
-128.778383
 30
0.0
 40
1.0
100
AcDbArc
 50
306.869898
 51
360.0
  0
LINE
  5
4DD
100
AcDbEntity
  8
2
370
    50
100
AcDbLine
 10
-158.47959
 20
-128.778383
 30
0.0
 11
-158.47959
 21
-122.878383
 31
0.0
  0
ARC
  5
4DE
100
AcDbEntity
  8
2
370
    50
100
AcDbCircle
 10
-159.47959
 20
-122.878383
 30
0.0
 40
1.0
100
AcDbArc
 50
360.0
 51
53.130102
  0
LINE
  5
4DF
100
AcDbEntity
  8
2
370
    50
100
AcDbLine
 10
-172.07959
 20
-122.078383
 30
0.0
 11
-158.87959
 21
-122.078383
 31
0.0
  0
ARC
  5
4E0
100
AcDbEntity
  8
2
370
    50
100
AcDbCircle
 10
-171.47959
 20
-122.878383
 30
0.0
 40
1.0
100
AcDbArc
 50
126.869898
 51
180.0
  0
LINE
  5
4E1
100
AcDbEntity
  8
2
370
    50
100
AcDbLine
 10
-171.92959
 20
-158.42639
 30
0.0
 11
-171.92959
 21
-151.078383
 31
0.0
  0
LINE
  5
4E2
100
AcDbEntity
  8
2
370
    50
100
AcDbLine
 10
-159.02959
 20
-158.42639
 30
0.0
 11
-159.02959
 21
-151.078383
 31
0.0
  0
ARC
  5
4E3
100
AcDbEntity
  8
2
370
    50
100
AcDbCircle
 10
-165.47959
 20
-126.282013
 30
0.0
 40
10.10363
100
AcDbArc
 50
90.0
 51
103.729133
  0
LINE
  5
4E4
100
AcDbEntity
  8
2
370
    50
100
AcDbLine
 10
-169.043772
 20
-116.467058
 30
0.0
 11
-167.877506
 21
-116.467058
 31
0.0
  0
ARC
  5
4E5
100
AcDbEntity
  8
2
370
    50
100
AcDbCircle
 10
-170.24273
 20
-118.812544
 30
0.0
 40
2.634161
100
AcDbArc
 50
62.924933
 51
117.075067
  0
LINE
  5
4E6
100
AcDbEntity
  8
2
370
    50
100
AcDbLine
 10
-167.877506
 20
-116.467058
 30
0.0
 11
-167.877506
 21
-121.789708
 31
0.0
  0
LINE
  5
4E7
100
AcDbEntity
  8
2
370
    50
100
AcDbLine
 10
-169.043772
 20
-116.467058
 30
0.0
 11
-169.043772
 21
-121.789708
 31
0.0
  0
LINE
  5
4E8
100
AcDbEntity
  8
2
370
    50
100
AcDbLine
 10
-171.441688
 20
-116.467058
 30
0.0
 11
-171.441688
 21
-121.789708
 31
0.0
  0
ARC
  5
4E9
100
AcDbEntity
  8
2
370
    50
100
AcDbCircle
 10
-168.704545
 20
-154.12633
 30
0.0
 40
5.375075
100
AcDbArc
 50
233.130102
 51
306.869898
  0
ARC
  5
4EA
100
AcDbEntity
  8
2
370
    50
100
AcDbCircle
 10
-162.254454
 20
-162.72645
 30
0.0
 40
5.375075
100
AcDbArc
 50
53.130102
 51
126.869898
  0
ARC
  5
4EB
100
AcDbEntity
  8
2
370
    50
100
AcDbCircle
 10
-168.704545
 20
-162.72645
 30
0.0
 40
5.375075
100
AcDbArc
 50
53.130102
 51
126.869898
  0
LINE
  5
4EC
100
AcDbEntity
  8
2
370
    50
100
AcDbLine
 10
-187.47959
 20
-111.78958
 30
0.0
 11
-187.47959
 21
-106.46693
 31
0.0
  0
LINE
  5
4ED
100
AcDbEntity
  8
2
370
    50
100
AcDbLine
 10
-175.47959
 20
-111.78958
 30
0.0
 11
-175.47959
 21
-106.46693
 31
0.0
  0
LINE
  5
4EE
100
AcDbEntity
  8
2
370
    50
100
AcDbLine
 10
-179.081674
 20
-106.46693
 30
0.0
 11
-179.081674
 21
-111.78958
 31
0.0
  0
LINE
  5
4EF
100
AcDbEntity
  8
2
370
    50
100
AcDbLine
 10
-177.915408
 20
-106.46693
 30
0.0
 11
-177.915408
 21
-111.78958
 31
0.0
  0
LINE
  5
4F0
100
AcDbEntity
  8
2
370
    50
100
AcDbLine
 10
-175.517492
 20
-106.46693
 30
0.0
 11
-175.517492
 21
-111.78958
 31
0.0
  0
LINE
  5
4F1
100
AcDbEntity
  8
2
370
    50
100
AcDbLine
 10
-175.97959
 20
-112.078255
 30
0.0
 11
-175.47959
 21
-111.78958
 31
0.0
  0
LINE
  5
4F2
100
AcDbEntity
  8
2
370
    50
100
AcDbLine
 10
-177.915408
 20
-111.78958
 30
0.0
 11
-179.081674
 21
-111.78958
 31
0.0
  0
LINE
  5
4F3
100
AcDbEntity
  8
2
370
    50
100
AcDbLine
 10
-187.47959
 20
-111.78958
 30
0.0
 11
-186.97959
 21
-112.078255
 31
0.0
  0
LINE
  5
4F4
100
AcDbEntity
  8
2
370
    50
100
AcDbLine
 10
-187.47959
 20
-106.46693
 30
0.0
 11
-186.97959
 21
-106.178255
 31
0.0
  0
ARC
  5
4F5
100
AcDbEntity
  8
2
370
    50
100
AcDbCircle
 10
-181.47959
 20
-101.974625
 30
0.0
 40
10.10363
100
AcDbArc
 50
270.0
 51
283.729133
  0
ARC
  5
4F6
100
AcDbEntity
  8
2
370
    50
100
AcDbCircle
 10
-181.47959
 20
-116.281885
 30
0.0
 40
10.10363
100
AcDbArc
 50
76.270867
 51
90.0
  0
LINE
  5
4F7
100
AcDbEntity
  8
2
370
    50
100
AcDbLine
 10
-177.915408
 20
-106.46693
 30
0.0
 11
-179.081674
 21
-106.46693
 31
0.0
  0
LINE
  5
4F8
100
AcDbEntity
  8
2
370
    50
100
AcDbLine
 10
-175.47959
 20
-111.78958
 30
0.0
 11
-175.517492
 21
-111.78958
 31
0.0
  0
ARC
  5
4F9
100
AcDbEntity
  8
2
370
    50
100
AcDbCircle
 10
-176.71645
 20
-109.444094
 30
0.0
 40
2.634161
100
AcDbArc
 50
242.924933
 51
297.075067
  0
ARC
  5
4FA
100
AcDbEntity
  8
2
370
    50
100
AcDbCircle
 10
-176.71645
 20
-108.812416
 30
0.0
 40
2.634161
100
AcDbArc
 50
62.924933
 51
117.075067
  0
LINE
  5
4FB
100
AcDbEntity
  8
2
370
    50
100
AcDbLine
 10
-175.97959
 20
-106.178255
 30
0.0
 11
-175.47959
 21
-106.46693
 31
0.0
  0
ARC
  5
4FC
100
AcDbEntity
  8
2
370
    50
100
AcDbCircle
 10
-181.47959
 20
-101.974625
 30
0.0
 40
10.10363
100
AcDbArc
 50
256.270867
 51
270.0
  0
LINE
  5
4FD
100
AcDbEntity
  8
2
370
    50
100
AcDbLine
 10
-185.043772
 20
-111.78958
 30
0.0
 11
-183.877506
 21
-111.78958
 31
0.0
  0
ARC
  5
4FE
100
AcDbEntity
  8
2
370
    50
100
AcDbCircle
 10
-186.24273
 20
-109.444094
 30
0.0
 40
2.634161
100
AcDbArc
 50
242.924933
 51
297.075067
  0
LINE
  5
4FF
100
AcDbEntity
  8
2
370
    50
100
AcDbLine
 10
-187.441688
 20
-111.78958
 30
0.0
 11
-187.47959
 21
-111.78958
 31
0.0
  0
LINE
  5
500
100
AcDbEntity
  8
2
370
    50
100
AcDbLine
 10
-186.97959
 20
-112.078255
 30
0.0
 11
-175.97959
 21
-112.078255
 31
0.0
  0
LINE
  5
501
100
AcDbEntity
  8
2
370
    50
100
AcDbLine
 10
-188.07959
 20
-141.078255
 30
0.0
 11
-181.47959
 21
-141.078255
 31
0.0
  0
LINE
  5
502
100
AcDbEntity
  8
2
370
    50
100
AcDbLine
 10
-188.07959
 20
-135.578255
 30
0.0
 11
-181.47959
 21
-135.578255
 31
0.0
  0
LINE
  5
503
100
AcDbEntity
  8
2
370
    50
100
AcDbLine
 10
-188.07959
 20
-133.578255
 30
0.0
 11
-181.47959
 21
-133.578255
 31
0.0
  0
LINE
  5
504
100
AcDbEntity
  8
2
370
    50
100
AcDbLine
 10
-188.07959
 20
-128.578255
 30
0.0
 11
-181.47959
 21
-128.578255
 31
0.0
  0
LINE
  5
505
100
AcDbEntity
  8
2
370
    50
100
AcDbLine
 10
-188.07959
 20
-126.578255
 30
0.0
 11
-181.47959
 21
-126.578255
 31
0.0
  0
LINE
  5
506
100
AcDbEntity
  8
2
370
    50
100
AcDbLine
 10
-188.07959
 20
-121.578255
 30
0.0
 11
-181.47959
 21
-121.578255
 31
0.0
  0
LINE
  5
507
100
AcDbEntity
  8
2
370
    50
100
AcDbLine
 10
-188.07959
 20
-119.578255
 30
0.0
 11
-181.47959
 21
-119.578255
 31
0.0
  0
LINE
  5
508
100
AcDbEntity
  8
2
370
    50
100
AcDbLine
 10
-188.47959
 20
-140.278255
 30
0.0
 11
-188.47959
 21
-136.378255
 31
0.0
  0
LINE
  5
509
100
AcDbEntity
  8
2
370
    50
100
AcDbLine
 10
-188.47959
 20
-132.778255
 30
0.0
 11
-188.47959
 21
-129.378255
 31
0.0
  0
LINE
  5
50A
100
AcDbEntity
  8
2
370
    50
100
AcDbLine
 10
-188.47959
 20
-125.778255
 30
0.0
 11
-188.47959
 21
-122.378255
 31
0.0
  0
LINE
  5
50B
100
AcDbEntity
  8
2
370
    50
100
AcDbLine
 10
-188.47959
 20
-118.778255
 30
0.0
 11
-188.47959
 21
-112.878255
 31
0.0
  0
LINE
  5
50C
100
AcDbEntity
  8
2
370
    50
100
AcDbLine
 10
-188.07959
 20
-121.578255
 30
0.0
 11
-188.07959
 21
-119.578255
 31
0.0
  0
LINE
  5
50D
100
AcDbEntity
  8
2
370
    50
100
AcDbLine
 10
-188.07959
 20
-135.578255
 30
0.0
 11
-188.07959
 21
-133.578255
 31
0.0
  0
LINE
  5
50E
100
AcDbEntity
  8
2
370
    50
100
AcDbLine
 10
-188.07959
 20
-128.578255
 30
0.0
 11
-188.07959
 21
-126.578255
 31
0.0
  0
ARC
  5
50F
100
AcDbEntity
  8
2
370
    50
100
AcDbCircle
 10
-187.47959
 20
-118.778255
 30
0.0
 40
1.0
100
AcDbArc
 50
180.0
 51
233.130102
  0
ARC
  5
510
100
AcDbEntity
  8
2
370
    50
100
AcDbCircle
 10
-187.47959
 20
-122.378255
 30
0.0
 40
1.0
100
AcDbArc
 50
126.869898
 51
180.0
  0
ARC
  5
511
100
AcDbEntity
  8
2
370
    50
100
AcDbCircle
 10
-187.47959
 20
-125.778255
 30
0.0
 40
1.0
100
AcDbArc
 50
180.0
 51
233.130102
  0
ARC
  5
512
100
AcDbEntity
  8
2
370
    50
100
AcDbCircle
 10
-187.47959
 20
-129.378255
 30
0.0
 40
1.0
100
AcDbArc
 50
126.869898
 51
180.0
  0
ARC
  5
513
100
AcDbEntity
  8
2
370
    50
100
AcDbCircle
 10
-187.47959
 20
-132.778255
 30
0.0
 40
1.0
100
AcDbArc
 50
180.0
 51
233.130102
  0
ARC
  5
514
100
AcDbEntity
  8
2
370
    50
100
AcDbCircle
 10
-187.47959
 20
-136.378255
 30
0.0
 40
1.0
100
AcDbArc
 50
126.869898
 51
180.0
  0
ARC
  5
515
100
AcDbEntity
  8
2
370
    50
100
AcDbCircle
 10
-187.47959
 20
-140.278255
 30
0.0
 40
1.0
100
AcDbArc
 50
180.0
 51
233.130102
  0
LINE
  5
516
100
AcDbEntity
  8
2
370
    50
100
AcDbLine
 10
-174.87959
 20
-141.078255
 30
0.0
 11
-181.47959
 21
-141.078255
 31
0.0
  0
ARC
  5
517
100
AcDbEntity
  8
2
370
    50
100
AcDbCircle
 10
-175.47959
 20
-140.278255
 30
0.0
 40
1.0
100
AcDbArc
 50
306.869898
 51
360.0
  0
LINE
  5
518
100
AcDbEntity
  8
2
370
    50
100
AcDbLine
 10
-174.47959
 20
-140.278255
 30
0.0
 11
-174.47959
 21
-136.378255
 31
0.0
  0
ARC
  5
519
100
AcDbEntity
  8
2
370
    50
100
AcDbCircle
 10
-175.47959
 20
-136.378255
 30
0.0
 40
1.0
100
AcDbArc
 50
360.0
 51
53.130102
  0
LINE
  5
51A
100
AcDbEntity
  8
2
370
    50
100
AcDbLine
 10
-174.87959
 20
-135.578255
 30
0.0
 11
-174.87959
 21
-133.578255
 31
0.0
  0
LINE
  5
51B
100
AcDbEntity
  8
2
370
    50
100
AcDbLine
 10
-174.87959
 20
-135.578255
 30
0.0
 11
-181.47959
 21
-135.578255
 31
0.0
  0
LINE
  5
51C
100
AcDbEntity
  8
2
370
    50
100
AcDbLine
 10
-174.87959
 20
-133.578255
 30
0.0
 11
-181.47959
 21
-133.578255
 31
0.0
  0
ARC
  5
51D
100
AcDbEntity
  8
2
370
    50
100
AcDbCircle
 10
-175.47959
 20
-132.778255
 30
0.0
 40
1.0
100
AcDbArc
 50
306.869898
 51
360.0
  0
LINE
  5
51E
100
AcDbEntity
  8
2
370
    50
100
AcDbLine
 10
-174.47959
 20
-132.778255
 30
0.0
 11
-174.47959
 21
-129.378255
 31
0.0
  0
ARC
  5
51F
100
AcDbEntity
  8
2
370
    50
100
AcDbCircle
 10
-175.47959
 20
-129.378255
 30
0.0
 40
1.0
100
AcDbArc
 50
360.0
 51
53.130102
  0
LINE
  5
520
100
AcDbEntity
  8
2
370
    50
100
AcDbLine
 10
-174.87959
 20
-128.578255
 30
0.0
 11
-181.47959
 21
-128.578255
 31
0.0
  0
LINE
  5
521
100
AcDbEntity
  8
2
370
    50
100
AcDbLine
 10
-174.87959
 20
-128.578255
 30
0.0
 11
-174.87959
 21
-126.578255
 31
0.0
  0
LINE
  5
522
100
AcDbEntity
  8
2
370
    50
100
AcDbLine
 10
-174.87959
 20
-126.578255
 30
0.0
 11
-181.47959
 21
-126.578255
 31
0.0
  0
ARC
  5
523
100
AcDbEntity
  8
2
370
    50
100
AcDbCircle
 10
-175.47959
 20
-125.778255
 30
0.0
 40
1.0
100
AcDbArc
 50
306.869898
 51
360.0
  0
LINE
  5
524
100
AcDbEntity
  8
2
370
    50
100
AcDbLine
 10
-174.47959
 20
-125.778255
 30
0.0
 11
-174.47959
 21
-122.378255
 31
0.0
  0
ARC
  5
525
100
AcDbEntity
  8
2
370
    50
100
AcDbCircle
 10
-175.47959
 20
-122.378255
 30
0.0
 40
1.0
100
AcDbArc
 50
360.0
 51
53.130102
  0
LINE
  5
526
100
AcDbEntity
  8
2
370
    50
100
AcDbLine
 10
-174.87959
 20
-121.578255
 30
0.0
 11
-181.47959
 21
-121.578255
 31
0.0
  0
LINE
  5
527
100
AcDbEntity
  8
2
370
    50
100
AcDbLine
 10
-174.87959
 20
-121.578255
 30
0.0
 11
-174.87959
 21
-119.578255
 31
0.0
  0
LINE
  5
528
100
AcDbEntity
  8
2
370
    50
100
AcDbLine
 10
-174.87959
 20
-119.578255
 30
0.0
 11
-181.47959
 21
-119.578255
 31
0.0
  0
ARC
  5
529
100
AcDbEntity
  8
2
370
    50
100
AcDbCircle
 10
-175.47959
 20
-118.778255
 30
0.0
 40
1.0
100
AcDbArc
 50
306.869898
 51
360.0
  0
LINE
  5
52A
100
AcDbEntity
  8
2
370
    50
100
AcDbLine
 10
-174.47959
 20
-118.778255
 30
0.0
 11
-174.47959
 21
-112.878255
 31
0.0
  0
ARC
  5
52B
100
AcDbEntity
  8
2
370
    50
100
AcDbCircle
 10
-175.47959
 20
-112.878255
 30
0.0
 40
1.0
100
AcDbArc
 50
360.0
 51
53.130102
  0
LINE
  5
52C
100
AcDbEntity
  8
2
370
    50
100
AcDbLine
 10
-188.07959
 20
-112.078255
 30
0.0
 11
-174.87959
 21
-112.078255
 31
0.0
  0
ARC
  5
52D
100
AcDbEntity
  8
2
370
    50
100
AcDbCircle
 10
-187.47959
 20
-112.878255
 30
0.0
 40
1.0
100
AcDbArc
 50
126.869898
 51
180.0
  0
LINE
  5
52E
100
AcDbEntity
  8
2
370
    50
100
AcDbLine
 10
-187.92959
 20
-148.426262
 30
0.0
 11
-187.92959
 21
-141.078255
 31
0.0
  0
LINE
  5
52F
100
AcDbEntity
  8
2
370
    50
100
AcDbLine
 10
-175.02959
 20
-148.426262
 30
0.0
 11
-175.02959
 21
-141.078255
 31
0.0
  0
ARC
  5
530
100
AcDbEntity
  8
2
370
    50
100
AcDbCircle
 10
-181.47959
 20
-116.281885
 30
0.0
 40
10.10363
100
AcDbArc
 50
90.0
 51
103.729133
  0
LINE
  5
531
100
AcDbEntity
  8
2
370
    50
100
AcDbLine
 10
-185.043772
 20
-106.46693
 30
0.0
 11
-183.877506
 21
-106.46693
 31
0.0
  0
ARC
  5
532
100
AcDbEntity
  8
2
370
    50
100
AcDbCircle
 10
-186.24273
 20
-108.812416
 30
0.0
 40
2.634161
100
AcDbArc
 50
62.924933
 51
117.075067
  0
LINE
  5
533
100
AcDbEntity
  8
2
370
    50
100
AcDbLine
 10
-183.877506
 20
-106.46693
 30
0.0
 11
-183.877506
 21
-111.78958
 31
0.0
  0
LINE
  5
534
100
AcDbEntity
  8
2
370
    50
100
AcDbLine
 10
-185.043772
 20
-106.46693
 30
0.0
 11
-185.043772
 21
-111.78958
 31
0.0
  0
LINE
  5
535
100
AcDbEntity
  8
2
370
    50
100
AcDbLine
 10
-187.441688
 20
-106.46693
 30
0.0
 11
-187.441688
 21
-111.78958
 31
0.0
  0
ARC
  5
536
100
AcDbEntity
  8
2
370
    50
100
AcDbCircle
 10
-184.704545
 20
-144.126202
 30
0.0
 40
5.375075
100
AcDbArc
 50
233.130102
 51
306.869898
  0
ARC
  5
537
100
AcDbEntity
  8
2
370
    50
100
AcDbCircle
 10
-178.254454
 20
-152.726322
 30
0.0
 40
5.375075
100
AcDbArc
 50
53.130102
 51
126.869898
  0
ARC
  5
538
100
AcDbEntity
  8
2
370
    50
100
AcDbCircle
 10
-184.704545
 20
-152.726322
 30
0.0
 40
5.375075
100
AcDbArc
 50
53.130102
 51
126.869898
  0
LINE
  5
539
100
AcDbEntity
  8
2
370
    50
100
AcDbLine
 10
75.254027
 20
-135.982289
 30
0.0
 11
68.653773
 21
-135.982289
 31
0.0
  0
LINE
  5
53A
100
AcDbEntity
  8
2
370
    50
100
AcDbLine
 10
75.254027
 20
-135.982289
 30
0.0
 11
81.853773
 21
-135.982289
 31
0.0
  0
LINE
  5
53B
100
AcDbEntity
  8
2
370
    50
100
AcDbLine
 10
68.653773
 20
-106.982289
 30
0.0
 11
75.253773
 21
-106.982289
 31
0.0
  0
LINE
  5
53C
100
AcDbEntity
  8
2
370
    50
100
AcDbLine
 10
68.653773
 20
-112.482289
 30
0.0
 11
75.253773
 21
-112.482289
 31
0.0
  0
LINE
  5
53D
100
AcDbEntity
  8
2
370
    50
100
AcDbLine
 10
68.653773
 20
-114.482289
 30
0.0
 11
75.253773
 21
-114.482289
 31
0.0
  0
LINE
  5
53E
100
AcDbEntity
  8
2
370
    50
100
AcDbLine
 10
68.653773
 20
-119.482289
 30
0.0
 11
75.253773
 21
-119.482289
 31
0.0
  0
LINE
  5
53F
100
AcDbEntity
  8
2
370
    50
100
AcDbLine
 10
68.653773
 20
-121.482289
 30
0.0
 11
75.253773
 21
-121.482289
 31
0.0
  0
LINE
  5
540
100
AcDbEntity
  8
2
370
    50
100
AcDbLine
 10
68.653773
 20
-126.482289
 30
0.0
 11
75.253773
 21
-126.482289
 31
0.0
  0
LINE
  5
541
100
AcDbEntity
  8
2
370
    50
100
AcDbLine
 10
68.653773
 20
-128.482289
 30
0.0
 11
75.253773
 21
-128.482289
 31
0.0
  0
LINE
  5
542
100
AcDbEntity
  8
2
370
    50
100
AcDbLine
 10
68.253773
 20
-107.782289
 30
0.0
 11
68.253773
 21
-111.682289
 31
0.0
  0
LINE
  5
543
100
AcDbEntity
  8
2
370
    50
100
AcDbLine
 10
68.253773
 20
-115.282289
 30
0.0
 11
68.253773
 21
-118.682289
 31
0.0
  0
LINE
  5
544
100
AcDbEntity
  8
2
370
    50
100
AcDbLine
 10
68.253773
 20
-122.282289
 30
0.0
 11
68.253773
 21
-125.682289
 31
0.0
  0
LINE
  5
545
100
AcDbEntity
  8
2
370
    50
100
AcDbLine
 10
68.253773
 20
-129.282289
 30
0.0
 11
68.253773
 21
-135.182289
 31
0.0
  0
LINE
  5
546
100
AcDbEntity
  8
2
370
    50
100
AcDbLine
 10
68.653773
 20
-126.482289
 30
0.0
 11
68.653773
 21
-128.482289
 31
0.0
  0
LINE
  5
547
100
AcDbEntity
  8
2
370
    50
100
AcDbLine
 10
68.653773
 20
-112.482289
 30
0.0
 11
68.653773
 21
-114.482289
 31
0.0
  0
LINE
  5
548
100
AcDbEntity
  8
2
370
    50
100
AcDbLine
 10
68.653773
 20
-119.482289
 30
0.0
 11
68.653773
 21
-121.482289
 31
0.0
  0
ARC
  5
549
100
AcDbEntity
  8
2
370
    50
100
AcDbCircle
 10
69.253773
 20
-129.282289
 30
0.0
 40
1.0
100
AcDbArc
 50
126.869898
 51
180.0
  0
ARC
  5
54A
100
AcDbEntity
  8
2
370
    50
100
AcDbCircle
 10
69.253773
 20
-125.682289
 30
0.0
 40
1.0
100
AcDbArc
 50
180.0
 51
233.130102
  0
ARC
  5
54B
100
AcDbEntity
  8
2
370
    50
100
AcDbCircle
 10
69.253773
 20
-122.282289
 30
0.0
 40
1.0
100
AcDbArc
 50
126.869898
 51
180.0
  0
ARC
  5
54C
100
AcDbEntity
  8
2
370
    50
100
AcDbCircle
 10
69.253773
 20
-118.682289
 30
0.0
 40
1.0
100
AcDbArc
 50
180.0
 51
233.130102
  0
ARC
  5
54D
100
AcDbEntity
  8
2
370
    50
100
AcDbCircle
 10
69.253773
 20
-115.282289
 30
0.0
 40
1.0
100
AcDbArc
 50
126.869898
 51
180.0
  0
ARC
  5
54E
100
AcDbEntity
  8
2
370
    50
100
AcDbCircle
 10
69.253773
 20
-111.682289
 30
0.0
 40
1.0
100
AcDbArc
 50
180.0
 51
233.130102
  0
ARC
  5
54F
100
AcDbEntity
  8
2
370
    50
100
AcDbCircle
 10
69.253773
 20
-107.782289
 30
0.0
 40
1.0
100
AcDbArc
 50
126.869898
 51
180.0
  0
LINE
  5
550
100
AcDbEntity
  8
2
370
    50
100
AcDbLine
 10
81.853773
 20
-106.982289
 30
0.0
 11
75.253773
 21
-106.982289
 31
0.0
  0
ARC
  5
551
100
AcDbEntity
  8
2
370
    50
100
AcDbCircle
 10
81.253773
 20
-107.782289
 30
0.0
 40
1.0
100
AcDbArc
 50
0.0
 51
53.130102
  0
LINE
  5
552
100
AcDbEntity
  8
2
370
    50
100
AcDbLine
 10
82.253773
 20
-107.782289
 30
0.0
 11
82.253773
 21
-111.682289
 31
0.0
  0
ARC
  5
553
100
AcDbEntity
  8
2
370
    50
100
AcDbCircle
 10
81.253773
 20
-111.682289
 30
0.0
 40
1.0
100
AcDbArc
 50
306.869898
 51
0.0
  0
LINE
  5
554
100
AcDbEntity
  8
2
370
    50
100
AcDbLine
 10
81.853773
 20
-112.482289
 30
0.0
 11
81.853773
 21
-114.482289
 31
0.0
  0
LINE
  5
555
100
AcDbEntity
  8
2
370
    50
100
AcDbLine
 10
81.853773
 20
-112.482289
 30
0.0
 11
75.253773
 21
-112.482289
 31
0.0
  0
LINE
  5
556
100
AcDbEntity
  8
2
370
    50
100
AcDbLine
 10
81.853773
 20
-114.482289
 30
0.0
 11
75.253773
 21
-114.482289
 31
0.0
  0
ARC
  5
557
100
AcDbEntity
  8
2
370
    50
100
AcDbCircle
 10
81.253773
 20
-115.282289
 30
0.0
 40
1.0
100
AcDbArc
 50
0.0
 51
53.130102
  0
LINE
  5
558
100
AcDbEntity
  8
2
370
    50
100
AcDbLine
 10
82.253773
 20
-115.282289
 30
0.0
 11
82.253773
 21
-118.682289
 31
0.0
  0
ARC
  5
559
100
AcDbEntity
  8
2
370
    50
100
AcDbCircle
 10
81.253773
 20
-118.682289
 30
0.0
 40
1.0
100
AcDbArc
 50
306.869898
 51
0.0
  0
LINE
  5
55A
100
AcDbEntity
  8
2
370
    50
100
AcDbLine
 10
81.853773
 20
-119.482289
 30
0.0
 11
75.253773
 21
-119.482289
 31
0.0
  0
LINE
  5
55B
100
AcDbEntity
  8
2
370
    50
100
AcDbLine
 10
81.853773
 20
-119.482289
 30
0.0
 11
81.853773
 21
-121.482289
 31
0.0
  0
LINE
  5
55C
100
AcDbEntity
  8
2
370
    50
100
AcDbLine
 10
81.853773
 20
-121.482289
 30
0.0
 11
75.253773
 21
-121.482289
 31
0.0
  0
ARC
  5
55D
100
AcDbEntity
  8
2
370
    50
100
AcDbCircle
 10
81.253773
 20
-122.282289
 30
0.0
 40
1.0
100
AcDbArc
 50
0.0
 51
53.130102
  0
LINE
  5
55E
100
AcDbEntity
  8
2
370
    50
100
AcDbLine
 10
82.253773
 20
-122.282289
 30
0.0
 11
82.253773
 21
-125.682289
 31
0.0
  0
ARC
  5
55F
100
AcDbEntity
  8
2
370
    50
100
AcDbCircle
 10
81.253773
 20
-125.682289
 30
0.0
 40
1.0
100
AcDbArc
 50
306.869898
 51
0.0
  0
LINE
  5
560
100
AcDbEntity
  8
2
370
    50
100
AcDbLine
 10
81.853773
 20
-126.482289
 30
0.0
 11
75.253773
 21
-126.482289
 31
0.0
  0
LINE
  5
561
100
AcDbEntity
  8
2
370
    50
100
AcDbLine
 10
81.853773
 20
-126.482289
 30
0.0
 11
81.853773
 21
-128.482289
 31
0.0
  0
LINE
  5
562
100
AcDbEntity
  8
2
370
    50
100
AcDbLine
 10
81.853773
 20
-128.482289
 30
0.0
 11
75.253773
 21
-128.482289
 31
0.0
  0
ARC
  5
563
100
AcDbEntity
  8
2
370
    50
100
AcDbCircle
 10
81.253773
 20
-129.282289
 30
0.0
 40
1.0
100
AcDbArc
 50
0.0
 51
53.130102
  0
LINE
  5
564
100
AcDbEntity
  8
2
370
    50
100
AcDbLine
 10
82.253773
 20
-129.282289
 30
0.0
 11
82.253773
 21
-135.182289
 31
0.0
  0
ARC
  5
565
100
AcDbEntity
  8
2
370
    50
100
AcDbCircle
 10
69.253773
 20
-135.182289
 30
0.0
 40
1.0
100
AcDbArc
 50
180.0
 51
233.130102
  0
ARC
  5
566
100
AcDbEntity
  8
2
370
    50
100
AcDbCircle
 10
81.253773
 20
-135.182289
 30
0.0
 40
1.0
100
AcDbArc
 50
306.869898
 51
0.0
  0
LINE
  5
567
100
AcDbEntity
  8
2
370
    50
100
AcDbLine
 10
68.803773
 20
-106.982289
 30
0.0
 11
68.803773
 21
-88.471473
 31
0.0
  0
LINE
  5
568
100
AcDbEntity
  8
2
370
    50
100
AcDbLine
 10
81.703773
 20
-106.982289
 30
0.0
 11
81.703773
 21
-88.471473
 31
0.0
  0
LINE
  5
569
100
AcDbEntity
  8
2
370
    50
100
AcDbLine
 10
69.003773
 20
-136.982289
 30
0.0
 11
69.003773
 21
-135.982289
 31
0.0
  0
LINE
  5
56A
100
AcDbEntity
  8
2
370
    50
100
AcDbLine
 10
81.503773
 20
-136.982289
 30
0.0
 11
81.503773
 21
-135.982289
 31
0.0
  0
ARC
  5
56B
100
AcDbEntity
  8
2
370
    50
100
AcDbCircle
 10
72.028773
 20
-84.171473
 30
0.0
 40
5.375
100
AcDbArc
 50
233.130102
 51
306.869898
  0
ARC
  5
56C
100
AcDbEntity
  8
2
370
    50
100
AcDbCircle
 10
78.478773
 20
-92.771473
 30
0.0
 40
5.375
100
AcDbArc
 50
53.130102
 51
126.869898
  0
ARC
  5
56D
100
AcDbEntity
  8
2
370
    50
100
AcDbCircle
 10
78.478773
 20
-84.171473
 30
0.0
 40
5.375
100
AcDbArc
 50
233.130102
 51
306.869898
  0
LINE
  5
56E
100
AcDbEntity
  8
2
370
    50
100
AcDbLine
 10
-243.685336
 20
-155.004017
 30
0.0
 11
-250.28559
 21
-155.004017
 31
0.0
  0
LINE
  5
56F
100
AcDbEntity
  8
2
370
    50
100
AcDbLine
 10
-243.685336
 20
-155.004017
 30
0.0
 11
-237.08559
 21
-155.004017
 31
0.0
  0
LINE
  5
570
100
AcDbEntity
  8
2
370
    50
100
AcDbLine
 10
-250.28559
 20
-126.004017
 30
0.0
 11
-243.68559
 21
-126.004017
 31
0.0
  0
LINE
  5
571
100
AcDbEntity
  8
2
370
    50
100
AcDbLine
 10
-250.28559
 20
-131.504017
 30
0.0
 11
-243.68559
 21
-131.504017
 31
0.0
  0
LINE
  5
572
100
AcDbEntity
  8
2
370
    50
100
AcDbLine
 10
-250.28559
 20
-133.504017
 30
0.0
 11
-243.68559
 21
-133.504017
 31
0.0
  0
LINE
  5
573
100
AcDbEntity
  8
2
370
    50
100
AcDbLine
 10
-250.28559
 20
-138.504017
 30
0.0
 11
-243.68559
 21
-138.504017
 31
0.0
  0
LINE
  5
574
100
AcDbEntity
  8
2
370
    50
100
AcDbLine
 10
-250.28559
 20
-140.504017
 30
0.0
 11
-243.68559
 21
-140.504017
 31
0.0
  0
LINE
  5
575
100
AcDbEntity
  8
2
370
    50
100
AcDbLine
 10
-250.28559
 20
-145.504017
 30
0.0
 11
-243.68559
 21
-145.504017
 31
0.0
  0
LINE
  5
576
100
AcDbEntity
  8
2
370
    50
100
AcDbLine
 10
-250.28559
 20
-147.504017
 30
0.0
 11
-243.68559
 21
-147.504017
 31
0.0
  0
LINE
  5
577
100
AcDbEntity
  8
2
370
    50
100
AcDbLine
 10
-250.68559
 20
-126.804017
 30
0.0
 11
-250.68559
 21
-130.704017
 31
0.0
  0
LINE
  5
578
100
AcDbEntity
  8
2
370
    50
100
AcDbLine
 10
-250.68559
 20
-134.304017
 30
0.0
 11
-250.68559
 21
-137.704017
 31
0.0
  0
LINE
  5
579
100
AcDbEntity
  8
2
370
    50
100
AcDbLine
 10
-250.68559
 20
-141.304017
 30
0.0
 11
-250.68559
 21
-144.704017
 31
0.0
  0
LINE
  5
57A
100
AcDbEntity
  8
2
370
    50
100
AcDbLine
 10
-250.68559
 20
-148.304017
 30
0.0
 11
-250.68559
 21
-154.204017
 31
0.0
  0
LINE
  5
57B
100
AcDbEntity
  8
2
370
    50
100
AcDbLine
 10
-250.28559
 20
-145.504017
 30
0.0
 11
-250.28559
 21
-147.504017
 31
0.0
  0
LINE
  5
57C
100
AcDbEntity
  8
2
370
    50
100
AcDbLine
 10
-250.28559
 20
-131.504017
 30
0.0
 11
-250.28559
 21
-133.504017
 31
0.0
  0
LINE
  5
57D
100
AcDbEntity
  8
2
370
    50
100
AcDbLine
 10
-250.28559
 20
-138.504017
 30
0.0
 11
-250.28559
 21
-140.504017
 31
0.0
  0
ARC
  5
57E
100
AcDbEntity
  8
2
370
    50
100
AcDbCircle
 10
-249.68559
 20
-148.304017
 30
0.0
 40
1.0
100
AcDbArc
 50
126.869898
 51
180.0
  0
ARC
  5
57F
100
AcDbEntity
  8
2
370
    50
100
AcDbCircle
 10
-249.68559
 20
-144.704017
 30
0.0
 40
1.0
100
AcDbArc
 50
180.0
 51
233.130102
  0
ARC
  5
580
100
AcDbEntity
  8
2
370
    50
100
AcDbCircle
 10
-249.68559
 20
-141.304017
 30
0.0
 40
1.0
100
AcDbArc
 50
126.869898
 51
180.0
  0
ARC
  5
581
100
AcDbEntity
  8
2
370
    50
100
AcDbCircle
 10
-249.68559
 20
-137.704017
 30
0.0
 40
1.0
100
AcDbArc
 50
180.0
 51
233.130102
  0
ARC
  5
582
100
AcDbEntity
  8
2
370
    50
100
AcDbCircle
 10
-249.68559
 20
-134.304017
 30
0.0
 40
1.0
100
AcDbArc
 50
126.869898
 51
180.0
  0
ARC
  5
583
100
AcDbEntity
  8
2
370
    50
100
AcDbCircle
 10
-249.68559
 20
-130.704017
 30
0.0
 40
1.0
100
AcDbArc
 50
180.0
 51
233.130102
  0
ARC
  5
584
100
AcDbEntity
  8
2
370
    50
100
AcDbCircle
 10
-249.68559
 20
-126.804017
 30
0.0
 40
1.0
100
AcDbArc
 50
126.869898
 51
180.0
  0
LINE
  5
585
100
AcDbEntity
  8
2
370
    50
100
AcDbLine
 10
-237.08559
 20
-126.004017
 30
0.0
 11
-243.68559
 21
-126.004017
 31
0.0
  0
ARC
  5
586
100
AcDbEntity
  8
2
370
    50
100
AcDbCircle
 10
-237.68559
 20
-126.804017
 30
0.0
 40
1.0
100
AcDbArc
 50
0.0
 51
53.130102
  0
LINE
  5
587
100
AcDbEntity
  8
2
370
    50
100
AcDbLine
 10
-236.68559
 20
-126.804017
 30
0.0
 11
-236.68559
 21
-130.704017
 31
0.0
  0
ARC
  5
588
100
AcDbEntity
  8
2
370
    50
100
AcDbCircle
 10
-237.68559
 20
-130.704017
 30
0.0
 40
1.0
100
AcDbArc
 50
306.869898
 51
0.0
  0
LINE
  5
589
100
AcDbEntity
  8
2
370
    50
100
AcDbLine
 10
-237.08559
 20
-131.504017
 30
0.0
 11
-237.08559
 21
-133.504017
 31
0.0
  0
LINE
  5
58A
100
AcDbEntity
  8
2
370
    50
100
AcDbLine
 10
-237.08559
 20
-131.504017
 30
0.0
 11
-243.68559
 21
-131.504017
 31
0.0
  0
LINE
  5
58B
100
AcDbEntity
  8
2
370
    50
100
AcDbLine
 10
-237.08559
 20
-133.504017
 30
0.0
 11
-243.68559
 21
-133.504017
 31
0.0
  0
ARC
  5
58C
100
AcDbEntity
  8
2
370
    50
100
AcDbCircle
 10
-237.68559
 20
-134.304017
 30
0.0
 40
1.0
100
AcDbArc
 50
0.0
 51
53.130102
  0
LINE
  5
58D
100
AcDbEntity
  8
2
370
    50
100
AcDbLine
 10
-236.68559
 20
-134.304017
 30
0.0
 11
-236.68559
 21
-137.704017
 31
0.0
  0
ARC
  5
58E
100
AcDbEntity
  8
2
370
    50
100
AcDbCircle
 10
-237.68559
 20
-137.704017
 30
0.0
 40
1.0
100
AcDbArc
 50
306.869898
 51
0.0
  0
LINE
  5
58F
100
AcDbEntity
  8
2
370
    50
100
AcDbLine
 10
-237.08559
 20
-138.504017
 30
0.0
 11
-243.68559
 21
-138.504017
 31
0.0
  0
LINE
  5
590
100
AcDbEntity
  8
2
370
    50
100
AcDbLine
 10
-237.08559
 20
-138.504017
 30
0.0
 11
-237.08559
 21
-140.504017
 31
0.0
  0
LINE
  5
591
100
AcDbEntity
  8
2
370
    50
100
AcDbLine
 10
-237.08559
 20
-140.504017
 30
0.0
 11
-243.68559
 21
-140.504017
 31
0.0
  0
ARC
  5
592
100
AcDbEntity
  8
2
370
    50
100
AcDbCircle
 10
-237.68559
 20
-141.304017
 30
0.0
 40
1.0
100
AcDbArc
 50
0.0
 51
53.130102
  0
LINE
  5
593
100
AcDbEntity
  8
2
370
    50
100
AcDbLine
 10
-236.68559
 20
-141.304017
 30
0.0
 11
-236.68559
 21
-144.704017
 31
0.0
  0
ARC
  5
594
100
AcDbEntity
  8
2
370
    50
100
AcDbCircle
 10
-237.68559
 20
-144.704017
 30
0.0
 40
1.0
100
AcDbArc
 50
306.869898
 51
0.0
  0
LINE
  5
595
100
AcDbEntity
  8
2
370
    50
100
AcDbLine
 10
-237.08559
 20
-145.504017
 30
0.0
 11
-243.68559
 21
-145.504017
 31
0.0
  0
LINE
  5
596
100
AcDbEntity
  8
2
370
    50
100
AcDbLine
 10
-237.08559
 20
-145.504017
 30
0.0
 11
-237.08559
 21
-147.504017
 31
0.0
  0
LINE
  5
597
100
AcDbEntity
  8
2
370
    50
100
AcDbLine
 10
-237.08559
 20
-147.504017
 30
0.0
 11
-243.68559
 21
-147.504017
 31
0.0
  0
ARC
  5
598
100
AcDbEntity
  8
2
370
    50
100
AcDbCircle
 10
-237.68559
 20
-148.304017
 30
0.0
 40
1.0
100
AcDbArc
 50
0.0
 51
53.130102
  0
LINE
  5
599
100
AcDbEntity
  8
2
370
    50
100
AcDbLine
 10
-236.68559
 20
-148.304017
 30
0.0
 11
-236.68559
 21
-154.204017
 31
0.0
  0
ARC
  5
59A
100
AcDbEntity
  8
2
370
    50
100
AcDbCircle
 10
-249.68559
 20
-154.204017
 30
0.0
 40
1.0
100
AcDbArc
 50
180.0
 51
233.130102
  0
ARC
  5
59B
100
AcDbEntity
  8
2
370
    50
100
AcDbCircle
 10
-237.68559
 20
-154.204017
 30
0.0
 40
1.0
100
AcDbArc
 50
306.869898
 51
0.0
  0
LINE
  5
59C
100
AcDbEntity
  8
2
370
    50
100
AcDbLine
 10
-250.13559
 20
-126.004017
 30
0.0
 11
-250.13559
 21
-107.493201
 31
0.0
  0
LINE
  5
59D
100
AcDbEntity
  8
2
370
    50
100
AcDbLine
 10
-237.23559
 20
-126.004017
 30
0.0
 11
-237.23559
 21
-107.493201
 31
0.0
  0
LINE
  5
59E
100
AcDbEntity
  8
2
370
    50
100
AcDbLine
 10
-249.93559
 20
-156.004017
 30
0.0
 11
-249.93559
 21
-155.004017
 31
0.0
  0
LINE
  5
59F
100
AcDbEntity
  8
2
370
    50
100
AcDbLine
 10
-237.43559
 20
-156.004017
 30
0.0
 11
-237.43559
 21
-155.004017
 31
0.0
  0
ARC
  5
5A0
100
AcDbEntity
  8
2
370
    50
100
AcDbCircle
 10
-246.91059
 20
-103.193201
 30
0.0
 40
5.375
100
AcDbArc
 50
233.130102
 51
306.869898
  0
ARC
  5
5A1
100
AcDbEntity
  8
2
370
    50
100
AcDbCircle
 10
-240.46059
 20
-111.793201
 30
0.0
 40
5.375
100
AcDbArc
 50
53.130102
 51
126.869898
  0
ARC
  5
5A2
100
AcDbEntity
  8
2
370
    50
100
AcDbCircle
 10
-240.46059
 20
-103.193201
 30
0.0
 40
5.375
100
AcDbArc
 50
233.130102
 51
306.869898
  0
LINE
  5
5A3
100
AcDbEntity
  8
2
370
    50
100
AcDbLine
 10
-103.273477
 20
-165.006017
 30
0.0
 11
-109.873731
 21
-165.006017
 31
0.0
  0
LINE
  5
5A4
100
AcDbEntity
  8
2
370
    50
100
AcDbLine
 10
-103.273477
 20
-165.006017
 30
0.0
 11
-96.673731
 21
-165.006017
 31
0.0
  0
LINE
  5
5A5
100
AcDbEntity
  8
2
370
    50
100
AcDbLine
 10
-109.873731
 20
-136.006017
 30
0.0
 11
-103.273731
 21
-136.006017
 31
0.0
  0
LINE
  5
5A6
100
AcDbEntity
  8
2
370
    50
100
AcDbLine
 10
-109.873731
 20
-141.506017
 30
0.0
 11
-103.273731
 21
-141.506017
 31
0.0
  0
LINE
  5
5A7
100
AcDbEntity
  8
2
370
    50
100
AcDbLine
 10
-109.873731
 20
-143.506017
 30
0.0
 11
-103.273731
 21
-143.506017
 31
0.0
  0
LINE
  5
5A8
100
AcDbEntity
  8
2
370
    50
100
AcDbLine
 10
-109.873731
 20
-148.506017
 30
0.0
 11
-103.273731
 21
-148.506017
 31
0.0
  0
LINE
  5
5A9
100
AcDbEntity
  8
2
370
    50
100
AcDbLine
 10
-109.873731
 20
-150.506017
 30
0.0
 11
-103.273731
 21
-150.506017
 31
0.0
  0
LINE
  5
5AA
100
AcDbEntity
  8
2
370
    50
100
AcDbLine
 10
-109.873731
 20
-155.506017
 30
0.0
 11
-103.273731
 21
-155.506017
 31
0.0
  0
LINE
  5
5AB
100
AcDbEntity
  8
2
370
    50
100
AcDbLine
 10
-109.873731
 20
-157.506017
 30
0.0
 11
-103.273731
 21
-157.506017
 31
0.0
  0
LINE
  5
5AC
100
AcDbEntity
  8
2
370
    50
100
AcDbLine
 10
-110.273731
 20
-136.806017
 30
0.0
 11
-110.273731
 21
-140.706017
 31
0.0
  0
LINE
  5
5AD
100
AcDbEntity
  8
2
370
    50
100
AcDbLine
 10
-110.273731
 20
-144.306017
 30
0.0
 11
-110.273731
 21
-147.706017
 31
0.0
  0
LINE
  5
5AE
100
AcDbEntity
  8
2
370
    50
100
AcDbLine
 10
-110.273731
 20
-151.306017
 30
0.0
 11
-110.273731
 21
-154.706017
 31
0.0
  0
LINE
  5
5AF
100
AcDbEntity
  8
2
370
    50
100
AcDbLine
 10
-110.273731
 20
-158.306017
 30
0.0
 11
-110.273731
 21
-164.206017
 31
0.0
  0
LINE
  5
5B0
100
AcDbEntity
  8
2
370
    50
100
AcDbLine
 10
-109.873731
 20
-155.506017
 30
0.0
 11
-109.873731
 21
-157.506017
 31
0.0
  0
LINE
  5
5B1
100
AcDbEntity
  8
2
370
    50
100
AcDbLine
 10
-109.873731
 20
-141.506017
 30
0.0
 11
-109.873731
 21
-143.506017
 31
0.0
  0
LINE
  5
5B2
100
AcDbEntity
  8
2
370
    50
100
AcDbLine
 10
-109.873731
 20
-148.506017
 30
0.0
 11
-109.873731
 21
-150.506017
 31
0.0
  0
ARC
  5
5B3
100
AcDbEntity
  8
2
370
    50
100
AcDbCircle
 10
-109.273731
 20
-158.306017
 30
0.0
 40
1.0
100
AcDbArc
 50
126.869898
 51
180.0
  0
ARC
  5
5B4
100
AcDbEntity
  8
2
370
    50
100
AcDbCircle
 10
-109.273731
 20
-154.706017
 30
0.0
 40
1.0
100
AcDbArc
 50
180.0
 51
233.130102
  0
ARC
  5
5B5
100
AcDbEntity
  8
2
370
    50
100
AcDbCircle
 10
-109.273731
 20
-151.306017
 30
0.0
 40
1.0
100
AcDbArc
 50
126.869898
 51
180.0
  0
ARC
  5
5B6
100
AcDbEntity
  8
2
370
    50
100
AcDbCircle
 10
-109.273731
 20
-147.706017
 30
0.0
 40
1.0
100
AcDbArc
 50
180.0
 51
233.130102
  0
ARC
  5
5B7
100
AcDbEntity
  8
2
370
    50
100
AcDbCircle
 10
-109.273731
 20
-144.306017
 30
0.0
 40
1.0
100
AcDbArc
 50
126.869898
 51
180.0
  0
ARC
  5
5B8
100
AcDbEntity
  8
2
370
    50
100
AcDbCircle
 10
-109.273731
 20
-140.706017
 30
0.0
 40
1.0
100
AcDbArc
 50
180.0
 51
233.130102
  0
ARC
  5
5B9
100
AcDbEntity
  8
2
370
    50
100
AcDbCircle
 10
-109.273731
 20
-136.806017
 30
0.0
 40
1.0
100
AcDbArc
 50
126.869898
 51
180.0
  0
LINE
  5
5BA
100
AcDbEntity
  8
2
370
    50
100
AcDbLine
 10
-96.673731
 20
-136.006017
 30
0.0
 11
-103.273731
 21
-136.006017
 31
0.0
  0
ARC
  5
5BB
100
AcDbEntity
  8
2
370
    50
100
AcDbCircle
 10
-97.273731
 20
-136.806017
 30
0.0
 40
1.0
100
AcDbArc
 50
0.0
 51
53.130102
  0
LINE
  5
5BC
100
AcDbEntity
  8
2
370
    50
100
AcDbLine
 10
-96.273731
 20
-136.806017
 30
0.0
 11
-96.273731
 21
-140.706017
 31
0.0
  0
ARC
  5
5BD
100
AcDbEntity
  8
2
370
    50
100
AcDbCircle
 10
-97.273731
 20
-140.706017
 30
0.0
 40
1.0
100
AcDbArc
 50
306.869898
 51
0.0
  0
LINE
  5
5BE
100
AcDbEntity
  8
2
370
    50
100
AcDbLine
 10
-96.673731
 20
-141.506017
 30
0.0
 11
-96.673731
 21
-143.506017
 31
0.0
  0
LINE
  5
5BF
100
AcDbEntity
  8
2
370
    50
100
AcDbLine
 10
-96.673731
 20
-141.506017
 30
0.0
 11
-103.273731
 21
-141.506017
 31
0.0
  0
LINE
  5
5C0
100
AcDbEntity
  8
2
370
    50
100
AcDbLine
 10
-96.673731
 20
-143.506017
 30
0.0
 11
-103.273731
 21
-143.506017
 31
0.0
  0
ARC
  5
5C1
100
AcDbEntity
  8
2
370
    50
100
AcDbCircle
 10
-97.273731
 20
-144.306017
 30
0.0
 40
1.0
100
AcDbArc
 50
0.0
 51
53.130102
  0
LINE
  5
5C2
100
AcDbEntity
  8
2
370
    50
100
AcDbLine
 10
-96.273731
 20
-144.306017
 30
0.0
 11
-96.273731
 21
-147.706017
 31
0.0
  0
ARC
  5
5C3
100
AcDbEntity
  8
2
370
    50
100
AcDbCircle
 10
-97.273731
 20
-147.706017
 30
0.0
 40
1.0
100
AcDbArc
 50
306.869898
 51
0.0
  0
LINE
  5
5C4
100
AcDbEntity
  8
2
370
    50
100
AcDbLine
 10
-96.673731
 20
-148.506017
 30
0.0
 11
-103.273731
 21
-148.506017
 31
0.0
  0
LINE
  5
5C5
100
AcDbEntity
  8
2
370
    50
100
AcDbLine
 10
-96.673731
 20
-148.506017
 30
0.0
 11
-96.673731
 21
-150.506017
 31
0.0
  0
LINE
  5
5C6
100
AcDbEntity
  8
2
370
    50
100
AcDbLine
 10
-96.673731
 20
-150.506017
 30
0.0
 11
-103.273731
 21
-150.506017
 31
0.0
  0
ARC
  5
5C7
100
AcDbEntity
  8
2
370
    50
100
AcDbCircle
 10
-97.273731
 20
-151.306017
 30
0.0
 40
1.0
100
AcDbArc
 50
0.0
 51
53.130102
  0
LINE
  5
5C8
100
AcDbEntity
  8
2
370
    50
100
AcDbLine
 10
-96.273731
 20
-151.306017
 30
0.0
 11
-96.273731
 21
-154.706017
 31
0.0
  0
ARC
  5
5C9
100
AcDbEntity
  8
2
370
    50
100
AcDbCircle
 10
-97.273731
 20
-154.706017
 30
0.0
 40
1.0
100
AcDbArc
 50
306.869898
 51
0.0
  0
LINE
  5
5CA
100
AcDbEntity
  8
2
370
    50
100
AcDbLine
 10
-96.673731
 20
-155.506017
 30
0.0
 11
-103.273731
 21
-155.506017
 31
0.0
  0
LINE
  5
5CB
100
AcDbEntity
  8
2
370
    50
100
AcDbLine
 10
-96.673731
 20
-155.506017
 30
0.0
 11
-96.673731
 21
-157.506017
 31
0.0
  0
LINE
  5
5CC
100
AcDbEntity
  8
2
370
    50
100
AcDbLine
 10
-96.673731
 20
-157.506017
 30
0.0
 11
-103.273731
 21
-157.506017
 31
0.0
  0
ARC
  5
5CD
100
AcDbEntity
  8
2
370
    50
100
AcDbCircle
 10
-97.273731
 20
-158.306017
 30
0.0
 40
1.0
100
AcDbArc
 50
0.0
 51
53.130102
  0
LINE
  5
5CE
100
AcDbEntity
  8
2
370
    50
100
AcDbLine
 10
-96.273731
 20
-158.306017
 30
0.0
 11
-96.273731
 21
-164.206017
 31
0.0
  0
ARC
  5
5CF
100
AcDbEntity
  8
2
370
    50
100
AcDbCircle
 10
-109.273731
 20
-164.206017
 30
0.0
 40
1.0
100
AcDbArc
 50
180.0
 51
233.130102
  0
ARC
  5
5D0
100
AcDbEntity
  8
2
370
    50
100
AcDbCircle
 10
-97.273731
 20
-164.206017
 30
0.0
 40
1.0
100
AcDbArc
 50
306.869898
 51
0.0
  0
LINE
  5
5D1
100
AcDbEntity
  8
2
370
    50
100
AcDbLine
 10
-109.723731
 20
-136.006017
 30
0.0
 11
-109.723731
 21
-117.495201
 31
0.0
  0
LINE
  5
5D2
100
AcDbEntity
  8
2
370
    50
100
AcDbLine
 10
-96.823731
 20
-136.006017
 30
0.0
 11
-96.823731
 21
-117.495201
 31
0.0
  0
LINE
  5
5D3
100
AcDbEntity
  8
2
370
    50
100
AcDbLine
 10
-109.523731
 20
-166.006017
 30
0.0
 11
-109.523731
 21
-165.006017
 31
0.0
  0
LINE
  5
5D4
100
AcDbEntity
  8
2
370
    50
100
AcDbLine
 10
-97.023731
 20
-166.006017
 30
0.0
 11
-97.023731
 21
-165.006017
 31
0.0
  0
ARC
  5
5D5
100
AcDbEntity
  8
2
370
    50
100
AcDbCircle
 10
-106.498731
 20
-113.195201
 30
0.0
 40
5.375
100
AcDbArc
 50
233.130102
 51
306.869898
  0
ARC
  5
5D6
100
AcDbEntity
  8
2
370
    50
100
AcDbCircle
 10
-100.048731
 20
-121.795201
 30
0.0
 40
5.375
100
AcDbArc
 50
53.130102
 51
126.869898
  0
ARC
  5
5D7
100
AcDbEntity
  8
2
370
    50
100
AcDbCircle
 10
-100.048731
 20
-113.195201
 30
0.0
 40
5.375
100
AcDbArc
 50
233.130102
 51
306.869898
  0
HATCH
  5
5D8
100
AcDbEntity
  8
3
370
    18
100
AcDbHatch
 10
0.0
 20
0.0
 30
0.0
210
0.0
220
0.0
230
1.0
  2
_U
 70
     0
 71
     1
 91
        1
 92
        1
 93
        5
 72
     1
 10
131.78190000000001
 20
-10.590838
 11
177.036734
 21
34.663995999999997
 72
     1
 10
177.036734
 20
34.663995999999997
 11
179.15805399999999
 21
32.542675000000003
 72
     1
 10
179.15805399999999
 20
32.542675000000003
 11
137.794093
 21
-8.8212860000000006
 72
     1
 10
137.794093
 20
-8.8212860000000006
 11
133.90322
 21
-12.712159
 72
     1
 10
133.90322
 20
-12.712159
 11
131.78190000000001
 21
-10.590838
 97
        5
330
0
330
0
330
0
330
0
330
0
 75
     0
 76
     0
 52
45.0
 41
1.0
 77
     0
 78
     1
 53
45.0
 43
0.0
 44
0.0
 45
-2.828427
 46
2.828427
 79
     0
 98
        1
 10
0.0
 20
0.0
  0
HATCH
  5
5D9
100
AcDbEntity
  8
3
370
    18
100
AcDbHatch
 10
0.0
 20
0.0
 30
0.0
210
0.0
220
0.0
230
1.0
  2
_U
 70
     0
 71
     1
 91
        2
 92
        1
 93
        5
 72
     1
 10
131.78190000000001
 20
-10.590838
 11
177.036734
 21
34.663995999999997
 72
     1
 10
177.036734
 20
34.663995999999997
 11
179.15805399999999
 21
32.542675000000003
 72
     1
 10
179.15805399999999
 20
32.542675000000003
 11
137.794093
 21
-8.8212860000000006
 72
     1
 10
137.794093
 20
-8.8212860000000006
 11
133.90322
 21
-12.712159
 72
     1
 10
133.90322
 20
-12.712159
 11
131.78190000000001
 21
-10.590838
 97
        5
330
0
330
0
330
0
330
0
330
0
 92
        0
 93
        5
 72
     1
 10
131.78190000000001
 20
-10.590838
 11
177.036734
 21
34.663995999999997
 72
     1
 10
177.036734
 20
34.663995999999997
 11
179.15805399999999
 21
32.542675000000003
 72
     1
 10
179.15805399999999
 20
32.542675000000003
 11
137.794093
 21
-8.8212860000000006
 72
     1
 10
137.794093
 20
-8.8212860000000006
 11
133.90322
 21
-12.712159
 72
     1
 10
133.90322
 20
-12.712159
 11
131.78190000000001
 21
-10.590838
 97
        5
330
0
330
0
330
0
330
0
330
0
 75
     0
 76
     0
 52
45.0
 41
1.0
 77
     0
 78
     1
 53
45.0
 43
0.0
 44
0.0
 45
-2.828427
 46
2.828427
 79
     0
 98
        1
 10
0.0
 20
0.0
  0
HATCH
  5
5DA
100
AcDbEntity
  8
3
370
    18
100
AcDbHatch
 10
0.0
 20
0.0
 30
0.0
210
0.0
220
0.0
230
1.0
  2
_U
 70
     0
 71
     1
 91
        1
 92
        1
 93
        5
 72
     1
 10
131.78190000000001
 20
-10.590838
 11
133.90322
 21
-12.712159
 72
     1
 10
133.90322
 20
-12.712159
 11
137.794093
 21
-8.8212860000000006
 72
     1
 10
137.794093
 20
-8.8212860000000006
 11
179.15805399999999
 21
32.542675000000003
 72
     1
 10
179.15805399999999
 20
32.542675000000003
 11
177.036734
 21
34.663995999999997
 72
     1
 10
177.036734
 20
34.663995999999997
 11
131.78190000000001
 21
-10.590838
 97
        5
330
0
330
0
330
0
330
0
330
0
 75
     0
 76
     0
 52
0.0
 41
1.0
 77
     0
 78
     1
 53
0.0
 43
0.0
 44
0.0
 45
0.0
 46
1.0
 79
     0
 98
        1
 10
0.0
 20
0.0
  0
TEXT
  5
5DB
100
AcDbEntity
  8
3
370
    18
100
AcDbText
 10
-135.053804
 20
168.38085
 30
0.0
 40
6.4
  1
青色
 41
0.89
 72
     5
 11
-124.801004
 21
168.38085
 31
0.0
100
AcDbText
  0
TEXT
  5
5DC
100
AcDbEntity
  8
3
370
    18
100
AcDbText
 10
-141.453804
 20
160.98085
 30
0.0
 40
6.4
  1
（水表示）
 41
0.95
 72
     5
 11
-112.269804
 21
160.98085
 31
0.0
100
AcDbText
  0
TEXT
  5
5DD
100
AcDbEntity
  8
3
370
    18
100
AcDbText
 10
-225.098424
 20
168.38085
 30
0.0
 40
6.4
  1
赤色
 41
0.9
 72
     5
 11
-214.730424
 21
168.38085
 31
0.0
100
AcDbText
  0
TEXT
  5
5DE
100
AcDbEntity
  8
3
370
    18
100
AcDbText
 10
-237.898425
 20
160.98085
 30
0.0
 40
6.4
  1
（湯表示）
 41
0.96
 72
     5
 11
-208.407225
 21
160.98085
 31
0.0
100
AcDbText
  0
LINE
  5
5DF
100
AcDbEntity
  8
3
370
    18
100
AcDbLine
 10
-171.699364
 20
148.851523
 30
0.0
 11
-145.540611
 21
168.790213
 31
0.0
  0
LINE
  5
5E0
100
AcDbEntity
  8
3
370
    18
100
AcDbLine
 10
-145.540611
 20
168.790213
 30
0.0
 11
-140.715172
 21
168.790213
 31
0.0
  0
LINE
  5
5E1
100
AcDbEntity
  8
3
370
    18
100
AcDbLine
 10
-168.626517
 20
151.193704
 30
0.0
 11
-169.254102
 21
152.017071
 31
0.0
  0
LINE
  5
5E2
100
AcDbEntity
  8
3
370
    18
100
AcDbLine
 10
-169.254102
 20
152.017071
 30
0.0
 11
-171.699364
 21
148.851523
 31
0.0
  0
LINE
  5
5E3
100
AcDbEntity
  8
3
370
    18
100
AcDbLine
 10
-171.699364
 20
148.851523
 30
0.0
 11
-167.998931
 21
150.370338
 31
0.0
  0
LINE
  5
5E4
100
AcDbEntity
  8
3
370
    18
100
AcDbLine
 10
-167.998931
 20
150.370338
 30
0.0
 11
-168.626517
 21
151.193704
 31
0.0
  0
LINE
  5
5E5
100
AcDbEntity
  8
3
370
    18
100
AcDbLine
 10
-175.652864
 20
148.851523
 30
0.0
 11
-201.811617
 21
168.790213
 31
0.0
  0
LINE
  5
5E6
100
AcDbEntity
  8
3
370
    18
100
AcDbLine
 10
-201.811617
 20
168.790213
 30
0.0
 11
-206.637056
 21
168.790213
 31
0.0
  0
LINE
  5
5E7
100
AcDbEntity
  8
3
370
    18
100
AcDbLine
 10
-178.725712
 20
151.193704
 30
0.0
 11
-179.353297
 21
150.370338
 31
0.0
  0
LINE
  5
5E8
100
AcDbEntity
  8
3
370
    18
100
AcDbLine
 10
-179.353297
 20
150.370338
 30
0.0
 11
-175.652864
 21
148.851523
 31
0.0
  0
LINE
  5
5E9
100
AcDbEntity
  8
3
370
    18
100
AcDbLine
 10
-175.652864
 20
148.851523
 30
0.0
 11
-178.098126
 21
152.017071
 31
0.0
  0
LINE
  5
5EA
100
AcDbEntity
  8
3
370
    18
100
AcDbLine
 10
-178.098126
 20
152.017071
 30
0.0
 11
-178.725712
 21
151.193704
 31
0.0
  0
TEXT
  5
5EB
100
AcDbEntity
  8
3
370
    18
100
AcDbText
 10
-71.197346
 20
-201.585069
 30
0.0
 40
7.0
  1
２４六角
 41
0.94
 72
     5
 11
-46.193346
 21
-201.585069
 31
0.0
100
AcDbText
  0
TEXT
  5
5EC
100
AcDbEntity
  8
3
370
    18
100
AcDbText
 10
-71.245932
 20
-246.230897
 30
0.0
 40
6.4
  1
Ｇ１／２
 41
0.94
 72
     5
 11
-48.385132
 21
-246.230897
 31
0.0
100
AcDbText
  0
LINE
  5
5ED
100
AcDbEntity
  8
3
370
    18
100
AcDbLine
 10
-90.335351
 20
-214.394838
 30
0.0
 11
-72.581319
 21
-202.903688
 31
0.0
  0
LINE
  5
5EE
100
AcDbEntity
  8
3
370
    18
100
AcDbLine
 10
-72.581319
 20
-202.903688
 30
0.0
 11
-44.327458
 21
-202.903688
 31
0.0
  0
LINE
  5
5EF
100
AcDbEntity
  8
3
370
    18
100
AcDbLine
 10
-87.091772
 20
-212.295458
 30
0.0
 11
-87.654299
 21
-211.426343
 31
0.0
  0
LINE
  5
5F0
100
AcDbEntity
  8
3
370
    18
100
AcDbLine
 10
-87.654299
 20
-211.426343
 30
0.0
 11
-90.335351
 21
-214.394838
 31
0.0
  0
LINE
  5
5F1
100
AcDbEntity
  8
3
370
    18
100
AcDbLine
 10
-90.335351
 20
-214.394838
 30
0.0
 11
-86.529245
 21
-213.164572
 31
0.0
  0
LINE
  5
5F2
100
AcDbEntity
  8
3
370
    18
100
AcDbLine
 10
-86.529245
 20
-213.164572
 30
0.0
 11
-87.091772
 21
-212.295458
 31
0.0
  0
LINE
  5
5F3
100
AcDbEntity
  8
3
370
    18
100
AcDbLine
 10
-99.704976
 20
-219.800684
 30
0.0
 11
-70.886006
 21
-246.984422
 31
0.0
  0
LINE
  5
5F4
100
AcDbEntity
  8
3
370
    18
100
AcDbLine
 10
-70.886006
 20
-246.984422
 30
0.0
 11
-44.51582
 21
-246.984422
 31
0.0
  0
LINE
  5
5F5
100
AcDbEntity
  8
3
370
    18
100
AcDbLine
 10
-96.894349
 20
-222.451831
 30
0.0
 11
-96.183977
 21
-221.698726
 31
0.0
  0
LINE
  5
5F6
100
AcDbEntity
  8
3
370
    18
100
AcDbLine
 10
-96.183977
 20
-221.698726
 30
0.0
 11
-99.704976
 21
-219.800684
 31
0.0
  0
LINE
  5
5F7
100
AcDbEntity
  8
3
370
    18
100
AcDbLine
 10
-99.704976
 20
-219.800684
 30
0.0
 11
-97.604722
 21
-223.204936
 31
0.0
  0
LINE
  5
5F8
100
AcDbEntity
  8
3
370
    18
100
AcDbLine
 10
-97.604722
 20
-223.204936
 30
0.0
 11
-96.894349
 21
-222.451831
 31
0.0
  0
TEXT
  5
5F9
100
AcDbEntity
  8
3
370
    18
100
AcDbText
 10
-213.25399
 20
-248.670335
 30
0.0
 40
6.4
  1
逆止弁内蔵
 41
0.96
 72
     5
 11
-183.76279
 21
-248.670335
 31
0.0
100
AcDbText
  0
LINE
  5
5FA
100
AcDbEntity
  8
3
370
    18
100
AcDbLine
 10
-233.639687
 20
-186.65014
 30
0.0
 11
-197.418159
 21
-228.881875
 31
0.0
  0
LINE
  5
5FB
100
AcDbEntity
  8
3
370
    18
100
AcDbLine
 10
-197.418159
 20
-228.881875
 30
0.0
 11
-197.418159
 21
-239.01745
 31
0.0
  0
LINE
  5
5FC
100
AcDbEntity
  8
3
370
    18
100
AcDbLine
 10
-231.124305
 20
-189.582897
 30
0.0
 11
-230.338476
 21
-188.908902
 31
0.0
  0
LINE
  5
5FD
100
AcDbEntity
  8
3
370
    18
100
AcDbLine
 10
-230.338476
 20
-188.908902
 30
0.0
 11
-233.639687
 21
-186.65014
 31
0.0
  0
LINE
  5
5FE
100
AcDbEntity
  8
3
370
    18
100
AcDbLine
 10
-233.639687
 20
-186.65014
 30
0.0
 11
-231.910135
 21
-190.256891
 31
0.0
  0
LINE
  5
5FF
100
AcDbEntity
  8
3
370
    18
100
AcDbLine
 10
-231.910135
 20
-190.256891
 30
0.0
 11
-231.124305
 21
-189.582897
 31
0.0
  0
LINE
  5
600
100
AcDbEntity
  8
3
370
    18
100
AcDbLine
 10
-113.339149
 20
-193.594888
 30
0.0
 11
-197.426613
 21
-228.874185
 31
0.0
  0
LINE
  5
601
100
AcDbEntity
  8
3
370
    18
100
AcDbLine
 10
-116.901981
 20
-195.089691
 30
0.0
 11
-116.50145
 21
-196.044349
 31
0.0
  0
LINE
  5
602
100
AcDbEntity
  8
3
370
    18
100
AcDbLine
 10
-116.50145
 20
-196.044349
 30
0.0
 11
-113.339149
 21
-193.594888
 31
0.0
  0
LINE
  5
603
100
AcDbEntity
  8
3
370
    18
100
AcDbLine
 10
-113.339149
 20
-193.594888
 30
0.0
 11
-117.302512
 21
-194.135033
 31
0.0
  0
LINE
  5
604
100
AcDbEntity
  8
3
370
    18
100
AcDbLine
 10
-117.302512
 20
-194.135033
 30
0.0
 11
-116.901981
 21
-195.089691
 31
0.0
  0
DIMENSION
  5
605
100
AcDbEntity
  8
3
370
    25
100
AcDbDimension
  2
*D0
 10
-149.032089
 20
41.453515
 30
0.0
 11
-216.532089
 21
45.953515
 31
0.0
 70
     1
 71
     0
 72
     0
 41
0.0
 42
0.0
  3
Standard
100
AcDbAlignedDimension
 13
-198.032089
 23
31.22157
 33
0.0
 14
-149.032089
 24
31.22157
 34
0.0
  0
TEXT
  5
606
100
AcDbEntity
  8
3
370
    18
100
AcDbText
 10
-111.331103
 20
-30.251258
 30
0.0
 40
7.0
  1
Ｗ３５山１６
 41
0.96
 72
     5
 11
-72.355103
 21
-30.251258
 31
0.0
100
AcDbText
  0
TEXT
  5
607
100
AcDbEntity
  8
3
370
    18
100
AcDbText
 10
-123.331103
 20
-38.251258
 30
0.0
 40
7.0
  1
（取付穴φ３７±１）
 41
0.98
 72
     5
 11
-56.103103
 21
-38.251258
 31
0.0
100
AcDbText
  0
LINE
  5
608
100
AcDbEntity
  8
3
370
    18
100
AcDbLine
 10
-156.004892
 20
-12.613628
 30
0.0
 11
-123.810687
 21
-30.589149
 31
0.0
  0
LINE
  5
609
100
AcDbEntity
  8
3
370
    18
100
AcDbLine
 10
-123.810687
 20
-30.589149
 30
0.0
 11
-56.409564
 21
-30.589149
 31
0.0
  0
LINE
  5
60A
100
AcDbEntity
  8
3
370
    18
100
AcDbLine
 10
-152.631412
 20
-14.497198
 30
0.0
 11
-152.126711
 21
-13.593277
 31
0.0
  0
LINE
  5
60B
100
AcDbEntity
  8
3
370
    18
100
AcDbLine
 10
-152.126711
 20
-13.593277
 30
0.0
 11
-156.004892
 21
-12.613628
 31
0.0
  0
LINE
  5
60C
100
AcDbEntity
  8
3
370
    18
100
AcDbLine
 10
-156.004892
 20
-12.613628
 30
0.0
 11
-153.136113
 21
-15.40112
 31
0.0
  0
LINE
  5
60D
100
AcDbEntity
  8
3
370
    18
100
AcDbLine
 10
-153.136113
 20
-15.40112
 30
0.0
 11
-152.631412
 21
-14.497198
 31
0.0
  0
TEXT
  5
60E
100
AcDbEntity
  8
3
370
    18
100
AcDbText
 10
-124.796662
 20
-72.626819
 30
0.0
 40
7.0
  1
４６六角
 41
0.95
 72
     5
 11
-99.526662
 21
-72.626819
 31
0.0
100
AcDbText
  0
LINE
  5
60F
100
AcDbEntity
  8
3
370
    18
100
AcDbLine
 10
-150.55756
 20
-46.961082
 30
0.0
 11
-124.494752
 21
-74.136581
 31
0.0
  0
LINE
  5
610
100
AcDbEntity
  8
3
370
    18
100
AcDbLine
 10
-124.494752
 20
-74.136581
 30
0.0
 11
-92.491425
 21
-74.136581
 31
0.0
  0
LINE
  5
611
100
AcDbEntity
  8
3
370
    18
100
AcDbLine
 10
-147.883194
 20
-49.749624
 30
0.0
 11
-147.136006
 21
-49.03303
 31
0.0
  0
LINE
  5
612
100
AcDbEntity
  8
3
370
    18
100
AcDbLine
 10
-147.136006
 20
-49.03303
 30
0.0
 11
-150.55756
 21
-46.961082
 31
0.0
  0
LINE
  5
613
100
AcDbEntity
  8
3
370
    18
100
AcDbLine
 10
-150.55756
 20
-46.961082
 30
0.0
 11
-148.630381
 21
-50.466218
 31
0.0
  0
LINE
  5
614
100
AcDbEntity
  8
3
370
    18
100
AcDbLine
 10
-148.630381
 20
-50.466218
 30
0.0
 11
-147.883194
 21
-49.749624
 31
0.0
  0
POINT
  5
615
100
AcDbEntity
  8
3
370
    50
100
AcDbPoint
 10
-173.531953
 20
164.220997
 30
0.0
  0
POINT
  5
616
100
AcDbEntity
  8
3
370
    50
100
AcDbPoint
 10
-173.531621
 20
148.887392
 30
0.0
  0
TEXT
  5
617
100
AcDbEntity
  8
3
370
    18
100
AcDbText
 10
216.463943
 20
-271.889221
 30
0.0
 40
8.0
  1
外観寸法図
 41
0.96
 72
     5
 11
253.327943
 21
-271.889221
 31
0.0
100
AcDbText
  0
TEXT
  5
618
100
AcDbEntity
  8
3
370
    18
100
AcDbText
 10
278.864227
 20
-238.275513
 30
0.0
 40
7.0
  1
１　２
 41
0.93
 72
     5
 11
297.092227
 21
-238.275513
 31
0.0
100
AcDbText
  0
TEXT
  5
619
100
AcDbEntity
  8
3
370
    18
100
AcDbText
 10
69.092052
 20
176.192556
 30
0.0
 40
7.0
  1
止水
 41
0.89
 72
     5
 11
80.306052
 21
176.192556
 31
0.0
100
AcDbText
  0
TEXT
  5
61A
100
AcDbEntity
  8
3
370
    18
100
AcDbText
 10
96.74859
 20
213.180517
 30
0.0
 40
7.0
  1
吐水
 41
0.89
 72
     5
 11
107.96259
 21
213.180517
 31
0.0
100
AcDbText
  0
DIMENSION
  5
61B
100
AcDbEntity
  8
3
370
    25
100
AcDbDimension
  2
*D1
 10
97.759004
 20
168.221357
 30
0.0
 11
68.680223
 21
204.870217
 31
0.0
 70
     2
 71
     0
 72
     0
 41
0.0
 42
0.0
  3
Standard
100
AcDb2LineAngularDimension
 13
164.877877
 23
168.226478
 33
0.0
 14
164.886746
 24
168.221357
 34
0.0
 15
164.886746
 25
168.221357
 35
0.0
 16
65.962623
 26
194.727996
 36
0.0
1001
ACAD
1000
DSTYLE
1002
{
1070
   275
1070
     0
1070
   179
1070
     0
1002
}
  0
DIMENSION
  5
61C
100
AcDbEntity
  8
3
370
    25
100
AcDbDimension
  2
*D2
 10
35.18387
 20
98.104856
 30
0.0
 11
33.975933
 21
44.149218
 31
0.0
 70
     2
 71
     0
 72
     0
 41
0.0
 42
0.0
  3
Standard
100
AcDb2LineAngularDimension
 13
35.181591
 23
98.105361
 33
0.0
 14
35.18387
 24
98.11025
 34
0.0
 15
35.18387
 25
98.11025
 35
0.0
 16
23.511828
 26
45.444775
 36
0.0
1001
ACAD
1000
DSTYLE
1002
{
1070
   275
1070
     0
1070
   179
1070
     0
1002
}
  0
LINE
  5
61D
100
AcDbEntity
  8
3
370
    18
100
AcDbLine
 10
37.898567
 20
137.345466
 30
0.0
 11
38.201594
 21
137.345466
 31
0.0
  0
TEXT
  5
61E
100
AcDbEntity
  8
3
370
    18
100
AcDbText
 10
-60.771954
 20
98.72041
 30
0.0
 40
7.0
  1
１９３
 50
90.0
 41
0.93
 72
     5
 11
-60.771954
 21
116.94841
 31
0.0
100
AcDbText
  0
DIMENSION
  5
61F
100
AcDbEntity
  8
3
370
    25
100
AcDbDimension
  2
*D3
 10
-59.771954
 20
205.558805
 30
0.0
 11
-62.271954
 21
109.22041
 31
0.0
 71
     0
 72
     0
 41
0.0
 42
0.0
  3
Standard
100
AcDbAlignedDimension
 13
155.254678
 23
12.882015
 33
0.0
 14
99.948463
 24
205.558805
 34
0.0
 50
90.0
100
AcDbRotatedDimension
  0
POINT
  5
620
100
AcDbEntity
  8
3
370
    50
100
AcDbPoint
 10
250.880284
 20
-87.17811
 30
0.0
  0
TEXT
  5
621
100
AcDbEntity
  8
3
370
    18
100
AcDbText
 10
289.075073
 20
-75.648048
 30
0.0
 40
7.0
  1
２０４（金具先端まで）
 50
90.0
 41
0.98
 72
     5
 11
289.075073
 21
-1.560048
 31
0.0
100
AcDbText
  0
DIMENSION
  5
622
100
AcDbEntity
  8
3
370
    25
100
AcDbDimension
  2
*D4
 10
290.075073
 20
12.882015
 30
0.0
 11
287.575073
 21
-37.148048
 31
0.0
 71
     0
 72
     0
 41
0.0
 42
0.0
  3
Standard
100
AcDbAlignedDimension
 13
250.880284
 23
-87.17811
 33
0.0
 14
155.254678
 24
12.882015
 34
0.0
 50
90.0
100
AcDbRotatedDimension
  0
TEXT
  5
623
100
AcDbEntity
  8
3
370
    18
100
AcDbText
 10
84.719274
 20
-14.557295
 30
0.0
 40
7.0
  1
１２１
 41
0.93
 72
     5
 11
102.947274
 21
-14.557295
 31
0.0
100
AcDbText
  0
DIMENSION
  5
624
100
AcDbEntity
  8
3
370
    25
100
AcDbDimension
  2
*D5
 10
155.254678
 20
-15.557295
 30
0.0
 11
95.219274
 21
-13.557295
 31
0.0
 70
     1
 71
     0
 72
     0
 41
0.0
 42
0.0
  3
Standard
100
AcDbAlignedDimension
 13
35.18387
 23
98.110327
 33
0.0
 14
155.254678
 24
-10.080653
 34
0.0
 50
180.0
  0
TEXT
  5
625
100
AcDbEntity
  8
3
370
    18
100
AcDbText
 10
0.713744
 20
48.496171
 30
0.0
 40
7.0
  1
８６
 50
90.0
 41
0.9
 72
     5
 11
0.713744
 21
59.836171
 31
0.0
100
AcDbText
  0
DIMENSION
  5
626
100
AcDbEntity
  8
3
370
    25
100
AcDbDimension
  2
*D6
 10
1.713744
 20
98.110327
 30
0.0
 11
-0.786256
 21
55.496171
 31
0.0
 71
     0
 72
     0
 41
0.0
 42
0.0
  3
Standard
100
AcDbAlignedDimension
 13
155.254678
 23
12.882015
 33
0.0
 14
35.18387
 24
98.110327
 34
0.0
 50
90.0
100
AcDbRotatedDimension
  0
TEXT
  5
627
100
AcDbEntity
  8
3
370
    18
100
AcDbText
 10
-21.345037
 20
64.61374
 30
0.0
 40
7.0
  1
１２５
 50
90.0
 41
0.93
 72
     5
 11
-21.345037
 21
82.84174
 31
0.0
100
AcDbText
  0
DIMENSION
  5
628
100
AcDbEntity
  8
3
370
    25
100
AcDbDimension
  2
*D7
 10
-20.345037
 20
137.345466
 30
0.0
 11
-22.845037
 21
75.113741
 31
0.0
 71
     0
 72
     0
 41
0.0
 42
0.0
  3
Standard
100
AcDbAlignedDimension
 13
155.254678
 23
12.882015
 33
0.0
 14
37.898567
 24
137.345466
 34
0.0
 50
90.0
100
AcDbRotatedDimension
  0
TEXT
  5
629
100
AcDbEntity
  8
3
370
    18
100
AcDbText
 10
-40.309891
 20
80.051686
 30
0.0
 40
7.0
  1
１５６
 50
90.0
 41
0.93
 72
     5
 11
-40.309891
 21
98.279686
 31
0.0
100
AcDbText
  0
DIMENSION
  5
62A
100
AcDbEntity
  8
3
370
    25
100
AcDbDimension
  2
*D8
 10
-39.309891
 20
168.221357
 30
0.0
 11
-41.809891
 21
90.551686
 31
0.0
 71
     0
 72
     0
 41
0.0
 42
0.0
  3
Standard
100
AcDbAlignedDimension
 13
155.254678
 23
12.882015
 33
0.0
 14
71.294469
 24
168.221357
 34
0.0
 50
90.0
100
AcDbRotatedDimension
  0
POINT
  5
62B
100
AcDbEntity
  8
3
370
    50
100
AcDbPoint
 10
75.253773
 20
-162.483387
 30
0.0
  0
POINT
  5
62C
100
AcDbEntity
  8
3
370
    50
100
AcDbPoint
 10
-173.532089
 20
12.882015
 30
0.0
  0
TEXT
  5
62D
100
AcDbEntity
  8
3
370
    18
100
AcDbText
 10
0.713744
 20
-148.300686
 30
0.0
 40
7.0
  1
湯側：４０４，水側：４１４（金具先端まで）
 50
90.0
 41
0.99
 72
     5
 11
0.713744
 21
-4.156686
 31
0.0
100
AcDbText
  0
DIMENSION
  5
62E
100
AcDbEntity
  8
3
370
    25
100
AcDbDimension
  2
*D9
 10
1.713744
 20
12.882015
 30
0.0
 11
-0.786256
 21
-74.800686
 31
0.0
 71
     0
 72
     0
 41
0.0
 42
0.0
  3
Standard
100
AcDbAlignedDimension
 13
75.253773
 23
-162.483387
 33
0.0
 14
155.254678
 24
12.882015
 34
0.0
 50
90.0
100
AcDbRotatedDimension
  0
POINT
  5
62F
100
AcDbEntity
  8
3
370
    50
100
AcDbPoint
 10
130.794093
 20
49.400591
 30
0.0
  0
POINT
  5
630
100
AcDbEntity
  8
3
370
    50
100
AcDbPoint
 10
155.254678
 20
-15.4023
 30
0.0
  0
POINT
  5
631
100
AcDbEntity
  8
3
370
    50
100
AcDbPoint
 10
168.021959
 20
0.193453
 30
0.0
  0
POINT
  5
632
100
AcDbEntity
  8
3
370
    50
100
AcDbPoint
 10
155.254678
 20
-12.573868
 30
0.0
  0
TEXT
  5
633
100
AcDbEntity
  8
3
370
    18
100
AcDbText
 10
88.974367
 20
-34.306546
 30
0.0
 40
7.0
  1
ＭＡＸ　１８
 50
315.000088
 41
0.96
 72
     5
 11
116.534603
 21
-61.866698
 31
0.0
100
AcDbText
  0
DIMENSION
  5
634
100
AcDbEntity
  8
3
370
    25
100
AcDbDimension
  2
*D10
 10
108.419815
 20
-55.166145
 30
0.0
 11
104.884291
 21
-48.448657
 31
0.0
 70
     1
 71
     0
 72
     0
 41
0.0
 42
0.0
  3
Standard
100
AcDbAlignedDimension
 13
130.794093
 23
-11.578645
 33
0.0
 14
128.738173
 24
-34.847725
 34
0.0
 50
135.000088
  0
TEXT
  5
635
100
AcDbEntity
  8
3
370
    18
100
AcDbText
 10
89.087402
 20
-234.816727
 30
0.0
 40
6.0
  1
ＭＬＺ６５５ＭＭ
 41
0.97
 72
     5
 11
134.483402
 21
-234.816727
 31
0.0
100
AcDbText
  0
TEXT
  5
636
100
AcDbEntity
  8
3
370
    18
100
AcDbText
 10
325.832611
 20
-270.728409
 30
0.0
 40
7.0
  1
１１００９９
 41
0.94
 72
     5
 11
363.996611
 21
-270.728409
 31
0.0
100
AcDbText
  0
TEXT
  5
637
100
AcDbEntity
  8
3
370
    18
100
AcDbText
 10
77.388153
 20
-226.545441
 30
0.0
 40
6.0
  1
台付シングル湯水混合水栓
 41
0.98
 72
     5
 11
146.772153
 21
-226.545441
 31
0.0
100
AcDbText
  0
TEXT
  5
638
100
AcDbEntity
  8
3
370
    18
100
AcDbText
 10
-116.018577
 20
-268.997421
 30
0.0
 40
7.0
  1
外径φ１４，Ｌ＝１０００
 41
0.98
 72
     5
 11
-35.070577
 21
-268.997421
 31
0.0
100
AcDbText
  0
ENDSEC
  0
SECTION
  2
OBJECTS
  0
DICTIONARY
  5
6B5
100
AcDbDictionary
280
     0
281
     1
  3
ACAD_GROUP
350
6B6
  3
ACAD_MLINESTYLE
350
6B7
  0
DICTIONARY
  5
6B6
102
{ACAD_REACTORS
330
6B5
102
}
100
AcDbDictionary
280
     0
281
     1
  0
DICTIONARY
  5
6B7
102
{ACAD_REACTORS
330
6B5
102
}
100
AcDbDictionary
280
     0
281
     1
  3
Standard
350
6B8
  0
MLINESTYLE
  5
6B8
102
{ACAD_REACTORS
330
6B7
102
}
100
AcDbMlineStyle
  2
Standard
 70
     0
  3

 62
     0
 51
90.0
 52
90.0
 71
     2
 49
0.5
 62
   256
  6
ByLayer
 49
-0.5
 62
   256
  6
ByLayer
  0
ENDSEC
  0
EOF
