  0
SECTION
  2
HEADER
  9
$ACADVER
  1
AC1015
  9
$ACADMAINTVER
 70
     6
  9
$DWGCODEPAGE
  3
ANSI_932
  9
$INSBASE
 10
0.0
 20
0.0
 30
0.0
  9
$EXTMIN
 10
-1261.5
 20
-891.0
 30
1.000000E+20
  9
$EXTMAX
 10
1261.5
 20
891.0
 30
-1.000000E+20
  9
$LIMMIN
 10
-1261.5
 20
-891.0
  9
$LIMMAX
 10
1261.5
 20
891.0
  9
$ORTHOMODE
 70
     0
  9
$REGENMODE
 70
     1
  9
$FILLMODE
 70
     1
  9
$QTEXTMODE
 70
     0
  9
$MIRRTEXT
 70
     1
  9
$LTSCALE
 40
1.0
  9
$ATTMODE
 70
     1
  9
$TEXTSIZE
 40
0.2
  9
$TRACEWID
 40
0.05
  9
$TEXTSTYLE
  7
STANDARD
  9
$CLAYER
  8
0
  9
$CELTYPE
  6
CONTINUOUS
  9
$CECOLOR
 62
   256
  9
$CELTSCALE
 40
1.0
  9
$DISPSILH
 70
     0
  9
$DIMSCALE
 40
3.0
  9
$DIMASZ
 40
2.0
  9
$DIMEXO
 40
1.0
  9
$DIMDLI
 40
0.38
  9
$DIMRND
 40
0.0
  9
$DIMDLE
 40
0.0
  9
$DIMEXE
 40
2.0
  9
$DIMTP
 40
0.0
  9
$DIMTM
 40
0.0
  9
$DIMTXT
 40
3.5
  9
$DIMCEN
 40
0.09
  9
$DIMTSZ
 40
0.0
  9
$DIMTOL
 70
     0
  9
$DIMLIM
 70
     0
  9
$DIMTIH
 70
     0
  9
$DIMTOH
 70
     0
  9
$DIMSE1
 70
     0
  9
$DIMSE2
 70
     0
  9
$DIMTAD
 70
     1
  9
$DIMZIN
 70
     0
  9
$DIMBLK
  1

  9
$DIMASO
 70
     1
  9
$DIMSHO
 70
     1
  9
$DIMPOST
  1

  9
$DIMAPOST
  1

  9
$DIMALT
 70
     0
  9
$DIMALTD
 70
     2
  9
$DIMALTF
 40
25.4
  9
$DIMLFAC
 40
1.0
  9
$DIMTOFL
 70
     0
  9
$DIMTVP
 40
0.0
  9
$DIMTIX
 70
     0
  9
$DIMSOXD
 70
     0
  9
$DIMSAH
 70
     0
  9
$DIMBLK1
  1

  9
$DIMBLK2
  1

  9
$DIMSTYLE
  2
Standard
  9
$DIMCLRD
 70
     0
  9
$DIMCLRE
 70
     0
  9
$DIMCLRT
 70
     0
  9
$DIMTFAC
 40
1.0
  9
$DIMGAP
 40
0.5
  9
$DIMJUST
 70
     0
  9
$DIMSD1
 70
     0
  9
$DIMSD2
 70
     0
  9
$DIMTOLJ
 70
     1
  9
$DIMTZIN
 70
     0
  9
$DIMALTZ
 70
     0
  9
$DIMALTTZ
 70
     0
  9
$DIMUPT
 70
     0
  9
$DIMDEC
 70
     3
  9
$DIMTDEC
 70
     4
  9
$DIMALTU
 70
     2
  9
$DIMALTTD
 70
     2
  9
$DIMTXSTY
  7
STANDARD
  9
$DIMAUNIT
 70
     0
  9
$DIMADEC
 70
     0
  9
$DIMALTRND
 40
0.0
  9
$DIMAZIN
 70
     0
  9
$DIMDSEP
 70
     0
  9
$DIMATFIT
 70
     3
  9
$DIMFRAC
 70
     0
  9
$DIMLDRBLK
  1

  9
$DIMLUNIT
 70
     2
  9
$DIMLWD
 70
     0
  9
$DIMLWE
 70
     0
  9
$DIMTMOVE
 70
     0
  9
$LUNITS
 70
     2
  9
$LUPREC
 70
     4
  9
$SKETCHINC
 40
0.1
  9
$FILLETRAD
 40
0.0
  9
$AUNITS
 70
     0
  9
$AUPREC
 70
     0
  9
$MENU
  1
acad
  9
$ELEVATION
 40
0.0
  9
$PELEVATION
 40
0.0
  9
$THICKNESS
 40
0.0
  9
$LIMCHECK
 70
     0
  9
$CHAMFERA
 40
0.0
  9
$CHAMFERB
 40
0.0
  9
$CHAMFERC
 40
0.0
  9
$CHAMFERD
 40
0.0
  9
$SKPOLY
 70
     0
  9
$TDCREATE
 40
2453383.000000000
  9
$TDUCREATE
 40
0.000000000
  9
$TDUPDATE
 40
0.000000000
  9
$TDUUPDATE
 40
2447892.625000000
  9
$TDINDWG
 40
0.0000000000
  9
$TDUSRTIMER
 40
0.0000000000
  9
$USRTIMER
 70
     1
  9
$ANGBASE
 50
0.0
  9
$ANGDIR
 70
     0
  9
$PDMODE
 70
     0
  9
$PDSIZE
 40
0.0
  9
$PLINEWID
 40
0.0
  9
$SPLFRAME
 70
     0
  9
$SPLINETYPE
 70
     6
  9
$SPLINESEGS
 70
     8
  9
$HANDSEED
  5
84D
  9
$SURFTAB1
 70
     6
  9
$SURFTAB2
 70
     6
  9
$SURFTYPE
 70
     6
  9
$SURFU
 70
     6
  9
$SURFV
 70
     6
  9
$UCSBASE
  2

  9
$UCSNAME
  2

  9
$UCSORG
 10
0.0
 20
0.0
 30
0.0
  9
$UCSXDIR
 10
1.0
 20
0.0
 30
0.0
  9
$UCSYDIR
 10
0.0
 20
1.0
 30
0.0
  9
$UCSORTHOREF
  2

  9
$UCSORTHOVIEW
 70
     0
  9
$UCSORGTOP
 10
0.0
 20
0.0
 30
0.0
  9
$UCSORGBOTTOM
 10
0.0
 20
0.0
 30
0.0
  9
$UCSORGLEFT
 10
0.0
 20
0.0
 30
0.0
  9
$UCSORGRIGHT
 10
0.0
 20
0.0
 30
0.0
  9
$UCSORGFRONT
 10
0.0
 20
0.0
 30
0.0
  9
$UCSORGBACK
 10
0.0
 20
0.0
 30
0.0
  9
$PUCSBASE
  2

  9
$PUCSNAME
  2

  9
$PUCSORG
 10
0.0
 20
0.0
 30
0.0
  9
$PUCSXDIR
 10
1.0
 20
0.0
 30
0.0
  9
$PUCSYDIR
 10
0.0
 20
1.0
 30
0.0
  9
$PUCSORTHOREF
  2

  9
$PUCSORTHOVIEW
 70
     0
  9
$PUCSORGTOP
 10
0.0
 20
0.0
 30
0.0
  9
$PUCSORGBOTTOM
 10
0.0
 20
0.0
 30
0.0
  9
$PUCSORGLEFT
 10
0.0
 20
0.0
 30
0.0
  9
$PUCSORGRIGHT
 10
0.0
 20
0.0
 30
0.0
  9
$PUCSORGFRONT
 10
0.0
 20
0.0
 30
0.0
  9
$PUCSORGBACK
 10
0.0
 20
0.0
 30
0.0
  9
$USERI1
 70
     0
  9
$USERI2
 70
     0
  9
$USERI3
 70
     0
  9
$USERI4
 70
     0
  9
$USERI5
 70
     0
  9
$USERR1
 40
0.0
  9
$USERR2
 40
0.0
  9
$USERR3
 40
0.0
  9
$USERR4
 40
0.0
  9
$USERR5
 40
0.0
  9
$WORLDVIEW
 70
     1
  9
$SHADEDGE
 70
     3
  9
$SHADEDIF
 70
    70
  9
$TILEMODE
 70
     1
  9
$MAXACTVP
 70
    16
  9
$PINSBASE
 10
0.0
 20
0.0
 30
0.0
  9
$PLIMCHECK
 70
     0
  9
$PEXTMIN
 10
1.000000E+20
 20
1.000000E+20
 30
1.000000E+20
  9
$PEXTMAX
 10
-1.000000E+20
 20
-1.000000E+20
 30
-1.000000E+20
  9
$PLIMMIN
 10
0.0
 20
0.0
  9
$PLIMMAX
 10
12.0
 20
9.0
  9
$UNITMODE
 70
     0
  9
$VISRETAIN
 70
     0
  9
$PLINEGEN
 70
     1
  9
$PSLTSCALE
 70
     0
  9
$TREEDEPTH
 70
  3020
  9
$CMLSTYLE
  2
Standard
  9
$CMLJUST
 70
     0
  9
$CMLSCALE
 40
1.0
  9
$PROXYGRAPHICS
 70
     0
  9
$MEASUREMENT
 70
     0
  9
$CELWEIGHT
370
     0
  9
$ENDCAPS
280
     0
  9
$JOINSTYLE
280
     0
  9
$LWDISPLAY
290
     0
  9
$INSUNITS
 70
     0
  9
$HYPERLINKBASE
  1

  9
$STYLESHEET
  1

  9
$XEDIT
290
     1
  9
$CEPSNTYPE
380
     0
  9
$PSTYLEMODE
290
     1
  9
$FINGERPRINTGUID
  2

  9
$VERSIONGUID
  2

  9
$EXTNAMES
290
     1
  9
$PSVPSCALE
 40
0.0
  0
ENDSEC
  0
SECTION
  2
CLASSES
  0
CLASS
  1
LWPOLYLINE
  2
AcDbPolyline
  3
AutoCAD 2000
 90
        0
280
     0
281
     1
  0
CLASS
  1
IMAGE
  2
AcDbRasterImage
  3
ISM
 90
      127
280
     0
281
     1
  0
CLASS
  1
OLE2FRAME
  2
AcDbOle2Frame
  3
AutoCAD 2000
 90
        0
280
     0
281
     1
  0
CLASS
  1
HATCH
  2
AcDbHatch
  3
AutoCAD 2000
 90
        0
280
     0
281
     1
  0
CLASS
  1
DICTIONARYVAR
  2
AcDbDictionaryVar
  3
AutoCAD 2000
 90
        0
280
     0
281
     0
  0
CLASS
  1
RASTERVARIABLES
  2
AcDbRasterVariables
  3
ISM
 90
        0
280
     0
281
     0
  0
CLASS
  1
IMAGEDEF
  2
AcDbRasterImageDef
  3
ISM
 90
        0
280
     0
281
     0
  0
CLASS
  1
IMAGEDEF_REACTOR
  2
AcDbRasterImageDefReactor
  3
ISM
 90
        1
280
     0
281
     0
  0
CLASS
  1
IDBUFFER
  2
AcDbIdBuffer
  3
AutoCAD 2000
 90
        0
280
     0
281
     0
  0
CLASS
  1
SPATIAL_FILTER
  2
AcDbSpatialFilter
  3
AutoCAD 2000
 90
        0
280
     0
281
     0
  0
CLASS
  1
XRECORD
  2
AcDbXrecord
  3
AutoCAD 2000
 90
        0
280
     0
281
     0
  0
CLASS
  1
SORTENTSTABLE
  2
AcDbSortentsTable
  3
AutoCAD 2000
 90
        0
280
     0
281
     0
  0
CLASS
  1
LAYER_INDEX
  2
AcDbLayerIndex
  3
AutoCAD 2000
 90
        0
280
     0
281
     0
  0
CLASS
  1
SPATIAL_INDEX
  2
AcDbSpatialIndex
  3
AutoCAD 2000
 90
        0
280
     0
281
     0
  0
CLASS
  1
OBJECT_PTR
  2
CAseDLPNTableRecord
  3
"ASE-LPNTableRecord"
 90
        1
280
     0
281
     0
  0
CLASS
  1
LAYOUT
  2
AcDbLayout
  3
AutoCAD 2000
 90
        0
280
     0
281
     0
  0
CLASS
  1
PLOTSETTINGS
  2
AcDbPlotSettings
  3
AutoCAD 2000
 90
        0
280
     0
281
     0
  0
CLASS
  1
ACDBDICTIONARYWDFLT
  2
AcDbDictionaryWithDefault
  3
AutoCAD 2000
 90
        0
280
     0
281
     0
  0
CLASS
  1
ACDBPLACEHOLDER
  2
AcDbPlaceHolder
  3
AutoCAD 2000
 90
        0
280
     0
281
     0
  0
CLASS
  1
VBA_PROJECT
  2
AcDbVbaProject
  3
acadvba
 90
        0
280
     0
281
     0
  0
CLASS
  1
WIPEOUT
  2
AcDbWipeout
  3
WipeOut|AutoCAD Express Tool|expresstools@autodesk.com
 90
      127
280
     0
281
     1
  0
CLASS
  1
WIPEOUTVARIABLES
  2
AcDbWipeoutVariables
  3
WipeOut|AutoCAD Express Tool|expresstools@autodesk.com
 90
        0
280
     0
281
     0
  0
CLASS
  1
RTEXT
  2
RText
  3
RText|AutoCAD Express Tool|expresstools@autodesk.com
 90
        0
280
     0
281
     1
  0
CLASS
  1
ARCALIGNEDTEXT
  2
AcDbArcAlignedText
  3
ATEXT|AutoCAD Express Tool|expresstools@autodesk.com
 90
        0
280
     0
281
     1
  0
ENDSEC
  0
SECTION
  2
TABLES
  0
TABLE
  2
VPORT
  5
6
100
AcDbSymbolTable
 70
     1
  0
VPORT
  5
19
100
AcDbSymbolTableRecord
100
AcDbViewportTableRecord
  2
*ACTIVE
 70
     0
 10
0.0
 20
0.0
 11
1.0
 21
1.0
 12
0.0
 22
0.0
 13
0.0
 23
0.0
 14
1.0
 24
1.0
 15
0.0
 25
0.0
 16
0.0
 26
0.0
 36
1.0
 17
0.0
 27
0.0
 37
0.0
 40
1782.0
 41
1.415825
 42
50.0
 43
0.0
 44
0.0
 50
0.0
 51
0.0
 71
     0
 72
   500
 73
     1
 74
     1
 75
     0
 76
     0
 77
     0
 78
     0
281
     0
 65
     0
110
0.0
120
0.0
130
0.0
111
1.0
121
0.0
131
0.0
112
0.0
122
1.0
132
0.0
345
0
346
0
 79
     0
146
0.0
  0
ENDTAB
  0
TABLE
  2
LTYPE
  5
3
100
AcDbSymbolTable
 70
     9
  0
LTYPE
  5
C
100
AcDbSymbolTableRecord
100
AcDbLinetypeTableRecord
  2
ByBlock
 70
    64
  3

 72
    65
 73
     0
 40
0.0
  0
LTYPE
  5
D
100
AcDbSymbolTableRecord
100
AcDbLinetypeTableRecord
  2
ByLayer
 70
    64
  3

 72
    65
 73
     0
 40
0.0
  0
LTYPE
  5
E
100
AcDbSymbolTableRecord
100
AcDbLinetypeTableRecord
  2
CONTINUOUS
 70
     0
  3
Solid line
 72
    65
 73
     0
 40
0.0
  0
LTYPE
  5
F
100
AcDbSymbolTableRecord
100
AcDbLinetypeTableRecord
  2
DASHED
 70
     0
  3
__ __ __ __ __ __ __ __ __ __ __ __ __ __ __
 72
    65
 73
     2
 40
2.0
 49
1.2
 74
     0
 49
-0.8
 74
     0
  0
LTYPE
  5
10
100
AcDbSymbolTableRecord
100
AcDbLinetypeTableRecord
  2
CENTER
 70
     0
  3
____ _ ____ _ ____ _ ____ _ ____ _ ____ _ ____
 72
    65
 73
     4
 40
12.0
 49
9.0
 74
     0
 49
-1.0
 74
     0
 49
1.0
 74
     0
 49
-1.0
 74
     0
  0
LTYPE
  5
11
100
AcDbSymbolTableRecord
100
AcDbLinetypeTableRecord
  2
HIDDEN
 70
     0
  3
_ _ _ _ _ _ _ _ _ _ _ _ _ _ _ _ _ _ _ _ _ _ _
 72
    65
 73
     2
 40
3.2
 49
2.4
 74
     0
 49
-0.8
 74
     0
  0
LTYPE
  5
12
100
AcDbSymbolTableRecord
100
AcDbLinetypeTableRecord
  2
PHANTOM
 70
     0
  3
_____ _ _ _____ _ _ _____ _ _ _____ _ _ _____
 72
    65
 73
     6
 40
13.5
 49
9.0
 74
     0
 49
-1.0
 74
     0
 49
1.0
 74
     0
 49
-0.5
 74
     0
 49
1.0
 74
     0
 49
-1.0
 74
     0
  0
LTYPE
  5
13
100
AcDbSymbolTableRecord
100
AcDbLinetypeTableRecord
  2
DOT
 70
     0
  3
...............................................
 72
    65
 73
     2
 40
1.0
 49
0.5
 74
     0
 49
-0.5
 74
     0
  0
LTYPE
  5
14
100
AcDbSymbolTableRecord
100
AcDbLinetypeTableRecord
  2
DASHDOT
 70
     0
  3
__ . __ . __ . __ . __ . __ . __ . __ . __ . __
 72
    65
 73
     4
 40
8.0
 49
5.0
 74
     0
 49
-1.0
 74
     0
 49
1.0
 74
     0
 49
-1.0
 74
     0
  0
ENDTAB
  0
TABLE
  2
LAYER
  5
1
100
AcDbSymbolTable
 70
     4
  0
LAYER
  5
15
100
AcDbSymbolTableRecord
100
AcDbLayerTableRecord
  2
0
 70
     0
 62
     7
  6
CONTINUOUS
290
     1
370
    -3
390
0
  0
LAYER
  5
16
100
AcDbSymbolTableRecord
100
AcDbLayerTableRecord
  2
1
 70
     0
 62
     7
  6
CONTINUOUS
290
     1
370
    -3
390
0
  0
LAYER
  5
17
100
AcDbSymbolTableRecord
100
AcDbLayerTableRecord
  2
2
 70
     0
 62
     7
  6
CONTINUOUS
290
     1
370
    -3
390
0
  0
LAYER
  5
18
100
AcDbSymbolTableRecord
100
AcDbLayerTableRecord
  2
3
 70
     0
 62
     7
  6
CONTINUOUS
290
     1
370
    -3
390
0
  0
ENDTAB
  0
TABLE
  2
STYLE
  5
2
100
AcDbSymbolTable
 70
     1
  0
STYLE
  5
1B
100
AcDbSymbolTableRecord
100
AcDbTextStyleTableRecord
  2
STANDARD
 70
    64
 40
0.0
 41
1.0
 50
0.0
 71
     0
 42
1.0
  3
txt
  4
BIGFONT
  0
ENDTAB
  0
TABLE
  2
VIEW
  5
4
100
AcDbSymbolTable
 70
     0
  0
ENDTAB
  0
TABLE
  2
UCS
  5
5
100
AcDbSymbolTable
 70
     0
  0
ENDTAB
  0
TABLE
  2
APPID
  5
7
100
AcDbSymbolTable
 70
     1
  0
APPID
  5
1A
100
AcDbSymbolTableRecord
100
AcDbRegAppTableRecord
  2
ACAD
 70
     0
  0
ENDTAB
  0
TABLE
  2
DIMSTYLE
  5
8
100
AcDbSymbolTable
 70
     1
100
AcDbDimStyleTable
 71
     0
  0
DIMSTYLE
105
2E
100
AcDbSymbolTableRecord
100
AcDbDimStyleTableRecord
  2
Standard
 70
     0
  3

  4

 40
3.0
 41
2.0
 42
1.0
 43
0.38
 44
2.0
 45
0.0
 46
0.0
 47
0.0
 48
0.0
 71
     0
 72
     0
 73
     0
 74
     0
 75
     0
 76
     0
 77
     1
 78
     0
 79
     0
140
3.5
141
0.09
142
0.0
143
25.4
144
1.0
145
0.0
146
1.0
147
0.5
148
0.0
170
     0
171
     2
172
     0
173
     0
174
     0
175
     0
176
     0
177
     0
178
     0
179
     0
271
     3
272
     4
273
     2
274
     2
275
     0
276
     0
277
     2
278
    46
279
     0
280
     0
281
     0
282
     0
283
     1
284
     0
285
     0
286
     0
288
     0
289
     3
340
1B
341
0
342
0
343
0
344
0
371
    -2
372
    -2
  0
ENDTAB
  0
TABLE
  2
BLOCK_RECORD
  5
29
100
AcDbSymbolTable
 70
    11
  0
BLOCK_RECORD
  5
27
100
AcDbSymbolTableRecord
100
AcDbBlockTableRecord
  2
*Model_Space
340
0
  0
BLOCK_RECORD
  5
28
100
AcDbSymbolTableRecord
100
AcDbBlockTableRecord
  2
*Paper_Space
340
0
  0
BLOCK_RECORD
  5
1C
100
AcDbSymbolTableRecord
100
AcDbBlockTableRecord
  2
*D0
340
0
  0
BLOCK_RECORD
  5
1D
100
AcDbSymbolTableRecord
100
AcDbBlockTableRecord
  2
*D1
340
0
  0
BLOCK_RECORD
  5
1E
100
AcDbSymbolTableRecord
100
AcDbBlockTableRecord
  2
*D2
340
0
  0
BLOCK_RECORD
  5
1F
100
AcDbSymbolTableRecord
100
AcDbBlockTableRecord
  2
*D3
340
0
  0
BLOCK_RECORD
  5
20
100
AcDbSymbolTableRecord
100
AcDbBlockTableRecord
  2
*D4
340
0
  0
BLOCK_RECORD
  5
21
100
AcDbSymbolTableRecord
100
AcDbBlockTableRecord
  2
*D5
340
0
  0
BLOCK_RECORD
  5
22
100
AcDbSymbolTableRecord
100
AcDbBlockTableRecord
  2
*D6
340
0
  0
BLOCK_RECORD
  5
23
100
AcDbSymbolTableRecord
100
AcDbBlockTableRecord
  2
*D7
340
0
  0
BLOCK_RECORD
  5
24
100
AcDbSymbolTableRecord
100
AcDbBlockTableRecord
  2
*D8
340
0
  0
BLOCK_RECORD
  5
25
100
AcDbSymbolTableRecord
100
AcDbBlockTableRecord
  2
*D9
340
0
  0
BLOCK_RECORD
  5
26
100
AcDbSymbolTableRecord
100
AcDbBlockTableRecord
  2
*D10
340
0
  0
ENDTAB
  0
ENDSEC
  0
SECTION
  2
BLOCKS
  0
BLOCK
  5
2A
100
AcDbEntity
  8
0
390
0
100
AcDbBlockBegin
  2
*Model_Space
 70
     0
 10
0.0
 20
0.0
 30
0.0
  3
*Model_Space
  1

  0
ENDBLK
  5
2B
100
AcDbEntity
  8
0
390
0
100
AcDbBlockEnd
  0
BLOCK
  5
2C
100
AcDbEntity
 67
     1
  8
0
390
0
100
AcDbBlockBegin
  2
*Paper_Space
 70
     0
 10
0.0
 20
0.0
 30
0.0
  3
*Paper_Space
  1

  0
ENDBLK
  5
2D
100
AcDbEntity
 67
     1
  8
0
390
0
100
AcDbBlockEnd
  0
BLOCK
  5
7C8
100
AcDbEntity
  8
3
100
AcDbBlockBegin
  2
*D0
 70
     1
 10
0.0
 20
0.0
 30
0.0
  3
*D0
  1

  0
TEXT
  5
7C9
100
AcDbEntity
  8
3
370
    25
100
AcDbText
 10
-414.860411
 20
187.452962
 30
0.0
 40
10.5
  1
φ４９
 72
     5
 11
-385.460411
 21
187.452962
 31
0.0
100
AcDbText
  0
LINE
  5
7CA
100
AcDbEntity
  8
3
370
    25
100
AcDbLine
 10
-371.360411
 20
178.721017
 30
0.0
 11
-371.360411
 21
188.952962
 31
0.0
  0
LINE
  5
7CB
100
AcDbEntity
  8
3
370
    25
100
AcDbLine
 10
-371.360411
 20
185.952962
 30
0.0
 11
-377.155966
 21
187.505876
 31
0.0
  0
LINE
  5
7CC
100
AcDbEntity
  8
3
370
    25
100
AcDbLine
 10
-371.360411
 20
185.952962
 30
0.0
 11
-377.155966
 21
184.400047
 31
0.0
  0
LINE
  5
7CD
100
AcDbEntity
  8
3
370
    25
100
AcDbLine
 10
-377.155966
 20
187.505876
 30
0.0
 11
-377.155966
 21
184.400047
 31
0.0
  0
LINE
  5
7CE
100
AcDbEntity
  8
3
370
    25
100
AcDbLine
 10
-414.860411
 20
185.952962
 30
0.0
 11
-307.360411
 21
185.952962
 31
0.0
  0
LINE
  5
7CF
100
AcDbEntity
  8
3
370
    25
100
AcDbLine
 10
-322.360411
 20
185.952962
 30
0.0
 11
-316.564856
 21
184.400047
 31
0.0
  0
LINE
  5
7D0
100
AcDbEntity
  8
3
370
    25
100
AcDbLine
 10
-322.360411
 20
185.952962
 30
0.0
 11
-316.564856
 21
187.505876
 31
0.0
  0
LINE
  5
7D1
100
AcDbEntity
  8
3
370
    25
100
AcDbLine
 10
-316.564856
 20
184.400047
 30
0.0
 11
-316.564856
 21
187.505876
 31
0.0
  0
LINE
  5
7D2
100
AcDbEntity
  8
3
370
    25
100
AcDbLine
 10
-322.360411
 20
178.721017
 30
0.0
 11
-322.360411
 21
188.952962
 31
0.0
  0
ENDBLK
  5
7D3
100
AcDbEntity
  8
3
100
AcDbBlockEnd
  0
BLOCK
  5
7D4
100
AcDbEntity
  8
3
100
AcDbBlockBegin
  2
*D1
 70
     1
 10
0.0
 20
0.0
 30
0.0
  3
*D1
  1

  0
TEXT
  5
7D5
100
AcDbEntity
  8
3
370
    25
100
AcDbText
 10
-103.756875
 20
344.055131
 30
0.0
 40
10.5
  1
３０゜
 50
75.0
 72
     5
 11
-96.147595
 21
372.453351
 31
0.0
100
AcDbText
  0
LINE
  5
7D6
100
AcDbEntity
  8
3
370
    25
100
AcDbLine
 10
-49.729555
 20
366.625289
 30
0.0
 11
-90.179193
 21
389.978899
 31
0.0
  0
LINE
  5
7D7
100
AcDbEntity
  8
3
370
    25
100
AcDbLine
 10
-79.285428
 20
327.921804
 30
0.0
 11
-106.807341
 21
327.921804
 31
0.0
  0
LINE
  5
7D8
100
AcDbEntity
  8
3
370
    25
100
AcDbLine
 10
-87.581116
 20
388.478899
 30
0.0
 11
-91.721033
 21
384.135963
 31
0.0
  0
LINE
  5
7D9
100
AcDbEntity
  8
3
370
    25
100
AcDbLine
 10
-87.581116
 20
388.478899
 30
0.0
 11
-88.994922
 21
382.647848
 31
0.0
  0
LINE
  5
7DA
100
AcDbEntity
  8
3
370
    25
100
AcDbLine
 10
-91.721033
 20
384.135963
 30
0.0
 11
-88.994922
 21
382.647848
 31
0.0
  0
LINE
  5
7DB
100
AcDbEntity
  8
3
370
    25
100
AcDbLine
 10
-103.807341
 20
327.921804
 30
0.0
 11
-102.116207
 21
333.678545
 31
0.0
  0
LINE
  5
7DC
100
AcDbEntity
  8
3
370
    25
100
AcDbLine
 10
-103.807341
 20
327.921804
 30
0.0
 11
-105.221146
 21
333.752855
 31
0.0
  0
LINE
  5
7DD
100
AcDbEntity
  8
3
370
    25
100
AcDbLine
 10
-102.116207
 20
333.678545
 30
0.0
 11
-105.221146
 21
333.752855
 31
0.0
  0
ARC
  5
7DE
100
AcDbEntity
  8
3
370
    25
100
AcDbCircle
 10
17.306849
 20
327.921804
 30
0.0
 40
121.11419
100
AcDbArc
 50
150.0
 51
180.0
  0
ENDBLK
  5
7DF
100
AcDbEntity
  8
3
100
AcDbBlockEnd
  0
BLOCK
  5
7E0
100
AcDbEntity
  8
3
100
AcDbBlockBegin
  2
*D2
 70
     1
 10
0.0
 20
0.0
 30
0.0
  3
*D2
  1

  0
TEXT
  5
7E1
100
AcDbEntity
  8
3
370
    25
100
AcDbText
 10
-164.592058
 20
248.488717
 30
0.0
 40
10.5
  1
２５゜
 50
347.5
 72
     5
 11
-135.888955
 21
242.125393
 31
0.0
100
AcDbText
  0
LINE
  5
7E2
100
AcDbEntity
  8
3
370
    25
100
AcDbLine
 10
-143.590546
 20
273.460321
 30
0.0
 11
-157.052595
 21
244.590862
 31
0.0
  0
LINE
  5
7E3
100
AcDbEntity
  8
3
370
    25
100
AcDbLine
 10
-142.319112
 20
273.177449
 30
0.0
 11
-142.319112
 21
241.324528
 31
0.0
  0
LINE
  5
7E4
100
AcDbEntity
  8
3
370
    25
100
AcDbLine
 10
-155.784741
 20
247.309786
 30
0.0
 11
-150.856766
 21
243.887058
 31
0.0
  0
LINE
  5
7E5
100
AcDbEntity
  8
3
370
    25
100
AcDbLine
 10
-155.784741
 20
247.309786
 30
0.0
 11
-149.805626
 21
246.809604
 31
0.0
  0
LINE
  5
7E6
100
AcDbEntity
  8
3
370
    25
100
AcDbLine
 10
-150.856766
 20
243.887058
 30
0.0
 11
-149.805626
 21
246.809604
 31
0.0
  0
LINE
  5
7E7
100
AcDbEntity
  8
3
370
    25
100
AcDbLine
 10
-142.319112
 20
244.324528
 30
0.0
 11
-147.949416
 21
246.398092
 31
0.0
  0
LINE
  5
7E8
100
AcDbEntity
  8
3
370
    25
100
AcDbLine
 10
-142.319112
 20
244.324528
 30
0.0
 11
-148.231881
 21
243.305135
 31
0.0
  0
LINE
  5
7E9
100
AcDbEntity
  8
3
370
    25
100
AcDbLine
 10
-147.949416
 20
246.398092
 30
0.0
 11
-148.231881
 21
243.305135
 31
0.0
  0
ARC
  5
7EA
100
AcDbEntity
  8
3
370
    25
100
AcDbCircle
 10
-142.319112
 20
276.18692
 30
0.0
 40
31.862393
100
AcDbArc
 50
245.0
 51
270.0
  0
ENDBLK
  5
7EB
100
AcDbEntity
  8
3
100
AcDbBlockEnd
  0
BLOCK
  5
7EC
100
AcDbEntity
  8
3
100
AcDbBlockBegin
  2
*D3
 70
     1
 10
0.0
 20
0.0
 30
0.0
  3
*D3
  1

  0
LINE
  5
7ED
100
AcDbEntity
  8
3
370
    25
100
AcDbLine
 10
-374.807911
 20
-2.579797
 30
0.0
 11
-412.573393
 21
-2.579797
 31
0.0
  0
LINE
  5
7EE
100
AcDbEntity
  8
3
370
    25
100
AcDbLine
 10
-409.573393
 20
-2.579797
 30
0.0
 11
-408.020479
 21
3.215758
 31
0.0
  0
LINE
  5
7EF
100
AcDbEntity
  8
3
370
    25
100
AcDbLine
 10
-409.573393
 20
-2.579797
 30
0.0
 11
-411.126307
 21
3.215758
 31
0.0
  0
LINE
  5
7F0
100
AcDbEntity
  8
3
370
    25
100
AcDbLine
 10
-408.020479
 20
3.215758
 30
0.0
 11
-411.126307
 21
3.215758
 31
0.0
  0
LINE
  5
7F1
100
AcDbEntity
  8
3
370
    25
100
AcDbLine
 10
-409.573393
 20
-2.579797
 30
0.0
 11
-409.573393
 21
13.421071
 31
0.0
  0
LINE
  5
7F2
100
AcDbEntity
  8
3
370
    25
100
AcDbLine
 10
-409.573393
 20
13.421071
 30
0.0
 11
-411.126307
 21
7.625516
 31
0.0
  0
LINE
  5
7F3
100
AcDbEntity
  8
3
370
    25
100
AcDbLine
 10
-409.573393
 20
13.421071
 30
0.0
 11
-408.020479
 21
7.625516
 31
0.0
  0
LINE
  5
7F4
100
AcDbEntity
  8
3
370
    25
100
AcDbLine
 10
-411.126307
 20
7.625516
 30
0.0
 11
-408.020479
 21
7.625516
 31
0.0
  0
LINE
  5
7F5
100
AcDbEntity
  8
3
370
    25
100
AcDbLine
 10
-373.807911
 20
13.421071
 30
0.0
 11
-412.573393
 21
13.421071
 31
0.0
  0
ENDBLK
  5
7F6
100
AcDbEntity
  8
3
100
AcDbBlockEnd
  0
BLOCK
  5
7F7
100
AcDbEntity
  8
3
100
AcDbBlockBegin
  2
*D4
 70
     1
 10
0.0
 20
0.0
 30
0.0
  3
*D4
  1

  0
TEXT
  5
7F8
100
AcDbEntity
  8
3
370
    25
100
AcDbText
 10
-83.052443
 20
193.847988
 30
0.0
 40
10.5
  1
１５０
 72
     5
 11
-53.652443
 21
193.847988
 31
0.0
100
AcDbText
  0
LINE
  5
7F9
100
AcDbEntity
  8
3
370
    25
100
AcDbLine
 10
-142.319082
 20
273.186907
 30
0.0
 11
-142.319082
 21
189.347988
 31
0.0
  0
LINE
  5
7FA
100
AcDbEntity
  8
3
370
    25
100
AcDbLine
 10
-142.319082
 20
192.347988
 30
0.0
 11
-136.523527
 21
190.795074
 31
0.0
  0
LINE
  5
7FB
100
AcDbEntity
  8
3
370
    25
100
AcDbLine
 10
-142.319082
 20
192.347988
 30
0.0
 11
-136.523527
 21
193.900902
 31
0.0
  0
LINE
  5
7FC
100
AcDbEntity
  8
3
370
    25
100
AcDbLine
 10
-136.523527
 20
190.795074
 30
0.0
 11
-136.523527
 21
193.900902
 31
0.0
  0
LINE
  5
7FD
100
AcDbEntity
  8
3
370
    25
100
AcDbLine
 10
-142.319082
 20
192.347988
 30
0.0
 11
7.714196
 21
192.347988
 31
0.0
  0
LINE
  5
7FE
100
AcDbEntity
  8
3
370
    25
100
AcDbLine
 10
7.714196
 20
192.347988
 30
0.0
 11
1.918641
 21
193.900902
 31
0.0
  0
LINE
  5
7FF
100
AcDbEntity
  8
3
370
    25
100
AcDbLine
 10
7.714196
 20
192.347988
 30
0.0
 11
1.918641
 21
190.795074
 31
0.0
  0
LINE
  5
800
100
AcDbEntity
  8
3
370
    25
100
AcDbLine
 10
1.918641
 20
193.900902
 30
0.0
 11
1.918641
 21
190.795074
 31
0.0
  0
ENDBLK
  5
801
100
AcDbEntity
  8
3
100
AcDbBlockEnd
  0
BLOCK
  5
802
100
AcDbEntity
  8
3
100
AcDbBlockBegin
  2
*D5
 70
     1
 10
0.0
 20
0.0
 30
0.0
  3
*D5
  1

  0
LINE
  5
803
100
AcDbEntity
  8
3
370
    25
100
AcDbLine
 10
-74.67534
 20
-238.306624
 30
0.0
 11
-131.483421
 21
-238.306624
 31
0.0
  0
LINE
  5
804
100
AcDbEntity
  8
3
370
    25
100
AcDbLine
 10
-128.483421
 20
-238.306624
 30
0.0
 11
-126.930507
 21
-232.511069
 31
0.0
  0
LINE
  5
805
100
AcDbEntity
  8
3
370
    25
100
AcDbLine
 10
-128.483421
 20
-238.306624
 30
0.0
 11
-130.036336
 21
-232.511069
 31
0.0
  0
LINE
  5
806
100
AcDbEntity
  8
3
370
    25
100
AcDbLine
 10
-126.930507
 20
-232.511069
 30
0.0
 11
-130.036336
 21
-232.511069
 31
0.0
  0
LINE
  5
807
100
AcDbEntity
  8
3
370
    25
100
AcDbLine
 10
-128.483421
 20
-238.306624
 30
0.0
 11
-128.483421
 21
13.421802
 31
0.0
  0
LINE
  5
808
100
AcDbEntity
  8
3
370
    25
100
AcDbLine
 10
-128.483421
 20
13.421802
 30
0.0
 11
-130.036336
 21
7.626247
 31
0.0
  0
LINE
  5
809
100
AcDbEntity
  8
3
370
    25
100
AcDbLine
 10
-128.483421
 20
13.421802
 30
0.0
 11
-126.930507
 21
7.626247
 31
0.0
  0
LINE
  5
80A
100
AcDbEntity
  8
3
370
    25
100
AcDbLine
 10
-130.036336
 20
7.626247
 30
0.0
 11
-126.930507
 21
7.626247
 31
0.0
  0
LINE
  5
80B
100
AcDbEntity
  8
3
370
    25
100
AcDbLine
 10
-18.785804
 20
13.421802
 30
0.0
 11
-131.483421
 21
13.421802
 31
0.0
  0
ENDBLK
  5
80C
100
AcDbEntity
  8
3
100
AcDbBlockEnd
  0
BLOCK
  5
80D
100
AcDbEntity
  8
3
100
AcDbBlockBegin
  2
*D6
 70
     1
 10
0.0
 20
0.0
 30
0.0
  3
*D6
  1

  0
TEXT
  5
80E
100
AcDbEntity
  8
3
370
    25
100
AcDbText
 10
-163.965828
 20
129.054354
 30
0.0
 40
10.5
  1
２６３
 50
90.0
 72
     5
 11
-163.965828
 21
158.454354
 31
0.0
100
AcDbText
  0
LINE
  5
80F
100
AcDbEntity
  8
3
370
    25
100
AcDbLine
 10
-18.785804
 20
13.421802
 30
0.0
 11
-165.465828
 21
13.421802
 31
0.0
  0
LINE
  5
810
100
AcDbEntity
  8
3
370
    25
100
AcDbLine
 10
-162.465828
 20
13.421802
 30
0.0
 11
-160.912914
 21
19.217357
 31
0.0
  0
LINE
  5
811
100
AcDbEntity
  8
3
370
    25
100
AcDbLine
 10
-162.465828
 20
13.421802
 30
0.0
 11
-164.018742
 21
19.217357
 31
0.0
  0
LINE
  5
812
100
AcDbEntity
  8
3
370
    25
100
AcDbLine
 10
-160.912914
 20
19.217357
 30
0.0
 11
-164.018742
 21
19.217357
 31
0.0
  0
LINE
  5
813
100
AcDbEntity
  8
3
370
    25
100
AcDbLine
 10
-162.465828
 20
13.421802
 30
0.0
 11
-162.465828
 21
276.186907
 31
0.0
  0
LINE
  5
814
100
AcDbEntity
  8
3
370
    25
100
AcDbLine
 10
-162.465828
 20
276.186907
 30
0.0
 11
-164.018742
 21
270.391352
 31
0.0
  0
LINE
  5
815
100
AcDbEntity
  8
3
370
    25
100
AcDbLine
 10
-162.465828
 20
276.186907
 30
0.0
 11
-160.912914
 21
270.391352
 31
0.0
  0
LINE
  5
816
100
AcDbEntity
  8
3
370
    25
100
AcDbLine
 10
-164.018742
 20
270.391352
 30
0.0
 11
-160.912914
 21
270.391352
 31
0.0
  0
LINE
  5
817
100
AcDbEntity
  8
3
370
    25
100
AcDbLine
 10
-145.319082
 20
276.186907
 30
0.0
 11
-165.465828
 21
276.186907
 31
0.0
  0
ENDBLK
  5
818
100
AcDbEntity
  8
3
100
AcDbBlockEnd
  0
BLOCK
  5
819
100
AcDbEntity
  8
3
100
AcDbBlockBegin
  2
*D7
 70
     1
 10
0.0
 20
0.0
 30
0.0
  3
*D7
  1

  0
TEXT
  5
81A
100
AcDbEntity
  8
3
370
    25
100
AcDbText
 10
-186.638233
 20
148.854943
 30
0.0
 40
10.5
  1
３０２
 50
90.0
 72
     5
 11
-186.638233
 21
178.254943
 31
0.0
100
AcDbText
  0
LINE
  5
81B
100
AcDbEntity
  8
3
370
    25
100
AcDbLine
 10
-18.785804
 20
13.421802
 30
0.0
 11
-188.138233
 21
13.421802
 31
0.0
  0
LINE
  5
81C
100
AcDbEntity
  8
3
370
    25
100
AcDbLine
 10
-185.138233
 20
13.421802
 30
0.0
 11
-183.585319
 21
19.217357
 31
0.0
  0
LINE
  5
81D
100
AcDbEntity
  8
3
370
    25
100
AcDbLine
 10
-185.138233
 20
13.421802
 30
0.0
 11
-186.691147
 21
19.217357
 31
0.0
  0
LINE
  5
81E
100
AcDbEntity
  8
3
370
    25
100
AcDbLine
 10
-183.585319
 20
19.217357
 30
0.0
 11
-186.691147
 21
19.217357
 31
0.0
  0
LINE
  5
81F
100
AcDbEntity
  8
3
370
    25
100
AcDbLine
 10
-185.138233
 20
13.421802
 30
0.0
 11
-185.138233
 21
315.788084
 31
0.0
  0
LINE
  5
820
100
AcDbEntity
  8
3
370
    25
100
AcDbLine
 10
-185.138233
 20
315.788084
 30
0.0
 11
-186.691147
 21
309.992529
 31
0.0
  0
LINE
  5
821
100
AcDbEntity
  8
3
370
    25
100
AcDbLine
 10
-185.138233
 20
315.788084
 30
0.0
 11
-183.585319
 21
309.992529
 31
0.0
  0
LINE
  5
822
100
AcDbEntity
  8
3
370
    25
100
AcDbLine
 10
-186.691147
 20
309.992529
 30
0.0
 11
-183.585319
 21
309.992529
 31
0.0
  0
LINE
  5
823
100
AcDbEntity
  8
3
370
    25
100
AcDbLine
 10
-142.667414
 20
315.788084
 30
0.0
 11
-188.138233
 21
315.788084
 31
0.0
  0
ENDBLK
  5
824
100
AcDbEntity
  8
3
100
AcDbBlockEnd
  0
BLOCK
  5
825
100
AcDbEntity
  8
3
100
AcDbBlockBegin
  2
*D8
 70
     1
 10
0.0
 20
0.0
 30
0.0
  3
*D8
  1

  0
TEXT
  5
826
100
AcDbEntity
  8
3
370
    25
100
AcDbText
 10
-211.338417
 20
157.671625
 30
0.0
 40
10.5
  1
３２０
 50
90.0
 72
     5
 11
-211.338417
 21
187.071625
 31
0.0
100
AcDbText
  0
LINE
  5
827
100
AcDbEntity
  8
3
370
    25
100
AcDbLine
 10
-18.785804
 20
13.421802
 30
0.0
 11
-212.838417
 21
13.421802
 31
0.0
  0
LINE
  5
828
100
AcDbEntity
  8
3
370
    25
100
AcDbLine
 10
-209.838417
 20
13.421802
 30
0.0
 11
-208.285503
 21
19.217357
 31
0.0
  0
LINE
  5
829
100
AcDbEntity
  8
3
370
    25
100
AcDbLine
 10
-209.838417
 20
13.421802
 30
0.0
 11
-211.391331
 21
19.217357
 31
0.0
  0
LINE
  5
82A
100
AcDbEntity
  8
3
370
    25
100
AcDbLine
 10
-208.285503
 20
19.217357
 30
0.0
 11
-211.391331
 21
19.217357
 31
0.0
  0
LINE
  5
82B
100
AcDbEntity
  8
3
370
    25
100
AcDbLine
 10
-209.838417
 20
13.421802
 30
0.0
 11
-209.838417
 21
333.421449
 31
0.0
  0
LINE
  5
82C
100
AcDbEntity
  8
3
370
    25
100
AcDbLine
 10
-209.838417
 20
333.421449
 30
0.0
 11
-211.391331
 21
327.625894
 31
0.0
  0
LINE
  5
82D
100
AcDbEntity
  8
3
370
    25
100
AcDbLine
 10
-209.838417
 20
333.421449
 30
0.0
 11
-208.285503
 21
327.625894
 31
0.0
  0
LINE
  5
82E
100
AcDbEntity
  8
3
370
    25
100
AcDbLine
 10
-211.391331
 20
327.625894
 30
0.0
 11
-208.285503
 21
327.625894
 31
0.0
  0
LINE
  5
82F
100
AcDbEntity
  8
3
370
    25
100
AcDbLine
 10
-17.785623
 20
333.421449
 30
0.0
 11
-212.838417
 21
333.421449
 31
0.0
  0
ENDBLK
  5
830
100
AcDbEntity
  8
3
100
AcDbBlockEnd
  0
BLOCK
  5
831
100
AcDbEntity
  8
3
100
AcDbBlockBegin
  2
*D9
 70
     1
 10
0.0
 20
0.0
 30
0.0
  3
*D9
  1

  0
TEXT
  5
832
100
AcDbEntity
  8
3
370
    25
100
AcDbText
 10
-238.170601
 20
173.715527
 30
0.0
 40
10.5
  1
３５２
 50
90.0
 72
     5
 11
-238.170601
 21
203.115527
 31
0.0
100
AcDbText
  0
LINE
  5
833
100
AcDbEntity
  8
3
370
    25
100
AcDbLine
 10
-18.785804
 20
13.421802
 30
0.0
 11
-239.670601
 21
13.421802
 31
0.0
  0
LINE
  5
834
100
AcDbEntity
  8
3
370
    25
100
AcDbLine
 10
-236.670601
 20
13.421802
 30
0.0
 11
-235.117687
 21
19.217357
 31
0.0
  0
LINE
  5
835
100
AcDbEntity
  8
3
370
    25
100
AcDbLine
 10
-236.670601
 20
13.421802
 30
0.0
 11
-238.223515
 21
19.217357
 31
0.0
  0
LINE
  5
836
100
AcDbEntity
  8
3
370
    25
100
AcDbLine
 10
-235.117687
 20
19.217357
 30
0.0
 11
-238.223515
 21
19.217357
 31
0.0
  0
LINE
  5
837
100
AcDbEntity
  8
3
370
    25
100
AcDbLine
 10
-236.670601
 20
13.421802
 30
0.0
 11
-236.670601
 21
365.509252
 31
0.0
  0
LINE
  5
838
100
AcDbEntity
  8
3
370
    25
100
AcDbLine
 10
-236.670601
 20
365.509252
 30
0.0
 11
-238.223515
 21
359.713697
 31
0.0
  0
LINE
  5
839
100
AcDbEntity
  8
3
370
    25
100
AcDbLine
 10
-236.670601
 20
365.509252
 30
0.0
 11
-235.117687
 21
359.713697
 31
0.0
  0
LINE
  5
83A
100
AcDbEntity
  8
3
370
    25
100
AcDbLine
 10
-238.223515
 20
359.713697
 30
0.0
 11
-235.117687
 21
359.713697
 31
0.0
  0
LINE
  5
83B
100
AcDbEntity
  8
3
370
    25
100
AcDbLine
 10
-51.064447
 20
365.509252
 30
0.0
 11
-239.670601
 21
365.509252
 31
0.0
  0
ENDBLK
  5
83C
100
AcDbEntity
  8
3
100
AcDbBlockEnd
  0
BLOCK
  5
83D
100
AcDbEntity
  8
3
100
AcDbBlockBegin
  2
*D10
 70
     1
 10
0.0
 20
0.0
 30
0.0
  3
*D10
  1

  0
LINE
  5
83E
100
AcDbEntity
  8
3
370
    25
100
AcDbLine
 10
67.028852
 20
-210.751877
 30
0.0
 11
102.193142
 21
-210.751877
 31
0.0
  0
LINE
  5
83F
100
AcDbEntity
  8
3
370
    25
100
AcDbLine
 10
99.193142
 20
-210.751877
 30
0.0
 11
100.746056
 21
-204.956322
 31
0.0
  0
LINE
  5
840
100
AcDbEntity
  8
3
370
    25
100
AcDbLine
 10
99.193142
 20
-210.751877
 30
0.0
 11
97.640228
 21
-204.956322
 31
0.0
  0
LINE
  5
841
100
AcDbEntity
  8
3
370
    25
100
AcDbLine
 10
100.746056
 20
-204.956322
 30
0.0
 11
97.640228
 21
-204.956322
 31
0.0
  0
LINE
  5
842
100
AcDbEntity
  8
3
370
    25
100
AcDbLine
 10
99.193142
 20
-210.751877
 30
0.0
 11
99.193142
 21
13.421802
 31
0.0
  0
LINE
  5
843
100
AcDbEntity
  8
3
370
    25
100
AcDbLine
 10
99.193142
 20
13.421802
 30
0.0
 11
97.640228
 21
7.626247
 31
0.0
  0
LINE
  5
844
100
AcDbEntity
  8
3
370
    25
100
AcDbLine
 10
99.193142
 20
13.421802
 30
0.0
 11
100.746056
 21
7.626247
 31
0.0
  0
LINE
  5
845
100
AcDbEntity
  8
3
370
    25
100
AcDbLine
 10
97.640228
 20
7.626247
 30
0.0
 11
100.746056
 21
7.626247
 31
0.0
  0
LINE
  5
846
100
AcDbEntity
  8
3
370
    25
100
AcDbLine
 10
34.214196
 20
13.421802
 30
0.0
 11
102.193142
 21
13.421802
 31
0.0
  0
ENDBLK
  5
847
100
AcDbEntity
  8
3
100
AcDbBlockEnd
  0
ENDSEC
  0
SECTION
  2
ENTITIES
  0
LINE
  5
2F
100
AcDbEntity
  8
1
370
   100
100
AcDbLine
 10
-559.532355
 20
412.543151
 30
0.0
 11
592.473578
 21
412.543151
 31
0.0
  0
LINE
  5
30
100
AcDbEntity
  8
1
370
   100
100
AcDbLine
 10
-559.532355
 20
412.543151
 30
0.0
 11
-559.532355
 21
-416.957822
 31
0.0
  0
LINE
  5
31
100
AcDbEntity
  8
1
370
   100
100
AcDbLine
 10
-559.532355
 20
-416.957822
 30
0.0
 11
592.473578
 21
-416.957822
 31
0.0
  0
LINE
  5
32
100
AcDbEntity
  8
1
370
   100
100
AcDbLine
 10
592.473578
 20
-416.957822
 30
0.0
 11
592.473578
 21
412.543151
 31
0.0
  0
TEXT
  5
33
100
AcDbEntity
  8
1
370
    50
100
AcDbText
 10
539.442664
 20
-339.379285
 30
0.0
 40
9.0
  1
設計
 72
     5
 11
555.642664
 21
-339.379285
 31
0.0
100
AcDbText
  0
TEXT
  5
34
100
AcDbEntity
  8
1
370
    50
100
AcDbText
 10
568.691217
 20
-339.149488
 30
0.0
 40
9.0
  1
製図
 72
     5
 11
584.891217
 21
-339.149488
 31
0.0
100
AcDbText
  0
TEXT
  5
35
100
AcDbEntity
  8
1
370
    50
100
AcDbText
 10
478.508617
 20
-339.379285
 30
0.0
 40
9.0
  1
承認
 72
     5
 11
494.708617
 21
-339.379285
 31
0.0
100
AcDbText
  0
TEXT
  5
36
100
AcDbEntity
  8
1
370
    50
100
AcDbText
 10
508.484518
 20
-339.297029
 30
0.0
 40
9.0
  1
検図
 72
     5
 11
524.684518
 21
-339.297029
 31
0.0
100
AcDbText
  0
LINE
  5
37
100
AcDbEntity
  8
1
370
    25
100
AcDbLine
 10
427.473578
 20
-341.957822
 30
0.0
 11
592.473578
 21
-341.957822
 31
0.0
  0
LINE
  5
38
100
AcDbEntity
  8
1
370
    25
100
AcDbLine
 10
513.723578
 20
-368.957822
 30
0.0
 11
513.723578
 21
-389.957822
 31
0.0
  0
TEXT
  5
39
100
AcDbEntity
  8
1
370
    50
100
AcDbText
 10
479.327385
 20
-384.018792
 30
0.0
 40
9.0
  1
日　付
 72
     5
 11
504.527385
 21
-384.018792
 31
0.0
100
AcDbText
  0
LINE
  5
3A
100
AcDbEntity
  8
1
370
    50
100
AcDbLine
 10
61.473578
 20
-389.957822
 30
0.0
 11
592.473578
 21
-389.957822
 31
0.0
  0
TEXT
  5
3B
100
AcDbEntity
  8
1
370
    50
100
AcDbText
 10
431.662516
 20
-384.483609
 30
0.0
 40
9.0
  1
第三角法
 72
     5
 11
465.862516
 21
-384.483609
 31
0.0
100
AcDbText
  0
TEXT
  5
3C
100
AcDbEntity
  8
1
370
    50
100
AcDbText
 10
436.631129
 20
-338.997029
 30
0.0
 40
9.0
  1
尺　度
 72
     5
 11
461.831129
 21
-338.997029
 31
0.0
100
AcDbText
  0
LINE
  5
3D
100
AcDbEntity
  8
1
370
   100
100
AcDbLine
 10
61.473578
 20
-326.957822
 30
0.0
 11
592.473578
 21
-326.957822
 31
0.0
  0
LINE
  5
3E
100
AcDbEntity
  8
1
370
    50
100
AcDbLine
 10
317.973578
 20
-326.957822
 30
0.0
 11
317.973578
 21
-416.957822
 31
0.0
  0
LINE
  5
3F
100
AcDbEntity
  8
1
370
    25
100
AcDbLine
 10
562.473578
 20
-368.957822
 30
0.0
 11
562.473578
 21
-326.957822
 31
0.0
  0
LINE
  5
40
100
AcDbEntity
  8
1
370
    25
100
AcDbLine
 10
532.473578
 20
-368.957822
 30
0.0
 11
532.473578
 21
-326.957822
 31
0.0
  0
LINE
  5
41
100
AcDbEntity
  8
1
370
    25
100
AcDbLine
 10
502.473578
 20
-368.957822
 30
0.0
 11
502.473578
 21
-326.957822
 31
0.0
  0
LINE
  5
42
100
AcDbEntity
  8
1
370
    50
100
AcDbLine
 10
427.473578
 20
-416.957822
 30
0.0
 11
427.473578
 21
-326.957822
 31
0.0
  0
LINE
  5
43
100
AcDbEntity
  8
1
370
    50
100
AcDbLine
 10
284.973578
 20
-326.957822
 30
0.0
 11
284.973578
 21
-416.957822
 31
0.0
  0
LINE
  5
44
100
AcDbEntity
  8
1
370
    50
100
AcDbLine
 10
94.473578
 20
-326.957822
 30
0.0
 11
94.473578
 21
-389.957822
 31
0.0
  0
LINE
  5
45
100
AcDbEntity
  8
1
370
    50
100
AcDbLine
 10
427.473578
 20
-368.957822
 30
0.0
 11
592.473578
 21
-368.957822
 31
0.0
  0
TEXT
  5
46
100
AcDbEntity
  8
1
370
    50
100
AcDbText
 10
430.651694
 20
-407.821408
 30
0.0
 40
9.0
  1
コードＮｏ
 41
0.9
 72
     5
 11
469.531694
 21
-407.821408
 31
0.0
100
AcDbText
  0
TEXT
  5
47
100
AcDbEntity
  8
1
370
   100
100
AcDbText
 10
79.330161
 20
-409.313489
 30
0.0
 40
12.0
  1
ミズタニバルブ工業株式会社
 41
1.2
 72
     5
 11
263.650161
 21
-409.313489
 31
0.0
100
AcDbText
  0
LINE
  5
48
100
AcDbEntity
  8
1
370
    50
100
AcDbLine
 10
61.473578
 20
-358.457822
 30
0.0
 11
427.473578
 21
-358.457822
 31
0.0
  0
LINE
  5
49
100
AcDbEntity
  8
1
370
    50
100
AcDbLine
 10
173.223578
 20
-358.457822
 30
0.0
 11
173.223578
 21
-389.957822
 31
0.0
  0
LINE
  5
4A
100
AcDbEntity
  8
1
370
    50
100
AcDbLine
 10
206.223578
 20
-358.457822
 30
0.0
 11
206.223578
 21
-389.957822
 31
0.0
  0
LINE
  5
4B
100
AcDbEntity
  8
1
370
    50
100
AcDbLine
 10
472.473578
 20
-416.957822
 30
0.0
 11
472.473578
 21
-326.957822
 31
0.0
  0
TEXT
  5
4C
100
AcDbEntity
  8
1
370
    50
100
AcDbText
 10
517.647196
 20
-384.15044
 30
0.0
 40
9.0
  1
　　・　　・
 72
     5
 11
569.847196
 21
-384.15044
 31
0.0
100
AcDbText
  0
LINE
  5
4D
100
AcDbEntity
  8
1
370
   100
100
AcDbLine
 10
61.473578
 20
-326.957822
 30
0.0
 11
61.473578
 21
-416.957822
 31
0.0
  0
TEXT
  5
4E
100
AcDbEntity
  8
1
370
    50
100
AcDbText
 10
436.248873
 20
-360.020238
 30
0.0
 40
9.0
  1
　／ 
 72
     5
 11
452.448873
 21
-360.020238
 31
0.0
100
AcDbText
  0
TEXT
  5
4F
100
AcDbEntity
  8
1
370
    50
100
AcDbText
 10
290.856184
 20
-408.037363
 30
0.0
 40
9.0
  1
備 考 
 72
     5
 11
311.556184
 21
-408.037363
 31
0.0
100
AcDbText
  0
TEXT
  5
50
100
AcDbEntity
  8
1
370
    50
100
AcDbText
 10
290.2688
 20
-346.33776
 30
0.0
 40
9.0
  1
仕 上
 72
     5
 11
310.9688
 21
-346.33776
 31
0.0
100
AcDbText
  0
TEXT
  5
51
100
AcDbEntity
  8
1
370
    50
100
AcDbText
 10
290.170764
 20
-373.337499
 30
0.0
 40
9.0
  1
表 面
 72
     5
 11
310.870764
 21
-373.337499
 31
0.0
100
AcDbText
  0
TEXT
  5
52
100
AcDbEntity
  8
1
370
    50
100
AcDbText
 10
290.170764
 20
-383.837499
 30
0.0
 40
9.0
  1
処 理
 72
     5
 11
310.870764
 21
-383.837499
 31
0.0
100
AcDbText
  0
TEXT
  5
53
100
AcDbEntity
  8
1
370
    50
100
AcDbText
 10
67.190025
 20
-347.540099
 30
0.0
 40
9.0
  1
品 名
 72
     5
 11
87.890025
 21
-347.540099
 31
0.0
100
AcDbText
  0
TEXT
  5
54
100
AcDbEntity
  8
1
370
    50
100
AcDbText
 10
66.596649
 20
-378.693801
 30
0.0
 40
9.0
  1
材 質
 72
     5
 11
87.296649
 21
-378.693801
 31
0.0
100
AcDbText
  0
TEXT
  5
55
100
AcDbEntity
  8
1
370
    50
100
AcDbText
 10
178.346649
 20
-378.693801
 30
0.0
 40
9.0
  1
規 格
 72
     5
 11
199.046649
 21
-378.693801
 31
0.0
100
AcDbText
  0
LINE
  5
56
100
AcDbEntity
  8
2
370
    50
100
AcDbLine
 10
-70.385678
 20
275.788521
 30
0.0
 11
-31.709644
 21
253.458903
 31
0.0
  0
LINE
  5
57
100
AcDbEntity
  8
2
370
    50
100
AcDbLine
 10
-73.521351
 20
242.957375
 30
0.0
 11
-85.385899
 21
249.807375
 31
0.0
  0
LINE
  5
58
100
AcDbEntity
  8
2
370
    50
100
AcDbLine
 10
-16.785729
 20
175.421444
 30
0.0
 11
-16.785729
 21
198.654022
 31
0.0
  0
LINE
  5
59
100
AcDbEntity
  8
2
370
    50
100
AcDbLine
 10
-16.785729
 20
197.321802
 30
0.0
 11
-16.785729
 21
197.554012
 31
0.0
  0
LINE
  5
5A
100
AcDbEntity
  8
2
370
    50
100
AcDbLine
 10
-16.78588
 20
262.162727
 30
0.0
 11
-16.78588
 21
288.221444
 31
0.0
  0
LINE
  5
5B
100
AcDbEntity
  8
2
370
    50
100
AcDbLine
 10
32.01412
 20
288.421444
 30
0.0
 11
-16.58588
 21
288.421444
 31
0.0
  0
LINE
  5
5C
100
AcDbEntity
  8
2
370
    50
100
AcDbLine
 10
-16.58588
 20
288.421444
 30
0.0
 11
-16.78588
 21
288.221444
 31
0.0
  0
LINE
  5
5D
100
AcDbEntity
  8
2
370
    50
100
AcDbLine
 10
32.01412
 20
288.421444
 30
0.0
 11
32.21412
 21
288.221444
 31
0.0
  0
LINE
  5
5E
100
AcDbEntity
  8
2
370
    50
100
AcDbLine
 10
-68.323806
 20
239.95655
 30
0.0
 11
-26.785729
 21
215.97453
 31
0.0
  0
ELLIPSE
  5
5F
100
AcDbEntity
  8
2
370
    50
100
AcDbEllipse
 10
-70.922583
 20
241.456955
 30
0.0
 11
2.5987770000000001
 21
-1.500405
 31
0.0
210
0.0
220
0.0
230
1.0
 40
0.066649
 41
0.0
 42
3.1415929999999999
  0
LINE
  5
60
100
AcDbEntity
  8
2
370
    50
100
AcDbLine
 10
32.21412
 20
288.221444
 30
0.0
 11
32.21412
 21
175.421444
 31
0.0
  0
LINE
  5
61
100
AcDbEntity
  8
2
370
    50
100
AcDbLine
 10
-16.785729
 20
175.421444
 30
0.0
 11
32.21412
 21
175.421444
 31
0.0
  0
LINE
  5
62
100
AcDbEntity
  8
2
370
    50
100
AcDbLine
 10
-85.385899
 20
249.807375
 30
0.0
 11
-70.385678
 21
275.788521
 31
0.0
  0
ARC
  5
63
100
AcDbEntity
  8
2
370
    50
100
AcDbCircle
 10
-26.78588
 20
262.162727
 30
0.0
 40
10.0
100
AcDbArc
 50
240.0
 51
360.0
  0
POINT
  5
64
100
AcDbEntity
  8
2
370
    50
100
AcDbPoint
 10
-77.885804
 20
262.797947
 30
0.0
  0
POINT
  5
65
100
AcDbEntity
  8
2
370
    50
100
AcDbPoint
 10
7.714196
 20
175.421444
 30
0.0
  0
LINE
  5
66
100
AcDbEntity
  8
2
370
    25
  6
CENTER
100
AcDbLine
 10
-150.16843
 20
304.53034
 30
0.0
 11
7.714196
 21
213.376764
 31
0.0
  0
ARC
  5
67
100
AcDbEntity
  8
2
370
    50
100
AcDbCircle
 10
-36.785729
 20
198.654022
 30
0.0
 40
20.0
100
AcDbArc
 50
0.0
 51
60.0
  0
LINE
  5
68
100
AcDbEntity
  8
2
370
    50
100
AcDbLine
 10
-8.535804
 20
-29.078198
 30
0.0
 11
23.964196
 21
-29.078198
 31
0.0
  0
LINE
  5
69
100
AcDbEntity
  8
2
370
    50
100
AcDbLine
 10
-15.035653
 20
13.921444
 30
0.0
 11
-15.035653
 21
13.721802
 31
0.0
  0
LINE
  5
6A
100
AcDbEntity
  8
2
370
    50
100
AcDbLine
 10
30.464347
 20
13.921444
 30
0.0
 11
30.464347
 21
13.721802
 31
0.0
  0
LINE
  5
6B
100
AcDbEntity
  8
2
370
    50
100
AcDbLine
 10
-15.035653
 20
13.721802
 30
0.0
 11
-14.735653
 21
13.421802
 31
0.0
  0
LINE
  5
6C
100
AcDbEntity
  8
2
370
    50
100
AcDbLine
 10
30.464347
 20
13.721802
 30
0.0
 11
30.164347
 21
13.421802
 31
0.0
  0
LINE
  5
6D
100
AcDbEntity
  8
2
370
    50
100
AcDbLine
 10
23.964196
 20
-29.078198
 30
0.0
 11
24.714196
 21
-28.328198
 31
0.0
  0
LINE
  5
6E
100
AcDbEntity
  8
2
370
    50
100
AcDbLine
 10
-8.535502
 20
-29.078198
 30
0.0
 11
-9.285804
 21
-28.327896
 31
0.0
  0
LINE
  5
6F
100
AcDbEntity
  8
2
370
    50
100
AcDbLine
 10
30.464347
 20
13.721802
 30
0.0
 11
-15.035653
 21
13.721802
 31
0.0
  0
LINE
  5
70
100
AcDbEntity
  8
2
370
    50
100
AcDbLine
 10
24.714196
 20
-28.328198
 30
0.0
 11
13.458758
 21
-28.328198
 31
0.0
  0
LINE
  5
71
100
AcDbEntity
  8
2
370
    50
100
AcDbLine
 10
-8.285804
 20
-19.078198
 30
0.0
 11
23.714196
 21
-19.078198
 31
0.0
  0
LINE
  5
72
100
AcDbEntity
  8
2
370
    50
100
AcDbLine
 10
13.458758
 20
-29.078198
 30
0.0
 11
13.458758
 21
-19.078198
 31
0.0
  0
LINE
  5
73
100
AcDbEntity
  8
2
370
    50
100
AcDbLine
 10
23.714196
 20
-19.078198
 30
0.0
 11
24.714196
 21
-18.078198
 31
0.0
  0
LINE
  5
74
100
AcDbEntity
  8
2
370
    50
100
AcDbLine
 10
23.714196
 20
-19.078198
 30
0.0
 11
24.714196
 21
-20.078198
 31
0.0
  0
LINE
  5
75
100
AcDbEntity
  8
2
370
    50
100
AcDbLine
 10
-8.285804
 20
-19.078198
 30
0.0
 11
-9.285804
 21
-18.078198
 31
0.0
  0
LINE
  5
76
100
AcDbEntity
  8
2
370
    50
100
AcDbLine
 10
-8.285804
 20
-19.078198
 30
0.0
 11
-9.285804
 21
-20.078198
 31
0.0
  0
LINE
  5
77
100
AcDbEntity
  8
2
370
    50
100
AcDbLine
 10
24.714196
 20
-28.328198
 30
0.0
 11
24.714196
 21
-20.078198
 31
0.0
  0
LINE
  5
78
100
AcDbEntity
  8
2
370
    50
100
AcDbLine
 10
-9.285804
 20
-28.327896
 30
0.0
 11
-9.285804
 21
-20.078198
 31
0.0
  0
LINE
  5
79
100
AcDbEntity
  8
2
370
    25
100
AcDbLine
 10
23.964196
 20
-29.078198
 30
0.0
 11
23.964196
 21
-19.328198
 31
0.0
  0
LINE
  5
7A
100
AcDbEntity
  8
2
370
    25
100
AcDbLine
 10
-8.535804
 20
-29.078198
 30
0.0
 11
-8.535804
 21
-19.328198
 31
0.0
  0
LINE
  5
7B
100
AcDbEntity
  8
2
370
    50
100
AcDbLine
 10
24.714196
 20
-18.078198
 30
0.0
 11
-9.285804
 21
-18.078198
 31
0.0
  0
LINE
  5
7C
100
AcDbEntity
  8
2
370
    50
100
AcDbLine
 10
8.814196
 20
-70.978757
 30
0.0
 11
8.814196
 21
-29.078198
 31
0.0
  0
LINE
  5
7D
100
AcDbEntity
  8
2
370
    50
100
AcDbLine
 10
8.814196
 20
-70.978757
 30
0.0
 11
14.714196
 21
-70.978757
 31
0.0
  0
LINE
  5
7E
100
AcDbEntity
  8
2
370
    25
  6
CENTER
100
AcDbLine
 10
18.714196
 20
-68.716957
 30
0.0
 11
18.714196
 21
-26.640091
 31
0.0
  0
LINE
  5
7F
100
AcDbEntity
  8
2
370
    50
100
AcDbLine
 10
22.714196
 20
-63.067124
 30
0.0
 11
22.714196
 21
-29.078198
 31
0.0
  0
LINE
  5
80
100
AcDbEntity
  8
2
370
    50
100
AcDbLine
 10
8.064196
 20
-70.978757
 30
0.0
 11
19.564196
 21
-70.978757
 31
0.0
  0
LINE
  5
81
100
AcDbEntity
  8
2
370
    50
100
AcDbLine
 10
8.064196
 20
-86.478757
 30
0.0
 11
19.564196
 21
-86.478757
 31
0.0
  0
ARC
  5
82
100
AcDbEntity
  8
2
370
    50
100
AcDbCircle
 10
13.814196
 20
-74.291257
 30
0.0
 40
3.3125
100
AcDbArc
 50
58.109208
 51
90.0
  0
ARC
  5
83
100
AcDbEntity
  8
2
370
    50
100
AcDbCircle
 10
13.814196
 20
-83.166257
 30
0.0
 40
3.3125
100
AcDbArc
 50
270.0
 51
301.890792
  0
LINE
  5
84
100
AcDbEntity
  8
2
370
    50
100
AcDbLine
 10
7.564196
 20
-71.478757
 30
0.0
 11
7.564196
 21
-85.978757
 31
0.0
  0
LINE
  5
85
100
AcDbEntity
  8
2
370
    50
100
AcDbLine
 10
8.064196
 20
-86.478757
 30
0.0
 11
7.564196
 21
-85.978757
 31
0.0
  0
LINE
  5
86
100
AcDbEntity
  8
2
370
    50
100
AcDbLine
 10
8.064196
 20
-70.978757
 30
0.0
 11
7.564196
 21
-71.478757
 31
0.0
  0
LINE
  5
87
100
AcDbEntity
  8
2
370
    50
100
AcDbLine
 10
12.064196
 20
-71.478757
 30
0.0
 11
12.064196
 21
-85.978757
 31
0.0
  0
LINE
  5
88
100
AcDbEntity
  8
2
370
    50
100
AcDbLine
 10
9.493043
 20
-71.478757
 30
0.0
 11
9.493043
 21
-85.978757
 31
0.0
  0
LINE
  5
89
100
AcDbEntity
  8
2
370
    50
100
AcDbLine
 10
7.743043
 20
-71.478757
 30
0.0
 11
7.743043
 21
-85.978757
 31
0.0
  0
LINE
  5
8A
100
AcDbEntity
  8
2
370
    50
100
AcDbLine
 10
7.564196
 20
-71.478757
 30
0.0
 11
7.743043
 21
-71.478757
 31
0.0
  0
LINE
  5
8B
100
AcDbEntity
  8
2
370
    50
100
AcDbLine
 10
9.493043
 20
-71.478757
 30
0.0
 11
12.064196
 21
-71.478757
 31
0.0
  0
LINE
  5
8C
100
AcDbEntity
  8
2
370
    50
100
AcDbLine
 10
7.564196
 20
-85.978757
 30
0.0
 11
7.743043
 21
-85.978757
 31
0.0
  0
LINE
  5
8D
100
AcDbEntity
  8
2
370
    50
100
AcDbLine
 10
9.493043
 20
-85.978757
 30
0.0
 11
12.064196
 21
-85.978757
 31
0.0
  0
ARC
  5
8E
100
AcDbEntity
  8
2
370
    50
100
AcDbCircle
 10
8.618043
 20
-71.994382
 30
0.0
 40
1.015625
100
AcDbArc
 50
30.510237
 51
149.489763
  0
ARC
  5
8F
100
AcDbEntity
  8
2
370
    50
100
AcDbCircle
 10
13.814196
 20
-74.291257
 30
0.0
 40
3.3125
100
AcDbArc
 50
90.0
 51
121.890792
  0
ARC
  5
90
100
AcDbEntity
  8
2
370
    50
100
AcDbCircle
 10
13.814196
 20
-83.166257
 30
0.0
 40
3.3125
100
AcDbArc
 50
238.109208
 51
270.0
  0
ARC
  5
91
100
AcDbEntity
  8
2
370
    50
100
AcDbCircle
 10
8.618043
 20
-85.463132
 30
0.0
 40
1.015625
100
AcDbArc
 50
210.510237
 51
329.489763
  0
LINE
  5
92
100
AcDbEntity
  8
2
370
    50
100
AcDbLine
 10
28.714196
 20
289.874758
 30
0.0
 11
28.714196
 21
288.421243
 31
0.0
  0
LINE
  5
93
100
AcDbEntity
  8
2
370
    50
100
AcDbLine
 10
-13.285804
 20
289.874758
 30
0.0
 11
-13.285804
 21
288.421243
 31
0.0
  0
ARC
  5
94
100
AcDbEntity
  8
2
370
    50
100
AcDbCircle
 10
15.714196
 20
289.874758
 30
0.0
 40
13.0
100
AcDbArc
 50
0.0
 51
50.127541
  0
ARC
  5
95
100
AcDbEntity
  8
2
370
    50
100
AcDbCircle
 10
-0.285804
 20
289.874758
 30
0.0
 40
13.0
100
AcDbArc
 50
177.589844
 51
180.0
  0
LINE
  5
96
100
AcDbEntity
  8
2
370
    25
  6
CENTER
100
AcDbLine
 10
13.814196
 20
-26.640091
 30
0.0
 11
13.814196
 21
-253.747031
 31
0.0
  0
LINE
  5
97
100
AcDbEntity
  8
2
370
    50
100
AcDbLine
 10
18.814196
 20
-70.978757
 30
0.0
 11
18.814196
 21
-29.078198
 31
0.0
  0
LINE
  5
98
100
AcDbEntity
  8
2
370
    50
100
AcDbLine
 10
18.135348
 20
-71.478757
 30
0.0
 11
15.564196
 21
-71.478757
 31
0.0
  0
ARC
  5
99
100
AcDbEntity
  8
2
370
    50
100
AcDbCircle
 10
19.010348
 20
-71.994382
 30
0.0
 40
1.015625
100
AcDbArc
 50
30.510237
 51
149.489763
  0
LINE
  5
9A
100
AcDbEntity
  8
2
370
    50
100
AcDbLine
 10
19.564196
 20
-70.978757
 30
0.0
 11
20.064196
 21
-71.478757
 31
0.0
  0
LINE
  5
9B
100
AcDbEntity
  8
2
370
    50
100
AcDbLine
 10
20.064196
 20
-71.478757
 30
0.0
 11
19.885348
 21
-71.478757
 31
0.0
  0
LINE
  5
9C
100
AcDbEntity
  8
2
370
    50
100
AcDbLine
 10
20.064196
 20
-71.478757
 30
0.0
 11
20.064196
 21
-85.978757
 31
0.0
  0
LINE
  5
9D
100
AcDbEntity
  8
2
370
    50
100
AcDbLine
 10
19.885348
 20
-71.478757
 30
0.0
 11
19.885348
 21
-85.978757
 31
0.0
  0
LINE
  5
9E
100
AcDbEntity
  8
2
370
    50
100
AcDbLine
 10
18.135348
 20
-71.478757
 30
0.0
 11
18.135348
 21
-85.978757
 31
0.0
  0
LINE
  5
9F
100
AcDbEntity
  8
2
370
    50
100
AcDbLine
 10
15.564196
 20
-71.478757
 30
0.0
 11
15.564196
 21
-85.978757
 31
0.0
  0
LINE
  5
A0
100
AcDbEntity
  8
2
370
    50
100
AcDbLine
 10
18.135348
 20
-85.978757
 30
0.0
 11
15.564196
 21
-85.978757
 31
0.0
  0
ARC
  5
A1
100
AcDbEntity
  8
2
370
    50
100
AcDbCircle
 10
19.010348
 20
-85.463132
 30
0.0
 40
1.015625
100
AcDbArc
 50
210.510237
 51
329.489763
  0
LINE
  5
A2
100
AcDbEntity
  8
2
370
    50
100
AcDbLine
 10
20.064196
 20
-85.978757
 30
0.0
 11
19.885348
 21
-85.978757
 31
0.0
  0
LINE
  5
A3
100
AcDbEntity
  8
2
370
    50
100
AcDbLine
 10
19.564196
 20
-86.478757
 30
0.0
 11
20.064196
 21
-85.978757
 31
0.0
  0
LINE
  5
A4
100
AcDbEntity
  8
2
370
    50
100
AcDbLine
 10
1.969633
 20
-29.078198
 30
0.0
 11
1.969633
 21
-19.078198
 31
0.0
  0
LINE
  5
A5
100
AcDbEntity
  8
2
370
    50
100
AcDbLine
 10
-9.285804
 20
-28.328198
 30
0.0
 11
1.969633
 21
-28.328198
 31
0.0
  0
LINE
  5
A6
100
AcDbEntity
  8
2
370
    50
100
AcDbLine
 10
-9.285804
 20
-20.078198
 30
0.0
 11
1.969633
 21
-20.078198
 31
0.0
  0
LINE
  5
A7
100
AcDbEntity
  8
2
370
    50
100
AcDbLine
 10
13.458758
 20
-20.078198
 30
0.0
 11
24.714196
 21
-20.078198
 31
0.0
  0
LINE
  5
A8
100
AcDbEntity
  8
2
370
    50
100
AcDbLine
 10
32.21412
 20
288.221444
 30
0.0
 11
-16.78588
 21
288.221444
 31
0.0
  0
LINE
  5
A9
100
AcDbEntity
  8
2
370
    50
100
AcDbLine
 10
-371.360093
 20
290.921444
 30
0.0
 11
-371.360093
 21
331.421444
 31
0.0
  0
ARC
  5
AA
100
AcDbEntity
  8
2
370
    50
100
AcDbCircle
 10
-370.860093
 20
290.921444
 30
0.0
 40
0.5
100
AcDbArc
 50
180.0
 51
270.0
  0
LINE
  5
AB
100
AcDbEntity
  8
2
370
    50
100
AcDbLine
 10
-371.360274
 20
304.587672
 30
0.0
 11
-371.360274
 21
305.087672
 31
0.0
  0
ARC
  5
AC
100
AcDbEntity
  8
2
370
    50
100
AcDbCircle
 10
-369.360093
 20
331.421444
 30
0.0
 40
2.0
100
AcDbArc
 50
90.0
 51
180.0
  0
LINE
  5
AD
100
AcDbEntity
  8
2
370
    50
100
AcDbLine
 10
-371.360093
 20
290.921444
 30
0.0
 11
-371.360093
 21
304.921672
 31
0.0
  0
LINE
  5
AE
100
AcDbEntity
  8
2
370
    50
100
AcDbLine
 10
-366.603893
 20
290.421444
 30
0.0
 11
-370.860093
 21
290.421444
 31
0.0
  0
ARC
  5
AF
100
AcDbEntity
  8
2
370
    50
100
AcDbCircle
 10
-370.860093
 20
290.921444
 30
0.0
 40
0.5
100
AcDbArc
 50
180.0
 51
270.0
  0
LINE
  5
B0
100
AcDbEntity
  8
2
370
    50
100
AcDbLine
 10
-371.360274
 20
304.587672
 30
0.0
 11
-371.360274
 21
305.087672
 31
0.0
  0
ARC
  5
B1
100
AcDbEntity
  8
2
370
    50
100
AcDbCircle
 10
-369.360093
 20
331.421444
 30
0.0
 40
2.0
100
AcDbArc
 50
90.0
 51
180.0
  0
LINE
  5
B2
100
AcDbEntity
  8
2
370
    50
100
AcDbLine
 10
-369.360093
 20
333.421449
 30
0.0
 11
-324.360274
 21
333.421449
 31
0.0
  0
LINE
  5
B3
100
AcDbEntity
  8
2
370
    50
100
AcDbLine
 10
-322.360274
 20
290.921444
 30
0.0
 11
-322.360274
 21
331.421449
 31
0.0
  0
ARC
  5
B4
100
AcDbEntity
  8
2
370
    50
100
AcDbCircle
 10
-324.360274
 20
331.421449
 30
0.0
 40
2.0
100
AcDbArc
 50
0.0
 51
90.0
  0
CIRCLE
  5
B5
100
AcDbEntity
  8
2
370
    50
100
AcDbCircle
 10
-346.860274
 20
323.921444
 30
0.0
 40
4.0
  0
CIRCLE
  5
B6
100
AcDbEntity
  8
2
370
    25
100
AcDbCircle
 10
-346.860274
 20
323.921444
 30
0.0
 40
3.5
  0
ARC
  5
B7
100
AcDbEntity
  8
2
370
    50
100
AcDbCircle
 10
-322.860274
 20
290.921444
 30
0.0
 40
0.5
100
AcDbArc
 50
270.0
 51
360.0
  0
LINE
  5
B8
100
AcDbEntity
  8
2
370
    50
100
AcDbLine
 10
-331.860411
 20
262.798289
 30
0.0
 11
-331.860411
 21
223.1916
 31
0.0
  0
LINE
  5
B9
100
AcDbEntity
  8
2
370
    50
100
AcDbLine
 10
-361.860411
 20
262.798289
 30
0.0
 11
-361.860411
 21
223.1916
 31
0.0
  0
ELLIPSE
  5
BA
100
AcDbEntity
  8
2
370
    50
100
AcDbEllipse
 10
-346.860411
 20
223.1916
 30
0.0
 11
15.0
 21
0.0
 31
0.0
210
0.0
220
0.0
230
1.0
 40
0.866038
 41
3.1415929999999999
 42
0.0
  0
ELLIPSE
  5
BB
100
AcDbEntity
  8
2
370
    50
100
AcDbEllipse
 10
-346.860411
 20
241.357716
 30
0.0
 11
3.0
 21
0.0
 31
0.0
210
0.0
220
0.0
230
1.0
 40
0.5
 41
0.0
 42
6.2831849999999996
  0
ELLIPSE
  5
BC
100
AcDbEntity
  8
2
370
    50
100
AcDbEllipse
 10
-346.860411
 20
243.609718
 30
0.0
 11
3.0
 21
0.0
 31
0.0
210
0.0
220
0.0
230
1.0
 40
0.5
 41
3.9906640000000002
 42
5.4341140000000001
  0
LINE
  5
BD
100
AcDbEntity
  8
2
370
    50
100
AcDbLine
 10
-325.860737
 20
288.421659
 30
0.0
 11
-325.860737
 21
289.874702
 31
0.0
  0
LINE
  5
BE
100
AcDbEntity
  8
2
370
    50
100
AcDbLine
 10
-367.860737
 20
288.421659
 30
0.0
 11
-367.860737
 21
289.874702
 31
0.0
  0
ARC
  5
BF
100
AcDbEntity
  8
2
370
    50
100
AcDbCircle
 10
-338.860737
 20
289.874702
 30
0.0
 40
13.0
100
AcDbArc
 50
0.0
 51
2.410407
  0
ARC
  5
C0
100
AcDbEntity
  8
2
370
    50
100
AcDbCircle
 10
-354.860737
 20
289.874702
 30
0.0
 40
13.0
100
AcDbArc
 50
177.589593
 51
180.0
  0
LINE
  5
C1
100
AcDbEntity
  8
2
370
    50
100
AcDbLine
 10
-371.360411
 20
288.221713
 30
0.0
 11
-371.360411
 21
175.421071
 31
0.0
  0
LINE
  5
C2
100
AcDbEntity
  8
2
370
    50
100
AcDbLine
 10
-322.360411
 20
288.221713
 30
0.0
 11
-322.360411
 21
175.421071
 31
0.0
  0
LINE
  5
C3
100
AcDbEntity
  8
2
370
    50
100
AcDbLine
 10
-333.807911
 20
-29.078929
 30
0.0
 11
-333.807911
 21
-70.978556
 31
0.0
  0
LINE
  5
C4
100
AcDbEntity
  8
2
370
    50
100
AcDbLine
 10
-343.807911
 20
-53.969219
 30
0.0
 11
-343.807911
 21
-70.978556
 31
0.0
  0
LINE
  5
C5
100
AcDbEntity
  8
2
370
    50
100
AcDbLine
 10
-331.860411
 20
302.797703
 30
0.0
 11
-331.860411
 21
240.46802
 31
0.0
  0
LINE
  5
C6
100
AcDbEntity
  8
2
370
    50
100
AcDbLine
 10
-361.860411
 20
302.797703
 30
0.0
 11
-361.860411
 21
240.46802
 31
0.0
  0
LINE
  5
C7
100
AcDbEntity
  8
2
370
    50
100
AcDbLine
 10
-370.860093
 20
290.421444
 30
0.0
 11
-361.860411
 21
290.421444
 31
0.0
  0
LINE
  5
C8
100
AcDbEntity
  8
2
370
    50
100
AcDbLine
 10
-331.860411
 20
290.421444
 30
0.0
 11
-322.860274
 21
290.421444
 31
0.0
  0
ELLIPSE
  5
C9
100
AcDbEntity
  8
2
370
    50
100
AcDbEllipse
 10
-346.860411
 20
262.798289
 30
0.0
 11
15.0
 21
0.0
 31
0.0
210
0.0
220
0.0
230
1.0
 40
0.866038
 41
4.5719279999999998
 42
0.0
  0
ELLIPSE
  5
CA
100
AcDbEntity
  8
2
370
    50
100
AcDbEllipse
 10
-346.860411
 20
262.798289
 30
0.0
 11
15.0
 21
0.0
 31
0.0
210
0.0
220
0.0
230
1.0
 40
0.866038
 41
3.1415929999999999
 42
4.5719279999999998
  0
LINE
  5
CB
100
AcDbEntity
  8
2
370
    50
100
AcDbLine
 10
-358.360411
 20
281.301127
 30
0.0
 11
-358.360411
 21
276.18689
 31
0.0
  0
LINE
  5
CC
100
AcDbEntity
  8
2
370
    50
100
AcDbLine
 10
-335.360411
 20
281.301127
 30
0.0
 11
-335.360411
 21
276.18689
 31
0.0
  0
ELLIPSE
  5
CD
100
AcDbEntity
  8
2
370
    50
100
AcDbEllipse
 10
-346.860411
 20
276.18689
 30
0.0
 11
11.5
 21
0.0
 31
0.0
210
0.0
220
0.0
230
1.0
 40
0.422617
 41
0.0
 42
6.2831849999999996
  0
ELLIPSE
  5
CE
100
AcDbEntity
  8
2
370
    50
100
AcDbEllipse
 10
-346.860411
 20
281.301127
 30
0.0
 11
11.800000000000001
 21
0.0
 31
0.0
210
0.0
220
0.0
230
1.0
 40
0.50191
 41
6.0572109999999997
 42
3.3675670000000002
  0
ELLIPSE
  5
CF
100
AcDbEntity
  8
2
370
    50
100
AcDbEllipse
 10
-346.860411
 20
281.301127
 30
0.0
 11
11.5
 21
0.0
 31
0.0
210
0.0
220
0.0
230
1.0
 40
0.501908
 41
0.0
 42
3.1415929999999999
  0
ELLIPSE
  5
D0
100
AcDbEntity
  8
2
370
    50
100
AcDbEllipse
 10
-346.860411
 20
276.232442
 30
0.0
 11
9.4499999999999993
 21
0.0
 31
0.0
210
0.0
220
0.0
230
1.0
 40
0.422618
 41
0.0
 42
6.2831849999999996
  0
ELLIPSE
  5
D1
100
AcDbEntity
  8
2
370
    50
100
AcDbEllipse
 10
-346.860411
 20
271.797673
 30
0.0
 11
15.0
 21
0.0
 31
0.0
210
0.0
220
0.0
230
1.0
 40
0.866025
 41
3.785094
 42
5.6396839999999999
  0
ELLIPSE
  5
D2
100
AcDbEntity
  8
2
370
    50
100
AcDbEllipse
 10
-346.860411
 20
273.897713
 30
0.0
 11
15.0
 21
0.0
 31
0.0
210
0.0
220
0.0
230
1.0
 40
0.866028
 41
3.785094
 42
5.6396839999999999
  0
LINE
  5
D3
100
AcDbEntity
  8
2
370
    50
100
AcDbLine
 10
-334.860411
 20
264.003444
 30
0.0
 11
-334.860411
 21
266.10346
 31
0.0
  0
LINE
  5
D4
100
AcDbEntity
  8
2
370
    50
100
AcDbLine
 10
-358.860411
 20
264.003444
 30
0.0
 11
-358.860411
 21
266.10346
 31
0.0
  0
LINE
  5
D5
100
AcDbEntity
  8
2
370
    50
100
AcDbLine
 10
-334.960411
 20
265.989307
 30
0.0
 11
-334.960411
 21
264.227141
 31
0.0
  0
LINE
  5
D6
100
AcDbEntity
  8
2
370
    50
100
AcDbLine
 10
-358.760411
 20
265.989307
 30
0.0
 11
-358.760411
 21
264.227141
 31
0.0
  0
ELLIPSE
  5
D7
100
AcDbEntity
  8
2
370
    50
100
AcDbEllipse
 10
-346.860411
 20
271.847673
 30
0.0
 11
14.800000000000001
 21
0.0
 31
0.0
210
0.0
220
0.0
230
1.0
 40
0.866025
 41
3.7783060000000002
 42
5.6464720000000002
  0
LINE
  5
D8
100
AcDbEntity
  8
2
370
    50
100
AcDbLine
 10
-322.807911
 20
10.421071
 30
0.0
 11
-370.807911
 21
10.421071
 31
0.0
  0
LINE
  5
D9
100
AcDbEntity
  8
2
370
    50
100
AcDbLine
 10
-322.807911
 20
13.421071
 30
0.0
 11
-322.807911
 21
10.421071
 31
0.0
  0
LINE
  5
DA
100
AcDbEntity
  8
2
370
    50
100
AcDbLine
 10
-370.807911
 20
13.421071
 30
0.0
 11
-370.807911
 21
10.421071
 31
0.0
  0
LINE
  5
DB
100
AcDbEntity
  8
2
370
    50
100
AcDbLine
 10
-350.807911
 20
-130.832638
 30
0.0
 11
-350.807911
 21
-194.952151
 31
0.0
  0
LINE
  5
DC
100
AcDbEntity
  8
2
370
    50
100
AcDbLine
 10
-342.807911
 20
-142.66119
 30
0.0
 11
-342.807911
 21
-194.973544
 31
0.0
  0
LINE
  5
DD
100
AcDbEntity
  8
2
370
    50
100
AcDbLine
 10
-370.807911
 20
13.421071
 30
0.0
 11
-322.807911
 21
13.421071
 31
0.0
  0
ARC
  5
DE
100
AcDbEntity
  8
2
370
    50
100
AcDbCircle
 10
-348.807911
 20
-192.317055
 30
0.0
 40
3.333333
100
AcDbArc
 50
233.130102
 51
306.869898
  0
ARC
  5
DF
100
AcDbEntity
  8
2
370
    50
100
AcDbCircle
 10
-344.807911
 20
-197.650388
 30
0.0
 40
3.333333
100
AcDbArc
 50
53.130102
 51
126.869898
  0
ARC
  5
E0
100
AcDbEntity
  8
2
370
    50
100
AcDbCircle
 10
-348.807911
 20
-197.650388
 30
0.0
 40
3.333333
100
AcDbArc
 50
53.130102
 51
126.869898
  0
LINE
  5
E1
100
AcDbEntity
  8
2
370
    50
100
AcDbLine
 10
-353.060361
 20
-36.527069
 30
0.0
 11
-353.060361
 21
-35.513164
 31
0.0
  0
LINE
  5
E2
100
AcDbEntity
  8
2
370
    50
100
AcDbLine
 10
-340.660361
 20
-34.452037
 30
0.0
 11
-340.660361
 21
-33.438115
 31
0.0
  0
LINE
  5
E3
100
AcDbEntity
  8
2
370
    50
100
AcDbLine
 10
-353.860361
 20
-35.410788
 30
0.0
 11
-353.860361
 21
-32.774635
 31
0.0
  0
LINE
  5
E4
100
AcDbEntity
  8
2
370
    50
100
AcDbLine
 10
-353.627351
 20
-35.608045
 30
0.0
 11
-340.027351
 21
-33.332186
 31
0.0
  0
ARC
  5
E5
100
AcDbEntity
  8
2
370
    50
100
AcDbCircle
 10
-353.660361
 20
-35.410788
 30
0.0
 40
0.2
100
AcDbArc
 50
180.0
 51
279.5
  0
LINE
  5
E6
100
AcDbEntity
  8
2
370
    50
100
AcDbLine
 10
-339.860361
 20
-33.134929
 30
0.0
 11
-339.860361
 21
-30.498776
 31
0.0
  0
ARC
  5
E7
100
AcDbEntity
  8
2
370
    50
100
AcDbCircle
 10
-340.060361
 20
-33.134929
 30
0.0
 40
0.2
100
AcDbArc
 50
279.5
 51
360.0
  0
ARC
  5
E8
100
AcDbEntity
  8
2
370
    50
100
AcDbCircle
 10
-340.060361
 20
-30.498776
 30
0.0
 40
0.2
100
AcDbArc
 50
0.0
 51
99.5
  0
LINE
  5
E9
100
AcDbEntity
  8
2
370
    50
100
AcDbLine
 10
-340.09337
 20
-30.301139
 30
0.0
 11
-353.693373
 21
-32.577397
 31
0.0
  0
LINE
  5
EA
100
AcDbEntity
  8
2
370
    50
100
AcDbLine
 10
-353.060361
 20
-40.583069
 30
0.0
 11
-353.060361
 21
-39.569164
 31
0.0
  0
LINE
  5
EB
100
AcDbEntity
  8
2
370
    50
100
AcDbLine
 10
-340.660361
 20
-38.508037
 30
0.0
 11
-340.660361
 21
-37.494115
 31
0.0
  0
LINE
  5
EC
100
AcDbEntity
  8
2
370
    50
100
AcDbLine
 10
-353.860361
 20
-39.466788
 30
0.0
 11
-353.860361
 21
-36.830635
 31
0.0
  0
LINE
  5
ED
100
AcDbEntity
  8
2
370
    50
100
AcDbLine
 10
-353.627351
 20
-39.664045
 30
0.0
 11
-340.027351
 21
-37.388186
 31
0.0
  0
ARC
  5
EE
100
AcDbEntity
  8
2
370
    50
100
AcDbCircle
 10
-353.660361
 20
-39.466788
 30
0.0
 40
0.2
100
AcDbArc
 50
180.0
 51
279.5
  0
LINE
  5
EF
100
AcDbEntity
  8
2
370
    50
100
AcDbLine
 10
-339.860361
 20
-37.190929
 30
0.0
 11
-339.860361
 21
-34.554396
 31
0.0
  0
ARC
  5
F0
100
AcDbEntity
  8
2
370
    50
100
AcDbCircle
 10
-340.060361
 20
-37.190929
 30
0.0
 40
0.2
100
AcDbArc
 50
279.5
 51
360.0
  0
LINE
  5
F1
100
AcDbEntity
  8
2
370
    50
100
AcDbLine
 10
-340.093376
 20
-34.35714
 30
0.0
 11
-353.693373
 21
-36.633397
 31
0.0
  0
LINE
  5
F2
100
AcDbEntity
  8
2
370
    50
100
AcDbLine
 10
-353.060361
 20
-44.639069
 30
0.0
 11
-353.060361
 21
-43.625164
 31
0.0
  0
LINE
  5
F3
100
AcDbEntity
  8
2
370
    50
100
AcDbLine
 10
-340.660361
 20
-42.564037
 30
0.0
 11
-340.660361
 21
-41.550115
 31
0.0
  0
LINE
  5
F4
100
AcDbEntity
  8
2
370
    50
100
AcDbLine
 10
-353.860361
 20
-43.522788
 30
0.0
 11
-353.860361
 21
-40.886635
 31
0.0
  0
LINE
  5
F5
100
AcDbEntity
  8
2
370
    50
100
AcDbLine
 10
-353.627351
 20
-43.720045
 30
0.0
 11
-340.027351
 21
-41.444186
 31
0.0
  0
ARC
  5
F6
100
AcDbEntity
  8
2
370
    50
100
AcDbCircle
 10
-353.660361
 20
-43.522788
 30
0.0
 40
0.2
100
AcDbArc
 50
180.0
 51
279.5
  0
LINE
  5
F7
100
AcDbEntity
  8
2
370
    50
100
AcDbLine
 10
-339.860361
 20
-41.246929
 30
0.0
 11
-339.860361
 21
-38.610776
 31
0.0
  0
ARC
  5
F8
100
AcDbEntity
  8
2
370
    50
100
AcDbCircle
 10
-340.060361
 20
-41.246929
 30
0.0
 40
0.2
100
AcDbArc
 50
279.5
 51
360.0
  0
ARC
  5
F9
100
AcDbEntity
  8
2
370
    50
100
AcDbCircle
 10
-340.060361
 20
-38.610776
 30
0.0
 40
0.2
100
AcDbArc
 50
0.0
 51
99.5
  0
LINE
  5
FA
100
AcDbEntity
  8
2
370
    50
100
AcDbLine
 10
-340.09337
 20
-38.413139
 30
0.0
 11
-353.693373
 21
-40.689397
 31
0.0
  0
LINE
  5
FB
100
AcDbEntity
  8
2
370
    50
100
AcDbLine
 10
-353.060361
 20
-48.695069
 30
0.0
 11
-353.060361
 21
-47.681164
 31
0.0
  0
LINE
  5
FC
100
AcDbEntity
  8
2
370
    50
100
AcDbLine
 10
-340.660361
 20
-46.620037
 30
0.0
 11
-340.660361
 21
-45.606115
 31
0.0
  0
LINE
  5
FD
100
AcDbEntity
  8
2
370
    50
100
AcDbLine
 10
-353.860361
 20
-47.578788
 30
0.0
 11
-353.860361
 21
-44.942635
 31
0.0
  0
LINE
  5
FE
100
AcDbEntity
  8
2
370
    50
100
AcDbLine
 10
-353.627351
 20
-47.776045
 30
0.0
 11
-340.027351
 21
-45.500186
 31
0.0
  0
ARC
  5
FF
100
AcDbEntity
  8
2
370
    50
100
AcDbCircle
 10
-353.660361
 20
-47.578788
 30
0.0
 40
0.2
100
AcDbArc
 50
180.0
 51
279.5
  0
LINE
  5
100
100
AcDbEntity
  8
2
370
    50
100
AcDbLine
 10
-339.860361
 20
-45.302929
 30
0.0
 11
-339.860361
 21
-42.666776
 31
0.0
  0
ARC
  5
101
100
AcDbEntity
  8
2
370
    50
100
AcDbCircle
 10
-340.060361
 20
-45.302929
 30
0.0
 40
0.2
100
AcDbArc
 50
279.5
 51
360.0
  0
ARC
  5
102
100
AcDbEntity
  8
2
370
    50
100
AcDbCircle
 10
-340.060361
 20
-42.666776
 30
0.0
 40
0.2
100
AcDbArc
 50
0.0
 51
99.5
  0
LINE
  5
103
100
AcDbEntity
  8
2
370
    50
100
AcDbLine
 10
-340.09337
 20
-42.469139
 30
0.0
 11
-353.693373
 21
-44.745397
 31
0.0
  0
LINE
  5
104
100
AcDbEntity
  8
2
370
    50
100
AcDbLine
 10
-353.060361
 20
-52.751069
 30
0.0
 11
-353.060361
 21
-51.737164
 31
0.0
  0
LINE
  5
105
100
AcDbEntity
  8
2
370
    50
100
AcDbLine
 10
-340.660361
 20
-50.676037
 30
0.0
 11
-340.660361
 21
-49.662115
 31
0.0
  0
LINE
  5
106
100
AcDbEntity
  8
2
370
    50
100
AcDbLine
 10
-353.860361
 20
-51.634788
 30
0.0
 11
-353.860361
 21
-48.998635
 31
0.0
  0
LINE
  5
107
100
AcDbEntity
  8
2
370
    50
100
AcDbLine
 10
-353.627351
 20
-51.832045
 30
0.0
 11
-340.027351
 21
-49.556186
 31
0.0
  0
ARC
  5
108
100
AcDbEntity
  8
2
370
    50
100
AcDbCircle
 10
-353.660361
 20
-51.634788
 30
0.0
 40
0.2
100
AcDbArc
 50
180.0
 51
279.5
  0
LINE
  5
109
100
AcDbEntity
  8
2
370
    50
100
AcDbLine
 10
-339.860361
 20
-49.358929
 30
0.0
 11
-339.860361
 21
-46.722776
 31
0.0
  0
ARC
  5
10A
100
AcDbEntity
  8
2
370
    50
100
AcDbCircle
 10
-340.060361
 20
-49.358929
 30
0.0
 40
0.2
100
AcDbArc
 50
279.5
 51
360.0
  0
ARC
  5
10B
100
AcDbEntity
  8
2
370
    50
100
AcDbCircle
 10
-340.060361
 20
-46.722776
 30
0.0
 40
0.2
100
AcDbArc
 50
0.0
 51
99.5
  0
LINE
  5
10C
100
AcDbEntity
  8
2
370
    50
100
AcDbLine
 10
-340.09337
 20
-46.525139
 30
0.0
 11
-353.693373
 21
-48.801397
 31
0.0
  0
ARC
  5
10D
100
AcDbEntity
  8
2
370
    50
100
AcDbCircle
 10
-353.660361
 20
-48.998635
 30
0.0
 40
0.2
100
AcDbArc
 50
99.5
 51
180.0
  0
ARC
  5
10E
100
AcDbEntity
  8
2
370
    50
100
AcDbCircle
 10
-353.660361
 20
-44.942635
 30
0.0
 40
0.2
100
AcDbArc
 50
99.5
 51
180.0
  0
ARC
  5
10F
100
AcDbEntity
  8
2
370
    50
100
AcDbCircle
 10
-353.660361
 20
-40.886635
 30
0.0
 40
0.2
100
AcDbArc
 50
99.5
 51
180.0
  0
ARC
  5
110
100
AcDbEntity
  8
2
370
    50
100
AcDbCircle
 10
-353.660361
 20
-36.830635
 30
0.0
 40
0.2
100
AcDbArc
 50
99.5
 51
180.0
  0
ARC
  5
111
100
AcDbEntity
  8
2
370
    50
100
AcDbCircle
 10
-353.660361
 20
-32.774635
 30
0.0
 40
0.2
100
AcDbArc
 50
99.5
 51
180.0
  0
LINE
  5
112
100
AcDbEntity
  8
2
370
    50
100
AcDbLine
 10
-353.060361
 20
-32.471069
 30
0.0
 11
-353.060361
 21
-31.457164
 31
0.0
  0
LINE
  5
113
100
AcDbEntity
  8
2
370
    50
100
AcDbLine
 10
-340.660361
 20
-30.396037
 30
0.0
 11
-340.660361
 21
-29.382115
 31
0.0
  0
LINE
  5
114
100
AcDbEntity
  8
2
370
    50
100
AcDbLine
 10
-353.860361
 20
-31.354788
 30
0.0
 11
-353.860361
 21
-29.078929
 31
0.0
  0
LINE
  5
115
100
AcDbEntity
  8
2
370
    50
100
AcDbLine
 10
-353.627351
 20
-31.552045
 30
0.0
 11
-340.027351
 21
-29.276186
 31
0.0
  0
ARC
  5
116
100
AcDbEntity
  8
2
370
    50
100
AcDbCircle
 10
-353.660361
 20
-31.354788
 30
0.0
 40
0.2
100
AcDbArc
 50
180.0
 51
279.5
  0
ARC
  5
117
100
AcDbEntity
  8
2
370
    50
100
AcDbCircle
 10
-340.060361
 20
-29.078929
 30
0.0
 40
0.2
100
AcDbArc
 50
279.5
 51
360.0
  0
LINE
  5
118
100
AcDbEntity
  8
2
370
    25
  6
CENTER
100
AcDbLine
 10
-417.013911
 20
-136.733983
 30
0.0
 11
-417.013911
 21
-261.701534
 31
0.0
  0
LINE
  5
119
100
AcDbEntity
  8
2
370
    50
100
AcDbLine
 10
-333.007911
 20
-92.378684
 30
0.0
 11
-344.607911
 21
-92.378684
 31
0.0
  0
LINE
  5
11A
100
AcDbEntity
  8
2
370
    50
100
AcDbLine
 10
-345.307911
 20
-109.378684
 30
0.0
 11
-332.307911
 21
-109.378684
 31
0.0
  0
LINE
  5
11B
100
AcDbEntity
  8
2
370
    50
100
AcDbLine
 10
-345.307911
 20
-109.378684
 30
0.0
 11
-345.307911
 21
-96.878684
 31
0.0
  0
LINE
  5
11C
100
AcDbEntity
  8
2
370
    50
100
AcDbLine
 10
-332.307911
 20
-109.378684
 30
0.0
 11
-332.307911
 21
-96.878684
 31
0.0
  0
LINE
  5
11D
100
AcDbEntity
  8
2
370
    50
100
AcDbLine
 10
-342.682241
 20
-95.378684
 30
0.0
 11
-342.682241
 21
-92.878684
 31
0.0
  0
LINE
  5
11E
100
AcDbEntity
  8
2
370
    50
100
AcDbLine
 10
-343.389348
 20
-95.378684
 30
0.0
 11
-343.389348
 21
-92.878684
 31
0.0
  0
LINE
  5
11F
100
AcDbEntity
  8
2
370
    50
100
AcDbLine
 10
-344.787041
 20
-95.378684
 30
0.0
 11
-344.787041
 21
-92.878684
 31
0.0
  0
LINE
  5
120
100
AcDbEntity
  8
2
370
    50
100
AcDbLine
 10
-344.807911
 20
-95.378684
 30
0.0
 11
-344.807911
 21
-92.578684
 31
0.0
  0
LINE
  5
121
100
AcDbEntity
  8
2
370
    50
100
AcDbLine
 10
-339.307911
 20
-95.378684
 30
0.0
 11
-339.307911
 21
-92.878684
 31
0.0
  0
LINE
  5
122
100
AcDbEntity
  8
2
370
    50
100
AcDbLine
 10
-338.307911
 20
-95.378684
 30
0.0
 11
-338.307911
 21
-92.878684
 31
0.0
  0
LINE
  5
123
100
AcDbEntity
  8
2
370
    50
100
AcDbLine
 10
-334.933581
 20
-95.378684
 30
0.0
 11
-334.933581
 21
-92.878684
 31
0.0
  0
LINE
  5
124
100
AcDbEntity
  8
2
370
    50
100
AcDbLine
 10
-334.226474
 20
-95.378684
 30
0.0
 11
-334.226474
 21
-92.878684
 31
0.0
  0
LINE
  5
125
100
AcDbEntity
  8
2
370
    50
100
AcDbLine
 10
-332.807911
 20
-95.378684
 30
0.0
 11
-332.807911
 21
-92.578684
 31
0.0
  0
LINE
  5
126
100
AcDbEntity
  8
2
370
    50
100
AcDbLine
 10
-332.828781
 20
-95.378684
 30
0.0
 11
-332.828781
 21
-92.878684
 31
0.0
  0
LINE
  5
127
100
AcDbEntity
  8
2
370
    50
100
AcDbLine
 10
-343.389348
 20
-92.878684
 30
0.0
 11
-344.807911
 21
-92.878684
 31
0.0
  0
LINE
  5
128
100
AcDbEntity
  8
2
370
    50
100
AcDbLine
 10
-339.307911
 20
-92.878684
 30
0.0
 11
-342.682241
 21
-92.878684
 31
0.0
  0
LINE
  5
129
100
AcDbEntity
  8
2
370
    50
100
AcDbLine
 10
-332.807911
 20
-92.878684
 30
0.0
 11
-334.226474
 21
-92.878684
 31
0.0
  0
LINE
  5
12A
100
AcDbEntity
  8
2
370
    50
100
AcDbLine
 10
-334.933581
 20
-92.878684
 30
0.0
 11
-338.307911
 21
-92.878684
 31
0.0
  0
LINE
  5
12B
100
AcDbEntity
  8
2
370
    50
100
AcDbLine
 10
-343.389348
 20
-95.378684
 30
0.0
 11
-344.807911
 21
-95.378684
 31
0.0
  0
LINE
  5
12C
100
AcDbEntity
  8
2
370
    50
100
AcDbLine
 10
-339.307911
 20
-95.378684
 30
0.0
 11
-342.682241
 21
-95.378684
 31
0.0
  0
LINE
  5
12D
100
AcDbEntity
  8
2
370
    50
100
AcDbLine
 10
-332.807911
 20
-95.378684
 30
0.0
 11
-334.226474
 21
-95.378684
 31
0.0
  0
LINE
  5
12E
100
AcDbEntity
  8
2
370
    50
100
AcDbLine
 10
-334.933581
 20
-95.378684
 30
0.0
 11
-338.307911
 21
-95.378684
 31
0.0
  0
ARC
  5
12F
100
AcDbEntity
  8
2
370
    50
100
AcDbCircle
 10
-333.007911
 20
-92.578684
 30
0.0
 40
0.2
100
AcDbArc
 50
0.0
 51
90.0
  0
ARC
  5
130
100
AcDbEntity
  8
2
370
    50
100
AcDbCircle
 10
-344.607911
 20
-92.578684
 30
0.0
 40
0.2
100
AcDbArc
 50
90.0
 51
180.0
  0
ARC
  5
131
100
AcDbEntity
  8
2
370
    50
100
AcDbCircle
 10
-342.807911
 20
-96.878684
 30
0.0
 40
2.5
100
AcDbArc
 50
143.130102
 51
180.0
  0
ARC
  5
132
100
AcDbEntity
  8
2
370
    50
100
AcDbCircle
 10
-334.807911
 20
-96.878684
 30
0.0
 40
2.5
100
AcDbArc
 50
0.0
 51
36.869898
  0
LINE
  5
133
100
AcDbEntity
  8
2
370
    25
100
AcDbLine
 10
-345.288652
 20
-109.378684
 30
0.0
 11
-345.288652
 21
-96.878684
 31
0.0
  0
LINE
  5
134
100
AcDbEntity
  8
2
370
    25
100
AcDbLine
 10
-343.74404
 20
-109.378684
 30
0.0
 11
-343.74404
 21
-96.878684
 31
0.0
  0
LINE
  5
135
100
AcDbEntity
  8
2
370
    25
100
AcDbLine
 10
-343.036933
 20
-109.378684
 30
0.0
 11
-343.036933
 21
-96.878684
 31
0.0
  0
LINE
  5
136
100
AcDbEntity
  8
2
370
    25
100
AcDbLine
 10
-339.307911
 20
-109.378684
 30
0.0
 11
-339.307911
 21
-96.878684
 31
0.0
  0
LINE
  5
137
100
AcDbEntity
  8
2
370
    25
100
AcDbLine
 10
-338.307911
 20
-109.378684
 30
0.0
 11
-338.307911
 21
-96.878684
 31
0.0
  0
LINE
  5
138
100
AcDbEntity
  8
2
370
    25
100
AcDbLine
 10
-334.578889
 20
-109.378684
 30
0.0
 11
-334.578889
 21
-96.878684
 31
0.0
  0
LINE
  5
139
100
AcDbEntity
  8
2
370
    25
100
AcDbLine
 10
-333.871782
 20
-109.378684
 30
0.0
 11
-333.871782
 21
-96.878684
 31
0.0
  0
LINE
  5
13A
100
AcDbEntity
  8
2
370
    25
100
AcDbLine
 10
-332.32717
 20
-109.378684
 30
0.0
 11
-332.32717
 21
-96.878684
 31
0.0
  0
LINE
  5
13B
100
AcDbEntity
  8
2
370
    25
100
AcDbLine
 10
-334.742047
 20
-125.595042
 30
0.0
 11
-342.873775
 21
-117.463314
 31
0.0
  0
LINE
  5
13C
100
AcDbEntity
  8
2
370
    25
100
AcDbLine
 10
-334.742047
 20
-117.463314
 30
0.0
 11
-342.873775
 21
-125.595042
 31
0.0
  0
LINE
  5
13D
100
AcDbEntity
  8
2
370
    25
100
AcDbLine
 10
-335.511114
 20
-126.240189
 30
0.0
 11
-343.518922
 21
-118.23238
 31
0.0
  0
LINE
  5
13E
100
AcDbEntity
  8
2
370
    25
100
AcDbLine
 10
-336.410137
 20
-126.755379
 30
0.0
 11
-344.034112
 21
-119.131404
 31
0.0
  0
LINE
  5
13F
100
AcDbEntity
  8
2
370
    25
100
AcDbLine
 10
-337.460622
 20
-127.119107
 30
0.0
 11
-344.397841
 21
-120.181889
 31
0.0
  0
LINE
  5
140
100
AcDbEntity
  8
2
370
    25
100
AcDbLine
 10
-338.715508
 20
-127.278435
 30
0.0
 11
-344.557169
 21
-121.436775
 31
0.0
  0
LINE
  5
141
100
AcDbEntity
  8
2
370
    25
100
AcDbLine
 10
-340.335648
 20
-127.072509
 30
0.0
 11
-344.351242
 21
-123.056915
 31
0.0
  0
LINE
  5
142
100
AcDbEntity
  8
2
370
    25
100
AcDbLine
 10
-334.0969
 20
-124.825975
 30
0.0
 11
-342.104709
 21
-116.818167
 31
0.0
  0
LINE
  5
143
100
AcDbEntity
  8
2
370
    25
100
AcDbLine
 10
-333.58171
 20
-123.926952
 30
0.0
 11
-341.205685
 21
-116.302977
 31
0.0
  0
LINE
  5
144
100
AcDbEntity
  8
2
370
    25
100
AcDbLine
 10
-333.217982
 20
-122.876467
 30
0.0
 11
-340.1552
 21
-115.939248
 31
0.0
  0
LINE
  5
145
100
AcDbEntity
  8
2
370
    25
100
AcDbLine
 10
-333.058654
 20
-121.621581
 30
0.0
 11
-338.900314
 21
-115.77992
 31
0.0
  0
LINE
  5
146
100
AcDbEntity
  8
2
370
    25
100
AcDbLine
 10
-333.26458
 20
-120.001441
 30
0.0
 11
-337.280174
 21
-115.985847
 31
0.0
  0
LINE
  5
147
100
AcDbEntity
  8
2
370
    25
100
AcDbLine
 10
-335.511114
 20
-116.818167
 30
0.0
 11
-343.518922
 21
-124.825975
 31
0.0
  0
LINE
  5
148
100
AcDbEntity
  8
2
370
    25
100
AcDbLine
 10
-336.410137
 20
-116.302977
 30
0.0
 11
-344.034112
 21
-123.926952
 31
0.0
  0
LINE
  5
149
100
AcDbEntity
  8
2
370
    25
100
AcDbLine
 10
-337.460622
 20
-115.939248
 30
0.0
 11
-344.397841
 21
-122.876467
 31
0.0
  0
LINE
  5
14A
100
AcDbEntity
  8
2
370
    25
100
AcDbLine
 10
-338.715508
 20
-115.77992
 30
0.0
 11
-344.557169
 21
-121.621581
 31
0.0
  0
LINE
  5
14B
100
AcDbEntity
  8
2
370
    25
100
AcDbLine
 10
-340.335648
 20
-115.985847
 30
0.0
 11
-344.351242
 21
-120.001441
 31
0.0
  0
LINE
  5
14C
100
AcDbEntity
  8
2
370
    25
100
AcDbLine
 10
-334.0969
 20
-118.23238
 30
0.0
 11
-342.104709
 21
-126.240189
 31
0.0
  0
LINE
  5
14D
100
AcDbEntity
  8
2
370
    25
100
AcDbLine
 10
-333.58171
 20
-119.131404
 30
0.0
 11
-341.205685
 21
-126.755379
 31
0.0
  0
LINE
  5
14E
100
AcDbEntity
  8
2
370
    25
100
AcDbLine
 10
-333.217982
 20
-120.181889
 30
0.0
 11
-340.1552
 21
-127.119107
 31
0.0
  0
LINE
  5
14F
100
AcDbEntity
  8
2
370
    25
100
AcDbLine
 10
-333.058654
 20
-121.436775
 30
0.0
 11
-338.900314
 21
-127.278435
 31
0.0
  0
LINE
  5
150
100
AcDbEntity
  8
2
370
    25
100
AcDbLine
 10
-333.26458
 20
-123.056915
 30
0.0
 11
-337.280174
 21
-127.072509
 31
0.0
  0
LINE
  5
151
100
AcDbEntity
  8
2
370
    50
100
AcDbLine
 10
-333.057911
 20
-141.100011
 30
0.0
 11
-333.057911
 21
-109.378684
 31
0.0
  0
LINE
  5
152
100
AcDbEntity
  8
2
370
    50
100
AcDbLine
 10
-344.557911
 20
-109.378684
 30
0.0
 11
-344.557911
 21
-141.100011
 31
0.0
  0
LINE
  5
153
100
AcDbEntity
  8
2
370
    50
100
AcDbLine
 10
-423.513911
 20
-185.805351
 30
0.0
 11
-410.513911
 21
-185.805351
 31
0.0
  0
LINE
  5
154
100
AcDbEntity
  8
2
370
    50
100
AcDbLine
 10
-421.595348
 20
-199.805351
 30
0.0
 11
-423.013911
 21
-199.805351
 31
0.0
  0
LINE
  5
155
100
AcDbEntity
  8
2
370
    50
100
AcDbLine
 10
-421.595348
 20
-202.305351
 30
0.0
 11
-423.013911
 21
-202.305351
 31
0.0
  0
ARC
  5
156
100
AcDbEntity
  8
2
370
    50
100
AcDbCircle
 10
-422.813911
 20
-202.605351
 30
0.0
 40
0.2
100
AcDbArc
 50
180.0
 51
270.0
  0
LINE
  5
157
100
AcDbEntity
  8
2
370
    50
100
AcDbLine
 10
-417.513911
 20
-202.305351
 30
0.0
 11
-420.888241
 21
-202.305351
 31
0.0
  0
LINE
  5
158
100
AcDbEntity
  8
2
370
    50
100
AcDbLine
 10
-417.513911
 20
-199.805351
 30
0.0
 11
-420.888241
 21
-199.805351
 31
0.0
  0
LINE
  5
159
100
AcDbEntity
  8
2
370
    50
100
AcDbLine
 10
-413.139581
 20
-202.305351
 30
0.0
 11
-416.513911
 21
-202.305351
 31
0.0
  0
LINE
  5
15A
100
AcDbEntity
  8
2
370
    50
100
AcDbLine
 10
-413.139581
 20
-199.805351
 30
0.0
 11
-416.513911
 21
-199.805351
 31
0.0
  0
LINE
  5
15B
100
AcDbEntity
  8
2
370
    50
100
AcDbLine
 10
-411.013911
 20
-202.305351
 30
0.0
 11
-412.432474
 21
-202.305351
 31
0.0
  0
LINE
  5
15C
100
AcDbEntity
  8
2
370
    50
100
AcDbLine
 10
-411.013911
 20
-199.805351
 30
0.0
 11
-412.432474
 21
-199.805351
 31
0.0
  0
ARC
  5
15D
100
AcDbEntity
  8
2
370
    50
100
AcDbCircle
 10
-411.213911
 20
-202.605351
 30
0.0
 40
0.2
100
AcDbArc
 50
270.0
 51
360.0
  0
LINE
  5
15E
100
AcDbEntity
  8
2
370
    50
100
AcDbLine
 10
-411.013911
 20
-199.805351
 30
0.0
 11
-411.013911
 21
-202.605351
 31
0.0
  0
LINE
  5
15F
100
AcDbEntity
  8
2
370
    50
100
AcDbLine
 10
-411.034781
 20
-199.805351
 30
0.0
 11
-411.034781
 21
-202.305351
 31
0.0
  0
ARC
  5
160
100
AcDbEntity
  8
2
370
    50
100
AcDbCircle
 10
-413.013911
 20
-198.305351
 30
0.0
 40
2.5
100
AcDbArc
 50
323.130102
 51
360.0
  0
LINE
  5
161
100
AcDbEntity
  8
2
370
    50
100
AcDbLine
 10
-412.432474
 20
-199.805351
 30
0.0
 11
-412.432474
 21
-202.305351
 31
0.0
  0
LINE
  5
162
100
AcDbEntity
  8
2
370
    50
100
AcDbLine
 10
-413.139581
 20
-199.805351
 30
0.0
 11
-413.139581
 21
-202.305351
 31
0.0
  0
LINE
  5
163
100
AcDbEntity
  8
2
370
    50
100
AcDbLine
 10
-416.513911
 20
-199.805351
 30
0.0
 11
-416.513911
 21
-202.305351
 31
0.0
  0
LINE
  5
164
100
AcDbEntity
  8
2
370
    50
100
AcDbLine
 10
-417.513911
 20
-199.805351
 30
0.0
 11
-417.513911
 21
-202.305351
 31
0.0
  0
LINE
  5
165
100
AcDbEntity
  8
2
370
    50
100
AcDbLine
 10
-421.595348
 20
-199.805351
 30
0.0
 11
-421.595348
 21
-202.305351
 31
0.0
  0
LINE
  5
166
100
AcDbEntity
  8
2
370
    50
100
AcDbLine
 10
-420.888241
 20
-199.805351
 30
0.0
 11
-420.888241
 21
-202.305351
 31
0.0
  0
LINE
  5
167
100
AcDbEntity
  8
2
370
    50
100
AcDbLine
 10
-423.013911
 20
-199.805351
 30
0.0
 11
-423.013911
 21
-202.605351
 31
0.0
  0
LINE
  5
168
100
AcDbEntity
  8
2
370
    50
100
AcDbLine
 10
-422.993041
 20
-199.805351
 30
0.0
 11
-422.993041
 21
-202.305351
 31
0.0
  0
ARC
  5
169
100
AcDbEntity
  8
2
370
    50
100
AcDbCircle
 10
-421.013911
 20
-198.305351
 30
0.0
 40
2.5
100
AcDbArc
 50
180.0
 51
216.869898
  0
LINE
  5
16A
100
AcDbEntity
  8
2
370
    50
100
AcDbLine
 10
-423.513911
 20
-185.805351
 30
0.0
 11
-423.513911
 21
-198.305351
 31
0.0
  0
LINE
  5
16B
100
AcDbEntity
  8
2
370
    25
100
AcDbLine
 10
-423.494652
 20
-185.805351
 30
0.0
 11
-423.494652
 21
-198.305351
 31
0.0
  0
LINE
  5
16C
100
AcDbEntity
  8
2
370
    25
100
AcDbLine
 10
-410.53317
 20
-185.805351
 30
0.0
 11
-410.53317
 21
-198.305351
 31
0.0
  0
LINE
  5
16D
100
AcDbEntity
  8
2
370
    50
100
AcDbLine
 10
-410.513911
 20
-185.805351
 30
0.0
 11
-410.513911
 21
-198.305351
 31
0.0
  0
LINE
  5
16E
100
AcDbEntity
  8
2
370
    50
100
AcDbLine
 10
-410.013911
 20
-202.805351
 30
0.0
 11
-424.013911
 21
-202.805351
 31
0.0
  0
LINE
  5
16F
100
AcDbEntity
  8
2
370
    25
100
AcDbLine
 10
-412.948047
 20
-175.921731
 30
0.0
 11
-421.079775
 21
-167.790003
 31
0.0
  0
LINE
  5
170
100
AcDbEntity
  8
2
370
    25
100
AcDbLine
 10
-412.948047
 20
-167.790003
 30
0.0
 11
-421.079775
 21
-175.921731
 31
0.0
  0
LINE
  5
171
100
AcDbEntity
  8
2
370
    25
100
AcDbLine
 10
-413.717114
 20
-176.566879
 30
0.0
 11
-421.724922
 21
-168.55907
 31
0.0
  0
LINE
  5
172
100
AcDbEntity
  8
2
370
    25
100
AcDbLine
 10
-414.616137
 20
-177.082069
 30
0.0
 11
-422.240112
 21
-169.458093
 31
0.0
  0
LINE
  5
173
100
AcDbEntity
  8
2
370
    25
100
AcDbLine
 10
-415.666622
 20
-177.445797
 30
0.0
 11
-422.603841
 21
-170.508579
 31
0.0
  0
LINE
  5
174
100
AcDbEntity
  8
2
370
    25
100
AcDbLine
 10
-416.921508
 20
-177.605125
 30
0.0
 11
-422.763169
 21
-171.763464
 31
0.0
  0
LINE
  5
175
100
AcDbEntity
  8
2
370
    25
100
AcDbLine
 10
-418.541648
 20
-177.399199
 30
0.0
 11
-422.557242
 21
-173.383604
 31
0.0
  0
LINE
  5
176
100
AcDbEntity
  8
2
370
    25
100
AcDbLine
 10
-412.3029
 20
-175.152665
 30
0.0
 11
-420.310709
 21
-167.144856
 31
0.0
  0
LINE
  5
177
100
AcDbEntity
  8
2
370
    25
100
AcDbLine
 10
-411.78771
 20
-174.253642
 30
0.0
 11
-419.411685
 21
-166.629666
 31
0.0
  0
LINE
  5
178
100
AcDbEntity
  8
2
370
    25
100
AcDbLine
 10
-411.423982
 20
-173.203156
 30
0.0
 11
-418.3612
 21
-166.265938
 31
0.0
  0
LINE
  5
179
100
AcDbEntity
  8
2
370
    25
100
AcDbLine
 10
-411.264654
 20
-171.948271
 30
0.0
 11
-417.106314
 21
-166.10661
 31
0.0
  0
LINE
  5
17A
100
AcDbEntity
  8
2
370
    25
100
AcDbLine
 10
-411.47058
 20
-170.328131
 30
0.0
 11
-415.486174
 21
-166.312536
 31
0.0
  0
LINE
  5
17B
100
AcDbEntity
  8
2
370
    25
100
AcDbLine
 10
-413.717114
 20
-167.144856
 30
0.0
 11
-421.724922
 21
-175.152665
 31
0.0
  0
LINE
  5
17C
100
AcDbEntity
  8
2
370
    25
100
AcDbLine
 10
-414.616137
 20
-166.629666
 30
0.0
 11
-422.240112
 21
-174.253642
 31
0.0
  0
LINE
  5
17D
100
AcDbEntity
  8
2
370
    25
100
AcDbLine
 10
-415.666622
 20
-166.265938
 30
0.0
 11
-422.603841
 21
-173.203156
 31
0.0
  0
LINE
  5
17E
100
AcDbEntity
  8
2
370
    25
100
AcDbLine
 10
-416.921508
 20
-166.10661
 30
0.0
 11
-422.763169
 21
-171.948271
 31
0.0
  0
LINE
  5
17F
100
AcDbEntity
  8
2
370
    25
100
AcDbLine
 10
-418.541648
 20
-166.312536
 30
0.0
 11
-422.557242
 21
-170.328131
 31
0.0
  0
LINE
  5
180
100
AcDbEntity
  8
2
370
    25
100
AcDbLine
 10
-412.3029
 20
-168.55907
 30
0.0
 11
-420.310709
 21
-176.566879
 31
0.0
  0
LINE
  5
181
100
AcDbEntity
  8
2
370
    25
100
AcDbLine
 10
-411.78771
 20
-169.458093
 30
0.0
 11
-419.411685
 21
-177.082069
 31
0.0
  0
LINE
  5
182
100
AcDbEntity
  8
2
370
    25
100
AcDbLine
 10
-411.423982
 20
-170.508579
 30
0.0
 11
-418.3612
 21
-177.445797
 31
0.0
  0
LINE
  5
183
100
AcDbEntity
  8
2
370
    25
100
AcDbLine
 10
-411.264654
 20
-171.763464
 30
0.0
 11
-417.106314
 21
-177.605125
 31
0.0
  0
LINE
  5
184
100
AcDbEntity
  8
2
370
    25
100
AcDbLine
 10
-411.47058
 20
-173.383604
 30
0.0
 11
-415.486174
 21
-177.399199
 31
0.0
  0
LINE
  5
185
100
AcDbEntity
  8
2
370
    50
100
AcDbLine
 10
-411.263911
 20
-185.805351
 30
0.0
 11
-411.263911
 21
-152.518743
 31
0.0
  0
LINE
  5
186
100
AcDbEntity
  8
2
370
    50
100
AcDbLine
 10
-422.763911
 20
-152.518743
 30
0.0
 11
-422.763911
 21
-185.805351
 31
0.0
  0
LINE
  5
187
100
AcDbEntity
  8
2
370
    50
100
AcDbLine
 10
-283.101643
 20
-195.806643
 30
0.0
 11
-270.101643
 21
-195.806643
 31
0.0
  0
LINE
  5
188
100
AcDbEntity
  8
2
370
    50
100
AcDbLine
 10
-281.18308
 20
-209.806643
 30
0.0
 11
-282.601643
 21
-209.806643
 31
0.0
  0
LINE
  5
189
100
AcDbEntity
  8
2
370
    50
100
AcDbLine
 10
-281.18308
 20
-212.306643
 30
0.0
 11
-282.601643
 21
-212.306643
 31
0.0
  0
LINE
  5
18A
100
AcDbEntity
  8
2
370
    50
100
AcDbLine
 10
-277.101643
 20
-212.306643
 30
0.0
 11
-280.475974
 21
-212.306643
 31
0.0
  0
LINE
  5
18B
100
AcDbEntity
  8
2
370
    50
100
AcDbLine
 10
-277.101643
 20
-209.806643
 30
0.0
 11
-280.475974
 21
-209.806643
 31
0.0
  0
LINE
  5
18C
100
AcDbEntity
  8
2
370
    50
100
AcDbLine
 10
-272.727313
 20
-212.306643
 30
0.0
 11
-276.101643
 21
-212.306643
 31
0.0
  0
LINE
  5
18D
100
AcDbEntity
  8
2
370
    50
100
AcDbLine
 10
-272.727313
 20
-209.806643
 30
0.0
 11
-276.101643
 21
-209.806643
 31
0.0
  0
LINE
  5
18E
100
AcDbEntity
  8
2
370
    50
100
AcDbLine
 10
-270.601643
 20
-212.306643
 30
0.0
 11
-272.020206
 21
-212.306643
 31
0.0
  0
LINE
  5
18F
100
AcDbEntity
  8
2
370
    50
100
AcDbLine
 10
-270.601643
 20
-209.806643
 30
0.0
 11
-272.020206
 21
-209.806643
 31
0.0
  0
LINE
  5
190
100
AcDbEntity
  8
2
370
    50
100
AcDbLine
 10
-270.601643
 20
-209.806643
 30
0.0
 11
-270.601643
 21
-212.606643
 31
0.0
  0
LINE
  5
191
100
AcDbEntity
  8
2
370
    50
100
AcDbLine
 10
-270.622513
 20
-209.806643
 30
0.0
 11
-270.622513
 21
-212.306643
 31
0.0
  0
ARC
  5
192
100
AcDbEntity
  8
2
370
    50
100
AcDbCircle
 10
-272.601643
 20
-208.306643
 30
0.0
 40
2.5
100
AcDbArc
 50
323.130102
 51
360.0
  0
LINE
  5
193
100
AcDbEntity
  8
2
370
    50
100
AcDbLine
 10
-272.020206
 20
-209.806643
 30
0.0
 11
-272.020206
 21
-212.306643
 31
0.0
  0
LINE
  5
194
100
AcDbEntity
  8
2
370
    50
100
AcDbLine
 10
-272.727313
 20
-209.806643
 30
0.0
 11
-272.727313
 21
-212.306643
 31
0.0
  0
LINE
  5
195
100
AcDbEntity
  8
2
370
    50
100
AcDbLine
 10
-276.101643
 20
-209.806643
 30
0.0
 11
-276.101643
 21
-212.306643
 31
0.0
  0
LINE
  5
196
100
AcDbEntity
  8
2
370
    50
100
AcDbLine
 10
-277.101643
 20
-209.806643
 30
0.0
 11
-277.101643
 21
-212.306643
 31
0.0
  0
LINE
  5
197
100
AcDbEntity
  8
2
370
    50
100
AcDbLine
 10
-281.18308
 20
-209.806643
 30
0.0
 11
-281.18308
 21
-212.306643
 31
0.0
  0
LINE
  5
198
100
AcDbEntity
  8
2
370
    50
100
AcDbLine
 10
-280.475974
 20
-209.806643
 30
0.0
 11
-280.475974
 21
-212.306643
 31
0.0
  0
LINE
  5
199
100
AcDbEntity
  8
2
370
    50
100
AcDbLine
 10
-282.601643
 20
-209.806643
 30
0.0
 11
-282.601643
 21
-212.606643
 31
0.0
  0
LINE
  5
19A
100
AcDbEntity
  8
2
370
    50
100
AcDbLine
 10
-282.580774
 20
-209.806643
 30
0.0
 11
-282.580774
 21
-212.306643
 31
0.0
  0
ARC
  5
19B
100
AcDbEntity
  8
2
370
    50
100
AcDbCircle
 10
-280.601643
 20
-208.306643
 30
0.0
 40
2.5
100
AcDbArc
 50
180.0
 51
216.869898
  0
LINE
  5
19C
100
AcDbEntity
  8
2
370
    50
100
AcDbLine
 10
-283.101643
 20
-195.806643
 30
0.0
 11
-283.101643
 21
-208.306643
 31
0.0
  0
LINE
  5
19D
100
AcDbEntity
  8
2
370
    25
100
AcDbLine
 10
-283.082384
 20
-195.806643
 30
0.0
 11
-283.082384
 21
-208.306643
 31
0.0
  0
LINE
  5
19E
100
AcDbEntity
  8
2
370
    25
100
AcDbLine
 10
-270.120903
 20
-195.806643
 30
0.0
 11
-270.120903
 21
-208.306643
 31
0.0
  0
LINE
  5
19F
100
AcDbEntity
  8
2
370
    50
100
AcDbLine
 10
-270.101643
 20
-195.806643
 30
0.0
 11
-270.101643
 21
-208.306643
 31
0.0
  0
LINE
  5
1A0
100
AcDbEntity
  8
2
370
    25
100
AcDbLine
 10
-272.535779
 20
-185.923024
 30
0.0
 11
-280.667507
 21
-177.791296
 31
0.0
  0
LINE
  5
1A1
100
AcDbEntity
  8
2
370
    25
100
AcDbLine
 10
-272.535779
 20
-177.791296
 30
0.0
 11
-280.667507
 21
-185.923024
 31
0.0
  0
LINE
  5
1A2
100
AcDbEntity
  8
2
370
    25
100
AcDbLine
 10
-273.304846
 20
-186.568171
 30
0.0
 11
-281.312655
 21
-178.560363
 31
0.0
  0
LINE
  5
1A3
100
AcDbEntity
  8
2
370
    25
100
AcDbLine
 10
-274.203869
 20
-187.083361
 30
0.0
 11
-281.827845
 21
-179.459386
 31
0.0
  0
LINE
  5
1A4
100
AcDbEntity
  8
2
370
    25
100
AcDbLine
 10
-275.254354
 20
-187.44709
 30
0.0
 11
-282.191573
 21
-180.509871
 31
0.0
  0
LINE
  5
1A5
100
AcDbEntity
  8
2
370
    25
100
AcDbLine
 10
-276.50924
 20
-187.606418
 30
0.0
 11
-282.350901
 21
-181.764757
 31
0.0
  0
LINE
  5
1A6
100
AcDbEntity
  8
2
370
    25
100
AcDbLine
 10
-278.12938
 20
-187.400491
 30
0.0
 11
-282.144975
 21
-183.384897
 31
0.0
  0
LINE
  5
1A7
100
AcDbEntity
  8
2
370
    25
100
AcDbLine
 10
-271.890632
 20
-185.153958
 30
0.0
 11
-279.898441
 21
-177.146149
 31
0.0
  0
LINE
  5
1A8
100
AcDbEntity
  8
2
370
    25
100
AcDbLine
 10
-271.375442
 20
-184.254934
 30
0.0
 11
-278.999417
 21
-176.630959
 31
0.0
  0
LINE
  5
1A9
100
AcDbEntity
  8
2
370
    25
100
AcDbLine
 10
-271.011714
 20
-183.204449
 30
0.0
 11
-277.948932
 21
-176.267231
 31
0.0
  0
LINE
  5
1AA
100
AcDbEntity
  8
2
370
    25
100
AcDbLine
 10
-270.852386
 20
-181.949563
 30
0.0
 11
-276.694047
 21
-176.107903
 31
0.0
  0
LINE
  5
1AB
100
AcDbEntity
  8
2
370
    25
100
AcDbLine
 10
-271.058312
 20
-180.329423
 30
0.0
 11
-275.073907
 21
-176.313829
 31
0.0
  0
LINE
  5
1AC
100
AcDbEntity
  8
2
370
    25
100
AcDbLine
 10
-273.304846
 20
-177.146149
 30
0.0
 11
-281.312655
 21
-185.153958
 31
0.0
  0
LINE
  5
1AD
100
AcDbEntity
  8
2
370
    25
100
AcDbLine
 10
-274.203869
 20
-176.630959
 30
0.0
 11
-281.827845
 21
-184.254934
 31
0.0
  0
LINE
  5
1AE
100
AcDbEntity
  8
2
370
    25
100
AcDbLine
 10
-275.254354
 20
-176.267231
 30
0.0
 11
-282.191573
 21
-183.204449
 31
0.0
  0
LINE
  5
1AF
100
AcDbEntity
  8
2
370
    25
100
AcDbLine
 10
-276.50924
 20
-176.107903
 30
0.0
 11
-282.350901
 21
-181.949563
 31
0.0
  0
LINE
  5
1B0
100
AcDbEntity
  8
2
370
    25
100
AcDbLine
 10
-278.12938
 20
-176.313829
 30
0.0
 11
-282.144975
 21
-180.329423
 31
0.0
  0
LINE
  5
1B1
100
AcDbEntity
  8
2
370
    25
100
AcDbLine
 10
-271.890632
 20
-178.560363
 30
0.0
 11
-279.898441
 21
-186.568171
 31
0.0
  0
LINE
  5
1B2
100
AcDbEntity
  8
2
370
    25
100
AcDbLine
 10
-271.375442
 20
-179.459386
 30
0.0
 11
-278.999417
 21
-187.083361
 31
0.0
  0
LINE
  5
1B3
100
AcDbEntity
  8
2
370
    25
100
AcDbLine
 10
-271.011714
 20
-180.509871
 30
0.0
 11
-277.948932
 21
-187.44709
 31
0.0
  0
LINE
  5
1B4
100
AcDbEntity
  8
2
370
    25
100
AcDbLine
 10
-270.852386
 20
-181.764757
 30
0.0
 11
-276.694047
 21
-187.606418
 31
0.0
  0
LINE
  5
1B5
100
AcDbEntity
  8
2
370
    25
100
AcDbLine
 10
-271.058312
 20
-183.384897
 30
0.0
 11
-275.073907
 21
-187.400491
 31
0.0
  0
LINE
  5
1B6
100
AcDbEntity
  8
2
370
    50
100
AcDbLine
 10
-270.851643
 20
-195.806643
 30
0.0
 11
-270.851643
 21
-162.518235
 31
0.0
  0
LINE
  5
1B7
100
AcDbEntity
  8
2
370
    50
100
AcDbLine
 10
-282.351643
 20
-162.51827
 30
0.0
 11
-282.351643
 21
-195.806643
 31
0.0
  0
ARC
  5
1B8
100
AcDbEntity
  8
2
370
    50
100
AcDbCircle
 10
-341.682911
 20
-137.26793
 30
0.0
 40
4.791667
100
AcDbArc
 50
233.130102
 51
306.869898
  0
ARC
  5
1B9
100
AcDbEntity
  8
2
370
    50
100
AcDbCircle
 10
-335.932911
 20
-144.934597
 30
0.0
 40
4.791667
100
AcDbArc
 50
53.130102
 51
126.869898
  0
ARC
  5
1BA
100
AcDbEntity
  8
2
370
    50
100
AcDbCircle
 10
-341.682911
 20
-144.934597
 30
0.0
 40
4.791667
100
AcDbArc
 50
53.130102
 51
126.869898
  0
ARC
  5
1BB
100
AcDbEntity
  8
2
370
    50
100
AcDbCircle
 10
-419.88887
 20
-148.6852
 30
0.0
 40
4.791667
100
AcDbArc
 50
233.130102
 51
306.869898
  0
ARC
  5
1BC
100
AcDbEntity
  8
2
370
    50
100
AcDbCircle
 10
-414.13887
 20
-156.351867
 30
0.0
 40
4.791667
100
AcDbArc
 50
53.130102
 51
126.869898
  0
ARC
  5
1BD
100
AcDbEntity
  8
2
370
    50
100
AcDbCircle
 10
-414.13887
 20
-148.6852
 30
0.0
 40
4.791667
100
AcDbArc
 50
233.130102
 51
306.869898
  0
ARC
  5
1BE
100
AcDbEntity
  8
2
370
    50
100
AcDbCircle
 10
-279.476562
 20
-158.68487
 30
0.0
 40
4.791667
100
AcDbArc
 50
233.130102
 51
306.869898
  0
ARC
  5
1BF
100
AcDbEntity
  8
2
370
    50
100
AcDbCircle
 10
-273.726562
 20
-166.351537
 30
0.0
 40
4.791667
100
AcDbArc
 50
53.130102
 51
126.869898
  0
ARC
  5
1C0
100
AcDbEntity
  8
2
370
    50
100
AcDbCircle
 10
-273.726562
 20
-158.68487
 30
0.0
 40
4.791667
100
AcDbArc
 50
233.130102
 51
306.869898
  0
LINE
  5
1C1
100
AcDbEntity
  8
2
370
    25
  6
CENTER
100
AcDbLine
 10
-276.602053
 20
-146.734229
 30
0.0
 11
-276.602053
 21
-271.375469
 31
0.0
  0
LINE
  5
1C2
100
AcDbEntity
  8
2
370
    25
  6
CENTER
100
AcDbLine
 10
-354.807911
 20
-244.477936
 30
0.0
 11
-417.013911
 21
-136.733983
 31
0.0
  0
LINE
  5
1C3
100
AcDbEntity
  8
2
370
    25
  6
CENTER
100
AcDbLine
 10
-338.807911
 20
-254.477936
 30
0.0
 11
-276.601911
 21
-146.733983
 31
0.0
  0
ARC
  5
1C4
100
AcDbEntity
  8
2
370
    50
100
AcDbCircle
 10
-411.213318
 20
-202.604668
 30
0.0
 40
0.2
100
AcDbArc
 50
270.0
 51
360.0
  0
ARC
  5
1C5
100
AcDbEntity
  8
2
370
    50
100
AcDbCircle
 10
-422.813318
 20
-202.604668
 30
0.0
 40
0.2
100
AcDbArc
 50
180.0
 51
270.0
  0
LINE
  5
1C6
100
AcDbEntity
  8
2
370
    50
100
AcDbLine
 10
-424.013318
 20
-202.804668
 30
0.0
 11
-410.013318
 21
-202.804668
 31
0.0
  0
LINE
  5
1C7
100
AcDbEntity
  8
2
370
    50
100
AcDbLine
 10
-424.513318
 20
-203.304668
 30
0.0
 11
-424.013318
 21
-202.804668
 31
0.0
  0
LINE
  5
1C8
100
AcDbEntity
  8
2
370
    25
100
AcDbLine
 10
-423.513178
 20
-216.604046
 30
0.0
 11
-423.513178
 21
-213.604046
 31
0.0
  0
LINE
  5
1C9
100
AcDbEntity
  8
2
370
    50
100
AcDbLine
 10
-425.913318
 20
-208.205303
 30
0.0
 11
-425.913318
 21
-210.605303
 31
0.0
  0
LINE
  5
1CA
100
AcDbEntity
  8
2
370
    50
100
AcDbLine
 10
-425.713318
 20
-208.005303
 30
0.0
 11
-425.913318
 21
-208.205303
 31
0.0
  0
LINE
  5
1CB
100
AcDbEntity
  8
2
370
    50
100
AcDbLine
 10
-425.713318
 20
-210.805303
 30
0.0
 11
-425.913318
 21
-210.605303
 31
0.0
  0
LINE
  5
1CC
100
AcDbEntity
  8
2
370
    50
100
AcDbLine
 10
-424.513318
 20
-208.005303
 30
0.0
 11
-424.513318
 21
-207.604046
 31
0.0
  0
LINE
  5
1CD
100
AcDbEntity
  8
2
370
    50
100
AcDbLine
 10
-424.513318
 20
-203.304668
 30
0.0
 11
-424.513318
 21
-204.604046
 31
0.0
  0
LINE
  5
1CE
100
AcDbEntity
  8
2
370
    50
100
AcDbLine
 10
-408.113318
 20
-208.204668
 30
0.0
 11
-408.113318
 21
-210.604668
 31
0.0
  0
LINE
  5
1CF
100
AcDbEntity
  8
2
370
    50
100
AcDbLine
 10
-425.913318
 20
-208.204668
 30
0.0
 11
-425.913318
 21
-210.604668
 31
0.0
  0
LINE
  5
1D0
100
AcDbEntity
  8
2
370
    50
100
AcDbLine
 10
-425.713318
 20
-208.004668
 30
0.0
 11
-425.913318
 21
-208.204668
 31
0.0
  0
LINE
  5
1D1
100
AcDbEntity
  8
2
370
    50
100
AcDbLine
 10
-408.313318
 20
-208.004668
 30
0.0
 11
-408.113318
 21
-208.204668
 31
0.0
  0
LINE
  5
1D2
100
AcDbEntity
  8
2
370
    50
100
AcDbLine
 10
-408.313318
 20
-210.804668
 30
0.0
 11
-408.113318
 21
-210.604668
 31
0.0
  0
LINE
  5
1D3
100
AcDbEntity
  8
2
370
    50
100
AcDbLine
 10
-408.013318
 20
-216.604668
 30
0.0
 11
-426.013318
 21
-216.604668
 31
0.0
  0
LINE
  5
1D4
100
AcDbEntity
  8
2
370
    50
100
AcDbLine
 10
-408.713318
 20
-204.604668
 30
0.0
 11
-425.313318
 21
-204.604668
 31
0.0
  0
LINE
  5
1D5
100
AcDbEntity
  8
2
370
    50
100
AcDbLine
 10
-421.013318
 20
-205.604668
 30
0.0
 11
-421.013318
 21
-215.604668
 31
0.0
  0
LINE
  5
1D6
100
AcDbEntity
  8
2
370
    50
100
AcDbLine
 10
-413.013318
 20
-205.604668
 30
0.0
 11
-413.013318
 21
-215.604668
 31
0.0
  0
LINE
  5
1D7
100
AcDbEntity
  8
2
370
    50
100
AcDbLine
 10
-431.513318
 20
-203.604668
 30
0.0
 11
-431.513318
 21
-215.604668
 31
0.0
  0
LINE
  5
1D8
100
AcDbEntity
  8
2
370
    50
100
AcDbLine
 10
-402.513318
 20
-203.604668
 30
0.0
 11
-402.513318
 21
-215.604668
 31
0.0
  0
ARC
  5
1D9
100
AcDbEntity
  8
2
370
    50
100
AcDbCircle
 10
-403.513318
 20
-203.604668
 30
0.0
 40
1.0
100
AcDbArc
 50
0.0
 51
90.0
  0
ARC
  5
1DA
100
AcDbEntity
  8
2
370
    50
100
AcDbCircle
 10
-430.513318
 20
-203.604668
 30
0.0
 40
1.0
100
AcDbArc
 50
90.0
 51
180.0
  0
ARC
  5
1DB
100
AcDbEntity
  8
2
370
    50
100
AcDbCircle
 10
-430.513318
 20
-215.604668
 30
0.0
 40
1.0
100
AcDbArc
 50
180.0
 51
270.0
  0
ARC
  5
1DC
100
AcDbEntity
  8
2
370
    50
100
AcDbCircle
 10
-403.513318
 20
-215.604668
 30
0.0
 40
1.0
100
AcDbArc
 50
270.0
 51
360.0
  0
LINE
  5
1DD
100
AcDbEntity
  8
2
370
    50
100
AcDbLine
 10
-430.513318
 20
-202.604668
 30
0.0
 11
-423.013318
 21
-202.604668
 31
0.0
  0
LINE
  5
1DE
100
AcDbEntity
  8
2
370
    50
100
AcDbLine
 10
-411.013318
 20
-202.604668
 30
0.0
 11
-403.513318
 21
-202.604668
 31
0.0
  0
LINE
  5
1DF
100
AcDbEntity
  8
2
370
    50
100
AcDbLine
 10
-430.513318
 20
-216.604668
 30
0.0
 11
-424.513318
 21
-216.604668
 31
0.0
  0
LINE
  5
1E0
100
AcDbEntity
  8
2
370
    50
100
AcDbLine
 10
-408.713318
 20
-216.604668
 30
0.0
 11
-403.513318
 21
-216.604668
 31
0.0
  0
LINE
  5
1E1
100
AcDbEntity
  8
2
370
    50
100
AcDbLine
 10
-408.713318
 20
-207.604668
 30
0.0
 11
-413.013318
 21
-207.604668
 31
0.0
  0
LINE
  5
1E2
100
AcDbEntity
  8
2
370
    50
100
AcDbLine
 10
-421.013318
 20
-207.604668
 30
0.0
 11
-425.313318
 21
-207.604668
 31
0.0
  0
LINE
  5
1E3
100
AcDbEntity
  8
2
370
    50
100
AcDbLine
 10
-408.313318
 20
-208.004668
 30
0.0
 11
-413.013318
 21
-208.004668
 31
0.0
  0
LINE
  5
1E4
100
AcDbEntity
  8
2
370
    50
100
AcDbLine
 10
-421.013318
 20
-208.004668
 30
0.0
 11
-425.713318
 21
-208.004668
 31
0.0
  0
LINE
  5
1E5
100
AcDbEntity
  8
2
370
    50
100
AcDbLine
 10
-408.113318
 20
-208.204668
 30
0.0
 11
-413.013318
 21
-208.204668
 31
0.0
  0
LINE
  5
1E6
100
AcDbEntity
  8
2
370
    50
100
AcDbLine
 10
-421.013318
 20
-208.204668
 30
0.0
 11
-425.913318
 21
-208.204668
 31
0.0
  0
LINE
  5
1E7
100
AcDbEntity
  8
2
370
    50
100
AcDbLine
 10
-408.113318
 20
-210.604668
 30
0.0
 11
-413.013318
 21
-210.604668
 31
0.0
  0
LINE
  5
1E8
100
AcDbEntity
  8
2
370
    50
100
AcDbLine
 10
-421.013318
 20
-210.604668
 30
0.0
 11
-425.913318
 21
-210.604668
 31
0.0
  0
LINE
  5
1E9
100
AcDbEntity
  8
2
370
    50
100
AcDbLine
 10
-408.713318
 20
-213.604668
 30
0.0
 11
-413.013318
 21
-213.604668
 31
0.0
  0
LINE
  5
1EA
100
AcDbEntity
  8
2
370
    50
100
AcDbLine
 10
-421.013318
 20
-213.604668
 30
0.0
 11
-425.313318
 21
-213.604668
 31
0.0
  0
ARC
  5
1EB
100
AcDbEntity
  8
2
370
    50
100
AcDbCircle
 10
-414.013318
 20
-205.604668
 30
0.0
 40
1.0
100
AcDbArc
 50
0.0
 51
90.0
  0
ARC
  5
1EC
100
AcDbEntity
  8
2
370
    50
100
AcDbCircle
 10
-420.013318
 20
-205.604668
 30
0.0
 40
1.0
100
AcDbArc
 50
90.0
 51
180.0
  0
ARC
  5
1ED
100
AcDbEntity
  8
2
370
    50
100
AcDbCircle
 10
-420.013318
 20
-215.604668
 30
0.0
 40
1.0
100
AcDbArc
 50
180.0
 51
270.0
  0
ARC
  5
1EE
100
AcDbEntity
  8
2
370
    50
100
AcDbCircle
 10
-414.013318
 20
-215.604668
 30
0.0
 40
1.0
100
AcDbArc
 50
270.0
 51
0.0
  0
LINE
  5
1EF
100
AcDbEntity
  8
2
370
    50
100
AcDbLine
 10
-425.313318
 20
-204.604668
 30
0.0
 11
-425.313318
 21
-207.604668
 31
0.0
  0
LINE
  5
1F0
100
AcDbEntity
  8
2
370
    50
100
AcDbLine
 10
-408.713318
 20
-204.604668
 30
0.0
 11
-408.713318
 21
-207.604668
 31
0.0
  0
LINE
  5
1F1
100
AcDbEntity
  8
2
370
    50
100
AcDbLine
 10
-408.713318
 20
-213.604668
 30
0.0
 11
-408.713318
 21
-216.604668
 31
0.0
  0
LINE
  5
1F2
100
AcDbEntity
  8
2
370
    50
100
AcDbLine
 10
-425.313318
 20
-213.604668
 30
0.0
 11
-425.313318
 21
-216.604668
 31
0.0
  0
LINE
  5
1F3
100
AcDbEntity
  8
2
370
    50
100
AcDbLine
 10
-424.513318
 20
-208.004668
 30
0.0
 11
-424.513318
 21
-207.604668
 31
0.0
  0
LINE
  5
1F4
100
AcDbEntity
  8
2
370
    50
100
AcDbLine
 10
-409.513318
 20
-208.004668
 30
0.0
 11
-409.513318
 21
-207.604668
 31
0.0
  0
LINE
  5
1F5
100
AcDbEntity
  8
2
370
    25
100
AcDbLine
 10
-422.013318
 20
-216.305251
 30
0.0
 11
-422.013318
 21
-214.000029
 31
0.0
  0
LINE
  5
1F6
100
AcDbEntity
  8
2
370
    25
100
AcDbLine
 10
-422.013318
 20
-207.343482
 30
0.0
 11
-422.013318
 21
-204.911277
 31
0.0
  0
LINE
  5
1F7
100
AcDbEntity
  8
2
370
    25
100
AcDbLine
 10
-412.013318
 20
-216.305251
 30
0.0
 11
-412.013318
 21
-214.000029
 31
0.0
  0
LINE
  5
1F8
100
AcDbEntity
  8
2
370
    25
100
AcDbLine
 10
-412.013318
 20
-207.300803
 30
0.0
 11
-412.013318
 21
-204.831755
 31
0.0
  0
LINE
  5
1F9
100
AcDbEntity
  8
2
370
    50
100
AcDbLine
 10
-425.813318
 20
-215.604668
 30
0.0
 11
-425.813318
 21
-213.004668
 31
0.0
  0
LINE
  5
1FA
100
AcDbEntity
  8
2
370
    50
100
AcDbLine
 10
-425.813318
 20
-208.104668
 30
0.0
 11
-425.813318
 21
-203.604668
 31
0.0
  0
LINE
  5
1FB
100
AcDbEntity
  8
2
370
    50
100
AcDbLine
 10
-408.213318
 20
-215.604668
 30
0.0
 11
-408.213318
 21
-213.004668
 31
0.0
  0
LINE
  5
1FC
100
AcDbEntity
  8
2
370
    50
100
AcDbLine
 10
-408.213318
 20
-208.104668
 30
0.0
 11
-408.213318
 21
-203.604668
 31
0.0
  0
ARC
  5
1FD
100
AcDbEntity
  8
2
370
    50
100
AcDbCircle
 10
-424.813318
 20
-203.604668
 30
0.0
 40
1.0
100
AcDbArc
 50
90.0
 51
180.0
  0
ARC
  5
1FE
100
AcDbEntity
  8
2
370
    50
100
AcDbCircle
 10
-409.213318
 20
-203.604668
 30
0.0
 40
1.0
100
AcDbArc
 50
0.0
 51
90.0
  0
ARC
  5
1FF
100
AcDbEntity
  8
2
370
    50
100
AcDbCircle
 10
-426.813318
 20
-215.604668
 30
0.0
 40
1.0
100
AcDbArc
 50
270.0
 51
0.0
  0
ARC
  5
200
100
AcDbEntity
  8
2
370
    50
100
AcDbCircle
 10
-407.213318
 20
-215.604668
 30
0.0
 40
1.0
100
AcDbArc
 50
180.0
 51
270.0
  0
LINE
  5
201
100
AcDbEntity
  8
2
370
    50
100
AcDbLine
 10
-409.513318
 20
-203.304668
 30
0.0
 11
-409.513318
 21
-204.604046
 31
0.0
  0
ARC
  5
202
100
AcDbEntity
  8
2
370
    50
100
AcDbCircle
 10
-409.213318
 20
-203.604668
 30
0.0
 40
1.0
100
AcDbArc
 50
0.0
 51
90.0
  0
LINE
  5
203
100
AcDbEntity
  8
2
370
    50
100
AcDbLine
 10
-409.513318
 20
-203.304668
 30
0.0
 11
-410.013318
 21
-202.804668
 31
0.0
  0
LINE
  5
204
100
AcDbEntity
  8
2
370
    50
100
AcDbLine
 10
-408.013318
 20
-211.004668
 30
0.0
 11
-408.013318
 21
-212.804668
 31
0.0
  0
LINE
  5
205
100
AcDbEntity
  8
2
370
    50
100
AcDbLine
 10
-426.013318
 20
-211.004668
 30
0.0
 11
-426.013318
 21
-212.804668
 31
0.0
  0
LINE
  5
206
100
AcDbEntity
  8
2
370
    50
100
AcDbLine
 10
-407.013318
 20
-218.004668
 30
0.0
 11
-407.013318
 21
-245.504668
 31
0.0
  0
LINE
  5
207
100
AcDbEntity
  8
2
370
    50
100
AcDbLine
 10
-427.013318
 20
-218.004668
 30
0.0
 11
-427.013318
 21
-245.504668
 31
0.0
  0
LINE
  5
208
100
AcDbEntity
  8
2
370
    50
100
AcDbLine
 10
-426.013318
 20
-217.004668
 30
0.0
 11
-427.013318
 21
-218.004668
 31
0.0
  0
LINE
  5
209
100
AcDbEntity
  8
2
370
    50
100
AcDbLine
 10
-408.013318
 20
-217.004668
 30
0.0
 11
-407.013318
 21
-218.004668
 31
0.0
  0
LINE
  5
20A
100
AcDbEntity
  8
2
370
    50
100
AcDbLine
 10
-408.013318
 20
-217.004668
 30
0.0
 11
-426.013318
 21
-217.004668
 31
0.0
  0
LINE
  5
20B
100
AcDbEntity
  8
2
370
    50
100
AcDbLine
 10
-405.013318
 20
-245.504668
 30
0.0
 11
-429.013318
 21
-245.504668
 31
0.0
  0
LINE
  5
20C
100
AcDbEntity
  8
2
370
    50
100
AcDbLine
 10
-404.013318
 20
-246.504668
 30
0.0
 11
-404.013318
 21
-255.504668
 31
0.0
  0
LINE
  5
20D
100
AcDbEntity
  8
2
370
    50
100
AcDbLine
 10
-405.013318
 20
-245.504668
 30
0.0
 11
-404.013318
 21
-246.504668
 31
0.0
  0
LINE
  5
20E
100
AcDbEntity
  8
2
370
    50
100
AcDbLine
 10
-408.213318
 20
-210.804668
 30
0.0
 11
-408.013318
 21
-211.004668
 31
0.0
  0
LINE
  5
20F
100
AcDbEntity
  8
2
370
    50
100
AcDbLine
 10
-408.013318
 20
-212.804668
 30
0.0
 11
-408.213318
 21
-213.004668
 31
0.0
  0
LINE
  5
210
100
AcDbEntity
  8
2
370
    50
100
AcDbLine
 10
-425.813318
 20
-210.804668
 30
0.0
 11
-426.013318
 21
-211.004668
 31
0.0
  0
LINE
  5
211
100
AcDbEntity
  8
2
370
    50
100
AcDbLine
 10
-426.013318
 20
-212.804668
 30
0.0
 11
-425.813318
 21
-213.004668
 31
0.0
  0
LINE
  5
212
100
AcDbEntity
  8
2
370
    50
100
AcDbLine
 10
-430.013318
 20
-246.504668
 30
0.0
 11
-430.013318
 21
-255.504668
 31
0.0
  0
LINE
  5
213
100
AcDbEntity
  8
2
370
    50
100
AcDbLine
 10
-429.013318
 20
-245.504668
 30
0.0
 11
-430.013318
 21
-246.504668
 31
0.0
  0
LINE
  5
214
100
AcDbEntity
  8
2
370
    25
100
AcDbLine
 10
-427.013318
 20
-218.004668
 30
0.0
 11
-407.013318
 21
-218.004668
 31
0.0
  0
LINE
  5
215
100
AcDbEntity
  8
2
370
    50
100
AcDbLine
 10
-423.941708
 20
-255.504668
 30
0.0
 11
-423.941708
 21
-246.504668
 31
0.0
  0
LINE
  5
216
100
AcDbEntity
  8
2
370
    50
100
AcDbLine
 10
-410.084928
 20
-255.504668
 30
0.0
 11
-410.084928
 21
-246.504668
 31
0.0
  0
ARC
  5
217
100
AcDbEntity
  8
2
370
    50
100
AcDbCircle
 10
-417.013318
 20
-270.005964
 30
0.0
 40
24.501296
100
AcDbArc
 50
73.574016
 51
106.425984
  0
ARC
  5
218
100
AcDbEntity
  8
2
370
    50
100
AcDbCircle
 10
-407.049123
 20
-250.612723
 30
0.0
 40
5.108056
100
AcDbArc
 50
53.536034
 51
126.463966
  0
ARC
  5
219
100
AcDbEntity
  8
2
370
    50
100
AcDbCircle
 10
-426.977513
 20
-250.612723
 30
0.0
 40
5.108056
100
AcDbArc
 50
53.536034
 51
126.463966
  0
LINE
  5
21A
100
AcDbEntity
  8
2
370
    50
100
AcDbLine
 10
-424.513318
 20
-217.004668
 30
0.0
 11
-424.513318
 21
-216.604668
 31
0.0
  0
LINE
  5
21B
100
AcDbEntity
  8
2
370
    50
100
AcDbLine
 10
-424.513318
 20
-213.604668
 30
0.0
 11
-424.513318
 21
-213.004668
 31
0.0
  0
LINE
  5
21C
100
AcDbEntity
  8
2
370
    50
100
AcDbLine
 10
-409.513318
 20
-217.004668
 30
0.0
 11
-409.513318
 21
-216.604668
 31
0.0
  0
LINE
  5
21D
100
AcDbEntity
  8
2
370
    50
100
AcDbLine
 10
-409.513318
 20
-213.604668
 30
0.0
 11
-409.513318
 21
-213.004668
 31
0.0
  0
LINE
  5
21E
100
AcDbEntity
  8
2
370
    50
100
AcDbLine
 10
-408.213318
 20
-213.004668
 30
0.0
 11
-413.013318
 21
-213.004668
 31
0.0
  0
LINE
  5
21F
100
AcDbEntity
  8
2
370
    50
100
AcDbLine
 10
-421.013318
 20
-213.004668
 30
0.0
 11
-425.813318
 21
-213.004668
 31
0.0
  0
LINE
  5
220
100
AcDbEntity
  8
2
370
    50
100
AcDbLine
 10
-408.013318
 20
-212.804668
 30
0.0
 11
-413.013318
 21
-212.804668
 31
0.0
  0
LINE
  5
221
100
AcDbEntity
  8
2
370
    50
100
AcDbLine
 10
-421.013318
 20
-212.804668
 30
0.0
 11
-426.013318
 21
-212.804668
 31
0.0
  0
LINE
  5
222
100
AcDbEntity
  8
2
370
    50
100
AcDbLine
 10
-408.013318
 20
-211.004668
 30
0.0
 11
-413.013318
 21
-211.004668
 31
0.0
  0
LINE
  5
223
100
AcDbEntity
  8
2
370
    50
100
AcDbLine
 10
-421.013318
 20
-211.004668
 30
0.0
 11
-426.013318
 21
-211.004668
 31
0.0
  0
LINE
  5
224
100
AcDbEntity
  8
2
370
    50
100
AcDbLine
 10
-408.213318
 20
-210.804668
 30
0.0
 11
-413.013318
 21
-210.804668
 31
0.0
  0
LINE
  5
225
100
AcDbEntity
  8
2
370
    50
100
AcDbLine
 10
-421.013318
 20
-210.804668
 30
0.0
 11
-425.813318
 21
-210.804668
 31
0.0
  0
LINE
  5
226
100
AcDbEntity
  8
2
370
    25
100
AcDbLine
 10
-410.513458
 20
-216.604046
 30
0.0
 11
-410.513458
 21
-213.604046
 31
0.0
  0
LINE
  5
227
100
AcDbEntity
  8
2
370
    25
100
AcDbLine
 10
-423.513178
 20
-207.604668
 30
0.0
 11
-423.513178
 21
-204.604668
 31
0.0
  0
LINE
  5
228
100
AcDbEntity
  8
2
370
    25
100
AcDbLine
 10
-410.513458
 20
-207.604668
 30
0.0
 11
-410.513458
 21
-204.604668
 31
0.0
  0
LINE
  5
229
100
AcDbEntity
  8
2
370
    50
100
AcDbLine
 10
-281.183348
 20
-209.807351
 30
0.0
 11
-282.601911
 21
-209.807351
 31
0.0
  0
LINE
  5
22A
100
AcDbEntity
  8
2
370
    50
100
AcDbLine
 10
-281.183348
 20
-212.307351
 30
0.0
 11
-282.601911
 21
-212.307351
 31
0.0
  0
ARC
  5
22B
100
AcDbEntity
  8
2
370
    50
100
AcDbCircle
 10
-282.401911
 20
-212.607351
 30
0.0
 40
0.2
100
AcDbArc
 50
180.0
 51
270.0
  0
LINE
  5
22C
100
AcDbEntity
  8
2
370
    50
100
AcDbLine
 10
-277.101911
 20
-212.307351
 30
0.0
 11
-280.476241
 21
-212.307351
 31
0.0
  0
LINE
  5
22D
100
AcDbEntity
  8
2
370
    50
100
AcDbLine
 10
-277.101911
 20
-209.807351
 30
0.0
 11
-280.476241
 21
-209.807351
 31
0.0
  0
LINE
  5
22E
100
AcDbEntity
  8
2
370
    50
100
AcDbLine
 10
-272.727581
 20
-212.307351
 30
0.0
 11
-276.101911
 21
-212.307351
 31
0.0
  0
LINE
  5
22F
100
AcDbEntity
  8
2
370
    50
100
AcDbLine
 10
-272.727581
 20
-209.807351
 30
0.0
 11
-276.101911
 21
-209.807351
 31
0.0
  0
LINE
  5
230
100
AcDbEntity
  8
2
370
    50
100
AcDbLine
 10
-270.601911
 20
-212.307351
 30
0.0
 11
-272.020474
 21
-212.307351
 31
0.0
  0
LINE
  5
231
100
AcDbEntity
  8
2
370
    50
100
AcDbLine
 10
-270.601911
 20
-209.807351
 30
0.0
 11
-272.020474
 21
-209.807351
 31
0.0
  0
ARC
  5
232
100
AcDbEntity
  8
2
370
    50
100
AcDbCircle
 10
-270.801911
 20
-212.607351
 30
0.0
 40
0.2
100
AcDbArc
 50
270.0
 51
360.0
  0
LINE
  5
233
100
AcDbEntity
  8
2
370
    50
100
AcDbLine
 10
-270.601911
 20
-209.807351
 30
0.0
 11
-270.601911
 21
-212.607351
 31
0.0
  0
LINE
  5
234
100
AcDbEntity
  8
2
370
    50
100
AcDbLine
 10
-270.622781
 20
-209.807351
 30
0.0
 11
-270.622781
 21
-212.307351
 31
0.0
  0
ARC
  5
235
100
AcDbEntity
  8
2
370
    50
100
AcDbCircle
 10
-272.601911
 20
-208.307351
 30
0.0
 40
2.5
100
AcDbArc
 50
323.130102
 51
360.0
  0
LINE
  5
236
100
AcDbEntity
  8
2
370
    50
100
AcDbLine
 10
-272.020474
 20
-209.807351
 30
0.0
 11
-272.020474
 21
-212.307351
 31
0.0
  0
LINE
  5
237
100
AcDbEntity
  8
2
370
    50
100
AcDbLine
 10
-272.727581
 20
-209.807351
 30
0.0
 11
-272.727581
 21
-212.307351
 31
0.0
  0
LINE
  5
238
100
AcDbEntity
  8
2
370
    50
100
AcDbLine
 10
-276.101911
 20
-209.807351
 30
0.0
 11
-276.101911
 21
-212.307351
 31
0.0
  0
LINE
  5
239
100
AcDbEntity
  8
2
370
    50
100
AcDbLine
 10
-277.101911
 20
-209.807351
 30
0.0
 11
-277.101911
 21
-212.307351
 31
0.0
  0
LINE
  5
23A
100
AcDbEntity
  8
2
370
    50
100
AcDbLine
 10
-281.183348
 20
-209.807351
 30
0.0
 11
-281.183348
 21
-212.307351
 31
0.0
  0
LINE
  5
23B
100
AcDbEntity
  8
2
370
    50
100
AcDbLine
 10
-280.476241
 20
-209.807351
 30
0.0
 11
-280.476241
 21
-212.307351
 31
0.0
  0
LINE
  5
23C
100
AcDbEntity
  8
2
370
    50
100
AcDbLine
 10
-282.601911
 20
-209.807351
 30
0.0
 11
-282.601911
 21
-212.607351
 31
0.0
  0
LINE
  5
23D
100
AcDbEntity
  8
2
370
    50
100
AcDbLine
 10
-282.581041
 20
-209.807351
 30
0.0
 11
-282.581041
 21
-212.307351
 31
0.0
  0
ARC
  5
23E
100
AcDbEntity
  8
2
370
    50
100
AcDbCircle
 10
-280.601911
 20
-208.307351
 30
0.0
 40
2.5
100
AcDbArc
 50
180.0
 51
216.869898
  0
LINE
  5
23F
100
AcDbEntity
  8
2
370
    50
100
AcDbLine
 10
-269.601911
 20
-212.807351
 30
0.0
 11
-283.601911
 21
-212.807351
 31
0.0
  0
ARC
  5
240
100
AcDbEntity
  8
2
370
    50
100
AcDbCircle
 10
-270.801318
 20
-212.606668
 30
0.0
 40
0.2
100
AcDbArc
 50
270.0
 51
360.0
  0
ARC
  5
241
100
AcDbEntity
  8
2
370
    50
100
AcDbCircle
 10
-282.401318
 20
-212.606668
 30
0.0
 40
0.2
100
AcDbArc
 50
180.0
 51
270.0
  0
LINE
  5
242
100
AcDbEntity
  8
2
370
    50
100
AcDbLine
 10
-283.601318
 20
-212.806668
 30
0.0
 11
-269.601318
 21
-212.806668
 31
0.0
  0
LINE
  5
243
100
AcDbEntity
  8
2
370
    50
100
AcDbLine
 10
-284.101318
 20
-213.306668
 30
0.0
 11
-283.601318
 21
-212.806668
 31
0.0
  0
LINE
  5
244
100
AcDbEntity
  8
2
370
    25
100
AcDbLine
 10
-283.101178
 20
-226.606046
 30
0.0
 11
-283.101178
 21
-223.606046
 31
0.0
  0
LINE
  5
245
100
AcDbEntity
  8
2
370
    50
100
AcDbLine
 10
-285.501318
 20
-218.207303
 30
0.0
 11
-285.501318
 21
-220.607303
 31
0.0
  0
LINE
  5
246
100
AcDbEntity
  8
2
370
    50
100
AcDbLine
 10
-285.301318
 20
-218.007303
 30
0.0
 11
-285.501318
 21
-218.207303
 31
0.0
  0
LINE
  5
247
100
AcDbEntity
  8
2
370
    50
100
AcDbLine
 10
-285.301318
 20
-220.807303
 30
0.0
 11
-285.501318
 21
-220.607303
 31
0.0
  0
LINE
  5
248
100
AcDbEntity
  8
2
370
    50
100
AcDbLine
 10
-284.101318
 20
-218.007303
 30
0.0
 11
-284.101318
 21
-217.606046
 31
0.0
  0
LINE
  5
249
100
AcDbEntity
  8
2
370
    50
100
AcDbLine
 10
-284.101318
 20
-213.306668
 30
0.0
 11
-284.101318
 21
-214.606046
 31
0.0
  0
LINE
  5
24A
100
AcDbEntity
  8
2
370
    50
100
AcDbLine
 10
-267.701318
 20
-218.206668
 30
0.0
 11
-267.701318
 21
-220.606668
 31
0.0
  0
LINE
  5
24B
100
AcDbEntity
  8
2
370
    50
100
AcDbLine
 10
-285.501318
 20
-218.206668
 30
0.0
 11
-285.501318
 21
-220.606668
 31
0.0
  0
LINE
  5
24C
100
AcDbEntity
  8
2
370
    50
100
AcDbLine
 10
-285.301318
 20
-218.006668
 30
0.0
 11
-285.501318
 21
-218.206668
 31
0.0
  0
LINE
  5
24D
100
AcDbEntity
  8
2
370
    50
100
AcDbLine
 10
-267.901318
 20
-218.006668
 30
0.0
 11
-267.701318
 21
-218.206668
 31
0.0
  0
LINE
  5
24E
100
AcDbEntity
  8
2
370
    50
100
AcDbLine
 10
-267.901318
 20
-220.806668
 30
0.0
 11
-267.701318
 21
-220.606668
 31
0.0
  0
LINE
  5
24F
100
AcDbEntity
  8
2
370
    50
100
AcDbLine
 10
-267.601318
 20
-226.606668
 30
0.0
 11
-285.601318
 21
-226.606668
 31
0.0
  0
LINE
  5
250
100
AcDbEntity
  8
2
370
    50
100
AcDbLine
 10
-268.301318
 20
-214.606668
 30
0.0
 11
-284.901318
 21
-214.606668
 31
0.0
  0
LINE
  5
251
100
AcDbEntity
  8
2
370
    50
100
AcDbLine
 10
-280.601318
 20
-215.606668
 30
0.0
 11
-280.601318
 21
-225.606668
 31
0.0
  0
LINE
  5
252
100
AcDbEntity
  8
2
370
    50
100
AcDbLine
 10
-272.601318
 20
-215.606668
 30
0.0
 11
-272.601318
 21
-225.606668
 31
0.0
  0
LINE
  5
253
100
AcDbEntity
  8
2
370
    50
100
AcDbLine
 10
-291.101318
 20
-213.606668
 30
0.0
 11
-291.101318
 21
-225.606668
 31
0.0
  0
LINE
  5
254
100
AcDbEntity
  8
2
370
    50
100
AcDbLine
 10
-262.101318
 20
-213.606668
 30
0.0
 11
-262.101318
 21
-225.606668
 31
0.0
  0
ARC
  5
255
100
AcDbEntity
  8
2
370
    50
100
AcDbCircle
 10
-263.101318
 20
-213.606668
 30
0.0
 40
1.0
100
AcDbArc
 50
0.0
 51
90.0
  0
ARC
  5
256
100
AcDbEntity
  8
2
370
    50
100
AcDbCircle
 10
-290.101318
 20
-213.606668
 30
0.0
 40
1.0
100
AcDbArc
 50
90.0
 51
180.0
  0
ARC
  5
257
100
AcDbEntity
  8
2
370
    50
100
AcDbCircle
 10
-290.101318
 20
-225.606668
 30
0.0
 40
1.0
100
AcDbArc
 50
180.0
 51
270.0
  0
ARC
  5
258
100
AcDbEntity
  8
2
370
    50
100
AcDbCircle
 10
-263.101318
 20
-225.606668
 30
0.0
 40
1.0
100
AcDbArc
 50
270.0
 51
360.0
  0
LINE
  5
259
100
AcDbEntity
  8
2
370
    50
100
AcDbLine
 10
-290.101318
 20
-212.606668
 30
0.0
 11
-282.601318
 21
-212.606668
 31
0.0
  0
LINE
  5
25A
100
AcDbEntity
  8
2
370
    50
100
AcDbLine
 10
-270.601318
 20
-212.606668
 30
0.0
 11
-263.101318
 21
-212.606668
 31
0.0
  0
LINE
  5
25B
100
AcDbEntity
  8
2
370
    50
100
AcDbLine
 10
-290.101318
 20
-226.606668
 30
0.0
 11
-284.101318
 21
-226.606668
 31
0.0
  0
LINE
  5
25C
100
AcDbEntity
  8
2
370
    50
100
AcDbLine
 10
-268.301318
 20
-226.606668
 30
0.0
 11
-263.101318
 21
-226.606668
 31
0.0
  0
LINE
  5
25D
100
AcDbEntity
  8
2
370
    50
100
AcDbLine
 10
-268.301318
 20
-217.606668
 30
0.0
 11
-272.601318
 21
-217.606668
 31
0.0
  0
LINE
  5
25E
100
AcDbEntity
  8
2
370
    50
100
AcDbLine
 10
-280.601318
 20
-217.606668
 30
0.0
 11
-284.901318
 21
-217.606668
 31
0.0
  0
LINE
  5
25F
100
AcDbEntity
  8
2
370
    50
100
AcDbLine
 10
-267.901318
 20
-218.006668
 30
0.0
 11
-272.601318
 21
-218.006668
 31
0.0
  0
LINE
  5
260
100
AcDbEntity
  8
2
370
    50
100
AcDbLine
 10
-280.601318
 20
-218.006668
 30
0.0
 11
-285.301318
 21
-218.006668
 31
0.0
  0
LINE
  5
261
100
AcDbEntity
  8
2
370
    50
100
AcDbLine
 10
-267.701318
 20
-218.206668
 30
0.0
 11
-272.601318
 21
-218.206668
 31
0.0
  0
LINE
  5
262
100
AcDbEntity
  8
2
370
    50
100
AcDbLine
 10
-280.601318
 20
-218.206668
 30
0.0
 11
-285.501318
 21
-218.206668
 31
0.0
  0
LINE
  5
263
100
AcDbEntity
  8
2
370
    50
100
AcDbLine
 10
-267.701318
 20
-220.606668
 30
0.0
 11
-272.601318
 21
-220.606668
 31
0.0
  0
LINE
  5
264
100
AcDbEntity
  8
2
370
    50
100
AcDbLine
 10
-280.601318
 20
-220.606668
 30
0.0
 11
-285.501318
 21
-220.606668
 31
0.0
  0
LINE
  5
265
100
AcDbEntity
  8
2
370
    50
100
AcDbLine
 10
-268.301318
 20
-223.606668
 30
0.0
 11
-272.601318
 21
-223.606668
 31
0.0
  0
LINE
  5
266
100
AcDbEntity
  8
2
370
    50
100
AcDbLine
 10
-280.601318
 20
-223.606668
 30
0.0
 11
-284.901318
 21
-223.606668
 31
0.0
  0
ARC
  5
267
100
AcDbEntity
  8
2
370
    50
100
AcDbCircle
 10
-273.601318
 20
-215.606668
 30
0.0
 40
1.0
100
AcDbArc
 50
0.0
 51
90.0
  0
ARC
  5
268
100
AcDbEntity
  8
2
370
    50
100
AcDbCircle
 10
-279.601318
 20
-215.606668
 30
0.0
 40
1.0
100
AcDbArc
 50
90.0
 51
180.0
  0
ARC
  5
269
100
AcDbEntity
  8
2
370
    50
100
AcDbCircle
 10
-279.601318
 20
-225.606668
 30
0.0
 40
1.0
100
AcDbArc
 50
180.0
 51
270.0
  0
ARC
  5
26A
100
AcDbEntity
  8
2
370
    50
100
AcDbCircle
 10
-273.601318
 20
-225.606668
 30
0.0
 40
1.0
100
AcDbArc
 50
270.0
 51
0.0
  0
LINE
  5
26B
100
AcDbEntity
  8
2
370
    50
100
AcDbLine
 10
-284.901318
 20
-214.606668
 30
0.0
 11
-284.901318
 21
-217.606668
 31
0.0
  0
LINE
  5
26C
100
AcDbEntity
  8
2
370
    50
100
AcDbLine
 10
-268.301318
 20
-214.606668
 30
0.0
 11
-268.301318
 21
-217.606668
 31
0.0
  0
LINE
  5
26D
100
AcDbEntity
  8
2
370
    50
100
AcDbLine
 10
-268.301318
 20
-223.606668
 30
0.0
 11
-268.301318
 21
-226.606668
 31
0.0
  0
LINE
  5
26E
100
AcDbEntity
  8
2
370
    50
100
AcDbLine
 10
-284.901318
 20
-223.606668
 30
0.0
 11
-284.901318
 21
-226.606668
 31
0.0
  0
LINE
  5
26F
100
AcDbEntity
  8
2
370
    50
100
AcDbLine
 10
-284.101318
 20
-218.006668
 30
0.0
 11
-284.101318
 21
-217.606668
 31
0.0
  0
LINE
  5
270
100
AcDbEntity
  8
2
370
    50
100
AcDbLine
 10
-269.101318
 20
-218.006668
 30
0.0
 11
-269.101318
 21
-217.606668
 31
0.0
  0
LINE
  5
271
100
AcDbEntity
  8
2
370
    25
100
AcDbLine
 10
-281.601318
 20
-226.307251
 30
0.0
 11
-281.601318
 21
-224.002029
 31
0.0
  0
LINE
  5
272
100
AcDbEntity
  8
2
370
    25
100
AcDbLine
 10
-281.601318
 20
-217.345482
 30
0.0
 11
-281.601318
 21
-214.913277
 31
0.0
  0
LINE
  5
273
100
AcDbEntity
  8
2
370
    25
100
AcDbLine
 10
-271.601318
 20
-226.307251
 30
0.0
 11
-271.601318
 21
-224.002029
 31
0.0
  0
LINE
  5
274
100
AcDbEntity
  8
2
370
    25
100
AcDbLine
 10
-271.601318
 20
-217.302803
 30
0.0
 11
-271.601318
 21
-214.833755
 31
0.0
  0
LINE
  5
275
100
AcDbEntity
  8
2
370
    50
100
AcDbLine
 10
-285.401318
 20
-225.606668
 30
0.0
 11
-285.401318
 21
-223.006668
 31
0.0
  0
LINE
  5
276
100
AcDbEntity
  8
2
370
    50
100
AcDbLine
 10
-285.401318
 20
-218.106668
 30
0.0
 11
-285.401318
 21
-213.606668
 31
0.0
  0
LINE
  5
277
100
AcDbEntity
  8
2
370
    50
100
AcDbLine
 10
-267.801318
 20
-225.606668
 30
0.0
 11
-267.801318
 21
-223.006668
 31
0.0
  0
LINE
  5
278
100
AcDbEntity
  8
2
370
    50
100
AcDbLine
 10
-267.801318
 20
-218.106668
 30
0.0
 11
-267.801318
 21
-213.606668
 31
0.0
  0
ARC
  5
279
100
AcDbEntity
  8
2
370
    50
100
AcDbCircle
 10
-284.401318
 20
-213.606668
 30
0.0
 40
1.0
100
AcDbArc
 50
90.0
 51
180.0
  0
ARC
  5
27A
100
AcDbEntity
  8
2
370
    50
100
AcDbCircle
 10
-268.801318
 20
-213.606668
 30
0.0
 40
1.0
100
AcDbArc
 50
0.0
 51
90.0
  0
ARC
  5
27B
100
AcDbEntity
  8
2
370
    50
100
AcDbCircle
 10
-286.401318
 20
-225.606668
 30
0.0
 40
1.0
100
AcDbArc
 50
270.0
 51
0.0
  0
ARC
  5
27C
100
AcDbEntity
  8
2
370
    50
100
AcDbCircle
 10
-266.801318
 20
-225.606668
 30
0.0
 40
1.0
100
AcDbArc
 50
180.0
 51
270.0
  0
LINE
  5
27D
100
AcDbEntity
  8
2
370
    50
100
AcDbLine
 10
-269.101318
 20
-213.306668
 30
0.0
 11
-269.101318
 21
-214.606046
 31
0.0
  0
ARC
  5
27E
100
AcDbEntity
  8
2
370
    50
100
AcDbCircle
 10
-268.801318
 20
-213.606668
 30
0.0
 40
1.0
100
AcDbArc
 50
0.0
 51
90.0
  0
LINE
  5
27F
100
AcDbEntity
  8
2
370
    50
100
AcDbLine
 10
-269.101318
 20
-213.306668
 30
0.0
 11
-269.601318
 21
-212.806668
 31
0.0
  0
LINE
  5
280
100
AcDbEntity
  8
2
370
    50
100
AcDbLine
 10
-267.601318
 20
-221.006668
 30
0.0
 11
-267.601318
 21
-222.806668
 31
0.0
  0
LINE
  5
281
100
AcDbEntity
  8
2
370
    50
100
AcDbLine
 10
-285.601318
 20
-221.006668
 30
0.0
 11
-285.601318
 21
-222.806668
 31
0.0
  0
LINE
  5
282
100
AcDbEntity
  8
2
370
    50
100
AcDbLine
 10
-266.601318
 20
-228.006668
 30
0.0
 11
-266.601318
 21
-255.506668
 31
0.0
  0
LINE
  5
283
100
AcDbEntity
  8
2
370
    50
100
AcDbLine
 10
-286.601318
 20
-228.006668
 30
0.0
 11
-286.601318
 21
-255.506668
 31
0.0
  0
LINE
  5
284
100
AcDbEntity
  8
2
370
    50
100
AcDbLine
 10
-285.601318
 20
-227.006668
 30
0.0
 11
-286.601318
 21
-228.006668
 31
0.0
  0
LINE
  5
285
100
AcDbEntity
  8
2
370
    50
100
AcDbLine
 10
-267.601318
 20
-227.006668
 30
0.0
 11
-266.601318
 21
-228.006668
 31
0.0
  0
LINE
  5
286
100
AcDbEntity
  8
2
370
    50
100
AcDbLine
 10
-267.601318
 20
-227.006668
 30
0.0
 11
-285.601318
 21
-227.006668
 31
0.0
  0
LINE
  5
287
100
AcDbEntity
  8
2
370
    50
100
AcDbLine
 10
-267.801318
 20
-220.806668
 30
0.0
 11
-267.601318
 21
-221.006668
 31
0.0
  0
LINE
  5
288
100
AcDbEntity
  8
2
370
    50
100
AcDbLine
 10
-267.601318
 20
-222.806668
 30
0.0
 11
-267.801318
 21
-223.006668
 31
0.0
  0
LINE
  5
289
100
AcDbEntity
  8
2
370
    50
100
AcDbLine
 10
-285.401318
 20
-220.806668
 30
0.0
 11
-285.601318
 21
-221.006668
 31
0.0
  0
LINE
  5
28A
100
AcDbEntity
  8
2
370
    50
100
AcDbLine
 10
-285.601318
 20
-222.806668
 30
0.0
 11
-285.401318
 21
-223.006668
 31
0.0
  0
LINE
  5
28B
100
AcDbEntity
  8
2
370
    25
100
AcDbLine
 10
-286.601318
 20
-228.006668
 30
0.0
 11
-266.601318
 21
-228.006668
 31
0.0
  0
LINE
  5
28C
100
AcDbEntity
  8
2
370
    50
100
AcDbLine
 10
-284.101318
 20
-227.006668
 30
0.0
 11
-284.101318
 21
-226.606668
 31
0.0
  0
LINE
  5
28D
100
AcDbEntity
  8
2
370
    50
100
AcDbLine
 10
-284.101318
 20
-223.606668
 30
0.0
 11
-284.101318
 21
-223.006668
 31
0.0
  0
LINE
  5
28E
100
AcDbEntity
  8
2
370
    50
100
AcDbLine
 10
-269.101318
 20
-227.006668
 30
0.0
 11
-269.101318
 21
-226.606668
 31
0.0
  0
LINE
  5
28F
100
AcDbEntity
  8
2
370
    50
100
AcDbLine
 10
-269.101318
 20
-223.606668
 30
0.0
 11
-269.101318
 21
-223.006668
 31
0.0
  0
LINE
  5
290
100
AcDbEntity
  8
2
370
    50
100
AcDbLine
 10
-267.801318
 20
-223.006668
 30
0.0
 11
-272.601318
 21
-223.006668
 31
0.0
  0
LINE
  5
291
100
AcDbEntity
  8
2
370
    50
100
AcDbLine
 10
-280.601318
 20
-223.006668
 30
0.0
 11
-285.401318
 21
-223.006668
 31
0.0
  0
LINE
  5
292
100
AcDbEntity
  8
2
370
    50
100
AcDbLine
 10
-267.601318
 20
-222.806668
 30
0.0
 11
-272.601318
 21
-222.806668
 31
0.0
  0
LINE
  5
293
100
AcDbEntity
  8
2
370
    50
100
AcDbLine
 10
-280.601318
 20
-222.806668
 30
0.0
 11
-285.601318
 21
-222.806668
 31
0.0
  0
LINE
  5
294
100
AcDbEntity
  8
2
370
    50
100
AcDbLine
 10
-267.601318
 20
-221.006668
 30
0.0
 11
-272.601318
 21
-221.006668
 31
0.0
  0
LINE
  5
295
100
AcDbEntity
  8
2
370
    50
100
AcDbLine
 10
-280.601318
 20
-221.006668
 30
0.0
 11
-285.601318
 21
-221.006668
 31
0.0
  0
LINE
  5
296
100
AcDbEntity
  8
2
370
    50
100
AcDbLine
 10
-267.801318
 20
-220.806668
 30
0.0
 11
-272.601318
 21
-220.806668
 31
0.0
  0
LINE
  5
297
100
AcDbEntity
  8
2
370
    50
100
AcDbLine
 10
-280.601318
 20
-220.806668
 30
0.0
 11
-285.401318
 21
-220.806668
 31
0.0
  0
LINE
  5
298
100
AcDbEntity
  8
2
370
    25
100
AcDbLine
 10
-270.101458
 20
-226.606046
 30
0.0
 11
-270.101458
 21
-223.606046
 31
0.0
  0
LINE
  5
299
100
AcDbEntity
  8
2
370
    25
100
AcDbLine
 10
-283.101178
 20
-217.606668
 30
0.0
 11
-283.101178
 21
-214.606668
 31
0.0
  0
LINE
  5
29A
100
AcDbEntity
  8
2
370
    25
100
AcDbLine
 10
-270.101458
 20
-217.606668
 30
0.0
 11
-270.101458
 21
-214.606668
 31
0.0
  0
LINE
  5
29B
100
AcDbEntity
  8
2
370
    25
100
AcDbLine
 10
-276.101643
 20
-208.306643
 30
0.0
 11
-276.101643
 21
-207.056643
 31
0.0
  0
LINE
  5
29C
100
AcDbEntity
  8
2
370
    25
100
AcDbLine
 10
-276.101643
 20
-197.074884
 30
0.0
 11
-276.101643
 21
-195.806643
 31
0.0
  0
LINE
  5
29D
100
AcDbEntity
  8
2
370
    25
100
AcDbLine
 10
-277.101643
 20
-208.306643
 30
0.0
 11
-277.101643
 21
-207.056643
 31
0.0
  0
LINE
  5
29E
100
AcDbEntity
  8
2
370
    25
100
AcDbLine
 10
-277.101643
 20
-197.074875
 30
0.0
 11
-277.101643
 21
-195.806643
 31
0.0
  0
LINE
  5
29F
100
AcDbEntity
  8
2
370
    25
100
AcDbLine
 10
-280.830666
 20
-208.306643
 30
0.0
 11
-280.830666
 21
-207.056643
 31
0.0
  0
LINE
  5
2A0
100
AcDbEntity
  8
2
370
    25
100
AcDbLine
 10
-280.830666
 20
-197.056643
 30
0.0
 11
-280.830666
 21
-195.806643
 31
0.0
  0
LINE
  5
2A1
100
AcDbEntity
  8
2
370
    25
100
AcDbLine
 10
-281.537772
 20
-208.306643
 30
0.0
 11
-281.537772
 21
-207.056643
 31
0.0
  0
LINE
  5
2A2
100
AcDbEntity
  8
2
370
    25
100
AcDbLine
 10
-281.537772
 20
-197.056643
 30
0.0
 11
-281.537772
 21
-195.806643
 31
0.0
  0
LINE
  5
2A3
100
AcDbEntity
  8
2
370
    25
100
AcDbLine
 10
-272.372621
 20
-208.306643
 30
0.0
 11
-272.372621
 21
-207.056643
 31
0.0
  0
LINE
  5
2A4
100
AcDbEntity
  8
2
370
    25
100
AcDbLine
 10
-272.372621
 20
-197.056643
 30
0.0
 11
-272.372621
 21
-195.806643
 31
0.0
  0
LINE
  5
2A5
100
AcDbEntity
  8
2
370
    25
100
AcDbLine
 10
-271.665514
 20
-208.306643
 30
0.0
 11
-271.665514
 21
-207.056643
 31
0.0
  0
LINE
  5
2A6
100
AcDbEntity
  8
2
370
    25
100
AcDbLine
 10
-271.665514
 20
-197.056643
 30
0.0
 11
-271.665514
 21
-195.806643
 31
0.0
  0
LINE
  5
2A7
100
AcDbEntity
  8
2
370
    25
100
AcDbLine
 10
-421.242933
 20
-198.305351
 30
0.0
 11
-421.242933
 21
-197.055351
 31
0.0
  0
LINE
  5
2A8
100
AcDbEntity
  8
2
370
    25
100
AcDbLine
 10
-421.242933
 20
-187.055351
 30
0.0
 11
-421.242933
 21
-185.805351
 31
0.0
  0
LINE
  5
2A9
100
AcDbEntity
  8
2
370
    25
100
AcDbLine
 10
-421.95004
 20
-198.305351
 30
0.0
 11
-421.95004
 21
-197.055351
 31
0.0
  0
LINE
  5
2AA
100
AcDbEntity
  8
2
370
    25
100
AcDbLine
 10
-421.95004
 20
-187.055351
 30
0.0
 11
-421.95004
 21
-185.805351
 31
0.0
  0
LINE
  5
2AB
100
AcDbEntity
  8
2
370
    25
100
AcDbLine
 10
-417.513911
 20
-198.305351
 30
0.0
 11
-417.513911
 21
-197.055351
 31
0.0
  0
LINE
  5
2AC
100
AcDbEntity
  8
2
370
    25
100
AcDbLine
 10
-417.513911
 20
-187.055351
 30
0.0
 11
-417.513911
 21
-185.805351
 31
0.0
  0
LINE
  5
2AD
100
AcDbEntity
  8
2
370
    25
100
AcDbLine
 10
-416.513911
 20
-198.305351
 30
0.0
 11
-416.513911
 21
-197.055351
 31
0.0
  0
LINE
  5
2AE
100
AcDbEntity
  8
2
370
    25
100
AcDbLine
 10
-416.513911
 20
-187.055351
 30
0.0
 11
-416.513911
 21
-185.805351
 31
0.0
  0
LINE
  5
2AF
100
AcDbEntity
  8
2
370
    25
100
AcDbLine
 10
-412.784889
 20
-198.305351
 30
0.0
 11
-412.784889
 21
-197.055351
 31
0.0
  0
LINE
  5
2B0
100
AcDbEntity
  8
2
370
    25
100
AcDbLine
 10
-412.784889
 20
-187.055351
 30
0.0
 11
-412.784889
 21
-185.805351
 31
0.0
  0
LINE
  5
2B1
100
AcDbEntity
  8
2
370
    25
100
AcDbLine
 10
-412.077782
 20
-198.305351
 30
0.0
 11
-412.077782
 21
-197.055351
 31
0.0
  0
LINE
  5
2B2
100
AcDbEntity
  8
2
370
    25
100
AcDbLine
 10
-412.077782
 20
-187.055351
 30
0.0
 11
-412.077782
 21
-185.805351
 31
0.0
  0
LINE
  5
2B3
100
AcDbEntity
  8
2
370
    50
100
AcDbLine
 10
-266.601318
 20
-228.006668
 30
0.0
 11
-266.601318
 21
-255.506668
 31
0.0
  0
LINE
  5
2B4
100
AcDbEntity
  8
2
370
    50
100
AcDbLine
 10
-286.601318
 20
-228.006668
 30
0.0
 11
-286.601318
 21
-255.506668
 31
0.0
  0
LINE
  5
2B5
100
AcDbEntity
  8
2
370
    50
100
AcDbLine
 10
-264.601318
 20
-255.506668
 30
0.0
 11
-288.601318
 21
-255.506668
 31
0.0
  0
LINE
  5
2B6
100
AcDbEntity
  8
2
370
    50
100
AcDbLine
 10
-263.601318
 20
-256.506668
 30
0.0
 11
-263.601318
 21
-265.506668
 31
0.0
  0
LINE
  5
2B7
100
AcDbEntity
  8
2
370
    50
100
AcDbLine
 10
-264.601318
 20
-255.506668
 30
0.0
 11
-263.601318
 21
-256.506668
 31
0.0
  0
LINE
  5
2B8
100
AcDbEntity
  8
2
370
    50
100
AcDbLine
 10
-264.601318
 20
-266.506668
 30
0.0
 11
-263.601318
 21
-265.506668
 31
0.0
  0
LINE
  5
2B9
100
AcDbEntity
  8
2
370
    50
100
AcDbLine
 10
-289.601318
 20
-256.506668
 30
0.0
 11
-289.601318
 21
-265.506668
 31
0.0
  0
LINE
  5
2BA
100
AcDbEntity
  8
2
370
    50
100
AcDbLine
 10
-288.601318
 20
-255.506668
 30
0.0
 11
-289.601318
 21
-256.506668
 31
0.0
  0
LINE
  5
2BB
100
AcDbEntity
  8
2
370
    50
100
AcDbLine
 10
-288.601318
 20
-266.506668
 30
0.0
 11
-289.601318
 21
-265.506668
 31
0.0
  0
LINE
  5
2BC
100
AcDbEntity
  8
2
370
    50
100
AcDbLine
 10
-264.601318
 20
-266.506668
 30
0.0
 11
-288.601318
 21
-266.506668
 31
0.0
  0
LINE
  5
2BD
100
AcDbEntity
  8
2
370
    50
100
AcDbLine
 10
-283.529708
 20
-265.506668
 30
0.0
 11
-283.529708
 21
-256.506668
 31
0.0
  0
LINE
  5
2BE
100
AcDbEntity
  8
2
370
    50
100
AcDbLine
 10
-269.672928
 20
-265.506668
 30
0.0
 11
-269.672928
 21
-256.506668
 31
0.0
  0
ARC
  5
2BF
100
AcDbEntity
  8
2
370
    50
100
AcDbCircle
 10
-276.601318
 20
-280.007964
 30
0.0
 40
24.501296
100
AcDbArc
 50
73.574016
 51
106.425984
  0
ARC
  5
2C0
100
AcDbEntity
  8
2
370
    50
100
AcDbCircle
 10
-276.601318
 20
-242.005372
 30
0.0
 40
24.501296
100
AcDbArc
 50
253.574016
 51
286.425984
  0
ARC
  5
2C1
100
AcDbEntity
  8
2
370
    50
100
AcDbCircle
 10
-286.565513
 20
-261.398612
 30
0.0
 40
5.108056
100
AcDbArc
 50
233.536034
 51
306.463966
  0
ARC
  5
2C2
100
AcDbEntity
  8
2
370
    50
100
AcDbCircle
 10
-266.637123
 20
-261.398612
 30
0.0
 40
5.108056
100
AcDbArc
 50
233.536034
 51
306.463966
  0
ARC
  5
2C3
100
AcDbEntity
  8
2
370
    50
100
AcDbCircle
 10
-266.637123
 20
-260.614723
 30
0.0
 40
5.108056
100
AcDbArc
 50
53.536034
 51
126.463966
  0
ARC
  5
2C4
100
AcDbEntity
  8
2
370
    50
100
AcDbCircle
 10
-286.565513
 20
-260.614723
 30
0.0
 40
5.108056
100
AcDbArc
 50
53.536034
 51
126.463966
  0
LINE
  5
2C5
100
AcDbEntity
  8
2
370
    50
100
AcDbLine
 10
-404.013318
 20
-246.504668
 30
0.0
 11
-404.013318
 21
-255.504668
 31
0.0
  0
LINE
  5
2C6
100
AcDbEntity
  8
2
370
    50
100
AcDbLine
 10
-405.013318
 20
-256.504668
 30
0.0
 11
-404.013318
 21
-255.504668
 31
0.0
  0
LINE
  5
2C7
100
AcDbEntity
  8
2
370
    50
100
AcDbLine
 10
-430.013318
 20
-246.504668
 30
0.0
 11
-430.013318
 21
-255.504668
 31
0.0
  0
LINE
  5
2C8
100
AcDbEntity
  8
2
370
    50
100
AcDbLine
 10
-429.013318
 20
-256.504668
 30
0.0
 11
-430.013318
 21
-255.504668
 31
0.0
  0
LINE
  5
2C9
100
AcDbEntity
  8
2
370
    50
100
AcDbLine
 10
-405.013318
 20
-256.504668
 30
0.0
 11
-429.013318
 21
-256.504668
 31
0.0
  0
LINE
  5
2CA
100
AcDbEntity
  8
2
370
    50
100
AcDbLine
 10
-423.941708
 20
-255.504668
 30
0.0
 11
-423.941708
 21
-246.504668
 31
0.0
  0
LINE
  5
2CB
100
AcDbEntity
  8
2
370
    50
100
AcDbLine
 10
-410.084928
 20
-255.504668
 30
0.0
 11
-410.084928
 21
-246.504668
 31
0.0
  0
ARC
  5
2CC
100
AcDbEntity
  8
2
370
    50
100
AcDbCircle
 10
-417.013318
 20
-232.003372
 30
0.0
 40
24.501296
100
AcDbArc
 50
253.574016
 51
286.425984
  0
ARC
  5
2CD
100
AcDbEntity
  8
2
370
    50
100
AcDbCircle
 10
-426.977513
 20
-251.396612
 30
0.0
 40
5.108056
100
AcDbArc
 50
233.536034
 51
306.463966
  0
ARC
  5
2CE
100
AcDbEntity
  8
2
370
    50
100
AcDbCircle
 10
-407.049123
 20
-251.396612
 30
0.0
 40
5.108056
100
AcDbArc
 50
233.536034
 51
306.463966
  0
LINE
  5
2CF
100
AcDbEntity
  8
2
370
    50
100
AcDbLine
 10
-353.860361
 20
-53.929298
 30
0.0
 11
-353.860361
 21
-53.054635
 31
0.0
  0
LINE
  5
2D0
100
AcDbEntity
  8
2
370
    50
100
AcDbLine
 10
-340.311731
 20
-53.659775
 30
0.0
 11
-340.027351
 21
-53.612186
 31
0.0
  0
LINE
  5
2D1
100
AcDbEntity
  8
2
370
    50
100
AcDbLine
 10
-339.860361
 20
-53.414929
 30
0.0
 11
-339.860361
 21
-50.778776
 31
0.0
  0
ARC
  5
2D2
100
AcDbEntity
  8
2
370
    50
100
AcDbCircle
 10
-340.060361
 20
-53.414929
 30
0.0
 40
0.2
100
AcDbArc
 50
279.5
 51
360.0
  0
ARC
  5
2D3
100
AcDbEntity
  8
2
370
    50
100
AcDbCircle
 10
-340.060361
 20
-50.778776
 30
0.0
 40
0.2
100
AcDbArc
 50
0.0
 51
99.5
  0
LINE
  5
2D4
100
AcDbEntity
  8
2
370
    50
100
AcDbLine
 10
-340.09337
 20
-50.581139
 30
0.0
 11
-353.693373
 21
-52.857397
 31
0.0
  0
ARC
  5
2D5
100
AcDbEntity
  8
2
370
    50
100
AcDbCircle
 10
-353.660361
 20
-53.054635
 30
0.0
 40
0.2
100
AcDbArc
 50
99.5
 51
180.0
  0
ARC
  5
2D6
100
AcDbEntity
  8
2
370
    50
100
AcDbCircle
 10
-350.360361
 20
-49.320115
 30
0.0
 40
5.833333
100
AcDbArc
 50
233.130102
 51
306.869898
  0
ARC
  5
2D7
100
AcDbEntity
  8
2
370
    50
100
AcDbCircle
 10
-343.360361
 20
-58.653449
 30
0.0
 40
5.833333
100
AcDbArc
 50
53.130102
 51
126.869898
  0
ARC
  5
2D8
100
AcDbEntity
  8
2
370
    50
100
AcDbCircle
 10
-350.360361
 20
-58.653449
 30
0.0
 40
5.833333
100
AcDbArc
 50
53.130102
 51
126.869898
  0
ARC
  5
2D9
100
AcDbEntity
  8
2
370
    50
100
AcDbCircle
 10
-422.763686
 20
-184.305817
 30
0.0
 40
1.0
100
AcDbArc
 50
90.0
 51
270.0
  0
ARC
  5
2DA
100
AcDbEntity
  8
2
370
    50
100
AcDbCircle
 10
-411.263686
 20
-183.305817
 30
0.0
 40
0.5
100
AcDbArc
 50
270.0
 51
90.0
  0
ARC
  5
2DB
100
AcDbEntity
  8
2
370
    50
100
AcDbCircle
 10
-411.263686
 20
-185.305817
 30
0.0
 40
0.5
100
AcDbArc
 50
270.0
 51
90.0
  0
LINE
  5
2DC
100
AcDbEntity
  8
2
370
    50
100
AcDbLine
 10
-283.101643
 20
-197.056643
 30
0.0
 11
-283.101643
 21
-207.056643
 31
0.0
  0
POINT
  5
2DD
100
AcDbEntity
  8
2
370
    50
100
AcDbPoint
 10
-276.601643
 20
-197.056643
 30
0.0
  0
LINE
  5
2DE
100
AcDbEntity
  8
2
370
    50
100
AcDbLine
 10
-270.101643
 20
-197.056643
 30
0.0
 11
-270.101643
 21
-207.056643
 31
0.0
  0
CIRCLE
  5
2DF
100
AcDbEntity
  8
2
370
    50
100
AcDbCircle
 10
-346.859942
 20
308.587839
 30
0.0
 40
4.0
  0
LINE
  5
2E0
100
AcDbEntity
  8
2
370
    25
100
AcDbLine
 10
-346.859942
 20
304.587839
 30
0.0
 11
-342.859942
 21
308.587839
 31
0.0
  0
LINE
  5
2E1
100
AcDbEntity
  8
2
370
    25
100
AcDbLine
 10
-346.859942
 20
307.76982
 30
0.0
 11
-343.652234
 21
310.977528
 31
0.0
  0
LINE
  5
2E2
100
AcDbEntity
  8
2
370
    25
100
AcDbLine
 10
-346.859942
 20
310.9518
 30
0.0
 11
-345.472307
 21
312.339435
 31
0.0
  0
HATCH
  5
2E3
100
AcDbEntity
  8
2
370
    25
100
AcDbHatch
 10
0.0
 20
0.0
 30
0.0
210
0.0
220
0.0
230
1.0
  2
_U
 70
     0
 71
     1
 91
        1
 92
        1
 93
        2
 72
     2
 10
-346.85994199999999
 20
308.58783899999997
 40
4.0
 50
90.0
 51
270.0
 73
     1
 72
     1
 10
-346.85994199999999
 20
304.58783899999997
 11
-346.85994199999999
 21
312.58783899999997
 97
        2
330
0
330
0
 75
     0
 76
     0
 52
45.0
 41
1.0
 77
     0
 78
     1
 53
45.0
 43
0.0
 44
0.0
 45
-0.53033
 46
0.53033
 79
     0
 98
        1
 10
0.0
 20
0.0
  0
LINE
  5
2E4
100
AcDbEntity
  8
2
370
    50
100
AcDbLine
 10
-346.859942
 20
312.587839
 30
0.0
 11
-346.859942
 21
304.587839
 31
0.0
  0
LINE
  5
2E5
100
AcDbEntity
  8
2
370
    25
  6
CENTER
100
AcDbLine
 10
13.814196
 20
-253.747031
 30
0.0
 11
-71.67534
 21
-131.655321
 31
0.0
  0
LINE
  5
2E6
100
AcDbEntity
  8
2
370
    25
  6
CENTER
100
AcDbLine
 10
-71.67534
 20
-268.395153
 30
0.0
 11
-71.67534
 21
-131.655321
 31
0.0
  0
LINE
  5
2E7
100
AcDbEntity
  8
2
370
    50
100
AcDbLine
 10
-78.174907
 20
-195.806624
 30
0.0
 11
-65.174907
 21
-195.806624
 31
0.0
  0
LINE
  5
2E8
100
AcDbEntity
  8
2
370
    50
100
AcDbLine
 10
-76.256344
 20
-209.806624
 30
0.0
 11
-77.674907
 21
-209.806624
 31
0.0
  0
LINE
  5
2E9
100
AcDbEntity
  8
2
370
    50
100
AcDbLine
 10
-76.256344
 20
-212.306624
 30
0.0
 11
-77.674907
 21
-212.306624
 31
0.0
  0
ARC
  5
2EA
100
AcDbEntity
  8
2
370
    50
100
AcDbCircle
 10
-77.474907
 20
-212.606624
 30
0.0
 40
0.2
100
AcDbArc
 50
180.0
 51
270.0
  0
LINE
  5
2EB
100
AcDbEntity
  8
2
370
    50
100
AcDbLine
 10
-72.174907
 20
-212.306624
 30
0.0
 11
-75.549237
 21
-212.306624
 31
0.0
  0
LINE
  5
2EC
100
AcDbEntity
  8
2
370
    50
100
AcDbLine
 10
-72.174907
 20
-209.806624
 30
0.0
 11
-75.549237
 21
-209.806624
 31
0.0
  0
LINE
  5
2ED
100
AcDbEntity
  8
2
370
    50
100
AcDbLine
 10
-67.800577
 20
-212.306624
 30
0.0
 11
-71.174907
 21
-212.306624
 31
0.0
  0
LINE
  5
2EE
100
AcDbEntity
  8
2
370
    50
100
AcDbLine
 10
-67.800577
 20
-209.806624
 30
0.0
 11
-71.174907
 21
-209.806624
 31
0.0
  0
LINE
  5
2EF
100
AcDbEntity
  8
2
370
    50
100
AcDbLine
 10
-65.674907
 20
-212.306624
 30
0.0
 11
-67.09347
 21
-212.306624
 31
0.0
  0
LINE
  5
2F0
100
AcDbEntity
  8
2
370
    50
100
AcDbLine
 10
-65.674907
 20
-209.806624
 30
0.0
 11
-67.09347
 21
-209.806624
 31
0.0
  0
ARC
  5
2F1
100
AcDbEntity
  8
2
370
    50
100
AcDbCircle
 10
-65.874907
 20
-212.606624
 30
0.0
 40
0.2
100
AcDbArc
 50
270.0
 51
360.0
  0
LINE
  5
2F2
100
AcDbEntity
  8
2
370
    50
100
AcDbLine
 10
-65.674907
 20
-209.806624
 30
0.0
 11
-65.674907
 21
-212.606624
 31
0.0
  0
LINE
  5
2F3
100
AcDbEntity
  8
2
370
    50
100
AcDbLine
 10
-65.695777
 20
-209.806624
 30
0.0
 11
-65.695777
 21
-212.306624
 31
0.0
  0
ARC
  5
2F4
100
AcDbEntity
  8
2
370
    50
100
AcDbCircle
 10
-67.674907
 20
-208.306624
 30
0.0
 40
2.5
100
AcDbArc
 50
323.130102
 51
360.0
  0
LINE
  5
2F5
100
AcDbEntity
  8
2
370
    50
100
AcDbLine
 10
-67.09347
 20
-209.806624
 30
0.0
 11
-67.09347
 21
-212.306624
 31
0.0
  0
LINE
  5
2F6
100
AcDbEntity
  8
2
370
    50
100
AcDbLine
 10
-67.800577
 20
-209.806624
 30
0.0
 11
-67.800577
 21
-212.306624
 31
0.0
  0
LINE
  5
2F7
100
AcDbEntity
  8
2
370
    50
100
AcDbLine
 10
-71.174907
 20
-209.806624
 30
0.0
 11
-71.174907
 21
-212.306624
 31
0.0
  0
LINE
  5
2F8
100
AcDbEntity
  8
2
370
    50
100
AcDbLine
 10
-72.174907
 20
-209.806624
 30
0.0
 11
-72.174907
 21
-212.306624
 31
0.0
  0
LINE
  5
2F9
100
AcDbEntity
  8
2
370
    50
100
AcDbLine
 10
-76.256344
 20
-209.806624
 30
0.0
 11
-76.256344
 21
-212.306624
 31
0.0
  0
LINE
  5
2FA
100
AcDbEntity
  8
2
370
    50
100
AcDbLine
 10
-75.549237
 20
-209.806624
 30
0.0
 11
-75.549237
 21
-212.306624
 31
0.0
  0
LINE
  5
2FB
100
AcDbEntity
  8
2
370
    50
100
AcDbLine
 10
-77.674907
 20
-209.806624
 30
0.0
 11
-77.674907
 21
-212.606624
 31
0.0
  0
LINE
  5
2FC
100
AcDbEntity
  8
2
370
    50
100
AcDbLine
 10
-77.654037
 20
-209.806624
 30
0.0
 11
-77.654037
 21
-212.306624
 31
0.0
  0
ARC
  5
2FD
100
AcDbEntity
  8
2
370
    50
100
AcDbCircle
 10
-75.674907
 20
-208.306624
 30
0.0
 40
2.5
100
AcDbArc
 50
180.0
 51
216.869898
  0
LINE
  5
2FE
100
AcDbEntity
  8
2
370
    50
100
AcDbLine
 10
-78.174907
 20
-195.806624
 30
0.0
 11
-78.174907
 21
-208.306624
 31
0.0
  0
LINE
  5
2FF
100
AcDbEntity
  8
2
370
    25
100
AcDbLine
 10
-76.611036
 20
-195.806624
 30
0.0
 11
-76.611036
 21
-208.306624
 31
0.0
  0
LINE
  5
300
100
AcDbEntity
  8
2
370
    25
100
AcDbLine
 10
-75.903929
 20
-195.806624
 30
0.0
 11
-75.903929
 21
-208.306624
 31
0.0
  0
LINE
  5
301
100
AcDbEntity
  8
2
370
    25
100
AcDbLine
 10
-72.174907
 20
-195.806624
 30
0.0
 11
-72.174907
 21
-208.306624
 31
0.0
  0
LINE
  5
302
100
AcDbEntity
  8
2
370
    25
100
AcDbLine
 10
-71.174907
 20
-195.806624
 30
0.0
 11
-71.174907
 21
-208.306624
 31
0.0
  0
LINE
  5
303
100
AcDbEntity
  8
2
370
    25
100
AcDbLine
 10
-67.445885
 20
-195.806624
 30
0.0
 11
-67.445885
 21
-208.306624
 31
0.0
  0
LINE
  5
304
100
AcDbEntity
  8
2
370
    25
100
AcDbLine
 10
-66.738778
 20
-195.806624
 30
0.0
 11
-66.738778
 21
-208.306624
 31
0.0
  0
LINE
  5
305
100
AcDbEntity
  8
2
370
    25
100
AcDbLine
 10
-65.194166
 20
-195.806624
 30
0.0
 11
-65.194166
 21
-208.306624
 31
0.0
  0
LINE
  5
306
100
AcDbEntity
  8
2
370
    50
100
AcDbLine
 10
-65.174907
 20
-195.806624
 30
0.0
 11
-65.174907
 21
-208.306624
 31
0.0
  0
LINE
  5
307
100
AcDbEntity
  8
2
370
    50
100
AcDbLine
 10
-80.574907
 20
-220.806624
 30
0.0
 11
-80.574907
 21
-218.006624
 31
0.0
  0
LINE
  5
308
100
AcDbEntity
  8
2
370
    50
100
AcDbLine
 10
-62.774907
 20
-220.806624
 30
0.0
 11
-62.774907
 21
-218.006624
 31
0.0
  0
LINE
  5
309
100
AcDbEntity
  8
2
370
    50
100
AcDbLine
 10
-64.674907
 20
-212.806624
 30
0.0
 11
-78.674907
 21
-212.806624
 31
0.0
  0
LINE
  5
30A
100
AcDbEntity
  8
2
370
    50
100
AcDbLine
 10
-78.674907
 20
-212.806624
 30
0.0
 11
-79.174907
 21
-213.306624
 31
0.0
  0
LINE
  5
30B
100
AcDbEntity
  8
2
370
    50
100
AcDbLine
 10
-64.174907
 20
-213.306624
 30
0.0
 11
-64.674907
 21
-212.806624
 31
0.0
  0
LINE
  5
30C
100
AcDbEntity
  8
2
370
    50
100
AcDbLine
 10
-62.774907
 20
-220.806624
 30
0.0
 11
-80.574907
 21
-220.806624
 31
0.0
  0
LINE
  5
30D
100
AcDbEntity
  8
2
370
    50
100
AcDbLine
 10
-62.774907
 20
-218.006624
 30
0.0
 11
-80.574907
 21
-218.006624
 31
0.0
  0
LINE
  5
30E
100
AcDbEntity
  8
2
370
    50
100
AcDbLine
 10
-64.174907
 20
-213.306624
 30
0.0
 11
-79.174907
 21
-213.306624
 31
0.0
  0
LINE
  5
30F
100
AcDbEntity
  8
2
370
    50
100
AcDbLine
 10
-77.424907
 20
-195.806624
 30
0.0
 11
-77.424907
 21
-164.70439
 31
0.0
  0
LINE
  5
310
100
AcDbEntity
  8
2
370
    50
100
AcDbLine
 10
-65.924907
 20
-195.806624
 30
0.0
 11
-65.924907
 21
-164.611319
 31
0.0
  0
LINE
  5
311
100
AcDbEntity
  8
2
370
    50
100
AcDbLine
 10
-80.674907
 20
-221.006624
 30
0.0
 11
-80.674907
 21
-223.006624
 31
0.0
  0
LINE
  5
312
100
AcDbEntity
  8
2
370
    50
100
AcDbLine
 10
-62.674907
 20
-221.006624
 30
0.0
 11
-62.674907
 21
-223.006624
 31
0.0
  0
LINE
  5
313
100
AcDbEntity
  8
2
370
    50
100
AcDbLine
 10
-80.674907
 20
-223.006624
 30
0.0
 11
-62.674907
 21
-223.006624
 31
0.0
  0
LINE
  5
314
100
AcDbEntity
  8
2
370
    50
100
AcDbLine
 10
-80.674907
 20
-221.006624
 30
0.0
 11
-80.474907
 21
-220.806624
 31
0.0
  0
LINE
  5
315
100
AcDbEntity
  8
2
370
    50
100
AcDbLine
 10
-62.874907
 20
-220.806624
 30
0.0
 11
-62.674907
 21
-221.006624
 31
0.0
  0
LINE
  5
316
100
AcDbEntity
  8
2
370
    50
100
AcDbLine
 10
-86.174454
 20
-226.106624
 30
0.0
 11
-86.174454
 21
-215.106624
 31
0.0
  0
LINE
  5
317
100
AcDbEntity
  8
2
370
    50
100
AcDbLine
 10
-82.674454
 20
-218.606624
 30
0.0
 11
-82.674454
 21
-222.606624
 31
0.0
  0
LINE
  5
318
100
AcDbEntity
  8
2
370
    50
100
AcDbLine
 10
-56.174454
 20
-225.606624
 30
0.0
 11
-56.174454
 21
-213.606624
 31
0.0
  0
LINE
  5
319
100
AcDbEntity
  8
2
370
    50
100
AcDbLine
 10
-57.174454
 20
-212.606624
 30
0.0
 11
-61.174454
 21
-212.606624
 31
0.0
  0
ARC
  5
31A
100
AcDbEntity
  8
2
370
    50
100
AcDbCircle
 10
-81.674454
 20
-218.606624
 30
0.0
 40
1.0
100
AcDbArc
 50
90.0
 51
180.0
  0
ARC
  5
31B
100
AcDbEntity
  8
2
370
    50
100
AcDbCircle
 10
-81.674454
 20
-222.606624
 30
0.0
 40
1.0
100
AcDbArc
 50
180.0
 51
270.0
  0
ARC
  5
31C
100
AcDbEntity
  8
2
370
    50
100
AcDbCircle
 10
-57.174454
 20
-213.606624
 30
0.0
 40
1.0
100
AcDbArc
 50
0.0
 51
90.0
  0
ARC
  5
31D
100
AcDbEntity
  8
2
370
    50
100
AcDbCircle
 10
-57.174454
 20
-225.606624
 30
0.0
 40
1.0
100
AcDbArc
 50
270.0
 51
360.0
  0
ARC
  5
31E
100
AcDbEntity
  8
2
370
    50
100
AcDbCircle
 10
-85.674454
 20
-215.106624
 30
0.0
 40
0.5
100
AcDbArc
 50
90.0
 51
180.0
  0
ARC
  5
31F
100
AcDbEntity
  8
2
370
    50
100
AcDbCircle
 10
-85.674454
 20
-226.106624
 30
0.0
 40
0.5
100
AcDbArc
 50
180.0
 51
270.0
  0
LINE
  5
320
100
AcDbEntity
  8
2
370
    50
100
AcDbLine
 10
-57.174454
 20
-226.606624
 30
0.0
 11
-64.174907
 21
-226.606624
 31
0.0
  0
LINE
  5
321
100
AcDbEntity
  8
2
370
    50
100
AcDbLine
 10
-62.174454
 20
-225.606624
 30
0.0
 11
-62.174454
 21
-213.606624
 31
0.0
  0
LINE
  5
322
100
AcDbEntity
  8
2
370
    50
100
AcDbLine
 10
-62.174454
 20
-214.606624
 30
0.0
 11
-64.174907
 21
-214.606624
 31
0.0
  0
LINE
  5
323
100
AcDbEntity
  8
2
370
    50
100
AcDbLine
 10
-64.174907
 20
-214.606624
 30
0.0
 11
-85.674454
 21
-214.606624
 31
0.0
  0
LINE
  5
324
100
AcDbEntity
  8
2
370
    50
100
AcDbLine
 10
-64.174907
 20
-226.606624
 30
0.0
 11
-85.674454
 21
-226.606624
 31
0.0
  0
ARC
  5
325
100
AcDbEntity
  8
2
370
    50
100
AcDbCircle
 10
-61.174454
 20
-225.606624
 30
0.0
 40
1.0
100
AcDbArc
 50
180.0
 51
270.0
  0
LINE
  5
326
100
AcDbEntity
  8
2
370
    50
100
AcDbLine
 10
-62.174454
 20
-217.606624
 30
0.0
 11
-64.174907
 21
-217.606624
 31
0.0
  0
LINE
  5
327
100
AcDbEntity
  8
2
370
    50
100
AcDbLine
 10
-64.174907
 20
-217.606624
 30
0.0
 11
-81.674454
 21
-217.606624
 31
0.0
  0
LINE
  5
328
100
AcDbEntity
  8
2
370
    50
100
AcDbLine
 10
-62.174454
 20
-223.606624
 30
0.0
 11
-64.174907
 21
-223.606624
 31
0.0
  0
LINE
  5
329
100
AcDbEntity
  8
2
370
    50
100
AcDbLine
 10
-64.174907
 20
-223.606624
 30
0.0
 11
-81.674454
 21
-223.606624
 31
0.0
  0
LINE
  5
32A
100
AcDbEntity
  8
2
370
    50
100
AcDbLine
 10
-79.174907
 20
-218.006624
 30
0.0
 11
-79.174907
 21
-217.606624
 31
0.0
  0
LINE
  5
32B
100
AcDbEntity
  8
2
370
    50
100
AcDbLine
 10
-79.174907
 20
-214.606624
 30
0.0
 11
-79.174907
 21
-213.306624
 31
0.0
  0
LINE
  5
32C
100
AcDbEntity
  8
2
370
    50
100
AcDbLine
 10
-64.174907
 20
-218.006624
 30
0.0
 11
-64.174907
 21
-217.606624
 31
0.0
  0
LINE
  5
32D
100
AcDbEntity
  8
2
370
    50
100
AcDbLine
 10
-64.174907
 20
-214.606624
 30
0.0
 11
-64.174907
 21
-213.306624
 31
0.0
  0
LINE
  5
32E
100
AcDbEntity
  8
2
370
    50
100
AcDbLine
 10
-64.174907
 20
-223.606624
 30
0.0
 11
-64.174907
 21
-223.006624
 31
0.0
  0
LINE
  5
32F
100
AcDbEntity
  8
2
370
    50
100
AcDbLine
 10
-79.174907
 20
-223.606624
 30
0.0
 11
-79.174907
 21
-223.006624
 31
0.0
  0
ARC
  5
330
100
AcDbEntity
  8
2
370
    50
100
AcDbCircle
 10
-61.174454
 20
-213.606624
 30
0.0
 40
1.0
100
AcDbArc
 50
90.0
 51
180.0
  0
LINE
  5
331
100
AcDbEntity
  8
2
370
    25
100
AcDbLine
 10
-63.174907
 20
-226.606624
 30
0.0
 11
-63.174907
 21
-223.606624
 31
0.0
  0
LINE
  5
332
100
AcDbEntity
  8
2
370
    25
100
AcDbLine
 10
-63.174907
 20
-217.606624
 30
0.0
 11
-63.174907
 21
-214.606624
 31
0.0
  0
LINE
  5
333
100
AcDbEntity
  8
2
370
    25
100
AcDbLine
 10
-80.174907
 20
-226.606624
 30
0.0
 11
-80.174907
 21
-223.606624
 31
0.0
  0
LINE
  5
334
100
AcDbEntity
  8
2
370
    25
100
AcDbLine
 10
-80.174907
 20
-217.606624
 30
0.0
 11
-80.174907
 21
-214.606624
 31
0.0
  0
ARC
  5
335
100
AcDbEntity
  8
2
370
    50
100
AcDbCircle
 10
-74.549907
 20
-160.873088
 30
0.0
 40
4.791667
100
AcDbArc
 50
233.130102
 51
306.869898
  0
ARC
  5
336
100
AcDbEntity
  8
2
370
    50
100
AcDbCircle
 10
-68.799907
 20
-168.539754
 30
0.0
 40
4.791667
100
AcDbArc
 50
53.130102
 51
126.869898
  0
ARC
  5
337
100
AcDbEntity
  8
2
370
    50
100
AcDbCircle
 10
-74.549907
 20
-168.539754
 30
0.0
 40
4.791667
100
AcDbArc
 50
53.130102
 51
126.869898
  0
LINE
  5
338
100
AcDbEntity
  8
2
370
    50
100
AcDbLine
 10
-61.674785
 20
-228.00596
 30
0.0
 11
-61.674785
 21
-255.50596
 31
0.0
  0
LINE
  5
339
100
AcDbEntity
  8
2
370
    50
100
AcDbLine
 10
-62.674785
 20
-227.00596
 30
0.0
 11
-61.674785
 21
-228.00596
 31
0.0
  0
LINE
  5
33A
100
AcDbEntity
  8
2
370
    50
100
AcDbLine
 10
-80.674785
 20
-227.00596
 30
0.0
 11
-81.674785
 21
-228.00596
 31
0.0
  0
LINE
  5
33B
100
AcDbEntity
  8
2
370
    50
100
AcDbLine
 10
-61.674785
 20
-228.00596
 30
0.0
 11
-81.674785
 21
-228.00596
 31
0.0
  0
LINE
  5
33C
100
AcDbEntity
  8
2
370
    50
100
AcDbLine
 10
-81.674785
 20
-228.00596
 30
0.0
 11
-81.674785
 21
-255.50596
 31
0.0
  0
LINE
  5
33D
100
AcDbEntity
  8
2
370
    50
100
AcDbLine
 10
-80.674785
 20
-227.00596
 30
0.0
 11
-62.674785
 21
-227.00596
 31
0.0
  0
LINE
  5
33E
100
AcDbEntity
  8
2
370
    50
100
AcDbLine
 10
-64.174785
 20
-227.00596
 30
0.0
 11
-64.174785
 21
-226.60596
 31
0.0
  0
LINE
  5
33F
100
AcDbEntity
  8
2
370
    50
100
AcDbLine
 10
-79.174785
 20
-227.00596
 30
0.0
 11
-79.174785
 21
-226.60596
 31
0.0
  0
LINE
  5
340
100
AcDbEntity
  8
2
370
    50
100
AcDbLine
 10
-80.674785
 20
-227.00596
 30
0.0
 11
-81.674785
 21
-228.00596
 31
0.0
  0
LINE
  5
341
100
AcDbEntity
  8
2
370
    50
100
AcDbLine
 10
-62.674785
 20
-227.00596
 30
0.0
 11
-61.674785
 21
-228.00596
 31
0.0
  0
LINE
  5
342
100
AcDbEntity
  8
2
370
    50
100
AcDbLine
 10
-81.67534
 20
-228.006668
 30
0.0
 11
-81.67534
 21
-255.506668
 31
0.0
  0
LINE
  5
343
100
AcDbEntity
  8
2
370
    50
100
AcDbLine
 10
-61.67534
 20
-228.006668
 30
0.0
 11
-61.67534
 21
-255.506668
 31
0.0
  0
LINE
  5
344
100
AcDbEntity
  8
2
370
    50
100
AcDbLine
 10
-83.67534
 20
-255.506668
 30
0.0
 11
-59.67534
 21
-255.506668
 31
0.0
  0
LINE
  5
345
100
AcDbEntity
  8
2
370
    50
100
AcDbLine
 10
-83.67534
 20
-266.506668
 30
0.0
 11
-59.67534
 21
-266.506668
 31
0.0
  0
LINE
  5
346
100
AcDbEntity
  8
2
370
    50
100
AcDbLine
 10
-59.67534
 20
-266.506668
 30
0.0
 11
-59.67534
 21
-255.506668
 31
0.0
  0
LINE
  5
347
100
AcDbEntity
  8
2
370
    50
100
AcDbLine
 10
-83.67534
 20
-266.506668
 30
0.0
 11
-83.67534
 21
-255.506668
 31
0.0
  0
ARC
  5
348
100
AcDbEntity
  8
2
370
    50
100
AcDbCircle
 10
-65.67534
 20
-274.008824
 30
0.0
 40
18.502157
100
AcDbArc
 50
71.077645
 51
108.922355
  0
ARC
  5
349
100
AcDbEntity
  8
2
370
    50
100
AcDbCircle
 10
-77.67534
 20
-274.008824
 30
0.0
 40
18.502157
100
AcDbArc
 50
71.077645
 51
108.922355
  0
ARC
  5
34A
100
AcDbEntity
  8
2
370
    50
100
AcDbCircle
 10
-65.67534
 20
-248.004511
 30
0.0
 40
18.502157
100
AcDbArc
 50
251.077645
 51
288.922355
  0
ARC
  5
34B
100
AcDbEntity
  8
2
370
    50
100
AcDbCircle
 10
-77.67534
 20
-248.004511
 30
0.0
 40
18.502157
100
AcDbArc
 50
251.077645
 51
288.922355
  0
LINE
  5
34C
100
AcDbEntity
  8
2
370
    50
100
AcDbLine
 10
-71.67534
 20
-256.506545
 30
0.0
 11
-71.67534
 21
-265.506791
 31
0.0
  0
LINE
  5
34D
100
AcDbEntity
  8
2
370
    25
100
AcDbLine
 10
-67.609066
 20
-185.923005
 30
0.0
 11
-75.740794
 21
-177.791277
 31
0.0
  0
LINE
  5
34E
100
AcDbEntity
  8
2
370
    25
100
AcDbLine
 10
-67.609066
 20
-177.791277
 30
0.0
 11
-75.740794
 21
-185.923005
 31
0.0
  0
LINE
  5
34F
100
AcDbEntity
  8
2
370
    25
100
AcDbLine
 10
-68.378133
 20
-186.568152
 30
0.0
 11
-76.385941
 21
-178.560343
 31
0.0
  0
LINE
  5
350
100
AcDbEntity
  8
2
370
    25
100
AcDbLine
 10
-69.277156
 20
-187.083342
 30
0.0
 11
-76.901132
 21
-179.459367
 31
0.0
  0
LINE
  5
351
100
AcDbEntity
  8
2
370
    25
100
AcDbLine
 10
-70.327641
 20
-187.44707
 30
0.0
 11
-77.26486
 21
-180.509852
 31
0.0
  0
LINE
  5
352
100
AcDbEntity
  8
2
370
    25
100
AcDbLine
 10
-71.582527
 20
-187.606398
 30
0.0
 11
-77.424188
 21
-181.764738
 31
0.0
  0
LINE
  5
353
100
AcDbEntity
  8
2
370
    25
100
AcDbLine
 10
-73.202667
 20
-187.400472
 30
0.0
 11
-77.218262
 21
-183.384877
 31
0.0
  0
LINE
  5
354
100
AcDbEntity
  8
2
370
    25
100
AcDbLine
 10
-66.963919
 20
-185.153938
 30
0.0
 11
-74.971728
 21
-177.14613
 31
0.0
  0
LINE
  5
355
100
AcDbEntity
  8
2
370
    25
100
AcDbLine
 10
-66.448729
 20
-184.254915
 30
0.0
 11
-74.072704
 21
-176.63094
 31
0.0
  0
LINE
  5
356
100
AcDbEntity
  8
2
370
    25
100
AcDbLine
 10
-66.085001
 20
-183.20443
 30
0.0
 11
-73.022219
 21
-176.267211
 31
0.0
  0
LINE
  5
357
100
AcDbEntity
  8
2
370
    25
100
AcDbLine
 10
-65.925673
 20
-181.949544
 30
0.0
 11
-71.767334
 21
-176.107883
 31
0.0
  0
LINE
  5
358
100
AcDbEntity
  8
2
370
    25
100
AcDbLine
 10
-66.131599
 20
-180.329404
 30
0.0
 11
-70.147194
 21
-176.31381
 31
0.0
  0
LINE
  5
359
100
AcDbEntity
  8
2
370
    25
100
AcDbLine
 10
-68.378133
 20
-177.14613
 30
0.0
 11
-76.385941
 21
-185.153938
 31
0.0
  0
LINE
  5
35A
100
AcDbEntity
  8
2
370
    25
100
AcDbLine
 10
-69.277156
 20
-176.63094
 30
0.0
 11
-76.901132
 21
-184.254915
 31
0.0
  0
LINE
  5
35B
100
AcDbEntity
  8
2
370
    25
100
AcDbLine
 10
-70.327641
 20
-176.267211
 30
0.0
 11
-77.26486
 21
-183.20443
 31
0.0
  0
LINE
  5
35C
100
AcDbEntity
  8
2
370
    25
100
AcDbLine
 10
-71.582527
 20
-176.107883
 30
0.0
 11
-77.424188
 21
-181.949544
 31
0.0
  0
LINE
  5
35D
100
AcDbEntity
  8
2
370
    25
100
AcDbLine
 10
-73.202667
 20
-176.31381
 30
0.0
 11
-77.218262
 21
-180.329404
 31
0.0
  0
LINE
  5
35E
100
AcDbEntity
  8
2
370
    25
100
AcDbLine
 10
-66.963919
 20
-178.560343
 30
0.0
 11
-74.971728
 21
-186.568152
 31
0.0
  0
LINE
  5
35F
100
AcDbEntity
  8
2
370
    25
100
AcDbLine
 10
-66.448729
 20
-179.459367
 30
0.0
 11
-74.072704
 21
-187.083342
 31
0.0
  0
LINE
  5
360
100
AcDbEntity
  8
2
370
    25
100
AcDbLine
 10
-66.085001
 20
-180.509852
 30
0.0
 11
-73.022219
 21
-187.44707
 31
0.0
  0
LINE
  5
361
100
AcDbEntity
  8
2
370
    25
100
AcDbLine
 10
-65.925673
 20
-181.764738
 30
0.0
 11
-71.767334
 21
-187.606398
 31
0.0
  0
LINE
  5
362
100
AcDbEntity
  8
2
370
    25
100
AcDbLine
 10
-66.131599
 20
-183.384877
 30
0.0
 11
-70.147194
 21
-187.400472
 31
0.0
  0
LINE
  5
363
100
AcDbEntity
  8
2
370
    50
100
AcDbLine
 10
75.029319
 20
-237.08766
 30
0.0
 11
53.029006
 21
-237.08766
 31
0.0
  0
ARC
  5
364
100
AcDbEntity
  8
2
370
    50
100
AcDbCircle
 10
53.029006
 20
-236.08766
 30
0.0
 40
1.0
100
AcDbArc
 50
180.0
 51
270.0
  0
LINE
  5
365
100
AcDbEntity
  8
2
370
    50
100
AcDbLine
 10
52.029319
 20
-213.087559
 30
0.0
 11
52.029319
 21
-236.062628
 31
0.0
  0
LINE
  5
366
100
AcDbEntity
  8
2
370
    50
100
AcDbLine
 10
76.029319
 20
-213.087559
 30
0.0
 11
76.029319
 21
-236.08766
 31
0.0
  0
LINE
  5
367
100
AcDbEntity
  8
2
370
    50
100
AcDbLine
 10
75.029319
 20
-212.087559
 30
0.0
 11
53.029319
 21
-212.087559
 31
0.0
  0
ARC
  5
368
100
AcDbEntity
  8
2
370
    50
100
AcDbCircle
 10
53.029319
 20
-213.087559
 30
0.0
 40
1.0
100
AcDbArc
 50
90.0
 51
180.0
  0
ARC
  5
369
100
AcDbEntity
  8
2
370
    50
100
AcDbCircle
 10
75.029319
 20
-213.087559
 30
0.0
 40
1.0
100
AcDbArc
 50
0.0
 51
90.0
  0
LINE
  5
36A
100
AcDbEntity
  8
2
370
    50
100
AcDbLine
 10
53.529319
 20
-207.053244
 30
0.0
 11
53.529319
 21
-212.087559
 31
0.0
  0
LINE
  5
36B
100
AcDbEntity
  8
2
370
    50
100
AcDbLine
 10
74.529319
 20
-207.053244
 30
0.0
 11
74.529319
 21
-212.087559
 31
0.0
  0
LINE
  5
36C
100
AcDbEntity
  8
2
370
    50
100
AcDbLine
 10
52.029319
 20
-190.353244
 30
0.0
 11
52.029319
 21
-206.053244
 31
0.0
  0
LINE
  5
36D
100
AcDbEntity
  8
2
370
    50
100
AcDbLine
 10
75.729319
 20
-190.053244
 30
0.0
 11
52.329319
 21
-190.053244
 31
0.0
  0
LINE
  5
36E
100
AcDbEntity
  8
2
370
    50
100
AcDbLine
 10
75.029319
 20
-207.053244
 30
0.0
 11
53.029319
 21
-207.053244
 31
0.0
  0
ARC
  5
36F
100
AcDbEntity
  8
2
370
    50
100
AcDbCircle
 10
53.029319
 20
-206.053244
 30
0.0
 40
1.0
100
AcDbArc
 50
180.0
 51
270.0
  0
ARC
  5
370
100
AcDbEntity
  8
2
370
    50
100
AcDbCircle
 10
52.329319
 20
-190.353244
 30
0.0
 40
0.3
100
AcDbArc
 50
90.0
 51
180.0
  0
ARC
  5
371
100
AcDbEntity
  8
2
370
    50
100
AcDbCircle
 10
75.729319
 20
-190.353244
 30
0.0
 40
0.3
100
AcDbArc
 50
0.0
 51
90.0
  0
LINE
  5
372
100
AcDbEntity
  8
2
370
    50
100
AcDbLine
 10
76.029319
 20
-190.353244
 30
0.0
 11
76.029319
 21
-206.053244
 31
0.0
  0
ARC
  5
373
100
AcDbEntity
  8
2
370
    50
100
AcDbCircle
 10
75.029319
 20
-206.053244
 30
0.0
 40
1.0
100
AcDbArc
 50
270.0
 51
360.0
  0
LINE
  5
374
100
AcDbEntity
  8
2
370
    50
100
AcDbLine
 10
69.028852
 20
-185.751877
 30
0.0
 11
69.028852
 21
-165.251877
 31
0.0
  0
ARC
  5
375
100
AcDbEntity
  8
2
370
    50
100
AcDbCircle
 10
61.528852
 20
-161.918543
 30
0.0
 40
4.166667
100
AcDbArc
 50
233.130102
 51
306.869898
  0
ARC
  5
376
100
AcDbEntity
  8
2
370
    50
100
AcDbCircle
 10
66.528852
 20
-168.58521
 30
0.0
 40
4.166667
100
AcDbArc
 50
53.130102
 51
126.869898
  0
ARC
  5
377
100
AcDbEntity
  8
2
370
    50
100
AcDbCircle
 10
66.528852
 20
-161.918543
 30
0.0
 40
4.166667
100
AcDbArc
 50
233.130102
 51
306.869898
  0
LINE
  5
378
100
AcDbEntity
  8
2
370
    50
100
AcDbLine
 10
57.578852
 20
-185.751877
 30
0.0
 11
70.478852
 21
-185.751877
 31
0.0
  0
LINE
  5
379
100
AcDbEntity
  8
2
370
    50
100
AcDbLine
 10
59.029786
 20
-185.751877
 30
0.0
 11
59.029786
 21
-165.251877
 31
0.0
  0
ARC
  5
37A
100
AcDbEntity
  8
2
370
    50
100
AcDbCircle
 10
75.029319
 20
-236.08766
 30
0.0
 40
1.0
100
AcDbArc
 50
270.0
 51
360.0
  0
LINE
  5
37B
100
AcDbEntity
  8
2
370
    25
100
AcDbLine
 10
57.278852
 20
-186.051877
 30
0.0
 11
70.778852
 21
-186.051877
 31
0.0
  0
ELLIPSE
  5
37C
100
AcDbEntity
  8
2
370
    50
100
AcDbEllipse
 10
54.187924
 20
-209.837559
 30
0.0
 11
0.0
 21
1.0
 31
0.0
210
0.0
220
0.0
230
1.0
 40
0.31
 41
1.5325029999999999
 42
3.1415929999999999
  0
LINE
  5
37D
100
AcDbEntity
  8
2
370
    50
100
AcDbLine
 10
53.878151
 20
-209.875843
 30
0.0
 11
53.878151
 21
-207.799275
 31
0.0
  0
ELLIPSE
  5
37E
100
AcDbEntity
  8
2
370
    50
100
AcDbEllipse
 10
54.187924
 20
-207.837559
 30
0.0
 11
0.0
 21
1.0
 31
0.0
210
0.0
220
0.0
230
1.0
 40
0.31
 41
0.669206
 42
1.6090899999999999
  0
ELLIPSE
  5
37F
100
AcDbEntity
  8
2
370
    25
100
AcDbEllipse
 10
55.79279
 20
-207.837559
 30
0.0
 11
0.0
 21
1.0
 31
0.0
210
0.0
220
0.0
230
1.0
 40
0.5
 41
0.669206
 42
1.5707960000000001
  0
LINE
  5
380
100
AcDbEntity
  8
2
370
    25
100
AcDbLine
 10
55.29279
 20
-209.837559
 30
0.0
 11
55.29279
 21
-207.837559
 31
0.0
  0
ELLIPSE
  5
381
100
AcDbEntity
  8
2
370
    25
100
AcDbEllipse
 10
55.79279
 20
-209.837559
 30
0.0
 11
0.0
 21
1.0
 31
0.0
210
0.0
220
0.0
230
1.0
 40
0.5
 41
1.5707960000000001
 42
3.1415929999999999
  0
LINE
  5
382
100
AcDbEntity
  8
2
370
    50
100
AcDbLine
 10
54.187924
 20
-210.837559
 30
0.0
 11
55.937924
 21
-210.837559
 31
0.0
  0
ELLIPSE
  5
383
100
AcDbEntity
  8
2
370
    50
100
AcDbEllipse
 10
55.937924
 20
-209.837559
 30
0.0
 11
0.0
 21
1.0
 31
0.0
210
0.0
220
0.0
230
1.0
 40
0.69
 41
3.1415929999999999
 42
4.7123889999999999
  0
LINE
  5
384
100
AcDbEntity
  8
2
370
    50
100
AcDbLine
 10
56.627924
 20
-207.837559
 30
0.0
 11
56.627924
 21
-209.837559
 31
0.0
  0
ELLIPSE
  5
385
100
AcDbEntity
  8
2
370
    50
100
AcDbEllipse
 10
55.937924
 20
-207.837559
 30
0.0
 11
0.0
 21
1.0
 31
0.0
210
0.0
220
0.0
230
1.0
 40
0.69
 41
4.7123889999999999
 42
5.6139789999999996
  0
ARC
  5
386
100
AcDbEntity
  8
2
370
    50
100
AcDbCircle
 10
62.279006
 20
-207.837559
 30
0.0
 40
1.0
100
AcDbArc
 50
128.342671
 51
180.0
  0
LINE
  5
387
100
AcDbEntity
  8
2
370
    50
100
AcDbLine
 10
61.279006
 20
-209.837559
 30
0.0
 11
61.279006
 21
-207.837559
 31
0.0
  0
ARC
  5
388
100
AcDbEntity
  8
2
370
    50
100
AcDbCircle
 10
62.279006
 20
-209.837559
 30
0.0
 40
1.0
100
AcDbArc
 50
180.0
 51
270.0
  0
LINE
  5
389
100
AcDbEntity
  8
2
370
    50
100
AcDbLine
 10
62.279006
 20
-210.837559
 30
0.0
 11
65.778698
 21
-210.837559
 31
0.0
  0
LINE
  5
38A
100
AcDbEntity
  8
2
370
    50
100
AcDbLine
 10
55.838558
 20
-235.08766
 30
0.0
 11
55.838558
 21
-214.087559
 31
0.0
  0
LINE
  5
38B
100
AcDbEntity
  8
2
370
    50
100
AcDbLine
 10
52.338558
 20
-214.087559
 30
0.0
 11
55.838558
 21
-214.087559
 31
0.0
  0
LINE
  5
38C
100
AcDbEntity
  8
2
370
    50
100
AcDbLine
 10
60.529006
 20
-214.087559
 30
0.0
 11
67.528698
 21
-214.087559
 31
0.0
  0
LINE
  5
38D
100
AcDbEntity
  8
2
370
    50
100
AcDbLine
 10
52.338558
 20
-235.08766
 30
0.0
 11
55.838558
 21
-235.08766
 31
0.0
  0
LINE
  5
38E
100
AcDbEntity
  8
2
370
    50
100
AcDbLine
 10
52.338558
 20
-235.08766
 30
0.0
 11
52.338558
 21
-214.087559
 31
0.0
  0
LINE
  5
38F
100
AcDbEntity
  8
2
370
    50
100
AcDbLine
 10
76.029319
 20
-204.053244
 30
0.0
 11
52.029319
 21
-204.053244
 31
0.0
  0
LINE
  5
390
100
AcDbEntity
  8
2
370
    50
100
AcDbLine
 10
52.179319
 20
-190.203244
 30
0.0
 11
52.179319
 21
-204.053244
 31
0.0
  0
ARC
  5
391
100
AcDbEntity
  8
2
370
    50
100
AcDbCircle
 10
52.329319
 20
-190.203244
 30
0.0
 40
0.15
100
AcDbArc
 50
90.0
 51
180.0
  0
LINE
  5
392
100
AcDbEntity
  8
2
370
    50
100
AcDbLine
 10
60.529006
 20
-214.087559
 30
0.0
 11
60.529006
 21
-235.08766
 31
0.0
  0
LINE
  5
393
100
AcDbEntity
  8
2
370
    50
100
AcDbLine
 10
60.529006
 20
-235.08766
 30
0.0
 11
67.528698
 21
-235.08766
 31
0.0
  0
LINE
  5
394
100
AcDbEntity
  8
2
370
    50
100
AcDbLine
 10
75.878385
 20
-190.203244
 30
0.0
 11
75.878385
 21
-204.053244
 31
0.0
  0
ARC
  5
395
100
AcDbEntity
  8
2
370
    50
100
AcDbCircle
 10
75.728385
 20
-190.203244
 30
0.0
 40
0.15
100
AcDbArc
 50
0.0
 51
90.0
  0
ELLIPSE
  5
396
100
AcDbEntity
  8
2
370
    50
100
AcDbEllipse
 10
73.86978
 20
-209.837559
 30
0.0
 11
0.0
 21
1.0
 31
0.0
210
0.0
220
0.0
230
1.0
 40
0.31
 41
3.1415929999999999
 42
4.7506820000000003
  0
LINE
  5
397
100
AcDbEntity
  8
2
370
    50
100
AcDbLine
 10
74.179553
 20
-209.875843
 30
0.0
 11
74.179553
 21
-207.799275
 31
0.0
  0
LINE
  5
398
100
AcDbEntity
  8
2
370
    25
100
AcDbLine
 10
72.764914
 20
-209.837559
 30
0.0
 11
72.764914
 21
-207.837559
 31
0.0
  0
ELLIPSE
  5
399
100
AcDbEntity
  8
2
370
    25
100
AcDbEllipse
 10
72.264914
 20
-209.837559
 30
0.0
 11
0.0
 21
1.0
 31
0.0
210
0.0
220
0.0
230
1.0
 40
0.5
 41
3.1415929999999999
 42
4.7123889999999999
  0
LINE
  5
39A
100
AcDbEntity
  8
2
370
    50
100
AcDbLine
 10
73.86978
 20
-210.837559
 30
0.0
 11
72.11978
 21
-210.837559
 31
0.0
  0
ELLIPSE
  5
39B
100
AcDbEntity
  8
2
370
    50
100
AcDbEllipse
 10
72.11978
 20
-209.837559
 30
0.0
 11
0.0
 21
1.0
 31
0.0
210
0.0
220
0.0
230
1.0
 40
0.69
 41
1.5707960000000001
 42
3.1415929999999999
  0
LINE
  5
39C
100
AcDbEntity
  8
2
370
    50
100
AcDbLine
 10
71.42978
 20
-207.837559
 30
0.0
 11
71.42978
 21
-209.837559
 31
0.0
  0
ELLIPSE
  5
39D
100
AcDbEntity
  8
2
370
    50
100
AcDbEllipse
 10
73.86978
 20
-207.837559
 30
0.0
 11
0.0
 21
1.0
 31
0.0
210
0.0
220
0.0
230
1.0
 40
0.31
 41
4.6740959999999996
 42
5.6139789999999996
  0
ELLIPSE
  5
39E
100
AcDbEntity
  8
2
370
    25
100
AcDbEllipse
 10
72.264914
 20
-207.837559
 30
0.0
 11
0.0
 21
1.0
 31
0.0
210
0.0
220
0.0
230
1.0
 40
0.5
 41
4.7123889999999999
 42
5.6139789999999996
  0
LINE
  5
39F
100
AcDbEntity
  8
2
370
    25
100
AcDbLine
 10
72.764914
 20
-209.837559
 30
0.0
 11
72.764914
 21
-207.837559
 31
0.0
  0
LINE
  5
3A0
100
AcDbEntity
  8
2
370
    50
100
AcDbLine
 10
71.42978
 20
-207.837559
 30
0.0
 11
71.42978
 21
-209.837559
 31
0.0
  0
ELLIPSE
  5
3A1
100
AcDbEntity
  8
2
370
    50
100
AcDbEllipse
 10
72.11978
 20
-207.837559
 30
0.0
 11
0.0
 21
1.0
 31
0.0
210
0.0
220
0.0
230
1.0
 40
0.69
 41
0.669206
 42
1.5707960000000001
  0
ARC
  5
3A2
100
AcDbEntity
  8
2
370
    50
100
AcDbCircle
 10
65.778698
 20
-207.837559
 30
0.0
 40
1.0
100
AcDbArc
 50
0.0
 51
51.657329
  0
LINE
  5
3A3
100
AcDbEntity
  8
2
370
    50
100
AcDbLine
 10
66.778698
 20
-209.837559
 30
0.0
 11
66.778698
 21
-207.837559
 31
0.0
  0
ARC
  5
3A4
100
AcDbEntity
  8
2
370
    50
100
AcDbCircle
 10
65.778698
 20
-209.837559
 30
0.0
 40
1.0
100
AcDbArc
 50
270.0
 51
360.0
  0
LINE
  5
3A5
100
AcDbEntity
  8
2
370
    50
100
AcDbLine
 10
75.719146
 20
-214.087559
 30
0.0
 11
72.219146
 21
-214.087559
 31
0.0
  0
LINE
  5
3A6
100
AcDbEntity
  8
2
370
    50
100
AcDbLine
 10
75.719146
 20
-235.08766
 30
0.0
 11
75.719146
 21
-214.087559
 31
0.0
  0
LINE
  5
3A7
100
AcDbEntity
  8
2
370
    50
100
AcDbLine
 10
72.219146
 20
-235.08766
 30
0.0
 11
72.219146
 21
-214.087559
 31
0.0
  0
LINE
  5
3A8
100
AcDbEntity
  8
2
370
    50
100
AcDbLine
 10
67.528698
 20
-214.087559
 30
0.0
 11
67.528698
 21
-235.08766
 31
0.0
  0
LINE
  5
3A9
100
AcDbEntity
  8
2
370
    50
100
AcDbLine
 10
75.719146
 20
-235.08766
 30
0.0
 11
72.219146
 21
-235.08766
 31
0.0
  0
LINE
  5
3AA
100
AcDbEntity
  8
2
370
    25
  6
CENTER
100
AcDbLine
 10
-346.807911
 20
-295.517143
 30
0.0
 11
-346.807911
 21
337.224003
 31
0.0
  0
CIRCLE
  5
3AB
100
AcDbEntity
  8
2
370
    50
100
AcDbCircle
 10
-346.860274
 20
323.921444
 30
0.0
 40
4.2
  0
LINE
  5
3AC
100
AcDbEntity
  8
2
370
    50
100
AcDbLine
 10
227.437439
 20
288.221444
 30
0.0
 11
227.437439
 21
175.321802
 31
0.0
  0
LINE
  5
3AD
100
AcDbEntity
  8
2
370
    50
100
AcDbLine
 10
178.437439
 20
288.221444
 30
0.0
 11
178.437439
 21
175.321802
 31
0.0
  0
CIRCLE
  5
3AE
100
AcDbEntity
  8
2
370
    50
100
AcDbCircle
 10
202.937439
 20
197.421444
 30
0.0
 40
2.75
  0
CIRCLE
  5
3AF
100
AcDbEntity
  8
2
370
    50
100
AcDbCircle
 10
202.937439
 20
260.822202
 30
0.0
 40
2.0
  0
CIRCLE
  5
3B0
100
AcDbEntity
  8
2
370
    25
100
AcDbCircle
 10
202.937184
 20
260.822615
 30
0.0
 40
1.65
  0
LINE
  5
3B1
100
AcDbEntity
  8
2
370
    50
100
AcDbLine
 10
202.359834
 20
261.822615
 30
0.0
 11
203.514534
 21
261.822615
 31
0.0
  0
LINE
  5
3B2
100
AcDbEntity
  8
2
370
    50
100
AcDbLine
 10
201.782484
 20
260.822615
 30
0.0
 11
202.359834
 21
261.822615
 31
0.0
  0
LINE
  5
3B3
100
AcDbEntity
  8
2
370
    50
100
AcDbLine
 10
204.091885
 20
260.822615
 30
0.0
 11
203.514534
 21
261.822615
 31
0.0
  0
LINE
  5
3B4
100
AcDbEntity
  8
2
370
    50
100
AcDbLine
 10
202.359834
 20
259.822615
 30
0.0
 11
203.514534
 21
259.822615
 31
0.0
  0
LINE
  5
3B5
100
AcDbEntity
  8
2
370
    50
100
AcDbLine
 10
201.782484
 20
260.822615
 30
0.0
 11
202.359834
 21
259.822615
 31
0.0
  0
LINE
  5
3B6
100
AcDbEntity
  8
2
370
    50
100
AcDbLine
 10
204.091885
 20
260.822615
 30
0.0
 11
203.514534
 21
259.822615
 31
0.0
  0
LINE
  5
3B7
100
AcDbEntity
  8
2
370
    50
100
AcDbLine
 10
202.937936
 20
300.122631
 30
0.0
 11
217.586686
 21
300.122631
 31
0.0
  0
LINE
  5
3B8
100
AcDbEntity
  8
2
370
    50
100
AcDbLine
 10
208.5057
 20
302.66629
 30
0.0
 11
208.5057
 21
300.122631
 31
0.0
  0
LINE
  5
3B9
100
AcDbEntity
  8
2
370
    50
100
AcDbLine
 10
213.144435
 20
301.724496
 30
0.0
 11
213.144435
 21
300.122631
 31
0.0
  0
LINE
  5
3BA
100
AcDbEntity
  8
2
370
    50
100
AcDbLine
 10
223.937936
 20
289.87568
 30
0.0
 11
223.937936
 21
288.422165
 31
0.0
  0
ARC
  5
3BB
100
AcDbEntity
  8
2
370
    50
100
AcDbCircle
 10
210.937936
 20
289.87568
 30
0.0
 40
13.0
100
AcDbArc
 50
0.0
 51
39.898244
  0
LINE
  5
3BC
100
AcDbEntity
  8
2
370
    50
100
AcDbLine
 10
202.937936
 20
300.122631
 30
0.0
 11
188.290124
 21
300.122631
 31
0.0
  0
LINE
  5
3BD
100
AcDbEntity
  8
2
370
    50
100
AcDbLine
 10
197.370171
 20
302.666161
 30
0.0
 11
197.370171
 21
300.122631
 31
0.0
  0
LINE
  5
3BE
100
AcDbEntity
  8
2
370
    50
100
AcDbLine
 10
192.731437
 20
301.724239
 30
0.0
 11
192.731437
 21
300.122631
 31
0.0
  0
LINE
  5
3BF
100
AcDbEntity
  8
2
370
    50
100
AcDbLine
 10
181.937936
 20
289.87568
 30
0.0
 11
181.937936
 21
288.422165
 31
0.0
  0
ARC
  5
3C0
100
AcDbEntity
  8
2
370
    50
100
AcDbCircle
 10
194.937936
 20
289.87568
 30
0.0
 40
13.0
100
AcDbArc
 50
140.111346
 51
180.0
  0
LINE
  5
3C1
100
AcDbEntity
  8
2
370
    50
100
AcDbLine
 10
178.438405
 20
331.421449
 30
0.0
 11
178.438405
 21
290.922251
 31
0.0
  0
LINE
  5
3C2
100
AcDbEntity
  8
2
370
    50
100
AcDbLine
 10
227.438405
 20
331.421449
 30
0.0
 11
227.438405
 21
290.922251
 31
0.0
  0
ARC
  5
3C3
100
AcDbEntity
  8
2
370
    50
100
AcDbCircle
 10
226.938405
 20
290.922251
 30
0.0
 40
0.5
100
AcDbArc
 50
270.0
 51
360.0
  0
ARC
  5
3C4
100
AcDbEntity
  8
2
370
    50
100
AcDbCircle
 10
178.938405
 20
290.922251
 30
0.0
 40
0.5
100
AcDbArc
 50
180.0
 51
270.0
  0
ELLIPSE
  5
3C5
100
AcDbEntity
  8
2
370
    50
100
AcDbEllipse
 10
202.938405
 20
290.422251
 30
0.0
 11
24.5
 21
0.0
 31
0.0
210
0.0
220
0.0
230
1.0
 40
0.57735
 41
0.028368
 42
3.1132249999999999
  0
LINE
  5
3C6
100
AcDbEntity
  8
2
370
    50
100
AcDbLine
 10
225.938405
 20
290.422251
 30
0.0
 11
225.438405
 21
290.922251
 31
0.0
  0
LINE
  5
3C7
100
AcDbEntity
  8
2
370
    50
100
AcDbLine
 10
179.938405
 20
290.422251
 30
0.0
 11
180.438405
 21
290.922251
 31
0.0
  0
ELLIPSE
  5
3C8
100
AcDbEntity
  8
2
370
    50
100
AcDbEllipse
 10
202.938405
 20
290.922251
 30
0.0
 11
22.5
 21
0.0
 31
0.0
210
0.0
220
0.0
230
1.0
 40
0.538709
 41
0.0
 42
3.1415929999999999
  0
LINE
  5
3C9
100
AcDbEntity
  8
2
370
    25
100
AcDbLine
 10
180.438405
 20
290.922251
 30
0.0
 11
181.980131
 21
290.922251
 31
0.0
  0
LINE
  5
3CA
100
AcDbEntity
  8
2
370
    25
100
AcDbLine
 10
223.89574
 20
290.922251
 30
0.0
 11
225.438405
 21
290.922251
 31
0.0
  0
LINE
  5
3CB
100
AcDbEntity
  8
2
370
    50
100
AcDbLine
 10
178.938405
 20
290.422251
 30
0.0
 11
181.949431
 21
290.422251
 31
0.0
  0
LINE
  5
3CC
100
AcDbEntity
  8
2
370
    50
100
AcDbLine
 10
223.926441
 20
290.422251
 30
0.0
 11
226.938405
 21
290.422251
 31
0.0
  0
LINE
  5
3CD
100
AcDbEntity
  8
2
370
    50
100
AcDbLine
 10
226.937439
 20
10.421802
 30
0.0
 11
178.937439
 21
10.421802
 31
0.0
  0
LINE
  5
3CE
100
AcDbEntity
  8
2
370
    50
100
AcDbLine
 10
226.937439
 20
13.421802
 30
0.0
 11
226.937439
 21
10.421802
 31
0.0
  0
LINE
  5
3CF
100
AcDbEntity
  8
2
370
    50
100
AcDbLine
 10
178.937439
 20
13.421802
 30
0.0
 11
178.937439
 21
10.421802
 31
0.0
  0
LINE
  5
3D0
100
AcDbEntity
  8
2
370
    50
100
AcDbLine
 10
178.937439
 20
13.421802
 30
0.0
 11
226.937439
 21
13.421802
 31
0.0
  0
LINE
  5
3D1
100
AcDbEntity
  8
2
370
    50
100
AcDbLine
 10
-348.910411
 20
249.929604
 30
0.0
 11
-348.910411
 21
247.532344
 31
0.0
  0
LINE
  5
3D2
100
AcDbEntity
  8
2
370
    50
100
AcDbLine
 10
-344.810411
 20
249.929604
 30
0.0
 11
-344.810411
 21
247.532344
 31
0.0
  0
ELLIPSE
  5
3D3
100
AcDbEntity
  8
2
370
    50
100
AcDbEllipse
 10
-346.860411
 20
247.532344
 30
0.0
 11
2.0499999999999998
 21
0.0
 31
0.0
210
0.0
220
0.0
230
1.0
 40
0.5
 41
3.1415929999999999
 42
0.0
  0
LINE
  5
3D4
100
AcDbEntity
  8
2
370
    50
100
AcDbLine
 10
-344.910411
 20
247.935516
 30
0.0
 11
-348.810411
 21
247.935516
 31
0.0
  0
LINE
  5
3D5
100
AcDbEntity
  8
2
370
    50
100
AcDbLine
 10
-344.910411
 20
249.917952
 30
0.0
 11
-344.910411
 21
247.935516
 31
0.0
  0
LINE
  5
3D6
100
AcDbEntity
  8
2
370
    50
100
AcDbLine
 10
-348.810411
 20
249.917952
 30
0.0
 11
-348.810411
 21
247.935516
 31
0.0
  0
LINE
  5
3D7
100
AcDbEntity
  8
2
370
    50
100
AcDbLine
 10
71.879241
 20
-237.088228
 30
0.0
 11
56.17753
 21
-237.088228
 31
0.0
  0
POINT
  5
3D8
100
AcDbEntity
  8
2
370
    50
100
AcDbPoint
 10
64.029016
 20
-241.087972
 30
0.0
  0
LINE
  5
3D9
100
AcDbEntity
  8
2
370
    50
100
AcDbLine
 10
56.029016
 20
-250.53762
 30
0.0
 11
56.029016
 21
-244.43762
 31
0.0
  0
LINE
  5
3DA
100
AcDbEntity
  8
2
370
    50
100
AcDbLine
 10
72.029016
 20
-250.53762
 30
0.0
 11
72.029016
 21
-244.43762
 31
0.0
  0
LINE
  5
3DB
100
AcDbEntity
  8
2
370
    50
100
AcDbLine
 10
56.229016
 20
-250.73762
 30
0.0
 11
71.829016
 21
-250.73762
 31
0.0
  0
LINE
  5
3DC
100
AcDbEntity
  8
2
370
    50
100
AcDbLine
 10
56.229016
 20
-244.23762
 30
0.0
 11
71.829016
 21
-244.23762
 31
0.0
  0
LINE
  5
3DD
100
AcDbEntity
  8
2
370
    50
100
AcDbLine
 10
57.255461
 20
-275.2854
 30
0.0
 11
70.655461
 21
-278.674276
 31
0.0
  0
LINE
  5
3DE
100
AcDbEntity
  8
2
370
    50
100
AcDbLine
 10
57.40257
 20
-272.228153
 30
0.0
 11
70.80257
 21
-275.617029
 31
0.0
  0
LINE
  5
3DF
100
AcDbEntity
  8
2
370
    50
100
AcDbLine
 10
71.029016
 20
-278.383433
 30
0.0
 11
71.029016
 21
-275.907872
 31
0.0
  0
LINE
  5
3E0
100
AcDbEntity
  8
2
370
    50
100
AcDbLine
 10
57.029016
 20
-274.994557
 30
0.0
 11
57.029016
 21
-272.518996
 31
0.0
  0
LINE
  5
3E1
100
AcDbEntity
  8
2
370
    50
100
AcDbLine
 10
69.929016
 20
-275.396106
 30
0.0
 11
69.929016
 21
-273.333138
 31
0.0
  0
LINE
  5
3E2
100
AcDbEntity
  8
2
370
    50
100
AcDbLine
 10
69.929016
 20
-280.553525
 30
0.0
 11
69.929016
 21
-278.490558
 31
0.0
  0
LINE
  5
3E3
100
AcDbEntity
  8
2
370
    50
100
AcDbLine
 10
58.129016
 20
-272.411872
 30
0.0
 11
58.129016
 21
-270.348904
 31
0.0
  0
LINE
  5
3E4
100
AcDbEntity
  8
2
370
    50
100
AcDbLine
 10
58.129016
 20
-277.569291
 30
0.0
 11
58.129016
 21
-275.506323
 31
0.0
  0
ARC
  5
3E5
100
AcDbEntity
  8
2
370
    50
100
AcDbCircle
 10
57.329016
 20
-274.994557
 30
0.0
 40
0.3
100
AcDbArc
 50
180.0
 51
255.807415
  0
ARC
  5
3E6
100
AcDbEntity
  8
2
370
    50
100
AcDbCircle
 10
57.329016
 20
-272.518996
 30
0.0
 40
0.3
100
AcDbArc
 50
75.807415
 51
180.0
  0
ARC
  5
3E7
100
AcDbEntity
  8
2
370
    50
100
AcDbCircle
 10
70.729016
 20
-275.907872
 30
0.0
 40
0.3
100
AcDbArc
 50
0.0
 51
75.807415
  0
ARC
  5
3E8
100
AcDbEntity
  8
2
370
    50
100
AcDbCircle
 10
70.729016
 20
-278.383433
 30
0.0
 40
0.3
100
AcDbArc
 50
255.807415
 51
0.0
  0
LINE
  5
3E9
100
AcDbEntity
  8
2
370
    50
100
AcDbLine
 10
72.029016
 20
-250.53762
 30
0.0
 11
71.829016
 21
-250.73762
 31
0.0
  0
LINE
  5
3EA
100
AcDbEntity
  8
2
370
    50
100
AcDbLine
 10
56.229016
 20
-250.73762
 30
0.0
 11
56.029016
 21
-250.53762
 31
0.0
  0
LINE
  5
3EB
100
AcDbEntity
  8
2
370
    50
100
AcDbLine
 10
56.029016
 20
-244.43762
 30
0.0
 11
56.229016
 21
-244.23762
 31
0.0
  0
LINE
  5
3EC
100
AcDbEntity
  8
2
370
    25
100
AcDbLine
 10
56.029016
 20
-250.53762
 30
0.0
 11
72.029016
 21
-250.53762
 31
0.0
  0
LINE
  5
3ED
100
AcDbEntity
  8
2
370
    25
100
AcDbLine
 10
56.029016
 20
-244.43762
 30
0.0
 11
72.029016
 21
-244.43762
 31
0.0
  0
LINE
  5
3EE
100
AcDbEntity
  8
2
370
    50
100
AcDbLine
 10
71.829016
 20
-244.23762
 30
0.0
 11
72.029016
 21
-244.43762
 31
0.0
  0
LINE
  5
3EF
100
AcDbEntity
  8
2
370
    50
100
AcDbLine
 10
72.029016
 20
-243.93762
 30
0.0
 11
72.029016
 21
-237.088087
 31
0.0
  0
LINE
  5
3F0
100
AcDbEntity
  8
2
370
    50
100
AcDbLine
 10
56.029016
 20
-243.93762
 30
0.0
 11
56.029016
 21
-237.088087
 31
0.0
  0
LINE
  5
3F1
100
AcDbEntity
  8
2
370
    50
100
AcDbLine
 10
72.029016
 20
-243.93762
 30
0.0
 11
71.729016
 21
-244.23762
 31
0.0
  0
LINE
  5
3F2
100
AcDbEntity
  8
2
370
    50
100
AcDbLine
 10
56.029016
 20
-243.93762
 30
0.0
 11
56.329016
 21
-244.23762
 31
0.0
  0
LINE
  5
3F3
100
AcDbEntity
  8
2
370
    25
100
AcDbLine
 10
63.029016
 20
-243.93762
 30
0.0
 11
63.029016
 21
-237.088087
 31
0.0
  0
LINE
  5
3F4
100
AcDbEntity
  8
2
370
    25
100
AcDbLine
 10
61.029016
 20
-243.93762
 30
0.0
 11
61.029016
 21
-237.088087
 31
0.0
  0
LINE
  5
3F5
100
AcDbEntity
  8
2
370
    25
100
AcDbLine
 10
59.529016
 20
-243.93762
 30
0.0
 11
59.529016
 21
-237.088087
 31
0.0
  0
LINE
  5
3F6
100
AcDbEntity
  8
2
370
    25
100
AcDbLine
 10
58.529016
 20
-243.93762
 30
0.0
 11
58.529016
 21
-237.088087
 31
0.0
  0
LINE
  5
3F7
100
AcDbEntity
  8
2
370
    25
100
AcDbLine
 10
57.529016
 20
-243.93762
 30
0.0
 11
57.529016
 21
-237.088087
 31
0.0
  0
LINE
  5
3F8
100
AcDbEntity
  8
2
370
    25
100
AcDbLine
 10
56.529016
 20
-243.93762
 30
0.0
 11
56.529016
 21
-237.088087
 31
0.0
  0
LINE
  5
3F9
100
AcDbEntity
  8
2
370
    50
100
AcDbLine
 10
56.029016
 20
-243.93762
 30
0.0
 11
72.029016
 21
-243.93762
 31
0.0
  0
LINE
  5
3FA
100
AcDbEntity
  8
2
370
    25
100
AcDbLine
 10
65.029016
 20
-243.93762
 30
0.0
 11
65.029016
 21
-237.088087
 31
0.0
  0
LINE
  5
3FB
100
AcDbEntity
  8
2
370
    25
100
AcDbLine
 10
67.029016
 20
-243.93762
 30
0.0
 11
67.029016
 21
-237.088087
 31
0.0
  0
LINE
  5
3FC
100
AcDbEntity
  8
2
370
    25
100
AcDbLine
 10
68.529016
 20
-243.93762
 30
0.0
 11
68.529016
 21
-237.088087
 31
0.0
  0
LINE
  5
3FD
100
AcDbEntity
  8
2
370
    25
100
AcDbLine
 10
69.529016
 20
-243.93762
 30
0.0
 11
69.529016
 21
-237.088087
 31
0.0
  0
LINE
  5
3FE
100
AcDbEntity
  8
2
370
    25
100
AcDbLine
 10
70.529016
 20
-243.93762
 30
0.0
 11
70.529016
 21
-237.088087
 31
0.0
  0
LINE
  5
3FF
100
AcDbEntity
  8
2
370
    25
100
AcDbLine
 10
71.529016
 20
-243.93762
 30
0.0
 11
71.529016
 21
-237.088087
 31
0.0
  0
LINE
  5
400
100
AcDbEntity
  8
2
370
    50
100
AcDbLine
 10
57.255461
 20
-270.127981
 30
0.0
 11
70.655461
 21
-273.516857
 31
0.0
  0
LINE
  5
401
100
AcDbEntity
  8
2
370
    50
100
AcDbLine
 10
57.40257
 20
-267.070733
 30
0.0
 11
70.80257
 21
-270.459609
 31
0.0
  0
LINE
  5
402
100
AcDbEntity
  8
2
370
    50
100
AcDbLine
 10
71.029016
 20
-273.226014
 30
0.0
 11
71.029016
 21
-270.750453
 31
0.0
  0
ARC
  5
403
100
AcDbEntity
  8
2
370
    50
100
AcDbCircle
 10
70.729016
 20
-270.750453
 30
0.0
 40
0.3
100
AcDbArc
 50
0.0
 51
75.807415
  0
ARC
  5
404
100
AcDbEntity
  8
2
370
    50
100
AcDbCircle
 10
70.729016
 20
-273.226014
 30
0.0
 40
0.3
100
AcDbArc
 50
255.807415
 51
0.0
  0
ARC
  5
405
100
AcDbEntity
  8
2
370
    50
100
AcDbCircle
 10
57.329016
 20
-267.361576
 30
0.0
 40
0.3
100
AcDbArc
 50
75.807415
 51
180.0
  0
LINE
  5
406
100
AcDbEntity
  8
2
370
    50
100
AcDbLine
 10
57.029016
 20
-269.837138
 30
0.0
 11
57.029016
 21
-267.361576
 31
0.0
  0
ARC
  5
407
100
AcDbEntity
  8
2
370
    50
100
AcDbCircle
 10
57.329016
 20
-269.837138
 30
0.0
 40
0.3
100
AcDbArc
 50
180.0
 51
255.807415
  0
LINE
  5
408
100
AcDbEntity
  8
2
370
    50
100
AcDbLine
 10
57.255461
 20
-264.970561
 30
0.0
 11
70.655461
 21
-268.359438
 31
0.0
  0
LINE
  5
409
100
AcDbEntity
  8
2
370
    50
100
AcDbLine
 10
71.029016
 20
-268.068594
 30
0.0
 11
71.029016
 21
-265.785549
 31
0.0
  0
LINE
  5
40A
100
AcDbEntity
  8
2
370
    50
100
AcDbLine
 10
57.029016
 20
-264.679718
 30
0.0
 11
57.029016
 21
-262.396673
 31
0.0
  0
LINE
  5
40B
100
AcDbEntity
  8
2
370
    50
100
AcDbLine
 10
69.929016
 20
-265.273783
 30
0.0
 11
69.929016
 21
-263.018299
 31
0.0
  0
LINE
  5
40C
100
AcDbEntity
  8
2
370
    50
100
AcDbLine
 10
58.129016
 20
-262.289548
 30
0.0
 11
58.129016
 21
-260.034065
 31
0.0
  0
ARC
  5
40D
100
AcDbEntity
  8
2
370
    50
100
AcDbCircle
 10
57.329016
 20
-264.679718
 30
0.0
 40
0.3
100
AcDbArc
 50
180.0
 51
255.807415
  0
ARC
  5
40E
100
AcDbEntity
  8
2
370
    50
100
AcDbCircle
 10
70.729016
 20
-268.068594
 30
0.0
 40
0.3
100
AcDbArc
 50
255.807415
 51
0.0
  0
LINE
  5
40F
100
AcDbEntity
  8
2
370
    50
100
AcDbLine
 10
57.255461
 20
-259.813142
 30
0.0
 11
70.655461
 21
-263.202018
 31
0.0
  0
LINE
  5
410
100
AcDbEntity
  8
2
370
    50
100
AcDbLine
 10
57.40257
 20
-256.755894
 30
0.0
 11
70.80257
 21
-260.14477
 31
0.0
  0
LINE
  5
411
100
AcDbEntity
  8
2
370
    50
100
AcDbLine
 10
71.029016
 20
-262.911175
 30
0.0
 11
71.029016
 21
-260.435614
 31
0.0
  0
LINE
  5
412
100
AcDbEntity
  8
2
370
    50
100
AcDbLine
 10
57.029016
 20
-259.522299
 30
0.0
 11
57.029016
 21
-257.046737
 31
0.0
  0
LINE
  5
413
100
AcDbEntity
  8
2
370
    50
100
AcDbLine
 10
69.929016
 20
-259.923847
 30
0.0
 11
69.929016
 21
-257.86088
 31
0.0
  0
LINE
  5
414
100
AcDbEntity
  8
2
370
    50
100
AcDbLine
 10
58.129016
 20
-256.939613
 30
0.0
 11
58.129016
 21
-254.876645
 31
0.0
  0
ARC
  5
415
100
AcDbEntity
  8
2
370
    50
100
AcDbCircle
 10
57.329016
 20
-259.522299
 30
0.0
 40
0.3
100
AcDbArc
 50
180.0
 51
255.807415
  0
ARC
  5
416
100
AcDbEntity
  8
2
370
    50
100
AcDbCircle
 10
57.329016
 20
-257.046737
 30
0.0
 40
0.3
100
AcDbArc
 50
75.807415
 51
180.0
  0
ARC
  5
417
100
AcDbEntity
  8
2
370
    50
100
AcDbCircle
 10
70.729016
 20
-260.435614
 30
0.0
 40
0.3
100
AcDbArc
 50
0.0
 51
75.807415
  0
ARC
  5
418
100
AcDbEntity
  8
2
370
    50
100
AcDbCircle
 10
70.729016
 20
-262.911175
 30
0.0
 40
0.3
100
AcDbArc
 50
255.807415
 51
0.0
  0
LINE
  5
419
100
AcDbEntity
  8
2
370
    50
100
AcDbLine
 10
57.255461
 20
-254.655722
 30
0.0
 11
70.655461
 21
-258.044599
 31
0.0
  0
LINE
  5
41A
100
AcDbEntity
  8
2
370
    50
100
AcDbLine
 10
57.40257
 20
-251.598475
 30
0.0
 11
70.80257
 21
-254.987351
 31
0.0
  0
LINE
  5
41B
100
AcDbEntity
  8
2
370
    50
100
AcDbLine
 10
71.029016
 20
-257.753755
 30
0.0
 11
71.029016
 21
-255.278194
 31
0.0
  0
LINE
  5
41C
100
AcDbEntity
  8
2
370
    50
100
AcDbLine
 10
57.029016
 20
-254.364879
 30
0.0
 11
57.029016
 21
-251.889318
 31
0.0
  0
LINE
  5
41D
100
AcDbEntity
  8
2
370
    50
100
AcDbLine
 10
69.929016
 20
-254.766428
 30
0.0
 11
69.929016
 21
-252.70346
 31
0.0
  0
LINE
  5
41E
100
AcDbEntity
  8
2
370
    50
100
AcDbLine
 10
58.129016
 20
-251.782194
 30
0.0
 11
58.129016
 21
-250.73762
 31
0.0
  0
ARC
  5
41F
100
AcDbEntity
  8
2
370
    50
100
AcDbCircle
 10
57.329016
 20
-254.364879
 30
0.0
 40
0.3
100
AcDbArc
 50
180.0
 51
255.807415
  0
ARC
  5
420
100
AcDbEntity
  8
2
370
    50
100
AcDbCircle
 10
57.329016
 20
-251.889318
 30
0.0
 40
0.3
100
AcDbArc
 50
75.807415
 51
180.0
  0
ARC
  5
421
100
AcDbEntity
  8
2
370
    50
100
AcDbCircle
 10
70.729016
 20
-255.278194
 30
0.0
 40
0.3
100
AcDbArc
 50
0.0
 51
75.807415
  0
ARC
  5
422
100
AcDbEntity
  8
2
370
    50
100
AcDbCircle
 10
70.729016
 20
-257.753755
 30
0.0
 40
0.3
100
AcDbArc
 50
255.807415
 51
0.0
  0
LINE
  5
423
100
AcDbEntity
  8
2
370
    50
100
AcDbLine
 10
62.155862
 20
-250.73762
 30
0.0
 11
70.655461
 21
-252.887179
 31
0.0
  0
LINE
  5
424
100
AcDbEntity
  8
2
370
    50
100
AcDbLine
 10
71.029016
 20
-252.596336
 30
0.0
 11
71.029016
 21
-250.73762
 31
0.0
  0
ARC
  5
425
100
AcDbEntity
  8
2
370
    50
100
AcDbCircle
 10
70.729016
 20
-252.596336
 30
0.0
 40
0.3
100
AcDbArc
 50
255.807415
 51
0.0
  0
CIRCLE
  5
426
100
AcDbEntity
  8
2
370
    50
100
AcDbCircle
 10
202.937439
 20
260.822202
 30
0.0
 40
2.1
  0
POINT
  5
427
100
AcDbEntity
  8
2
370
    50
100
AcDbPoint
 10
202.937436
 20
174.921802
 30
0.0
  0
LINE
  5
428
100
AcDbEntity
  8
2
370
    50
100
AcDbLine
 10
178.637587
 20
288.421444
 30
0.0
 11
227.237587
 21
288.421444
 31
0.0
  0
LINE
  5
429
100
AcDbEntity
  8
2
370
    50
100
AcDbLine
 10
202.937587
 20
175.121802
 30
0.0
 11
227.237587
 21
175.121802
 31
0.0
  0
LINE
  5
42A
100
AcDbEntity
  8
2
370
    50
100
AcDbLine
 10
227.437587
 20
175.321802
 30
0.0
 11
227.237587
 21
175.121802
 31
0.0
  0
LINE
  5
42B
100
AcDbEntity
  8
2
370
    50
100
AcDbLine
 10
226.56259
 20
13.621802
 30
0.0
 11
226.36259
 21
13.421802
 31
0.0
  0
LINE
  5
42C
100
AcDbEntity
  8
2
370
    50
100
AcDbLine
 10
202.937587
 20
175.121802
 30
0.0
 11
178.637587
 21
175.121802
 31
0.0
  0
LINE
  5
42D
100
AcDbEntity
  8
2
370
    50
100
AcDbLine
 10
178.437587
 20
175.321802
 30
0.0
 11
178.637587
 21
175.121802
 31
0.0
  0
LINE
  5
42E
100
AcDbEntity
  8
2
370
    50
100
AcDbLine
 10
179.31259
 20
13.621802
 30
0.0
 11
179.51259
 21
13.421802
 31
0.0
  0
LINE
  5
42F
100
AcDbEntity
  8
2
370
    50
100
AcDbLine
 10
227.237587
 20
288.421444
 30
0.0
 11
227.437587
 21
288.221444
 31
0.0
  0
LINE
  5
430
100
AcDbEntity
  8
2
370
    50
100
AcDbLine
 10
178.637587
 20
288.421444
 30
0.0
 11
178.437587
 21
288.221444
 31
0.0
  0
LINE
  5
431
100
AcDbEntity
  8
2
370
    50
100
AcDbLine
 10
178.437587
 20
288.221444
 30
0.0
 11
227.437587
 21
288.221444
 31
0.0
  0
POINT
  5
432
100
AcDbEntity
  8
2
370
    50
100
AcDbPoint
 10
202.937436
 20
174.921802
 30
0.0
  0
LINE
  5
433
100
AcDbEntity
  8
2
370
    50
100
AcDbLine
 10
-322.360411
 20
175.421071
 30
0.0
 11
-371.360411
 21
175.421071
 31
0.0
  0
LINE
  5
434
100
AcDbEntity
  8
2
370
    50
100
AcDbLine
 10
-322.560411
 20
288.421713
 30
0.0
 11
-322.360411
 21
288.221713
 31
0.0
  0
LINE
  5
435
100
AcDbEntity
  8
2
370
    50
100
AcDbLine
 10
-371.160411
 20
288.421713
 30
0.0
 11
-371.360411
 21
288.221713
 31
0.0
  0
LINE
  5
436
100
AcDbEntity
  8
2
370
    50
100
AcDbLine
 10
-371.413061
 20
288.221713
 30
0.0
 11
-361.860411
 21
288.221713
 31
0.0
  0
LINE
  5
437
100
AcDbEntity
  8
2
370
    50
100
AcDbLine
 10
-331.860411
 20
288.221713
 30
0.0
 11
-322.360411
 21
288.221713
 31
0.0
  0
LINE
  5
438
100
AcDbEntity
  8
2
370
    50
100
AcDbLine
 10
-371.160411
 20
288.421713
 30
0.0
 11
-361.860411
 21
288.421713
 31
0.0
  0
LINE
  5
439
100
AcDbEntity
  8
2
370
    50
100
AcDbLine
 10
-331.860411
 20
288.421713
 30
0.0
 11
-322.560411
 21
288.421713
 31
0.0
  0
LINE
  5
43A
100
AcDbEntity
  8
2
370
    25
  6
CENTER
100
AcDbLine
 10
64.028852
 20
-295.517143
 30
0.0
 11
64.028852
 21
-60.421604
 31
0.0
  0
LINE
  5
43B
100
AcDbEntity
  8
2
370
    50
100
AcDbLine
 10
6.481629
 20
290.421444
 30
0.0
 11
-16.285623
 21
290.421444
 31
0.0
  0
ARC
  5
43C
100
AcDbEntity
  8
2
370
    50
100
AcDbCircle
 10
-16.285623
 20
290.921444
 30
0.0
 40
0.5
100
AcDbArc
 50
180.0
 51
270.0
  0
LINE
  5
43D
100
AcDbEntity
  8
2
370
    50
100
AcDbLine
 10
-16.785804
 20
304.587672
 30
0.0
 11
-16.785804
 21
305.087672
 31
0.0
  0
ARC
  5
43E
100
AcDbEntity
  8
2
370
    50
100
AcDbCircle
 10
-14.785623
 20
331.421444
 30
0.0
 40
2.0
100
AcDbArc
 50
90.0
 51
180.0
  0
LINE
  5
43F
100
AcDbEntity
  8
2
370
    50
100
AcDbLine
 10
-16.785623
 20
290.921444
 30
0.0
 11
-16.785623
 21
304.187672
 31
0.0
  0
ARC
  5
440
100
AcDbEntity
  8
2
370
    50
100
AcDbCircle
 10
-16.285623
 20
290.921444
 30
0.0
 40
0.5
100
AcDbArc
 50
180.0
 51
270.0
  0
ARC
  5
441
100
AcDbEntity
  8
2
370
    50
100
AcDbCircle
 10
-10.571338
 20
308.587672
 30
0.0
 40
7.614286
100
AcDbArc
 50
144.699752
 51
215.305149
  0
LINE
  5
442
100
AcDbEntity
  8
2
370
    50
100
AcDbLine
 10
-16.785804
 20
304.587672
 30
0.0
 11
-16.785804
 21
305.087672
 31
0.0
  0
ARC
  5
443
100
AcDbEntity
  8
2
370
    50
100
AcDbCircle
 10
-14.785623
 20
331.421444
 30
0.0
 40
2.0
100
AcDbArc
 50
90.0
 51
180.0
  0
LINE
  5
444
100
AcDbEntity
  8
2
370
    50
100
AcDbLine
 10
-14.785623
 20
333.421449
 30
0.0
 11
30.214196
 21
333.421449
 31
0.0
  0
LINE
  5
445
100
AcDbEntity
  8
2
370
    50
100
AcDbLine
 10
8.781629
 20
291.037727
 30
0.0
 11
31.964196
 21
304.422188
 31
0.0
  0
LINE
  5
446
100
AcDbEntity
  8
2
370
    50
100
AcDbLine
 10
32.214196
 20
304.855201
 30
0.0
 11
32.214196
 21
331.421449
 31
0.0
  0
ARC
  5
447
100
AcDbEntity
  8
2
370
    50
100
AcDbCircle
 10
30.214196
 20
331.421449
 30
0.0
 40
2.0
100
AcDbArc
 50
0.0
 51
90.0
  0
LINE
  5
448
100
AcDbEntity
  8
2
370
    50
100
AcDbLine
 10
-16.785247
 20
328.321804
 30
0.0
 11
-16.785247
 21
331.421804
 31
0.0
  0
LINE
  5
449
100
AcDbEntity
  8
2
370
    50
100
AcDbLine
 10
-76.285428
 20
319.921804
 30
0.0
 11
-16.634022
 21
319.921804
 31
0.0
  0
LINE
  5
44A
100
AcDbEntity
  8
2
370
    50
100
AcDbLine
 10
-76.285428
 20
327.921804
 30
0.0
 11
-16.634022
 21
327.921804
 31
0.0
  0
LINE
  5
44B
100
AcDbEntity
  8
2
370
    50
100
AcDbLine
 10
-16.785247
 20
304.18714
 30
0.0
 11
-16.785247
 21
319.521804
 31
0.0
  0
LINE
  5
44C
100
AcDbEntity
  8
2
370
    50
100
AcDbLine
 10
-76.785428
 20
320.421804
 30
0.0
 11
-76.785428
 21
327.421804
 31
0.0
  0
LINE
  5
44D
100
AcDbEntity
  8
2
370
    50
100
AcDbLine
 10
-76.285428
 20
327.921804
 30
0.0
 11
-76.785428
 21
327.421804
 31
0.0
  0
LINE
  5
44E
100
AcDbEntity
  8
2
370
    50
100
AcDbLine
 10
-76.785428
 20
320.421804
 30
0.0
 11
-76.285428
 21
319.921804
 31
0.0
  0
ELLIPSE
  5
44F
100
AcDbEntity
  8
2
370
    50
100
AcDbEllipse
 10
-16.785247
 20
323.921804
 30
0.0
 11
0.0
 21
4.4000000000000004
 31
0.0
210
0.0
220
0.0
230
1.0
 40
0.0825
 41
3.1415929999999999
 42
0.0
  0
LINE
  5
450
100
AcDbEntity
  8
2
370
    50
100
AcDbLine
 10
-76.285428
 20
327.921804
 30
0.0
 11
-76.285428
 21
319.921804
 31
0.0
  0
ARC
  5
451
100
AcDbEntity
  8
2
370
    50
100
AcDbCircle
 10
31.714196
 20
304.855201
 30
0.0
 40
0.5
100
AcDbArc
 50
300.0
 51
360.0
  0
ARC
  5
452
100
AcDbEntity
  8
2
370
    50
100
AcDbCircle
 10
6.481629
 20
295.021444
 30
0.0
 40
4.6
100
AcDbArc
 50
270.0
 51
300.0
  0
HATCH
  5
453
100
AcDbEntity
  8
2
370
    25
100
AcDbHatch
 10
0.0
 20
0.0
 30
0.0
210
0.0
220
0.0
230
1.0
  2
_U
 70
     0
 71
     1
 91
        1
 92
        1
 93
        2
 72
     2
 10
-10.571338000000001
 20
308.587672
 40
7.6142859999999999
 50
144.694851
 51
215.305149
 73
     1
 72
     1
 10
-16.785246999999998
 20
304.18714
 11
-16.785246999999998
 21
312.988203
 97
        2
330
0
330
0
 75
     0
 76
     0
 52
45.0
 41
1.0
 77
     0
 78
     1
 53
45.0
 43
0.0
 44
0.0
 45
-1.5909899999999999
 46
1.5909899999999999
 79
     0
 98
        1
 10
0.0
 20
0.0
  0
LINE
  5
454
100
AcDbEntity
  8
2
370
    50
  6
DASHED
100
AcDbLine
 10
-51.631434
 20
358.331049
 30
0.0
 11
-22.791135
 21
341.680094
 31
0.0
  0
LINE
  5
455
100
AcDbEntity
  8
2
370
    50
  6
DASHED
100
AcDbLine
 10
-47.631434
 20
365.259252
 30
0.0
 11
-14.229968
 21
345.974907
 31
0.0
  0
LINE
  5
456
100
AcDbEntity
  8
2
370
    50
  6
DASHED
100
AcDbLine
 10
-51.814447
 20
359.014062
 30
0.0
 11
-48.314447
 21
365.07624
 31
0.0
  0
LINE
  5
457
100
AcDbEntity
  8
2
370
    50
  6
DASHED
100
AcDbLine
 10
-47.631434
 20
365.259252
 30
0.0
 11
-48.314447
 21
365.07624
 31
0.0
  0
LINE
  5
458
100
AcDbEntity
  8
2
370
    50
  6
DASHED
100
AcDbLine
 10
-51.814447
 20
359.014062
 30
0.0
 11
-51.631434
 21
358.331049
 31
0.0
  0
LINE
  5
459
100
AcDbEntity
  8
2
370
    50
100
AcDbLine
 10
-97.849941
 20
264.418071
 30
0.0
 11
-100.710441
 21
259.46354
 31
0.0
  0
LINE
  5
45A
100
AcDbEntity
  8
2
370
    50
100
AcDbLine
 10
-101.314043
 20
266.418071
 30
0.0
 11
-104.174543
 21
261.46354
 31
0.0
  0
LINE
  5
45B
100
AcDbEntity
  8
2
370
    50
100
AcDbLine
 10
-103.99153
 20
260.780527
 30
0.0
 11
-101.393454
 21
259.280527
 31
0.0
  0
ARC
  5
45C
100
AcDbEntity
  8
2
370
    50
100
AcDbCircle
 10
-101.143454
 20
259.71354
 30
0.0
 40
0.5
100
AcDbArc
 50
240.0
 51
330.0
  0
ARC
  5
45D
100
AcDbEntity
  8
2
370
    50
100
AcDbCircle
 10
-103.74153
 20
261.21354
 30
0.0
 40
0.5
100
AcDbArc
 50
150.0
 51
240.0
  0
LINE
  5
45E
100
AcDbEntity
  8
2
370
    50
100
AcDbLine
 10
-150.348224
 20
287.313718
 30
0.0
 11
-153.801353
 21
289.307383
 31
0.0
  0
LINE
  5
45F
100
AcDbEntity
  8
2
370
    50
100
AcDbLine
 10
-138.801388
 20
315.288084
 30
0.0
 11
-70.818817
 21
276.038328
 31
0.0
  0
LINE
  5
460
100
AcDbEntity
  8
2
370
    50
100
AcDbLine
 10
-140.167414
 20
314.922059
 30
0.0
 11
-154.167414
 21
290.673347
 31
0.0
  0
ARC
  5
461
100
AcDbEntity
  8
2
370
    50
100
AcDbCircle
 10
-153.301388
 20
290.173347
 30
0.0
 40
1.0
100
AcDbArc
 50
150.0
 51
240.0
  0
LINE
  5
462
100
AcDbEntity
  8
2
370
    50
100
AcDbLine
 10
-129.556094
 20
275.309295
 30
0.0
 11
-104.784351
 21
261.007322
 31
0.0
  0
LINE
  5
463
100
AcDbEntity
  8
2
370
    50
100
AcDbLine
 10
-100.800634
 20
258.707322
 30
0.0
 11
-85.818817
 21
250.057566
 31
0.0
  0
ARC
  5
464
100
AcDbEntity
  8
2
370
    50
100
AcDbCircle
 10
-104.684351
 20
261.180527
 30
0.0
 40
0.2
100
AcDbArc
 50
240.0
 51
330.0
  0
LINE
  5
465
100
AcDbEntity
  8
2
370
    50
100
AcDbLine
 10
-101.400645
 20
266.468071
 30
0.0
 11
-104.511145
 21
261.080527
 31
0.0
  0
LINE
  5
466
100
AcDbEntity
  8
2
370
    50
100
AcDbLine
 10
-97.763339
 20
264.368071
 30
0.0
 11
-100.873839
 21
258.980527
 31
0.0
  0
ARC
  5
467
100
AcDbEntity
  8
2
370
    50
100
AcDbCircle
 10
-100.700634
 20
258.880527
 30
0.0
 40
0.2
100
AcDbArc
 50
150.0
 51
240.0
  0
ARC
  5
468
100
AcDbEntity
  8
2
370
    50
100
AcDbCircle
 10
-71.069032
 20
275.604943
 30
0.0
 40
0.5
100
AcDbArc
 50
330.0
 51
60.0
  0
ARC
  5
469
100
AcDbEntity
  8
2
370
    50
100
AcDbCircle
 10
-139.301388
 20
314.422059
 30
0.0
 40
1.0
100
AcDbArc
 50
60.0
 51
150.0
  0
ARC
  5
46A
100
AcDbEntity
  8
2
370
    50
100
AcDbCircle
 10
-85.568817
 20
250.490579
 30
0.0
 40
0.5
100
AcDbArc
 50
240.0
 51
330.0
  0
LINE
  5
46B
100
AcDbEntity
  8
2
370
    50
100
AcDbLine
 10
-152.288468
 20
280.835707
 30
0.0
 11
-142.319082
 21
276.186907
 31
0.0
  0
LINE
  5
46C
100
AcDbEntity
  8
2
370
    50
100
AcDbLine
 10
-149.702225
 20
287.565023
 30
0.0
 11
-152.530312
 21
281.50017
 31
0.0
  0
LINE
  5
46D
100
AcDbEntity
  8
2
370
    50
100
AcDbLine
 10
-132.349696
 20
271.538106
 30
0.0
 11
-142.319082
 21
276.186907
 31
0.0
  0
LINE
  5
46E
100
AcDbEntity
  8
2
370
    50
100
AcDbLine
 10
-129.708961
 20
276.018081
 30
0.0
 11
-131.685233
 21
271.77995
 31
0.0
  0
LINE
  5
46F
100
AcDbEntity
  8
2
370
    50
100
AcDbLine
 10
-70.636019
 20
275.354943
 30
0.0
 11
-85.235915
 21
250.067183
 31
0.0
  0
LINE
  5
470
100
AcDbEntity
  8
2
370
    50
100
AcDbLine
 10
-101.400645
 20
266.468071
 30
0.0
 11
-97.763339
 21
264.368071
 31
0.0
  0
ARC
  5
471
100
AcDbEntity
  8
2
370
    50
100
AcDbCircle
 10
-144.768247
 20
273.925893
 30
0.0
 40
14.504138
100
AcDbArc
 50
60.0
 51
112.626124
  0
ARC
  5
472
100
AcDbEntity
  8
2
370
    50
100
AcDbCircle
 10
-145.774974
 20
272.18219
 30
0.0
 40
16.517592
100
AcDbArc
 50
10.913082
 51
60.0
  0
LINE
  5
473
100
AcDbEntity
  8
2
370
    50
100
AcDbLine
 10
-131.685233
 20
271.77995
 30
0.0
 11
-132.349696
 21
271.538106
 31
0.0
  0
LINE
  5
474
100
AcDbEntity
  8
2
370
    50
100
AcDbLine
 10
-152.530312
 20
281.50017
 30
0.0
 11
-152.288468
 21
280.835707
 31
0.0
  0
LINE
  5
475
100
AcDbEntity
  8
2
370
    50
100
AcDbLine
 10
-152.530312
 20
281.50017
 30
0.0
 11
-131.685233
 21
271.77995
 31
0.0
  0
LINE
  5
476
100
AcDbEntity
  8
2
370
    50
100
AcDbLine
 10
8.313963
 20
-92.379375
 30
0.0
 11
19.313963
 21
-92.379375
 31
0.0
  0
LINE
  5
477
100
AcDbEntity
  8
2
370
    50
100
AcDbLine
 10
19.613963
 20
-92.379375
 30
0.0
 11
8.013963
 21
-92.379375
 31
0.0
  0
LINE
  5
478
100
AcDbEntity
  8
2
370
    50
100
AcDbLine
 10
7.313963
 20
-109.379375
 30
0.0
 11
20.313963
 21
-109.379375
 31
0.0
  0
LINE
  5
479
100
AcDbEntity
  8
2
370
    50
100
AcDbLine
 10
20.313963
 20
-109.379375
 30
0.0
 11
20.313963
 21
-96.879375
 31
0.0
  0
LINE
  5
47A
100
AcDbEntity
  8
2
370
    50
100
AcDbLine
 10
9.939632
 20
-95.379375
 30
0.0
 11
9.939632
 21
-92.879375
 31
0.0
  0
LINE
  5
47B
100
AcDbEntity
  8
2
370
    50
100
AcDbLine
 10
9.232526
 20
-95.379375
 30
0.0
 11
9.232526
 21
-92.879375
 31
0.0
  0
LINE
  5
47C
100
AcDbEntity
  8
2
370
    50
100
AcDbLine
 10
7.834832
 20
-95.379375
 30
0.0
 11
7.834832
 21
-92.879375
 31
0.0
  0
LINE
  5
47D
100
AcDbEntity
  8
2
370
    50
100
AcDbLine
 10
7.813963
 20
-95.379375
 30
0.0
 11
7.813963
 21
-92.579375
 31
0.0
  0
LINE
  5
47E
100
AcDbEntity
  8
2
370
    50
100
AcDbLine
 10
13.313963
 20
-95.379375
 30
0.0
 11
13.313963
 21
-92.879375
 31
0.0
  0
LINE
  5
47F
100
AcDbEntity
  8
2
370
    50
100
AcDbLine
 10
14.313963
 20
-95.379375
 30
0.0
 11
14.313963
 21
-92.879375
 31
0.0
  0
LINE
  5
480
100
AcDbEntity
  8
2
370
    50
100
AcDbLine
 10
17.688293
 20
-95.379375
 30
0.0
 11
17.688293
 21
-92.879375
 31
0.0
  0
LINE
  5
481
100
AcDbEntity
  8
2
370
    50
100
AcDbLine
 10
18.3954
 20
-95.379375
 30
0.0
 11
18.3954
 21
-92.879375
 31
0.0
  0
LINE
  5
482
100
AcDbEntity
  8
2
370
    50
100
AcDbLine
 10
19.813963
 20
-95.379375
 30
0.0
 11
19.813963
 21
-92.579375
 31
0.0
  0
LINE
  5
483
100
AcDbEntity
  8
2
370
    50
100
AcDbLine
 10
19.793093
 20
-95.379375
 30
0.0
 11
19.793093
 21
-92.879375
 31
0.0
  0
LINE
  5
484
100
AcDbEntity
  8
2
370
    50
100
AcDbLine
 10
9.232526
 20
-92.879375
 30
0.0
 11
7.813963
 21
-92.879375
 31
0.0
  0
LINE
  5
485
100
AcDbEntity
  8
2
370
    50
100
AcDbLine
 10
13.313963
 20
-92.879375
 30
0.0
 11
9.939632
 21
-92.879375
 31
0.0
  0
LINE
  5
486
100
AcDbEntity
  8
2
370
    50
100
AcDbLine
 10
19.813963
 20
-92.879375
 30
0.0
 11
18.3954
 21
-92.879375
 31
0.0
  0
LINE
  5
487
100
AcDbEntity
  8
2
370
    50
100
AcDbLine
 10
17.688293
 20
-92.879375
 30
0.0
 11
14.313963
 21
-92.879375
 31
0.0
  0
LINE
  5
488
100
AcDbEntity
  8
2
370
    50
100
AcDbLine
 10
9.232526
 20
-95.379375
 30
0.0
 11
7.813963
 21
-95.379375
 31
0.0
  0
LINE
  5
489
100
AcDbEntity
  8
2
370
    50
100
AcDbLine
 10
13.313963
 20
-95.379375
 30
0.0
 11
9.939632
 21
-95.379375
 31
0.0
  0
LINE
  5
48A
100
AcDbEntity
  8
2
370
    50
100
AcDbLine
 10
19.813963
 20
-95.379375
 30
0.0
 11
18.3954
 21
-95.379375
 31
0.0
  0
LINE
  5
48B
100
AcDbEntity
  8
2
370
    50
100
AcDbLine
 10
17.688293
 20
-95.379375
 30
0.0
 11
14.313963
 21
-95.379375
 31
0.0
  0
ARC
  5
48C
100
AcDbEntity
  8
2
370
    50
100
AcDbCircle
 10
19.613963
 20
-92.579375
 30
0.0
 40
0.2
100
AcDbArc
 50
0.0
 51
90.0
  0
ARC
  5
48D
100
AcDbEntity
  8
2
370
    50
100
AcDbCircle
 10
8.013963
 20
-92.579375
 30
0.0
 40
0.2
100
AcDbArc
 50
90.0
 51
180.0
  0
ARC
  5
48E
100
AcDbEntity
  8
2
370
    50
100
AcDbCircle
 10
9.813963
 20
-96.879375
 30
0.0
 40
2.5
100
AcDbArc
 50
143.130102
 51
180.0
  0
ARC
  5
48F
100
AcDbEntity
  8
2
370
    50
100
AcDbCircle
 10
17.813963
 20
-96.879375
 30
0.0
 40
2.5
100
AcDbArc
 50
0.0
 51
36.869898
  0
LINE
  5
490
100
AcDbEntity
  8
2
370
    25
100
AcDbLine
 10
7.333222
 20
-109.379375
 30
0.0
 11
7.333222
 21
-96.879375
 31
0.0
  0
LINE
  5
491
100
AcDbEntity
  8
2
370
    25
100
AcDbLine
 10
8.877834
 20
-109.379375
 30
0.0
 11
8.877834
 21
-96.879375
 31
0.0
  0
LINE
  5
492
100
AcDbEntity
  8
2
370
    25
100
AcDbLine
 10
9.58494
 20
-109.379375
 30
0.0
 11
9.58494
 21
-96.879375
 31
0.0
  0
LINE
  5
493
100
AcDbEntity
  8
2
370
    25
100
AcDbLine
 10
13.313963
 20
-109.379375
 30
0.0
 11
13.313963
 21
-96.879375
 31
0.0
  0
LINE
  5
494
100
AcDbEntity
  8
2
370
    25
100
AcDbLine
 10
14.313963
 20
-109.379375
 30
0.0
 11
14.313963
 21
-96.879375
 31
0.0
  0
LINE
  5
495
100
AcDbEntity
  8
2
370
    25
100
AcDbLine
 10
18.042985
 20
-109.379375
 30
0.0
 11
18.042985
 21
-96.879375
 31
0.0
  0
LINE
  5
496
100
AcDbEntity
  8
2
370
    25
100
AcDbLine
 10
18.750092
 20
-109.379375
 30
0.0
 11
18.750092
 21
-96.879375
 31
0.0
  0
LINE
  5
497
100
AcDbEntity
  8
2
370
    25
100
AcDbLine
 10
17.879827
 20
-130.595734
 30
0.0
 11
9.748099
 21
-122.464006
 31
0.0
  0
LINE
  5
498
100
AcDbEntity
  8
2
370
    25
100
AcDbLine
 10
17.879827
 20
-122.464006
 30
0.0
 11
9.748099
 21
-130.595734
 31
0.0
  0
LINE
  5
499
100
AcDbEntity
  8
2
370
    25
100
AcDbLine
 10
17.11076
 20
-131.240881
 30
0.0
 11
9.102952
 21
-123.233072
 31
0.0
  0
LINE
  5
49A
100
AcDbEntity
  8
2
370
    25
100
AcDbLine
 10
16.211737
 20
-131.756071
 30
0.0
 11
8.587761
 21
-124.132096
 31
0.0
  0
LINE
  5
49B
100
AcDbEntity
  8
2
370
    25
100
AcDbLine
 10
15.161252
 20
-132.119799
 30
0.0
 11
8.224033
 21
-125.182581
 31
0.0
  0
LINE
  5
49C
100
AcDbEntity
  8
2
370
    25
100
AcDbLine
 10
13.906366
 20
-132.279127
 30
0.0
 11
8.064705
 21
-126.437466
 31
0.0
  0
LINE
  5
49D
100
AcDbEntity
  8
2
370
    25
100
AcDbLine
 10
12.286226
 20
-132.073201
 30
0.0
 11
8.270631
 21
-128.057606
 31
0.0
  0
LINE
  5
49E
100
AcDbEntity
  8
2
370
    25
100
AcDbLine
 10
18.524974
 20
-129.826667
 30
0.0
 11
10.517165
 21
-121.818859
 31
0.0
  0
LINE
  5
49F
100
AcDbEntity
  8
2
370
    25
100
AcDbLine
 10
19.040164
 20
-128.927644
 30
0.0
 11
11.416189
 21
-121.303668
 31
0.0
  0
LINE
  5
4A0
100
AcDbEntity
  8
2
370
    25
100
AcDbLine
 10
19.403892
 20
-127.877159
 30
0.0
 11
12.466674
 21
-120.93994
 31
0.0
  0
LINE
  5
4A1
100
AcDbEntity
  8
2
370
    25
100
AcDbLine
 10
19.56322
 20
-126.622273
 30
0.0
 11
13.721559
 21
-120.780612
 31
0.0
  0
LINE
  5
4A2
100
AcDbEntity
  8
2
370
    25
100
AcDbLine
 10
19.357294
 20
-125.002133
 30
0.0
 11
15.341699
 21
-120.986538
 31
0.0
  0
LINE
  5
4A3
100
AcDbEntity
  8
2
370
    25
100
AcDbLine
 10
17.11076
 20
-121.818859
 30
0.0
 11
9.102952
 21
-129.826667
 31
0.0
  0
LINE
  5
4A4
100
AcDbEntity
  8
2
370
    25
100
AcDbLine
 10
16.211737
 20
-121.303668
 30
0.0
 11
8.587761
 21
-128.927644
 31
0.0
  0
LINE
  5
4A5
100
AcDbEntity
  8
2
370
    25
100
AcDbLine
 10
15.161252
 20
-120.93994
 30
0.0
 11
8.224033
 21
-127.877159
 31
0.0
  0
LINE
  5
4A6
100
AcDbEntity
  8
2
370
    25
100
AcDbLine
 10
13.906366
 20
-120.780612
 30
0.0
 11
8.064705
 21
-126.622273
 31
0.0
  0
LINE
  5
4A7
100
AcDbEntity
  8
2
370
    25
100
AcDbLine
 10
12.286226
 20
-120.986538
 30
0.0
 11
8.270631
 21
-125.002133
 31
0.0
  0
LINE
  5
4A8
100
AcDbEntity
  8
2
370
    25
100
AcDbLine
 10
18.524974
 20
-123.233072
 30
0.0
 11
10.517165
 21
-131.240881
 31
0.0
  0
LINE
  5
4A9
100
AcDbEntity
  8
2
370
    25
100
AcDbLine
 10
19.040164
 20
-124.132096
 30
0.0
 11
11.416189
 21
-131.756071
 31
0.0
  0
LINE
  5
4AA
100
AcDbEntity
  8
2
370
    25
100
AcDbLine
 10
19.403892
 20
-125.182581
 30
0.0
 11
12.466674
 21
-132.119799
 31
0.0
  0
LINE
  5
4AB
100
AcDbEntity
  8
2
370
    25
100
AcDbLine
 10
19.56322
 20
-126.437466
 30
0.0
 11
13.721559
 21
-132.279127
 31
0.0
  0
LINE
  5
4AC
100
AcDbEntity
  8
2
370
    25
100
AcDbLine
 10
19.357294
 20
-128.057606
 30
0.0
 11
15.341699
 21
-132.073201
 31
0.0
  0
LINE
  5
4AD
100
AcDbEntity
  8
2
370
    50
100
AcDbLine
 10
19.563963
 20
-141.077335
 30
0.0
 11
19.563963
 21
-109.379375
 31
0.0
  0
LINE
  5
4AE
100
AcDbEntity
  8
2
370
    50
100
AcDbLine
 10
8.063963
 20
-141.11367
 30
0.0
 11
8.063963
 21
-109.379375
 31
0.0
  0
ARC
  5
4AF
100
AcDbEntity
  8
2
370
    50
100
AcDbCircle
 10
10.938963
 20
-137.282053
 30
0.0
 40
4.791667
100
AcDbArc
 50
233.130102
 51
306.869898
  0
ARC
  5
4B0
100
AcDbEntity
  8
2
370
    50
100
AcDbCircle
 10
16.688963
 20
-144.94872
 30
0.0
 40
4.791667
100
AcDbArc
 50
53.130102
 51
126.869898
  0
ARC
  5
4B1
100
AcDbEntity
  8
2
370
    50
100
AcDbCircle
 10
10.938963
 20
-144.94872
 30
0.0
 40
4.791667
100
AcDbArc
 50
53.130102
 51
126.869898
  0
LINE
  5
4B2
100
AcDbEntity
  8
2
370
    50
100
AcDbLine
 10
7.814196
 20
-92.090082
 30
0.0
 11
7.814196
 21
-86.767432
 31
0.0
  0
LINE
  5
4B3
100
AcDbEntity
  8
2
370
    50
100
AcDbLine
 10
19.814196
 20
-92.090082
 30
0.0
 11
19.814196
 21
-86.767432
 31
0.0
  0
LINE
  5
4B4
100
AcDbEntity
  8
2
370
    50
100
AcDbLine
 10
16.212112
 20
-86.767432
 30
0.0
 11
16.212112
 21
-92.090082
 31
0.0
  0
LINE
  5
4B5
100
AcDbEntity
  8
2
370
    50
100
AcDbLine
 10
17.378378
 20
-86.767432
 30
0.0
 11
17.378378
 21
-92.090082
 31
0.0
  0
LINE
  5
4B6
100
AcDbEntity
  8
2
370
    50
100
AcDbLine
 10
19.776293
 20
-86.767432
 30
0.0
 11
19.776293
 21
-92.090082
 31
0.0
  0
LINE
  5
4B7
100
AcDbEntity
  8
2
370
    50
100
AcDbLine
 10
19.314196
 20
-92.378757
 30
0.0
 11
19.814196
 21
-92.090082
 31
0.0
  0
LINE
  5
4B8
100
AcDbEntity
  8
2
370
    50
100
AcDbLine
 10
17.378378
 20
-92.090082
 30
0.0
 11
16.212112
 21
-92.090082
 31
0.0
  0
LINE
  5
4B9
100
AcDbEntity
  8
2
370
    50
100
AcDbLine
 10
7.814196
 20
-92.090082
 30
0.0
 11
8.314196
 21
-92.378757
 31
0.0
  0
LINE
  5
4BA
100
AcDbEntity
  8
2
370
    50
100
AcDbLine
 10
7.814196
 20
-86.767432
 30
0.0
 11
8.314196
 21
-86.478757
 31
0.0
  0
ARC
  5
4BB
100
AcDbEntity
  8
2
370
    50
100
AcDbCircle
 10
13.814196
 20
-82.275128
 30
0.0
 40
10.10363
100
AcDbArc
 50
270.0
 51
283.729133
  0
ARC
  5
4BC
100
AcDbEntity
  8
2
370
    50
100
AcDbCircle
 10
13.814196
 20
-96.582387
 30
0.0
 40
10.10363
100
AcDbArc
 50
76.270867
 51
90.0
  0
LINE
  5
4BD
100
AcDbEntity
  8
2
370
    50
100
AcDbLine
 10
17.378378
 20
-86.767432
 30
0.0
 11
16.212112
 21
-86.767432
 31
0.0
  0
LINE
  5
4BE
100
AcDbEntity
  8
2
370
    50
100
AcDbLine
 10
19.814196
 20
-92.090082
 30
0.0
 11
19.776293
 21
-92.090082
 31
0.0
  0
ARC
  5
4BF
100
AcDbEntity
  8
2
370
    50
100
AcDbCircle
 10
18.577336
 20
-89.744597
 30
0.0
 40
2.634161
100
AcDbArc
 50
242.924933
 51
297.075067
  0
ARC
  5
4C0
100
AcDbEntity
  8
2
370
    50
100
AcDbCircle
 10
18.577336
 20
-89.112918
 30
0.0
 40
2.634161
100
AcDbArc
 50
62.924933
 51
117.075067
  0
LINE
  5
4C1
100
AcDbEntity
  8
2
370
    50
100
AcDbLine
 10
19.314196
 20
-86.478757
 30
0.0
 11
19.814196
 21
-86.767432
 31
0.0
  0
LINE
  5
4C2
100
AcDbEntity
  8
2
370
    50
100
AcDbLine
 10
19.814196
 20
-86.767432
 30
0.0
 11
19.776293
 21
-86.767432
 31
0.0
  0
ARC
  5
4C3
100
AcDbEntity
  8
2
370
    50
100
AcDbCircle
 10
13.814196
 20
-82.275128
 30
0.0
 40
10.10363
100
AcDbArc
 50
256.270867
 51
270.0
  0
LINE
  5
4C4
100
AcDbEntity
  8
2
370
    50
100
AcDbLine
 10
10.250014
 20
-92.090082
 30
0.0
 11
11.41628
 21
-92.090082
 31
0.0
  0
LINE
  5
4C5
100
AcDbEntity
  8
2
370
    50
100
AcDbLine
 10
11.41628
 20
-86.767432
 30
0.0
 11
11.41628
 21
-92.090082
 31
0.0
  0
LINE
  5
4C6
100
AcDbEntity
  8
2
370
    50
100
AcDbLine
 10
10.250013
 20
-86.767432
 30
0.0
 11
10.250014
 21
-92.090082
 31
0.0
  0
ARC
  5
4C7
100
AcDbEntity
  8
2
370
    50
100
AcDbCircle
 10
9.051056
 20
-89.744597
 30
0.0
 40
2.634161
100
AcDbArc
 50
242.924933
 51
297.075067
  0
LINE
  5
4C8
100
AcDbEntity
  8
2
370
    50
100
AcDbLine
 10
7.852098
 20
-86.767432
 30
0.0
 11
7.852098
 21
-92.090082
 31
0.0
  0
LINE
  5
4C9
100
AcDbEntity
  8
2
370
    50
100
AcDbLine
 10
7.852098
 20
-92.090082
 30
0.0
 11
7.814196
 21
-92.090082
 31
0.0
  0
ARC
  5
4CA
100
AcDbEntity
  8
2
370
    50
100
AcDbCircle
 10
13.814196
 20
-96.582387
 30
0.0
 40
10.10363
100
AcDbArc
 50
90.0
 51
103.729133
  0
ARC
  5
4CB
100
AcDbEntity
  8
2
370
    50
100
AcDbCircle
 10
9.051056
 20
-89.112918
 30
0.0
 40
2.634161
100
AcDbArc
 50
62.924933
 51
117.075067
  0
LINE
  5
4CC
100
AcDbEntity
  8
2
370
    50
100
AcDbLine
 10
10.250014
 20
-86.767432
 30
0.0
 11
11.41628
 21
-86.767432
 31
0.0
  0
ARC
  5
4CD
100
AcDbEntity
  8
2
370
    50
100
AcDbCircle
 10
-3.458305
 20
-73.63648
 30
0.0
 40
0.2
100
AcDbArc
 50
99.5
 51
180.0
  0
LINE
  5
4CE
100
AcDbEntity
  8
2
370
    50
100
AcDbLine
 10
-2.858305
 20
-73.332914
 30
0.0
 11
-2.858305
 21
-72.319009
 31
0.0
  0
LINE
  5
4CF
100
AcDbEntity
  8
2
370
    50
100
AcDbLine
 10
8.814196
 20
-71.379645
 30
0.0
 11
-3.491317
 21
-73.439242
 31
0.0
  0
LINE
  5
4D0
100
AcDbEntity
  8
2
370
    50
100
AcDbLine
 10
-3.658305
 20
-72.216633
 30
0.0
 11
-3.658305
 21
-69.58048
 31
0.0
  0
ARC
  5
4D1
100
AcDbEntity
  8
2
370
    50
100
AcDbCircle
 10
-3.458305
 20
-69.58048
 30
0.0
 40
0.2
100
AcDbArc
 50
99.5
 51
180.0
  0
LINE
  5
4D2
100
AcDbEntity
  8
2
370
    50
100
AcDbLine
 10
-3.425295
 20
-72.41389
 30
0.0
 11
8.814196
 21
-70.365702
 31
0.0
  0
ARC
  5
4D3
100
AcDbEntity
  8
2
370
    50
100
AcDbCircle
 10
-3.458305
 20
-72.216633
 30
0.0
 40
0.2
100
AcDbArc
 50
180.0
 51
279.5
  0
LINE
  5
4D4
100
AcDbEntity
  8
2
370
    50
100
AcDbLine
 10
-2.858305
 20
-69.276914
 30
0.0
 11
-2.858305
 21
-68.263009
 31
0.0
  0
LINE
  5
4D5
100
AcDbEntity
  8
2
370
    50
100
AcDbLine
 10
8.814196
 20
-67.323645
 30
0.0
 11
-3.491317
 21
-69.383242
 31
0.0
  0
LINE
  5
4D6
100
AcDbEntity
  8
2
370
    50
100
AcDbLine
 10
-3.658305
 20
-68.160633
 30
0.0
 11
-3.658305
 21
-65.52448
 31
0.0
  0
ARC
  5
4D7
100
AcDbEntity
  8
2
370
    50
100
AcDbCircle
 10
-3.458305
 20
-65.52448
 30
0.0
 40
0.2
100
AcDbArc
 50
99.5
 51
180.0
  0
LINE
  5
4D8
100
AcDbEntity
  8
2
370
    50
100
AcDbLine
 10
-3.425295
 20
-68.35789
 30
0.0
 11
8.814196
 21
-66.309702
 31
0.0
  0
ARC
  5
4D9
100
AcDbEntity
  8
2
370
    50
100
AcDbCircle
 10
-3.458305
 20
-68.160633
 30
0.0
 40
0.2
100
AcDbArc
 50
180.0
 51
279.5
  0
LINE
  5
4DA
100
AcDbEntity
  8
2
370
    50
100
AcDbLine
 10
-2.858305
 20
-65.220914
 30
0.0
 11
-2.858305
 21
-64.207009
 31
0.0
  0
LINE
  5
4DB
100
AcDbEntity
  8
2
370
    50
100
AcDbLine
 10
8.814196
 20
-63.267645
 30
0.0
 11
-3.491317
 21
-65.327242
 31
0.0
  0
LINE
  5
4DC
100
AcDbEntity
  8
2
370
    50
100
AcDbLine
 10
-3.658305
 20
-64.104633
 30
0.0
 11
-3.658305
 21
-61.46848
 31
0.0
  0
ARC
  5
4DD
100
AcDbEntity
  8
2
370
    50
100
AcDbCircle
 10
-3.458305
 20
-61.46848
 30
0.0
 40
0.2
100
AcDbArc
 50
99.5
 51
180.0
  0
LINE
  5
4DE
100
AcDbEntity
  8
2
370
    50
100
AcDbLine
 10
-3.425295
 20
-64.30189
 30
0.0
 11
8.814196
 21
-62.253702
 31
0.0
  0
ARC
  5
4DF
100
AcDbEntity
  8
2
370
    50
100
AcDbCircle
 10
-3.458305
 20
-64.104633
 30
0.0
 40
0.2
100
AcDbArc
 50
180.0
 51
279.5
  0
LINE
  5
4E0
100
AcDbEntity
  8
2
370
    50
100
AcDbLine
 10
-2.858305
 20
-61.164914
 30
0.0
 11
-2.858305
 21
-60.151009
 31
0.0
  0
LINE
  5
4E1
100
AcDbEntity
  8
2
370
    50
100
AcDbLine
 10
8.814196
 20
-59.211645
 30
0.0
 11
-3.491317
 21
-61.271242
 31
0.0
  0
LINE
  5
4E2
100
AcDbEntity
  8
2
370
    50
100
AcDbLine
 10
-3.658305
 20
-60.048633
 30
0.0
 11
-3.658305
 21
-57.41248
 31
0.0
  0
ARC
  5
4E3
100
AcDbEntity
  8
2
370
    50
100
AcDbCircle
 10
-3.458305
 20
-57.41248
 30
0.0
 40
0.2
100
AcDbArc
 50
99.5
 51
180.0
  0
LINE
  5
4E4
100
AcDbEntity
  8
2
370
    50
100
AcDbLine
 10
-3.425295
 20
-60.24589
 30
0.0
 11
8.814196
 21
-58.197702
 31
0.0
  0
ARC
  5
4E5
100
AcDbEntity
  8
2
370
    50
100
AcDbCircle
 10
-3.458305
 20
-60.048633
 30
0.0
 40
0.2
100
AcDbArc
 50
180.0
 51
279.5
  0
LINE
  5
4E6
100
AcDbEntity
  8
2
370
    50
100
AcDbLine
 10
-2.858305
 20
-57.108914
 30
0.0
 11
-2.858305
 21
-56.095009
 31
0.0
  0
LINE
  5
4E7
100
AcDbEntity
  8
2
370
    50
100
AcDbLine
 10
8.814196
 20
-55.155645
 30
0.0
 11
-3.491317
 21
-57.215242
 31
0.0
  0
LINE
  5
4E8
100
AcDbEntity
  8
2
370
    50
100
AcDbLine
 10
-3.658305
 20
-55.992633
 30
0.0
 11
-3.658305
 21
-53.35648
 31
0.0
  0
ARC
  5
4E9
100
AcDbEntity
  8
2
370
    50
100
AcDbCircle
 10
-3.458305
 20
-53.35648
 30
0.0
 40
0.2
100
AcDbArc
 50
99.5
 51
180.0
  0
LINE
  5
4EA
100
AcDbEntity
  8
2
370
    50
100
AcDbLine
 10
-3.425295
 20
-56.18989
 30
0.0
 11
8.814196
 21
-54.141702
 31
0.0
  0
ARC
  5
4EB
100
AcDbEntity
  8
2
370
    50
100
AcDbCircle
 10
-3.458305
 20
-55.992633
 30
0.0
 40
0.2
100
AcDbArc
 50
180.0
 51
279.5
  0
LINE
  5
4EC
100
AcDbEntity
  8
2
370
    50
100
AcDbLine
 10
-2.858305
 20
-53.052914
 30
0.0
 11
-2.858305
 21
-52.039009
 31
0.0
  0
LINE
  5
4ED
100
AcDbEntity
  8
2
370
    50
100
AcDbLine
 10
8.814196
 20
-51.099645
 30
0.0
 11
-3.491317
 21
-53.159242
 31
0.0
  0
LINE
  5
4EE
100
AcDbEntity
  8
2
370
    50
100
AcDbLine
 10
-3.658305
 20
-51.936633
 30
0.0
 11
-3.658305
 21
-49.30048
 31
0.0
  0
ARC
  5
4EF
100
AcDbEntity
  8
2
370
    50
100
AcDbCircle
 10
-3.458305
 20
-49.30048
 30
0.0
 40
0.2
100
AcDbArc
 50
99.5
 51
180.0
  0
LINE
  5
4F0
100
AcDbEntity
  8
2
370
    50
100
AcDbLine
 10
-3.425295
 20
-52.13389
 30
0.0
 11
8.814196
 21
-50.085702
 31
0.0
  0
ARC
  5
4F1
100
AcDbEntity
  8
2
370
    50
100
AcDbCircle
 10
-3.458305
 20
-51.936633
 30
0.0
 40
0.2
100
AcDbArc
 50
180.0
 51
279.5
  0
LINE
  5
4F2
100
AcDbEntity
  8
2
370
    50
100
AcDbLine
 10
-2.858305
 20
-48.996914
 30
0.0
 11
-2.858305
 21
-47.983009
 31
0.0
  0
LINE
  5
4F3
100
AcDbEntity
  8
2
370
    50
100
AcDbLine
 10
8.814196
 20
-47.043645
 30
0.0
 11
-3.491317
 21
-49.103242
 31
0.0
  0
LINE
  5
4F4
100
AcDbEntity
  8
2
370
    50
100
AcDbLine
 10
-3.658305
 20
-47.880633
 30
0.0
 11
-3.658305
 21
-45.24448
 31
0.0
  0
ARC
  5
4F5
100
AcDbEntity
  8
2
370
    50
100
AcDbCircle
 10
-3.458305
 20
-45.24448
 30
0.0
 40
0.2
100
AcDbArc
 50
99.5
 51
180.0
  0
LINE
  5
4F6
100
AcDbEntity
  8
2
370
    50
100
AcDbLine
 10
-3.425295
 20
-48.07789
 30
0.0
 11
8.814196
 21
-46.029702
 31
0.0
  0
ARC
  5
4F7
100
AcDbEntity
  8
2
370
    50
100
AcDbCircle
 10
-3.458305
 20
-47.880633
 30
0.0
 40
0.2
100
AcDbArc
 50
180.0
 51
279.5
  0
LINE
  5
4F8
100
AcDbEntity
  8
2
370
    50
100
AcDbLine
 10
-2.858305
 20
-44.940914
 30
0.0
 11
-2.858305
 21
-43.927009
 31
0.0
  0
LINE
  5
4F9
100
AcDbEntity
  8
2
370
    50
100
AcDbLine
 10
8.814196
 20
-42.987645
 30
0.0
 11
-3.491317
 21
-45.047242
 31
0.0
  0
LINE
  5
4FA
100
AcDbEntity
  8
2
370
    50
100
AcDbLine
 10
-3.425295
 20
-44.02189
 30
0.0
 11
8.814196
 21
-41.973702
 31
0.0
  0
LINE
  5
4FB
100
AcDbEntity
  8
2
370
    50
100
AcDbLine
 10
-3.658305
 20
-43.824633
 30
0.0
 11
-3.658305
 21
-41.18848
 31
0.0
  0
ARC
  5
4FC
100
AcDbEntity
  8
2
370
    50
100
AcDbCircle
 10
-3.458305
 20
-43.824633
 30
0.0
 40
0.2
100
AcDbArc
 50
180.0
 51
279.5
  0
LINE
  5
4FD
100
AcDbEntity
  8
2
370
    50
100
AcDbLine
 10
8.814196
 20
-38.931645
 30
0.0
 11
-3.491317
 21
-40.991242
 31
0.0
  0
ARC
  5
4FE
100
AcDbEntity
  8
2
370
    50
100
AcDbCircle
 10
-3.458305
 20
-41.18848
 30
0.0
 40
0.2
100
AcDbArc
 50
99.5
 51
180.0
  0
LINE
  5
4FF
100
AcDbEntity
  8
2
370
    50
100
AcDbLine
 10
-2.858305
 20
-40.884914
 30
0.0
 11
-2.858305
 21
-39.871009
 31
0.0
  0
LINE
  5
500
100
AcDbEntity
  8
2
370
    50
100
AcDbLine
 10
-2.858305
 20
-36.828914
 30
0.0
 11
-2.858305
 21
-35.815009
 31
0.0
  0
ARC
  5
501
100
AcDbEntity
  8
2
370
    50
100
AcDbCircle
 10
-3.458305
 20
-37.13248
 30
0.0
 40
0.2
100
AcDbArc
 50
99.5
 51
180.0
  0
LINE
  5
502
100
AcDbEntity
  8
2
370
    50
100
AcDbLine
 10
-3.658305
 20
-39.768633
 30
0.0
 11
-3.658305
 21
-37.13248
 31
0.0
  0
ARC
  5
503
100
AcDbEntity
  8
2
370
    50
100
AcDbCircle
 10
-3.458305
 20
-39.768633
 30
0.0
 40
0.2
100
AcDbArc
 50
180.0
 51
279.5
  0
LINE
  5
504
100
AcDbEntity
  8
2
370
    50
100
AcDbLine
 10
-3.425295
 20
-39.96589
 30
0.0
 11
8.814196
 21
-37.917702
 31
0.0
  0
LINE
  5
505
100
AcDbEntity
  8
2
370
    50
100
AcDbLine
 10
-3.658305
 20
-35.712633
 30
0.0
 11
-3.658305
 21
-33.07648
 31
0.0
  0
ARC
  5
506
100
AcDbEntity
  8
2
370
    50
100
AcDbCircle
 10
-3.458305
 20
-35.712633
 30
0.0
 40
0.2
100
AcDbArc
 50
180.0
 51
279.5
  0
ARC
  5
507
100
AcDbEntity
  8
2
370
    50
100
AcDbCircle
 10
-3.458305
 20
-33.07648
 30
0.0
 40
0.2
100
AcDbArc
 50
99.5
 51
180.0
  0
LINE
  5
508
100
AcDbEntity
  8
2
370
    50
100
AcDbLine
 10
-2.858305
 20
-32.772914
 30
0.0
 11
-2.858305
 21
-31.759009
 31
0.0
  0
LINE
  5
509
100
AcDbEntity
  8
2
370
    50
100
AcDbLine
 10
8.814196
 20
-34.875645
 30
0.0
 11
-3.491317
 21
-36.935242
 31
0.0
  0
LINE
  5
50A
100
AcDbEntity
  8
2
370
    50
100
AcDbLine
 10
-3.425295
 20
-35.90989
 30
0.0
 11
8.814196
 21
-33.861702
 31
0.0
  0
LINE
  5
50B
100
AcDbEntity
  8
2
370
    50
100
AcDbLine
 10
-3.491317
 20
-32.879242
 30
0.0
 11
8.814196
 21
-30.819645
 31
0.0
  0
ARC
  5
50C
100
AcDbEntity
  8
2
370
    50
100
AcDbCircle
 10
-3.458305
 20
-31.656633
 30
0.0
 40
0.2
100
AcDbArc
 50
180.0
 51
279.5
  0
LINE
  5
50D
100
AcDbEntity
  8
2
370
    50
100
AcDbLine
 10
-3.425295
 20
-31.85389
 30
0.0
 11
8.814196
 21
-29.805702
 31
0.0
  0
LINE
  5
50E
100
AcDbEntity
  8
2
370
    50
  6
PHANTOM
100
AcDbLine
 10
-3.658305
 20
-73.63648
 30
0.0
 11
-3.658305
 21
-89.126423
 31
0.0
  0
LINE
  5
50F
100
AcDbEntity
  8
2
370
    50
100
AcDbLine
 10
-3.658305
 20
-31.712633
 30
0.0
 11
-3.658305
 21
-29.078198
 31
0.0
  0
LINE
  5
510
100
AcDbEntity
  8
2
370
    50
100
AcDbLine
 10
-15.185804
 20
-14.078198
 30
0.0
 11
30.614196
 21
-14.078198
 31
0.0
  0
LINE
  5
511
100
AcDbEntity
  8
2
370
    50
100
AcDbLine
 10
-15.185804
 20
-6.078198
 30
0.0
 11
30.614196
 21
-6.078198
 31
0.0
  0
LINE
  5
512
100
AcDbEntity
  8
2
370
    50
100
AcDbLine
 10
30.614196
 20
-6.078198
 30
0.0
 11
33.214196
 21
-6.774866
 31
0.0
  0
LINE
  5
513
100
AcDbEntity
  8
2
370
    50
100
AcDbLine
 10
30.614196
 20
-14.078198
 30
0.0
 11
33.214196
 21
-13.38153
 31
0.0
  0
LINE
  5
514
100
AcDbEntity
  8
2
370
    50
100
AcDbLine
 10
33.214196
 20
-13.38153
 30
0.0
 11
33.214196
 21
-6.774866
 31
0.0
  0
LINE
  5
515
100
AcDbEntity
  8
2
370
    50
100
AcDbLine
 10
-15.185804
 20
-6.078198
 30
0.0
 11
-17.785804
 21
-6.774866
 31
0.0
  0
LINE
  5
516
100
AcDbEntity
  8
2
370
    50
100
AcDbLine
 10
-17.785804
 20
-13.38153
 30
0.0
 11
-17.785804
 21
-6.774866
 31
0.0
  0
LINE
  5
517
100
AcDbEntity
  8
2
370
    50
100
AcDbLine
 10
-15.185804
 20
-14.078198
 30
0.0
 11
-17.785804
 21
-13.38153
 31
0.0
  0
LINE
  5
518
100
AcDbEntity
  8
2
370
    50
100
AcDbLine
 10
22.127101
 20
-6.774866
 30
0.0
 11
18.725554
 21
-6.774866
 31
0.0
  0
LINE
  5
519
100
AcDbEntity
  8
2
370
    50
100
AcDbLine
 10
22.127101
 20
-13.38153
 30
0.0
 11
18.725554
 21
-13.38153
 31
0.0
  0
LINE
  5
51A
100
AcDbEntity
  8
2
370
    50
100
AcDbLine
 10
18.725554
 20
-6.774866
 30
0.0
 11
18.725554
 21
-13.38153
 31
0.0
  0
LINE
  5
51B
100
AcDbEntity
  8
2
370
    50
100
AcDbLine
 10
22.127101
 20
-6.774866
 30
0.0
 11
22.127101
 21
-13.38153
 31
0.0
  0
ARC
  5
51C
100
AcDbEntity
  8
2
370
    50
100
AcDbCircle
 10
28.617558
 20
-36.660472
 30
0.0
 40
30.582274
100
AcDbArc
 50
85.634796
 51
102.253032
  0
ARC
  5
51D
100
AcDbEntity
  8
2
370
    50
100
AcDbCircle
 10
28.617558
 20
16.504076
 30
0.0
 40
30.582274
100
AcDbArc
 50
257.746968
 51
274.365204
  0
ARC
  5
51E
100
AcDbEntity
  8
2
370
    50
100
AcDbCircle
 10
7.714196
 20
-93.447909
 30
0.0
 40
87.369711
100
AcDbArc
 50
82.759658
 51
97.240342
  0
ARC
  5
51F
100
AcDbEntity
  8
2
370
    50
100
AcDbCircle
 10
7.714196
 20
73.291513
 30
0.0
 40
87.369711
100
AcDbArc
 50
262.759658
 51
277.240342
  0
LINE
  5
520
100
AcDbEntity
  8
2
370
    50
100
AcDbLine
 10
-6.69871
 20
-6.774866
 30
0.0
 11
-3.297162
 21
-6.774866
 31
0.0
  0
LINE
  5
521
100
AcDbEntity
  8
2
370
    50
100
AcDbLine
 10
-6.69871
 20
-13.38153
 30
0.0
 11
-3.297162
 21
-13.38153
 31
0.0
  0
LINE
  5
522
100
AcDbEntity
  8
2
370
    50
100
AcDbLine
 10
-3.297162
 20
-6.774866
 30
0.0
 11
-3.297162
 21
-13.38153
 31
0.0
  0
LINE
  5
523
100
AcDbEntity
  8
2
370
    50
100
AcDbLine
 10
-6.69871
 20
-6.774866
 30
0.0
 11
-6.69871
 21
-13.38153
 31
0.0
  0
ARC
  5
524
100
AcDbEntity
  8
2
370
    50
100
AcDbCircle
 10
-13.189166
 20
-36.660472
 30
0.0
 40
30.582274
100
AcDbArc
 50
77.746968
 51
94.365204
  0
ARC
  5
525
100
AcDbEntity
  8
2
370
    50
100
AcDbCircle
 10
-13.189166
 20
16.504076
 30
0.0
 40
30.582274
100
AcDbArc
 50
265.634796
 51
282.253032
  0
LINE
  5
526
100
AcDbEntity
  8
2
370
    50
100
AcDbLine
 10
32.714196
 20
-4.079066
 30
0.0
 11
32.714196
 21
-2.579066
 31
0.0
  0
LINE
  5
527
100
AcDbEntity
  8
2
370
    50
100
AcDbLine
 10
-17.285804
 20
-4.079066
 30
0.0
 11
-17.285804
 21
-2.579066
 31
0.0
  0
LINE
  5
528
100
AcDbEntity
  8
2
370
    50
100
AcDbLine
 10
32.714196
 20
-4.079066
 30
0.0
 11
-17.285804
 21
-4.079066
 31
0.0
  0
LINE
  5
529
100
AcDbEntity
  8
2
370
    50
100
AcDbLine
 10
32.714196
 20
-4.079066
 30
0.0
 11
23.714196
 21
-4.079066
 31
0.0
  0
LINE
  5
52A
100
AcDbEntity
  8
2
370
    50
100
AcDbLine
 10
-17.285804
 20
-2.579066
 30
0.0
 11
32.714196
 21
-2.579066
 31
0.0
  0
LINE
  5
52B
100
AcDbEntity
  8
2
370
    50
100
AcDbLine
 10
-17.285804
 20
-4.960877
 30
0.0
 11
-17.285804
 21
-4.339711
 31
0.0
  0
LINE
  5
52C
100
AcDbEntity
  8
2
370
    50
100
AcDbLine
 10
-17.03404
 20
-4.146526
 30
0.0
 11
-14.226786
 21
-4.898727
 31
0.0
  0
LINE
  5
52D
100
AcDbEntity
  8
2
370
    50
100
AcDbLine
 10
-17.137568
 20
-5.154062
 30
0.0
 11
-14.085505
 21
-5.971859
 31
0.0
  0
LINE
  5
52E
100
AcDbEntity
  8
2
370
    50
100
AcDbLine
 10
-12.438743
 20
-5.359305
 30
0.0
 11
-13.326686
 21
-5.871959
 31
0.0
  0
LINE
  5
52F
100
AcDbEntity
  8
2
370
    50
100
AcDbLine
 10
-13.467967
 20
-4.798827
 30
0.0
 11
-12.580024
 21
-4.286173
 31
0.0
  0
LINE
  5
530
100
AcDbEntity
  8
2
370
    50
100
AcDbLine
 10
-11.821205
 20
-4.186272
 30
0.0
 11
-9.162286
 21
-4.898727
 31
0.0
  0
LINE
  5
531
100
AcDbEntity
  8
2
370
    50
100
AcDbLine
 10
-11.679924
 20
-5.259404
 30
0.0
 11
-9.123424
 21
-5.944417
 31
0.0
  0
ARC
  5
532
100
AcDbEntity
  8
2
370
    50
100
AcDbCircle
 10
-13.826686
 20
-6.079934
 30
0.0
 40
2.0
100
AcDbArc
 50
57.713823
 51
133.754764
  0
ARC
  5
533
100
AcDbEntity
  8
2
370
    50
100
AcDbCircle
 10
-8.762686
 20
-6.079934
 30
0.0
 40
2.0
100
AcDbArc
 50
51.829858
 51
133.754764
  0
ARC
  5
534
100
AcDbEntity
  8
2
370
    50
100
AcDbCircle
 10
-12.026686
 20
-4.078198
 30
0.0
 40
2.0
100
AcDbArc
 50
236.854175
 51
313.291051
  0
ARC
  5
535
100
AcDbEntity
  8
2
370
    50
100
AcDbCircle
 10
-13.967967
 20
-3.932801
 30
0.0
 40
1.0
100
AcDbArc
 50
255.0
 51
300.0
  0
ARC
  5
536
100
AcDbEntity
  8
2
370
    50
100
AcDbCircle
 10
-13.826686
 20
-5.005934
 30
0.0
 40
1.0
100
AcDbArc
 50
255.0
 51
300.0
  0
ARC
  5
537
100
AcDbEntity
  8
2
370
    50
100
AcDbCircle
 10
-11.938743
 20
-6.22533
 30
0.0
 40
1.0
100
AcDbArc
 50
75.0
 51
120.0
  0
ARC
  5
538
100
AcDbEntity
  8
2
370
    50
100
AcDbCircle
 10
-12.080024
 20
-5.152198
 30
0.0
 40
1.0
100
AcDbArc
 50
75.0
 51
120.0
  0
ARC
  5
539
100
AcDbEntity
  8
2
370
    50
100
AcDbCircle
 10
-8.903467
 20
-3.932801
 30
0.0
 40
1.0
100
AcDbArc
 50
255.0
 51
291.57155
  0
ARC
  5
53A
100
AcDbEntity
  8
2
370
    50
100
AcDbCircle
 10
-17.085804
 20
-4.339711
 30
0.0
 40
0.2
100
AcDbArc
 50
75.0
 51
180.0
  0
ARC
  5
53B
100
AcDbEntity
  8
2
370
    50
100
AcDbCircle
 10
-17.085804
 20
-4.960877
 30
0.0
 40
0.2
100
AcDbArc
 50
180.0
 51
255.0
  0
LINE
  5
53C
100
AcDbEntity
  8
2
370
    50
100
AcDbLine
 10
32.714196
 20
-5.197255
 30
0.0
 11
32.714196
 21
-5.818421
 31
0.0
  0
LINE
  5
53D
100
AcDbEntity
  8
2
370
    50
100
AcDbLine
 10
32.462432
 20
-6.011606
 30
0.0
 11
29.655178
 21
-5.259404
 31
0.0
  0
LINE
  5
53E
100
AcDbEntity
  8
2
370
    50
100
AcDbLine
 10
32.56596
 20
-5.00407
 30
0.0
 11
29.513897
 21
-4.186272
 31
0.0
  0
LINE
  5
53F
100
AcDbEntity
  8
2
370
    50
100
AcDbLine
 10
27.867135
 20
-4.798827
 30
0.0
 11
28.755078
 21
-4.286173
 31
0.0
  0
LINE
  5
540
100
AcDbEntity
  8
2
370
    50
100
AcDbLine
 10
28.896359
 20
-5.359305
 30
0.0
 11
28.008415
 21
-5.871959
 31
0.0
  0
LINE
  5
541
100
AcDbEntity
  8
2
370
    50
100
AcDbLine
 10
27.249596
 20
-5.971859
 30
0.0
 11
24.308117
 21
-5.183692
 31
0.0
  0
LINE
  5
542
100
AcDbEntity
  8
2
370
    50
100
AcDbLine
 10
27.108316
 20
-4.898727
 30
0.0
 11
24.308117
 21
-4.148416
 31
0.0
  0
ARC
  5
543
100
AcDbEntity
  8
2
370
    50
100
AcDbCircle
 10
29.255078
 20
-4.078198
 30
0.0
 40
2.0
100
AcDbArc
 50
237.713823
 51
313.754764
  0
ARC
  5
544
100
AcDbEntity
  8
2
370
    50
100
AcDbCircle
 10
24.191078
 20
-4.078198
 30
0.0
 40
2.0
100
AcDbArc
 50
223.820775
 51
313.754764
  0
ARC
  5
545
100
AcDbEntity
  8
2
370
    50
100
AcDbCircle
 10
27.455078
 20
-6.079934
 30
0.0
 40
2.0
100
AcDbArc
 50
56.854175
 51
133.291051
  0
ARC
  5
546
100
AcDbEntity
  8
2
370
    50
100
AcDbCircle
 10
29.396359
 20
-6.22533
 30
0.0
 40
1.0
100
AcDbArc
 50
75.0
 51
120.0
  0
ARC
  5
547
100
AcDbEntity
  8
2
370
    50
100
AcDbCircle
 10
29.255078
 20
-5.152198
 30
0.0
 40
1.0
100
AcDbArc
 50
75.0
 51
120.0
  0
ARC
  5
548
100
AcDbEntity
  8
2
370
    50
100
AcDbCircle
 10
27.367135
 20
-3.932801
 30
0.0
 40
1.0
100
AcDbArc
 50
255.0
 51
300.0
  0
ARC
  5
549
100
AcDbEntity
  8
2
370
    50
100
AcDbCircle
 10
27.508415
 20
-5.005934
 30
0.0
 40
1.0
100
AcDbArc
 50
255.0
 51
300.0
  0
ARC
  5
54A
100
AcDbEntity
  8
2
370
    50
100
AcDbCircle
 10
32.514196
 20
-5.818421
 30
0.0
 40
0.2
100
AcDbArc
 50
255.0
 51
360.0
  0
ARC
  5
54B
100
AcDbEntity
  8
2
370
    50
100
AcDbCircle
 10
32.514196
 20
-5.197255
 30
0.0
 40
0.2
100
AcDbArc
 50
360.0
 51
75.0
  0
LINE
  5
54C
100
AcDbEntity
  8
2
370
    50
100
AcDbLine
 10
23.790479
 20
-4.148416
 30
0.0
 11
20.993518
 21
-4.897859
 31
0.0
  0
LINE
  5
54D
100
AcDbEntity
  8
2
370
    50
100
AcDbLine
 10
23.790479
 20
-5.183692
 30
0.0
 11
20.852238
 21
-5.970992
 31
0.0
  0
LINE
  5
54E
100
AcDbEntity
  8
2
370
    50
100
AcDbLine
 10
20.093419
 20
-5.871091
 30
0.0
 11
19.206978
 21
-5.359305
 31
0.0
  0
LINE
  5
54F
100
AcDbEntity
  8
2
370
    50
100
AcDbLine
 10
20.234699
 20
-4.797959
 30
0.0
 11
19.348259
 21
-4.286173
 31
0.0
  0
LINE
  5
550
100
AcDbEntity
  8
2
370
    50
100
AcDbLine
 10
18.58944
 20
-4.186272
 30
0.0
 11
15.93376
 21
-4.897859
 31
0.0
  0
LINE
  5
551
100
AcDbEntity
  8
2
370
    50
100
AcDbLine
 10
18.448159
 20
-5.259404
 30
0.0
 11
15.792479
 21
-5.970992
 31
0.0
  0
LINE
  5
552
100
AcDbEntity
  8
2
370
    50
100
AcDbLine
 10
15.03366
 20
-5.871091
 30
0.0
 11
14.14722
 21
-5.359305
 31
0.0
  0
LINE
  5
553
100
AcDbEntity
  8
2
370
    50
100
AcDbLine
 10
15.174941
 20
-4.797959
 30
0.0
 11
14.288501
 21
-4.286173
 31
0.0
  0
LINE
  5
554
100
AcDbEntity
  8
2
370
    50
100
AcDbLine
 10
13.529682
 20
-4.186272
 30
0.0
 11
10.874002
 21
-4.897859
 31
0.0
  0
LINE
  5
555
100
AcDbEntity
  8
2
370
    50
100
AcDbLine
 10
13.388401
 20
-5.259404
 30
0.0
 11
10.732721
 21
-5.970992
 31
0.0
  0
LINE
  5
556
100
AcDbEntity
  8
2
370
    50
100
AcDbLine
 10
9.973902
 20
-5.871091
 30
0.0
 11
9.087462
 21
-5.359305
 31
0.0
  0
LINE
  5
557
100
AcDbEntity
  8
2
370
    50
100
AcDbLine
 10
10.115183
 20
-4.797959
 30
0.0
 11
9.228743
 21
-4.286173
 31
0.0
  0
LINE
  5
558
100
AcDbEntity
  8
2
370
    50
100
AcDbLine
 10
8.469924
 20
-4.186272
 30
0.0
 11
5.814244
 21
-4.897859
 31
0.0
  0
LINE
  5
559
100
AcDbEntity
  8
2
370
    50
100
AcDbLine
 10
8.328643
 20
-5.259404
 30
0.0
 11
5.672963
 21
-5.970992
 31
0.0
  0
LINE
  5
55A
100
AcDbEntity
  8
2
370
    50
100
AcDbLine
 10
4.914144
 20
-5.871091
 30
0.0
 11
4.027704
 21
-5.359305
 31
0.0
  0
LINE
  5
55B
100
AcDbEntity
  8
2
370
    50
100
AcDbLine
 10
5.055425
 20
-4.797959
 30
0.0
 11
4.168985
 21
-4.286173
 31
0.0
  0
LINE
  5
55C
100
AcDbEntity
  8
2
370
    50
100
AcDbLine
 10
3.410166
 20
-4.186272
 30
0.0
 11
0.754486
 21
-4.897859
 31
0.0
  0
LINE
  5
55D
100
AcDbEntity
  8
2
370
    50
100
AcDbLine
 10
3.268885
 20
-5.259404
 30
0.0
 11
0.213106
 21
-6.078198
 31
0.0
  0
LINE
  5
55E
100
AcDbEntity
  8
2
370
    50
100
AcDbLine
 10
-0.018945
 20
-5.944223
 30
0.0
 11
-1.032054
 21
-5.359305
 31
0.0
  0
LINE
  5
55F
100
AcDbEntity
  8
2
370
    50
100
AcDbLine
 10
-0.004333
 20
-4.797959
 30
0.0
 11
-0.890773
 21
-4.286173
 31
0.0
  0
LINE
  5
560
100
AcDbEntity
  8
2
370
    50
100
AcDbLine
 10
-1.649592
 20
-4.186272
 30
0.0
 11
-4.305272
 21
-4.897859
 31
0.0
  0
LINE
  5
561
100
AcDbEntity
  8
2
370
    50
100
AcDbLine
 10
-1.790873
 20
-5.259404
 30
0.0
 11
-4.446553
 21
-5.970992
 31
0.0
  0
LINE
  5
562
100
AcDbEntity
  8
2
370
    50
100
AcDbLine
 10
-5.205372
 20
-5.871091
 30
0.0
 11
-6.012764
 21
-5.404943
 31
0.0
  0
LINE
  5
563
100
AcDbEntity
  8
2
370
    50
100
AcDbLine
 10
-5.064091
 20
-4.797959
 30
0.0
 11
-5.911007
 21
-4.308992
 31
0.0
  0
LINE
  5
564
100
AcDbEntity
  8
2
370
    50
100
AcDbLine
 10
-6.743018
 20
-4.231742
 30
0.0
 11
-8.535804
 21
-4.862761
 31
0.0
  0
LINE
  5
565
100
AcDbEntity
  8
2
370
    50
100
AcDbLine
 10
-6.844775
 20
-5.327693
 30
0.0
 11
-8.532594
 21
-5.921766
 31
0.0
  0
ARC
  5
566
100
AcDbEntity
  8
2
370
    50
100
AcDbCircle
 10
20.541078
 20
-6.079934
 30
0.0
 40
2.0
100
AcDbArc
 50
45.820351
 51
121.41144
  0
ARC
  5
567
100
AcDbEntity
  8
2
370
    50
100
AcDbCircle
 10
15.481078
 20
-6.079934
 30
0.0
 40
2.0
100
AcDbArc
 50
45.820351
 51
121.41144
  0
ARC
  5
568
100
AcDbEntity
  8
2
370
    50
100
AcDbCircle
 10
10.421078
 20
-6.079934
 30
0.0
 40
2.0
100
AcDbArc
 50
45.820351
 51
121.41144
  0
ARC
  5
569
100
AcDbEntity
  8
2
370
    50
100
AcDbCircle
 10
5.361078
 20
-6.079934
 30
0.0
 40
2.0
100
AcDbArc
 50
45.820351
 51
121.41144
  0
ARC
  5
56A
100
AcDbEntity
  8
2
370
    50
100
AcDbCircle
 10
0.301078
 20
-6.079934
 30
0.0
 40
2.0
100
AcDbArc
 50
45.820351
 51
121.41144
  0
ARC
  5
56B
100
AcDbEntity
  8
2
370
    50
100
AcDbCircle
 10
-4.758922
 20
-6.079934
 30
0.0
 40
2.0
100
AcDbArc
 50
45.820351
 51
121.41144
  0
ARC
  5
56C
100
AcDbEntity
  8
2
370
    50
100
AcDbCircle
 10
18.989078
 20
-4.078198
 30
0.0
 40
2.0
100
AcDbArc
 50
225.031685
 51
299.98277
  0
ARC
  5
56D
100
AcDbEntity
  8
2
370
    50
100
AcDbCircle
 10
13.787078
 20
-4.078198
 30
0.0
 40
2.0
100
AcDbArc
 50
226.257576
 51
302.309196
  0
ARC
  5
56E
100
AcDbEntity
  8
2
370
    50
100
AcDbCircle
 10
8.585078
 20
-4.078198
 30
0.0
 40
2.0
100
AcDbArc
 50
227.499602
 51
304.587039
  0
ARC
  5
56F
100
AcDbEntity
  8
2
370
    50
100
AcDbCircle
 10
3.383078
 20
-4.078198
 30
0.0
 40
2.0
100
AcDbArc
 50
228.759026
 51
306.822622
  0
ARC
  5
570
100
AcDbEntity
  8
2
370
    50
100
AcDbCircle
 10
-1.818922
 20
-4.078198
 30
0.0
 40
2.0
100
AcDbArc
 50
230.037235
 51
309.021444
  0
ARC
  5
571
100
AcDbEntity
  8
2
370
    50
100
AcDbCircle
 10
-7.020922
 20
-4.078198
 30
0.0
 40
2.0
100
AcDbArc
 50
237.601247
 51
311.188358
  0
ARC
  5
572
100
AcDbEntity
  8
2
370
    50
100
AcDbCircle
 10
24.049298
 20
-5.114342
 30
0.0
 40
1.0
100
AcDbArc
 50
75.0
 51
105.0
  0
ARC
  5
573
100
AcDbEntity
  8
2
370
    50
100
AcDbCircle
 10
24.049298
 20
-6.149618
 30
0.0
 40
1.0
100
AcDbArc
 50
75.0
 51
105.0
  0
ARC
  5
574
100
AcDbEntity
  8
2
370
    50
100
AcDbCircle
 10
20.734699
 20
-3.931934
 30
0.0
 40
1.0
100
AcDbArc
 50
240.0
 51
285.0
  0
ARC
  5
575
100
AcDbEntity
  8
2
370
    50
100
AcDbCircle
 10
20.593419
 20
-5.005066
 30
0.0
 40
1.0
100
AcDbArc
 50
240.0
 51
285.0
  0
ARC
  5
576
100
AcDbEntity
  8
2
370
    50
100
AcDbCircle
 10
18.848259
 20
-5.152198
 30
0.0
 40
1.0
100
AcDbArc
 50
60.0
 51
105.0
  0
ARC
  5
577
100
AcDbEntity
  8
2
370
    50
100
AcDbCircle
 10
18.706978
 20
-6.22533
 30
0.0
 40
1.0
100
AcDbArc
 50
60.0
 51
105.0
  0
ARC
  5
578
100
AcDbEntity
  8
2
370
    50
100
AcDbCircle
 10
15.674941
 20
-3.931934
 30
0.0
 40
1.0
100
AcDbArc
 50
240.0
 51
285.0
  0
ARC
  5
579
100
AcDbEntity
  8
2
370
    50
100
AcDbCircle
 10
15.53366
 20
-5.005066
 30
0.0
 40
1.0
100
AcDbArc
 50
240.0
 51
285.0
  0
ARC
  5
57A
100
AcDbEntity
  8
2
370
    50
100
AcDbCircle
 10
13.788501
 20
-5.152198
 30
0.0
 40
1.0
100
AcDbArc
 50
60.0
 51
105.0
  0
ARC
  5
57B
100
AcDbEntity
  8
2
370
    50
100
AcDbCircle
 10
13.64722
 20
-6.22533
 30
0.0
 40
1.0
100
AcDbArc
 50
60.0
 51
105.0
  0
ARC
  5
57C
100
AcDbEntity
  8
2
370
    50
100
AcDbCircle
 10
10.615183
 20
-3.931934
 30
0.0
 40
1.0
100
AcDbArc
 50
240.0
 51
285.0
  0
ARC
  5
57D
100
AcDbEntity
  8
2
370
    50
100
AcDbCircle
 10
10.473902
 20
-5.005066
 30
0.0
 40
1.0
100
AcDbArc
 50
240.0
 51
285.0
  0
ARC
  5
57E
100
AcDbEntity
  8
2
370
    50
100
AcDbCircle
 10
8.728743
 20
-5.152198
 30
0.0
 40
1.0
100
AcDbArc
 50
60.0
 51
105.0
  0
ARC
  5
57F
100
AcDbEntity
  8
2
370
    50
100
AcDbCircle
 10
8.587462
 20
-6.22533
 30
0.0
 40
1.0
100
AcDbArc
 50
60.0
 51
105.0
  0
ARC
  5
580
100
AcDbEntity
  8
2
370
    50
100
AcDbCircle
 10
5.555425
 20
-3.931934
 30
0.0
 40
1.0
100
AcDbArc
 50
240.0
 51
285.0
  0
ARC
  5
581
100
AcDbEntity
  8
2
370
    50
100
AcDbCircle
 10
5.414144
 20
-5.005066
 30
0.0
 40
1.0
100
AcDbArc
 50
240.0
 51
285.0
  0
ARC
  5
582
100
AcDbEntity
  8
2
370
    50
100
AcDbCircle
 10
3.668985
 20
-5.152198
 30
0.0
 40
1.0
100
AcDbArc
 50
60.0
 51
105.0
  0
ARC
  5
583
100
AcDbEntity
  8
2
370
    50
100
AcDbCircle
 10
3.527704
 20
-6.22533
 30
0.0
 40
1.0
100
AcDbArc
 50
60.0
 51
105.0
  0
ARC
  5
584
100
AcDbEntity
  8
2
370
    50
100
AcDbCircle
 10
0.495667
 20
-3.931934
 30
0.0
 40
1.0
100
AcDbArc
 50
240.0
 51
285.0
  0
ARC
  5
585
100
AcDbEntity
  8
2
370
    50
100
AcDbCircle
 10
-1.532054
 20
-6.22533
 30
0.0
 40
1.0
100
AcDbArc
 50
60.0
 51
105.0
  0
ARC
  5
586
100
AcDbEntity
  8
2
370
    50
100
AcDbCircle
 10
-1.390773
 20
-5.152198
 30
0.0
 40
1.0
100
AcDbArc
 50
60.0
 51
105.0
  0
ARC
  5
587
100
AcDbEntity
  8
2
370
    50
100
AcDbCircle
 10
-4.705372
 20
-5.005066
 30
0.0
 40
1.0
100
AcDbArc
 50
240.0
 51
285.0
  0
ARC
  5
588
100
AcDbEntity
  8
2
370
    50
100
AcDbCircle
 10
-4.564091
 20
-3.931934
 30
0.0
 40
1.0
100
AcDbArc
 50
240.0
 51
285.0
  0
ARC
  5
589
100
AcDbEntity
  8
2
370
    50
100
AcDbCircle
 10
-6.411007
 20
-5.175017
 30
0.0
 40
1.0
100
AcDbArc
 50
60.0
 51
109.390879
  0
ARC
  5
58A
100
AcDbEntity
  8
2
370
    50
100
AcDbCircle
 10
-6.512764
 20
-6.270969
 30
0.0
 40
1.0
100
AcDbArc
 50
60.0
 51
109.390879
  0
ARC
  5
58B
100
AcDbEntity
  8
2
370
    50
100
AcDbCircle
 10
-8.864605
 20
-4.978491
 30
0.0
 40
1.0
100
AcDbArc
 50
255.0
 51
289.390879
  0
LINE
  5
58C
100
AcDbEntity
  8
2
370
    50
100
AcDbLine
 10
24.714196
 20
-18.078198
 30
0.0
 11
24.714196
 21
-14.078198
 31
0.0
  0
LINE
  5
58D
100
AcDbEntity
  8
2
370
    50
100
AcDbLine
 10
24.714196
 20
-2.579066
 30
0.0
 11
24.714196
 21
10.421802
 31
0.0
  0
LINE
  5
58E
100
AcDbEntity
  8
2
370
    25
100
AcDbLine
 10
23.964196
 20
-18.828198
 30
0.0
 11
23.964196
 21
-14.078198
 31
0.0
  0
LINE
  5
58F
100
AcDbEntity
  8
2
370
    25
100
AcDbLine
 10
23.964196
 20
-2.579066
 30
0.0
 11
23.964196
 21
10.421802
 31
0.0
  0
LINE
  5
590
100
AcDbEntity
  8
2
370
    25
100
AcDbLine
 10
-8.535804
 20
-18.828198
 30
0.0
 11
-8.535804
 21
-14.078198
 31
0.0
  0
LINE
  5
591
100
AcDbEntity
  8
2
370
    25
100
AcDbLine
 10
-8.535804
 20
-2.579066
 30
0.0
 11
-8.535804
 21
10.421802
 31
0.0
  0
LINE
  5
592
100
AcDbEntity
  8
2
370
    50
100
AcDbLine
 10
-9.285804
 20
-18.078198
 30
0.0
 11
-9.285804
 21
-14.078198
 31
0.0
  0
LINE
  5
593
100
AcDbEntity
  8
2
370
    50
100
AcDbLine
 10
-9.285804
 20
-2.579066
 30
0.0
 11
-9.285804
 21
10.421802
 31
0.0
  0
LINE
  5
594
100
AcDbEntity
  8
2
370
    50
100
AcDbLine
 10
-15.785804
 20
13.421802
 30
0.0
 11
31.214196
 21
13.421802
 31
0.0
  0
LINE
  5
595
100
AcDbEntity
  8
2
370
    50
100
AcDbLine
 10
-15.785804
 20
10.421802
 30
0.0
 11
31.214196
 21
10.421802
 31
0.0
  0
LINE
  5
596
100
AcDbEntity
  8
2
370
    50
100
AcDbLine
 10
31.214196
 20
13.421802
 30
0.0
 11
31.214196
 21
10.421802
 31
0.0
  0
LINE
  5
597
100
AcDbEntity
  8
2
370
    50
100
AcDbLine
 10
-15.785804
 20
13.421802
 30
0.0
 11
-15.785804
 21
10.421802
 31
0.0
  0
POINT
  5
598
100
AcDbEntity
  8
2
370
    50
100
AcDbPoint
 10
-16.78588
 20
227.521889
 30
0.0
  0
ARC
  5
599
100
AcDbEntity
  8
2
370
    25
100
AcDbCircle
 10
-40.319993
 20
222.290337
 30
0.0
 40
32.595428
100
AcDbArc
 50
0.0
 51
53.099061
  0
ARC
  5
59A
100
AcDbEntity
  8
2
370
    25
100
AcDbCircle
 10
-20.319861
 20
222.290337
 30
0.0
 40
12.595296
100
AcDbArc
 50
289.676055
 51
360.0
  0
POINT
  5
59B
100
AcDbEntity
  8
2
370
    50
100
AcDbPoint
 10
-346.860411
 20
284.421203
 30
0.0
  0
POINT
  5
59C
100
AcDbEntity
  8
2
370
    50
100
AcDbPoint
 10
-346.860411
 20
-17.490165
 30
0.0
  0
LINE
  5
59D
100
AcDbEntity
  8
2
370
    50
100
AcDbLine
 10
-324.110411
 20
13.921071
 30
0.0
 11
-324.110411
 21
13.721071
 31
0.0
  0
LINE
  5
59E
100
AcDbEntity
  8
2
370
    50
100
AcDbLine
 10
-369.610411
 20
13.921071
 30
0.0
 11
-369.610411
 21
13.721071
 31
0.0
  0
LINE
  5
59F
100
AcDbEntity
  8
2
370
    50
100
AcDbLine
 10
-324.110411
 20
13.721071
 30
0.0
 11
-324.410411
 21
13.421071
 31
0.0
  0
LINE
  5
5A0
100
AcDbEntity
  8
2
370
    50
100
AcDbLine
 10
-369.610411
 20
13.721071
 30
0.0
 11
-369.310411
 21
13.421071
 31
0.0
  0
LINE
  5
5A1
100
AcDbEntity
  8
2
370
    50
100
AcDbLine
 10
-324.110411
 20
13.721071
 30
0.0
 11
-369.610411
 21
13.721071
 31
0.0
  0
LINE
  5
5A2
100
AcDbEntity
  8
2
370
    50
100
AcDbLine
 10
-362.807911
 20
-29.078929
 30
0.0
 11
-330.807911
 21
-29.078929
 31
0.0
  0
LINE
  5
5A3
100
AcDbEntity
  8
2
370
    50
100
AcDbLine
 10
-330.807911
 20
-28.328929
 30
0.0
 11
-362.807911
 21
-28.328929
 31
0.0
  0
LINE
  5
5A4
100
AcDbEntity
  8
2
370
    50
100
AcDbLine
 10
-362.807911
 20
-19.078929
 30
0.0
 11
-330.807911
 21
-19.078929
 31
0.0
  0
LINE
  5
5A5
100
AcDbEntity
  8
2
370
    50
100
AcDbLine
 10
-330.807911
 20
-19.078929
 30
0.0
 11
-329.807911
 21
-18.078929
 31
0.0
  0
LINE
  5
5A6
100
AcDbEntity
  8
2
370
    50
100
AcDbLine
 10
-362.807911
 20
-19.078929
 30
0.0
 11
-363.807911
 21
-18.078929
 31
0.0
  0
LINE
  5
5A7
100
AcDbEntity
  8
2
370
    50
100
AcDbLine
 10
-329.807911
 20
-18.078929
 30
0.0
 11
-363.807911
 21
-18.078929
 31
0.0
  0
LINE
  5
5A8
100
AcDbEntity
  8
2
370
    50
100
AcDbLine
 10
-362.807911
 20
-20.078929
 30
0.0
 11
-330.807911
 21
-20.078929
 31
0.0
  0
LINE
  5
5A9
100
AcDbEntity
  8
2
370
    50
100
AcDbLine
 10
-369.707911
 20
-14.078929
 30
0.0
 11
-323.907911
 21
-14.078929
 31
0.0
  0
LINE
  5
5AA
100
AcDbEntity
  8
2
370
    50
100
AcDbLine
 10
-369.707911
 20
-6.078929
 30
0.0
 11
-323.907911
 21
-6.078929
 31
0.0
  0
LINE
  5
5AB
100
AcDbEntity
  8
2
370
    50
100
AcDbLine
 10
-323.907911
 20
-6.078929
 30
0.0
 11
-321.307911
 21
-6.775597
 31
0.0
  0
LINE
  5
5AC
100
AcDbEntity
  8
2
370
    50
100
AcDbLine
 10
-323.907911
 20
-14.078929
 30
0.0
 11
-321.307911
 21
-13.382261
 31
0.0
  0
LINE
  5
5AD
100
AcDbEntity
  8
2
370
    50
100
AcDbLine
 10
-321.307911
 20
-13.382261
 30
0.0
 11
-321.307911
 21
-6.775597
 31
0.0
  0
LINE
  5
5AE
100
AcDbEntity
  8
2
370
    50
100
AcDbLine
 10
-369.707911
 20
-6.078929
 30
0.0
 11
-372.307911
 21
-6.775597
 31
0.0
  0
LINE
  5
5AF
100
AcDbEntity
  8
2
370
    50
100
AcDbLine
 10
-372.307911
 20
-13.382261
 30
0.0
 11
-372.307911
 21
-6.775597
 31
0.0
  0
LINE
  5
5B0
100
AcDbEntity
  8
2
370
    50
100
AcDbLine
 10
-369.707911
 20
-14.078929
 30
0.0
 11
-372.307911
 21
-13.382261
 31
0.0
  0
LINE
  5
5B1
100
AcDbEntity
  8
2
370
    50
100
AcDbLine
 10
-332.395006
 20
-6.775597
 30
0.0
 11
-335.796553
 21
-6.775597
 31
0.0
  0
LINE
  5
5B2
100
AcDbEntity
  8
2
370
    50
100
AcDbLine
 10
-332.395006
 20
-13.382261
 30
0.0
 11
-335.796553
 21
-13.382261
 31
0.0
  0
LINE
  5
5B3
100
AcDbEntity
  8
2
370
    50
100
AcDbLine
 10
-335.796553
 20
-6.775597
 30
0.0
 11
-335.796553
 21
-13.382261
 31
0.0
  0
LINE
  5
5B4
100
AcDbEntity
  8
2
370
    50
100
AcDbLine
 10
-332.395006
 20
-6.775597
 30
0.0
 11
-332.395006
 21
-13.382261
 31
0.0
  0
ARC
  5
5B5
100
AcDbEntity
  8
2
370
    50
100
AcDbCircle
 10
-325.904549
 20
-36.661202
 30
0.0
 40
30.582274
100
AcDbArc
 50
85.634796
 51
102.253032
  0
ARC
  5
5B6
100
AcDbEntity
  8
2
370
    50
100
AcDbCircle
 10
-325.904549
 20
16.503345
 30
0.0
 40
30.582274
100
AcDbArc
 50
257.746968
 51
274.365204
  0
ARC
  5
5B7
100
AcDbEntity
  8
2
370
    50
100
AcDbCircle
 10
-346.807911
 20
-93.44864
 30
0.0
 40
87.369711
100
AcDbArc
 50
82.759658
 51
97.240342
  0
ARC
  5
5B8
100
AcDbEntity
  8
2
370
    50
100
AcDbCircle
 10
-346.807911
 20
73.290782
 30
0.0
 40
87.369711
100
AcDbArc
 50
262.759658
 51
277.240342
  0
LINE
  5
5B9
100
AcDbEntity
  8
2
370
    50
100
AcDbLine
 10
-361.220816
 20
-6.775597
 30
0.0
 11
-357.819269
 21
-6.775597
 31
0.0
  0
LINE
  5
5BA
100
AcDbEntity
  8
2
370
    50
100
AcDbLine
 10
-361.220816
 20
-13.382261
 30
0.0
 11
-357.819269
 21
-13.382261
 31
0.0
  0
LINE
  5
5BB
100
AcDbEntity
  8
2
370
    50
100
AcDbLine
 10
-357.819269
 20
-6.775597
 30
0.0
 11
-357.819269
 21
-13.382261
 31
0.0
  0
LINE
  5
5BC
100
AcDbEntity
  8
2
370
    50
100
AcDbLine
 10
-361.220816
 20
-6.775597
 30
0.0
 11
-361.220816
 21
-13.382261
 31
0.0
  0
ARC
  5
5BD
100
AcDbEntity
  8
2
370
    50
100
AcDbCircle
 10
-367.711273
 20
-36.661202
 30
0.0
 40
30.582274
100
AcDbArc
 50
77.746968
 51
94.365204
  0
ARC
  5
5BE
100
AcDbEntity
  8
2
370
    50
100
AcDbCircle
 10
-367.711273
 20
16.503345
 30
0.0
 40
30.582274
100
AcDbArc
 50
265.634796
 51
282.253032
  0
LINE
  5
5BF
100
AcDbEntity
  8
2
370
    50
100
AcDbLine
 10
-321.807911
 20
-4.079797
 30
0.0
 11
-321.807911
 21
-2.579797
 31
0.0
  0
LINE
  5
5C0
100
AcDbEntity
  8
2
370
    50
100
AcDbLine
 10
-371.807911
 20
-4.079797
 30
0.0
 11
-371.807911
 21
-2.579797
 31
0.0
  0
LINE
  5
5C1
100
AcDbEntity
  8
2
370
    50
100
AcDbLine
 10
-321.807911
 20
-4.079797
 30
0.0
 11
-371.807911
 21
-4.079797
 31
0.0
  0
LINE
  5
5C2
100
AcDbEntity
  8
2
370
    50
100
AcDbLine
 10
-321.807911
 20
-4.079797
 30
0.0
 11
-330.807911
 21
-4.079797
 31
0.0
  0
LINE
  5
5C3
100
AcDbEntity
  8
2
370
    50
100
AcDbLine
 10
-371.807911
 20
-2.579797
 30
0.0
 11
-321.807911
 21
-2.579797
 31
0.0
  0
LINE
  5
5C4
100
AcDbEntity
  8
2
370
    50
100
AcDbLine
 10
-371.807911
 20
-4.961607
 30
0.0
 11
-371.807911
 21
-4.340442
 31
0.0
  0
LINE
  5
5C5
100
AcDbEntity
  8
2
370
    50
100
AcDbLine
 10
-371.556147
 20
-4.147256
 30
0.0
 11
-368.748893
 21
-4.899458
 31
0.0
  0
LINE
  5
5C6
100
AcDbEntity
  8
2
370
    50
100
AcDbLine
 10
-371.659675
 20
-5.154793
 30
0.0
 11
-368.607612
 21
-5.97259
 31
0.0
  0
LINE
  5
5C7
100
AcDbEntity
  8
2
370
    50
100
AcDbLine
 10
-366.96085
 20
-5.360036
 30
0.0
 11
-367.848793
 21
-5.87269
 31
0.0
  0
LINE
  5
5C8
100
AcDbEntity
  8
2
370
    50
100
AcDbLine
 10
-367.990074
 20
-4.799558
 30
0.0
 11
-367.102131
 21
-4.286903
 31
0.0
  0
LINE
  5
5C9
100
AcDbEntity
  8
2
370
    50
100
AcDbLine
 10
-366.343312
 20
-4.187003
 30
0.0
 11
-363.684393
 21
-4.899458
 31
0.0
  0
LINE
  5
5CA
100
AcDbEntity
  8
2
370
    50
100
AcDbLine
 10
-366.202031
 20
-5.260135
 30
0.0
 11
-363.645531
 21
-5.945147
 31
0.0
  0
ARC
  5
5CB
100
AcDbEntity
  8
2
370
    50
100
AcDbCircle
 10
-368.348793
 20
-6.080664
 30
0.0
 40
2.0
100
AcDbArc
 50
57.713823
 51
133.754764
  0
ARC
  5
5CC
100
AcDbEntity
  8
2
370
    50
100
AcDbCircle
 10
-363.284793
 20
-6.080664
 30
0.0
 40
2.0
100
AcDbArc
 50
51.829858
 51
133.754764
  0
ARC
  5
5CD
100
AcDbEntity
  8
2
370
    50
100
AcDbCircle
 10
-366.548793
 20
-4.078929
 30
0.0
 40
2.0
100
AcDbArc
 50
236.854175
 51
313.291051
  0
ARC
  5
5CE
100
AcDbEntity
  8
2
370
    50
100
AcDbCircle
 10
-368.490074
 20
-3.933532
 30
0.0
 40
1.0
100
AcDbArc
 50
255.0
 51
300.0
  0
ARC
  5
5CF
100
AcDbEntity
  8
2
370
    50
100
AcDbCircle
 10
-368.348793
 20
-5.006664
 30
0.0
 40
1.0
100
AcDbArc
 50
255.0
 51
300.0
  0
ARC
  5
5D0
100
AcDbEntity
  8
2
370
    50
100
AcDbCircle
 10
-366.46085
 20
-6.226061
 30
0.0
 40
1.0
100
AcDbArc
 50
75.0
 51
120.0
  0
ARC
  5
5D1
100
AcDbEntity
  8
2
370
    50
100
AcDbCircle
 10
-366.602131
 20
-5.152929
 30
0.0
 40
1.0
100
AcDbArc
 50
75.0
 51
120.0
  0
ARC
  5
5D2
100
AcDbEntity
  8
2
370
    50
100
AcDbCircle
 10
-363.425574
 20
-3.933532
 30
0.0
 40
1.0
100
AcDbArc
 50
255.0
 51
291.57155
  0
ARC
  5
5D3
100
AcDbEntity
  8
2
370
    50
100
AcDbCircle
 10
-371.607911
 20
-4.340442
 30
0.0
 40
0.2
100
AcDbArc
 50
75.0
 51
180.0
  0
ARC
  5
5D4
100
AcDbEntity
  8
2
370
    50
100
AcDbCircle
 10
-371.607911
 20
-4.961607
 30
0.0
 40
0.2
100
AcDbArc
 50
180.0
 51
255.0
  0
LINE
  5
5D5
100
AcDbEntity
  8
2
370
    50
100
AcDbLine
 10
-321.807911
 20
-5.197986
 30
0.0
 11
-321.807911
 21
-5.819152
 31
0.0
  0
LINE
  5
5D6
100
AcDbEntity
  8
2
370
    50
100
AcDbLine
 10
-322.059675
 20
-6.012337
 30
0.0
 11
-324.866929
 21
-5.260135
 31
0.0
  0
LINE
  5
5D7
100
AcDbEntity
  8
2
370
    50
100
AcDbLine
 10
-321.956147
 20
-5.004801
 30
0.0
 11
-325.00821
 21
-4.187003
 31
0.0
  0
LINE
  5
5D8
100
AcDbEntity
  8
2
370
    50
100
AcDbLine
 10
-326.654972
 20
-4.799558
 30
0.0
 11
-325.767029
 21
-4.286903
 31
0.0
  0
LINE
  5
5D9
100
AcDbEntity
  8
2
370
    50
100
AcDbLine
 10
-325.625748
 20
-5.360036
 30
0.0
 11
-326.513692
 21
-5.87269
 31
0.0
  0
LINE
  5
5DA
100
AcDbEntity
  8
2
370
    50
100
AcDbLine
 10
-327.272511
 20
-5.97259
 30
0.0
 11
-330.21399
 21
-5.184423
 31
0.0
  0
LINE
  5
5DB
100
AcDbEntity
  8
2
370
    50
100
AcDbLine
 10
-327.413791
 20
-4.899458
 30
0.0
 11
-330.21399
 21
-4.149147
 31
0.0
  0
ARC
  5
5DC
100
AcDbEntity
  8
2
370
    50
100
AcDbCircle
 10
-325.267029
 20
-4.078929
 30
0.0
 40
2.0
100
AcDbArc
 50
237.713823
 51
313.754764
  0
ARC
  5
5DD
100
AcDbEntity
  8
2
370
    50
100
AcDbCircle
 10
-330.331029
 20
-4.078929
 30
0.0
 40
2.0
100
AcDbArc
 50
223.820775
 51
313.754764
  0
ARC
  5
5DE
100
AcDbEntity
  8
2
370
    50
100
AcDbCircle
 10
-327.067029
 20
-6.080664
 30
0.0
 40
2.0
100
AcDbArc
 50
56.854175
 51
133.291051
  0
ARC
  5
5DF
100
AcDbEntity
  8
2
370
    50
100
AcDbCircle
 10
-325.125748
 20
-6.226061
 30
0.0
 40
1.0
100
AcDbArc
 50
75.0
 51
120.0
  0
ARC
  5
5E0
100
AcDbEntity
  8
2
370
    50
100
AcDbCircle
 10
-325.267029
 20
-5.152929
 30
0.0
 40
1.0
100
AcDbArc
 50
75.0
 51
120.0
  0
ARC
  5
5E1
100
AcDbEntity
  8
2
370
    50
100
AcDbCircle
 10
-327.154972
 20
-3.933532
 30
0.0
 40
1.0
100
AcDbArc
 50
255.0
 51
300.0
  0
ARC
  5
5E2
100
AcDbEntity
  8
2
370
    50
100
AcDbCircle
 10
-327.013692
 20
-5.006664
 30
0.0
 40
1.0
100
AcDbArc
 50
255.0
 51
300.0
  0
ARC
  5
5E3
100
AcDbEntity
  8
2
370
    50
100
AcDbCircle
 10
-322.007911
 20
-5.819152
 30
0.0
 40
0.2
100
AcDbArc
 50
255.0
 51
360.0
  0
ARC
  5
5E4
100
AcDbEntity
  8
2
370
    50
100
AcDbCircle
 10
-322.007911
 20
-5.197986
 30
0.0
 40
0.2
100
AcDbArc
 50
360.0
 51
75.0
  0
LINE
  5
5E5
100
AcDbEntity
  8
2
370
    50
100
AcDbLine
 10
-330.731628
 20
-4.149147
 30
0.0
 11
-333.528589
 21
-4.89859
 31
0.0
  0
LINE
  5
5E6
100
AcDbEntity
  8
2
370
    50
100
AcDbLine
 10
-330.731628
 20
-5.184423
 30
0.0
 11
-333.669869
 21
-5.971722
 31
0.0
  0
LINE
  5
5E7
100
AcDbEntity
  8
2
370
    50
100
AcDbLine
 10
-334.428688
 20
-5.871822
 30
0.0
 11
-335.315128
 21
-5.360036
 31
0.0
  0
LINE
  5
5E8
100
AcDbEntity
  8
2
370
    50
100
AcDbLine
 10
-334.287408
 20
-4.79869
 30
0.0
 11
-335.173848
 21
-4.286903
 31
0.0
  0
LINE
  5
5E9
100
AcDbEntity
  8
2
370
    50
100
AcDbLine
 10
-335.932667
 20
-4.187003
 30
0.0
 11
-338.588347
 21
-4.89859
 31
0.0
  0
LINE
  5
5EA
100
AcDbEntity
  8
2
370
    50
100
AcDbLine
 10
-336.073948
 20
-5.260135
 30
0.0
 11
-338.729627
 21
-5.971722
 31
0.0
  0
LINE
  5
5EB
100
AcDbEntity
  8
2
370
    50
100
AcDbLine
 10
-339.488446
 20
-5.871822
 30
0.0
 11
-340.374887
 21
-5.360036
 31
0.0
  0
LINE
  5
5EC
100
AcDbEntity
  8
2
370
    50
100
AcDbLine
 10
-339.347166
 20
-4.79869
 30
0.0
 11
-340.233606
 21
-4.286903
 31
0.0
  0
LINE
  5
5ED
100
AcDbEntity
  8
2
370
    50
100
AcDbLine
 10
-340.992425
 20
-4.187003
 30
0.0
 11
-343.648105
 21
-4.89859
 31
0.0
  0
LINE
  5
5EE
100
AcDbEntity
  8
2
370
    50
100
AcDbLine
 10
-341.133706
 20
-5.260135
 30
0.0
 11
-343.789386
 21
-5.971722
 31
0.0
  0
LINE
  5
5EF
100
AcDbEntity
  8
2
370
    50
100
AcDbLine
 10
-344.548205
 20
-5.871822
 30
0.0
 11
-345.434645
 21
-5.360036
 31
0.0
  0
LINE
  5
5F0
100
AcDbEntity
  8
2
370
    50
100
AcDbLine
 10
-344.406924
 20
-4.79869
 30
0.0
 11
-345.293364
 21
-4.286903
 31
0.0
  0
LINE
  5
5F1
100
AcDbEntity
  8
2
370
    50
100
AcDbLine
 10
-346.052183
 20
-4.187003
 30
0.0
 11
-348.707863
 21
-4.89859
 31
0.0
  0
LINE
  5
5F2
100
AcDbEntity
  8
2
370
    50
100
AcDbLine
 10
-346.193464
 20
-5.260135
 30
0.0
 11
-348.849144
 21
-5.971722
 31
0.0
  0
LINE
  5
5F3
100
AcDbEntity
  8
2
370
    50
100
AcDbLine
 10
-349.607963
 20
-5.871822
 30
0.0
 11
-350.494403
 21
-5.360036
 31
0.0
  0
LINE
  5
5F4
100
AcDbEntity
  8
2
370
    50
100
AcDbLine
 10
-349.466682
 20
-4.79869
 30
0.0
 11
-350.353122
 21
-4.286903
 31
0.0
  0
LINE
  5
5F5
100
AcDbEntity
  8
2
370
    50
100
AcDbLine
 10
-351.111941
 20
-4.187003
 30
0.0
 11
-353.767621
 21
-4.89859
 31
0.0
  0
LINE
  5
5F6
100
AcDbEntity
  8
2
370
    50
100
AcDbLine
 10
-351.253222
 20
-5.260135
 30
0.0
 11
-354.309001
 21
-6.078929
 31
0.0
  0
LINE
  5
5F7
100
AcDbEntity
  8
2
370
    50
100
AcDbLine
 10
-354.541052
 20
-5.944954
 30
0.0
 11
-355.554161
 21
-5.360036
 31
0.0
  0
LINE
  5
5F8
100
AcDbEntity
  8
2
370
    50
100
AcDbLine
 10
-354.52644
 20
-4.79869
 30
0.0
 11
-355.41288
 21
-4.286903
 31
0.0
  0
LINE
  5
5F9
100
AcDbEntity
  8
2
370
    50
100
AcDbLine
 10
-356.171699
 20
-4.187003
 30
0.0
 11
-358.827379
 21
-4.89859
 31
0.0
  0
LINE
  5
5FA
100
AcDbEntity
  8
2
370
    50
100
AcDbLine
 10
-356.31298
 20
-5.260135
 30
0.0
 11
-358.96866
 21
-5.971722
 31
0.0
  0
LINE
  5
5FB
100
AcDbEntity
  8
2
370
    50
100
AcDbLine
 10
-359.727479
 20
-5.871822
 30
0.0
 11
-360.534871
 21
-5.405674
 31
0.0
  0
LINE
  5
5FC
100
AcDbEntity
  8
2
370
    50
100
AcDbLine
 10
-359.586198
 20
-4.79869
 30
0.0
 11
-360.433114
 21
-4.309723
 31
0.0
  0
LINE
  5
5FD
100
AcDbEntity
  8
2
370
    50
100
AcDbLine
 10
-361.265125
 20
-4.232473
 30
0.0
 11
-363.057911
 21
-4.863491
 31
0.0
  0
LINE
  5
5FE
100
AcDbEntity
  8
2
370
    50
100
AcDbLine
 10
-361.366882
 20
-5.328424
 30
0.0
 11
-363.054701
 21
-5.922497
 31
0.0
  0
ARC
  5
5FF
100
AcDbEntity
  8
2
370
    50
100
AcDbCircle
 10
-333.981029
 20
-6.080664
 30
0.0
 40
2.0
100
AcDbArc
 50
45.820351
 51
121.41144
  0
ARC
  5
600
100
AcDbEntity
  8
2
370
    50
100
AcDbCircle
 10
-339.041029
 20
-6.080664
 30
0.0
 40
2.0
100
AcDbArc
 50
45.820351
 51
121.41144
  0
ARC
  5
601
100
AcDbEntity
  8
2
370
    50
100
AcDbCircle
 10
-344.101029
 20
-6.080664
 30
0.0
 40
2.0
100
AcDbArc
 50
45.820351
 51
121.41144
  0
ARC
  5
602
100
AcDbEntity
  8
2
370
    50
100
AcDbCircle
 10
-349.161029
 20
-6.080664
 30
0.0
 40
2.0
100
AcDbArc
 50
45.820351
 51
121.41144
  0
ARC
  5
603
100
AcDbEntity
  8
2
370
    50
100
AcDbCircle
 10
-354.221029
 20
-6.080664
 30
0.0
 40
2.0
100
AcDbArc
 50
45.820351
 51
121.41144
  0
ARC
  5
604
100
AcDbEntity
  8
2
370
    50
100
AcDbCircle
 10
-359.281029
 20
-6.080664
 30
0.0
 40
2.0
100
AcDbArc
 50
45.820351
 51
121.41144
  0
ARC
  5
605
100
AcDbEntity
  8
2
370
    50
100
AcDbCircle
 10
-335.533029
 20
-4.078929
 30
0.0
 40
2.0
100
AcDbArc
 50
225.031685
 51
299.98277
  0
ARC
  5
606
100
AcDbEntity
  8
2
370
    50
100
AcDbCircle
 10
-340.735029
 20
-4.078929
 30
0.0
 40
2.0
100
AcDbArc
 50
226.257576
 51
302.309196
  0
ARC
  5
607
100
AcDbEntity
  8
2
370
    50
100
AcDbCircle
 10
-345.937029
 20
-4.078929
 30
0.0
 40
2.0
100
AcDbArc
 50
227.499602
 51
304.587039
  0
ARC
  5
608
100
AcDbEntity
  8
2
370
    50
100
AcDbCircle
 10
-351.139029
 20
-4.078929
 30
0.0
 40
2.0
100
AcDbArc
 50
228.759026
 51
306.822622
  0
ARC
  5
609
100
AcDbEntity
  8
2
370
    50
100
AcDbCircle
 10
-356.341029
 20
-4.078929
 30
0.0
 40
2.0
100
AcDbArc
 50
230.037235
 51
309.021444
  0
ARC
  5
60A
100
AcDbEntity
  8
2
370
    50
100
AcDbCircle
 10
-361.543029
 20
-4.078929
 30
0.0
 40
2.0
100
AcDbArc
 50
237.601247
 51
311.188358
  0
ARC
  5
60B
100
AcDbEntity
  8
2
370
    50
100
AcDbCircle
 10
-330.472809
 20
-5.115073
 30
0.0
 40
1.0
100
AcDbArc
 50
75.0
 51
105.0
  0
ARC
  5
60C
100
AcDbEntity
  8
2
370
    50
100
AcDbCircle
 10
-330.472809
 20
-6.150349
 30
0.0
 40
1.0
100
AcDbArc
 50
75.0
 51
105.0
  0
ARC
  5
60D
100
AcDbEntity
  8
2
370
    50
100
AcDbCircle
 10
-333.787408
 20
-3.932664
 30
0.0
 40
1.0
100
AcDbArc
 50
240.0
 51
285.0
  0
ARC
  5
60E
100
AcDbEntity
  8
2
370
    50
100
AcDbCircle
 10
-333.928688
 20
-5.005797
 30
0.0
 40
1.0
100
AcDbArc
 50
240.0
 51
285.0
  0
ARC
  5
60F
100
AcDbEntity
  8
2
370
    50
100
AcDbCircle
 10
-335.673848
 20
-5.152929
 30
0.0
 40
1.0
100
AcDbArc
 50
60.0
 51
105.0
  0
ARC
  5
610
100
AcDbEntity
  8
2
370
    50
100
AcDbCircle
 10
-335.815128
 20
-6.226061
 30
0.0
 40
1.0
100
AcDbArc
 50
60.0
 51
105.0
  0
ARC
  5
611
100
AcDbEntity
  8
2
370
    50
100
AcDbCircle
 10
-338.847166
 20
-3.932664
 30
0.0
 40
1.0
100
AcDbArc
 50
240.0
 51
285.0
  0
ARC
  5
612
100
AcDbEntity
  8
2
370
    50
100
AcDbCircle
 10
-338.988446
 20
-5.005797
 30
0.0
 40
1.0
100
AcDbArc
 50
240.0
 51
285.0
  0
ARC
  5
613
100
AcDbEntity
  8
2
370
    50
100
AcDbCircle
 10
-340.733606
 20
-5.152929
 30
0.0
 40
1.0
100
AcDbArc
 50
60.0
 51
105.0
  0
ARC
  5
614
100
AcDbEntity
  8
2
370
    50
100
AcDbCircle
 10
-340.874887
 20
-6.226061
 30
0.0
 40
1.0
100
AcDbArc
 50
60.0
 51
105.0
  0
ARC
  5
615
100
AcDbEntity
  8
2
370
    50
100
AcDbCircle
 10
-343.906924
 20
-3.932664
 30
0.0
 40
1.0
100
AcDbArc
 50
240.0
 51
285.0
  0
ARC
  5
616
100
AcDbEntity
  8
2
370
    50
100
AcDbCircle
 10
-344.048205
 20
-5.005797
 30
0.0
 40
1.0
100
AcDbArc
 50
240.0
 51
285.0
  0
ARC
  5
617
100
AcDbEntity
  8
2
370
    50
100
AcDbCircle
 10
-345.793364
 20
-5.152929
 30
0.0
 40
1.0
100
AcDbArc
 50
60.0
 51
105.0
  0
ARC
  5
618
100
AcDbEntity
  8
2
370
    50
100
AcDbCircle
 10
-345.934645
 20
-6.226061
 30
0.0
 40
1.0
100
AcDbArc
 50
60.0
 51
105.0
  0
ARC
  5
619
100
AcDbEntity
  8
2
370
    50
100
AcDbCircle
 10
-348.966682
 20
-3.932664
 30
0.0
 40
1.0
100
AcDbArc
 50
240.0
 51
285.0
  0
ARC
  5
61A
100
AcDbEntity
  8
2
370
    50
100
AcDbCircle
 10
-349.107963
 20
-5.005797
 30
0.0
 40
1.0
100
AcDbArc
 50
240.0
 51
285.0
  0
ARC
  5
61B
100
AcDbEntity
  8
2
370
    50
100
AcDbCircle
 10
-350.853122
 20
-5.152929
 30
0.0
 40
1.0
100
AcDbArc
 50
60.0
 51
105.0
  0
ARC
  5
61C
100
AcDbEntity
  8
2
370
    50
100
AcDbCircle
 10
-350.994403
 20
-6.226061
 30
0.0
 40
1.0
100
AcDbArc
 50
60.0
 51
105.0
  0
ARC
  5
61D
100
AcDbEntity
  8
2
370
    50
100
AcDbCircle
 10
-354.02644
 20
-3.932664
 30
0.0
 40
1.0
100
AcDbArc
 50
240.0
 51
285.0
  0
ARC
  5
61E
100
AcDbEntity
  8
2
370
    50
100
AcDbCircle
 10
-356.054161
 20
-6.226061
 30
0.0
 40
1.0
100
AcDbArc
 50
60.0
 51
105.0
  0
ARC
  5
61F
100
AcDbEntity
  8
2
370
    50
100
AcDbCircle
 10
-355.91288
 20
-5.152929
 30
0.0
 40
1.0
100
AcDbArc
 50
60.0
 51
105.0
  0
ARC
  5
620
100
AcDbEntity
  8
2
370
    50
100
AcDbCircle
 10
-359.227479
 20
-5.005797
 30
0.0
 40
1.0
100
AcDbArc
 50
240.0
 51
285.0
  0
ARC
  5
621
100
AcDbEntity
  8
2
370
    50
100
AcDbCircle
 10
-359.086198
 20
-3.932664
 30
0.0
 40
1.0
100
AcDbArc
 50
240.0
 51
285.0
  0
ARC
  5
622
100
AcDbEntity
  8
2
370
    50
100
AcDbCircle
 10
-360.933114
 20
-5.175748
 30
0.0
 40
1.0
100
AcDbArc
 50
60.0
 51
109.390879
  0
ARC
  5
623
100
AcDbEntity
  8
2
370
    50
100
AcDbCircle
 10
-361.034871
 20
-6.2717
 30
0.0
 40
1.0
100
AcDbArc
 50
60.0
 51
109.390879
  0
ARC
  5
624
100
AcDbEntity
  8
2
370
    50
100
AcDbCircle
 10
-363.386712
 20
-4.979222
 30
0.0
 40
1.0
100
AcDbArc
 50
255.0
 51
289.390879
  0
LINE
  5
625
100
AcDbEntity
  8
2
370
    50
100
AcDbLine
 10
-329.807911
 20
-18.078929
 30
0.0
 11
-329.807911
 21
-14.078929
 31
0.0
  0
LINE
  5
626
100
AcDbEntity
  8
2
370
    50
100
AcDbLine
 10
-329.807911
 20
-2.579797
 30
0.0
 11
-329.807911
 21
10.421071
 31
0.0
  0
LINE
  5
627
100
AcDbEntity
  8
2
370
    25
100
AcDbLine
 10
-330.557911
 20
-18.828929
 30
0.0
 11
-330.557911
 21
-14.078929
 31
0.0
  0
LINE
  5
628
100
AcDbEntity
  8
2
370
    25
100
AcDbLine
 10
-330.557911
 20
-2.579797
 30
0.0
 11
-330.557911
 21
10.421071
 31
0.0
  0
LINE
  5
629
100
AcDbEntity
  8
2
370
    25
100
AcDbLine
 10
-363.057911
 20
-18.828929
 30
0.0
 11
-363.057911
 21
-14.078929
 31
0.0
  0
LINE
  5
62A
100
AcDbEntity
  8
2
370
    25
100
AcDbLine
 10
-363.057911
 20
-2.579797
 30
0.0
 11
-363.057911
 21
10.421071
 31
0.0
  0
LINE
  5
62B
100
AcDbEntity
  8
2
370
    50
100
AcDbLine
 10
-363.807911
 20
-18.078929
 30
0.0
 11
-363.807911
 21
-14.078929
 31
0.0
  0
LINE
  5
62C
100
AcDbEntity
  8
2
370
    50
100
AcDbLine
 10
-363.807911
 20
-2.579797
 30
0.0
 11
-363.807911
 21
10.421071
 31
0.0
  0
ARC
  5
62D
100
AcDbEntity
  8
2
370
    50
100
AcDbCircle
 10
-340.060361
 20
-34.554396
 30
0.0
 40
0.2
100
AcDbArc
 50
0.0
 51
99.501632
  0
LINE
  5
62E
100
AcDbEntity
  8
2
370
    50
100
AcDbLine
 10
-330.807911
 20
-29.078929
 30
0.0
 11
-330.807911
 21
-19.078929
 31
0.0
  0
LINE
  5
62F
100
AcDbEntity
  8
2
370
    50
100
AcDbLine
 10
-362.807911
 20
-29.078929
 30
0.0
 11
-362.807911
 21
-19.078929
 31
0.0
  0
LINE
  5
630
100
AcDbEntity
  8
2
370
    50
100
AcDbLine
 10
-344.557911
 20
-86.478066
 30
0.0
 11
-333.057911
 21
-86.478066
 31
0.0
  0
ARC
  5
631
100
AcDbEntity
  8
2
370
    50
100
AcDbCircle
 10
-338.807911
 20
-83.165566
 30
0.0
 40
3.3125
100
AcDbArc
 50
270.0
 51
301.890792
  0
LINE
  5
632
100
AcDbEntity
  8
2
370
    50
100
AcDbLine
 10
-345.057911
 20
-71.478066
 30
0.0
 11
-345.057911
 21
-85.978066
 31
0.0
  0
LINE
  5
633
100
AcDbEntity
  8
2
370
    50
100
AcDbLine
 10
-344.557911
 20
-86.478066
 30
0.0
 11
-345.057911
 21
-85.978066
 31
0.0
  0
LINE
  5
634
100
AcDbEntity
  8
2
370
    50
100
AcDbLine
 10
-340.557911
 20
-71.478066
 30
0.0
 11
-340.557911
 21
-85.978066
 31
0.0
  0
LINE
  5
635
100
AcDbEntity
  8
2
370
    50
100
AcDbLine
 10
-343.129064
 20
-71.478066
 30
0.0
 11
-343.129064
 21
-85.978066
 31
0.0
  0
LINE
  5
636
100
AcDbEntity
  8
2
370
    50
100
AcDbLine
 10
-344.879064
 20
-71.478066
 30
0.0
 11
-344.879064
 21
-85.978066
 31
0.0
  0
LINE
  5
637
100
AcDbEntity
  8
2
370
    50
100
AcDbLine
 10
-345.057911
 20
-85.978066
 30
0.0
 11
-344.879064
 21
-85.978066
 31
0.0
  0
LINE
  5
638
100
AcDbEntity
  8
2
370
    50
100
AcDbLine
 10
-343.129064
 20
-85.978066
 30
0.0
 11
-340.557911
 21
-85.978066
 31
0.0
  0
ARC
  5
639
100
AcDbEntity
  8
2
370
    50
100
AcDbCircle
 10
-338.807911
 20
-83.165566
 30
0.0
 40
3.3125
100
AcDbArc
 50
238.109208
 51
270.0
  0
ARC
  5
63A
100
AcDbEntity
  8
2
370
    50
100
AcDbCircle
 10
-344.004064
 20
-85.462441
 30
0.0
 40
1.015625
100
AcDbArc
 50
210.510237
 51
329.489763
  0
LINE
  5
63B
100
AcDbEntity
  8
2
370
    25
  6
CENTER
100
AcDbLine
 10
-338.807911
 20
-24.414097
 30
0.0
 11
-338.807911
 21
-254.477936
 31
0.0
  0
LINE
  5
63C
100
AcDbEntity
  8
2
370
    50
100
AcDbLine
 10
-332.557911
 20
-71.478066
 30
0.0
 11
-332.557911
 21
-85.978066
 31
0.0
  0
LINE
  5
63D
100
AcDbEntity
  8
2
370
    50
100
AcDbLine
 10
-332.736759
 20
-71.478066
 30
0.0
 11
-332.736759
 21
-85.978066
 31
0.0
  0
LINE
  5
63E
100
AcDbEntity
  8
2
370
    50
100
AcDbLine
 10
-334.486759
 20
-71.478066
 30
0.0
 11
-334.486759
 21
-85.978066
 31
0.0
  0
LINE
  5
63F
100
AcDbEntity
  8
2
370
    50
100
AcDbLine
 10
-337.057911
 20
-71.478066
 30
0.0
 11
-337.057911
 21
-85.978066
 31
0.0
  0
LINE
  5
640
100
AcDbEntity
  8
2
370
    50
100
AcDbLine
 10
-334.486759
 20
-85.978066
 30
0.0
 11
-337.057911
 21
-85.978066
 31
0.0
  0
ARC
  5
641
100
AcDbEntity
  8
2
370
    50
100
AcDbCircle
 10
-333.611759
 20
-85.462441
 30
0.0
 40
1.015625
100
AcDbArc
 50
210.510237
 51
329.489763
  0
LINE
  5
642
100
AcDbEntity
  8
2
370
    50
100
AcDbLine
 10
-332.557911
 20
-85.978066
 30
0.0
 11
-332.736759
 21
-85.978066
 31
0.0
  0
LINE
  5
643
100
AcDbEntity
  8
2
370
    50
100
AcDbLine
 10
-333.057911
 20
-86.478066
 30
0.0
 11
-332.557911
 21
-85.978066
 31
0.0
  0
LINE
  5
644
100
AcDbEntity
  8
2
370
    50
100
AcDbLine
 10
-344.308144
 20
-92.378684
 30
0.0
 11
-333.308144
 21
-92.378684
 31
0.0
  0
LINE
  5
645
100
AcDbEntity
  8
2
370
    50
100
AcDbLine
 10
-344.807911
 20
-92.08939
 30
0.0
 11
-344.807911
 21
-86.766741
 31
0.0
  0
LINE
  5
646
100
AcDbEntity
  8
2
370
    50
100
AcDbLine
 10
-332.807911
 20
-92.08939
 30
0.0
 11
-332.807911
 21
-86.766741
 31
0.0
  0
LINE
  5
647
100
AcDbEntity
  8
2
370
    50
100
AcDbLine
 10
-336.409995
 20
-86.766741
 30
0.0
 11
-336.409995
 21
-92.08939
 31
0.0
  0
LINE
  5
648
100
AcDbEntity
  8
2
370
    50
100
AcDbLine
 10
-335.243729
 20
-86.766741
 30
0.0
 11
-335.243729
 21
-92.08939
 31
0.0
  0
LINE
  5
649
100
AcDbEntity
  8
2
370
    50
100
AcDbLine
 10
-332.845813
 20
-86.766741
 30
0.0
 11
-332.845813
 21
-92.08939
 31
0.0
  0
LINE
  5
64A
100
AcDbEntity
  8
2
370
    50
100
AcDbLine
 10
-333.307911
 20
-92.378066
 30
0.0
 11
-332.807911
 21
-92.08939
 31
0.0
  0
LINE
  5
64B
100
AcDbEntity
  8
2
370
    50
100
AcDbLine
 10
-335.243729
 20
-92.08939
 30
0.0
 11
-336.409995
 21
-92.08939
 31
0.0
  0
LINE
  5
64C
100
AcDbEntity
  8
2
370
    50
100
AcDbLine
 10
-344.807911
 20
-92.08939
 30
0.0
 11
-344.307911
 21
-92.378066
 31
0.0
  0
LINE
  5
64D
100
AcDbEntity
  8
2
370
    50
100
AcDbLine
 10
-344.807911
 20
-86.766741
 30
0.0
 11
-344.307911
 21
-86.478066
 31
0.0
  0
ARC
  5
64E
100
AcDbEntity
  8
2
370
    50
100
AcDbCircle
 10
-338.807911
 20
-82.274436
 30
0.0
 40
10.10363
100
AcDbArc
 50
270.0
 51
283.729133
  0
ARC
  5
64F
100
AcDbEntity
  8
2
370
    50
100
AcDbCircle
 10
-338.807911
 20
-96.581695
 30
0.0
 40
10.10363
100
AcDbArc
 50
76.270867
 51
90.0
  0
LINE
  5
650
100
AcDbEntity
  8
2
370
    50
100
AcDbLine
 10
-335.243729
 20
-86.766741
 30
0.0
 11
-336.409995
 21
-86.766741
 31
0.0
  0
LINE
  5
651
100
AcDbEntity
  8
2
370
    50
100
AcDbLine
 10
-332.807911
 20
-92.08939
 30
0.0
 11
-332.845813
 21
-92.08939
 31
0.0
  0
ARC
  5
652
100
AcDbEntity
  8
2
370
    50
100
AcDbCircle
 10
-334.044771
 20
-89.743905
 30
0.0
 40
2.634161
100
AcDbArc
 50
242.924933
 51
297.075067
  0
ARC
  5
653
100
AcDbEntity
  8
2
370
    50
100
AcDbCircle
 10
-334.044771
 20
-89.112226
 30
0.0
 40
2.634161
100
AcDbArc
 50
62.924933
 51
117.075067
  0
LINE
  5
654
100
AcDbEntity
  8
2
370
    50
100
AcDbLine
 10
-333.307911
 20
-86.478066
 30
0.0
 11
-332.807911
 21
-86.766741
 31
0.0
  0
LINE
  5
655
100
AcDbEntity
  8
2
370
    50
100
AcDbLine
 10
-332.807911
 20
-86.766741
 30
0.0
 11
-332.845813
 21
-86.766741
 31
0.0
  0
ARC
  5
656
100
AcDbEntity
  8
2
370
    50
100
AcDbCircle
 10
-338.807911
 20
-82.274436
 30
0.0
 40
10.10363
100
AcDbArc
 50
256.270867
 51
270.0
  0
LINE
  5
657
100
AcDbEntity
  8
2
370
    50
100
AcDbLine
 10
-342.372093
 20
-92.08939
 30
0.0
 11
-341.205827
 21
-92.08939
 31
0.0
  0
LINE
  5
658
100
AcDbEntity
  8
2
370
    50
100
AcDbLine
 10
-341.205826
 20
-86.766741
 30
0.0
 11
-341.205827
 21
-92.08939
 31
0.0
  0
LINE
  5
659
100
AcDbEntity
  8
2
370
    50
100
AcDbLine
 10
-342.372093
 20
-86.766741
 30
0.0
 11
-342.372093
 21
-92.08939
 31
0.0
  0
ARC
  5
65A
100
AcDbEntity
  8
2
370
    50
100
AcDbCircle
 10
-343.571051
 20
-89.743905
 30
0.0
 40
2.634161
100
AcDbArc
 50
242.924933
 51
297.075067
  0
LINE
  5
65B
100
AcDbEntity
  8
2
370
    50
100
AcDbLine
 10
-344.770009
 20
-86.766741
 30
0.0
 11
-344.770009
 21
-92.08939
 31
0.0
  0
LINE
  5
65C
100
AcDbEntity
  8
2
370
    50
100
AcDbLine
 10
-344.770009
 20
-92.08939
 30
0.0
 11
-344.807911
 21
-92.08939
 31
0.0
  0
ARC
  5
65D
100
AcDbEntity
  8
2
370
    50
100
AcDbCircle
 10
-338.807911
 20
-96.581695
 30
0.0
 40
10.10363
100
AcDbArc
 50
90.0
 51
103.729133
  0
ARC
  5
65E
100
AcDbEntity
  8
2
370
    50
100
AcDbCircle
 10
-343.571051
 20
-89.112226
 30
0.0
 40
2.634161
100
AcDbArc
 50
62.924933
 51
117.075067
  0
LINE
  5
65F
100
AcDbEntity
  8
2
370
    50
100
AcDbLine
 10
-342.372093
 20
-86.766741
 30
0.0
 11
-341.205827
 21
-86.766741
 31
0.0
  0
LINE
  5
660
100
AcDbEntity
  8
2
370
    50
100
AcDbLine
 10
-343.129064
 20
-71.478556
 30
0.0
 11
-340.557911
 21
-71.478556
 31
0.0
  0
LINE
  5
661
100
AcDbEntity
  8
2
370
    50
100
AcDbLine
 10
-334.486759
 20
-71.478556
 30
0.0
 11
-337.057911
 21
-71.478556
 31
0.0
  0
ARC
  5
662
100
AcDbEntity
  8
2
370
    50
100
AcDbCircle
 10
-338.807911
 20
-74.291056
 30
0.0
 40
3.3125
100
AcDbArc
 50
58.109208
 51
90.0
  0
ARC
  5
663
100
AcDbEntity
  8
2
370
    50
100
AcDbCircle
 10
-338.807911
 20
-74.291056
 30
0.0
 40
3.3125
100
AcDbArc
 50
90.0
 51
121.890792
  0
ARC
  5
664
100
AcDbEntity
  8
2
370
    50
100
AcDbCircle
 10
-333.611759
 20
-71.994181
 30
0.0
 40
1.015625
100
AcDbArc
 50
30.510237
 51
149.489763
  0
ARC
  5
665
100
AcDbEntity
  8
2
370
    50
100
AcDbCircle
 10
-344.004064
 20
-71.994181
 30
0.0
 40
1.015625
100
AcDbArc
 50
30.510237
 51
149.489763
  0
LINE
  5
666
100
AcDbEntity
  8
2
370
    50
100
AcDbLine
 10
-345.057911
 20
-71.478556
 30
0.0
 11
-344.879064
 21
-71.478556
 31
0.0
  0
LINE
  5
667
100
AcDbEntity
  8
2
370
    50
100
AcDbLine
 10
-344.557911
 20
-70.978556
 30
0.0
 11
-345.057911
 21
-71.478556
 31
0.0
  0
LINE
  5
668
100
AcDbEntity
  8
2
370
    50
100
AcDbLine
 10
-332.557911
 20
-71.478556
 30
0.0
 11
-332.736759
 21
-71.478556
 31
0.0
  0
LINE
  5
669
100
AcDbEntity
  8
2
370
    50
100
AcDbLine
 10
-333.057911
 20
-70.978556
 30
0.0
 11
-332.557911
 21
-71.478556
 31
0.0
  0
LINE
  5
66A
100
AcDbEntity
  8
2
370
    50
100
AcDbLine
 10
-344.557911
 20
-70.978556
 30
0.0
 11
-333.057911
 21
-70.978556
 31
0.0
  0
LINE
  5
66B
100
AcDbEntity
  8
2
370
    25
  6
CENTER
100
AcDbLine
 10
-354.807911
 20
-244.477936
 30
0.0
 11
-354.807911
 21
-24.414097
 31
0.0
  0
LINE
  5
66C
100
AcDbEntity
  8
2
370
    50
100
AcDbLine
 10
-349.807911
 20
-55.516697
 30
0.0
 11
-349.807911
 21
-60.978556
 31
0.0
  0
LINE
  5
66D
100
AcDbEntity
  8
2
370
    50
100
AcDbLine
 10
-359.807911
 20
-29.078929
 30
0.0
 11
-359.807911
 21
-60.978556
 31
0.0
  0
LINE
  5
66E
100
AcDbEntity
  8
2
370
    50
100
AcDbLine
 10
-349.007911
 20
-82.378684
 30
0.0
 11
-360.607911
 21
-82.378684
 31
0.0
  0
LINE
  5
66F
100
AcDbEntity
  8
2
370
    50
100
AcDbLine
 10
-361.307911
 20
-99.378684
 30
0.0
 11
-348.307911
 21
-99.378684
 31
0.0
  0
LINE
  5
670
100
AcDbEntity
  8
2
370
    50
100
AcDbLine
 10
-361.307911
 20
-99.378684
 30
0.0
 11
-361.307911
 21
-86.878684
 31
0.0
  0
LINE
  5
671
100
AcDbEntity
  8
2
370
    50
100
AcDbLine
 10
-348.307911
 20
-99.378684
 30
0.0
 11
-348.307911
 21
-86.878684
 31
0.0
  0
LINE
  5
672
100
AcDbEntity
  8
2
370
    50
100
AcDbLine
 10
-358.682241
 20
-85.378684
 30
0.0
 11
-358.682241
 21
-82.878684
 31
0.0
  0
LINE
  5
673
100
AcDbEntity
  8
2
370
    50
100
AcDbLine
 10
-359.389348
 20
-85.378684
 30
0.0
 11
-359.389348
 21
-82.878684
 31
0.0
  0
LINE
  5
674
100
AcDbEntity
  8
2
370
    50
100
AcDbLine
 10
-360.787041
 20
-85.378684
 30
0.0
 11
-360.787041
 21
-82.878684
 31
0.0
  0
LINE
  5
675
100
AcDbEntity
  8
2
370
    50
100
AcDbLine
 10
-360.807911
 20
-85.378684
 30
0.0
 11
-360.807911
 21
-82.578684
 31
0.0
  0
LINE
  5
676
100
AcDbEntity
  8
2
370
    50
100
AcDbLine
 10
-355.307911
 20
-85.378684
 30
0.0
 11
-355.307911
 21
-82.878684
 31
0.0
  0
LINE
  5
677
100
AcDbEntity
  8
2
370
    50
100
AcDbLine
 10
-354.307911
 20
-85.378684
 30
0.0
 11
-354.307911
 21
-82.878684
 31
0.0
  0
LINE
  5
678
100
AcDbEntity
  8
2
370
    50
100
AcDbLine
 10
-350.933581
 20
-85.378684
 30
0.0
 11
-350.933581
 21
-82.878684
 31
0.0
  0
LINE
  5
679
100
AcDbEntity
  8
2
370
    50
100
AcDbLine
 10
-350.226474
 20
-85.378684
 30
0.0
 11
-350.226474
 21
-82.878684
 31
0.0
  0
LINE
  5
67A
100
AcDbEntity
  8
2
370
    50
100
AcDbLine
 10
-348.807911
 20
-85.378684
 30
0.0
 11
-348.807911
 21
-82.578684
 31
0.0
  0
LINE
  5
67B
100
AcDbEntity
  8
2
370
    50
100
AcDbLine
 10
-348.828781
 20
-85.378684
 30
0.0
 11
-348.828781
 21
-82.878684
 31
0.0
  0
LINE
  5
67C
100
AcDbEntity
  8
2
370
    50
100
AcDbLine
 10
-359.389348
 20
-82.878684
 30
0.0
 11
-360.807911
 21
-82.878684
 31
0.0
  0
LINE
  5
67D
100
AcDbEntity
  8
2
370
    50
100
AcDbLine
 10
-355.307911
 20
-82.878684
 30
0.0
 11
-358.682241
 21
-82.878684
 31
0.0
  0
LINE
  5
67E
100
AcDbEntity
  8
2
370
    50
100
AcDbLine
 10
-348.807911
 20
-82.878684
 30
0.0
 11
-350.226474
 21
-82.878684
 31
0.0
  0
LINE
  5
67F
100
AcDbEntity
  8
2
370
    50
100
AcDbLine
 10
-350.933581
 20
-82.878684
 30
0.0
 11
-354.307911
 21
-82.878684
 31
0.0
  0
LINE
  5
680
100
AcDbEntity
  8
2
370
    50
100
AcDbLine
 10
-359.389348
 20
-85.378684
 30
0.0
 11
-360.807911
 21
-85.378684
 31
0.0
  0
LINE
  5
681
100
AcDbEntity
  8
2
370
    50
100
AcDbLine
 10
-355.307911
 20
-85.378684
 30
0.0
 11
-358.682241
 21
-85.378684
 31
0.0
  0
LINE
  5
682
100
AcDbEntity
  8
2
370
    50
100
AcDbLine
 10
-348.807911
 20
-85.378684
 30
0.0
 11
-350.226474
 21
-85.378684
 31
0.0
  0
LINE
  5
683
100
AcDbEntity
  8
2
370
    50
100
AcDbLine
 10
-350.933581
 20
-85.378684
 30
0.0
 11
-354.307911
 21
-85.378684
 31
0.0
  0
ARC
  5
684
100
AcDbEntity
  8
2
370
    50
100
AcDbCircle
 10
-349.007911
 20
-82.578684
 30
0.0
 40
0.2
100
AcDbArc
 50
0.0
 51
90.0
  0
ARC
  5
685
100
AcDbEntity
  8
2
370
    50
100
AcDbCircle
 10
-360.607911
 20
-82.578684
 30
0.0
 40
0.2
100
AcDbArc
 50
90.0
 51
180.0
  0
ARC
  5
686
100
AcDbEntity
  8
2
370
    50
100
AcDbCircle
 10
-358.807911
 20
-86.878684
 30
0.0
 40
2.5
100
AcDbArc
 50
143.130102
 51
180.0
  0
ARC
  5
687
100
AcDbEntity
  8
2
370
    50
100
AcDbCircle
 10
-350.807911
 20
-86.878684
 30
0.0
 40
2.5
100
AcDbArc
 50
0.0
 51
36.869898
  0
LINE
  5
688
100
AcDbEntity
  8
2
370
    25
100
AcDbLine
 10
-361.288652
 20
-99.378684
 30
0.0
 11
-361.288652
 21
-86.878684
 31
0.0
  0
LINE
  5
689
100
AcDbEntity
  8
2
370
    25
100
AcDbLine
 10
-359.74404
 20
-99.378684
 30
0.0
 11
-359.74404
 21
-86.878684
 31
0.0
  0
LINE
  5
68A
100
AcDbEntity
  8
2
370
    25
100
AcDbLine
 10
-359.036933
 20
-99.378684
 30
0.0
 11
-359.036933
 21
-86.878684
 31
0.0
  0
LINE
  5
68B
100
AcDbEntity
  8
2
370
    25
100
AcDbLine
 10
-355.307911
 20
-99.378684
 30
0.0
 11
-355.307911
 21
-86.878684
 31
0.0
  0
LINE
  5
68C
100
AcDbEntity
  8
2
370
    25
100
AcDbLine
 10
-354.307911
 20
-99.378684
 30
0.0
 11
-354.307911
 21
-86.878684
 31
0.0
  0
LINE
  5
68D
100
AcDbEntity
  8
2
370
    25
100
AcDbLine
 10
-350.578889
 20
-99.378684
 30
0.0
 11
-350.578889
 21
-86.878684
 31
0.0
  0
LINE
  5
68E
100
AcDbEntity
  8
2
370
    25
100
AcDbLine
 10
-349.871782
 20
-99.378684
 30
0.0
 11
-349.871782
 21
-86.878684
 31
0.0
  0
LINE
  5
68F
100
AcDbEntity
  8
2
370
    25
100
AcDbLine
 10
-348.32717
 20
-99.378684
 30
0.0
 11
-348.32717
 21
-86.878684
 31
0.0
  0
LINE
  5
690
100
AcDbEntity
  8
2
370
    25
100
AcDbLine
 10
-350.742047
 20
-115.595042
 30
0.0
 11
-358.873775
 21
-107.463314
 31
0.0
  0
LINE
  5
691
100
AcDbEntity
  8
2
370
    25
100
AcDbLine
 10
-350.742047
 20
-107.463314
 30
0.0
 11
-358.873775
 21
-115.595042
 31
0.0
  0
LINE
  5
692
100
AcDbEntity
  8
2
370
    25
100
AcDbLine
 10
-351.511114
 20
-116.240189
 30
0.0
 11
-359.518922
 21
-108.23238
 31
0.0
  0
LINE
  5
693
100
AcDbEntity
  8
2
370
    25
100
AcDbLine
 10
-352.410137
 20
-116.755379
 30
0.0
 11
-360.034112
 21
-109.131404
 31
0.0
  0
LINE
  5
694
100
AcDbEntity
  8
2
370
    25
100
AcDbLine
 10
-353.460622
 20
-117.119107
 30
0.0
 11
-360.397841
 21
-110.181889
 31
0.0
  0
LINE
  5
695
100
AcDbEntity
  8
2
370
    25
100
AcDbLine
 10
-354.715508
 20
-117.278435
 30
0.0
 11
-360.557169
 21
-111.436775
 31
0.0
  0
LINE
  5
696
100
AcDbEntity
  8
2
370
    25
100
AcDbLine
 10
-356.335648
 20
-117.072509
 30
0.0
 11
-360.351242
 21
-113.056915
 31
0.0
  0
LINE
  5
697
100
AcDbEntity
  8
2
370
    25
100
AcDbLine
 10
-350.0969
 20
-114.825975
 30
0.0
 11
-358.104709
 21
-106.818167
 31
0.0
  0
LINE
  5
698
100
AcDbEntity
  8
2
370
    25
100
AcDbLine
 10
-349.58171
 20
-113.926952
 30
0.0
 11
-357.205685
 21
-106.302977
 31
0.0
  0
LINE
  5
699
100
AcDbEntity
  8
2
370
    25
100
AcDbLine
 10
-349.217982
 20
-112.876467
 30
0.0
 11
-356.1552
 21
-105.939248
 31
0.0
  0
LINE
  5
69A
100
AcDbEntity
  8
2
370
    25
100
AcDbLine
 10
-349.058654
 20
-111.621581
 30
0.0
 11
-354.900314
 21
-105.77992
 31
0.0
  0
LINE
  5
69B
100
AcDbEntity
  8
2
370
    25
100
AcDbLine
 10
-349.26458
 20
-110.001441
 30
0.0
 11
-353.280174
 21
-105.985847
 31
0.0
  0
LINE
  5
69C
100
AcDbEntity
  8
2
370
    25
100
AcDbLine
 10
-351.511114
 20
-106.818167
 30
0.0
 11
-359.518922
 21
-114.825975
 31
0.0
  0
LINE
  5
69D
100
AcDbEntity
  8
2
370
    25
100
AcDbLine
 10
-352.410137
 20
-106.302977
 30
0.0
 11
-360.034112
 21
-113.926952
 31
0.0
  0
LINE
  5
69E
100
AcDbEntity
  8
2
370
    25
100
AcDbLine
 10
-353.460622
 20
-105.939248
 30
0.0
 11
-360.397841
 21
-112.876467
 31
0.0
  0
LINE
  5
69F
100
AcDbEntity
  8
2
370
    25
100
AcDbLine
 10
-354.715508
 20
-105.77992
 30
0.0
 11
-360.557169
 21
-111.621581
 31
0.0
  0
LINE
  5
6A0
100
AcDbEntity
  8
2
370
    25
100
AcDbLine
 10
-356.335648
 20
-105.985847
 30
0.0
 11
-360.351242
 21
-110.001441
 31
0.0
  0
LINE
  5
6A1
100
AcDbEntity
  8
2
370
    25
100
AcDbLine
 10
-350.0969
 20
-108.23238
 30
0.0
 11
-358.104709
 21
-116.240189
 31
0.0
  0
LINE
  5
6A2
100
AcDbEntity
  8
2
370
    25
100
AcDbLine
 10
-349.58171
 20
-109.131404
 30
0.0
 11
-357.205685
 21
-116.755379
 31
0.0
  0
LINE
  5
6A3
100
AcDbEntity
  8
2
370
    25
100
AcDbLine
 10
-349.217982
 20
-110.181889
 30
0.0
 11
-356.1552
 21
-117.119107
 31
0.0
  0
LINE
  5
6A4
100
AcDbEntity
  8
2
370
    25
100
AcDbLine
 10
-349.058654
 20
-111.436775
 30
0.0
 11
-354.900314
 21
-117.278435
 31
0.0
  0
LINE
  5
6A5
100
AcDbEntity
  8
2
370
    25
100
AcDbLine
 10
-349.26458
 20
-113.056915
 30
0.0
 11
-353.280174
 21
-117.072509
 31
0.0
  0
LINE
  5
6A6
100
AcDbEntity
  8
2
370
    50
100
AcDbLine
 10
-349.057911
 20
-131.100011
 30
0.0
 11
-349.057911
 21
-99.378684
 31
0.0
  0
LINE
  5
6A7
100
AcDbEntity
  8
2
370
    50
100
AcDbLine
 10
-360.557911
 20
-99.378684
 30
0.0
 11
-360.557911
 21
-131.100011
 31
0.0
  0
ARC
  5
6A8
100
AcDbEntity
  8
2
370
    50
100
AcDbCircle
 10
-357.682911
 20
-127.26793
 30
0.0
 40
4.791667
100
AcDbArc
 50
233.130102
 51
306.869898
  0
ARC
  5
6A9
100
AcDbEntity
  8
2
370
    50
100
AcDbCircle
 10
-351.932911
 20
-134.934597
 30
0.0
 40
4.791667
100
AcDbArc
 50
53.130102
 51
126.869898
  0
ARC
  5
6AA
100
AcDbEntity
  8
2
370
    50
100
AcDbCircle
 10
-357.682911
 20
-134.934597
 30
0.0
 40
4.791667
100
AcDbArc
 50
53.130102
 51
126.869898
  0
LINE
  5
6AB
100
AcDbEntity
  8
2
370
    50
100
AcDbLine
 10
-360.557911
 20
-76.478066
 30
0.0
 11
-349.057911
 21
-76.478066
 31
0.0
  0
ARC
  5
6AC
100
AcDbEntity
  8
2
370
    50
100
AcDbCircle
 10
-354.807911
 20
-73.165566
 30
0.0
 40
3.3125
100
AcDbArc
 50
270.0
 51
301.890792
  0
LINE
  5
6AD
100
AcDbEntity
  8
2
370
    50
100
AcDbLine
 10
-361.057911
 20
-61.478066
 30
0.0
 11
-361.057911
 21
-75.978066
 31
0.0
  0
LINE
  5
6AE
100
AcDbEntity
  8
2
370
    50
100
AcDbLine
 10
-360.557911
 20
-76.478066
 30
0.0
 11
-361.057911
 21
-75.978066
 31
0.0
  0
LINE
  5
6AF
100
AcDbEntity
  8
2
370
    50
100
AcDbLine
 10
-356.557911
 20
-61.478066
 30
0.0
 11
-356.557911
 21
-75.978066
 31
0.0
  0
LINE
  5
6B0
100
AcDbEntity
  8
2
370
    50
100
AcDbLine
 10
-359.129064
 20
-61.478066
 30
0.0
 11
-359.129064
 21
-75.978066
 31
0.0
  0
LINE
  5
6B1
100
AcDbEntity
  8
2
370
    50
100
AcDbLine
 10
-360.879064
 20
-61.478066
 30
0.0
 11
-360.879064
 21
-75.978066
 31
0.0
  0
LINE
  5
6B2
100
AcDbEntity
  8
2
370
    50
100
AcDbLine
 10
-361.057911
 20
-75.978066
 30
0.0
 11
-360.879064
 21
-75.978066
 31
0.0
  0
LINE
  5
6B3
100
AcDbEntity
  8
2
370
    50
100
AcDbLine
 10
-359.129064
 20
-75.978066
 30
0.0
 11
-356.557911
 21
-75.978066
 31
0.0
  0
ARC
  5
6B4
100
AcDbEntity
  8
2
370
    50
100
AcDbCircle
 10
-354.807911
 20
-73.165566
 30
0.0
 40
3.3125
100
AcDbArc
 50
238.109208
 51
270.0
  0
ARC
  5
6B5
100
AcDbEntity
  8
2
370
    50
100
AcDbCircle
 10
-360.004064
 20
-75.462441
 30
0.0
 40
1.015625
100
AcDbArc
 50
210.510237
 51
329.489763
  0
LINE
  5
6B6
100
AcDbEntity
  8
2
370
    50
100
AcDbLine
 10
-348.557911
 20
-61.478066
 30
0.0
 11
-348.557911
 21
-75.978066
 31
0.0
  0
LINE
  5
6B7
100
AcDbEntity
  8
2
370
    50
100
AcDbLine
 10
-348.736759
 20
-61.478066
 30
0.0
 11
-348.736759
 21
-75.978066
 31
0.0
  0
LINE
  5
6B8
100
AcDbEntity
  8
2
370
    50
100
AcDbLine
 10
-350.486759
 20
-61.478066
 30
0.0
 11
-350.486759
 21
-75.978066
 31
0.0
  0
LINE
  5
6B9
100
AcDbEntity
  8
2
370
    50
100
AcDbLine
 10
-353.057911
 20
-61.478066
 30
0.0
 11
-353.057911
 21
-75.978066
 31
0.0
  0
LINE
  5
6BA
100
AcDbEntity
  8
2
370
    50
100
AcDbLine
 10
-350.486759
 20
-75.978066
 30
0.0
 11
-353.057911
 21
-75.978066
 31
0.0
  0
ARC
  5
6BB
100
AcDbEntity
  8
2
370
    50
100
AcDbCircle
 10
-349.611759
 20
-75.462441
 30
0.0
 40
1.015625
100
AcDbArc
 50
210.510237
 51
329.489763
  0
LINE
  5
6BC
100
AcDbEntity
  8
2
370
    50
100
AcDbLine
 10
-348.557911
 20
-75.978066
 30
0.0
 11
-348.736759
 21
-75.978066
 31
0.0
  0
LINE
  5
6BD
100
AcDbEntity
  8
2
370
    50
100
AcDbLine
 10
-349.057911
 20
-76.478066
 30
0.0
 11
-348.557911
 21
-75.978066
 31
0.0
  0
LINE
  5
6BE
100
AcDbEntity
  8
2
370
    50
100
AcDbLine
 10
-360.308144
 20
-82.378684
 30
0.0
 11
-349.308144
 21
-82.378684
 31
0.0
  0
LINE
  5
6BF
100
AcDbEntity
  8
2
370
    50
100
AcDbLine
 10
-360.807911
 20
-82.08939
 30
0.0
 11
-360.807911
 21
-76.766741
 31
0.0
  0
LINE
  5
6C0
100
AcDbEntity
  8
2
370
    50
100
AcDbLine
 10
-348.807911
 20
-82.08939
 30
0.0
 11
-348.807911
 21
-76.766741
 31
0.0
  0
LINE
  5
6C1
100
AcDbEntity
  8
2
370
    50
100
AcDbLine
 10
-352.409995
 20
-76.766741
 30
0.0
 11
-352.409995
 21
-82.08939
 31
0.0
  0
LINE
  5
6C2
100
AcDbEntity
  8
2
370
    50
100
AcDbLine
 10
-351.243729
 20
-76.766741
 30
0.0
 11
-351.243729
 21
-82.08939
 31
0.0
  0
LINE
  5
6C3
100
AcDbEntity
  8
2
370
    50
100
AcDbLine
 10
-348.845813
 20
-76.766741
 30
0.0
 11
-348.845813
 21
-82.08939
 31
0.0
  0
LINE
  5
6C4
100
AcDbEntity
  8
2
370
    50
100
AcDbLine
 10
-349.307911
 20
-82.378066
 30
0.0
 11
-348.807911
 21
-82.08939
 31
0.0
  0
LINE
  5
6C5
100
AcDbEntity
  8
2
370
    50
100
AcDbLine
 10
-351.243729
 20
-82.08939
 30
0.0
 11
-352.409995
 21
-82.08939
 31
0.0
  0
LINE
  5
6C6
100
AcDbEntity
  8
2
370
    50
100
AcDbLine
 10
-360.807911
 20
-82.08939
 30
0.0
 11
-360.307911
 21
-82.378066
 31
0.0
  0
LINE
  5
6C7
100
AcDbEntity
  8
2
370
    50
100
AcDbLine
 10
-360.807911
 20
-76.766741
 30
0.0
 11
-360.307911
 21
-76.478066
 31
0.0
  0
ARC
  5
6C8
100
AcDbEntity
  8
2
370
    50
100
AcDbCircle
 10
-354.807911
 20
-72.274436
 30
0.0
 40
10.10363
100
AcDbArc
 50
270.0
 51
283.729133
  0
ARC
  5
6C9
100
AcDbEntity
  8
2
370
    50
100
AcDbCircle
 10
-354.807911
 20
-86.581695
 30
0.0
 40
10.10363
100
AcDbArc
 50
76.270867
 51
90.0
  0
LINE
  5
6CA
100
AcDbEntity
  8
2
370
    50
100
AcDbLine
 10
-351.243729
 20
-76.766741
 30
0.0
 11
-352.409995
 21
-76.766741
 31
0.0
  0
LINE
  5
6CB
100
AcDbEntity
  8
2
370
    50
100
AcDbLine
 10
-348.807911
 20
-82.08939
 30
0.0
 11
-348.845813
 21
-82.08939
 31
0.0
  0
ARC
  5
6CC
100
AcDbEntity
  8
2
370
    50
100
AcDbCircle
 10
-350.044771
 20
-79.743905
 30
0.0
 40
2.634161
100
AcDbArc
 50
242.924933
 51
297.075067
  0
ARC
  5
6CD
100
AcDbEntity
  8
2
370
    50
100
AcDbCircle
 10
-350.044771
 20
-79.112226
 30
0.0
 40
2.634161
100
AcDbArc
 50
62.924933
 51
117.075067
  0
LINE
  5
6CE
100
AcDbEntity
  8
2
370
    50
100
AcDbLine
 10
-349.307911
 20
-76.478066
 30
0.0
 11
-348.807911
 21
-76.766741
 31
0.0
  0
LINE
  5
6CF
100
AcDbEntity
  8
2
370
    50
100
AcDbLine
 10
-348.807911
 20
-76.766741
 30
0.0
 11
-348.845813
 21
-76.766741
 31
0.0
  0
ARC
  5
6D0
100
AcDbEntity
  8
2
370
    50
100
AcDbCircle
 10
-354.807911
 20
-72.274436
 30
0.0
 40
10.10363
100
AcDbArc
 50
256.270867
 51
270.0
  0
LINE
  5
6D1
100
AcDbEntity
  8
2
370
    50
100
AcDbLine
 10
-358.372093
 20
-82.08939
 30
0.0
 11
-357.205827
 21
-82.08939
 31
0.0
  0
LINE
  5
6D2
100
AcDbEntity
  8
2
370
    50
100
AcDbLine
 10
-357.205826
 20
-76.766741
 30
0.0
 11
-357.205827
 21
-82.08939
 31
0.0
  0
LINE
  5
6D3
100
AcDbEntity
  8
2
370
    50
100
AcDbLine
 10
-358.372093
 20
-76.766741
 30
0.0
 11
-358.372093
 21
-82.08939
 31
0.0
  0
ARC
  5
6D4
100
AcDbEntity
  8
2
370
    50
100
AcDbCircle
 10
-359.571051
 20
-79.743905
 30
0.0
 40
2.634161
100
AcDbArc
 50
242.924933
 51
297.075067
  0
LINE
  5
6D5
100
AcDbEntity
  8
2
370
    50
100
AcDbLine
 10
-360.770009
 20
-76.766741
 30
0.0
 11
-360.770009
 21
-82.08939
 31
0.0
  0
LINE
  5
6D6
100
AcDbEntity
  8
2
370
    50
100
AcDbLine
 10
-360.770009
 20
-82.08939
 30
0.0
 11
-360.807911
 21
-82.08939
 31
0.0
  0
ARC
  5
6D7
100
AcDbEntity
  8
2
370
    50
100
AcDbCircle
 10
-354.807911
 20
-86.581695
 30
0.0
 40
10.10363
100
AcDbArc
 50
90.0
 51
103.729133
  0
ARC
  5
6D8
100
AcDbEntity
  8
2
370
    50
100
AcDbCircle
 10
-359.571051
 20
-79.112226
 30
0.0
 40
2.634161
100
AcDbArc
 50
62.924933
 51
117.075067
  0
LINE
  5
6D9
100
AcDbEntity
  8
2
370
    50
100
AcDbLine
 10
-358.372093
 20
-76.766741
 30
0.0
 11
-357.205827
 21
-76.766741
 31
0.0
  0
LINE
  5
6DA
100
AcDbEntity
  8
2
370
    50
100
AcDbLine
 10
-359.129064
 20
-61.478556
 30
0.0
 11
-356.557911
 21
-61.478556
 31
0.0
  0
LINE
  5
6DB
100
AcDbEntity
  8
2
370
    50
100
AcDbLine
 10
-350.486759
 20
-61.478556
 30
0.0
 11
-353.057911
 21
-61.478556
 31
0.0
  0
ARC
  5
6DC
100
AcDbEntity
  8
2
370
    50
100
AcDbCircle
 10
-354.807911
 20
-64.291056
 30
0.0
 40
3.3125
100
AcDbArc
 50
58.109208
 51
90.0
  0
ARC
  5
6DD
100
AcDbEntity
  8
2
370
    50
100
AcDbCircle
 10
-354.807911
 20
-64.291056
 30
0.0
 40
3.3125
100
AcDbArc
 50
90.0
 51
121.890792
  0
ARC
  5
6DE
100
AcDbEntity
  8
2
370
    50
100
AcDbCircle
 10
-349.611759
 20
-61.994181
 30
0.0
 40
1.015625
100
AcDbArc
 50
30.510237
 51
149.489763
  0
ARC
  5
6DF
100
AcDbEntity
  8
2
370
    50
100
AcDbCircle
 10
-360.004064
 20
-61.994181
 30
0.0
 40
1.015625
100
AcDbArc
 50
30.510237
 51
149.489763
  0
LINE
  5
6E0
100
AcDbEntity
  8
2
370
    50
100
AcDbLine
 10
-361.057911
 20
-61.478556
 30
0.0
 11
-360.879064
 21
-61.478556
 31
0.0
  0
LINE
  5
6E1
100
AcDbEntity
  8
2
370
    50
100
AcDbLine
 10
-360.557911
 20
-60.978556
 30
0.0
 11
-361.057911
 21
-61.478556
 31
0.0
  0
LINE
  5
6E2
100
AcDbEntity
  8
2
370
    50
100
AcDbLine
 10
-348.557911
 20
-61.478556
 30
0.0
 11
-348.736759
 21
-61.478556
 31
0.0
  0
LINE
  5
6E3
100
AcDbEntity
  8
2
370
    50
100
AcDbLine
 10
-349.057911
 20
-60.978556
 30
0.0
 11
-348.557911
 21
-61.478556
 31
0.0
  0
LINE
  5
6E4
100
AcDbEntity
  8
2
370
    50
100
AcDbLine
 10
-360.557911
 20
-60.978556
 30
0.0
 11
-349.057911
 21
-60.978556
 31
0.0
  0
LINE
  5
6E5
100
AcDbEntity
  8
2
370
    25
  6
CENTER
100
AcDbLine
 10
202.937439
 20
7.814964
 30
0.0
 11
202.937439
 21
340.200993
 31
0.0
  0
LINE
  5
6E6
100
AcDbEntity
  8
2
370
    50
100
AcDbLine
 10
180.438405
 20
333.421449
 30
0.0
 11
225.438405
 21
333.421449
 31
0.0
  0
ARC
  5
6E7
100
AcDbEntity
  8
2
370
    50
100
AcDbCircle
 10
225.438405
 20
331.421449
 30
0.0
 40
2.0
100
AcDbArc
 50
0.0
 51
90.0
  0
ARC
  5
6E8
100
AcDbEntity
  8
2
370
    50
100
AcDbCircle
 10
180.438405
 20
331.421449
 30
0.0
 40
2.0
100
AcDbArc
 50
90.0
 51
180.0
  0
POINT
  5
6E9
100
AcDbEntity
  8
2
370
    50
100
AcDbPoint
 10
202.937439
 20
197.421444
 30
0.0
  0
LINE
  5
6EA
100
AcDbEntity
  8
2
370
    25
  6
CENTER
100
AcDbLine
 10
-133.570786
 20
294.947687
 30
0.0
 11
-142.947495
 21
274.83927
 31
0.0
  0
POINT
  5
6EB
100
AcDbEntity
  8
2
370
    50
100
AcDbPoint
 10
7.714196
 20
22.421444
 30
0.0
  0
LINE
  5
6EC
100
AcDbEntity
  8
2
370
    50
100
AcDbLine
 10
70.778852
 20
-190.053244
 30
0.0
 11
70.778852
 21
-186.051877
 31
0.0
  0
LINE
  5
6ED
100
AcDbEntity
  8
2
370
    50
100
AcDbLine
 10
57.278852
 20
-190.053244
 30
0.0
 11
57.278852
 21
-186.051877
 31
0.0
  0
LINE
  5
6EE
100
AcDbEntity
  8
2
370
    50
100
AcDbLine
 10
70.778852
 20
-186.051877
 30
0.0
 11
70.478852
 21
-185.751877
 31
0.0
  0
LINE
  5
6EF
100
AcDbEntity
  8
2
370
    50
100
AcDbLine
 10
57.278852
 20
-186.051877
 30
0.0
 11
57.578852
 21
-185.751877
 31
0.0
  0
LWPOLYLINE
  5
6F0
100
AcDbEntity
  8
2
370
    50
100
AcDbPolyline
 90
       13
 70
     0
 10
18.814196
 20
-63.319707
 10
19.039857
 20
-63.349318
 10
19.267184
 20
-63.391914
 10
19.495672
 20
-63.443062
 10
20.18303
 20
-63.603491
 10
20.411095
 20
-63.644521
 10
20.637788
 20
-63.671941
 10
20.862604
 20
-63.681316
 10
21.242436
 20
-63.648184
 10
21.616393
 20
-63.559662
 10
21.985594
 20
-63.426286
 10
22.351156
 20
-63.258594
 10
22.714196
 20
-63.067124
  0
LINE
  5
6FF
100
AcDbEntity
  8
2
370
    25
  6
CENTER
100
AcDbLine
 10
18.714196
 20
-68.716957
 30
0.0
 11
64.028852
 21
-60.421604
 31
0.0
  0
LINE
  5
700
100
AcDbEntity
  8
2
370
    25
  6
CENTER
100
AcDbLine
 10
3.341695
 20
-25.995342
 30
0.0
 11
3.341695
 21
-295.517143
 31
0.0
  0
LWPOLYLINE
  5
701
100
AcDbEntity
  8
2
370
    50
100
AcDbPolyline
 90
       32
 70
     0
 10
-361.795569
 20
304.004263
 10
-361.308222
 20
304.130311
 10
-360.823184
 20
304.232891
 10
-360.3409
 20
304.307461
 10
-359.861817
 20
304.349484
 10
-359.386381
 20
304.35442
 10
-358.673912
 20
304.286285
 10
-357.96812
 20
304.13745
 10
-357.266298
 20
303.9226
 10
-355.157606
 20
303.028818
 10
-354.444618
 20
302.696765
 10
-353.722075
 20
302.372125
 10
-352.987272
 20
302.069584
 10
-352.250477
 20
301.805689
 10
-351.502282
 20
301.579472
 10
-350.745784
 20
301.392986
 10
-348.457409
 20
301.092431
 10
-346.205703
 20
301.223328
 10
-345.477723
 20
301.372415
 10
-344.766197
 20
301.577649
 10
-344.074217
 20
301.841084
 10
-343.268251
 20
302.233192
 10
-342.485376
 20
302.683141
 10
-341.715808
 20
303.161295
 10
-340.949766
 20
303.638016
 10
-340.177467
 20
304.083669
 10
-339.389128
 20
304.468616
 10
-338.026433
 20
304.922947
 10
-336.603098
 20
305.165122
 10
-335.129795
 20
305.232474
 10
-333.617195
 20
305.16234
 10
-332.075968
 20
304.992051
  0
ELLIPSE
  5
723
100
AcDbEntity
  8
2
370
    50
100
AcDbEllipse
 10
-346.860411
 20
302.797703
 30
0.0
 11
15.0
 21
0.0
 31
0.0
210
0.0
220
0.0
230
1.0
 40
0.866023
 41
3.0485769999999999
 42
0.169735
  0
LINE
  5
724
100
AcDbEntity
  8
2
370
    50
100
AcDbLine
 10
-322.307911
 20
175.121071
 30
0.0
 11
-322.307911
 21
14.221071
 31
0.0
  0
LINE
  5
725
100
AcDbEntity
  8
2
370
    50
100
AcDbLine
 10
-371.307911
 20
175.121071
 30
0.0
 11
-371.307911
 21
14.221071
 31
0.0
  0
LINE
  5
726
100
AcDbEntity
  8
2
370
    50
100
AcDbLine
 10
-371.007911
 20
175.421071
 30
0.0
 11
-368.807911
 21
175.421071
 31
0.0
  0
LINE
  5
727
100
AcDbEntity
  8
2
370
    50
100
AcDbLine
 10
-322.607911
 20
175.421071
 30
0.0
 11
-346.807911
 21
175.421071
 31
0.0
  0
LINE
  5
728
100
AcDbEntity
  8
2
370
    50
100
AcDbLine
 10
-371.007911
 20
13.921071
 30
0.0
 11
-322.607911
 21
13.921071
 31
0.0
  0
LINE
  5
729
100
AcDbEntity
  8
2
370
    50
100
AcDbLine
 10
-322.607911
 20
13.921071
 30
0.0
 11
-322.307911
 21
14.221071
 31
0.0
  0
LINE
  5
72A
100
AcDbEntity
  8
2
370
    50
100
AcDbLine
 10
-371.007911
 20
13.921071
 30
0.0
 11
-371.307911
 21
14.221071
 31
0.0
  0
LINE
  5
72B
100
AcDbEntity
  8
2
370
    50
100
AcDbLine
 10
-371.007911
 20
175.421071
 30
0.0
 11
-371.307911
 21
175.121071
 31
0.0
  0
LINE
  5
72C
100
AcDbEntity
  8
2
370
    50
100
AcDbLine
 10
-322.607911
 20
175.421071
 30
0.0
 11
-322.307911
 21
175.121071
 31
0.0
  0
LINE
  5
72D
100
AcDbEntity
  8
2
370
    50
100
AcDbLine
 10
-322.307911
 20
14.221071
 30
0.0
 11
-371.307911
 21
14.221071
 31
0.0
  0
LINE
  5
72E
100
AcDbEntity
  8
2
370
    50
100
AcDbLine
 10
-322.307911
 20
175.121071
 30
0.0
 11
-371.307911
 21
175.121071
 31
0.0
  0
LINE
  5
72F
100
AcDbEntity
  8
2
370
    50
100
AcDbLine
 10
32.214196
 20
175.121444
 30
0.0
 11
32.214196
 21
14.221444
 31
0.0
  0
LINE
  5
730
100
AcDbEntity
  8
2
370
    50
100
AcDbLine
 10
-16.785804
 20
175.121444
 30
0.0
 11
-16.785804
 21
14.221444
 31
0.0
  0
LINE
  5
731
100
AcDbEntity
  8
2
370
    50
100
AcDbLine
 10
-16.485804
 20
13.921444
 30
0.0
 11
31.914196
 21
13.921444
 31
0.0
  0
LINE
  5
732
100
AcDbEntity
  8
2
370
    50
100
AcDbLine
 10
31.914196
 20
13.921444
 30
0.0
 11
32.214196
 21
14.221444
 31
0.0
  0
LINE
  5
733
100
AcDbEntity
  8
2
370
    50
100
AcDbLine
 10
-16.485804
 20
13.921444
 30
0.0
 11
-16.785804
 21
14.221444
 31
0.0
  0
LINE
  5
734
100
AcDbEntity
  8
2
370
    50
100
AcDbLine
 10
-16.485804
 20
175.421444
 30
0.0
 11
-16.785804
 21
175.121444
 31
0.0
  0
LINE
  5
735
100
AcDbEntity
  8
2
370
    50
100
AcDbLine
 10
31.914196
 20
175.421444
 30
0.0
 11
32.214196
 21
175.121444
 31
0.0
  0
LINE
  5
736
100
AcDbEntity
  8
2
370
    25
  6
CENTER
100
AcDbLine
 10
7.714196
 20
-30.253994
 30
0.0
 11
7.714196
 21
336.34293
 31
0.0
  0
LINE
  5
737
100
AcDbEntity
  8
2
370
    50
100
AcDbLine
 10
32.214196
 20
14.221444
 30
0.0
 11
-16.785804
 21
14.221444
 31
0.0
  0
LINE
  5
738
100
AcDbEntity
  8
2
370
    50
100
AcDbLine
 10
32.214196
 20
175.121444
 30
0.0
 11
-16.785804
 21
175.121444
 31
0.0
  0
LINE
  5
739
100
AcDbEntity
  8
2
370
    25
  6
CENTER
100
AcDbLine
 10
64.028852
 20
-295.517143
 30
0.0
 11
-346.807911
 21
-295.517143
 31
0.0
  0
LINE
  5
73A
100
AcDbEntity
  8
2
370
    50
100
AcDbLine
 10
227.437439
 20
174.821802
 30
0.0
 11
227.437439
 21
13.921802
 31
0.0
  0
LINE
  5
73B
100
AcDbEntity
  8
2
370
    50
100
AcDbLine
 10
178.437439
 20
174.821802
 30
0.0
 11
178.437439
 21
13.921802
 31
0.0
  0
LINE
  5
73C
100
AcDbEntity
  8
2
370
    50
100
AcDbLine
 10
178.737439
 20
13.621802
 30
0.0
 11
227.137439
 21
13.621802
 31
0.0
  0
LINE
  5
73D
100
AcDbEntity
  8
2
370
    50
100
AcDbLine
 10
227.137439
 20
13.621802
 30
0.0
 11
227.437439
 21
13.921802
 31
0.0
  0
LINE
  5
73E
100
AcDbEntity
  8
2
370
    50
100
AcDbLine
 10
178.737439
 20
13.621802
 30
0.0
 11
178.437439
 21
13.921802
 31
0.0
  0
LINE
  5
73F
100
AcDbEntity
  8
2
370
    50
100
AcDbLine
 10
178.737439
 20
175.121802
 30
0.0
 11
178.437439
 21
174.821802
 31
0.0
  0
LINE
  5
740
100
AcDbEntity
  8
2
370
    50
100
AcDbLine
 10
227.137439
 20
175.121802
 30
0.0
 11
227.437439
 21
174.821802
 31
0.0
  0
LINE
  5
741
100
AcDbEntity
  8
2
370
    50
100
AcDbLine
 10
227.437439
 20
13.921802
 30
0.0
 11
178.437439
 21
13.921802
 31
0.0
  0
LINE
  5
742
100
AcDbEntity
  8
2
370
    50
100
AcDbLine
 10
227.437439
 20
174.821802
 30
0.0
 11
178.437439
 21
174.821802
 31
0.0
  0
ARC
  5
743
100
AcDbEntity
  8
2
370
    50
100
AcDbCircle
 10
57.329016
 20
-262.396673
 30
0.0
 40
0.3
100
AcDbArc
 50
75.807415
 51
180.0
  0
LINE
  5
744
100
AcDbEntity
  8
2
370
    50
100
AcDbLine
 10
57.40257
 20
-262.105829
 30
0.0
 11
70.80257
 21
-265.494706
 31
0.0
  0
ARC
  5
745
100
AcDbEntity
  8
2
370
    50
100
AcDbCircle
 10
70.729016
 20
-265.785549
 30
0.0
 40
0.3
100
AcDbArc
 50
0.0
 51
75.807415
  0
LINE
  5
746
100
AcDbEntity
  8
2
370
    50
100
AcDbLine
 10
69.929016
 20
-270.238686
 30
0.0
 11
69.929016
 21
-270.135538
 31
0.0
  0
LINE
  5
747
100
AcDbEntity
  8
2
370
    50
100
AcDbLine
 10
69.929016
 20
-268.175719
 30
0.0
 11
69.929016
 21
-268.278867
 31
0.0
  0
LINE
  5
748
100
AcDbEntity
  8
2
370
    50
100
AcDbLine
 10
58.129016
 20
-267.254452
 30
0.0
 11
58.129016
 21
-267.151304
 31
0.0
  0
LINE
  5
749
100
AcDbEntity
  8
2
370
    50
100
AcDbLine
 10
58.129016
 20
-265.294633
 30
0.0
 11
58.129016
 21
-265.191484
 31
0.0
  0
TEXT
  5
74A
100
AcDbEntity
  8
3
370
    50
100
AcDbText
 10
-311.453026
 20
323.770889
 30
0.0
 40
10.5
  1
青色
 72
     5
 11
-292.553026
 21
323.770889
 31
0.0
100
AcDbText
  0
TEXT
  5
74B
100
AcDbEntity
  8
3
370
    50
100
AcDbText
 10
-311.552361
 20
310.06778
 30
0.0
 40
10.5
  1
（水表示）
 72
     5
 11
-261.152361
 21
310.06778
 31
0.0
100
AcDbText
  0
TEXT
  5
74C
100
AcDbEntity
  8
3
370
    50
100
AcDbText
 10
-404.252113
 20
323.973495
 30
0.0
 40
10.5
  1
赤色
 72
     5
 11
-385.352113
 21
323.973495
 31
0.0
100
AcDbText
  0
TEXT
  5
74D
100
AcDbEntity
  8
3
370
    50
100
AcDbText
 10
-429.061646
 20
310.938995
 30
0.0
 40
10.5
  1
（湯表示）
 72
     5
 11
-378.661646
 21
310.938995
 31
0.0
100
AcDbText
  0
LWPOLYLINE
  5
74E
100
AcDbEntity
  8
3
370
    25
100
AcDbPolyline
 90
        3
 70
     0
 10
-345.027685
 20
308.55197
 10
-318.868933
 20
328.49066
 10
-314.043493
 20
328.49066
  0
LINE
  5
753
100
AcDbEntity
  8
3
370
    25
100
AcDbLine
 10
-340.418415
 20
312.065242
 30
0.0
 11
-341.359793
 21
313.300293
 31
0.0
  0
LINE
  5
754
100
AcDbEntity
  8
3
370
    25
100
AcDbLine
 10
-341.359793
 20
313.300293
 30
0.0
 11
-345.027685
 21
308.55197
 31
0.0
  0
LINE
  5
755
100
AcDbEntity
  8
3
370
    25
100
AcDbLine
 10
-345.027685
 20
308.55197
 30
0.0
 11
-339.477036
 21
310.830192
 31
0.0
  0
LINE
  5
756
100
AcDbEntity
  8
3
370
    25
100
AcDbLine
 10
-339.477036
 20
310.830192
 30
0.0
 11
-340.418415
 21
312.065242
 31
0.0
  0
LWPOLYLINE
  5
757
100
AcDbEntity
  8
3
370
    25
100
AcDbPolyline
 90
        3
 70
     0
 10
-348.981186
 20
308.55197
 10
-375.139938
 20
328.49066
 10
-379.965378
 20
328.49066
  0
LINE
  5
75C
100
AcDbEntity
  8
3
370
    25
100
AcDbLine
 10
-353.590457
 20
312.065242
 30
0.0
 11
-354.531835
 21
310.830192
 31
0.0
  0
LINE
  5
75D
100
AcDbEntity
  8
3
370
    25
100
AcDbLine
 10
-354.531835
 20
310.830192
 30
0.0
 11
-348.981186
 21
308.55197
 31
0.0
  0
LINE
  5
75E
100
AcDbEntity
  8
3
370
    25
100
AcDbLine
 10
-348.981186
 20
308.55197
 30
0.0
 11
-352.649078
 21
313.300293
 31
0.0
  0
LINE
  5
75F
100
AcDbEntity
  8
3
370
    25
100
AcDbLine
 10
-352.649078
 20
313.300293
 30
0.0
 11
-353.590457
 21
312.065242
 31
0.0
  0
TEXT
  5
760
100
AcDbEntity
  8
3
370
    50
100
AcDbText
 10
-244.525668
 20
-248.384622
 30
0.0
 40
10.5
  1
２４六角
 72
     5
 11
-204.625668
 21
-248.384622
 31
0.0
100
AcDbText
  0
TEXT
  5
761
100
AcDbEntity
  8
3
370
    50
100
AcDbText
 10
-243.149857
 20
-287.286621
 30
0.0
 40
10.5
  1
Ｇ１／２
 72
     5
 11
-203.249857
 21
-287.286621
 31
0.0
100
AcDbText
  0
LWPOLYLINE
  5
762
100
AcDbEntity
  8
3
370
    25
100
AcDbPolyline
 90
        3
 70
     0
 10
-263.663673
 20
-261.194391
 10
-245.90964
 20
-249.703241
 10
-201.88134
 20
-249.703241
  0
LINE
  5
767
100
AcDbEntity
  8
3
370
    25
100
AcDbLine
 10
-258.798304
 20
-258.045321
 30
0.0
 11
-259.642094
 21
-256.741649
 31
0.0
  0
LINE
  5
768
100
AcDbEntity
  8
3
370
    25
100
AcDbLine
 10
-259.642094
 20
-256.741649
 30
0.0
 11
-263.663673
 21
-261.194391
 31
0.0
  0
LINE
  5
769
100
AcDbEntity
  8
3
370
    25
100
AcDbLine
 10
-263.663673
 20
-261.194391
 30
0.0
 11
-257.954513
 21
-259.348993
 31
0.0
  0
LINE
  5
76A
100
AcDbEntity
  8
3
370
    25
100
AcDbLine
 10
-257.954513
 20
-259.348993
 30
0.0
 11
-258.798304
 21
-258.045321
 31
0.0
  0
LWPOLYLINE
  5
76B
100
AcDbEntity
  8
3
370
    25
100
AcDbPolyline
 90
        3
 70
     0
 10
-273.033297
 20
-266.600237
 10
-244.214328
 20
-288.783975
 10
-202.710007
 20
-288.783975
  0
LINE
  5
770
100
AcDbEntity
  8
3
370
    25
100
AcDbLine
 10
-268.44078
 20
-270.13538
 30
0.0
 11
-267.493541
 21
-268.904819
 31
0.0
  0
LINE
  5
771
100
AcDbEntity
  8
3
370
    25
100
AcDbLine
 10
-267.493541
 20
-268.904819
 30
0.0
 11
-273.033297
 21
-266.600237
 31
0.0
  0
LINE
  5
772
100
AcDbEntity
  8
3
370
    25
100
AcDbLine
 10
-273.033297
 20
-266.600237
 30
0.0
 11
-269.388019
 21
-271.365942
 31
0.0
  0
LINE
  5
773
100
AcDbEntity
  8
3
370
    25
100
AcDbLine
 10
-269.388019
 20
-271.365942
 30
0.0
 11
-268.44078
 21
-270.13538
 31
0.0
  0
TEXT
  5
774
100
AcDbEntity
  8
3
370
    50
100
AcDbText
 10
-409.74791
 20
-301.307259
 30
0.0
 40
10.5
  1
逆止弁内蔵
 72
     5
 11
-359.34791
 21
-301.307259
 31
0.0
100
AcDbText
  0
LWPOLYLINE
  5
775
100
AcDbEntity
  8
3
370
    25
100
AcDbPolyline
 90
        3
 70
     0
 10
-406.968008
 20
-235.449693
 10
-370.746481
 20
-277.681428
 10
-370.746481
 20
-287.817003
  0
LINE
  5
77A
100
AcDbEntity
  8
3
370
    25
100
AcDbLine
 10
-403.194936
 20
-239.848828
 30
0.0
 11
-402.016192
 21
-238.837836
 31
0.0
  0
LINE
  5
77B
100
AcDbEntity
  8
3
370
    25
100
AcDbLine
 10
-402.016192
 20
-238.837836
 30
0.0
 11
-406.968008
 21
-235.449693
 31
0.0
  0
LINE
  5
77C
100
AcDbEntity
  8
3
370
    25
100
AcDbLine
 10
-406.968008
 20
-235.449693
 30
0.0
 11
-404.373681
 21
-240.859819
 31
0.0
  0
LINE
  5
77D
100
AcDbEntity
  8
3
370
    25
100
AcDbLine
 10
-404.373681
 20
-240.859819
 30
0.0
 11
-403.194936
 21
-239.848828
 31
0.0
  0
LWPOLYLINE
  5
77E
100
AcDbEntity
  8
3
370
    25
100
AcDbPolyline
 90
        2
 70
     0
 10
-286.667471
 20
-242.394441
 10
-370.754934
 20
-277.673738
  0
LINE
  5
782
100
AcDbEntity
  8
3
370
    25
100
AcDbLine
 10
-292.011718
 20
-244.636646
 30
0.0
 11
-291.410921
 21
-246.068632
 31
0.0
  0
LINE
  5
783
100
AcDbEntity
  8
3
370
    25
100
AcDbLine
 10
-291.410921
 20
-246.068632
 30
0.0
 11
-286.667471
 21
-242.394441
 31
0.0
  0
LINE
  5
784
100
AcDbEntity
  8
3
370
    25
100
AcDbLine
 10
-286.667471
 20
-242.394441
 30
0.0
 11
-292.612515
 21
-243.204659
 31
0.0
  0
LINE
  5
785
100
AcDbEntity
  8
3
370
    25
100
AcDbLine
 10
-292.612515
 20
-243.204659
 30
0.0
 11
-292.011718
 21
-244.636646
 31
0.0
  0
TEXT
  5
786
100
AcDbEntity
  8
3
370
    50
100
AcDbText
 10
-298.124984
 20
-37.627372
 30
0.0
 40
10.5
  1
４６六角
 72
     5
 11
-258.224984
 21
-37.627372
 31
0.0
100
AcDbText
  0
TEXT
  5
787
100
AcDbEntity
  8
3
370
    50
100
AcDbText
 10
131.365334
 20
192.718666
 30
0.0
 40
10.5
  1
φ５．５
 72
     5
 11
171.265334
 21
192.718666
 31
0.0
100
AcDbText
  0
TEXT
  5
788
100
AcDbEntity
  8
3
370
    50
100
AcDbText
 10
-82.939399
 20
338.385999
 30
0.0
 40
10.5
  1
止水
 72
     5
 11
-64.039399
 21
338.385999
 31
0.0
100
AcDbText
  0
TEXT
  5
789
100
AcDbEntity
  8
3
370
    50
100
AcDbText
 10
-50.831308
 20
372.880964
 30
0.0
 40
10.5
  1
吐水
 72
     5
 11
-31.931308
 21
372.880964
 31
0.0
100
AcDbText
  0
LWPOLYLINE
  5
78A
100
AcDbEntity
  8
3
370
    25
100
AcDbPolyline
 90
        3
 70
     0
 10
200.595097
 20
195.980635
 10
192.889505
 20
191.202068
 10
130.491531
 20
191.202068
  0
LINE
  5
78F
100
AcDbEntity
  8
3
370
    25
100
AcDbLine
 10
195.669754
 20
192.926219
 30
0.0
 11
196.488182
 21
191.606478
 31
0.0
  0
LINE
  5
790
100
AcDbEntity
  8
3
370
    25
100
AcDbLine
 10
196.488182
 20
191.606478
 30
0.0
 11
200.595097
 21
195.980635
 31
0.0
  0
LINE
  5
791
100
AcDbEntity
  8
3
370
    25
100
AcDbLine
 10
200.595097
 20
195.980635
 30
0.0
 11
194.851326
 21
194.245961
 31
0.0
  0
LINE
  5
792
100
AcDbEntity
  8
3
370
    25
100
AcDbLine
 10
194.851326
 20
194.245961
 30
0.0
 11
195.669754
 21
192.926219
 31
0.0
  0
LINE
  5
793
100
AcDbEntity
  8
3
370
    50
100
AcDbLine
 10
57.329319
 20
-210.751877
 30
0.0
 11
64.028852
 21
-210.751877
 31
0.0
  0
TEXT
  5
794
100
AcDbEntity
  8
3
370
    50
100
AcDbText
 10
-296.395544
 20
-8.364592
 30
0.0
 40
10.5
  1
Ｍ３４×１．５
 72
     5
 11
-224.995544
 21
-8.364592
 31
0.0
100
AcDbText
  0
TEXT
  5
795
100
AcDbEntity
  8
3
370
    50
100
AcDbText
 10
-296.335838
 20
-22.214293
 30
0.0
 40
10.5
  1
（取付穴φ３６±１）
 72
     5
 11
-193.435838
 21
-22.214293
 31
0.0
100
AcDbText
  0
LWPOLYLINE
  5
796
100
AcDbEntity
  8
3
370
    25
100
AcDbPolyline
 90
        3
 70
     0
 10
-329.807911
 20
4.887475
 10
-297.881063
 20
-9.392766
 10
-229.433363
 20
-9.392766
  0
LINE
  5
79B
100
AcDbEntity
  8
3
370
    25
100
AcDbLine
 10
-324.517448
 20
2.521157
 30
0.0
 11
-323.883395
 21
3.938732
 31
0.0
  0
LINE
  5
79C
100
AcDbEntity
  8
3
370
    25
100
AcDbLine
 10
-323.883395
 20
3.938732
 30
0.0
 11
-329.807911
 21
4.887475
 31
0.0
  0
LINE
  5
79D
100
AcDbEntity
  8
3
370
    25
100
AcDbLine
 10
-329.807911
 20
4.887475
 30
0.0
 11
-325.151502
 21
1.103582
 31
0.0
  0
LINE
  5
79E
100
AcDbEntity
  8
3
370
    25
100
AcDbLine
 10
-325.151502
 20
1.103582
 30
0.0
 11
-324.517448
 21
2.521157
 31
0.0
  0
POINT
  5
79F
100
AcDbEntity
  8
3
370
    50
100
AcDbPoint
 10
-142.319082
 20
276.186907
 30
0.0
  0
POINT
  5
7A0
100
AcDbEntity
  8
3
370
    50
100
AcDbPoint
 10
-48.064447
 20
365.509252
 30
0.0
  0
POINT
  5
7A1
100
AcDbEntity
  8
3
370
    50
100
AcDbPoint
 10
-139.667414
 20
315.788084
 30
0.0
  0
LWPOLYLINE
  5
7A2
100
AcDbEntity
  8
3
370
    25
100
AcDbPolyline
 90
        3
 70
     0
 10
-321.307911
 20
-9.700601
 10
-298.711042
 20
-39.222366
 10
-255.551407
 20
-39.222366
  0
LINE
  5
7A7
100
AcDbEntity
  8
3
370
    25
100
AcDbLine
 10
-317.785296
 20
-14.302735
 30
0.0
 11
-316.552158
 21
-13.358853
 31
0.0
  0
LINE
  5
7A8
100
AcDbEntity
  8
3
370
    25
100
AcDbLine
 10
-316.552158
 20
-13.358853
 30
0.0
 11
-321.307911
 21
-9.700601
 31
0.0
  0
LINE
  5
7A9
100
AcDbEntity
  8
3
370
    25
100
AcDbLine
 10
-321.307911
 20
-9.700601
 30
0.0
 11
-319.018434
 21
-15.246617
 31
0.0
  0
LINE
  5
7AA
100
AcDbEntity
  8
3
370
    25
100
AcDbLine
 10
-319.018434
 20
-15.246617
 30
0.0
 11
-317.785296
 21
-14.302735
 31
0.0
  0
TEXT
  5
7AB
100
AcDbEntity
  8
3
370
    50
100
AcDbText
 10
344.077171
 20
-409.215225
 30
0.0
 40
10.5
  1
外観寸法図
 72
     5
 11
394.477171
 21
-409.215225
 31
0.0
100
AcDbText
  0
TEXT
  5
7AC
100
AcDbEntity
  8
3
370
    50
100
AcDbText
 10
101.927399
 20
-341.274605
 30
0.0
 40
10.5
  1
台付シングル湯水混合水栓
 72
     5
 11
225.827399
 21
-341.274605
 31
0.0
100
AcDbText
  0
DIMENSION
  5
7AD
100
AcDbEntity
  8
3
370
    25
100
AcDbDimension
  2
*D0
 10
-322.360411
 20
185.952962
 30
0.0
 11
-399.110411
 21
192.702962
 31
0.0
 70
     1
 71
     0
 72
     0
 41
0.0
 42
0.0
  3
Standard
100
AcDbAlignedDimension
 13
-371.360411
 23
175.721017
 33
0.0
 14
-322.360411
 24
175.721017
 34
0.0
  0
DIMENSION
  5
7AE
100
AcDbEntity
  8
3
370
    25
100
AcDbDimension
  2
*D1
 10
-21.241602
 20
327.921804
 30
0.0
 11
-95.604075
 21
374.481795
 31
0.0
 70
     2
 71
     0
 72
     0
 41
0.0
 42
0.0
  3
Standard
100
AcDb2LineAngularDimension
 13
17.29636
 23
327.92786
 33
0.0
 14
17.306849
 24
327.921804
 34
0.0
 15
17.306849
 25
327.921804
 35
0.0
 16
-99.680475
 26
359.268463
 36
0.0
1001
ACAD
1000
DSTYLE
1002
{
1070
   275
1070
     0
1070
   179
1070
     0
1002
}
  0
DIMENSION
  5
7AF
100
AcDbEntity
  8
3
370
    25
100
AcDbDimension
  2
*D2
 10
-142.319112
 20
276.183734
 30
0.0
 11
-133.838734
 21
241.67087
 31
0.0
 70
     2
 71
     0
 72
     0
 41
0.0
 42
0.0
  3
Standard
100
AcDb2LineAngularDimension
 13
-142.320458
 23
276.184033
 33
0.0
 14
-142.319112
 24
276.18692
 34
0.0
 15
-142.319112
 25
276.18692
 35
0.0
 16
-149.215396
 26
245.079793
 36
0.0
1001
ACAD
1000
DSTYLE
1002
{
1070
   275
1070
     0
1070
   179
1070
     0
1002
}
  0
TEXT
  5
7B0
100
AcDbEntity
  8
3
370
    50
100
AcDbText
 10
-411.073393
 20
-26.079363
 30
0.0
 40
10.5
  1
ＭＡＸ　３０
 50
90.0
 72
     5
 11
-411.073393
 21
34.820637
 31
0.0
100
AcDbText
  0
DIMENSION
  5
7B1
100
AcDbEntity
  8
3
370
    25
100
AcDbDimension
  2
*D3
 10
-409.573393
 20
13.421071
 30
0.0
 11
-412.073393
 21
5.420637
 31
0.0
 71
     0
 72
     0
 41
0.0
 42
0.0
  3
Standard
100
AcDbAlignedDimension
 13
-371.807911
 23
-2.579797
 33
0.0
 14
-370.807911
 24
13.421071
 34
0.0
 50
90.0
100
AcDbRotatedDimension
  0
DIMENSION
  5
7B2
100
AcDbEntity
  8
3
370
    25
100
AcDbDimension
  2
*D4
 10
7.714196
 20
192.347988
 30
0.0
 11
-67.302443
 21
199.097988
 31
0.0
 71
     0
 72
     0
 41
0.0
 42
0.0
  3
Standard
100
AcDbAlignedDimension
 13
-142.319082
 23
276.186907
 33
0.0
 14
7.714196
 24
194.516808
 34
0.0
100
AcDbRotatedDimension
  0
TEXT
  5
7B3
100
AcDbEntity
  8
3
370
    50
100
AcDbText
 10
-129.983421
 20
-222.692411
 30
0.0
 40
10.5
  1
水側：３８５　湯側：３７５（金具先端マデ）
 50
90.0
 72
     5
 11
-129.983422
 21
-4.292411
 31
0.0
100
AcDbText
  0
DIMENSION
  5
7B4
100
AcDbEntity
  8
3
370
    25
100
AcDbDimension
  2
*D5
 10
-128.483421
 20
13.421802
 30
0.0
 11
-130.983421
 21
-112.442411
 31
0.0
 71
     0
 72
     0
 41
0.0
 42
0.0
  3
Standard
100
AcDbAlignedDimension
 13
-71.67534
 23
-238.306624
 33
0.0
 14
-15.785804
 24
13.421802
 34
0.0
 50
90.0
100
AcDbRotatedDimension
  0
DIMENSION
  5
7B5
100
AcDbEntity
  8
3
370
    25
100
AcDbDimension
  2
*D6
 10
-162.465828
 20
276.186907
 30
0.0
 11
-179.715828
 21
139.554354
 31
0.0
 71
     0
 72
     0
 41
0.0
 42
0.0
  3
Standard
100
AcDbAlignedDimension
 13
-15.785804
 23
13.421802
 33
0.0
 14
-142.319082
 24
276.186907
 34
0.0
 50
90.0
100
AcDbRotatedDimension
  0
DIMENSION
  5
7B6
100
AcDbEntity
  8
3
370
    25
100
AcDbDimension
  2
*D7
 10
-185.138233
 20
315.788084
 30
0.0
 11
-202.388233
 21
159.354943
 31
0.0
 71
     0
 72
     0
 41
0.0
 42
0.0
  3
Standard
100
AcDbAlignedDimension
 13
-15.785804
 23
13.421802
 33
0.0
 14
-139.667414
 24
315.788084
 34
0.0
 50
90.0
100
AcDbRotatedDimension
  0
DIMENSION
  5
7B7
100
AcDbEntity
  8
3
370
    25
100
AcDbDimension
  2
*D8
 10
-209.838417
 20
333.421449
 30
0.0
 11
-227.088417
 21
168.171625
 31
0.0
 71
     0
 72
     0
 41
0.0
 42
0.0
  3
Standard
100
AcDbAlignedDimension
 13
-15.785804
 23
13.421802
 33
0.0
 14
-14.785623
 24
333.421449
 34
0.0
 50
90.0
100
AcDbRotatedDimension
  0
DIMENSION
  5
7B8
100
AcDbEntity
  8
3
370
    25
100
AcDbDimension
  2
*D9
 10
-236.670601
 20
365.509252
 30
0.0
 11
-253.920601
 21
184.215527
 31
0.0
 71
     0
 72
     0
 41
0.0
 42
0.0
  3
Standard
100
AcDbAlignedDimension
 13
-15.785804
 23
13.421802
 33
0.0
 14
-48.064447
 24
365.509252
 34
0.0
 50
90.0
100
AcDbRotatedDimension
  0
TEXT
  5
7B9
100
AcDbEntity
  8
3
370
    50
100
AcDbText
 10
97.693142
 20
-166.915037
 30
0.0
 40
10.5
  1
２０６（金具先端マデ）
 50
90.0
 72
     5
 11
97.693142
 21
-53.515037
 31
0.0
100
AcDbText
  0
DIMENSION
  5
7BA
100
AcDbEntity
  8
3
370
    25
100
AcDbDimension
  2
*D10
 10
99.193142
 20
13.421802
 30
0.0
 11
96.693142
 21
-109.165037
 31
0.0
 71
     0
 72
     0
 41
0.0
 42
0.0
  3
Standard
100
AcDbAlignedDimension
 13
64.028852
 23
-210.751877
 33
0.0
 14
31.214196
 24
13.421802
 34
0.0
 50
90.0
100
AcDbRotatedDimension
  0
TEXT
  5
7BB
100
AcDbEntity
  8
3
370
    50
100
AcDbText
 10
436.248873
 20
-360.020238
 30
0.0
 40
9.0
  1
１　３
 72
     5
 11
461.448873
 21
-360.020238
 31
0.0
100
AcDbText
  0
LWPOLYLINE
  5
7BC
100
AcDbEntity
  8
3
370
    25
100
AcDbPolyline
 90
        3
 70
     0
 10
-289.212135
 20
-295.517143
 10
-303.267586
 20
-325.759254
 10
-161.173748
 20
-325.759254
  0
TEXT
  5
7C1
100
AcDbEntity
  8
3
370
    50
100
AcDbText
 10
102.273949
 20
-354.120323
 30
0.0
 40
10.5
  1
ＭＬＺ６５２ＬＭＭ
 72
     5
 11
194.673949
 21
-354.120323
 31
0.0
100
AcDbText
  0
TEXT
  5
7C2
100
AcDbEntity
  8
3
370
    50
100
AcDbText
 10
-289.250519
 20
-323.98391
 30
0.0
 40
10.5
  1
外径φ１４，Ｌ＝１０００
 72
     5
 11
-165.350519
 21
-323.98391
 31
0.0
100
AcDbText
  0
TEXT
  5
7C3
100
AcDbEntity
  8
3
370
    50
100
AcDbText
 10
504.105414
 20
-407.821408
 30
0.0
 40
9.6
  1
１１０１８５
 72
     5
 11
559.785415
 21
-407.821408
 31
0.0
100
AcDbText
  0
LINE
  5
7C4
100
AcDbEntity
  8
3
370
    50
100
AcDbLine
 10
49.707523
 20
-263.164827
 30
0.0
 11
49.266196
 21
-264.909886
 31
0.0
  0
LINE
  5
7C5
100
AcDbEntity
  8
3
370
    50
100
AcDbLine
 10
78.791836
 20
-270.520285
 30
0.0
 11
78.350508
 21
-272.265344
 31
0.0
  0
LINE
  5
7C6
100
AcDbEntity
  8
3
370
    50
100
AcDbLine
 10
49.266196
 20
-264.909886
 30
0.0
 11
78.350508
 21
-272.265344
 31
0.0
  0
LINE
  5
7C7
100
AcDbEntity
  8
3
370
    50
100
AcDbLine
 10
78.791836
 20
-270.520285
 30
0.0
 11
49.707523
 21
-263.164827
 31
0.0
  0
ENDSEC
  0
SECTION
  2
OBJECTS
  0
DICTIONARY
  5
848
100
AcDbDictionary
280
     0
281
     1
  3
ACAD_GROUP
350
849
  3
ACAD_MLINESTYLE
350
84A
  0
DICTIONARY
  5
849
102
{ACAD_REACTORS
330
848
102
}
100
AcDbDictionary
280
     0
281
     1
  0
DICTIONARY
  5
84A
102
{ACAD_REACTORS
330
848
102
}
100
AcDbDictionary
280
     0
281
     1
  3
Standard
350
84B
  0
MLINESTYLE
  5
84B
102
{ACAD_REACTORS
330
84A
102
}
100
AcDbMlineStyle
  2
Standard
 70
     0
  3

 62
     0
 51
90.0
 52
90.0
 71
     2
 49
0.5
 62
   256
  6
ByLayer
 49
-0.5
 62
   256
  6
ByLayer
  0
ENDSEC
  0
EOF
