  0
SECTION
  2
HEADER
  9
$ACADVER
  1
AC1015
  9
$ACADMAINTVER
 70
     6
  9
$DWGCODEPAGE
  3
ANSI_932
  9
$INSBASE
 10
0.0
 20
0.0
 30
0.0
  9
$EXTMIN
 10
-1189.0
 20
-841.0
 30
1.000000E+20
  9
$EXTMAX
 10
1189.0
 20
841.0
 30
-1.000000E+20
  9
$LIMMIN
 10
-1189.0
 20
-841.0
  9
$LIMMAX
 10
1189.0
 20
841.0
  9
$ORTHOMODE
 70
     0
  9
$REGENMODE
 70
     1
  9
$FILLMODE
 70
     1
  9
$QTEXTMODE
 70
     0
  9
$MIRRTEXT
 70
     1
  9
$LTSCALE
 40
1.0
  9
$ATTMODE
 70
     1
  9
$TEXTSIZE
 40
0.2
  9
$TRACEWID
 40
0.05
  9
$TEXTSTYLE
  7
STANDARD
  9
$CLAYER
  8
0
  9
$CELTYPE
  6
CONTINUOUS
  9
$CECOLOR
 62
   256
  9
$CELTSCALE
 40
1.0
  9
$DISPSILH
 70
     0
  9
$DIMSCALE
 40
2.0
  9
$DIMASZ
 40
2.0
  9
$DIMEXO
 40
1.0
  9
$DIMDLI
 40
0.38
  9
$DIMRND
 40
0.0
  9
$DIMDLE
 40
0.0
  9
$DIMEXE
 40
2.0
  9
$DIMTP
 40
0.0
  9
$DIMTM
 40
0.0
  9
$DIMTXT
 40
3.5
  9
$DIMCEN
 40
0.09
  9
$DIMTSZ
 40
0.0
  9
$DIMTOL
 70
     0
  9
$DIMLIM
 70
     0
  9
$DIMTIH
 70
     0
  9
$DIMTOH
 70
     0
  9
$DIMSE1
 70
     0
  9
$DIMSE2
 70
     0
  9
$DIMTAD
 70
     1
  9
$DIMZIN
 70
     0
  9
$DIMBLK
  1

  9
$DIMASO
 70
     1
  9
$DIMSHO
 70
     1
  9
$DIMPOST
  1

  9
$DIMAPOST
  1

  9
$DIMALT
 70
     0
  9
$DIMALTD
 70
     2
  9
$DIMALTF
 40
25.4
  9
$DIMLFAC
 40
1.0
  9
$DIMTOFL
 70
     0
  9
$DIMTVP
 40
0.0
  9
$DIMTIX
 70
     0
  9
$DIMSOXD
 70
     0
  9
$DIMSAH
 70
     0
  9
$DIMBLK1
  1

  9
$DIMBLK2
  1

  9
$DIMSTYLE
  2
Standard
  9
$DIMCLRD
 70
     0
  9
$DIMCLRE
 70
     0
  9
$DIMCLRT
 70
     0
  9
$DIMTFAC
 40
1.0
  9
$DIMGAP
 40
0.5
  9
$DIMJUST
 70
     0
  9
$DIMSD1
 70
     0
  9
$DIMSD2
 70
     0
  9
$DIMTOLJ
 70
     1
  9
$DIMTZIN
 70
     0
  9
$DIMALTZ
 70
     0
  9
$DIMALTTZ
 70
     0
  9
$DIMUPT
 70
     0
  9
$DIMDEC
 70
     1
  9
$DIMTDEC
 70
     4
  9
$DIMALTU
 70
     2
  9
$DIMALTTD
 70
     2
  9
$DIMTXSTY
  7
STANDARD
  9
$DIMAUNIT
 70
     0
  9
$DIMADEC
 70
     0
  9
$DIMALTRND
 40
0.0
  9
$DIMAZIN
 70
     0
  9
$DIMDSEP
 70
     0
  9
$DIMATFIT
 70
     3
  9
$DIMFRAC
 70
     0
  9
$DIMLDRBLK
  1

  9
$DIMLUNIT
 70
     2
  9
$DIMLWD
 70
     0
  9
$DIMLWE
 70
     0
  9
$DIMTMOVE
 70
     0
  9
$LUNITS
 70
     2
  9
$LUPREC
 70
     4
  9
$SKETCHINC
 40
0.1
  9
$FILLETRAD
 40
0.0
  9
$AUNITS
 70
     0
  9
$AUPREC
 70
     0
  9
$MENU
  1
acad
  9
$ELEVATION
 40
0.0
  9
$PELEVATION
 40
0.0
  9
$THICKNESS
 40
0.0
  9
$LIMCHECK
 70
     0
  9
$CHAMFERA
 40
0.0
  9
$CHAMFERB
 40
0.0
  9
$CHAMFERC
 40
0.0
  9
$CHAMFERD
 40
0.0
  9
$SKPOLY
 70
     0
  9
$TDCREATE
 40
2452852.000000000
  9
$TDUCREATE
 40
0.000000000
  9
$TDUPDATE
 40
0.000000000
  9
$TDUUPDATE
 40
2447892.625000000
  9
$TDINDWG
 40
0.0000000000
  9
$TDUSRTIMER
 40
0.0000000000
  9
$USRTIMER
 70
     1
  9
$ANGBASE
 50
0.0
  9
$ANGDIR
 70
     0
  9
$PDMODE
 70
     0
  9
$PDSIZE
 40
0.0
  9
$PLINEWID
 40
0.0
  9
$SPLFRAME
 70
     0
  9
$SPLINETYPE
 70
     6
  9
$SPLINESEGS
 70
     8
  9
$HANDSEED
  5
79C
  9
$SURFTAB1
 70
     6
  9
$SURFTAB2
 70
     6
  9
$SURFTYPE
 70
     6
  9
$SURFU
 70
     6
  9
$SURFV
 70
     6
  9
$UCSBASE
  2

  9
$UCSNAME
  2

  9
$UCSORG
 10
0.0
 20
0.0
 30
0.0
  9
$UCSXDIR
 10
1.0
 20
0.0
 30
0.0
  9
$UCSYDIR
 10
0.0
 20
1.0
 30
0.0
  9
$UCSORTHOREF
  2

  9
$UCSORTHOVIEW
 70
     0
  9
$UCSORGTOP
 10
0.0
 20
0.0
 30
0.0
  9
$UCSORGBOTTOM
 10
0.0
 20
0.0
 30
0.0
  9
$UCSORGLEFT
 10
0.0
 20
0.0
 30
0.0
  9
$UCSORGRIGHT
 10
0.0
 20
0.0
 30
0.0
  9
$UCSORGFRONT
 10
0.0
 20
0.0
 30
0.0
  9
$UCSORGBACK
 10
0.0
 20
0.0
 30
0.0
  9
$PUCSBASE
  2

  9
$PUCSNAME
  2

  9
$PUCSORG
 10
0.0
 20
0.0
 30
0.0
  9
$PUCSXDIR
 10
1.0
 20
0.0
 30
0.0
  9
$PUCSYDIR
 10
0.0
 20
1.0
 30
0.0
  9
$PUCSORTHOREF
  2

  9
$PUCSORTHOVIEW
 70
     0
  9
$PUCSORGTOP
 10
0.0
 20
0.0
 30
0.0
  9
$PUCSORGBOTTOM
 10
0.0
 20
0.0
 30
0.0
  9
$PUCSORGLEFT
 10
0.0
 20
0.0
 30
0.0
  9
$PUCSORGRIGHT
 10
0.0
 20
0.0
 30
0.0
  9
$PUCSORGFRONT
 10
0.0
 20
0.0
 30
0.0
  9
$PUCSORGBACK
 10
0.0
 20
0.0
 30
0.0
  9
$USERI1
 70
     0
  9
$USERI2
 70
     0
  9
$USERI3
 70
     0
  9
$USERI4
 70
     0
  9
$USERI5
 70
     0
  9
$USERR1
 40
0.0
  9
$USERR2
 40
0.0
  9
$USERR3
 40
0.0
  9
$USERR4
 40
0.0
  9
$USERR5
 40
0.0
  9
$WORLDVIEW
 70
     1
  9
$SHADEDGE
 70
     3
  9
$SHADEDIF
 70
    70
  9
$TILEMODE
 70
     1
  9
$MAXACTVP
 70
    16
  9
$PINSBASE
 10
0.0
 20
0.0
 30
0.0
  9
$PLIMCHECK
 70
     0
  9
$PEXTMIN
 10
1.000000E+20
 20
1.000000E+20
 30
1.000000E+20
  9
$PEXTMAX
 10
-1.000000E+20
 20
-1.000000E+20
 30
-1.000000E+20
  9
$PLIMMIN
 10
0.0
 20
0.0
  9
$PLIMMAX
 10
12.0
 20
9.0
  9
$UNITMODE
 70
     0
  9
$VISRETAIN
 70
     0
  9
$PLINEGEN
 70
     1
  9
$PSLTSCALE
 70
     0
  9
$TREEDEPTH
 70
  3020
  9
$CMLSTYLE
  2
Standard
  9
$CMLJUST
 70
     0
  9
$CMLSCALE
 40
1.0
  9
$PROXYGRAPHICS
 70
     0
  9
$MEASUREMENT
 70
     0
  9
$CELWEIGHT
370
     0
  9
$ENDCAPS
280
     0
  9
$JOINSTYLE
280
     0
  9
$LWDISPLAY
290
     0
  9
$INSUNITS
 70
     0
  9
$HYPERLINKBASE
  1

  9
$STYLESHEET
  1

  9
$XEDIT
290
     1
  9
$CEPSNTYPE
380
     0
  9
$PSTYLEMODE
290
     1
  9
$FINGERPRINTGUID
  2

  9
$VERSIONGUID
  2

  9
$EXTNAMES
290
     1
  9
$PSVPSCALE
 40
0.0
  0
ENDSEC
  0
SECTION
  2
CLASSES
  0
CLASS
  1
LWPOLYLINE
  2
AcDbPolyline
  3
AutoCAD 2000
 90
        0
280
     0
281
     1
  0
CLASS
  1
IMAGE
  2
AcDbRasterImage
  3
ISM
 90
      127
280
     0
281
     1
  0
CLASS
  1
OLE2FRAME
  2
AcDbOle2Frame
  3
AutoCAD 2000
 90
        0
280
     0
281
     1
  0
CLASS
  1
HATCH
  2
AcDbHatch
  3
AutoCAD 2000
 90
        0
280
     0
281
     1
  0
CLASS
  1
DICTIONARYVAR
  2
AcDbDictionaryVar
  3
AutoCAD 2000
 90
        0
280
     0
281
     0
  0
CLASS
  1
RASTERVARIABLES
  2
AcDbRasterVariables
  3
ISM
 90
        0
280
     0
281
     0
  0
CLASS
  1
IMAGEDEF
  2
AcDbRasterImageDef
  3
ISM
 90
        0
280
     0
281
     0
  0
CLASS
  1
IMAGEDEF_REACTOR
  2
AcDbRasterImageDefReactor
  3
ISM
 90
        1
280
     0
281
     0
  0
CLASS
  1
IDBUFFER
  2
AcDbIdBuffer
  3
AutoCAD 2000
 90
        0
280
     0
281
     0
  0
CLASS
  1
SPATIAL_FILTER
  2
AcDbSpatialFilter
  3
AutoCAD 2000
 90
        0
280
     0
281
     0
  0
CLASS
  1
XRECORD
  2
AcDbXrecord
  3
AutoCAD 2000
 90
        0
280
     0
281
     0
  0
CLASS
  1
SORTENTSTABLE
  2
AcDbSortentsTable
  3
AutoCAD 2000
 90
        0
280
     0
281
     0
  0
CLASS
  1
LAYER_INDEX
  2
AcDbLayerIndex
  3
AutoCAD 2000
 90
        0
280
     0
281
     0
  0
CLASS
  1
SPATIAL_INDEX
  2
AcDbSpatialIndex
  3
AutoCAD 2000
 90
        0
280
     0
281
     0
  0
CLASS
  1
OBJECT_PTR
  2
CAseDLPNTableRecord
  3
"ASE-LPNTableRecord"
 90
        1
280
     0
281
     0
  0
CLASS
  1
LAYOUT
  2
AcDbLayout
  3
AutoCAD 2000
 90
        0
280
     0
281
     0
  0
CLASS
  1
PLOTSETTINGS
  2
AcDbPlotSettings
  3
AutoCAD 2000
 90
        0
280
     0
281
     0
  0
CLASS
  1
ACDBDICTIONARYWDFLT
  2
AcDbDictionaryWithDefault
  3
AutoCAD 2000
 90
        0
280
     0
281
     0
  0
CLASS
  1
ACDBPLACEHOLDER
  2
AcDbPlaceHolder
  3
AutoCAD 2000
 90
        0
280
     0
281
     0
  0
CLASS
  1
VBA_PROJECT
  2
AcDbVbaProject
  3
acadvba
 90
        0
280
     0
281
     0
  0
CLASS
  1
WIPEOUT
  2
AcDbWipeout
  3
WipeOut|AutoCAD Express Tool|expresstools@autodesk.com
 90
      127
280
     0
281
     1
  0
CLASS
  1
WIPEOUTVARIABLES
  2
AcDbWipeoutVariables
  3
WipeOut|AutoCAD Express Tool|expresstools@autodesk.com
 90
        0
280
     0
281
     0
  0
CLASS
  1
RTEXT
  2
RText
  3
RText|AutoCAD Express Tool|expresstools@autodesk.com
 90
        0
280
     0
281
     1
  0
CLASS
  1
ARCALIGNEDTEXT
  2
AcDbArcAlignedText
  3
ATEXT|AutoCAD Express Tool|expresstools@autodesk.com
 90
        0
280
     0
281
     1
  0
ENDSEC
  0
SECTION
  2
TABLES
  0
TABLE
  2
VPORT
  5
6
100
AcDbSymbolTable
 70
     1
  0
VPORT
  5
19
100
AcDbSymbolTableRecord
100
AcDbViewportTableRecord
  2
*ACTIVE
 70
     0
 10
0.0
 20
0.0
 11
1.0
 21
1.0
 12
0.0
 22
0.0
 13
0.0
 23
0.0
 14
1.0
 24
1.0
 15
0.0
 25
0.0
 16
0.0
 26
0.0
 36
1.0
 17
0.0
 27
0.0
 37
0.0
 40
1682.0
 41
1.413793
 42
50.0
 43
0.0
 44
0.0
 50
0.0
 51
0.0
 71
     0
 72
   500
 73
     1
 74
     1
 75
     0
 76
     0
 77
     0
 78
     0
281
     0
 65
     0
110
0.0
120
0.0
130
0.0
111
1.0
121
0.0
131
0.0
112
0.0
122
1.0
132
0.0
345
0
346
0
 79
     0
146
0.0
  0
ENDTAB
  0
TABLE
  2
LTYPE
  5
3
100
AcDbSymbolTable
 70
     9
  0
LTYPE
  5
C
100
AcDbSymbolTableRecord
100
AcDbLinetypeTableRecord
  2
ByBlock
 70
    64
  3

 72
    65
 73
     0
 40
0.0
  0
LTYPE
  5
D
100
AcDbSymbolTableRecord
100
AcDbLinetypeTableRecord
  2
ByLayer
 70
    64
  3

 72
    65
 73
     0
 40
0.0
  0
LTYPE
  5
E
100
AcDbSymbolTableRecord
100
AcDbLinetypeTableRecord
  2
CONTINUOUS
 70
     0
  3
Solid line
 72
    65
 73
     0
 40
0.0
  0
LTYPE
  5
F
100
AcDbSymbolTableRecord
100
AcDbLinetypeTableRecord
  2
DASHED
 70
     0
  3
__ __ __ __ __ __ __ __ __ __ __ __ __ __ __
 72
    65
 73
     2
 40
2.0
 49
1.2
 74
     0
 49
-0.8
 74
     0
  0
LTYPE
  5
10
100
AcDbSymbolTableRecord
100
AcDbLinetypeTableRecord
  2
CENTER
 70
     0
  3
____ _ ____ _ ____ _ ____ _ ____ _ ____ _ ____
 72
    65
 73
     4
 40
12.0
 49
9.0
 74
     0
 49
-1.0
 74
     0
 49
1.0
 74
     0
 49
-1.0
 74
     0
  0
LTYPE
  5
11
100
AcDbSymbolTableRecord
100
AcDbLinetypeTableRecord
  2
HIDDEN
 70
     0
  3
_ _ _ _ _ _ _ _ _ _ _ _ _ _ _ _ _ _ _ _ _ _ _
 72
    65
 73
     2
 40
3.2
 49
2.4
 74
     0
 49
-0.8
 74
     0
  0
LTYPE
  5
12
100
AcDbSymbolTableRecord
100
AcDbLinetypeTableRecord
  2
PHANTOM
 70
     0
  3
_____ _ _ _____ _ _ _____ _ _ _____ _ _ _____
 72
    65
 73
     6
 40
13.5
 49
9.0
 74
     0
 49
-1.0
 74
     0
 49
1.0
 74
     0
 49
-0.5
 74
     0
 49
1.0
 74
     0
 49
-1.0
 74
     0
  0
LTYPE
  5
13
100
AcDbSymbolTableRecord
100
AcDbLinetypeTableRecord
  2
DOT
 70
     0
  3
...............................................
 72
    65
 73
     2
 40
1.0
 49
0.5
 74
     0
 49
-0.5
 74
     0
  0
LTYPE
  5
14
100
AcDbSymbolTableRecord
100
AcDbLinetypeTableRecord
  2
DASHDOT
 70
     0
  3
__ . __ . __ . __ . __ . __ . __ . __ . __ . __
 72
    65
 73
     4
 40
8.0
 49
5.0
 74
     0
 49
-1.0
 74
     0
 49
1.0
 74
     0
 49
-1.0
 74
     0
  0
ENDTAB
  0
TABLE
  2
LAYER
  5
1
100
AcDbSymbolTable
 70
     4
  0
LAYER
  5
15
100
AcDbSymbolTableRecord
100
AcDbLayerTableRecord
  2
0
 70
     0
 62
     7
  6
CONTINUOUS
290
     1
370
    -3
390
0
  0
LAYER
  5
16
100
AcDbSymbolTableRecord
100
AcDbLayerTableRecord
  2
1
 70
     0
 62
     7
  6
CONTINUOUS
290
     1
370
    -3
390
0
  0
LAYER
  5
17
100
AcDbSymbolTableRecord
100
AcDbLayerTableRecord
  2
2
 70
     0
 62
     7
  6
CONTINUOUS
290
     1
370
    -3
390
0
  0
LAYER
  5
18
100
AcDbSymbolTableRecord
100
AcDbLayerTableRecord
  2
3
 70
     0
 62
     7
  6
CONTINUOUS
290
     1
370
    -3
390
0
  0
ENDTAB
  0
TABLE
  2
STYLE
  5
2
100
AcDbSymbolTable
 70
     1
  0
STYLE
  5
1B
100
AcDbSymbolTableRecord
100
AcDbTextStyleTableRecord
  2
STANDARD
 70
    64
 40
0.0
 41
1.0
 50
0.0
 71
     0
 42
1.0
  3
txt
  4
BIGFONT
  0
ENDTAB
  0
TABLE
  2
VIEW
  5
4
100
AcDbSymbolTable
 70
     0
  0
ENDTAB
  0
TABLE
  2
UCS
  5
5
100
AcDbSymbolTable
 70
     0
  0
ENDTAB
  0
TABLE
  2
APPID
  5
7
100
AcDbSymbolTable
 70
     1
  0
APPID
  5
1A
100
AcDbSymbolTableRecord
100
AcDbRegAppTableRecord
  2
ACAD
 70
     0
  0
ENDTAB
  0
TABLE
  2
DIMSTYLE
  5
8
100
AcDbSymbolTable
 70
     1
100
AcDbDimStyleTable
 71
     0
  0
DIMSTYLE
105
2E
100
AcDbSymbolTableRecord
100
AcDbDimStyleTableRecord
  2
Standard
 70
     0
  3

  4

 40
2.0
 41
2.0
 42
1.0
 43
0.38
 44
2.0
 45
0.0
 46
0.0
 47
0.0
 48
0.0
 71
     0
 72
     0
 73
     0
 74
     0
 75
     0
 76
     0
 77
     1
 78
     0
 79
     0
140
3.5
141
0.09
142
0.0
143
25.4
144
1.0
145
0.0
146
1.0
147
0.5
148
0.0
170
     0
171
     2
172
     0
173
     0
174
     0
175
     0
176
     0
177
     0
178
     0
179
     0
271
     1
272
     4
273
     2
274
     2
275
     0
276
     0
277
     2
278
    46
279
     0
280
     0
281
     0
282
     0
283
     1
284
     0
285
     0
286
     0
288
     0
289
     3
340
1B
341
0
342
0
343
0
344
0
371
    -2
372
    -2
  0
ENDTAB
  0
TABLE
  2
BLOCK_RECORD
  5
29
100
AcDbSymbolTable
 70
    11
  0
BLOCK_RECORD
  5
27
100
AcDbSymbolTableRecord
100
AcDbBlockTableRecord
  2
*Model_Space
340
0
  0
BLOCK_RECORD
  5
28
100
AcDbSymbolTableRecord
100
AcDbBlockTableRecord
  2
*Paper_Space
340
0
  0
BLOCK_RECORD
  5
1C
100
AcDbSymbolTableRecord
100
AcDbBlockTableRecord
  2
*D0
340
0
  0
BLOCK_RECORD
  5
1D
100
AcDbSymbolTableRecord
100
AcDbBlockTableRecord
  2
*D1
340
0
  0
BLOCK_RECORD
  5
1E
100
AcDbSymbolTableRecord
100
AcDbBlockTableRecord
  2
*D2
340
0
  0
BLOCK_RECORD
  5
1F
100
AcDbSymbolTableRecord
100
AcDbBlockTableRecord
  2
*D3
340
0
  0
BLOCK_RECORD
  5
20
100
AcDbSymbolTableRecord
100
AcDbBlockTableRecord
  2
*D4
340
0
  0
BLOCK_RECORD
  5
21
100
AcDbSymbolTableRecord
100
AcDbBlockTableRecord
  2
*D5
340
0
  0
BLOCK_RECORD
  5
22
100
AcDbSymbolTableRecord
100
AcDbBlockTableRecord
  2
*D6
340
0
  0
BLOCK_RECORD
  5
23
100
AcDbSymbolTableRecord
100
AcDbBlockTableRecord
  2
*D7
340
0
  0
BLOCK_RECORD
  5
24
100
AcDbSymbolTableRecord
100
AcDbBlockTableRecord
  2
*D8
340
0
  0
BLOCK_RECORD
  5
25
100
AcDbSymbolTableRecord
100
AcDbBlockTableRecord
  2
*D9
340
0
  0
BLOCK_RECORD
  5
26
100
AcDbSymbolTableRecord
100
AcDbBlockTableRecord
  2
*D10
340
0
  0
ENDTAB
  0
ENDSEC
  0
SECTION
  2
BLOCKS
  0
BLOCK
  5
2A
100
AcDbEntity
  8
0
390
0
100
AcDbBlockBegin
  2
*Model_Space
 70
     0
 10
0.0
 20
0.0
 30
0.0
  3
*Model_Space
  1

  0
ENDBLK
  5
2B
100
AcDbEntity
  8
0
390
0
100
AcDbBlockEnd
  0
BLOCK
  5
2C
100
AcDbEntity
 67
     1
  8
0
390
0
100
AcDbBlockBegin
  2
*Paper_Space
 70
     0
 10
0.0
 20
0.0
 30
0.0
  3
*Paper_Space
  1

  0
ENDBLK
  5
2D
100
AcDbEntity
 67
     1
  8
0
390
0
100
AcDbBlockEnd
  0
BLOCK
  5
718
100
AcDbEntity
  8
3
100
AcDbBlockBegin
  2
*D0
 70
     1
 10
0.0
 20
0.0
 30
0.0
  3
*D0
  1

  0
TEXT
  5
719
100
AcDbEntity
  8
3
370
    25
100
AcDbText
 10
-31.353222
 20
54.751784
 30
0.0
 40
7.0
  1
９゜
 50
355.5
 72
     5
 11
-18.792063
 21
53.7632
 31
0.0
100
AcDbText
  0
LINE
  5
71A
100
AcDbEntity
  8
3
370
    25
100
AcDbLine
 10
-16.187451
 20
87.612707
 30
0.0
 11
-22.294987
 21
49.051248
 31
0.0
  0
LINE
  5
71B
100
AcDbEntity
  8
3
370
    25
100
AcDbLine
 10
-15.874583
 20
87.588084
 30
0.0
 11
-15.874583
 21
48.545952
 31
0.0
  0
LINE
  5
71C
100
AcDbEntity
  8
3
370
    25
100
AcDbLine
 10
-21.982118
 20
51.026625
 30
0.0
 11
-25.55132
 21
52.832392
 31
0.0
  0
LINE
  5
71D
100
AcDbEntity
  8
3
370
    25
100
AcDbLine
 10
-21.982118
 20
51.026625
 30
0.0
 11
-25.976021
 21
50.805864
 31
0.0
  0
LINE
  5
71E
100
AcDbEntity
  8
3
370
    25
100
AcDbLine
 10
-25.55132
 20
52.832392
 30
0.0
 11
-25.976021
 21
50.805864
 31
0.0
  0
LINE
  5
71F
100
AcDbEntity
  8
3
370
    25
100
AcDbLine
 10
-15.874583
 20
50.545952
 30
0.0
 11
-11.964385
 21
49.703124
 31
0.0
  0
LINE
  5
720
100
AcDbEntity
  8
3
370
    25
100
AcDbLine
 10
-15.874583
 20
50.545952
 30
0.0
 11
-12.066839
 21
51.77114
 31
0.0
  0
LINE
  5
721
100
AcDbEntity
  8
3
370
    25
100
AcDbLine
 10
-11.964385
 20
49.703124
 30
0.0
 11
-12.066839
 21
51.77114
 31
0.0
  0
ARC
  5
722
100
AcDbEntity
  8
3
370
    25
100
AcDbCircle
 10
-15.874583
 20
89.588084
 30
0.0
 40
39.042132
100
AcDbArc
 50
246.633482
 51
284.366518
  0
ENDBLK
  5
723
100
AcDbEntity
  8
3
100
AcDbBlockEnd
  0
BLOCK
  5
724
100
AcDbEntity
  8
3
100
AcDbBlockBegin
  2
*D1
 70
     1
 10
0.0
 20
0.0
 30
0.0
  3
*D1
  1

  0
TEXT
  5
725
100
AcDbEntity
  8
3
370
    25
100
AcDbText
 10
-42.232471
 20
42.657079
 30
0.0
 40
7.0
  1
８０
 50
90.0
 72
     5
 11
-42.232471
 21
55.257079
 31
0.0
100
AcDbText
  0
LINE
  5
726
100
AcDbEntity
  8
3
370
    25
100
AcDbLine
 10
111.784702
 20
9.726075
 30
0.0
 11
-43.232471
 21
9.726075
 31
0.0
  0
LINE
  5
727
100
AcDbEntity
  8
3
370
    25
100
AcDbLine
 10
-41.232471
 20
9.726075
 30
0.0
 11
-40.197195
 21
13.589778
 31
0.0
  0
LINE
  5
728
100
AcDbEntity
  8
3
370
    25
100
AcDbLine
 10
-41.232471
 20
9.726075
 30
0.0
 11
-42.267748
 21
13.589778
 31
0.0
  0
LINE
  5
729
100
AcDbEntity
  8
3
370
    25
100
AcDbLine
 10
-40.197195
 20
13.589778
 30
0.0
 11
-42.267748
 21
13.589778
 31
0.0
  0
LINE
  5
72A
100
AcDbEntity
  8
3
370
    25
100
AcDbLine
 10
-41.232471
 20
9.726075
 30
0.0
 11
-41.232471
 21
89.588084
 31
0.0
  0
LINE
  5
72B
100
AcDbEntity
  8
3
370
    25
100
AcDbLine
 10
-41.232471
 20
89.588084
 30
0.0
 11
-42.267748
 21
85.724381
 31
0.0
  0
LINE
  5
72C
100
AcDbEntity
  8
3
370
    25
100
AcDbLine
 10
-41.232471
 20
89.588084
 30
0.0
 11
-40.197195
 21
85.724381
 31
0.0
  0
LINE
  5
72D
100
AcDbEntity
  8
3
370
    25
100
AcDbLine
 10
-42.267748
 20
85.724381
 30
0.0
 11
-40.197195
 21
85.724381
 31
0.0
  0
LINE
  5
72E
100
AcDbEntity
  8
3
370
    25
100
AcDbLine
 10
-17.874583
 20
89.588084
 30
0.0
 11
-43.232471
 21
89.588084
 31
0.0
  0
ENDBLK
  5
72F
100
AcDbEntity
  8
3
100
AcDbBlockEnd
  0
BLOCK
  5
730
100
AcDbEntity
  8
3
100
AcDbBlockBegin
  2
*D2
 70
     1
 10
0.0
 20
0.0
 30
0.0
  3
*D2
  1

  0
TEXT
  5
731
100
AcDbEntity
  8
3
370
    25
100
AcDbText
 10
-58.844166
 20
69.920792
 30
0.0
 40
7.0
  1
１４１
 50
90.0
 72
     5
 11
-58.844166
 21
89.520792
 31
0.0
100
AcDbText
  0
LINE
  5
732
100
AcDbEntity
  8
3
370
    25
100
AcDbLine
 10
111.784702
 20
9.726075
 30
0.0
 11
-59.844166
 21
9.726075
 31
0.0
  0
LINE
  5
733
100
AcDbEntity
  8
3
370
    25
100
AcDbLine
 10
-57.844166
 20
9.726075
 30
0.0
 11
-56.80889
 21
13.589778
 31
0.0
  0
LINE
  5
734
100
AcDbEntity
  8
3
370
    25
100
AcDbLine
 10
-57.844166
 20
9.726075
 30
0.0
 11
-58.879442
 21
13.589778
 31
0.0
  0
LINE
  5
735
100
AcDbEntity
  8
3
370
    25
100
AcDbLine
 10
-56.80889
 20
13.589778
 30
0.0
 11
-58.879442
 21
13.589778
 31
0.0
  0
LINE
  5
736
100
AcDbEntity
  8
3
370
    25
100
AcDbLine
 10
-57.844166
 20
9.726075
 30
0.0
 11
-57.844166
 21
151.11551
 31
0.0
  0
LINE
  5
737
100
AcDbEntity
  8
3
370
    25
100
AcDbLine
 10
-57.844166
 20
151.11551
 30
0.0
 11
-58.879442
 21
147.251806
 31
0.0
  0
LINE
  5
738
100
AcDbEntity
  8
3
370
    25
100
AcDbLine
 10
-57.844166
 20
151.11551
 30
0.0
 11
-56.80889
 21
147.251806
 31
0.0
  0
LINE
  5
739
100
AcDbEntity
  8
3
370
    25
100
AcDbLine
 10
-58.879442
 20
147.251806
 30
0.0
 11
-56.80889
 21
147.251806
 31
0.0
  0
LINE
  5
73A
100
AcDbEntity
  8
3
370
    25
100
AcDbLine
 10
-22.807851
 20
151.11551
 30
0.0
 11
-59.844166
 21
151.11551
 31
0.0
  0
ENDBLK
  5
73B
100
AcDbEntity
  8
3
100
AcDbBlockEnd
  0
BLOCK
  5
73C
100
AcDbEntity
  8
3
100
AcDbBlockBegin
  2
*D3
 70
     1
 10
0.0
 20
0.0
 30
0.0
  3
*D3
  1

  0
TEXT
  5
73D
100
AcDbEntity
  8
3
370
    25
100
AcDbText
 10
-76.141331
 20
84.786873
 30
0.0
 40
7.0
  1
１７１
 50
90.0
 72
     5
 11
-76.141331
 21
104.386873
 31
0.0
100
AcDbText
  0
LINE
  5
73E
100
AcDbEntity
  8
3
370
    25
100
AcDbLine
 10
111.784702
 20
9.726075
 30
0.0
 11
-77.141331
 21
9.726075
 31
0.0
  0
LINE
  5
73F
100
AcDbEntity
  8
3
370
    25
100
AcDbLine
 10
-75.141331
 20
9.726075
 30
0.0
 11
-74.106055
 21
13.589778
 31
0.0
  0
LINE
  5
740
100
AcDbEntity
  8
3
370
    25
100
AcDbLine
 10
-75.141331
 20
9.726075
 30
0.0
 11
-76.176607
 21
13.589778
 31
0.0
  0
LINE
  5
741
100
AcDbEntity
  8
3
370
    25
100
AcDbLine
 10
-74.106055
 20
13.589778
 30
0.0
 11
-76.176607
 21
13.589778
 31
0.0
  0
LINE
  5
742
100
AcDbEntity
  8
3
370
    25
100
AcDbLine
 10
-75.141331
 20
9.726075
 30
0.0
 11
-75.141331
 21
180.847672
 31
0.0
  0
LINE
  5
743
100
AcDbEntity
  8
3
370
    25
100
AcDbLine
 10
-75.141331
 20
180.847672
 30
0.0
 11
-76.176607
 21
176.983969
 31
0.0
  0
LINE
  5
744
100
AcDbEntity
  8
3
370
    25
100
AcDbLine
 10
-75.141331
 20
180.847672
 30
0.0
 11
-74.106055
 21
176.983969
 31
0.0
  0
LINE
  5
745
100
AcDbEntity
  8
3
370
    25
100
AcDbLine
 10
-76.176607
 20
176.983969
 30
0.0
 11
-74.106055
 21
176.983969
 31
0.0
  0
LINE
  5
746
100
AcDbEntity
  8
3
370
    25
100
AcDbLine
 10
55.382833
 20
180.847672
 30
0.0
 11
-77.141331
 21
180.847672
 31
0.0
  0
ENDBLK
  5
747
100
AcDbEntity
  8
3
100
AcDbBlockEnd
  0
BLOCK
  5
748
100
AcDbEntity
  8
3
100
AcDbBlockBegin
  2
*D4
 70
     1
 10
0.0
 20
0.0
 30
0.0
  3
*D4
  1

  0
TEXT
  5
749
100
AcDbEntity
  8
3
370
    25
100
AcDbText
 10
-93.96265
 20
101.191669
 30
0.0
 40
7.0
  1
２０４
 50
90.0
 72
     5
 11
-93.96265
 21
120.791669
 31
0.0
100
AcDbText
  0
LINE
  5
74A
100
AcDbEntity
  8
3
370
    25
100
AcDbLine
 10
111.784702
 20
9.726075
 30
0.0
 11
-94.96265
 21
9.726075
 31
0.0
  0
LINE
  5
74B
100
AcDbEntity
  8
3
370
    25
100
AcDbLine
 10
-92.96265
 20
9.726075
 30
0.0
 11
-91.927374
 21
13.589778
 31
0.0
  0
LINE
  5
74C
100
AcDbEntity
  8
3
370
    25
100
AcDbLine
 10
-92.96265
 20
9.726075
 30
0.0
 11
-93.997926
 21
13.589778
 31
0.0
  0
LINE
  5
74D
100
AcDbEntity
  8
3
370
    25
100
AcDbLine
 10
-91.927374
 20
13.589778
 30
0.0
 11
-93.997926
 21
13.589778
 31
0.0
  0
LINE
  5
74E
100
AcDbEntity
  8
3
370
    25
100
AcDbLine
 10
-92.96265
 20
9.726075
 30
0.0
 11
-92.96265
 21
213.657263
 31
0.0
  0
LINE
  5
74F
100
AcDbEntity
  8
3
370
    25
100
AcDbLine
 10
-92.96265
 20
213.657263
 30
0.0
 11
-93.997926
 21
209.793559
 31
0.0
  0
LINE
  5
750
100
AcDbEntity
  8
3
370
    25
100
AcDbLine
 10
-92.96265
 20
213.657263
 30
0.0
 11
-91.927374
 21
209.793559
 31
0.0
  0
LINE
  5
751
100
AcDbEntity
  8
3
370
    25
100
AcDbLine
 10
-93.997926
 20
209.793559
 30
0.0
 11
-91.927374
 21
209.793559
 31
0.0
  0
LINE
  5
752
100
AcDbEntity
  8
3
370
    25
100
AcDbLine
 10
95.466981
 20
213.657263
 30
0.0
 11
-94.96265
 21
213.657263
 31
0.0
  0
ENDBLK
  5
753
100
AcDbEntity
  8
3
100
AcDbBlockEnd
  0
BLOCK
  5
754
100
AcDbEntity
  8
3
100
AcDbBlockBegin
  2
*D5
 70
     1
 10
0.0
 20
0.0
 30
0.0
  3
*D5
  1

  0
TEXT
  5
755
100
AcDbEntity
  8
3
370
    25
100
AcDbText
 10
55.986971
 20
194.572956
 30
0.0
 40
7.0
  1
３０゜
 50
55.768123
 72
     5
 11
67.012823
 21
210.777603
 31
0.0
100
AcDbText
  0
LINE
  5
756
100
AcDbEntity
  8
3
370
    25
100
AcDbLine
 10
94.283573
 20
210.468052
 30
0.0
 11
80.220129
 21
226.779046
 31
0.0
  0
LINE
  5
757
100
AcDbEntity
  8
3
370
    25
100
AcDbLine
 10
52.724774
 20
175.48284
 30
0.0
 11
46.738488
 21
177.57122
 31
0.0
  0
LINE
  5
758
100
AcDbEntity
  8
3
370
    25
100
AcDbLine
 10
81.526128
 20
225.264329
 30
0.0
 11
77.954145
 21
223.464068
 31
0.0
  0
LINE
  5
759
100
AcDbEntity
  8
3
370
    25
100
AcDbLine
 10
81.526128
 20
225.264329
 30
0.0
 11
79.33283
 21
221.919266
 31
0.0
  0
LINE
  5
75A
100
AcDbEntity
  8
3
370
    25
100
AcDbLine
 10
77.954145
 20
223.464068
 30
0.0
 11
79.33283
 21
221.919266
 31
0.0
  0
LINE
  5
75B
100
AcDbEntity
  8
3
370
    25
100
AcDbLine
 10
48.626875
 20
176.912436
 30
0.0
 11
50.933267
 21
180.180548
 31
0.0
  0
LINE
  5
75C
100
AcDbEntity
  8
3
370
    25
100
AcDbLine
 10
48.626875
 20
176.912436
 30
0.0
 11
48.990213
 21
180.8959
 31
0.0
  0
LINE
  5
75D
100
AcDbEntity
  8
3
370
    25
100
AcDbLine
 10
50.933267
 20
180.180548
 30
0.0
 11
48.990213
 21
180.8959
 31
0.0
  0
ARC
  5
75E
100
AcDbEntity
  8
3
370
    25
100
AcDbCircle
 10
155.302361
 20
139.697541
 30
0.0
 40
112.980564
100
AcDbArc
 50
130.768123
 51
160.768123
  0
ENDBLK
  5
75F
100
AcDbEntity
  8
3
100
AcDbBlockEnd
  0
BLOCK
  5
760
100
AcDbEntity
  8
3
100
AcDbBlockBegin
  2
*D6
 70
     1
 10
0.0
 20
0.0
 30
0.0
  3
*D6
  1

  0
TEXT
  5
761
100
AcDbEntity
  8
3
370
    25
100
AcDbText
 10
50.95506
 20
-1.906529
 30
0.0
 40
7.0
  1
１５５
 72
     5
 11
70.55506
 21
-1.906529
 31
0.0
100
AcDbText
  0
LINE
  5
762
100
AcDbEntity
  8
3
370
    25
100
AcDbLine
 10
-15.874583
 20
87.588084
 30
0.0
 11
-15.874583
 21
-4.906529
 31
0.0
  0
LINE
  5
763
100
AcDbEntity
  8
3
370
    25
100
AcDbLine
 10
-15.874583
 20
-2.906529
 30
0.0
 11
-12.010879
 21
-3.941806
 31
0.0
  0
LINE
  5
764
100
AcDbEntity
  8
3
370
    25
100
AcDbLine
 10
-15.874583
 20
-2.906529
 30
0.0
 11
-12.010879
 21
-1.871253
 31
0.0
  0
LINE
  5
765
100
AcDbEntity
  8
3
370
    25
100
AcDbLine
 10
-12.010879
 20
-3.941806
 30
0.0
 11
-12.010879
 21
-1.871253
 31
0.0
  0
LINE
  5
766
100
AcDbEntity
  8
3
370
    25
100
AcDbLine
 10
-15.874583
 20
-2.906529
 30
0.0
 11
138.784702
 21
-2.906529
 31
0.0
  0
LINE
  5
767
100
AcDbEntity
  8
3
370
    25
100
AcDbLine
 10
138.784702
 20
-2.906529
 30
0.0
 11
134.920999
 21
-1.871253
 31
0.0
  0
LINE
  5
768
100
AcDbEntity
  8
3
370
    25
100
AcDbLine
 10
138.784702
 20
-2.906529
 30
0.0
 11
134.920999
 21
-3.941806
 31
0.0
  0
LINE
  5
769
100
AcDbEntity
  8
3
370
    25
100
AcDbLine
 10
134.920999
 20
-1.871253
 30
0.0
 11
134.920999
 21
-3.941806
 31
0.0
  0
LINE
  5
76A
100
AcDbEntity
  8
3
370
    25
100
AcDbLine
 10
138.784702
 20
7.726075
 30
0.0
 11
138.784702
 21
-4.906529
 31
0.0
  0
ENDBLK
  5
76B
100
AcDbEntity
  8
3
100
AcDbBlockEnd
  0
BLOCK
  5
76C
100
AcDbEntity
  8
3
100
AcDbBlockBegin
  2
*D7
 70
     1
 10
0.0
 20
0.0
 30
0.0
  3
*D7
  1

  0
LINE
  5
76D
100
AcDbEntity
  8
3
370
    25
100
AcDbLine
 10
-258.154914
 20
-9.774775
 30
0.0
 11
-296.050724
 21
-9.774775
 31
0.0
  0
LINE
  5
76E
100
AcDbEntity
  8
3
370
    25
100
AcDbLine
 10
-294.050724
 20
-9.774775
 30
0.0
 11
-293.015448
 21
-5.911072
 31
0.0
  0
LINE
  5
76F
100
AcDbEntity
  8
3
370
    25
100
AcDbLine
 10
-294.050724
 20
-9.774775
 30
0.0
 11
-295.086
 21
-5.911072
 31
0.0
  0
LINE
  5
770
100
AcDbEntity
  8
3
370
    25
100
AcDbLine
 10
-293.015448
 20
-5.911072
 30
0.0
 11
-295.086
 21
-5.911072
 31
0.0
  0
LINE
  5
771
100
AcDbEntity
  8
3
370
    25
100
AcDbLine
 10
-294.050724
 20
-9.774775
 30
0.0
 11
-294.050724
 21
9.726075
 31
0.0
  0
LINE
  5
772
100
AcDbEntity
  8
3
370
    25
100
AcDbLine
 10
-294.050724
 20
9.726075
 30
0.0
 11
-295.086
 21
5.862371
 31
0.0
  0
LINE
  5
773
100
AcDbEntity
  8
3
370
    25
100
AcDbLine
 10
-294.050724
 20
9.726075
 30
0.0
 11
-293.015448
 21
5.862371
 31
0.0
  0
LINE
  5
774
100
AcDbEntity
  8
3
370
    25
100
AcDbLine
 10
-295.086
 20
5.862371
 30
0.0
 11
-293.015448
 21
5.862371
 31
0.0
  0
LINE
  5
775
100
AcDbEntity
  8
3
370
    25
100
AcDbLine
 10
-258.154246
 20
9.726075
 30
0.0
 11
-296.050724
 21
9.726075
 31
0.0
  0
ENDBLK
  5
776
100
AcDbEntity
  8
3
100
AcDbBlockEnd
  0
BLOCK
  5
777
100
AcDbEntity
  8
3
100
AcDbBlockBegin
  2
*D8
 70
     1
 10
0.0
 20
0.0
 30
0.0
  3
*D8
  1

  0
TEXT
  5
778
100
AcDbEntity
  8
3
370
    25
100
AcDbText
 10
-287.819004
 20
42.576083
 30
0.0
 40
7.0
  1
φ５３
 72
     5
 11
-268.219004
 21
42.576083
 31
0.0
100
AcDbText
  0
LINE
  5
779
100
AcDbEntity
  8
3
370
    25
100
AcDbLine
 10
-204.654246
 20
41.576083
 30
0.0
 11
-200.790542
 21
40.540807
 31
0.0
  0
LINE
  5
77A
100
AcDbEntity
  8
3
370
    25
100
AcDbLine
 10
-204.654246
 20
41.576083
 30
0.0
 11
-200.790542
 21
42.611359
 31
0.0
  0
LINE
  5
77B
100
AcDbEntity
  8
3
370
    25
100
AcDbLine
 10
-200.790542
 20
40.540807
 30
0.0
 11
-200.790542
 21
42.611359
 31
0.0
  0
LINE
  5
77C
100
AcDbEntity
  8
3
370
    25
100
AcDbLine
 10
-194.654246
 20
41.576083
 30
0.0
 11
-287.819004
 21
41.576083
 31
0.0
  0
LINE
  5
77D
100
AcDbEntity
  8
3
370
    25
100
AcDbLine
 10
-257.654246
 20
41.576083
 30
0.0
 11
-261.517949
 21
42.611359
 31
0.0
  0
LINE
  5
77E
100
AcDbEntity
  8
3
370
    25
100
AcDbLine
 10
-257.654246
 20
41.576083
 30
0.0
 11
-261.517949
 21
40.540807
 31
0.0
  0
LINE
  5
77F
100
AcDbEntity
  8
3
370
    25
100
AcDbLine
 10
-261.517949
 20
42.611359
 30
0.0
 11
-261.517949
 21
40.540807
 31
0.0
  0
ENDBLK
  5
780
100
AcDbEntity
  8
3
100
AcDbBlockEnd
  0
BLOCK
  5
781
100
AcDbEntity
  8
3
100
AcDbBlockBegin
  2
*D9
 70
     1
 10
0.0
 20
0.0
 30
0.0
  3
*D9
  1

  0
LINE
  5
782
100
AcDbEntity
  8
3
370
    25
100
AcDbLine
 10
195.3735
 20
-110.913096
 30
0.0
 11
239.137646
 21
-110.913096
 31
0.0
  0
LINE
  5
783
100
AcDbEntity
  8
3
370
    25
100
AcDbLine
 10
237.137646
 20
-110.913096
 30
0.0
 11
238.172922
 21
-107.049393
 31
0.0
  0
LINE
  5
784
100
AcDbEntity
  8
3
370
    25
100
AcDbLine
 10
237.137646
 20
-110.913096
 30
0.0
 11
236.10237
 21
-107.049393
 31
0.0
  0
LINE
  5
785
100
AcDbEntity
  8
3
370
    25
100
AcDbLine
 10
238.172922
 20
-107.049393
 30
0.0
 11
236.10237
 21
-107.049393
 31
0.0
  0
LINE
  5
786
100
AcDbEntity
  8
3
370
    25
100
AcDbLine
 10
237.137646
 20
-110.913096
 30
0.0
 11
237.137646
 21
9.726075
 31
0.0
  0
LINE
  5
787
100
AcDbEntity
  8
3
370
    25
100
AcDbLine
 10
237.137646
 20
9.726075
 30
0.0
 11
236.10237
 21
5.862371
 31
0.0
  0
LINE
  5
788
100
AcDbEntity
  8
3
370
    25
100
AcDbLine
 10
237.137646
 20
9.726075
 30
0.0
 11
238.172922
 21
5.862371
 31
0.0
  0
LINE
  5
789
100
AcDbEntity
  8
3
370
    25
100
AcDbLine
 10
236.10237
 20
5.862371
 30
0.0
 11
238.172922
 21
5.862371
 31
0.0
  0
LINE
  5
78A
100
AcDbEntity
  8
3
370
    25
100
AcDbLine
 10
165.784702
 20
9.726075
 30
0.0
 11
239.137646
 21
9.726075
 31
0.0
  0
ENDBLK
  5
78B
100
AcDbEntity
  8
3
100
AcDbBlockEnd
  0
BLOCK
  5
78C
100
AcDbEntity
  8
3
100
AcDbBlockBegin
  2
*D10
 70
     1
 10
0.0
 20
0.0
 30
0.0
  3
*D10
  1

  0
LINE
  5
78D
100
AcDbEntity
  8
3
370
    25
100
AcDbLine
 10
88.140884
 20
-165.59643
 30
0.0
 11
-43.232471
 21
-165.59643
 31
0.0
  0
LINE
  5
78E
100
AcDbEntity
  8
3
370
    25
100
AcDbLine
 10
-41.232471
 20
-165.59643
 30
0.0
 11
-40.197195
 21
-161.732727
 31
0.0
  0
LINE
  5
78F
100
AcDbEntity
  8
3
370
    25
100
AcDbLine
 10
-41.232471
 20
-165.59643
 30
0.0
 11
-42.267748
 21
-161.732727
 31
0.0
  0
LINE
  5
790
100
AcDbEntity
  8
3
370
    25
100
AcDbLine
 10
-40.197195
 20
-161.732727
 30
0.0
 11
-42.267748
 21
-161.732727
 31
0.0
  0
LINE
  5
791
100
AcDbEntity
  8
3
370
    25
100
AcDbLine
 10
-41.232471
 20
-165.59643
 30
0.0
 11
-41.232471
 21
9.726075
 31
0.0
  0
LINE
  5
792
100
AcDbEntity
  8
3
370
    25
100
AcDbLine
 10
-41.232471
 20
9.726075
 30
0.0
 11
-42.267748
 21
5.862371
 31
0.0
  0
LINE
  5
793
100
AcDbEntity
  8
3
370
    25
100
AcDbLine
 10
-41.232471
 20
9.726075
 30
0.0
 11
-40.197195
 21
5.862371
 31
0.0
  0
LINE
  5
794
100
AcDbEntity
  8
3
370
    25
100
AcDbLine
 10
-42.267748
 20
5.862371
 30
0.0
 11
-40.197195
 21
5.862371
 31
0.0
  0
LINE
  5
795
100
AcDbEntity
  8
3
370
    25
100
AcDbLine
 10
111.784702
 20
9.726075
 30
0.0
 11
-43.232471
 21
9.726075
 31
0.0
  0
ENDBLK
  5
796
100
AcDbEntity
  8
3
100
AcDbBlockEnd
  0
ENDSEC
  0
SECTION
  2
ENTITIES
  0
LINE
  5
2F
100
AcDbEntity
  8
1
370
   100
100
AcDbLine
 10
-384.001978
 20
276.500324
 30
0.0
 11
384.001978
 21
276.500324
 31
0.0
  0
LINE
  5
30
100
AcDbEntity
  8
1
370
   100
100
AcDbLine
 10
-384.001978
 20
276.500324
 30
0.0
 11
-384.001978
 21
-276.500324
 31
0.0
  0
LINE
  5
31
100
AcDbEntity
  8
1
370
   100
100
AcDbLine
 10
-384.001978
 20
-276.500324
 30
0.0
 11
384.001978
 21
-276.500324
 31
0.0
  0
LINE
  5
32
100
AcDbEntity
  8
1
370
   100
100
AcDbLine
 10
384.001978
 20
-276.500324
 30
0.0
 11
384.001978
 21
276.500324
 31
0.0
  0
TEXT
  5
33
100
AcDbEntity
  8
1
370
    50
100
AcDbText
 10
348.648035
 20
-224.7813
 30
0.0
 40
6.0
  1
設計
 72
     5
 11
359.448035
 21
-224.7813
 31
0.0
100
AcDbText
  0
TEXT
  5
34
100
AcDbEntity
  8
1
370
    50
100
AcDbText
 10
368.14707
 20
-224.628101
 30
0.0
 40
6.0
  1
製図
 72
     5
 11
378.94707
 21
-224.628101
 31
0.0
100
AcDbText
  0
TEXT
  5
35
100
AcDbEntity
  8
1
370
    50
100
AcDbText
 10
308.025337
 20
-224.7813
 30
0.0
 40
6.0
  1
承認
 72
     5
 11
318.825337
 21
-224.7813
 31
0.0
100
AcDbText
  0
TEXT
  5
36
100
AcDbEntity
  8
1
370
    50
100
AcDbText
 10
328.009271
 20
-224.726463
 30
0.0
 40
6.0
  1
検図
 72
     5
 11
338.809271
 21
-224.726463
 31
0.0
100
AcDbText
  0
LINE
  5
37
100
AcDbEntity
  8
1
370
    25
100
AcDbLine
 10
274.001978
 20
-226.500324
 30
0.0
 11
384.001978
 21
-226.500324
 31
0.0
  0
LINE
  5
38
100
AcDbEntity
  8
1
370
    25
100
AcDbLine
 10
331.501978
 20
-244.500324
 30
0.0
 11
331.501978
 21
-258.500324
 31
0.0
  0
TEXT
  5
39
100
AcDbEntity
  8
1
370
    50
100
AcDbText
 10
308.571182
 20
-254.540971
 30
0.0
 40
6.0
  1
日　付
 72
     5
 11
325.371182
 21
-254.540971
 31
0.0
100
AcDbText
  0
LINE
  5
3A
100
AcDbEntity
  8
1
370
    50
100
AcDbLine
 10
30.001978
 20
-258.500324
 30
0.0
 11
384.001978
 21
-258.500324
 31
0.0
  0
TEXT
  5
3B
100
AcDbEntity
  8
1
370
    50
100
AcDbText
 10
276.794603
 20
-254.850849
 30
0.0
 40
6.0
  1
第三角法
 72
     5
 11
299.594603
 21
-254.850849
 31
0.0
100
AcDbText
  0
TEXT
  5
3C
100
AcDbEntity
  8
1
370
    50
100
AcDbText
 10
280.107011
 20
-224.526463
 30
0.0
 40
6.0
  1
尺　度
 72
     5
 11
296.907011
 21
-224.526463
 31
0.0
100
AcDbText
  0
LINE
  5
3D
100
AcDbEntity
  8
1
370
   100
100
AcDbLine
 10
30.001978
 20
-216.500324
 30
0.0
 11
384.001978
 21
-216.500324
 31
0.0
  0
LINE
  5
3E
100
AcDbEntity
  8
1
370
    50
100
AcDbLine
 10
201.001978
 20
-216.500324
 30
0.0
 11
201.001978
 21
-276.500324
 31
0.0
  0
LINE
  5
3F
100
AcDbEntity
  8
1
370
    25
100
AcDbLine
 10
364.001978
 20
-244.500324
 30
0.0
 11
364.001978
 21
-216.500324
 31
0.0
  0
LINE
  5
40
100
AcDbEntity
  8
1
370
    25
100
AcDbLine
 10
344.001978
 20
-244.500324
 30
0.0
 11
344.001978
 21
-216.500324
 31
0.0
  0
LINE
  5
41
100
AcDbEntity
  8
1
370
    25
100
AcDbLine
 10
324.001978
 20
-244.500324
 30
0.0
 11
324.001978
 21
-216.500324
 31
0.0
  0
LINE
  5
42
100
AcDbEntity
  8
1
370
    50
100
AcDbLine
 10
274.001978
 20
-276.500324
 30
0.0
 11
274.001978
 21
-216.500324
 31
0.0
  0
LINE
  5
43
100
AcDbEntity
  8
1
370
    50
100
AcDbLine
 10
179.001978
 20
-216.500324
 30
0.0
 11
179.001978
 21
-276.500324
 31
0.0
  0
LINE
  5
44
100
AcDbEntity
  8
1
370
    50
100
AcDbLine
 10
52.001978
 20
-216.500324
 30
0.0
 11
52.001978
 21
-258.500324
 31
0.0
  0
LINE
  5
45
100
AcDbEntity
  8
1
370
    50
100
AcDbLine
 10
274.001978
 20
-244.500324
 30
0.0
 11
384.001978
 21
-244.500324
 31
0.0
  0
TEXT
  5
46
100
AcDbEntity
  8
1
370
    50
100
AcDbText
 10
276.120721
 20
-270.409382
 30
0.0
 40
6.0
  1
コードＮｏ
 41
0.9
 72
     5
 11
302.040721
 21
-270.409382
 31
0.0
100
AcDbText
  0
TEXT
  5
47
100
AcDbEntity
  8
1
370
   100
100
AcDbText
 10
41.906366
 20
-271.404102
 30
0.0
 40
8.0
  1
ミズタニバルブ工業株式会社
 41
1.2
 72
     5
 11
164.786366
 21
-271.404102
 31
0.0
100
AcDbText
  0
LINE
  5
48
100
AcDbEntity
  8
1
370
    50
100
AcDbLine
 10
30.001978
 20
-237.500324
 30
0.0
 11
274.001978
 21
-237.500324
 31
0.0
  0
LINE
  5
49
100
AcDbEntity
  8
1
370
    50
100
AcDbLine
 10
104.501978
 20
-237.500324
 30
0.0
 11
104.501978
 21
-258.500324
 31
0.0
  0
LINE
  5
4A
100
AcDbEntity
  8
1
370
    50
100
AcDbLine
 10
126.501978
 20
-237.500324
 30
0.0
 11
126.501978
 21
-258.500324
 31
0.0
  0
LINE
  5
4B
100
AcDbEntity
  8
1
370
    50
100
AcDbLine
 10
304.001978
 20
-276.500324
 30
0.0
 11
304.001978
 21
-216.500324
 31
0.0
  0
TEXT
  5
4C
100
AcDbEntity
  8
1
370
    50
100
AcDbText
 10
334.117723
 20
-254.628736
 30
0.0
 40
6.0
  1
　　・　　・
 72
     5
 11
368.917723
 21
-254.628736
 31
0.0
100
AcDbText
  0
LINE
  5
4D
100
AcDbEntity
  8
1
370
   100
100
AcDbLine
 10
30.001978
 20
-216.500324
 30
0.0
 11
30.001978
 21
-276.500324
 31
0.0
  0
TEXT
  5
4E
100
AcDbEntity
  8
1
370
    50
100
AcDbText
 10
279.852174
 20
-238.541935
 30
0.0
 40
6.0
  1
　／ 
 72
     5
 11
290.652174
 21
-238.541935
 31
0.0
100
AcDbText
  0
TEXT
  5
4F
100
AcDbEntity
  8
1
370
    50
100
AcDbText
 10
182.923715
 20
-270.553352
 30
0.0
 40
6.0
  1
備 考 
 72
     5
 11
196.723715
 21
-270.553352
 31
0.0
100
AcDbText
  0
TEXT
  5
50
100
AcDbEntity
  8
1
370
    50
100
AcDbText
 10
182.532126
 20
-229.420283
 30
0.0
 40
6.0
  1
仕 上
 72
     5
 11
196.332126
 21
-229.420283
 31
0.0
100
AcDbText
  0
TEXT
  5
51
100
AcDbEntity
  8
1
370
    50
100
AcDbText
 10
182.466768
 20
-247.420109
 30
0.0
 40
6.0
  1
表 面
 72
     5
 11
196.266768
 21
-247.420109
 31
0.0
100
AcDbText
  0
TEXT
  5
52
100
AcDbEntity
  8
1
370
    50
100
AcDbText
 10
182.466768
 20
-254.420109
 30
0.0
 40
6.0
  1
処 理
 72
     5
 11
196.266768
 21
-254.420109
 31
0.0
100
AcDbText
  0
TEXT
  5
53
100
AcDbEntity
  8
1
370
    50
100
AcDbText
 10
33.812943
 20
-230.221842
 30
0.0
 40
6.0
  1
品 名
 72
     5
 11
47.612943
 21
-230.221842
 31
0.0
100
AcDbText
  0
TEXT
  5
54
100
AcDbEntity
  8
1
370
    50
100
AcDbText
 10
33.417358
 20
-250.990977
 30
0.0
 40
6.0
  1
材 質
 72
     5
 11
47.217358
 21
-250.990977
 31
0.0
100
AcDbText
  0
TEXT
  5
55
100
AcDbEntity
  8
1
370
    50
100
AcDbText
 10
107.917358
 20
-250.990977
 30
0.0
 40
6.0
  1
規 格
 72
     5
 11
121.717358
 21
-250.990977
 31
0.0
100
AcDbText
  0
LINE
  5
56
100
AcDbEntity
  8
2
370
    50
100
AcDbLine
 10
165.284702
 20
10.426075
 30
0.0
 11
165.284702
 21
110.590625
 31
0.0
  0
LINE
  5
57
100
AcDbEntity
  8
2
370
    50
100
AcDbLine
 10
94.319223
 20
87.391913
 30
0.0
 11
104.1381
 21
79.440744
 31
0.0
  0
LINE
  5
58
100
AcDbEntity
  8
2
370
    50
100
AcDbLine
 10
112.284702
 20
10.426075
 30
0.0
 11
112.284702
 21
16.454079
 31
0.0
  0
LINE
  5
59
100
AcDbEntity
  8
2
370
    50
100
AcDbLine
 10
165.084702
 20
10.226075
 30
0.0
 11
112.484702
 21
10.226075
 31
0.0
  0
LINE
  5
5A
100
AcDbEntity
  8
2
370
    50
100
AcDbLine
 10
113.834702
 20
10.226075
 30
0.0
 11
113.834702
 21
10.026075
 31
0.0
  0
LINE
  5
5B
100
AcDbEntity
  8
2
370
    50
100
AcDbLine
 10
163.734702
 20
10.226075
 30
0.0
 11
163.734702
 21
10.026075
 31
0.0
  0
LINE
  5
5C
100
AcDbEntity
  8
2
370
    50
100
AcDbLine
 10
112.284702
 20
83.326473
 30
0.0
 11
112.284702
 21
110.590625
 31
0.0
  0
ARC
  5
5D
100
AcDbEntity
  8
2
370
    50
100
AcDbCircle
 10
85.784702
 20
16.454079
 30
0.0
 40
26.5
100
AcDbArc
 50
0.0
 51
51.26018
  0
ARC
  5
5E
100
AcDbEntity
  8
2
370
    50
100
AcDbCircle
 10
107.284702
 20
83.326473
 30
0.0
 40
5.0
100
AcDbArc
 50
231.0
 51
360.0
  0
LINE
  5
5F
100
AcDbEntity
  8
2
370
    50
100
AcDbLine
 10
72.922158
 20
60.968738
 30
0.0
 11
102.555039
 21
36.972504
 31
0.0
  0
LINE
  5
60
100
AcDbEntity
  8
2
370
    50
100
AcDbLine
 10
113.784702
 20
9.726075
 30
0.0
 11
163.784702
 21
9.726075
 31
0.0
  0
LINE
  5
61
100
AcDbEntity
  8
2
370
    50
100
AcDbLine
 10
163.219432
 20
111.122607
 30
0.0
 11
165.119432
 21
110.787586
 31
0.0
  0
ARC
  5
62
100
AcDbEntity
  8
2
370
    50
100
AcDbCircle
 10
165.084702
 20
110.590625
 30
0.0
 40
0.2
100
AcDbArc
 50
0.0
 51
80.0
  0
ARC
  5
63
100
AcDbEntity
  8
2
370
    50
100
AcDbCircle
 10
163.184702
 20
110.925646
 30
0.0
 40
0.2
100
AcDbArc
 50
80.0
 51
90.0
  0
ARC
  5
64
100
AcDbEntity
  8
2
370
    50
100
AcDbCircle
 10
112.484702
 20
110.590625
 30
0.0
 40
0.2
100
AcDbArc
 50
100.0
 51
180.0
  0
LINE
  5
65
100
AcDbEntity
  8
2
370
    50
100
AcDbLine
 10
114.349972
 20
111.122607
 30
0.0
 11
112.449972
 21
110.787586
 31
0.0
  0
ARC
  5
66
100
AcDbEntity
  8
2
370
    50
100
AcDbCircle
 10
114.384702
 20
110.925646
 30
0.0
 40
0.2
100
AcDbArc
 50
90.0
 51
100.0
  0
LINE
  5
67
100
AcDbEntity
  8
2
370
    50
100
AcDbLine
 10
163.434702
 20
9.726075
 30
0.0
 11
163.734702
 21
10.026075
 31
0.0
  0
LINE
  5
68
100
AcDbEntity
  8
2
370
    50
100
AcDbLine
 10
114.134702
 20
9.726075
 30
0.0
 11
113.834702
 21
10.026075
 31
0.0
  0
LINE
  5
69
100
AcDbEntity
  8
2
370
    50
100
AcDbLine
 10
165.084702
 20
10.226075
 30
0.0
 11
165.284702
 21
10.426075
 31
0.0
  0
LINE
  5
6A
100
AcDbEntity
  8
2
370
    50
100
AcDbLine
 10
112.484702
 20
10.226075
 30
0.0
 11
112.284702
 21
10.426075
 31
0.0
  0
LINE
  5
6B
100
AcDbEntity
  8
2
370
    50
100
AcDbLine
 10
93.756637
 20
87.332783
 30
0.0
 11
94.319223
 21
87.391913
 31
0.0
  0
LINE
  5
6C
100
AcDbEntity
  8
2
370
    50
100
AcDbLine
 10
72.863028
 20
61.531325
 30
0.0
 11
72.922158
 21
60.968738
 31
0.0
  0
LINE
  5
6D
100
AcDbEntity
  8
2
370
    50
100
AcDbLine
 10
-206.404246
 20
9.726075
 30
0.0
 11
-255.904246
 21
9.726075
 31
0.0
  0
ELLIPSE
  5
6E
100
AcDbEntity
  8
2
370
    50
100
AcDbEllipse
 10
-231.154246
 20
74.431948
 30
0.0
 11
17.0
 21
0.0
 31
0.0
210
0.0
220
0.0
230
1.0
 40
0.777146
 41
3.1415929999999999
 42
0.0
  0
LINE
  5
6F
100
AcDbEntity
  8
2
370
    50
100
AcDbLine
 10
-248.154246
 20
88.715409
 30
0.0
 11
-248.154246
 21
36.972504
 31
0.0
  0
LINE
  5
70
100
AcDbEntity
  8
2
370
    50
100
AcDbLine
 10
-214.154246
 20
88.715409
 30
0.0
 11
-214.154246
 21
36.972504
 31
0.0
  0
ELLIPSE
  5
71
100
AcDbEntity
  8
2
370
    25
100
AcDbEllipse
 10
-231.154246
 20
36.972504
 30
0.0
 11
17.0
 21
0.0
 31
0.0
210
0.0
220
0.0
230
1.0
 40
0.777146
 41
3.5554190000000001
 42
5.8989390000000004
  0
LINE
  5
72
100
AcDbEntity
  8
2
370
    50
100
AcDbLine
 10
-233.354246
 20
53.165166
 30
0.0
 11
-233.354246
 21
51.365724
 31
0.0
  0
LINE
  5
73
100
AcDbEntity
  8
2
370
    50
100
AcDbLine
 10
-228.954246
 20
53.165166
 30
0.0
 11
-228.954246
 21
51.365724
 31
0.0
  0
ELLIPSE
  5
74
100
AcDbEntity
  8
2
370
    50
100
AcDbEllipse
 10
-231.154246
 20
53.165166
 30
0.0
 11
2.2000000000000002
 21
0.0
 31
0.0
210
0.0
220
0.0
230
1.0
 40
0.62932
 41
0.0
 42
3.1415929999999999
  0
ELLIPSE
  5
75
100
AcDbEntity
  8
2
370
    50
100
AcDbEllipse
 10
-231.154246
 20
49.263379
 30
0.0
 11
4.0
 21
0.0
 31
0.0
210
0.0
220
0.0
230
1.0
 40
0.62932
 41
2.1531609999999999
 42
0.988432
  0
ELLIPSE
  5
76
100
AcDbEntity
  8
2
370
    50
100
AcDbEllipse
 10
-231.154246
 20
54.330884
 30
0.0
 11
2.0
 21
0.0
 31
0.0
210
0.0
220
0.0
230
1.0
 40
0.62932
 41
3.4988610000000002
 42
5.9259170000000001
  0
LINE
  5
77
100
AcDbEntity
  8
2
370
    50
100
AcDbLine
 10
-204.854246
 20
10.226075
 30
0.0
 11
-257.454246
 21
10.226075
 31
0.0
  0
LINE
  5
78
100
AcDbEntity
  8
2
370
    50
100
AcDbLine
 10
-204.654246
 20
91.574011
 30
0.0
 11
-204.654246
 21
10.426075
 31
0.0
  0
LINE
  5
79
100
AcDbEntity
  8
2
370
    50
100
AcDbLine
 10
-257.654246
 20
91.574011
 30
0.0
 11
-257.654246
 21
10.426075
 31
0.0
  0
LINE
  5
7A
100
AcDbEntity
  8
2
370
    50
100
AcDbLine
 10
-256.104246
 20
10.226075
 30
0.0
 11
-256.104246
 21
9.926075
 31
0.0
  0
LINE
  5
7B
100
AcDbEntity
  8
2
370
    50
100
AcDbLine
 10
-206.204246
 20
10.226075
 30
0.0
 11
-206.204246
 21
9.926075
 31
0.0
  0
LINE
  5
7C
100
AcDbEntity
  8
2
370
    50
100
AcDbLine
 10
-204.654246
 20
10.426075
 30
0.0
 11
-204.854246
 21
10.226075
 31
0.0
  0
LINE
  5
7D
100
AcDbEntity
  8
2
370
    50
100
AcDbLine
 10
-257.654246
 20
10.426075
 30
0.0
 11
-257.454246
 21
10.226075
 31
0.0
  0
LINE
  5
7E
100
AcDbEntity
  8
2
370
    50
100
AcDbLine
 10
-206.404246
 20
9.726075
 30
0.0
 11
-206.204246
 21
9.926075
 31
0.0
  0
LINE
  5
7F
100
AcDbEntity
  8
2
370
    50
100
AcDbLine
 10
-256.104246
 20
9.926075
 30
0.0
 11
-255.904246
 21
9.726075
 31
0.0
  0
LINE
  5
80
100
AcDbEntity
  8
2
370
    50
100
AcDbLine
 10
-257.654246
 20
10.426075
 30
0.0
 11
-204.654246
 21
10.426075
 31
0.0
  0
LINE
  5
81
100
AcDbEntity
  8
2
370
    50
100
AcDbLine
 10
-206.204246
 20
9.926075
 30
0.0
 11
-256.104246
 21
9.926075
 31
0.0
  0
ELLIPSE
  5
82
100
AcDbEntity
  8
2
370
    50
100
AcDbEllipse
 10
-231.154246
 20
51.672532
 30
0.0
 11
4.0
 21
0.0
 31
0.0
210
0.0
220
0.0
230
1.0
 40
0.62932
 41
3.6405639999999999
 42
5.7842140000000004
  0
LINE
  5
83
100
AcDbEntity
  8
2
370
    50
100
AcDbLine
 10
93.756637
 20
87.332783
 30
0.0
 11
72.863028
 21
61.531325
 31
0.0
  0
LINE
  5
84
100
AcDbEntity
  8
2
370
    50
100
AcDbLine
 10
-31.813945
 20
140.609235
 30
0.0
 11
-38.853528
 21
141.724195
 31
0.0
  0
ARC
  5
85
100
AcDbEntity
  8
2
370
    50
100
AcDbCircle
 10
-39.009963
 20
140.736507
 30
0.0
 40
1.0
100
AcDbArc
 50
81.0
 51
171.0
  0
LINE
  5
86
100
AcDbEntity
  8
2
370
    50
100
AcDbLine
 10
-39.997651
 20
140.892941
 30
0.0
 11
-41.561996
 21
131.016058
 31
0.0
  0
ARC
  5
87
100
AcDbEntity
  8
2
370
    50
100
AcDbCircle
 10
-40.574307
 20
130.859624
 30
0.0
 40
1.0
100
AcDbArc
 50
171.0
 51
261.0
  0
LINE
  5
88
100
AcDbEntity
  8
2
370
    50
100
AcDbLine
 10
-40.730742
 20
129.871935
 30
0.0
 11
-33.691158
 21
128.756975
 31
0.0
  0
ARC
  5
89
100
AcDbEntity
  8
2
370
    50
100
AcDbCircle
 10
-36.657135
 20
130.239204
 30
0.0
 40
1.0
100
AcDbArc
 50
171.0
 51
261.0
  0
LINE
  5
8A
100
AcDbEntity
  8
2
370
    50
100
AcDbLine
 10
-36.080479
 20
140.272522
 30
0.0
 11
-37.644824
 21
130.395639
 31
0.0
  0
ARC
  5
8B
100
AcDbEntity
  8
2
370
    50
100
AcDbCircle
 10
-35.092791
 20
140.116088
 30
0.0
 40
1.0
100
AcDbArc
 50
81.0
 51
171.0
  0
LINE
  5
8C
100
AcDbEntity
  8
2
370
    50
100
AcDbLine
 10
12.802037
 20
101.245121
 30
0.0
 11
-39.545445
 21
109.536148
 31
0.0
  0
LINE
  5
8D
100
AcDbEntity
  8
2
370
    50
100
AcDbLine
 10
55.551325
 20
82.579873
 30
0.0
 11
51.733812
 21
77.865637
 31
0.0
  0
ARC
  5
8E
100
AcDbEntity
  8
2
370
    50
100
AcDbCircle
 10
-1231.552327
 20
-1693.167989
 30
0.0
 40
2220.0
100
AcDbArc
 50
53.35047
 51
55.519825
  0
LINE
  5
8F
100
AcDbEntity
  8
2
370
    50
100
AcDbLine
 10
-36.988818
 20
128.874287
 30
0.0
 11
-39.961072
 21
110.108209
 31
0.0
  0
ARC
  5
90
100
AcDbEntity
  8
2
370
    50
100
AcDbCircle
 10
15.673255
 20
100.790364
 30
0.0
 40
2.407009
100
AcDbArc
 50
55.42838
 51
159.076634
  0
LINE
  5
91
100
AcDbEntity
  8
2
370
    50
100
AcDbLine
 10
-34.178939
 20
128.631739
 30
0.0
 11
-36.759993
 21
129.040538
 31
0.0
  0
LINE
  5
92
100
AcDbEntity
  8
2
370
    50
100
AcDbLine
 10
-32.239152
 20
140.879075
 30
0.0
 11
-33.85953
 21
141.135717
 31
0.0
  0
ARC
  5
93
100
AcDbEntity
  8
2
370
    50
100
AcDbCircle
 10
-20.807851
 20
69.782661
 30
0.0
 40
81.332849
100
AcDbArc
 50
55.519825
 51
93.473573
  0
ARC
  5
94
100
AcDbEntity
  8
2
370
    50
100
AcDbCircle
 10
-25.675069
 20
149.967927
 30
0.0
 40
1.0
100
AcDbArc
 50
93.473573
 51
133.938212
  0
ARC
  5
95
100
AcDbEntity
  8
2
370
    50
100
AcDbCircle
 10
10.129254
 20
112.81136
 30
0.0
 40
52.6
100
AcDbArc
 50
133.938212
 51
147.02241
  0
LINE
  5
96
100
AcDbEntity
  8
2
370
    50
100
AcDbLine
 10
58.815338
 20
79.936727
 30
0.0
 11
55.07714
 21
75.320437
 31
0.0
  0
LINE
  5
97
100
AcDbEntity
  8
2
370
    50
100
AcDbLine
 10
72.92596
 20
61.609039
 30
0.0
 11
72.222639
 21
61.535018
 31
0.0
  0
LINE
  5
98
100
AcDbEntity
  8
2
370
    50
100
AcDbLine
 10
-39.545445
 20
109.536148
 30
0.0
 11
-39.961072
 21
110.108209
 31
0.0
  0
LINE
  5
99
100
AcDbEntity
  8
2
370
    50
100
AcDbLine
 10
12.802037
 20
101.245121
 30
0.0
 11
13.424967
 21
101.649952
 31
0.0
  0
ARC
  5
9A
100
AcDbEntity
  8
2
370
    50
100
AcDbCircle
 10
-492.518412
 20
-636.656607
 30
0.0
 40
898.0
100
AcDbArc
 50
51.031902
 51
52.422653
  0
LINE
  5
9B
100
AcDbEntity
  8
2
370
    50
100
AcDbLine
 10
58.815338
 20
79.936727
 30
0.0
 11
55.551325
 21
82.579873
 31
0.0
  0
LINE
  5
9C
100
AcDbEntity
  8
2
370
    25
100
AcDbLine
 10
-29.524908
 20
138.323004
 30
0.0
 11
17.988915
 21
130.797554
 31
0.0
  0
LINE
  5
9D
100
AcDbEntity
  8
2
370
    25
100
AcDbLine
 10
-25.973066
 20
150.922494
 30
0.0
 11
2.257998
 21
146.451133
 31
0.0
  0
ARC
  5
9E
100
AcDbEntity
  8
2
370
    25
100
AcDbCircle
 10
11.212584
 20
88.013484
 30
0.0
 40
43.317379
100
AcDbArc
 50
58.198165
 51
81.0
  0
LINE
  5
9F
100
AcDbEntity
  8
2
370
    50
100
AcDbLine
 10
93.607076
 20
87.941933
 30
0.0
 11
93.693533
 21
87.254857
 31
0.0
  0
ARC
  5
A0
100
AcDbEntity
  8
2
370
    50
100
AcDbCircle
 10
-35.587938
 20
135.132187
 30
0.0
 40
6.651398
100
AcDbArc
 50
282.229912
 51
59.770088
  0
ARC
  5
A1
100
AcDbEntity
  8
2
370
    50
100
AcDbCircle
 10
-492.518412
 20
-636.656607
 30
0.0
 40
898.0
100
AcDbArc
 50
52.716196
 51
55.42838
  0
ARC
  5
A2
100
AcDbEntity
  8
2
370
    50
100
AcDbCircle
 10
51.578383
 20
77.991501
 30
0.0
 40
0.2
100
AcDbArc
 50
232.716196
 51
321.0
  0
ARC
  5
A3
100
AcDbEntity
  8
2
370
    50
100
AcDbCircle
 10
55.23257
 20
75.194573
 30
0.0
 40
0.2
100
AcDbArc
 50
141.0
 51
232.422653
  0
ARC
  5
A4
100
AcDbEntity
  8
2
370
    25
100
AcDbCircle
 10
-5.757095
 20
95.845826
 30
0.0
 40
51.236107
100
AcDbArc
 50
59.994756
 51
81.0
  0
ARC
  5
A5
100
AcDbEntity
  8
2
370
    50
100
AcDbCircle
 10
-33.828243
 20
141.333255
 30
0.0
 40
0.2
100
AcDbArc
 50
147.02241
 51
261.0
  0
ARC
  5
A6
100
AcDbEntity
  8
2
370
    50
100
AcDbCircle
 10
-36.79128
 20
128.843001
 30
0.0
 40
0.2
100
AcDbArc
 50
81.0
 51
171.0
  0
LINE
  5
A7
100
AcDbEntity
  8
2
370
    50
100
AcDbLine
 10
58.737624
 20
79.999659
 30
0.0
 11
55.299529
 21
75.753966
 31
0.0
  0
LINE
  5
A8
100
AcDbEntity
  8
2
370
    50
100
AcDbLine
 10
55.62904
 20
82.516941
 30
0.0
 11
52.190945
 21
78.271247
 31
0.0
  0
LINE
  5
A9
100
AcDbEntity
  8
2
370
    50
100
AcDbLine
 10
52.264858
 20
77.568014
 30
0.0
 11
54.596296
 21
75.680053
 31
0.0
  0
ARC
  5
AA
100
AcDbEntity
  8
2
370
    50
100
AcDbCircle
 10
52.579518
 20
77.956587
 30
0.0
 40
0.5
100
AcDbArc
 50
141.0
 51
231.0
  0
ARC
  5
AB
100
AcDbEntity
  8
2
370
    50
100
AcDbCircle
 10
54.910956
 20
76.068626
 30
0.0
 40
0.5
100
AcDbArc
 50
231.0
 51
321.0
  0
LINE
  5
AC
100
AcDbEntity
  8
2
370
    50
100
AcDbLine
 10
58.422964
 20
79.611086
 30
0.0
 11
55.31438
 21
82.128368
 31
0.0
  0
LINE
  5
AD
100
AcDbEntity
  8
2
370
    50
100
AcDbLine
 10
-39.742983
 20
109.567434
 30
0.0
 11
12.999574
 21
101.213834
 31
0.0
  0
LINE
  5
AE
100
AcDbEntity
  8
2
370
    50
100
AcDbLine
 10
-39.742983
 20
109.567434
 30
0.0
 11
-39.8212
 21
109.07359
 31
0.0
  0
LINE
  5
AF
100
AcDbEntity
  8
2
370
    50
100
AcDbLine
 10
-40.117507
 20
109.120521
 30
0.0
 11
13.217664
 21
100.673059
 31
0.0
  0
LINE
  5
B0
100
AcDbEntity
  8
2
370
    50
100
AcDbLine
 10
12.999574
 20
101.213834
 30
0.0
 11
12.921357
 21
100.71999
 31
0.0
  0
LINE
  5
B1
100
AcDbEntity
  8
2
370
    50
100
AcDbLine
 10
-40.117537
 20
109.120327
 30
0.0
 11
-41.525417
 21
100.231326
 31
0.0
  0
LINE
  5
B2
100
AcDbEntity
  8
2
370
    50
100
AcDbLine
 10
13.217664
 20
100.673059
 30
0.0
 11
11.809753
 21
91.783864
 31
0.0
  0
LINE
  5
B3
100
AcDbEntity
  8
2
370
    50
100
AcDbLine
 10
-6.450224
 20
88.095412
 30
0.0
 11
-25.298941
 21
91.080756
 31
0.0
  0
ARC
  5
B4
100
AcDbEntity
  8
2
370
    50
100
AcDbCircle
 10
-6.372007
 20
88.589256
 30
0.0
 40
0.5
100
AcDbArc
 50
261.0
 51
334.390441
  0
ARC
  5
B5
100
AcDbEntity
  8
2
370
    50
100
AcDbCircle
 10
-25.220724
 20
91.5746
 30
0.0
 40
0.5
100
AcDbArc
 50
187.609559
 51
261.0
  0
LINE
  5
B6
100
AcDbEntity
  8
2
370
    50
100
AcDbLine
 10
-38.200402
 20
95.654834
 30
0.0
 11
7.233262
 21
88.458849
 31
0.0
  0
ARC
  5
B7
100
AcDbEntity
  8
2
370
    50
100
AcDbCircle
 10
-37.574664
 20
99.605588
 30
0.0
 40
4.0
100
AcDbArc
 50
171.0
 51
261.0
  0
ARC
  5
B8
100
AcDbEntity
  8
2
370
    50
100
AcDbCircle
 10
7.859
 20
92.409602
 30
0.0
 40
4.0
100
AcDbArc
 50
261.0
 51
351.0
  0
ARC
  5
B9
100
AcDbEntity
  8
2
370
    50
100
AcDbCircle
 10
-28.689901
 20
91.111124
 30
0.0
 40
3.0
100
AcDbArc
 50
7.609559
 51
81.0
  0
ARC
  5
BA
100
AcDbEntity
  8
2
370
    50
100
AcDbCircle
 10
-3.215845
 20
87.07643
 30
0.0
 40
3.0
100
AcDbArc
 50
81.0
 51
154.390441
  0
LINE
  5
BB
100
AcDbEntity
  8
2
370
    50
100
AcDbLine
 10
114.384702
 20
111.125646
 30
0.0
 11
163.2022
 21
111.125646
 31
0.0
  0
LINE
  5
BC
100
AcDbEntity
  8
2
370
    50
100
AcDbLine
 10
121.284702
 20
-6.573809
 30
0.0
 11
121.284702
 21
6.726191
 31
0.0
  0
LINE
  5
BD
100
AcDbEntity
  8
2
370
    25
100
AcDbLine
 10
122.077702
 20
-6.573809
 30
0.0
 11
122.077702
 21
6.726191
 31
0.0
  0
LINE
  5
BE
100
AcDbEntity
  8
2
370
    25
100
AcDbLine
 10
155.491702
 20
-6.573809
 30
0.0
 11
155.491702
 21
6.726191
 31
0.0
  0
LINE
  5
BF
100
AcDbEntity
  8
2
370
    50
100
AcDbLine
 10
156.284702
 20
-6.573809
 30
0.0
 11
156.284702
 21
6.726191
 31
0.0
  0
LINE
  5
C0
100
AcDbEntity
  8
2
370
    50
100
AcDbLine
 10
111.196702
 20
-6.573809
 30
0.0
 11
166.372702
 21
-6.573809
 31
0.0
  0
LINE
  5
C1
100
AcDbEntity
  8
2
370
    50
100
AcDbLine
 10
166.372702
 20
-8.229089
 30
0.0
 11
111.196702
 21
-8.229089
 31
0.0
  0
LINE
  5
C2
100
AcDbEntity
  8
2
370
    50
100
AcDbLine
 10
167.476222
 20
-8.780849
 30
0.0
 11
110.093182
 21
-8.780849
 31
0.0
  0
LINE
  5
C3
100
AcDbEntity
  8
2
370
    50
100
AcDbLine
 10
166.372702
 20
-8.229089
 30
0.0
 11
111.196702
 21
-8.229089
 31
0.0
  0
LINE
  5
C4
100
AcDbEntity
  8
2
370
    50
100
AcDbLine
 10
167.476222
 20
-8.780849
 30
0.0
 11
110.093182
 21
-8.780849
 31
0.0
  0
LINE
  5
C5
100
AcDbEntity
  8
2
370
    50
100
AcDbLine
 10
166.372702
 20
-8.229089
 30
0.0
 11
111.196702
 21
-8.229089
 31
0.0
  0
LINE
  5
C6
100
AcDbEntity
  8
2
370
    50
100
AcDbLine
 10
166.372702
 20
-8.780849
 30
0.0
 11
166.372702
 21
-6.573809
 31
0.0
  0
LINE
  5
C7
100
AcDbEntity
  8
2
370
    50
100
AcDbLine
 10
111.196702
 20
-8.780849
 30
0.0
 11
111.196702
 21
-6.573809
 31
0.0
  0
LINE
  5
C8
100
AcDbEntity
  8
2
370
    50
100
AcDbLine
 10
110.093182
 20
-20.818143
 30
0.0
 11
110.093182
 21
-8.780849
 31
0.0
  0
LINE
  5
C9
100
AcDbEntity
  8
2
370
    50
100
AcDbLine
 10
123.49388
 20
-10.987889
 30
0.0
 11
110.093182
 21
-10.987889
 31
0.0
  0
LINE
  5
CA
100
AcDbEntity
  8
2
370
    50
100
AcDbLine
 10
123.49388
 20
-20.818143
 30
0.0
 11
123.49388
 21
-10.987889
 31
0.0
  0
LINE
  5
CB
100
AcDbEntity
  8
2
370
    50
100
AcDbLine
 10
125.405233
 20
-20.818143
 30
0.0
 11
125.405233
 21
-10.987889
 31
0.0
  0
LINE
  5
CC
100
AcDbEntity
  8
2
370
    50
100
AcDbLine
 10
152.164171
 20
-10.987889
 30
0.0
 11
125.405233
 21
-10.987889
 31
0.0
  0
LINE
  5
CD
100
AcDbEntity
  8
2
370
    50
100
AcDbLine
 10
154.075524
 20
-20.818143
 30
0.0
 11
154.075524
 21
-10.987889
 31
0.0
  0
LINE
  5
CE
100
AcDbEntity
  8
2
370
    50
100
AcDbLine
 10
152.164171
 20
-20.818143
 30
0.0
 11
152.164171
 21
-10.987889
 31
0.0
  0
LINE
  5
CF
100
AcDbEntity
  8
2
370
    50
100
AcDbLine
 10
167.476222
 20
-10.987889
 30
0.0
 11
154.075524
 21
-10.987889
 31
0.0
  0
LINE
  5
D0
100
AcDbEntity
  8
2
370
    50
100
AcDbLine
 10
167.476222
 20
-20.818143
 30
0.0
 11
167.476222
 21
-8.780849
 31
0.0
  0
ARC
  5
D1
100
AcDbEntity
  8
2
370
    50
100
AcDbCircle
 10
160.775873
 20
-2.791273
 30
0.0
 40
19.231816
100
AcDbArc
 50
249.610566
 51
290.389434
  0
ARC
  5
D2
100
AcDbEntity
  8
2
370
    50
100
AcDbCircle
 10
138.784702
 20
52.860843
 30
0.0
 40
74.883932
100
AcDbArc
 50
259.707733
 51
280.292267
  0
LINE
  5
D3
100
AcDbEntity
  8
2
370
    50
100
AcDbLine
 10
154.075524
 20
-20.818143
 30
0.0
 11
152.164171
 21
-20.818143
 31
0.0
  0
LINE
  5
D4
100
AcDbEntity
  8
2
370
    50
100
AcDbLine
 10
125.405233
 20
-20.818143
 30
0.0
 11
123.49388
 21
-20.818143
 31
0.0
  0
ARC
  5
D5
100
AcDbEntity
  8
2
370
    50
100
AcDbCircle
 10
138.784702
 20
52.860843
 30
0.0
 40
74.883932
100
AcDbArc
 50
259.707733
 51
280.292267
  0
ARC
  5
D6
100
AcDbEntity
  8
2
370
    50
100
AcDbCircle
 10
116.793531
 20
-2.791273
 30
0.0
 40
19.231816
100
AcDbArc
 50
249.610566
 51
290.389434
  0
LINE
  5
D7
100
AcDbEntity
  8
2
370
    50
100
AcDbLine
 10
164.165662
 20
-22.023089
 30
0.0
 11
113.403742
 21
-22.023089
 31
0.0
  0
LINE
  5
D8
100
AcDbEntity
  8
2
370
    50
100
AcDbLine
 10
113.403742
 20
-22.023089
 30
0.0
 11
110.093182
 21
-20.818143
 31
0.0
  0
LINE
  5
D9
100
AcDbEntity
  8
2
370
    50
100
AcDbLine
 10
164.165662
 20
-22.023089
 30
0.0
 11
167.476222
 21
-20.818143
 31
0.0
  0
LINE
  5
DA
100
AcDbEntity
  8
2
370
    50
100
AcDbLine
 10
121.284702
 20
-33.002237
 30
0.0
 11
121.284702
 21
-22.023089
 31
0.0
  0
LINE
  5
DB
100
AcDbEntity
  8
2
370
    25
100
AcDbLine
 10
122.084702
 20
-22.023089
 30
0.0
 11
122.084702
 21
-33.795237
 31
0.0
  0
LINE
  5
DC
100
AcDbEntity
  8
2
370
    50
100
AcDbLine
 10
122.077702
 20
-33.795237
 30
0.0
 11
121.284702
 21
-33.002237
 31
0.0
  0
LINE
  5
DD
100
AcDbEntity
  8
2
370
    50
100
AcDbLine
 10
122.077702
 20
-33.795237
 30
0.0
 11
155.491702
 21
-33.795237
 31
0.0
  0
LINE
  5
DE
100
AcDbEntity
  8
2
370
    50
100
AcDbLine
 10
155.491702
 20
-33.795237
 30
0.0
 11
156.284702
 21
-33.002237
 31
0.0
  0
LINE
  5
DF
100
AcDbEntity
  8
2
370
    50
100
AcDbLine
 10
156.284702
 20
-33.002237
 30
0.0
 11
156.284702
 21
-22.023089
 31
0.0
  0
LINE
  5
E0
100
AcDbEntity
  8
2
370
    25
100
AcDbLine
 10
155.491702
 20
-33.795237
 30
0.0
 11
155.491702
 21
-22.023089
 31
0.0
  0
LINE
  5
E1
100
AcDbEntity
  8
2
370
    50
100
AcDbLine
 10
113.784702
 20
6.726191
 30
0.0
 11
163.784702
 21
6.726191
 31
0.0
  0
LINE
  5
E2
100
AcDbEntity
  8
2
370
    50
100
AcDbLine
 10
163.784702
 20
9.726191
 30
0.0
 11
163.784702
 21
6.726191
 31
0.0
  0
LINE
  5
E3
100
AcDbEntity
  8
2
370
    50
100
AcDbLine
 10
113.784702
 20
6.726191
 30
0.0
 11
163.784702
 21
6.726191
 31
0.0
  0
LINE
  5
E4
100
AcDbEntity
  8
2
370
    50
100
AcDbLine
 10
113.784702
 20
9.726191
 30
0.0
 11
113.784702
 21
6.726191
 31
0.0
  0
LINE
  5
E5
100
AcDbEntity
  8
2
370
    50
100
AcDbLine
 10
121.284702
 20
-33.002237
 30
0.0
 11
156.284702
 21
-33.002237
 31
0.0
  0
LINE
  5
E6
100
AcDbEntity
  8
2
370
    50
100
AcDbLine
 10
-248.654246
 20
-32.073925
 30
0.0
 11
-213.654246
 21
-32.073925
 31
0.0
  0
LINE
  5
E7
100
AcDbEntity
  8
2
370
    50
100
AcDbLine
 10
162.784702
 20
111.122607
 30
0.0
 11
162.784702
 21
111.149506
 31
0.0
  0
LINE
  5
E8
100
AcDbEntity
  8
2
370
    50
100
AcDbLine
 10
114.784702
 20
111.149506
 30
0.0
 11
114.784702
 21
111.122607
 31
0.0
  0
LINE
  5
E9
100
AcDbEntity
  8
2
370
    50
100
AcDbLine
 10
161.784702
 20
111.325833
 30
0.0
 11
161.784702
 21
118.008253
 31
0.0
  0
LINE
  5
EA
100
AcDbEntity
  8
2
370
    50
100
AcDbLine
 10
115.784702
 20
113.508671
 30
0.0
 11
115.784702
 21
111.325833
 31
0.0
  0
ARC
  5
EB
100
AcDbEntity
  8
2
370
    50
100
AcDbCircle
 10
138.784702
 20
118.008253
 30
0.0
 40
23.0
100
AcDbArc
 50
0.0
 51
17.746986
  0
LINE
  5
EC
100
AcDbEntity
  8
2
370
    50
100
AcDbLine
 10
161.784702
 20
111.325833
 30
0.0
 11
162.784702
 21
111.149506
 31
0.0
  0
LINE
  5
ED
100
AcDbEntity
  8
2
370
    50
100
AcDbLine
 10
115.784702
 20
111.325833
 30
0.0
 11
114.784702
 21
111.149506
 31
0.0
  0
LINE
  5
EE
100
AcDbEntity
  8
2
370
    50
100
AcDbLine
 10
162.784702
 20
111.149506
 30
0.0
 11
138.784702
 21
111.149506
 31
0.0
  0
LINE
  5
EF
100
AcDbEntity
  8
2
370
    50
100
AcDbLine
 10
161.784702
 20
111.325833
 30
0.0
 11
115.784702
 21
111.325833
 31
0.0
  0
LINE
  5
F0
100
AcDbEntity
  8
2
370
    50
100
AcDbLine
 10
139.547964
 20
113.508671
 30
0.0
 11
112.787375
 21
113.508671
 31
0.0
  0
ARC
  5
F1
100
AcDbEntity
  8
2
370
    50
100
AcDbCircle
 10
118.444707
 20
93.790608
 30
0.0
 40
64.5
100
AcDbArc
 50
43.785798
 51
68.153806
  0
ARC
  5
F2
100
AcDbEntity
  8
2
370
    50
100
AcDbCircle
 10
53.110333
 20
178.010041
 30
0.0
 40
1.0
100
AcDbArc
 50
133.903565
 51
183.9149
  0
ARC
  5
F3
100
AcDbEntity
  8
2
370
    50
100
AcDbCircle
 10
265.033212
 20
652.743335
 30
0.0
 40
513.0
100
AcDbArc
 50
250.547144
 51
253.092972
  0
LINE
  5
F4
100
AcDbEntity
  8
2
370
    50
100
AcDbLine
 10
141.797964
 20
114.111557
 30
0.0
 11
165.037375
 21
127.528837
 31
0.0
  0
ARC
  5
F5
100
AcDbEntity
  8
2
370
    50
100
AcDbCircle
 10
55.604499
 20
178.180728
 30
0.0
 40
3.5
100
AcDbArc
 50
183.9149
 51
253.546351
  0
ARC
  5
F6
100
AcDbEntity
  8
2
370
    50
100
AcDbCircle
 10
-29.531586
 20
-181.266155
 30
0.0
 40
371.5
100
AcDbArc
 50
70.547229
 51
75.860371
  0
LINE
  5
F7
100
AcDbEntity
  8
2
370
    50
100
AcDbLine
 10
165.287375
 20
127.96185
 30
0.0
 11
165.287375
 21
137.730337
 31
0.0
  0
ARC
  5
F8
100
AcDbEntity
  8
2
370
    50
100
AcDbCircle
 10
164.287375
 20
137.730337
 30
0.0
 40
1.0
100
AcDbArc
 50
0.0
 51
43.785798
  0
ARC
  5
F9
100
AcDbEntity
  8
2
370
    50
100
AcDbCircle
 10
139.547964
 20
118.008671
 30
0.0
 40
4.5
100
AcDbArc
 50
270.0
 51
300.0
  0
LINE
  5
FA
100
AcDbEntity
  8
2
370
    50
100
AcDbLine
 10
112.287375
 20
114.008671
 30
0.0
 11
112.287375
 21
152.824683
 31
0.0
  0
ARC
  5
FB
100
AcDbEntity
  8
2
370
    50
100
AcDbCircle
 10
112.787375
 20
114.008671
 30
0.0
 40
0.5
100
AcDbArc
 50
180.0
 51
270.0
  0
ARC
  5
FC
100
AcDbEntity
  8
2
370
    50
100
AcDbCircle
 10
164.787375
 20
127.96185
 30
0.0
 40
0.5
100
AcDbArc
 50
300.0
 51
360.0
  0
ARC
  5
FD
100
AcDbEntity
  8
2
370
    50
100
AcDbCircle
 10
-58.682677
 20
-208.795617
 30
0.0
 40
400.0
100
AcDbArc
 50
63.930836
 51
73.546351
  0
ARC
  5
FE
100
AcDbEntity
  8
2
370
    50
100
AcDbCircle
 10
84.140456
 20
83.140254
 30
0.0
 40
75.0
100
AcDbArc
 50
43.228705
 51
63.930836
  0
ARC
  5
FF
100
AcDbEntity
  8
2
370
    50
100
AcDbCircle
 10
-40.635005
 20
-303.008958
 30
0.0
 40
492.0
100
AcDbArc
 50
68.153806
 51
70.747195
  0
ARC
  5
100
100
AcDbEntity
  8
2
370
    50
100
AcDbCircle
 10
-502.162307
 20
-1491.848687
 30
0.0
 40
1761.649079
100
AcDbArc
 50
68.664093
 51
70.886365
  0
ARC
  5
101
100
AcDbEntity
  8
2
370
    50
100
AcDbCircle
 10
29.223051
 20
33.882768
 30
0.0
 40
146.045655
100
AcDbArc
 50
71.867328
 51
80.981293
  0
ARC
  5
102
100
AcDbEntity
  8
2
370
    50
100
AcDbCircle
 10
-137.203794
 20
-557.509088
 30
0.0
 40
758.561246
100
AcDbArc
 50
66.507345
 51
68.664093
  0
ARC
  5
103
100
AcDbEntity
  8
2
370
    50
100
AcDbCircle
 10
119.287375
 20
154.866388
 30
0.0
 40
7.0
100
AcDbArc
 50
70.747195
 51
99.548037
  0
ARC
  5
104
100
AcDbEntity
  8
2
370
    50
100
AcDbCircle
 10
117.296882
 20
166.700151
 30
0.0
 40
5.0
100
AcDbArc
 50
253.092972
 51
279.548037
  0
ARC
  5
105
100
AcDbEntity
  8
2
370
    50
100
AcDbCircle
 10
57.382833
 20
179.847672
 30
0.0
 40
1.0
100
AcDbArc
 50
49.942287
 51
92.642163
  0
ARC
  5
106
100
AcDbEntity
  8
2
370
    50
100
AcDbCircle
 10
57.687081
 20
173.254689
 30
0.0
 40
7.6
100
AcDbArc
 50
92.642163
 51
133.903565
  0
ARC
  5
107
100
AcDbEntity
  8
2
370
    50
100
AcDbCircle
 10
63.174863
 20
186.736242
 30
0.0
 40
8.0
100
AcDbArc
 50
229.942287
 51
255.860371
  0
LINE
  5
108
100
AcDbEntity
  8
2
370
    50
100
AcDbLine
 10
139.284337
 20
-89.673925
 30
0.0
 11
150.284337
 21
-89.673925
 31
0.0
  0
LINE
  5
109
100
AcDbEntity
  8
2
370
    50
100
AcDbLine
 10
150.584337
 20
-89.673925
 30
0.0
 11
138.984337
 21
-89.673925
 31
0.0
  0
LINE
  5
10A
100
AcDbEntity
  8
2
370
    50
100
AcDbLine
 10
138.284337
 20
-106.673925
 30
0.0
 11
151.284337
 21
-106.673925
 31
0.0
  0
LINE
  5
10B
100
AcDbEntity
  8
2
370
    50
100
AcDbLine
 10
138.284337
 20
-106.673925
 30
0.0
 11
138.284337
 21
-94.173925
 31
0.0
  0
LINE
  5
10C
100
AcDbEntity
  8
2
370
    50
100
AcDbLine
 10
151.284337
 20
-106.673925
 30
0.0
 11
151.284337
 21
-94.173925
 31
0.0
  0
LINE
  5
10D
100
AcDbEntity
  8
2
370
    50
100
AcDbLine
 10
140.910007
 20
-92.673925
 30
0.0
 11
140.910007
 21
-90.173925
 31
0.0
  0
LINE
  5
10E
100
AcDbEntity
  8
2
370
    50
100
AcDbLine
 10
140.2029
 20
-92.673925
 30
0.0
 11
140.2029
 21
-90.173925
 31
0.0
  0
LINE
  5
10F
100
AcDbEntity
  8
2
370
    50
100
AcDbLine
 10
138.805207
 20
-92.673925
 30
0.0
 11
138.805207
 21
-90.173925
 31
0.0
  0
LINE
  5
110
100
AcDbEntity
  8
2
370
    50
100
AcDbLine
 10
138.784337
 20
-92.673925
 30
0.0
 11
138.784337
 21
-89.873925
 31
0.0
  0
LINE
  5
111
100
AcDbEntity
  8
2
370
    50
100
AcDbLine
 10
144.284337
 20
-92.673925
 30
0.0
 11
144.284337
 21
-90.173925
 31
0.0
  0
LINE
  5
112
100
AcDbEntity
  8
2
370
    50
100
AcDbLine
 10
145.284337
 20
-92.673925
 30
0.0
 11
145.284337
 21
-90.173925
 31
0.0
  0
LINE
  5
113
100
AcDbEntity
  8
2
370
    50
100
AcDbLine
 10
148.658668
 20
-92.673925
 30
0.0
 11
148.658668
 21
-90.173925
 31
0.0
  0
LINE
  5
114
100
AcDbEntity
  8
2
370
    50
100
AcDbLine
 10
149.365774
 20
-92.673925
 30
0.0
 11
149.365774
 21
-90.173925
 31
0.0
  0
LINE
  5
115
100
AcDbEntity
  8
2
370
    50
100
AcDbLine
 10
150.784337
 20
-92.673925
 30
0.0
 11
150.784337
 21
-89.873925
 31
0.0
  0
LINE
  5
116
100
AcDbEntity
  8
2
370
    50
100
AcDbLine
 10
150.763468
 20
-92.673925
 30
0.0
 11
150.763468
 21
-90.173925
 31
0.0
  0
LINE
  5
117
100
AcDbEntity
  8
2
370
    50
100
AcDbLine
 10
140.2029
 20
-90.173925
 30
0.0
 11
138.784337
 21
-90.173925
 31
0.0
  0
LINE
  5
118
100
AcDbEntity
  8
2
370
    50
100
AcDbLine
 10
144.284337
 20
-90.173925
 30
0.0
 11
140.910007
 21
-90.173925
 31
0.0
  0
LINE
  5
119
100
AcDbEntity
  8
2
370
    50
100
AcDbLine
 10
150.784337
 20
-90.173925
 30
0.0
 11
149.365774
 21
-90.173925
 31
0.0
  0
LINE
  5
11A
100
AcDbEntity
  8
2
370
    50
100
AcDbLine
 10
148.658668
 20
-90.173925
 30
0.0
 11
145.284337
 21
-90.173925
 31
0.0
  0
LINE
  5
11B
100
AcDbEntity
  8
2
370
    50
100
AcDbLine
 10
140.2029
 20
-92.673925
 30
0.0
 11
138.784337
 21
-92.673925
 31
0.0
  0
LINE
  5
11C
100
AcDbEntity
  8
2
370
    50
100
AcDbLine
 10
144.284337
 20
-92.673925
 30
0.0
 11
140.910007
 21
-92.673925
 31
0.0
  0
LINE
  5
11D
100
AcDbEntity
  8
2
370
    50
100
AcDbLine
 10
150.784337
 20
-92.673925
 30
0.0
 11
149.365774
 21
-92.673925
 31
0.0
  0
LINE
  5
11E
100
AcDbEntity
  8
2
370
    50
100
AcDbLine
 10
148.658668
 20
-92.673925
 30
0.0
 11
145.284337
 21
-92.673925
 31
0.0
  0
ARC
  5
11F
100
AcDbEntity
  8
2
370
    50
100
AcDbCircle
 10
150.584337
 20
-89.873925
 30
0.0
 40
0.2
100
AcDbArc
 50
0.0
 51
90.0
  0
ARC
  5
120
100
AcDbEntity
  8
2
370
    50
100
AcDbCircle
 10
138.984337
 20
-89.873925
 30
0.0
 40
0.2
100
AcDbArc
 50
90.0
 51
180.0
  0
ARC
  5
121
100
AcDbEntity
  8
2
370
    50
100
AcDbCircle
 10
140.784337
 20
-94.173925
 30
0.0
 40
2.5
100
AcDbArc
 50
143.130102
 51
180.0
  0
ARC
  5
122
100
AcDbEntity
  8
2
370
    50
100
AcDbCircle
 10
148.784337
 20
-94.173925
 30
0.0
 40
2.5
100
AcDbArc
 50
0.0
 51
36.869898
  0
LINE
  5
123
100
AcDbEntity
  8
2
370
    25
100
AcDbLine
 10
138.303597
 20
-106.673925
 30
0.0
 11
138.303597
 21
-94.173925
 31
0.0
  0
LINE
  5
124
100
AcDbEntity
  8
2
370
    25
100
AcDbLine
 10
139.848208
 20
-106.673925
 30
0.0
 11
139.848208
 21
-94.173925
 31
0.0
  0
LINE
  5
125
100
AcDbEntity
  8
2
370
    25
100
AcDbLine
 10
140.555315
 20
-106.673925
 30
0.0
 11
140.555315
 21
-94.173925
 31
0.0
  0
LINE
  5
126
100
AcDbEntity
  8
2
370
    25
100
AcDbLine
 10
144.284337
 20
-106.673925
 30
0.0
 11
144.284337
 21
-94.173925
 31
0.0
  0
LINE
  5
127
100
AcDbEntity
  8
2
370
    25
100
AcDbLine
 10
145.284337
 20
-106.673925
 30
0.0
 11
145.284337
 21
-94.173925
 31
0.0
  0
LINE
  5
128
100
AcDbEntity
  8
2
370
    25
100
AcDbLine
 10
149.01336
 20
-106.673925
 30
0.0
 11
149.01336
 21
-94.173925
 31
0.0
  0
LINE
  5
129
100
AcDbEntity
  8
2
370
    25
100
AcDbLine
 10
149.720467
 20
-106.673925
 30
0.0
 11
149.720467
 21
-94.173925
 31
0.0
  0
LINE
  5
12A
100
AcDbEntity
  8
2
370
    25
100
AcDbLine
 10
151.265078
 20
-106.673925
 30
0.0
 11
151.265078
 21
-94.173925
 31
0.0
  0
LINE
  5
12B
100
AcDbEntity
  8
2
370
    25
100
AcDbLine
 10
148.850201
 20
-127.890284
 30
0.0
 11
140.718473
 21
-119.758556
 31
0.0
  0
LINE
  5
12C
100
AcDbEntity
  8
2
370
    25
100
AcDbLine
 10
148.850201
 20
-119.758556
 30
0.0
 11
140.718473
 21
-127.890284
 31
0.0
  0
LINE
  5
12D
100
AcDbEntity
  8
2
370
    25
100
AcDbLine
 10
148.081135
 20
-128.535431
 30
0.0
 11
140.073326
 21
-120.527622
 31
0.0
  0
LINE
  5
12E
100
AcDbEntity
  8
2
370
    25
100
AcDbLine
 10
147.182112
 20
-129.050621
 30
0.0
 11
139.558136
 21
-121.426646
 31
0.0
  0
LINE
  5
12F
100
AcDbEntity
  8
2
370
    25
100
AcDbLine
 10
146.131626
 20
-129.414349
 30
0.0
 11
139.194408
 21
-122.477131
 31
0.0
  0
LINE
  5
130
100
AcDbEntity
  8
2
370
    25
100
AcDbLine
 10
144.876741
 20
-129.573677
 30
0.0
 11
139.03508
 21
-123.732017
 31
0.0
  0
LINE
  5
131
100
AcDbEntity
  8
2
370
    25
100
AcDbLine
 10
143.256601
 20
-129.367751
 30
0.0
 11
139.241006
 21
-125.352156
 31
0.0
  0
LINE
  5
132
100
AcDbEntity
  8
2
370
    25
100
AcDbLine
 10
149.495349
 20
-127.121217
 30
0.0
 11
141.48754
 21
-119.113409
 31
0.0
  0
LINE
  5
133
100
AcDbEntity
  8
2
370
    25
100
AcDbLine
 10
150.010539
 20
-126.222194
 30
0.0
 11
142.386563
 21
-118.598219
 31
0.0
  0
LINE
  5
134
100
AcDbEntity
  8
2
370
    25
100
AcDbLine
 10
150.374267
 20
-125.171709
 30
0.0
 11
143.437049
 21
-118.23449
 31
0.0
  0
LINE
  5
135
100
AcDbEntity
  8
2
370
    25
100
AcDbLine
 10
150.533595
 20
-123.916823
 30
0.0
 11
144.691934
 21
-118.075162
 31
0.0
  0
LINE
  5
136
100
AcDbEntity
  8
2
370
    25
100
AcDbLine
 10
150.327669
 20
-122.296683
 30
0.0
 11
146.312074
 21
-118.281089
 31
0.0
  0
LINE
  5
137
100
AcDbEntity
  8
2
370
    25
100
AcDbLine
 10
148.081135
 20
-119.113409
 30
0.0
 11
140.073326
 21
-127.121217
 31
0.0
  0
LINE
  5
138
100
AcDbEntity
  8
2
370
    25
100
AcDbLine
 10
147.182112
 20
-118.598219
 30
0.0
 11
139.558136
 21
-126.222194
 31
0.0
  0
LINE
  5
139
100
AcDbEntity
  8
2
370
    25
100
AcDbLine
 10
146.131626
 20
-118.23449
 30
0.0
 11
139.194408
 21
-125.171709
 31
0.0
  0
LINE
  5
13A
100
AcDbEntity
  8
2
370
    25
100
AcDbLine
 10
144.876741
 20
-118.075162
 30
0.0
 11
139.03508
 21
-123.916823
 31
0.0
  0
LINE
  5
13B
100
AcDbEntity
  8
2
370
    25
100
AcDbLine
 10
143.256601
 20
-118.281089
 30
0.0
 11
139.241006
 21
-122.296683
 31
0.0
  0
LINE
  5
13C
100
AcDbEntity
  8
2
370
    25
100
AcDbLine
 10
149.495349
 20
-120.527622
 30
0.0
 11
141.48754
 21
-128.535431
 31
0.0
  0
LINE
  5
13D
100
AcDbEntity
  8
2
370
    25
100
AcDbLine
 10
150.010539
 20
-121.426646
 30
0.0
 11
142.386563
 21
-129.050621
 31
0.0
  0
LINE
  5
13E
100
AcDbEntity
  8
2
370
    25
100
AcDbLine
 10
150.374267
 20
-122.477131
 30
0.0
 11
143.437049
 21
-129.414349
 31
0.0
  0
LINE
  5
13F
100
AcDbEntity
  8
2
370
    25
100
AcDbLine
 10
150.533595
 20
-123.732017
 30
0.0
 11
144.691934
 21
-129.573677
 31
0.0
  0
LINE
  5
140
100
AcDbEntity
  8
2
370
    25
100
AcDbLine
 10
150.327669
 20
-125.352156
 30
0.0
 11
146.312074
 21
-129.367751
 31
0.0
  0
LINE
  5
141
100
AcDbEntity
  8
2
370
    50
100
AcDbLine
 10
150.534337
 20
-138.371885
 30
0.0
 11
150.534337
 21
-106.673925
 31
0.0
  0
LINE
  5
142
100
AcDbEntity
  8
2
370
    50
100
AcDbLine
 10
139.034337
 20
-138.40822
 30
0.0
 11
139.034337
 21
-106.673925
 31
0.0
  0
ARC
  5
143
100
AcDbEntity
  8
2
370
    50
100
AcDbCircle
 10
141.909337
 20
-134.576604
 30
0.0
 40
4.791667
100
AcDbArc
 50
233.130102
 51
306.869898
  0
ARC
  5
144
100
AcDbEntity
  8
2
370
    50
100
AcDbCircle
 10
147.659337
 20
-142.24327
 30
0.0
 40
4.791667
100
AcDbArc
 50
53.130102
 51
126.869898
  0
ARC
  5
145
100
AcDbEntity
  8
2
370
    50
100
AcDbCircle
 10
141.909337
 20
-142.24327
 30
0.0
 40
4.791667
100
AcDbArc
 50
53.130102
 51
126.869898
  0
LINE
  5
146
100
AcDbEntity
  8
2
370
    50
100
AcDbLine
 10
150.534337
 20
-138.371885
 30
0.0
 11
150.534337
 21
-106.673925
 31
0.0
  0
LINE
  5
147
100
AcDbEntity
  8
2
370
    50
100
AcDbLine
 10
139.034337
 20
-138.40822
 30
0.0
 11
139.034337
 21
-106.673925
 31
0.0
  0
ARC
  5
148
100
AcDbEntity
  8
2
370
    50
100
AcDbCircle
 10
141.909337
 20
-134.576604
 30
0.0
 40
4.791667
100
AcDbArc
 50
233.130102
 51
306.869898
  0
ARC
  5
149
100
AcDbEntity
  8
2
370
    50
100
AcDbCircle
 10
147.659337
 20
-142.24327
 30
0.0
 40
4.791667
100
AcDbArc
 50
53.130102
 51
126.869898
  0
ARC
  5
14A
100
AcDbEntity
  8
2
370
    50
100
AcDbCircle
 10
141.909337
 20
-142.24327
 30
0.0
 40
4.791667
100
AcDbArc
 50
53.130102
 51
126.869898
  0
LINE
  5
14B
100
AcDbEntity
  8
2
370
    50
100
AcDbLine
 10
83.641425
 20
-123.09643
 30
0.0
 11
96.641425
 21
-123.09643
 31
0.0
  0
LINE
  5
14C
100
AcDbEntity
  8
2
370
    50
100
AcDbLine
 10
85.559988
 20
-137.09643
 30
0.0
 11
84.141425
 21
-137.09643
 31
0.0
  0
LINE
  5
14D
100
AcDbEntity
  8
2
370
    50
100
AcDbLine
 10
85.559988
 20
-139.59643
 30
0.0
 11
84.141425
 21
-139.59643
 31
0.0
  0
ARC
  5
14E
100
AcDbEntity
  8
2
370
    50
100
AcDbCircle
 10
84.341425
 20
-139.89643
 30
0.0
 40
0.2
100
AcDbArc
 50
180.0
 51
270.0
  0
LINE
  5
14F
100
AcDbEntity
  8
2
370
    50
100
AcDbLine
 10
89.641425
 20
-139.59643
 30
0.0
 11
86.267094
 21
-139.59643
 31
0.0
  0
LINE
  5
150
100
AcDbEntity
  8
2
370
    50
100
AcDbLine
 10
89.641425
 20
-137.09643
 30
0.0
 11
86.267094
 21
-137.09643
 31
0.0
  0
LINE
  5
151
100
AcDbEntity
  8
2
370
    50
100
AcDbLine
 10
94.015755
 20
-139.59643
 30
0.0
 11
90.641425
 21
-139.59643
 31
0.0
  0
LINE
  5
152
100
AcDbEntity
  8
2
370
    50
100
AcDbLine
 10
94.015755
 20
-137.09643
 30
0.0
 11
90.641425
 21
-137.09643
 31
0.0
  0
LINE
  5
153
100
AcDbEntity
  8
2
370
    50
100
AcDbLine
 10
96.141425
 20
-139.59643
 30
0.0
 11
94.722862
 21
-139.59643
 31
0.0
  0
LINE
  5
154
100
AcDbEntity
  8
2
370
    50
100
AcDbLine
 10
96.141425
 20
-137.09643
 30
0.0
 11
94.722862
 21
-137.09643
 31
0.0
  0
ARC
  5
155
100
AcDbEntity
  8
2
370
    50
100
AcDbCircle
 10
95.941425
 20
-139.89643
 30
0.0
 40
0.2
100
AcDbArc
 50
270.0
 51
360.0
  0
LINE
  5
156
100
AcDbEntity
  8
2
370
    50
100
AcDbLine
 10
96.141425
 20
-137.09643
 30
0.0
 11
96.141425
 21
-139.89643
 31
0.0
  0
LINE
  5
157
100
AcDbEntity
  8
2
370
    50
100
AcDbLine
 10
96.120555
 20
-137.09643
 30
0.0
 11
96.120555
 21
-139.59643
 31
0.0
  0
ARC
  5
158
100
AcDbEntity
  8
2
370
    50
100
AcDbCircle
 10
94.141425
 20
-135.59643
 30
0.0
 40
2.5
100
AcDbArc
 50
323.130102
 51
360.0
  0
LINE
  5
159
100
AcDbEntity
  8
2
370
    50
100
AcDbLine
 10
94.722862
 20
-137.09643
 30
0.0
 11
94.722862
 21
-139.59643
 31
0.0
  0
LINE
  5
15A
100
AcDbEntity
  8
2
370
    50
100
AcDbLine
 10
94.015755
 20
-137.09643
 30
0.0
 11
94.015755
 21
-139.59643
 31
0.0
  0
LINE
  5
15B
100
AcDbEntity
  8
2
370
    50
100
AcDbLine
 10
90.641425
 20
-137.09643
 30
0.0
 11
90.641425
 21
-139.59643
 31
0.0
  0
LINE
  5
15C
100
AcDbEntity
  8
2
370
    50
100
AcDbLine
 10
89.641425
 20
-137.09643
 30
0.0
 11
89.641425
 21
-139.59643
 31
0.0
  0
LINE
  5
15D
100
AcDbEntity
  8
2
370
    50
100
AcDbLine
 10
85.559988
 20
-137.09643
 30
0.0
 11
85.559988
 21
-139.59643
 31
0.0
  0
LINE
  5
15E
100
AcDbEntity
  8
2
370
    50
100
AcDbLine
 10
86.267094
 20
-137.09643
 30
0.0
 11
86.267094
 21
-139.59643
 31
0.0
  0
LINE
  5
15F
100
AcDbEntity
  8
2
370
    50
100
AcDbLine
 10
84.141425
 20
-137.09643
 30
0.0
 11
84.141425
 21
-139.89643
 31
0.0
  0
LINE
  5
160
100
AcDbEntity
  8
2
370
    50
100
AcDbLine
 10
84.162294
 20
-137.09643
 30
0.0
 11
84.162294
 21
-139.59643
 31
0.0
  0
ARC
  5
161
100
AcDbEntity
  8
2
370
    50
100
AcDbCircle
 10
86.141425
 20
-135.59643
 30
0.0
 40
2.5
100
AcDbArc
 50
180.0
 51
216.869898
  0
LINE
  5
162
100
AcDbEntity
  8
2
370
    50
100
AcDbLine
 10
83.641425
 20
-123.09643
 30
0.0
 11
83.641425
 21
-135.59643
 31
0.0
  0
LINE
  5
163
100
AcDbEntity
  8
2
370
    25
100
AcDbLine
 10
96.622165
 20
-123.09643
 30
0.0
 11
96.622165
 21
-135.59643
 31
0.0
  0
LINE
  5
164
100
AcDbEntity
  8
2
370
    50
100
AcDbLine
 10
96.641425
 20
-123.09643
 30
0.0
 11
96.641425
 21
-135.59643
 31
0.0
  0
LINE
  5
165
100
AcDbEntity
  8
2
370
    50
100
AcDbLine
 10
95.891425
 20
-123.09643
 30
0.0
 11
95.891425
 21
-89.807
 31
0.0
  0
LINE
  5
166
100
AcDbEntity
  8
2
370
    50
100
AcDbLine
 10
84.391425
 20
-89.807465
 30
0.0
 11
84.391425
 21
-123.09643
 31
0.0
  0
ARC
  5
167
100
AcDbEntity
  8
2
370
    50
100
AcDbCircle
 10
87.266425
 20
-85.973381
 30
0.0
 40
4.791667
100
AcDbArc
 50
233.130102
 51
306.869898
  0
ARC
  5
168
100
AcDbEntity
  8
2
370
    50
100
AcDbCircle
 10
93.016425
 20
-93.640047
 30
0.0
 40
4.791667
100
AcDbArc
 50
53.130102
 51
126.869898
  0
ARC
  5
169
100
AcDbEntity
  8
2
370
    50
100
AcDbCircle
 10
93.016425
 20
-85.973381
 30
0.0
 40
4.791667
100
AcDbArc
 50
233.130102
 51
306.869898
  0
LINE
  5
16A
100
AcDbEntity
  8
2
370
    25
  6
CENTER
100
AcDbLine
 10
183.37381
 20
-206.749056
 30
0.0
 11
-221.154246
 21
-206.749056
 31
0.0
  0
LINE
  5
16B
100
AcDbEntity
  8
2
370
    25
  6
CENTER
100
AcDbLine
 10
193.37381
 20
-60.273715
 30
0.0
 11
193.37381
 21
-73.147862
 31
0.0
  0
LINE
  5
16C
100
AcDbEntity
  8
2
370
    50
100
AcDbLine
 10
97.141425
 20
-140.09643
 30
0.0
 11
83.141425
 21
-140.09643
 31
0.0
  0
LINE
  5
16D
100
AcDbEntity
  8
2
370
    50
100
AcDbLine
 10
97.400687
 20
-140.355692
 30
0.0
 11
97.141425
 21
-140.09643
 31
0.0
  0
LINE
  5
16E
100
AcDbEntity
  8
2
370
    50
100
AcDbLine
 10
97.241878
 20
-145.29643
 30
0.0
 11
81.241425
 21
-145.29643
 31
0.0
  0
LINE
  5
16F
100
AcDbEntity
  8
2
370
    50
100
AcDbLine
 10
97.241878
 20
-140.59643
 30
0.0
 11
82.641425
 21
-140.59643
 31
0.0
  0
LINE
  5
170
100
AcDbEntity
  8
2
370
    50
100
AcDbLine
 10
97.641425
 20
-154.29643
 30
0.0
 11
97.641425
 21
-153.89643
 31
0.0
  0
LINE
  5
171
100
AcDbEntity
  8
2
370
    50
100
AcDbLine
 10
100.141425
 20
-155.29643
 30
0.0
 11
99.141425
 21
-154.29643
 31
0.0
  0
LINE
  5
172
100
AcDbEntity
  8
2
370
    50
100
AcDbLine
 10
105.641878
 20
-152.89643
 30
0.0
 11
105.641878
 21
-140.89643
 31
0.0
  0
LINE
  5
173
100
AcDbEntity
  8
2
370
    50
100
AcDbLine
 10
104.641878
 20
-139.89643
 30
0.0
 11
98.241878
 21
-139.89643
 31
0.0
  0
ARC
  5
174
100
AcDbEntity
  8
2
370
    50
100
AcDbCircle
 10
98.241878
 20
-140.89643
 30
0.0
 40
1.0
100
AcDbArc
 50
90.0
 51
180.0
  0
ARC
  5
175
100
AcDbEntity
  8
2
370
    50
100
AcDbCircle
 10
104.641878
 20
-140.89643
 30
0.0
 40
1.0
100
AcDbArc
 50
0.0
 51
90.0
  0
ARC
  5
176
100
AcDbEntity
  8
2
370
    50
100
AcDbCircle
 10
104.641878
 20
-152.89643
 30
0.0
 40
1.0
100
AcDbArc
 50
270.0
 51
360.0
  0
LINE
  5
177
100
AcDbEntity
  8
2
370
    50
100
AcDbLine
 10
104.641878
 20
-153.89643
 30
0.0
 11
98.241878
 21
-153.89643
 31
0.0
  0
LINE
  5
178
100
AcDbEntity
  8
2
370
    50
100
AcDbLine
 10
97.241878
 20
-141.89643
 30
0.0
 11
76.141878
 21
-141.89643
 31
0.0
  0
LINE
  5
179
100
AcDbEntity
  8
2
370
    50
100
AcDbLine
 10
98.241878
 20
-153.89643
 30
0.0
 11
76.141878
 21
-153.89643
 31
0.0
  0
LINE
  5
17A
100
AcDbEntity
  8
2
370
    50
100
AcDbLine
 10
97.241878
 20
-150.89643
 30
0.0
 11
80.141878
 21
-150.89643
 31
0.0
  0
LINE
  5
17B
100
AcDbEntity
  8
2
370
    50
100
AcDbLine
 10
97.241878
 20
-140.89643
 30
0.0
 11
97.241878
 21
-152.89643
 31
0.0
  0
ARC
  5
17C
100
AcDbEntity
  8
2
370
    50
100
AcDbCircle
 10
98.241878
 20
-152.89643
 30
0.0
 40
1.0
100
AcDbArc
 50
180.0
 51
270.0
  0
LINE
  5
17D
100
AcDbEntity
  8
2
370
    50
100
AcDbLine
 10
100.141425
 20
-155.29643
 30
0.0
 11
80.141425
 21
-155.29643
 31
0.0
  0
LINE
  5
17E
100
AcDbEntity
  8
2
370
    50
100
AcDbLine
 10
81.241425
 20
-148.09643
 30
0.0
 11
81.241425
 21
-145.29643
 31
0.0
  0
LINE
  5
17F
100
AcDbEntity
  8
2
370
    50
100
AcDbLine
 10
83.141425
 20
-140.09643
 30
0.0
 11
82.641425
 21
-140.59643
 31
0.0
  0
LINE
  5
180
100
AcDbEntity
  8
2
370
    50
100
AcDbLine
 10
97.241878
 20
-148.09643
 30
0.0
 11
81.241425
 21
-148.09643
 31
0.0
  0
LINE
  5
181
100
AcDbEntity
  8
2
370
    50
100
AcDbLine
 10
81.141425
 20
-148.29643
 30
0.0
 11
81.141425
 21
-150.29643
 31
0.0
  0
LINE
  5
182
100
AcDbEntity
  8
2
370
    50
100
AcDbLine
 10
81.141425
 20
-150.29643
 30
0.0
 11
97.241878
 21
-150.29643
 31
0.0
  0
LINE
  5
183
100
AcDbEntity
  8
2
370
    50
100
AcDbLine
 10
81.141425
 20
-154.29643
 30
0.0
 11
99.141425
 21
-154.29643
 31
0.0
  0
LINE
  5
184
100
AcDbEntity
  8
2
370
    50
100
AcDbLine
 10
81.141425
 20
-154.29643
 30
0.0
 11
80.141425
 21
-155.29643
 31
0.0
  0
LINE
  5
185
100
AcDbEntity
  8
2
370
    50
100
AcDbLine
 10
81.141425
 20
-148.29643
 30
0.0
 11
81.341425
 21
-148.09643
 31
0.0
  0
LINE
  5
186
100
AcDbEntity
  8
2
370
    50
100
AcDbLine
 10
75.641878
 20
-153.39643
 30
0.0
 11
75.641878
 21
-142.39643
 31
0.0
  0
LINE
  5
187
100
AcDbEntity
  8
2
370
    50
100
AcDbLine
 10
79.141878
 20
-145.89643
 30
0.0
 11
79.141878
 21
-149.89643
 31
0.0
  0
ARC
  5
188
100
AcDbEntity
  8
2
370
    50
100
AcDbCircle
 10
80.141878
 20
-145.89643
 30
0.0
 40
1.0
100
AcDbArc
 50
90.0
 51
180.0
  0
ARC
  5
189
100
AcDbEntity
  8
2
370
    50
100
AcDbCircle
 10
80.141878
 20
-149.89643
 30
0.0
 40
1.0
100
AcDbArc
 50
180.0
 51
270.0
  0
ARC
  5
18A
100
AcDbEntity
  8
2
370
    50
100
AcDbCircle
 10
76.141878
 20
-142.39643
 30
0.0
 40
0.5
100
AcDbArc
 50
90.0
 51
180.0
  0
ARC
  5
18B
100
AcDbEntity
  8
2
370
    50
100
AcDbCircle
 10
76.141878
 20
-153.39643
 30
0.0
 40
0.5
100
AcDbArc
 50
180.0
 51
270.0
  0
LINE
  5
18C
100
AcDbEntity
  8
2
370
    50
100
AcDbLine
 10
98.241878
 20
-153.89643
 30
0.0
 11
76.141878
 21
-153.89643
 31
0.0
  0
LINE
  5
18D
100
AcDbEntity
  8
2
370
    50
100
AcDbLine
 10
97.241878
 20
-144.89643
 30
0.0
 11
80.141878
 21
-144.89643
 31
0.0
  0
LINE
  5
18E
100
AcDbEntity
  8
2
370
    50
100
AcDbLine
 10
82.641425
 20
-145.29643
 30
0.0
 11
82.641425
 21
-144.89643
 31
0.0
  0
LINE
  5
18F
100
AcDbEntity
  8
2
370
    50
100
AcDbLine
 10
82.641425
 20
-141.89643
 30
0.0
 11
82.641425
 21
-140.59643
 31
0.0
  0
LINE
  5
190
100
AcDbEntity
  8
2
370
    50
100
AcDbLine
 10
82.641425
 20
-154.29643
 30
0.0
 11
82.641425
 21
-153.89643
 31
0.0
  0
LINE
  5
191
100
AcDbEntity
  8
2
370
    50
100
AcDbLine
 10
82.641425
 20
-150.89643
 30
0.0
 11
82.641425
 21
-150.29643
 31
0.0
  0
LINE
  5
192
100
AcDbEntity
  8
2
370
    50
100
AcDbLine
 10
139.284337
 20
-89.673925
 30
0.0
 11
150.284337
 21
-89.673925
 31
0.0
  0
LINE
  5
193
100
AcDbEntity
  8
2
370
    25
  6
CENTER
100
AcDbLine
 10
149.284702
 20
-32.103615
 30
0.0
 11
149.284702
 21
-60.273715
 31
0.0
  0
LINE
  5
194
100
AcDbEntity
  8
2
370
    50
100
AcDbLine
 10
153.284571
 20
-33.795237
 30
0.0
 11
153.284571
 21
-49.283156
 31
0.0
  0
LINE
  5
195
100
AcDbEntity
  8
2
370
    50
100
AcDbLine
 10
149.784571
 20
-68.273382
 30
0.0
 11
149.784571
 21
-50.198622
 31
0.0
  0
LINE
  5
196
100
AcDbEntity
  8
2
370
    50
100
AcDbLine
 10
138.784571
 20
-89.384632
 30
0.0
 11
138.784571
 21
-84.061983
 31
0.0
  0
LINE
  5
197
100
AcDbEntity
  8
2
370
    50
100
AcDbLine
 10
150.784571
 20
-89.384632
 30
0.0
 11
150.784571
 21
-84.061983
 31
0.0
  0
LINE
  5
198
100
AcDbEntity
  8
2
370
    50
100
AcDbLine
 10
147.182486
 20
-84.061983
 30
0.0
 11
147.182486
 21
-89.384632
 31
0.0
  0
LINE
  5
199
100
AcDbEntity
  8
2
370
    50
100
AcDbLine
 10
148.348752
 20
-84.061983
 30
0.0
 11
148.348752
 21
-89.384632
 31
0.0
  0
LINE
  5
19A
100
AcDbEntity
  8
2
370
    50
100
AcDbLine
 10
150.746668
 20
-84.061983
 30
0.0
 11
150.746668
 21
-89.384632
 31
0.0
  0
LINE
  5
19B
100
AcDbEntity
  8
2
370
    50
100
AcDbLine
 10
150.784571
 20
-83.773307
 30
0.0
 11
138.784571
 21
-83.773307
 31
0.0
  0
LINE
  5
19C
100
AcDbEntity
  8
2
370
    50
100
AcDbLine
 10
150.284571
 20
-89.673307
 30
0.0
 11
150.784571
 21
-89.384632
 31
0.0
  0
LINE
  5
19D
100
AcDbEntity
  8
2
370
    50
100
AcDbLine
 10
148.348752
 20
-89.384632
 30
0.0
 11
147.182486
 21
-89.384632
 31
0.0
  0
LINE
  5
19E
100
AcDbEntity
  8
2
370
    50
100
AcDbLine
 10
138.784571
 20
-89.384632
 30
0.0
 11
139.284571
 21
-89.673307
 31
0.0
  0
LINE
  5
19F
100
AcDbEntity
  8
2
370
    50
100
AcDbLine
 10
138.784571
 20
-84.061983
 30
0.0
 11
139.284571
 21
-83.773307
 31
0.0
  0
ARC
  5
1A0
100
AcDbEntity
  8
2
370
    50
100
AcDbCircle
 10
144.784571
 20
-79.569678
 30
0.0
 40
10.10363
100
AcDbArc
 50
270.0
 51
283.729133
  0
ARC
  5
1A1
100
AcDbEntity
  8
2
370
    50
100
AcDbCircle
 10
144.784571
 20
-93.876937
 30
0.0
 40
10.10363
100
AcDbArc
 50
76.270867
 51
90.0
  0
LINE
  5
1A2
100
AcDbEntity
  8
2
370
    50
100
AcDbLine
 10
148.348752
 20
-84.061983
 30
0.0
 11
147.182486
 21
-84.061983
 31
0.0
  0
LINE
  5
1A3
100
AcDbEntity
  8
2
370
    50
100
AcDbLine
 10
150.784571
 20
-89.384632
 30
0.0
 11
150.746668
 21
-89.384632
 31
0.0
  0
ARC
  5
1A4
100
AcDbEntity
  8
2
370
    50
100
AcDbCircle
 10
149.54771
 20
-87.039147
 30
0.0
 40
2.634161
100
AcDbArc
 50
242.924933
 51
297.075067
  0
ARC
  5
1A5
100
AcDbEntity
  8
2
370
    50
100
AcDbCircle
 10
149.54771
 20
-86.407468
 30
0.0
 40
2.634161
100
AcDbArc
 50
62.924933
 51
117.075067
  0
LINE
  5
1A6
100
AcDbEntity
  8
2
370
    50
100
AcDbLine
 10
150.284571
 20
-83.773307
 30
0.0
 11
150.784571
 21
-84.061983
 31
0.0
  0
LINE
  5
1A7
100
AcDbEntity
  8
2
370
    50
100
AcDbLine
 10
150.784571
 20
-84.061983
 30
0.0
 11
150.746668
 21
-84.061983
 31
0.0
  0
ARC
  5
1A8
100
AcDbEntity
  8
2
370
    50
100
AcDbCircle
 10
144.784571
 20
-79.569678
 30
0.0
 40
10.10363
100
AcDbArc
 50
256.270867
 51
270.0
  0
LINE
  5
1A9
100
AcDbEntity
  8
2
370
    50
100
AcDbLine
 10
141.220389
 20
-89.384632
 30
0.0
 11
142.386655
 21
-89.384632
 31
0.0
  0
LINE
  5
1AA
100
AcDbEntity
  8
2
370
    50
100
AcDbLine
 10
142.386655
 20
-84.061983
 30
0.0
 11
142.386655
 21
-89.384632
 31
0.0
  0
LINE
  5
1AB
100
AcDbEntity
  8
2
370
    50
100
AcDbLine
 10
141.220388
 20
-84.061983
 30
0.0
 11
141.220389
 21
-89.384632
 31
0.0
  0
ARC
  5
1AC
100
AcDbEntity
  8
2
370
    50
100
AcDbCircle
 10
140.021431
 20
-87.039147
 30
0.0
 40
2.634161
100
AcDbArc
 50
242.924933
 51
297.075067
  0
LINE
  5
1AD
100
AcDbEntity
  8
2
370
    50
100
AcDbLine
 10
138.822473
 20
-84.061983
 30
0.0
 11
138.822473
 21
-89.384632
 31
0.0
  0
LINE
  5
1AE
100
AcDbEntity
  8
2
370
    50
100
AcDbLine
 10
138.822473
 20
-89.384632
 30
0.0
 11
138.784571
 21
-89.384632
 31
0.0
  0
LINE
  5
1AF
100
AcDbEntity
  8
2
370
    50
100
AcDbLine
 10
138.784571
 20
-68.273382
 30
0.0
 11
150.784571
 21
-68.273382
 31
0.0
  0
LINE
  5
1B0
100
AcDbEntity
  8
2
370
    50
100
AcDbLine
 10
139.784571
 20
-68.273382
 30
0.0
 11
139.784571
 21
-33.795237
 31
0.0
  0
ARC
  5
1B1
100
AcDbEntity
  8
2
370
    50
100
AcDbCircle
 10
144.784571
 20
-93.876937
 30
0.0
 40
10.10363
100
AcDbArc
 50
90.0
 51
103.729133
  0
ARC
  5
1B2
100
AcDbEntity
  8
2
370
    50
100
AcDbCircle
 10
140.021431
 20
-86.407468
 30
0.0
 40
2.634161
100
AcDbArc
 50
62.924933
 51
117.075067
  0
LINE
  5
1B3
100
AcDbEntity
  8
2
370
    50
100
AcDbLine
 10
141.220389
 20
-84.061983
 30
0.0
 11
142.386655
 21
-84.061983
 31
0.0
  0
LINE
  5
1B4
100
AcDbEntity
  8
2
370
    50
100
AcDbLine
 10
127.31207
 20
-80.989673
 30
0.0
 11
127.31207
 21
-78.353519
 31
0.0
  0
ARC
  5
1B5
100
AcDbEntity
  8
2
370
    50
100
AcDbCircle
 10
127.51207
 20
-78.353519
 30
0.0
 40
0.2
100
AcDbArc
 50
99.5
 51
180.0
  0
LINE
  5
1B6
100
AcDbEntity
  8
2
370
    50
100
AcDbLine
 10
128.11207
 20
-78.049953
 30
0.0
 11
128.11207
 21
-77.036048
 31
0.0
  0
LINE
  5
1B7
100
AcDbEntity
  8
2
370
    50
100
AcDbLine
 10
138.784571
 20
-76.264056
 30
0.0
 11
127.479058
 21
-78.156281
 31
0.0
  0
LINE
  5
1B8
100
AcDbEntity
  8
2
370
    50
100
AcDbLine
 10
127.31207
 20
-76.933673
 30
0.0
 11
127.31207
 21
-74.297519
 31
0.0
  0
ARC
  5
1B9
100
AcDbEntity
  8
2
370
    50
100
AcDbCircle
 10
127.51207
 20
-74.297519
 30
0.0
 40
0.2
100
AcDbArc
 50
99.5
 51
180.0
  0
LINE
  5
1BA
100
AcDbEntity
  8
2
370
    50
100
AcDbLine
 10
127.545079
 20
-77.13093
 30
0.0
 11
138.784571
 21
-75.250084
 31
0.0
  0
ARC
  5
1BB
100
AcDbEntity
  8
2
370
    50
100
AcDbCircle
 10
127.51207
 20
-76.933673
 30
0.0
 40
0.2
100
AcDbArc
 50
180.0
 51
279.5
  0
LINE
  5
1BC
100
AcDbEntity
  8
2
370
    50
100
AcDbLine
 10
128.11207
 20
-73.993953
 30
0.0
 11
128.11207
 21
-72.980048
 31
0.0
  0
LINE
  5
1BD
100
AcDbEntity
  8
2
370
    50
100
AcDbLine
 10
138.784571
 20
-72.208056
 30
0.0
 11
127.479058
 21
-74.100281
 31
0.0
  0
LINE
  5
1BE
100
AcDbEntity
  8
2
370
    50
100
AcDbLine
 10
127.31207
 20
-72.877673
 30
0.0
 11
127.31207
 21
-70.241519
 31
0.0
  0
ARC
  5
1BF
100
AcDbEntity
  8
2
370
    50
100
AcDbCircle
 10
127.51207
 20
-70.241519
 30
0.0
 40
0.2
100
AcDbArc
 50
99.5
 51
180.0
  0
LINE
  5
1C0
100
AcDbEntity
  8
2
370
    50
100
AcDbLine
 10
127.545079
 20
-73.07493
 30
0.0
 11
138.784571
 21
-71.194084
 31
0.0
  0
ARC
  5
1C1
100
AcDbEntity
  8
2
370
    50
100
AcDbCircle
 10
127.51207
 20
-72.877673
 30
0.0
 40
0.2
100
AcDbArc
 50
180.0
 51
279.5
  0
LINE
  5
1C2
100
AcDbEntity
  8
2
370
    50
100
AcDbLine
 10
128.11207
 20
-69.937953
 30
0.0
 11
128.11207
 21
-68.924048
 31
0.0
  0
LINE
  5
1C3
100
AcDbEntity
  8
2
370
    50
100
AcDbLine
 10
139.784571
 20
-67.984684
 30
0.0
 11
127.479058
 21
-70.044281
 31
0.0
  0
LINE
  5
1C4
100
AcDbEntity
  8
2
370
    50
100
AcDbLine
 10
127.31207
 20
-68.821673
 30
0.0
 11
127.31207
 21
-66.185519
 31
0.0
  0
ARC
  5
1C5
100
AcDbEntity
  8
2
370
    50
100
AcDbCircle
 10
127.51207
 20
-66.185519
 30
0.0
 40
0.2
100
AcDbArc
 50
99.5
 51
180.0
  0
LINE
  5
1C6
100
AcDbEntity
  8
2
370
    50
100
AcDbLine
 10
127.545079
 20
-69.01893
 30
0.0
 11
139.784571
 21
-66.970741
 31
0.0
  0
ARC
  5
1C7
100
AcDbEntity
  8
2
370
    50
100
AcDbCircle
 10
127.51207
 20
-68.821673
 30
0.0
 40
0.2
100
AcDbArc
 50
180.0
 51
279.5
  0
LINE
  5
1C8
100
AcDbEntity
  8
2
370
    50
100
AcDbLine
 10
128.11207
 20
-65.881953
 30
0.0
 11
128.11207
 21
-64.868048
 31
0.0
  0
LINE
  5
1C9
100
AcDbEntity
  8
2
370
    50
100
AcDbLine
 10
139.784571
 20
-63.928684
 30
0.0
 11
127.479058
 21
-65.988281
 31
0.0
  0
LINE
  5
1CA
100
AcDbEntity
  8
2
370
    50
100
AcDbLine
 10
127.31207
 20
-64.765673
 30
0.0
 11
127.31207
 21
-62.129519
 31
0.0
  0
ARC
  5
1CB
100
AcDbEntity
  8
2
370
    50
100
AcDbCircle
 10
127.51207
 20
-62.129519
 30
0.0
 40
0.2
100
AcDbArc
 50
99.5
 51
180.0
  0
LINE
  5
1CC
100
AcDbEntity
  8
2
370
    50
100
AcDbLine
 10
127.545079
 20
-64.96293
 30
0.0
 11
139.784571
 21
-62.914741
 31
0.0
  0
ARC
  5
1CD
100
AcDbEntity
  8
2
370
    50
100
AcDbCircle
 10
127.51207
 20
-64.765673
 30
0.0
 40
0.2
100
AcDbArc
 50
180.0
 51
279.5
  0
LINE
  5
1CE
100
AcDbEntity
  8
2
370
    50
100
AcDbLine
 10
128.11207
 20
-61.825953
 30
0.0
 11
128.11207
 21
-60.812048
 31
0.0
  0
LINE
  5
1CF
100
AcDbEntity
  8
2
370
    50
100
AcDbLine
 10
139.784571
 20
-59.872684
 30
0.0
 11
127.479058
 21
-61.932281
 31
0.0
  0
LINE
  5
1D0
100
AcDbEntity
  8
2
370
    50
100
AcDbLine
 10
127.31207
 20
-60.709673
 30
0.0
 11
127.31207
 21
-58.073519
 31
0.0
  0
ARC
  5
1D1
100
AcDbEntity
  8
2
370
    50
100
AcDbCircle
 10
127.51207
 20
-58.073519
 30
0.0
 40
0.2
100
AcDbArc
 50
99.5
 51
180.0
  0
LINE
  5
1D2
100
AcDbEntity
  8
2
370
    50
100
AcDbLine
 10
127.545079
 20
-60.90693
 30
0.0
 11
139.784571
 21
-58.858741
 31
0.0
  0
ARC
  5
1D3
100
AcDbEntity
  8
2
370
    50
100
AcDbCircle
 10
127.51207
 20
-60.709673
 30
0.0
 40
0.2
100
AcDbArc
 50
180.0
 51
279.5
  0
LINE
  5
1D4
100
AcDbEntity
  8
2
370
    50
100
AcDbLine
 10
128.11207
 20
-57.769953
 30
0.0
 11
128.11207
 21
-56.756048
 31
0.0
  0
LINE
  5
1D5
100
AcDbEntity
  8
2
370
    50
100
AcDbLine
 10
139.784571
 20
-55.816684
 30
0.0
 11
127.479058
 21
-57.876281
 31
0.0
  0
LINE
  5
1D6
100
AcDbEntity
  8
2
370
    50
100
AcDbLine
 10
127.31207
 20
-56.653673
 30
0.0
 11
127.31207
 21
-54.017519
 31
0.0
  0
ARC
  5
1D7
100
AcDbEntity
  8
2
370
    50
100
AcDbCircle
 10
127.51207
 20
-54.017519
 30
0.0
 40
0.2
100
AcDbArc
 50
99.5
 51
180.0
  0
LINE
  5
1D8
100
AcDbEntity
  8
2
370
    50
100
AcDbLine
 10
127.545079
 20
-56.85093
 30
0.0
 11
139.784571
 21
-54.802741
 31
0.0
  0
ARC
  5
1D9
100
AcDbEntity
  8
2
370
    50
100
AcDbCircle
 10
127.51207
 20
-56.653673
 30
0.0
 40
0.2
100
AcDbArc
 50
180.0
 51
279.5
  0
LINE
  5
1DA
100
AcDbEntity
  8
2
370
    50
100
AcDbLine
 10
128.11207
 20
-53.713953
 30
0.0
 11
128.11207
 21
-52.700048
 31
0.0
  0
LINE
  5
1DB
100
AcDbEntity
  8
2
370
    50
100
AcDbLine
 10
139.784571
 20
-51.760684
 30
0.0
 11
127.479058
 21
-53.820281
 31
0.0
  0
LINE
  5
1DC
100
AcDbEntity
  8
2
370
    50
100
AcDbLine
 10
127.31207
 20
-52.597673
 30
0.0
 11
127.31207
 21
-49.961519
 31
0.0
  0
ARC
  5
1DD
100
AcDbEntity
  8
2
370
    50
100
AcDbCircle
 10
127.51207
 20
-49.961519
 30
0.0
 40
0.2
100
AcDbArc
 50
99.5
 51
180.0
  0
LINE
  5
1DE
100
AcDbEntity
  8
2
370
    50
100
AcDbLine
 10
127.545079
 20
-52.79493
 30
0.0
 11
139.784571
 21
-50.746741
 31
0.0
  0
ARC
  5
1DF
100
AcDbEntity
  8
2
370
    50
100
AcDbCircle
 10
127.51207
 20
-52.597673
 30
0.0
 40
0.2
100
AcDbArc
 50
180.0
 51
279.5
  0
LINE
  5
1E0
100
AcDbEntity
  8
2
370
    50
100
AcDbLine
 10
128.11207
 20
-49.657953
 30
0.0
 11
128.11207
 21
-48.644048
 31
0.0
  0
LINE
  5
1E1
100
AcDbEntity
  8
2
370
    50
100
AcDbLine
 10
139.784571
 20
-47.704684
 30
0.0
 11
127.479058
 21
-49.764281
 31
0.0
  0
LINE
  5
1E2
100
AcDbEntity
  8
2
370
    50
100
AcDbLine
 10
127.545079
 20
-48.73893
 30
0.0
 11
139.784571
 21
-46.690741
 31
0.0
  0
LINE
  5
1E3
100
AcDbEntity
  8
2
370
    50
100
AcDbLine
 10
127.31207
 20
-48.541673
 30
0.0
 11
127.31207
 21
-45.905519
 31
0.0
  0
ARC
  5
1E4
100
AcDbEntity
  8
2
370
    50
100
AcDbCircle
 10
127.51207
 20
-48.541673
 30
0.0
 40
0.2
100
AcDbArc
 50
180.0
 51
279.5
  0
LINE
  5
1E5
100
AcDbEntity
  8
2
370
    50
100
AcDbLine
 10
139.784571
 20
-43.648684
 30
0.0
 11
127.479058
 21
-45.708281
 31
0.0
  0
ARC
  5
1E6
100
AcDbEntity
  8
2
370
    50
100
AcDbCircle
 10
127.51207
 20
-45.905519
 30
0.0
 40
0.2
100
AcDbArc
 50
99.5
 51
180.0
  0
LINE
  5
1E7
100
AcDbEntity
  8
2
370
    50
100
AcDbLine
 10
128.11207
 20
-45.601953
 30
0.0
 11
128.11207
 21
-44.588048
 31
0.0
  0
LINE
  5
1E8
100
AcDbEntity
  8
2
370
    50
100
AcDbLine
 10
128.11207
 20
-41.545953
 30
0.0
 11
128.11207
 21
-40.532048
 31
0.0
  0
ARC
  5
1E9
100
AcDbEntity
  8
2
370
    50
100
AcDbCircle
 10
127.51207
 20
-41.849519
 30
0.0
 40
0.2
100
AcDbArc
 50
99.5
 51
180.0
  0
LINE
  5
1EA
100
AcDbEntity
  8
2
370
    50
100
AcDbLine
 10
127.31207
 20
-44.485673
 30
0.0
 11
127.31207
 21
-41.849519
 31
0.0
  0
ARC
  5
1EB
100
AcDbEntity
  8
2
370
    50
100
AcDbCircle
 10
127.51207
 20
-44.485673
 30
0.0
 40
0.2
100
AcDbArc
 50
180.0
 51
279.5
  0
LINE
  5
1EC
100
AcDbEntity
  8
2
370
    50
100
AcDbLine
 10
127.545079
 20
-44.68293
 30
0.0
 11
139.784571
 21
-42.634741
 31
0.0
  0
LINE
  5
1ED
100
AcDbEntity
  8
2
370
    50
100
AcDbLine
 10
127.31207
 20
-40.429673
 30
0.0
 11
127.31207
 21
-37.793519
 31
0.0
  0
ARC
  5
1EE
100
AcDbEntity
  8
2
370
    50
100
AcDbCircle
 10
127.51207
 20
-40.429673
 30
0.0
 40
0.2
100
AcDbArc
 50
180.0
 51
279.5
  0
ARC
  5
1EF
100
AcDbEntity
  8
2
370
    50
100
AcDbCircle
 10
127.51207
 20
-37.793519
 30
0.0
 40
0.2
100
AcDbArc
 50
99.5
 51
180.0
  0
LINE
  5
1F0
100
AcDbEntity
  8
2
370
    50
100
AcDbLine
 10
128.11207
 20
-37.489953
 30
0.0
 11
128.11207
 21
-36.476048
 31
0.0
  0
LINE
  5
1F1
100
AcDbEntity
  8
2
370
    50
100
AcDbLine
 10
139.784571
 20
-39.592684
 30
0.0
 11
127.479058
 21
-41.652281
 31
0.0
  0
LINE
  5
1F2
100
AcDbEntity
  8
2
370
    50
100
AcDbLine
 10
127.545079
 20
-40.62693
 30
0.0
 11
139.784571
 21
-38.578741
 31
0.0
  0
LINE
  5
1F3
100
AcDbEntity
  8
2
370
    50
100
AcDbLine
 10
127.479058
 20
-37.596281
 30
0.0
 11
139.784571
 21
-35.536684
 31
0.0
  0
ARC
  5
1F4
100
AcDbEntity
  8
2
370
    50
100
AcDbCircle
 10
127.51207
 20
-36.373673
 30
0.0
 40
0.2
100
AcDbArc
 50
180.0
 51
279.5
  0
LINE
  5
1F5
100
AcDbEntity
  8
2
370
    50
100
AcDbLine
 10
127.545079
 20
-36.57093
 30
0.0
 11
139.784571
 21
-34.522741
 31
0.0
  0
LINE
  5
1F6
100
AcDbEntity
  8
2
370
    50
100
AcDbLine
 10
145.284571
 20
-33.795237
 30
0.0
 11
145.284571
 21
-49.365053
 31
0.0
  0
ARC
  5
1F7
100
AcDbEntity
  8
2
370
    50
100
AcDbCircle
 10
147.284571
 20
-46.61649
 30
0.0
 40
3.333333
100
AcDbArc
 50
233.130102
 51
306.869898
  0
ARC
  5
1F8
100
AcDbEntity
  8
2
370
    50
100
AcDbCircle
 10
151.284571
 20
-51.949823
 30
0.0
 40
3.333333
100
AcDbArc
 50
53.130102
 51
126.869898
  0
ARC
  5
1F9
100
AcDbEntity
  8
2
370
    50
100
AcDbCircle
 10
151.284571
 20
-46.61649
 30
0.0
 40
3.333333
100
AcDbArc
 50
233.130102
 51
306.869898
  0
LINE
  5
1FA
100
AcDbEntity
  8
2
370
    50
100
AcDbLine
 10
138.784571
 20
-83.773307
 30
0.0
 11
138.784571
 21
-68.273382
 31
0.0
  0
LINE
  5
1FB
100
AcDbEntity
  8
2
370
    50
100
AcDbLine
 10
150.784571
 20
-68.273382
 30
0.0
 11
150.784571
 21
-83.773307
 31
0.0
  0
LINE
  5
1FC
100
AcDbEntity
  8
2
370
    50
100
AcDbLine
 10
146.269026
 20
-68.562057
 30
0.0
 11
146.269026
 21
-83.484632
 31
0.0
  0
LINE
  5
1FD
100
AcDbEntity
  8
2
370
    50
100
AcDbLine
 10
143.300115
 20
-68.562057
 30
0.0
 11
143.300115
 21
-83.484632
 31
0.0
  0
LINE
  5
1FE
100
AcDbEntity
  8
2
370
    50
100
AcDbLine
 10
149.300115
 20
-68.562057
 30
0.0
 11
149.300115
 21
-83.484632
 31
0.0
  0
LINE
  5
1FF
100
AcDbEntity
  8
2
370
    50
100
AcDbLine
 10
140.269026
 20
-68.562057
 30
0.0
 11
140.269026
 21
-83.484632
 31
0.0
  0
ARC
  5
200
100
AcDbEntity
  8
2
370
    50
100
AcDbCircle
 10
147.784571
 20
-72.396024
 30
0.0
 40
4.122642
100
AcDbArc
 50
68.431404
 51
111.568596
  0
ARC
  5
201
100
AcDbEntity
  8
2
370
    50
100
AcDbCircle
 10
141.784571
 20
-72.396024
 30
0.0
 40
4.122642
100
AcDbArc
 50
68.431404
 51
111.568596
  0
ARC
  5
202
100
AcDbEntity
  8
2
370
    50
100
AcDbCircle
 10
141.784571
 20
-79.650666
 30
0.0
 40
4.122642
100
AcDbArc
 50
248.431404
 51
291.568596
  0
ARC
  5
203
100
AcDbEntity
  8
2
370
    50
100
AcDbCircle
 10
147.815768
 20
-79.812764
 30
0.0
 40
3.960544
100
AcDbArc
 50
247.012044
 51
292.01095
  0
LINE
  5
204
100
AcDbEntity
  8
2
370
    50
100
AcDbLine
 10
149.300115
 20
-68.562057
 30
0.0
 11
150.784571
 21
-68.562057
 31
0.0
  0
LINE
  5
205
100
AcDbEntity
  8
2
370
    50
100
AcDbLine
 10
138.784571
 20
-68.562057
 30
0.0
 11
140.269026
 21
-68.562057
 31
0.0
  0
LINE
  5
206
100
AcDbEntity
  8
2
370
    50
100
AcDbLine
 10
143.300115
 20
-68.562057
 30
0.0
 11
146.269026
 21
-68.562057
 31
0.0
  0
LINE
  5
207
100
AcDbEntity
  8
2
370
    50
100
AcDbLine
 10
149.300115
 20
-83.484632
 30
0.0
 11
150.784571
 21
-83.484632
 31
0.0
  0
LINE
  5
208
100
AcDbEntity
  8
2
370
    50
100
AcDbLine
 10
138.784571
 20
-83.484632
 30
0.0
 11
140.269026
 21
-83.484632
 31
0.0
  0
LINE
  5
209
100
AcDbEntity
  8
2
370
    50
100
AcDbLine
 10
143.300115
 20
-83.484632
 30
0.0
 11
146.33142
 21
-83.484632
 31
0.0
  0
LINE
  5
20A
100
AcDbEntity
  8
2
370
    50
100
AcDbLine
 10
127.31207
 20
-36.429673
 30
0.0
 11
127.31207
 21
-33.795237
 31
0.0
  0
LINE
  5
20B
100
AcDbEntity
  8
2
370
    25
100
AcDbLine
 10
94.206748
 20
-118.962294
 30
0.0
 11
86.07502
 21
-110.830566
 31
0.0
  0
LINE
  5
20C
100
AcDbEntity
  8
2
370
    25
100
AcDbLine
 10
94.206748
 20
-110.830566
 30
0.0
 11
86.07502
 21
-118.962294
 31
0.0
  0
LINE
  5
20D
100
AcDbEntity
  8
2
370
    25
100
AcDbLine
 10
93.437682
 20
-119.607441
 30
0.0
 11
85.429873
 21
-111.599633
 31
0.0
  0
LINE
  5
20E
100
AcDbEntity
  8
2
370
    25
100
AcDbLine
 10
92.538658
 20
-120.122632
 30
0.0
 11
84.914683
 21
-112.498656
 31
0.0
  0
LINE
  5
20F
100
AcDbEntity
  8
2
370
    25
100
AcDbLine
 10
91.488173
 20
-120.48636
 30
0.0
 11
84.550955
 21
-113.549141
 31
0.0
  0
LINE
  5
210
100
AcDbEntity
  8
2
370
    25
100
AcDbLine
 10
90.233287
 20
-120.645688
 30
0.0
 11
84.391627
 21
-114.804027
 31
0.0
  0
LINE
  5
211
100
AcDbEntity
  8
2
370
    25
100
AcDbLine
 10
88.613148
 20
-120.439761
 30
0.0
 11
84.597553
 21
-116.424167
 31
0.0
  0
LINE
  5
212
100
AcDbEntity
  8
2
370
    25
100
AcDbLine
 10
94.851895
 20
-118.193228
 30
0.0
 11
86.844087
 21
-110.185419
 31
0.0
  0
LINE
  5
213
100
AcDbEntity
  8
2
370
    25
100
AcDbLine
 10
95.367085
 20
-117.294204
 30
0.0
 11
87.74311
 21
-109.670229
 31
0.0
  0
LINE
  5
214
100
AcDbEntity
  8
2
370
    25
100
AcDbLine
 10
95.730814
 20
-116.243719
 30
0.0
 11
88.793595
 21
-109.306501
 31
0.0
  0
LINE
  5
215
100
AcDbEntity
  8
2
370
    25
100
AcDbLine
 10
95.890142
 20
-114.988834
 30
0.0
 11
90.048481
 21
-109.147173
 31
0.0
  0
LINE
  5
216
100
AcDbEntity
  8
2
370
    25
100
AcDbLine
 10
95.684215
 20
-113.368694
 30
0.0
 11
91.668621
 21
-109.353099
 31
0.0
  0
LINE
  5
217
100
AcDbEntity
  8
2
370
    25
100
AcDbLine
 10
93.437682
 20
-110.185419
 30
0.0
 11
85.429873
 21
-118.193228
 31
0.0
  0
LINE
  5
218
100
AcDbEntity
  8
2
370
    25
100
AcDbLine
 10
92.538658
 20
-109.670229
 30
0.0
 11
84.914683
 21
-117.294204
 31
0.0
  0
LINE
  5
219
100
AcDbEntity
  8
2
370
    25
100
AcDbLine
 10
91.488173
 20
-109.306501
 30
0.0
 11
84.550955
 21
-116.243719
 31
0.0
  0
LINE
  5
21A
100
AcDbEntity
  8
2
370
    25
100
AcDbLine
 10
90.233287
 20
-109.147173
 30
0.0
 11
84.391627
 21
-114.988834
 31
0.0
  0
LINE
  5
21B
100
AcDbEntity
  8
2
370
    25
100
AcDbLine
 10
88.613148
 20
-109.353099
 30
0.0
 11
84.597553
 21
-113.368694
 31
0.0
  0
LINE
  5
21C
100
AcDbEntity
  8
2
370
    25
100
AcDbLine
 10
94.851895
 20
-111.599633
 30
0.0
 11
86.844087
 21
-119.607441
 31
0.0
  0
LINE
  5
21D
100
AcDbEntity
  8
2
370
    25
100
AcDbLine
 10
95.367085
 20
-112.498656
 30
0.0
 11
87.74311
 21
-120.122632
 31
0.0
  0
LINE
  5
21E
100
AcDbEntity
  8
2
370
    25
100
AcDbLine
 10
95.730814
 20
-113.549141
 30
0.0
 11
88.793595
 21
-120.48636
 31
0.0
  0
LINE
  5
21F
100
AcDbEntity
  8
2
370
    25
100
AcDbLine
 10
95.890142
 20
-114.804027
 30
0.0
 11
90.048481
 21
-120.645688
 31
0.0
  0
LINE
  5
220
100
AcDbEntity
  8
2
370
    25
100
AcDbLine
 10
95.684215
 20
-116.424167
 30
0.0
 11
91.668621
 21
-120.439761
 31
0.0
  0
LINE
  5
221
100
AcDbEntity
  8
2
370
    50
100
AcDbLine
 10
204.373967
 20
-138.74888
 30
0.0
 11
182.373654
 21
-138.74888
 31
0.0
  0
ARC
  5
222
100
AcDbEntity
  8
2
370
    50
100
AcDbCircle
 10
182.373654
 20
-137.74888
 30
0.0
 40
1.0
100
AcDbArc
 50
180.0
 51
270.0
  0
LINE
  5
223
100
AcDbEntity
  8
2
370
    50
100
AcDbLine
 10
181.373967
 20
-114.748778
 30
0.0
 11
181.373967
 21
-137.723847
 31
0.0
  0
LINE
  5
224
100
AcDbEntity
  8
2
370
    50
100
AcDbLine
 10
205.373967
 20
-114.748778
 30
0.0
 11
205.373967
 21
-137.74888
 31
0.0
  0
LINE
  5
225
100
AcDbEntity
  8
2
370
    50
100
AcDbLine
 10
204.373967
 20
-113.748778
 30
0.0
 11
182.373967
 21
-113.748778
 31
0.0
  0
ARC
  5
226
100
AcDbEntity
  8
2
370
    50
100
AcDbCircle
 10
182.373967
 20
-114.748778
 30
0.0
 40
1.0
100
AcDbArc
 50
90.0
 51
180.0
  0
ARC
  5
227
100
AcDbEntity
  8
2
370
    50
100
AcDbCircle
 10
204.373967
 20
-114.748778
 30
0.0
 40
1.0
100
AcDbArc
 50
0.0
 51
90.0
  0
LINE
  5
228
100
AcDbEntity
  8
2
370
    50
100
AcDbLine
 10
182.873967
 20
-108.714464
 30
0.0
 11
182.873967
 21
-113.748778
 31
0.0
  0
LINE
  5
229
100
AcDbEntity
  8
2
370
    50
100
AcDbLine
 10
203.873967
 20
-108.714464
 30
0.0
 11
203.873967
 21
-113.748778
 31
0.0
  0
LINE
  5
22A
100
AcDbEntity
  8
2
370
    50
100
AcDbLine
 10
181.373967
 20
-92.014464
 30
0.0
 11
181.373967
 21
-107.714464
 31
0.0
  0
LINE
  5
22B
100
AcDbEntity
  8
2
370
    50
100
AcDbLine
 10
186.373967
 20
-90.913096
 30
0.0
 11
186.373967
 21
-87.713096
 31
0.0
  0
LINE
  5
22C
100
AcDbEntity
  8
2
370
    50
100
AcDbLine
 10
200.373967
 20
-90.913096
 30
0.0
 11
200.373967
 21
-87.713096
 31
0.0
  0
LINE
  5
22D
100
AcDbEntity
  8
2
370
    50
100
AcDbLine
 10
186.373967
 20
-90.913096
 30
0.0
 11
200.373967
 21
-90.913096
 31
0.0
  0
LINE
  5
22E
100
AcDbEntity
  8
2
370
    50
100
AcDbLine
 10
205.073967
 20
-91.714464
 30
0.0
 11
181.673967
 21
-91.714464
 31
0.0
  0
LINE
  5
22F
100
AcDbEntity
  8
2
370
    50
100
AcDbLine
 10
186.773967
 20
-91.714464
 30
0.0
 11
186.773967
 21
-90.913096
 31
0.0
  0
LINE
  5
230
100
AcDbEntity
  8
2
370
    50
100
AcDbLine
 10
199.973967
 20
-91.748778
 30
0.0
 11
199.973967
 21
-90.913096
 31
0.0
  0
LINE
  5
231
100
AcDbEntity
  8
2
370
    50
100
AcDbLine
 10
204.373967
 20
-108.714464
 30
0.0
 11
182.373967
 21
-108.714464
 31
0.0
  0
ARC
  5
232
100
AcDbEntity
  8
2
370
    50
100
AcDbCircle
 10
182.373967
 20
-107.714464
 30
0.0
 40
1.0
100
AcDbArc
 50
180.0
 51
270.0
  0
ARC
  5
233
100
AcDbEntity
  8
2
370
    50
100
AcDbCircle
 10
181.673967
 20
-92.014464
 30
0.0
 40
0.3
100
AcDbArc
 50
90.0
 51
180.0
  0
ARC
  5
234
100
AcDbEntity
  8
2
370
    50
100
AcDbCircle
 10
205.073967
 20
-92.014464
 30
0.0
 40
0.3
100
AcDbArc
 50
0.0
 51
90.0
  0
LINE
  5
235
100
AcDbEntity
  8
2
370
    50
100
AcDbLine
 10
205.373967
 20
-92.014464
 30
0.0
 11
205.373967
 21
-107.714464
 31
0.0
  0
ARC
  5
236
100
AcDbEntity
  8
2
370
    50
100
AcDbCircle
 10
204.373967
 20
-107.714464
 30
0.0
 40
1.0
100
AcDbArc
 50
270.0
 51
360.0
  0
LINE
  5
237
100
AcDbEntity
  8
2
370
    50
100
AcDbLine
 10
200.073967
 20
-87.413096
 30
0.0
 11
200.373967
 21
-87.713096
 31
0.0
  0
LINE
  5
238
100
AcDbEntity
  8
2
370
    50
100
AcDbLine
 10
186.673967
 20
-87.413096
 30
0.0
 11
186.373967
 21
-87.713096
 31
0.0
  0
LINE
  5
239
100
AcDbEntity
  8
2
370
    50
100
AcDbLine
 10
198.3735
 20
-87.413096
 30
0.0
 11
198.3735
 21
-66.913096
 31
0.0
  0
ARC
  5
23A
100
AcDbEntity
  8
2
370
    50
100
AcDbCircle
 10
190.8735
 20
-63.579763
 30
0.0
 40
4.166667
100
AcDbArc
 50
233.130102
 51
306.869898
  0
ARC
  5
23B
100
AcDbEntity
  8
2
370
    50
100
AcDbCircle
 10
195.8735
 20
-70.24643
 30
0.0
 40
4.166667
100
AcDbArc
 50
53.130102
 51
126.869898
  0
ARC
  5
23C
100
AcDbEntity
  8
2
370
    50
100
AcDbCircle
 10
195.8735
 20
-63.579763
 30
0.0
 40
4.166667
100
AcDbArc
 50
233.130102
 51
306.869898
  0
LINE
  5
23D
100
AcDbEntity
  8
2
370
    50
100
AcDbLine
 10
186.673967
 20
-87.413096
 30
0.0
 11
200.073967
 21
-87.413096
 31
0.0
  0
LINE
  5
23E
100
AcDbEntity
  8
2
370
    50
100
AcDbLine
 10
188.374434
 20
-87.413096
 30
0.0
 11
188.374434
 21
-66.913096
 31
0.0
  0
ARC
  5
23F
100
AcDbEntity
  8
2
370
    50
100
AcDbCircle
 10
204.373967
 20
-137.74888
 30
0.0
 40
1.0
100
AcDbArc
 50
270.0
 51
360.0
  0
LINE
  5
240
100
AcDbEntity
  8
2
370
    25
100
AcDbLine
 10
186.373967
 20
-87.713096
 30
0.0
 11
200.373967
 21
-87.713096
 31
0.0
  0
ELLIPSE
  5
241
100
AcDbEntity
  8
2
370
    50
100
AcDbEllipse
 10
183.532572
 20
-111.498778
 30
0.0
 11
0.0
 21
1.0
 31
0.0
210
0.0
220
0.0
230
1.0
 40
0.31
 41
1.5325029999999999
 42
3.1415929999999999
  0
LINE
  5
242
100
AcDbEntity
  8
2
370
    50
100
AcDbLine
 10
183.222799
 20
-111.537062
 30
0.0
 11
183.222799
 21
-109.460494
 31
0.0
  0
ELLIPSE
  5
243
100
AcDbEntity
  8
2
370
    50
100
AcDbEllipse
 10
183.532572
 20
-109.498778
 30
0.0
 11
0.0
 21
1.0
 31
0.0
210
0.0
220
0.0
230
1.0
 40
0.31
 41
0.669206
 42
1.6090899999999999
  0
ELLIPSE
  5
244
100
AcDbEntity
  8
2
370
    25
100
AcDbEllipse
 10
185.137438
 20
-109.498778
 30
0.0
 11
0.0
 21
1.0
 31
0.0
210
0.0
220
0.0
230
1.0
 40
0.5
 41
0.669206
 42
1.5707960000000001
  0
LINE
  5
245
100
AcDbEntity
  8
2
370
    25
100
AcDbLine
 10
184.637438
 20
-111.498778
 30
0.0
 11
184.637438
 21
-109.498778
 31
0.0
  0
ELLIPSE
  5
246
100
AcDbEntity
  8
2
370
    25
100
AcDbEllipse
 10
185.137438
 20
-111.498778
 30
0.0
 11
0.0
 21
1.0
 31
0.0
210
0.0
220
0.0
230
1.0
 40
0.5
 41
1.5707960000000001
 42
3.1415929999999999
  0
LINE
  5
247
100
AcDbEntity
  8
2
370
    50
100
AcDbLine
 10
183.532572
 20
-112.498778
 30
0.0
 11
185.282572
 21
-112.498778
 31
0.0
  0
ELLIPSE
  5
248
100
AcDbEntity
  8
2
370
    50
100
AcDbEllipse
 10
185.282572
 20
-111.498778
 30
0.0
 11
0.0
 21
1.0
 31
0.0
210
0.0
220
0.0
230
1.0
 40
0.69
 41
3.1415929999999999
 42
4.7123889999999999
  0
LINE
  5
249
100
AcDbEntity
  8
2
370
    50
100
AcDbLine
 10
185.972572
 20
-109.498778
 30
0.0
 11
185.972572
 21
-111.498778
 31
0.0
  0
ELLIPSE
  5
24A
100
AcDbEntity
  8
2
370
    50
100
AcDbEllipse
 10
185.282572
 20
-109.498778
 30
0.0
 11
0.0
 21
1.0
 31
0.0
210
0.0
220
0.0
230
1.0
 40
0.69
 41
4.7123889999999999
 42
5.6139789999999996
  0
ARC
  5
24B
100
AcDbEntity
  8
2
370
    50
100
AcDbCircle
 10
191.623654
 20
-109.498778
 30
0.0
 40
1.0
100
AcDbArc
 50
128.342671
 51
180.0
  0
LINE
  5
24C
100
AcDbEntity
  8
2
370
    50
100
AcDbLine
 10
190.623654
 20
-111.498778
 30
0.0
 11
190.623654
 21
-109.498778
 31
0.0
  0
ARC
  5
24D
100
AcDbEntity
  8
2
370
    50
100
AcDbCircle
 10
191.623654
 20
-111.498778
 30
0.0
 40
1.0
100
AcDbArc
 50
180.0
 51
270.0
  0
LINE
  5
24E
100
AcDbEntity
  8
2
370
    50
100
AcDbLine
 10
191.623654
 20
-112.498778
 30
0.0
 11
195.123346
 21
-112.498778
 31
0.0
  0
LINE
  5
24F
100
AcDbEntity
  8
2
370
    50
100
AcDbLine
 10
185.183206
 20
-136.74888
 30
0.0
 11
185.183206
 21
-115.748778
 31
0.0
  0
LINE
  5
250
100
AcDbEntity
  8
2
370
    50
100
AcDbLine
 10
181.683206
 20
-115.748778
 30
0.0
 11
185.183206
 21
-115.748778
 31
0.0
  0
LINE
  5
251
100
AcDbEntity
  8
2
370
    50
100
AcDbLine
 10
189.873654
 20
-115.748778
 30
0.0
 11
196.873346
 21
-115.748778
 31
0.0
  0
LINE
  5
252
100
AcDbEntity
  8
2
370
    50
100
AcDbLine
 10
181.683206
 20
-136.74888
 30
0.0
 11
185.183206
 21
-136.74888
 31
0.0
  0
LINE
  5
253
100
AcDbEntity
  8
2
370
    50
100
AcDbLine
 10
181.683206
 20
-136.74888
 30
0.0
 11
181.683206
 21
-115.748778
 31
0.0
  0
LINE
  5
254
100
AcDbEntity
  8
2
370
    50
100
AcDbLine
 10
205.373967
 20
-105.714464
 30
0.0
 11
181.373967
 21
-105.714464
 31
0.0
  0
LINE
  5
255
100
AcDbEntity
  8
2
370
    50
100
AcDbLine
 10
181.523967
 20
-91.864464
 30
0.0
 11
181.523967
 21
-105.714464
 31
0.0
  0
ARC
  5
256
100
AcDbEntity
  8
2
370
    50
100
AcDbCircle
 10
181.673967
 20
-91.864464
 30
0.0
 40
0.15
100
AcDbArc
 50
90.0
 51
180.0
  0
LINE
  5
257
100
AcDbEntity
  8
2
370
    50
100
AcDbLine
 10
189.873654
 20
-115.748778
 30
0.0
 11
189.873654
 21
-136.74888
 31
0.0
  0
LINE
  5
258
100
AcDbEntity
  8
2
370
    50
100
AcDbLine
 10
189.873654
 20
-136.74888
 30
0.0
 11
196.873346
 21
-136.74888
 31
0.0
  0
POINT
  5
259
100
AcDbEntity
  8
2
370
    50
100
AcDbPoint
 10
193.3735
 20
-110.913096
 30
0.0
  0
LINE
  5
25A
100
AcDbEntity
  8
2
370
    50
100
AcDbLine
 10
205.223033
 20
-91.864464
 30
0.0
 11
205.223033
 21
-105.714464
 31
0.0
  0
ARC
  5
25B
100
AcDbEntity
  8
2
370
    50
100
AcDbCircle
 10
205.073033
 20
-91.864464
 30
0.0
 40
0.15
100
AcDbArc
 50
0.0
 51
90.0
  0
ELLIPSE
  5
25C
100
AcDbEntity
  8
2
370
    50
100
AcDbEllipse
 10
203.214428
 20
-111.498778
 30
0.0
 11
0.0
 21
1.0
 31
0.0
210
0.0
220
0.0
230
1.0
 40
0.31
 41
3.1415929999999999
 42
4.7506820000000003
  0
LINE
  5
25D
100
AcDbEntity
  8
2
370
    50
100
AcDbLine
 10
203.524201
 20
-111.537062
 30
0.0
 11
203.524201
 21
-109.460494
 31
0.0
  0
LINE
  5
25E
100
AcDbEntity
  8
2
370
    25
100
AcDbLine
 10
202.109562
 20
-111.498778
 30
0.0
 11
202.109562
 21
-109.498778
 31
0.0
  0
ELLIPSE
  5
25F
100
AcDbEntity
  8
2
370
    25
100
AcDbEllipse
 10
201.609562
 20
-111.498778
 30
0.0
 11
0.0
 21
1.0
 31
0.0
210
0.0
220
0.0
230
1.0
 40
0.5
 41
3.1415929999999999
 42
4.7123889999999999
  0
LINE
  5
260
100
AcDbEntity
  8
2
370
    50
100
AcDbLine
 10
203.214428
 20
-112.498778
 30
0.0
 11
201.464428
 21
-112.498778
 31
0.0
  0
ELLIPSE
  5
261
100
AcDbEntity
  8
2
370
    50
100
AcDbEllipse
 10
201.464428
 20
-111.498778
 30
0.0
 11
0.0
 21
1.0
 31
0.0
210
0.0
220
0.0
230
1.0
 40
0.69
 41
1.5707960000000001
 42
3.1415929999999999
  0
LINE
  5
262
100
AcDbEntity
  8
2
370
    50
100
AcDbLine
 10
200.774428
 20
-109.498778
 30
0.0
 11
200.774428
 21
-111.498778
 31
0.0
  0
ELLIPSE
  5
263
100
AcDbEntity
  8
2
370
    50
100
AcDbEllipse
 10
203.214428
 20
-109.498778
 30
0.0
 11
0.0
 21
1.0
 31
0.0
210
0.0
220
0.0
230
1.0
 40
0.31
 41
4.6740959999999996
 42
5.6139789999999996
  0
ELLIPSE
  5
264
100
AcDbEntity
  8
2
370
    25
100
AcDbEllipse
 10
201.609562
 20
-109.498778
 30
0.0
 11
0.0
 21
1.0
 31
0.0
210
0.0
220
0.0
230
1.0
 40
0.5
 41
4.7123889999999999
 42
5.6139789999999996
  0
LINE
  5
265
100
AcDbEntity
  8
2
370
    25
100
AcDbLine
 10
202.109562
 20
-111.498778
 30
0.0
 11
202.109562
 21
-109.498778
 31
0.0
  0
LINE
  5
266
100
AcDbEntity
  8
2
370
    50
100
AcDbLine
 10
200.774428
 20
-109.498778
 30
0.0
 11
200.774428
 21
-111.498778
 31
0.0
  0
ELLIPSE
  5
267
100
AcDbEntity
  8
2
370
    50
100
AcDbEllipse
 10
201.464428
 20
-109.498778
 30
0.0
 11
0.0
 21
1.0
 31
0.0
210
0.0
220
0.0
230
1.0
 40
0.69
 41
0.669206
 42
1.5707960000000001
  0
ARC
  5
268
100
AcDbEntity
  8
2
370
    50
100
AcDbCircle
 10
195.123346
 20
-109.498778
 30
0.0
 40
1.0
100
AcDbArc
 50
0.0
 51
51.657329
  0
LINE
  5
269
100
AcDbEntity
  8
2
370
    50
100
AcDbLine
 10
196.123346
 20
-111.498778
 30
0.0
 11
196.123346
 21
-109.498778
 31
0.0
  0
ARC
  5
26A
100
AcDbEntity
  8
2
370
    50
100
AcDbCircle
 10
195.123346
 20
-111.498778
 30
0.0
 40
1.0
100
AcDbArc
 50
270.0
 51
360.0
  0
LINE
  5
26B
100
AcDbEntity
  8
2
370
    50
100
AcDbLine
 10
205.063794
 20
-115.748778
 30
0.0
 11
201.563794
 21
-115.748778
 31
0.0
  0
LINE
  5
26C
100
AcDbEntity
  8
2
370
    50
100
AcDbLine
 10
205.063794
 20
-136.74888
 30
0.0
 11
205.063794
 21
-115.748778
 31
0.0
  0
LINE
  5
26D
100
AcDbEntity
  8
2
370
    50
100
AcDbLine
 10
201.563794
 20
-136.74888
 30
0.0
 11
201.563794
 21
-115.748778
 31
0.0
  0
LINE
  5
26E
100
AcDbEntity
  8
2
370
    50
100
AcDbLine
 10
196.873346
 20
-115.748778
 30
0.0
 11
196.873346
 21
-136.74888
 31
0.0
  0
LINE
  5
26F
100
AcDbEntity
  8
2
370
    50
100
AcDbLine
 10
205.063794
 20
-136.74888
 30
0.0
 11
201.563794
 21
-136.74888
 31
0.0
  0
POINT
  5
270
100
AcDbEntity
  8
2
370
    50
100
AcDbPoint
 10
193.37381
 20
-142.748765
 30
0.0
  0
LINE
  5
271
100
AcDbEntity
  8
2
370
    50
100
AcDbLine
 10
-243.948246
 20
-32.773925
 30
0.0
 11
-243.948246
 21
-68.273925
 31
0.0
  0
LINE
  5
272
100
AcDbEntity
  8
2
370
    50
100
AcDbLine
 10
-218.360246
 20
-32.773925
 30
0.0
 11
-218.360246
 21
-78.273925
 31
0.0
  0
LINE
  5
273
100
AcDbEntity
  8
2
370
    50
  6
PHANTOM
100
AcDbLine
 10
-238.154381
 20
-64.494226
 30
0.0
 11
-238.154382
 21
-58.201665
 31
0.0
  0
LINE
  5
274
100
AcDbEntity
  8
2
370
    50
100
AcDbLine
 10
-256.154246
 20
6.726075
 30
0.0
 11
-206.154246
 21
6.726075
 31
0.0
  0
LINE
  5
275
100
AcDbEntity
  8
2
370
    25
  6
CENTER
100
AcDbLine
 10
-238.948246
 20
-155.273925
 30
0.0
 11
-238.948246
 21
-130.073632
 31
0.0
  0
LINE
  5
276
100
AcDbEntity
  8
2
370
    25
  6
CENTER
100
AcDbLine
 10
-223.360246
 20
-165.273925
 30
0.0
 11
-223.360246
 21
-140.568368
 31
0.0
  0
LINE
  5
277
100
AcDbEntity
  8
2
370
    50
100
AcDbLine
 10
-244.948246
 20
-89.673925
 30
0.0
 11
-232.948246
 21
-89.673925
 31
0.0
  0
LINE
  5
278
100
AcDbEntity
  8
2
370
    50
100
AcDbLine
 10
-244.948246
 20
-89.673925
 30
0.0
 11
-244.948246
 21
-83.773925
 31
0.0
  0
LINE
  5
279
100
AcDbEntity
  8
2
370
    50
100
AcDbLine
 10
-232.948246
 20
-89.673925
 30
0.0
 11
-232.948246
 21
-83.773925
 31
0.0
  0
LINE
  5
27A
100
AcDbEntity
  8
2
370
    50
100
AcDbLine
 10
-242.512428
 20
-89.673925
 30
0.0
 11
-242.512428
 21
-83.773925
 31
0.0
  0
LINE
  5
27B
100
AcDbEntity
  8
2
370
    50
100
AcDbLine
 10
-241.346162
 20
-89.673925
 30
0.0
 11
-241.346162
 21
-83.773925
 31
0.0
  0
LINE
  5
27C
100
AcDbEntity
  8
2
370
    50
100
AcDbLine
 10
-236.55033
 20
-89.673925
 30
0.0
 11
-236.55033
 21
-83.773925
 31
0.0
  0
LINE
  5
27D
100
AcDbEntity
  8
2
370
    50
100
AcDbLine
 10
-235.384064
 20
-89.673925
 30
0.0
 11
-235.384064
 21
-83.773925
 31
0.0
  0
LINE
  5
27E
100
AcDbEntity
  8
2
370
    50
100
AcDbLine
 10
-229.360246
 20
-99.673925
 30
0.0
 11
-229.360246
 21
-93.773925
 31
0.0
  0
LINE
  5
27F
100
AcDbEntity
  8
2
370
    50
100
AcDbLine
 10
-226.924428
 20
-99.673925
 30
0.0
 11
-226.924428
 21
-93.773925
 31
0.0
  0
LINE
  5
280
100
AcDbEntity
  8
2
370
    50
100
AcDbLine
 10
-225.758162
 20
-99.673925
 30
0.0
 11
-225.758162
 21
-93.773925
 31
0.0
  0
LINE
  5
281
100
AcDbEntity
  8
2
370
    50
100
AcDbLine
 10
-220.96233
 20
-99.673925
 30
0.0
 11
-220.96233
 21
-93.773925
 31
0.0
  0
LINE
  5
282
100
AcDbEntity
  8
2
370
    50
100
AcDbLine
 10
-219.796064
 20
-99.673925
 30
0.0
 11
-219.796064
 21
-93.773925
 31
0.0
  0
LINE
  5
283
100
AcDbEntity
  8
2
370
    50
100
AcDbLine
 10
-217.360246
 20
-99.673925
 30
0.0
 11
-217.360246
 21
-93.773925
 31
0.0
  0
LINE
  5
284
100
AcDbEntity
  8
2
370
    50
100
AcDbLine
 10
-217.360246
 20
-99.673925
 30
0.0
 11
-229.360246
 21
-99.673925
 31
0.0
  0
LINE
  5
285
100
AcDbEntity
  8
2
370
    50
100
AcDbLine
 10
-236.154246
 20
-168.119782
 30
0.0
 11
-236.154246
 21
-137.467278
 31
0.0
  0
LINE
  5
286
100
AcDbEntity
  8
2
370
    50
100
AcDbLine
 10
-226.154246
 20
-168.119782
 30
0.0
 11
-226.154246
 21
-149.375901
 31
0.0
  0
LINE
  5
287
100
AcDbEntity
  8
2
370
    50
100
AcDbLine
 10
-233.148246
 20
-89.673925
 30
0.0
 11
-244.748246
 21
-89.673925
 31
0.0
  0
LINE
  5
288
100
AcDbEntity
  8
2
370
    50
100
AcDbLine
 10
-245.448246
 20
-106.673925
 30
0.0
 11
-232.448246
 21
-106.673925
 31
0.0
  0
LINE
  5
289
100
AcDbEntity
  8
2
370
    50
100
AcDbLine
 10
-245.448246
 20
-106.673925
 30
0.0
 11
-245.448246
 21
-94.173925
 31
0.0
  0
LINE
  5
28A
100
AcDbEntity
  8
2
370
    50
100
AcDbLine
 10
-232.448246
 20
-106.673925
 30
0.0
 11
-232.448246
 21
-94.173925
 31
0.0
  0
LINE
  5
28B
100
AcDbEntity
  8
2
370
    50
100
AcDbLine
 10
-242.822576
 20
-92.673925
 30
0.0
 11
-242.822576
 21
-90.173925
 31
0.0
  0
LINE
  5
28C
100
AcDbEntity
  8
2
370
    50
100
AcDbLine
 10
-243.529683
 20
-92.673925
 30
0.0
 11
-243.529683
 21
-90.173925
 31
0.0
  0
LINE
  5
28D
100
AcDbEntity
  8
2
370
    50
100
AcDbLine
 10
-244.927376
 20
-92.673925
 30
0.0
 11
-244.927376
 21
-90.173925
 31
0.0
  0
LINE
  5
28E
100
AcDbEntity
  8
2
370
    50
100
AcDbLine
 10
-244.948246
 20
-92.673925
 30
0.0
 11
-244.948246
 21
-89.873925
 31
0.0
  0
LINE
  5
28F
100
AcDbEntity
  8
2
370
    50
100
AcDbLine
 10
-239.448246
 20
-92.673925
 30
0.0
 11
-239.448246
 21
-90.173925
 31
0.0
  0
LINE
  5
290
100
AcDbEntity
  8
2
370
    50
100
AcDbLine
 10
-238.448246
 20
-92.673925
 30
0.0
 11
-238.448246
 21
-90.173925
 31
0.0
  0
LINE
  5
291
100
AcDbEntity
  8
2
370
    50
100
AcDbLine
 10
-235.073916
 20
-92.673925
 30
0.0
 11
-235.073916
 21
-90.173925
 31
0.0
  0
LINE
  5
292
100
AcDbEntity
  8
2
370
    50
100
AcDbLine
 10
-234.366809
 20
-92.673925
 30
0.0
 11
-234.366809
 21
-90.173925
 31
0.0
  0
LINE
  5
293
100
AcDbEntity
  8
2
370
    50
100
AcDbLine
 10
-232.948246
 20
-92.673925
 30
0.0
 11
-232.948246
 21
-89.873925
 31
0.0
  0
LINE
  5
294
100
AcDbEntity
  8
2
370
    50
100
AcDbLine
 10
-232.969115
 20
-92.673925
 30
0.0
 11
-232.969115
 21
-90.173925
 31
0.0
  0
LINE
  5
295
100
AcDbEntity
  8
2
370
    50
100
AcDbLine
 10
-243.529683
 20
-90.173925
 30
0.0
 11
-244.948246
 21
-90.173925
 31
0.0
  0
LINE
  5
296
100
AcDbEntity
  8
2
370
    50
100
AcDbLine
 10
-239.448246
 20
-90.173925
 30
0.0
 11
-242.822576
 21
-90.173925
 31
0.0
  0
LINE
  5
297
100
AcDbEntity
  8
2
370
    50
100
AcDbLine
 10
-232.948246
 20
-90.173925
 30
0.0
 11
-234.366809
 21
-90.173925
 31
0.0
  0
LINE
  5
298
100
AcDbEntity
  8
2
370
    50
100
AcDbLine
 10
-235.073916
 20
-90.173925
 30
0.0
 11
-238.448246
 21
-90.173925
 31
0.0
  0
LINE
  5
299
100
AcDbEntity
  8
2
370
    50
100
AcDbLine
 10
-243.529683
 20
-92.673925
 30
0.0
 11
-244.948246
 21
-92.673925
 31
0.0
  0
LINE
  5
29A
100
AcDbEntity
  8
2
370
    50
100
AcDbLine
 10
-239.448246
 20
-92.673925
 30
0.0
 11
-242.822576
 21
-92.673925
 31
0.0
  0
LINE
  5
29B
100
AcDbEntity
  8
2
370
    50
100
AcDbLine
 10
-232.948246
 20
-92.673925
 30
0.0
 11
-234.366809
 21
-92.673925
 31
0.0
  0
LINE
  5
29C
100
AcDbEntity
  8
2
370
    50
100
AcDbLine
 10
-235.073916
 20
-92.673925
 30
0.0
 11
-238.448246
 21
-92.673925
 31
0.0
  0
ARC
  5
29D
100
AcDbEntity
  8
2
370
    50
100
AcDbCircle
 10
-233.148246
 20
-89.873925
 30
0.0
 40
0.2
100
AcDbArc
 50
0.0
 51
90.0
  0
ARC
  5
29E
100
AcDbEntity
  8
2
370
    50
100
AcDbCircle
 10
-244.748246
 20
-89.873925
 30
0.0
 40
0.2
100
AcDbArc
 50
90.0
 51
180.0
  0
ARC
  5
29F
100
AcDbEntity
  8
2
370
    50
100
AcDbCircle
 10
-242.948246
 20
-94.173925
 30
0.0
 40
2.5
100
AcDbArc
 50
143.130102
 51
180.0
  0
ARC
  5
2A0
100
AcDbEntity
  8
2
370
    50
100
AcDbCircle
 10
-234.948246
 20
-94.173925
 30
0.0
 40
2.5
100
AcDbArc
 50
0.0
 51
36.869898
  0
LINE
  5
2A1
100
AcDbEntity
  8
2
370
    25
100
AcDbLine
 10
-245.428986
 20
-106.673925
 30
0.0
 11
-245.428986
 21
-94.173925
 31
0.0
  0
LINE
  5
2A2
100
AcDbEntity
  8
2
370
    25
100
AcDbLine
 10
-243.884375
 20
-106.673925
 30
0.0
 11
-243.884375
 21
-94.173925
 31
0.0
  0
LINE
  5
2A3
100
AcDbEntity
  8
2
370
    25
100
AcDbLine
 10
-243.177268
 20
-106.673925
 30
0.0
 11
-243.177268
 21
-94.173925
 31
0.0
  0
LINE
  5
2A4
100
AcDbEntity
  8
2
370
    25
100
AcDbLine
 10
-239.448246
 20
-106.673925
 30
0.0
 11
-239.448246
 21
-94.173925
 31
0.0
  0
LINE
  5
2A5
100
AcDbEntity
  8
2
370
    25
100
AcDbLine
 10
-238.448246
 20
-106.673925
 30
0.0
 11
-238.448246
 21
-94.173925
 31
0.0
  0
LINE
  5
2A6
100
AcDbEntity
  8
2
370
    25
100
AcDbLine
 10
-234.719223
 20
-106.673925
 30
0.0
 11
-234.719223
 21
-94.173925
 31
0.0
  0
LINE
  5
2A7
100
AcDbEntity
  8
2
370
    25
100
AcDbLine
 10
-234.012117
 20
-106.673925
 30
0.0
 11
-234.012117
 21
-94.173925
 31
0.0
  0
LINE
  5
2A8
100
AcDbEntity
  8
2
370
    25
100
AcDbLine
 10
-232.467505
 20
-106.673925
 30
0.0
 11
-232.467505
 21
-94.173925
 31
0.0
  0
LINE
  5
2A9
100
AcDbEntity
  8
2
370
    25
100
AcDbLine
 10
-234.882382
 20
-122.890284
 30
0.0
 11
-243.01411
 21
-114.758556
 31
0.0
  0
LINE
  5
2AA
100
AcDbEntity
  8
2
370
    25
100
AcDbLine
 10
-234.882382
 20
-114.758556
 30
0.0
 11
-243.01411
 21
-122.890284
 31
0.0
  0
LINE
  5
2AB
100
AcDbEntity
  8
2
370
    25
100
AcDbLine
 10
-235.651448
 20
-123.535431
 30
0.0
 11
-243.659257
 21
-115.527622
 31
0.0
  0
LINE
  5
2AC
100
AcDbEntity
  8
2
370
    25
100
AcDbLine
 10
-236.550472
 20
-124.050621
 30
0.0
 11
-244.174447
 21
-116.426646
 31
0.0
  0
LINE
  5
2AD
100
AcDbEntity
  8
2
370
    25
100
AcDbLine
 10
-237.600957
 20
-124.414349
 30
0.0
 11
-244.538175
 21
-117.477131
 31
0.0
  0
LINE
  5
2AE
100
AcDbEntity
  8
2
370
    25
100
AcDbLine
 10
-238.855843
 20
-124.573677
 30
0.0
 11
-244.697503
 21
-118.732017
 31
0.0
  0
LINE
  5
2AF
100
AcDbEntity
  8
2
370
    25
100
AcDbLine
 10
-240.475982
 20
-124.367751
 30
0.0
 11
-244.491577
 21
-120.352156
 31
0.0
  0
LINE
  5
2B0
100
AcDbEntity
  8
2
370
    25
100
AcDbLine
 10
-234.237235
 20
-122.121217
 30
0.0
 11
-242.245043
 21
-114.113409
 31
0.0
  0
LINE
  5
2B1
100
AcDbEntity
  8
2
370
    25
100
AcDbLine
 10
-233.722045
 20
-121.222194
 30
0.0
 11
-241.34602
 21
-113.598219
 31
0.0
  0
LINE
  5
2B2
100
AcDbEntity
  8
2
370
    25
100
AcDbLine
 10
-233.358316
 20
-120.171709
 30
0.0
 11
-240.295535
 21
-113.23449
 31
0.0
  0
LINE
  5
2B3
100
AcDbEntity
  8
2
370
    25
100
AcDbLine
 10
-233.198988
 20
-118.916823
 30
0.0
 11
-239.040649
 21
-113.075162
 31
0.0
  0
LINE
  5
2B4
100
AcDbEntity
  8
2
370
    25
100
AcDbLine
 10
-233.404915
 20
-117.296683
 30
0.0
 11
-237.420509
 21
-113.281089
 31
0.0
  0
LINE
  5
2B5
100
AcDbEntity
  8
2
370
    25
100
AcDbLine
 10
-235.651448
 20
-114.113409
 30
0.0
 11
-243.659257
 21
-122.121217
 31
0.0
  0
LINE
  5
2B6
100
AcDbEntity
  8
2
370
    25
100
AcDbLine
 10
-236.550472
 20
-113.598219
 30
0.0
 11
-244.174447
 21
-121.222194
 31
0.0
  0
LINE
  5
2B7
100
AcDbEntity
  8
2
370
    25
100
AcDbLine
 10
-237.600957
 20
-113.23449
 30
0.0
 11
-244.538175
 21
-120.171709
 31
0.0
  0
LINE
  5
2B8
100
AcDbEntity
  8
2
370
    25
100
AcDbLine
 10
-238.855843
 20
-113.075162
 30
0.0
 11
-244.697503
 21
-118.916823
 31
0.0
  0
LINE
  5
2B9
100
AcDbEntity
  8
2
370
    25
100
AcDbLine
 10
-240.475982
 20
-113.281089
 30
0.0
 11
-244.491577
 21
-117.296683
 31
0.0
  0
LINE
  5
2BA
100
AcDbEntity
  8
2
370
    25
100
AcDbLine
 10
-234.237235
 20
-115.527622
 30
0.0
 11
-242.245043
 21
-123.535431
 31
0.0
  0
LINE
  5
2BB
100
AcDbEntity
  8
2
370
    25
100
AcDbLine
 10
-233.722045
 20
-116.426646
 30
0.0
 11
-241.34602
 21
-124.050621
 31
0.0
  0
LINE
  5
2BC
100
AcDbEntity
  8
2
370
    25
100
AcDbLine
 10
-233.358316
 20
-117.477131
 30
0.0
 11
-240.295535
 21
-124.414349
 31
0.0
  0
LINE
  5
2BD
100
AcDbEntity
  8
2
370
    25
100
AcDbLine
 10
-233.198988
 20
-118.732017
 30
0.0
 11
-239.040649
 21
-124.573677
 31
0.0
  0
LINE
  5
2BE
100
AcDbEntity
  8
2
370
    25
100
AcDbLine
 10
-233.404915
 20
-120.352156
 30
0.0
 11
-237.420509
 21
-124.367751
 31
0.0
  0
LINE
  5
2BF
100
AcDbEntity
  8
2
370
    50
100
AcDbLine
 10
-233.198246
 20
-138.395253
 30
0.0
 11
-233.198246
 21
-106.673925
 31
0.0
  0
LINE
  5
2C0
100
AcDbEntity
  8
2
370
    50
100
AcDbLine
 10
-244.698246
 20
-106.673925
 30
0.0
 11
-244.698246
 21
-138.395253
 31
0.0
  0
LINE
  5
2C1
100
AcDbEntity
  8
2
370
    50
100
AcDbLine
 10
-217.560246
 20
-99.673925
 30
0.0
 11
-229.160246
 21
-99.673925
 31
0.0
  0
LINE
  5
2C2
100
AcDbEntity
  8
2
370
    50
100
AcDbLine
 10
-229.860246
 20
-116.673925
 30
0.0
 11
-216.860246
 21
-116.673925
 31
0.0
  0
LINE
  5
2C3
100
AcDbEntity
  8
2
370
    50
100
AcDbLine
 10
-229.860246
 20
-116.673925
 30
0.0
 11
-229.860246
 21
-104.173925
 31
0.0
  0
LINE
  5
2C4
100
AcDbEntity
  8
2
370
    50
100
AcDbLine
 10
-216.860246
 20
-116.673925
 30
0.0
 11
-216.860246
 21
-104.173925
 31
0.0
  0
LINE
  5
2C5
100
AcDbEntity
  8
2
370
    50
100
AcDbLine
 10
-227.234576
 20
-102.673925
 30
0.0
 11
-227.234576
 21
-100.173925
 31
0.0
  0
LINE
  5
2C6
100
AcDbEntity
  8
2
370
    50
100
AcDbLine
 10
-227.941683
 20
-102.673925
 30
0.0
 11
-227.941683
 21
-100.173925
 31
0.0
  0
LINE
  5
2C7
100
AcDbEntity
  8
2
370
    50
100
AcDbLine
 10
-229.339376
 20
-102.673925
 30
0.0
 11
-229.339376
 21
-100.173925
 31
0.0
  0
LINE
  5
2C8
100
AcDbEntity
  8
2
370
    50
100
AcDbLine
 10
-229.360246
 20
-102.673925
 30
0.0
 11
-229.360246
 21
-99.873925
 31
0.0
  0
LINE
  5
2C9
100
AcDbEntity
  8
2
370
    50
100
AcDbLine
 10
-223.860246
 20
-102.673925
 30
0.0
 11
-223.860246
 21
-100.173925
 31
0.0
  0
LINE
  5
2CA
100
AcDbEntity
  8
2
370
    50
100
AcDbLine
 10
-222.860246
 20
-102.673925
 30
0.0
 11
-222.860246
 21
-100.173925
 31
0.0
  0
LINE
  5
2CB
100
AcDbEntity
  8
2
370
    50
100
AcDbLine
 10
-219.485916
 20
-102.673925
 30
0.0
 11
-219.485916
 21
-100.173925
 31
0.0
  0
LINE
  5
2CC
100
AcDbEntity
  8
2
370
    50
100
AcDbLine
 10
-218.778809
 20
-102.673925
 30
0.0
 11
-218.778809
 21
-100.173925
 31
0.0
  0
LINE
  5
2CD
100
AcDbEntity
  8
2
370
    50
100
AcDbLine
 10
-217.360246
 20
-102.673925
 30
0.0
 11
-217.360246
 21
-99.873925
 31
0.0
  0
LINE
  5
2CE
100
AcDbEntity
  8
2
370
    50
100
AcDbLine
 10
-217.381115
 20
-102.673925
 30
0.0
 11
-217.381115
 21
-100.173925
 31
0.0
  0
LINE
  5
2CF
100
AcDbEntity
  8
2
370
    50
100
AcDbLine
 10
-227.941683
 20
-100.173925
 30
0.0
 11
-229.360246
 21
-100.173925
 31
0.0
  0
LINE
  5
2D0
100
AcDbEntity
  8
2
370
    50
100
AcDbLine
 10
-223.860246
 20
-100.173925
 30
0.0
 11
-227.234576
 21
-100.173925
 31
0.0
  0
LINE
  5
2D1
100
AcDbEntity
  8
2
370
    50
100
AcDbLine
 10
-217.360246
 20
-100.173925
 30
0.0
 11
-218.778809
 21
-100.173925
 31
0.0
  0
LINE
  5
2D2
100
AcDbEntity
  8
2
370
    50
100
AcDbLine
 10
-219.485916
 20
-100.173925
 30
0.0
 11
-222.860246
 21
-100.173925
 31
0.0
  0
LINE
  5
2D3
100
AcDbEntity
  8
2
370
    50
100
AcDbLine
 10
-227.941683
 20
-102.673925
 30
0.0
 11
-229.360246
 21
-102.673925
 31
0.0
  0
LINE
  5
2D4
100
AcDbEntity
  8
2
370
    50
100
AcDbLine
 10
-223.860246
 20
-102.673925
 30
0.0
 11
-227.234576
 21
-102.673925
 31
0.0
  0
LINE
  5
2D5
100
AcDbEntity
  8
2
370
    50
100
AcDbLine
 10
-217.360246
 20
-102.673925
 30
0.0
 11
-218.778809
 21
-102.673925
 31
0.0
  0
LINE
  5
2D6
100
AcDbEntity
  8
2
370
    50
100
AcDbLine
 10
-219.485916
 20
-102.673925
 30
0.0
 11
-222.860246
 21
-102.673925
 31
0.0
  0
ARC
  5
2D7
100
AcDbEntity
  8
2
370
    50
100
AcDbCircle
 10
-217.560246
 20
-99.873925
 30
0.0
 40
0.2
100
AcDbArc
 50
0.0
 51
90.0
  0
ARC
  5
2D8
100
AcDbEntity
  8
2
370
    50
100
AcDbCircle
 10
-229.160246
 20
-99.873925
 30
0.0
 40
0.2
100
AcDbArc
 50
90.0
 51
180.0
  0
ARC
  5
2D9
100
AcDbEntity
  8
2
370
    50
100
AcDbCircle
 10
-227.360246
 20
-104.173925
 30
0.0
 40
2.5
100
AcDbArc
 50
143.130102
 51
180.0
  0
ARC
  5
2DA
100
AcDbEntity
  8
2
370
    50
100
AcDbCircle
 10
-219.360246
 20
-104.173925
 30
0.0
 40
2.5
100
AcDbArc
 50
0.0
 51
36.869898
  0
LINE
  5
2DB
100
AcDbEntity
  8
2
370
    25
100
AcDbLine
 10
-229.840986
 20
-116.673925
 30
0.0
 11
-229.840986
 21
-104.173925
 31
0.0
  0
LINE
  5
2DC
100
AcDbEntity
  8
2
370
    25
100
AcDbLine
 10
-228.296375
 20
-116.673925
 30
0.0
 11
-228.296375
 21
-104.173925
 31
0.0
  0
LINE
  5
2DD
100
AcDbEntity
  8
2
370
    25
100
AcDbLine
 10
-227.589268
 20
-116.673925
 30
0.0
 11
-227.589268
 21
-104.173925
 31
0.0
  0
LINE
  5
2DE
100
AcDbEntity
  8
2
370
    25
100
AcDbLine
 10
-223.860246
 20
-116.673925
 30
0.0
 11
-223.860246
 21
-104.173925
 31
0.0
  0
LINE
  5
2DF
100
AcDbEntity
  8
2
370
    25
100
AcDbLine
 10
-222.860246
 20
-116.673925
 30
0.0
 11
-222.860246
 21
-104.173925
 31
0.0
  0
LINE
  5
2E0
100
AcDbEntity
  8
2
370
    25
100
AcDbLine
 10
-219.131223
 20
-116.673925
 30
0.0
 11
-219.131223
 21
-104.173925
 31
0.0
  0
LINE
  5
2E1
100
AcDbEntity
  8
2
370
    25
100
AcDbLine
 10
-218.424117
 20
-116.673925
 30
0.0
 11
-218.424117
 21
-104.173925
 31
0.0
  0
LINE
  5
2E2
100
AcDbEntity
  8
2
370
    25
100
AcDbLine
 10
-216.879505
 20
-116.673925
 30
0.0
 11
-216.879505
 21
-104.173925
 31
0.0
  0
LINE
  5
2E3
100
AcDbEntity
  8
2
370
    25
100
AcDbLine
 10
-219.294382
 20
-132.890284
 30
0.0
 11
-227.42611
 21
-124.758556
 31
0.0
  0
LINE
  5
2E4
100
AcDbEntity
  8
2
370
    25
100
AcDbLine
 10
-219.294382
 20
-124.758556
 30
0.0
 11
-227.42611
 21
-132.890284
 31
0.0
  0
LINE
  5
2E5
100
AcDbEntity
  8
2
370
    25
100
AcDbLine
 10
-220.063448
 20
-133.535431
 30
0.0
 11
-228.071257
 21
-125.527622
 31
0.0
  0
LINE
  5
2E6
100
AcDbEntity
  8
2
370
    25
100
AcDbLine
 10
-220.962472
 20
-134.050621
 30
0.0
 11
-228.586447
 21
-126.426646
 31
0.0
  0
LINE
  5
2E7
100
AcDbEntity
  8
2
370
    25
100
AcDbLine
 10
-222.012957
 20
-134.414349
 30
0.0
 11
-228.950175
 21
-127.477131
 31
0.0
  0
LINE
  5
2E8
100
AcDbEntity
  8
2
370
    25
100
AcDbLine
 10
-223.267843
 20
-134.573677
 30
0.0
 11
-229.109503
 21
-128.732017
 31
0.0
  0
LINE
  5
2E9
100
AcDbEntity
  8
2
370
    25
100
AcDbLine
 10
-224.887982
 20
-134.367751
 30
0.0
 11
-228.903577
 21
-130.352156
 31
0.0
  0
LINE
  5
2EA
100
AcDbEntity
  8
2
370
    25
100
AcDbLine
 10
-218.649235
 20
-132.121217
 30
0.0
 11
-226.657043
 21
-124.113409
 31
0.0
  0
LINE
  5
2EB
100
AcDbEntity
  8
2
370
    25
100
AcDbLine
 10
-218.134045
 20
-131.222194
 30
0.0
 11
-225.75802
 21
-123.598219
 31
0.0
  0
LINE
  5
2EC
100
AcDbEntity
  8
2
370
    25
100
AcDbLine
 10
-217.770316
 20
-130.171709
 30
0.0
 11
-224.707535
 21
-123.23449
 31
0.0
  0
LINE
  5
2ED
100
AcDbEntity
  8
2
370
    25
100
AcDbLine
 10
-217.610988
 20
-128.916823
 30
0.0
 11
-223.452649
 21
-123.075162
 31
0.0
  0
LINE
  5
2EE
100
AcDbEntity
  8
2
370
    25
100
AcDbLine
 10
-217.816915
 20
-127.296683
 30
0.0
 11
-221.832509
 21
-123.281089
 31
0.0
  0
LINE
  5
2EF
100
AcDbEntity
  8
2
370
    25
100
AcDbLine
 10
-220.063448
 20
-124.113409
 30
0.0
 11
-228.071257
 21
-132.121217
 31
0.0
  0
LINE
  5
2F0
100
AcDbEntity
  8
2
370
    25
100
AcDbLine
 10
-220.962472
 20
-123.598219
 30
0.0
 11
-228.586447
 21
-131.222194
 31
0.0
  0
LINE
  5
2F1
100
AcDbEntity
  8
2
370
    25
100
AcDbLine
 10
-222.012957
 20
-123.23449
 30
0.0
 11
-228.950175
 21
-130.171709
 31
0.0
  0
LINE
  5
2F2
100
AcDbEntity
  8
2
370
    25
100
AcDbLine
 10
-223.267843
 20
-123.075162
 30
0.0
 11
-229.109503
 21
-128.916823
 31
0.0
  0
LINE
  5
2F3
100
AcDbEntity
  8
2
370
    25
100
AcDbLine
 10
-224.887982
 20
-123.281089
 30
0.0
 11
-228.903577
 21
-127.296683
 31
0.0
  0
LINE
  5
2F4
100
AcDbEntity
  8
2
370
    25
100
AcDbLine
 10
-218.649235
 20
-125.527622
 30
0.0
 11
-226.657043
 21
-133.535431
 31
0.0
  0
LINE
  5
2F5
100
AcDbEntity
  8
2
370
    25
100
AcDbLine
 10
-218.134045
 20
-126.426646
 30
0.0
 11
-225.75802
 21
-134.050621
 31
0.0
  0
LINE
  5
2F6
100
AcDbEntity
  8
2
370
    25
100
AcDbLine
 10
-217.770316
 20
-127.477131
 30
0.0
 11
-224.707535
 21
-134.414349
 31
0.0
  0
LINE
  5
2F7
100
AcDbEntity
  8
2
370
    25
100
AcDbLine
 10
-217.610988
 20
-128.732017
 30
0.0
 11
-223.452649
 21
-134.573677
 31
0.0
  0
LINE
  5
2F8
100
AcDbEntity
  8
2
370
    25
100
AcDbLine
 10
-217.816915
 20
-130.352156
 30
0.0
 11
-221.832509
 21
-134.367751
 31
0.0
  0
LINE
  5
2F9
100
AcDbEntity
  8
2
370
    50
100
AcDbLine
 10
-217.610246
 20
-148.395253
 30
0.0
 11
-217.610246
 21
-116.673925
 31
0.0
  0
LINE
  5
2FA
100
AcDbEntity
  8
2
370
    50
100
AcDbLine
 10
-229.110246
 20
-116.673925
 30
0.0
 11
-229.110246
 21
-148.395253
 31
0.0
  0
ARC
  5
2FB
100
AcDbEntity
  8
2
370
    50
100
AcDbCircle
 10
-241.823246
 20
-134.563172
 30
0.0
 40
4.791667
100
AcDbArc
 50
233.130102
 51
306.869898
  0
ARC
  5
2FC
100
AcDbEntity
  8
2
370
    50
100
AcDbCircle
 10
-236.073246
 20
-142.229839
 30
0.0
 40
4.791667
100
AcDbArc
 50
53.130102
 51
126.869898
  0
ARC
  5
2FD
100
AcDbEntity
  8
2
370
    50
100
AcDbCircle
 10
-241.823246
 20
-142.229839
 30
0.0
 40
4.791667
100
AcDbArc
 50
53.130102
 51
126.869898
  0
ARC
  5
2FE
100
AcDbEntity
  8
2
370
    50
100
AcDbCircle
 10
-226.235246
 20
-144.563172
 30
0.0
 40
4.791667
100
AcDbArc
 50
233.130102
 51
306.869898
  0
ARC
  5
2FF
100
AcDbEntity
  8
2
370
    50
100
AcDbCircle
 10
-220.485246
 20
-152.229839
 30
0.0
 40
4.791667
100
AcDbArc
 50
53.130102
 51
126.869898
  0
ARC
  5
300
100
AcDbEntity
  8
2
370
    50
100
AcDbCircle
 10
-226.235246
 20
-152.229839
 30
0.0
 40
4.791667
100
AcDbArc
 50
53.130102
 51
126.869898
  0
LINE
  5
301
100
AcDbEntity
  8
2
370
    50
100
AcDbLine
 10
-229.110246
 20
-78.273925
 30
0.0
 11
-217.610246
 21
-78.273925
 31
0.0
  0
LINE
  5
302
100
AcDbEntity
  8
2
370
    50
100
AcDbLine
 10
-229.610246
 20
-78.773925
 30
0.0
 11
-229.610246
 21
-93.273925
 31
0.0
  0
LINE
  5
303
100
AcDbEntity
  8
2
370
    50
100
AcDbLine
 10
-217.110246
 20
-78.773925
 30
0.0
 11
-217.110246
 21
-93.273925
 31
0.0
  0
LINE
  5
304
100
AcDbEntity
  8
2
370
    50
100
AcDbLine
 10
-217.289093
 20
-78.773925
 30
0.0
 11
-217.289093
 21
-93.273925
 31
0.0
  0
LINE
  5
305
100
AcDbEntity
  8
2
370
    50
100
AcDbLine
 10
-219.039093
 20
-78.773925
 30
0.0
 11
-219.039093
 21
-93.273925
 31
0.0
  0
LINE
  5
306
100
AcDbEntity
  8
2
370
    50
100
AcDbLine
 10
-221.610246
 20
-78.773925
 30
0.0
 11
-221.610246
 21
-93.273925
 31
0.0
  0
LINE
  5
307
100
AcDbEntity
  8
2
370
    50
100
AcDbLine
 10
-225.110246
 20
-78.773925
 30
0.0
 11
-225.110246
 21
-93.273925
 31
0.0
  0
LINE
  5
308
100
AcDbEntity
  8
2
370
    50
100
AcDbLine
 10
-227.681398
 20
-78.773925
 30
0.0
 11
-227.681398
 21
-93.273925
 31
0.0
  0
LINE
  5
309
100
AcDbEntity
  8
2
370
    50
100
AcDbLine
 10
-229.431398
 20
-78.773925
 30
0.0
 11
-229.431398
 21
-93.273925
 31
0.0
  0
LINE
  5
30A
100
AcDbEntity
  8
2
370
    50
100
AcDbLine
 10
-244.948246
 20
-83.773925
 30
0.0
 11
-232.948246
 21
-83.773925
 31
0.0
  0
LINE
  5
30B
100
AcDbEntity
  8
2
370
    50
100
AcDbLine
 10
-229.360246
 20
-93.773925
 30
0.0
 11
-217.360246
 21
-93.773925
 31
0.0
  0
LINE
  5
30C
100
AcDbEntity
  8
2
370
    50
100
AcDbLine
 10
-229.610246
 20
-93.273925
 30
0.0
 11
-229.110246
 21
-93.773925
 31
0.0
  0
LINE
  5
30D
100
AcDbEntity
  8
2
370
    50
100
AcDbLine
 10
-229.610246
 20
-78.773925
 30
0.0
 11
-229.110246
 21
-78.273925
 31
0.0
  0
LINE
  5
30E
100
AcDbEntity
  8
2
370
    50
100
AcDbLine
 10
-217.610246
 20
-78.273925
 30
0.0
 11
-217.110246
 21
-78.773925
 31
0.0
  0
LINE
  5
30F
100
AcDbEntity
  8
2
370
    50
100
AcDbLine
 10
-217.110246
 20
-93.273925
 30
0.0
 11
-217.610246
 21
-93.773925
 31
0.0
  0
ARC
  5
310
100
AcDbEntity
  8
2
370
    50
100
AcDbCircle
 10
-228.556398
 20
-79.28955
 30
0.0
 40
1.015625
100
AcDbArc
 50
30.510237
 51
149.489763
  0
ARC
  5
311
100
AcDbEntity
  8
2
370
    50
100
AcDbCircle
 10
-223.360246
 20
-81.586425
 30
0.0
 40
3.3125
100
AcDbArc
 50
58.109208
 51
121.890792
  0
ARC
  5
312
100
AcDbEntity
  8
2
370
    50
100
AcDbCircle
 10
-218.164093
 20
-79.28955
 30
0.0
 40
1.015625
100
AcDbArc
 50
30.510237
 51
149.489763
  0
LINE
  5
313
100
AcDbEntity
  8
2
370
    50
100
AcDbLine
 10
-229.610246
 20
-78.773925
 30
0.0
 11
-229.431398
 21
-78.773925
 31
0.0
  0
LINE
  5
314
100
AcDbEntity
  8
2
370
    50
100
AcDbLine
 10
-227.681398
 20
-78.773925
 30
0.0
 11
-225.110246
 21
-78.773925
 31
0.0
  0
LINE
  5
315
100
AcDbEntity
  8
2
370
    50
100
AcDbLine
 10
-221.610246
 20
-78.773925
 30
0.0
 11
-219.039093
 21
-78.773925
 31
0.0
  0
LINE
  5
316
100
AcDbEntity
  8
2
370
    50
100
AcDbLine
 10
-217.289093
 20
-78.773925
 30
0.0
 11
-217.110246
 21
-78.773925
 31
0.0
  0
LINE
  5
317
100
AcDbEntity
  8
2
370
    50
100
AcDbLine
 10
-217.289093
 20
-93.273925
 30
0.0
 11
-217.110246
 21
-93.273925
 31
0.0
  0
LINE
  5
318
100
AcDbEntity
  8
2
370
    50
100
AcDbLine
 10
-227.681398
 20
-93.273925
 30
0.0
 11
-225.110246
 21
-93.273925
 31
0.0
  0
LINE
  5
319
100
AcDbEntity
  8
2
370
    50
100
AcDbLine
 10
-221.610246
 20
-93.273925
 30
0.0
 11
-219.039093
 21
-93.273925
 31
0.0
  0
LINE
  5
31A
100
AcDbEntity
  8
2
370
    50
100
AcDbLine
 10
-229.610246
 20
-93.273925
 30
0.0
 11
-229.431398
 21
-93.273925
 31
0.0
  0
ARC
  5
31B
100
AcDbEntity
  8
2
370
    50
100
AcDbCircle
 10
-228.556398
 20
-92.7583
 30
0.0
 40
1.015625
100
AcDbArc
 50
210.510237
 51
329.489763
  0
ARC
  5
31C
100
AcDbEntity
  8
2
370
    50
100
AcDbCircle
 10
-223.360246
 20
-90.461425
 30
0.0
 40
3.3125
100
AcDbArc
 50
238.109208
 51
301.890792
  0
ARC
  5
31D
100
AcDbEntity
  8
2
370
    50
100
AcDbCircle
 10
-218.164093
 20
-92.7583
 30
0.0
 40
1.015625
100
AcDbArc
 50
210.510237
 51
329.489763
  0
LINE
  5
31E
100
AcDbEntity
  8
2
370
    50
100
AcDbLine
 10
-233.198246
 20
-68.273925
 30
0.0
 11
-244.698246
 21
-68.273925
 31
0.0
  0
LINE
  5
31F
100
AcDbEntity
  8
2
370
    50
100
AcDbLine
 10
-232.698246
 20
-68.773925
 30
0.0
 11
-233.198246
 21
-68.273925
 31
0.0
  0
LINE
  5
320
100
AcDbEntity
  8
2
370
    50
100
AcDbLine
 10
-244.698246
 20
-68.273925
 30
0.0
 11
-245.198246
 21
-68.773925
 31
0.0
  0
ARC
  5
321
100
AcDbEntity
  8
2
370
    50
100
AcDbCircle
 10
-233.752093
 20
-69.28955
 30
0.0
 40
1.015625
100
AcDbArc
 50
30.510237
 51
149.489763
  0
ARC
  5
322
100
AcDbEntity
  8
2
370
    50
100
AcDbCircle
 10
-238.948246
 20
-71.586425
 30
0.0
 40
3.3125
100
AcDbArc
 50
58.109208
 51
121.890792
  0
ARC
  5
323
100
AcDbEntity
  8
2
370
    50
100
AcDbCircle
 10
-244.144398
 20
-69.28955
 30
0.0
 40
1.015625
100
AcDbArc
 50
30.510237
 51
149.489763
  0
LINE
  5
324
100
AcDbEntity
  8
2
370
    50
100
AcDbLine
 10
-232.698246
 20
-68.773925
 30
0.0
 11
-232.877093
 21
-68.773925
 31
0.0
  0
LINE
  5
325
100
AcDbEntity
  8
2
370
    50
100
AcDbLine
 10
-234.627093
 20
-68.773925
 30
0.0
 11
-237.198246
 21
-68.773925
 31
0.0
  0
LINE
  5
326
100
AcDbEntity
  8
2
370
    50
100
AcDbLine
 10
-240.698246
 20
-68.773925
 30
0.0
 11
-243.269398
 21
-68.773925
 31
0.0
  0
LINE
  5
327
100
AcDbEntity
  8
2
370
    50
100
AcDbLine
 10
-245.019398
 20
-68.773925
 30
0.0
 11
-245.198246
 21
-68.773925
 31
0.0
  0
LINE
  5
328
100
AcDbEntity
  8
2
370
    50
100
AcDbLine
 10
-232.698246
 20
-68.773925
 30
0.0
 11
-232.698246
 21
-83.273925
 31
0.0
  0
LINE
  5
329
100
AcDbEntity
  8
2
370
    50
100
AcDbLine
 10
-245.198246
 20
-68.773925
 30
0.0
 11
-245.198246
 21
-83.273925
 31
0.0
  0
LINE
  5
32A
100
AcDbEntity
  8
2
370
    50
100
AcDbLine
 10
-245.019398
 20
-68.773925
 30
0.0
 11
-245.019398
 21
-83.273925
 31
0.0
  0
LINE
  5
32B
100
AcDbEntity
  8
2
370
    50
100
AcDbLine
 10
-243.269398
 20
-68.773925
 30
0.0
 11
-243.269398
 21
-83.273925
 31
0.0
  0
LINE
  5
32C
100
AcDbEntity
  8
2
370
    50
100
AcDbLine
 10
-240.698246
 20
-68.773925
 30
0.0
 11
-240.698246
 21
-83.273925
 31
0.0
  0
LINE
  5
32D
100
AcDbEntity
  8
2
370
    50
100
AcDbLine
 10
-237.198246
 20
-68.773925
 30
0.0
 11
-237.198246
 21
-83.273925
 31
0.0
  0
LINE
  5
32E
100
AcDbEntity
  8
2
370
    50
100
AcDbLine
 10
-234.627093
 20
-68.773925
 30
0.0
 11
-234.627093
 21
-83.273925
 31
0.0
  0
LINE
  5
32F
100
AcDbEntity
  8
2
370
    50
100
AcDbLine
 10
-232.877093
 20
-68.773925
 30
0.0
 11
-232.877093
 21
-83.273925
 31
0.0
  0
LINE
  5
330
100
AcDbEntity
  8
2
370
    50
100
AcDbLine
 10
-232.698246
 20
-83.273925
 30
0.0
 11
-233.198246
 21
-83.773925
 31
0.0
  0
LINE
  5
331
100
AcDbEntity
  8
2
370
    50
100
AcDbLine
 10
-245.198246
 20
-83.273925
 30
0.0
 11
-244.698246
 21
-83.773925
 31
0.0
  0
LINE
  5
332
100
AcDbEntity
  8
2
370
    50
100
AcDbLine
 10
-245.019398
 20
-83.273925
 30
0.0
 11
-245.198246
 21
-83.273925
 31
0.0
  0
LINE
  5
333
100
AcDbEntity
  8
2
370
    50
100
AcDbLine
 10
-234.627093
 20
-83.273925
 30
0.0
 11
-237.198246
 21
-83.273925
 31
0.0
  0
LINE
  5
334
100
AcDbEntity
  8
2
370
    50
100
AcDbLine
 10
-240.698246
 20
-83.273925
 30
0.0
 11
-243.269398
 21
-83.273925
 31
0.0
  0
LINE
  5
335
100
AcDbEntity
  8
2
370
    50
100
AcDbLine
 10
-232.698246
 20
-83.273925
 30
0.0
 11
-232.877093
 21
-83.273925
 31
0.0
  0
ARC
  5
336
100
AcDbEntity
  8
2
370
    50
100
AcDbCircle
 10
-233.752093
 20
-82.7583
 30
0.0
 40
1.015625
100
AcDbArc
 50
210.510237
 51
329.489763
  0
ARC
  5
337
100
AcDbEntity
  8
2
370
    50
100
AcDbCircle
 10
-238.948246
 20
-80.461425
 30
0.0
 40
3.3125
100
AcDbArc
 50
238.109208
 51
301.890792
  0
ARC
  5
338
100
AcDbEntity
  8
2
370
    50
100
AcDbCircle
 10
-244.144398
 20
-82.7583
 30
0.0
 40
1.015625
100
AcDbArc
 50
210.510237
 51
329.489763
  0
LINE
  5
339
100
AcDbEntity
  8
2
370
    25
  6
CENTER
100
AcDbLine
 10
-223.360246
 20
-165.273925
 30
0.0
 11
-166.154246
 21
-74.024231
 31
0.0
  0
LINE
  5
33A
100
AcDbEntity
  8
2
370
    50
100
AcDbLine
 10
-256.154246
 20
9.726075
 30
0.0
 11
-256.154246
 21
6.726075
 31
0.0
  0
LINE
  5
33B
100
AcDbEntity
  8
2
370
    50
100
AcDbLine
 10
-206.154246
 20
9.726075
 30
0.0
 11
-206.154246
 21
6.726075
 31
0.0
  0
LINE
  5
33C
100
AcDbEntity
  8
2
370
    50
100
AcDbLine
 10
-237.154382
 20
-52.528921
 30
0.0
 11
-237.154382
 21
-50.498068
 31
0.0
  0
LINE
  5
33D
100
AcDbEntity
  8
2
370
    50
100
AcDbLine
 10
-224.537345
 20
-48.273344
 30
0.0
 11
-237.567558
 21
-50.570922
 31
0.0
  0
LINE
  5
33E
100
AcDbEntity
  8
2
370
    50
100
AcDbLine
 10
-225.154382
 20
-50.412997
 30
0.0
 11
-225.154382
 21
-48.382144
 31
0.0
  0
LINE
  5
33F
100
AcDbEntity
  8
2
370
    50
100
AcDbLine
 10
-238.154382
 20
-50.078518
 30
0.0
 11
-238.154382
 21
-48.273344
 31
0.0
  0
ARC
  5
340
100
AcDbEntity
  8
2
370
    50
100
AcDbCircle
 10
-237.654382
 20
-39.922518
 30
0.0
 40
0.5
100
AcDbArc
 50
180.0
 51
280.0
  0
LINE
  5
341
100
AcDbEntity
  8
2
370
    50
100
AcDbLine
 10
-224.741206
 20
-50.34001
 30
0.0
 11
-237.741206
 21
-52.632261
 31
0.0
  0
LINE
  5
342
100
AcDbEntity
  8
2
370
    50
100
AcDbLine
 10
-224.567558
 20
-53.355671
 30
0.0
 11
-237.567558
 21
-55.647922
 31
0.0
  0
LINE
  5
343
100
AcDbEntity
  8
2
370
    50
100
AcDbLine
 10
-237.154382
 20
-57.605921
 30
0.0
 11
-237.154382
 21
-55.575068
 31
0.0
  0
LINE
  5
344
100
AcDbEntity
  8
2
370
    50
100
AcDbLine
 10
-225.154382
 20
-55.489997
 30
0.0
 11
-225.154382
 21
-53.459144
 31
0.0
  0
LINE
  5
345
100
AcDbEntity
  8
2
370
    50
100
AcDbLine
 10
-224.154382
 20
-52.863267
 30
0.0
 11
-224.154382
 21
-50.832414
 31
0.0
  0
LINE
  5
346
100
AcDbEntity
  8
2
370
    50
100
AcDbLine
 10
-238.154382
 20
-55.155518
 30
0.0
 11
-238.154382
 21
-53.124665
 31
0.0
  0
ARC
  5
347
100
AcDbEntity
  8
2
370
    50
100
AcDbCircle
 10
-224.654382
 20
-52.863267
 30
0.0
 40
0.5
100
AcDbArc
 50
280.0
 51
360.0
  0
ARC
  5
348
100
AcDbEntity
  8
2
370
    50
100
AcDbCircle
 10
-224.654382
 20
-50.832414
 30
0.0
 40
0.5
100
AcDbArc
 50
0.0
 51
100.0
  0
ARC
  5
349
100
AcDbEntity
  8
2
370
    50
100
AcDbCircle
 10
-237.654382
 20
-55.155518
 30
0.0
 40
0.5
100
AcDbArc
 50
180.0
 51
280.0
  0
ARC
  5
34A
100
AcDbEntity
  8
2
370
    50
100
AcDbCircle
 10
-237.654382
 20
-53.124665
 30
0.0
 40
0.5
100
AcDbArc
 50
100.0
 51
180.0
  0
LINE
  5
34B
100
AcDbEntity
  8
2
370
    50
100
AcDbLine
 10
-224.741206
 20
-55.41701
 30
0.0
 11
-237.741206
 21
-57.709261
 31
0.0
  0
ARC
  5
34C
100
AcDbEntity
  8
2
370
    50
100
AcDbCircle
 10
-224.654382
 20
-55.909414
 30
0.0
 40
0.5
100
AcDbArc
 50
0.0
 51
100.0
  0
ARC
  5
34D
100
AcDbEntity
  8
2
370
    50
100
AcDbCircle
 10
-237.654382
 20
-58.201665
 30
0.0
 40
0.5
100
AcDbArc
 50
100.0
 51
180.0
  0
LINE
  5
34E
100
AcDbEntity
  8
2
370
    50
  6
PHANTOM
100
AcDbLine
 10
-224.154382
 20
-55.909414
 30
0.0
 11
-224.154382
 21
-64.494226
 31
0.0
  0
LINE
  5
34F
100
AcDbEntity
  8
2
370
    50
100
AcDbLine
 10
-233.948246
 20
-65.676256
 30
0.0
 11
-233.948246
 21
-68.273925
 31
0.0
  0
LINE
  5
350
100
AcDbEntity
  8
2
370
    50
100
AcDbLine
 10
-228.360246
 20
-65.676256
 30
0.0
 11
-228.360246
 21
-78.273925
 31
0.0
  0
ARC
  5
351
100
AcDbEntity
  8
2
370
    50
100
AcDbCircle
 10
-234.654178
 20
-59.838164
 30
0.0
 40
5.83322
100
AcDbArc
 50
233.130102
 51
306.869898
  0
ARC
  5
352
100
AcDbEntity
  8
2
370
    50
100
AcDbCircle
 10
-227.654314
 20
-69.171316
 30
0.0
 40
5.83322
100
AcDbArc
 50
53.130102
 51
126.869898
  0
ARC
  5
353
100
AcDbEntity
  8
2
370
    50
100
AcDbCircle
 10
-227.654314
 20
-59.838164
 30
0.0
 40
5.83322
100
AcDbArc
 50
233.130102
 51
306.869898
  0
LINE
  5
354
100
AcDbEntity
  8
2
370
    50
100
AcDbLine
 10
-247.954246
 20
-32.773925
 30
0.0
 11
-214.354246
 21
-32.773925
 31
0.0
  0
LINE
  5
355
100
AcDbEntity
  8
2
370
    50
100
AcDbLine
 10
-214.354246
 20
-32.773925
 30
0.0
 11
-213.654246
 21
-32.073925
 31
0.0
  0
LINE
  5
356
100
AcDbEntity
  8
2
370
    50
100
AcDbLine
 10
-247.954246
 20
-32.773925
 30
0.0
 11
-248.654246
 21
-32.073925
 31
0.0
  0
LINE
  5
357
100
AcDbEntity
  8
2
370
    50
100
AcDbLine
 10
-205.154914
 20
-11.774775
 30
0.0
 11
-257.154914
 21
-11.774775
 31
0.0
  0
LINE
  5
358
100
AcDbEntity
  8
2
370
    50
100
AcDbLine
 10
-208.154914
 20
-23.774775
 30
0.0
 11
-254.154914
 21
-23.774775
 31
0.0
  0
LINE
  5
359
100
AcDbEntity
  8
2
370
    50
100
AcDbLine
 10
-257.154914
 20
-13.774775
 30
0.0
 11
-257.154914
 21
-11.774775
 31
0.0
  0
LINE
  5
35A
100
AcDbEntity
  8
2
370
    50
100
AcDbLine
 10
-205.154914
 20
-13.774775
 30
0.0
 11
-205.154914
 21
-11.774775
 31
0.0
  0
LINE
  5
35B
100
AcDbEntity
  8
2
370
    50
100
AcDbLine
 10
-254.154914
 20
-23.774775
 30
0.0
 11
-254.154914
 21
-15.774775
 31
0.0
  0
LINE
  5
35C
100
AcDbEntity
  8
2
370
    50
100
AcDbLine
 10
-208.154914
 20
-23.774775
 30
0.0
 11
-208.154914
 21
-15.774775
 31
0.0
  0
LINE
  5
35D
100
AcDbEntity
  8
2
370
    50
100
AcDbLine
 10
-206.154914
 20
-14.774775
 30
0.0
 11
-256.154914
 21
-14.774775
 31
0.0
  0
LINE
  5
35E
100
AcDbEntity
  8
2
370
    50
100
AcDbLine
 10
-253.154914
 20
-22.682775
 30
0.0
 11
-253.154914
 21
-14.774775
 31
0.0
  0
LINE
  5
35F
100
AcDbEntity
  8
2
370
    50
100
AcDbLine
 10
-209.154914
 20
-22.682775
 30
0.0
 11
-209.154914
 21
-14.774775
 31
0.0
  0
LINE
  5
360
100
AcDbEntity
  8
2
370
    50
100
AcDbLine
 10
-230.154914
 20
-22.682775
 30
0.0
 11
-230.154914
 21
-14.774775
 31
0.0
  0
LINE
  5
361
100
AcDbEntity
  8
2
370
    50
100
AcDbLine
 10
-232.154914
 20
-22.682775
 30
0.0
 11
-232.154914
 21
-14.774775
 31
0.0
  0
LINE
  5
362
100
AcDbEntity
  8
2
370
    50
100
AcDbLine
 10
-253.154914
 20
-22.682775
 30
0.0
 11
-254.154914
 21
-22.682775
 31
0.0
  0
LINE
  5
363
100
AcDbEntity
  8
2
370
    50
100
AcDbLine
 10
-208.154914
 20
-22.682775
 30
0.0
 11
-209.154914
 21
-22.682775
 31
0.0
  0
LINE
  5
364
100
AcDbEntity
  8
2
370
    50
100
AcDbLine
 10
-230.154914
 20
-22.682775
 30
0.0
 11
-232.154914
 21
-22.682775
 31
0.0
  0
ARC
  5
365
100
AcDbEntity
  8
2
370
    50
100
AcDbCircle
 10
-242.654914
 20
27.251994
 30
0.0
 40
51.026769
100
AcDbArc
 50
258.125168
 51
281.874832
  0
ARC
  5
366
100
AcDbEntity
  8
2
370
    50
100
AcDbCircle
 10
-219.654914
 20
27.251994
 30
0.0
 40
51.026769
100
AcDbArc
 50
258.125168
 51
281.874832
  0
ARC
  5
367
100
AcDbEntity
  8
2
370
    50
100
AcDbCircle
 10
-255.154914
 20
-15.774775
 30
0.0
 40
1.0
100
AcDbArc
 50
0.0
 51
90.0
  0
ARC
  5
368
100
AcDbEntity
  8
2
370
    50
100
AcDbCircle
 10
-207.154914
 20
-15.774775
 30
0.0
 40
1.0
100
AcDbArc
 50
90.0
 51
180.0
  0
ARC
  5
369
100
AcDbEntity
  8
2
370
    50
100
AcDbCircle
 10
-256.154914
 20
-13.774775
 30
0.0
 40
1.0
100
AcDbArc
 50
180.0
 51
270.0
  0
ARC
  5
36A
100
AcDbEntity
  8
2
370
    50
100
AcDbCircle
 10
-206.154914
 20
-13.774775
 30
0.0
 40
1.0
100
AcDbArc
 50
270.0
 51
360.0
  0
LINE
  5
36B
100
AcDbEntity
  8
2
370
    50
100
AcDbLine
 10
-256.154914
 20
-11.274775
 30
0.0
 11
-206.154914
 21
-11.274775
 31
0.0
  0
LINE
  5
36C
100
AcDbEntity
  8
2
370
    50
100
AcDbLine
 10
-256.154914
 20
-9.774775
 30
0.0
 11
-256.154914
 21
-11.774775
 31
0.0
  0
LINE
  5
36D
100
AcDbEntity
  8
2
370
    50
100
AcDbLine
 10
-206.154914
 20
-9.774775
 30
0.0
 11
-206.154914
 21
-11.774775
 31
0.0
  0
LINE
  5
36E
100
AcDbEntity
  8
2
370
    50
100
AcDbLine
 10
-256.154914
 20
-9.774775
 30
0.0
 11
-206.154914
 21
-9.774775
 31
0.0
  0
LINE
  5
36F
100
AcDbEntity
  8
2
370
    50
100
AcDbLine
 10
-224.741206
 20
-45.26201
 30
0.0
 11
-237.741206
 21
-47.554261
 31
0.0
  0
ARC
  5
370
100
AcDbEntity
  8
2
370
    50
100
AcDbCircle
 10
-224.654382
 20
-45.754414
 30
0.0
 40
0.5
100
AcDbArc
 50
0.0
 51
100.0
  0
LINE
  5
371
100
AcDbEntity
  8
2
370
    50
100
AcDbLine
 10
-224.154382
 20
-47.785267
 30
0.0
 11
-224.154382
 21
-45.754414
 31
0.0
  0
ARC
  5
372
100
AcDbEntity
  8
2
370
    50
100
AcDbCircle
 10
-224.654382
 20
-47.785267
 30
0.0
 40
0.5
100
AcDbArc
 50
280.0
 51
360.0
  0
ARC
  5
373
100
AcDbEntity
  8
2
370
    50
100
AcDbCircle
 10
-237.654382
 20
-48.046665
 30
0.0
 40
0.5
100
AcDbArc
 50
100.0
 51
180.0
  0
LINE
  5
374
100
AcDbEntity
  8
2
370
    50
100
AcDbLine
 10
-238.154382
 20
-50.077518
 30
0.0
 11
-238.154382
 21
-48.046665
 31
0.0
  0
LINE
  5
375
100
AcDbEntity
  8
2
370
    50
100
AcDbLine
 10
-237.154382
 20
-47.450921
 30
0.0
 11
-237.154382
 21
-45.420068
 31
0.0
  0
LINE
  5
376
100
AcDbEntity
  8
2
370
    50
100
AcDbLine
 10
-225.154382
 20
-45.334997
 30
0.0
 11
-225.154382
 21
-43.304144
 31
0.0
  0
LINE
  5
377
100
AcDbEntity
  8
2
370
    50
100
AcDbLine
 10
-224.567558
 20
-48.277671
 30
0.0
 11
-237.567558
 21
-50.569922
 31
0.0
  0
LINE
  5
378
100
AcDbEntity
  8
2
370
    50
100
AcDbLine
 10
-237.154382
 20
-42.372921
 30
0.0
 11
-237.154382
 21
-40.342068
 31
0.0
  0
LINE
  5
379
100
AcDbEntity
  8
2
370
    50
100
AcDbLine
 10
-225.154382
 20
-40.256997
 30
0.0
 11
-225.154382
 21
-38.226144
 31
0.0
  0
LINE
  5
37A
100
AcDbEntity
  8
2
370
    50
100
AcDbLine
 10
-224.741206
 20
-40.18401
 30
0.0
 11
-237.741206
 21
-42.476261
 31
0.0
  0
LINE
  5
37B
100
AcDbEntity
  8
2
370
    50
100
AcDbLine
 10
-224.567558
 20
-43.199671
 30
0.0
 11
-237.567558
 21
-45.491922
 31
0.0
  0
LINE
  5
37C
100
AcDbEntity
  8
2
370
    50
100
AcDbLine
 10
-224.154382
 20
-42.707267
 30
0.0
 11
-224.154382
 21
-40.676414
 31
0.0
  0
LINE
  5
37D
100
AcDbEntity
  8
2
370
    50
100
AcDbLine
 10
-238.154382
 20
-44.999518
 30
0.0
 11
-238.154382
 21
-42.968665
 31
0.0
  0
ARC
  5
37E
100
AcDbEntity
  8
2
370
    50
100
AcDbCircle
 10
-224.654382
 20
-42.707267
 30
0.0
 40
0.5
100
AcDbArc
 50
280.0
 51
360.0
  0
ARC
  5
37F
100
AcDbEntity
  8
2
370
    50
100
AcDbCircle
 10
-224.654382
 20
-40.676414
 30
0.0
 40
0.5
100
AcDbArc
 50
0.0
 51
100.0
  0
ARC
  5
380
100
AcDbEntity
  8
2
370
    50
100
AcDbCircle
 10
-237.654382
 20
-42.968665
 30
0.0
 40
0.5
100
AcDbArc
 50
100.0
 51
180.0
  0
LINE
  5
381
100
AcDbEntity
  8
2
370
    50
100
AcDbLine
 10
-237.154382
 20
-37.294921
 30
0.0
 11
-237.154382
 21
-35.264068
 31
0.0
  0
LINE
  5
382
100
AcDbEntity
  8
2
370
    50
100
AcDbLine
 10
-225.154382
 20
-35.178997
 30
0.0
 11
-225.154382
 21
-33.148144
 31
0.0
  0
LINE
  5
383
100
AcDbEntity
  8
2
370
    50
100
AcDbLine
 10
-224.741206
 20
-35.10601
 30
0.0
 11
-237.741206
 21
-37.398261
 31
0.0
  0
LINE
  5
384
100
AcDbEntity
  8
2
370
    50
100
AcDbLine
 10
-224.567558
 20
-38.121671
 30
0.0
 11
-237.567558
 21
-40.413922
 31
0.0
  0
LINE
  5
385
100
AcDbEntity
  8
2
370
    50
100
AcDbLine
 10
-224.154382
 20
-37.629267
 30
0.0
 11
-224.154382
 21
-35.598414
 31
0.0
  0
LINE
  5
386
100
AcDbEntity
  8
2
370
    50
100
AcDbLine
 10
-238.154382
 20
-39.921518
 30
0.0
 11
-238.154382
 21
-37.890665
 31
0.0
  0
ARC
  5
387
100
AcDbEntity
  8
2
370
    50
100
AcDbCircle
 10
-224.654382
 20
-37.629267
 30
0.0
 40
0.5
100
AcDbArc
 50
280.0
 51
360.0
  0
ARC
  5
388
100
AcDbEntity
  8
2
370
    50
100
AcDbCircle
 10
-224.654382
 20
-35.598414
 30
0.0
 40
0.5
100
AcDbArc
 50
0.0
 51
100.0
  0
ARC
  5
389
100
AcDbEntity
  8
2
370
    50
100
AcDbCircle
 10
-237.654382
 20
-37.890665
 30
0.0
 40
0.5
100
AcDbArc
 50
100.0
 51
180.0
  0
LINE
  5
38A
100
AcDbEntity
  8
2
370
    50
100
AcDbLine
 10
-224.567558
 20
-33.043671
 30
0.0
 11
-237.567558
 21
-35.335922
 31
0.0
  0
LINE
  5
38B
100
AcDbEntity
  8
2
370
    50
100
AcDbLine
 10
-238.154382
 20
-34.843518
 30
0.0
 11
-238.154382
 21
-32.773925
 31
0.0
  0
ARC
  5
38C
100
AcDbEntity
  8
2
370
    50
100
AcDbCircle
 10
-224.654382
 20
-32.551267
 30
0.0
 40
0.5
100
AcDbArc
 50
280.0
 51
333.556399
  0
ARC
  5
38D
100
AcDbEntity
  8
2
370
    50
100
AcDbCircle
 10
-237.654382
 20
-34.844518
 30
0.0
 40
0.5
100
AcDbArc
 50
180.0
 51
280.0
  0
ARC
  5
38E
100
AcDbEntity
  8
2
370
    50
100
AcDbCircle
 10
-237.654382
 20
-45.000518
 30
0.0
 40
0.5
100
AcDbArc
 50
180.0
 51
280.0
  0
ARC
  5
38F
100
AcDbEntity
  8
2
370
    50
100
AcDbCircle
 10
-237.654382
 20
-50.078518
 30
0.0
 40
0.5
100
AcDbArc
 50
180.0
 51
280.0
  0
LINE
  5
390
100
AcDbEntity
  8
2
370
    50
100
AcDbLine
 10
-213.654246
 20
-32.073925
 30
0.0
 11
-213.654246
 21
-23.774775
 31
0.0
  0
LINE
  5
391
100
AcDbEntity
  8
2
370
    50
100
AcDbLine
 10
-213.654246
 20
-9.774775
 30
0.0
 11
-213.654246
 21
6.726075
 31
0.0
  0
LINE
  5
392
100
AcDbEntity
  8
2
370
    25
100
AcDbLine
 10
-214.354246
 20
-32.773925
 30
0.0
 11
-214.354246
 21
-23.774775
 31
0.0
  0
LINE
  5
393
100
AcDbEntity
  8
2
370
    25
100
AcDbLine
 10
-214.354246
 20
-9.774775
 30
0.0
 11
-214.354246
 21
6.726075
 31
0.0
  0
LINE
  5
394
100
AcDbEntity
  8
2
370
    25
100
AcDbLine
 10
-247.954246
 20
-32.773925
 30
0.0
 11
-247.954246
 21
-23.774775
 31
0.0
  0
LINE
  5
395
100
AcDbEntity
  8
2
370
    25
100
AcDbLine
 10
-247.954246
 20
-9.774775
 30
0.0
 11
-247.954246
 21
6.726075
 31
0.0
  0
LINE
  5
396
100
AcDbEntity
  8
2
370
    50
100
AcDbLine
 10
-248.654246
 20
-32.073925
 30
0.0
 11
-248.654246
 21
-23.774775
 31
0.0
  0
LINE
  5
397
100
AcDbEntity
  8
2
370
    50
100
AcDbLine
 10
-248.654246
 20
-9.774775
 30
0.0
 11
-248.654246
 21
6.726075
 31
0.0
  0
ARC
  5
398
100
AcDbEntity
  8
2
370
    50
100
AcDbCircle
 10
-233.654246
 20
-164.786807
 30
0.0
 40
4.166667
100
AcDbArc
 50
233.130102
 51
306.869898
  0
ARC
  5
399
100
AcDbEntity
  8
2
370
    50
100
AcDbCircle
 10
-228.654246
 20
-171.453474
 30
0.0
 40
4.166667
100
AcDbArc
 50
53.130102
 51
126.869898
  0
ARC
  5
39A
100
AcDbEntity
  8
2
370
    50
100
AcDbCircle
 10
-228.654246
 20
-164.786807
 30
0.0
 40
4.166667
100
AcDbArc
 50
233.130102
 51
306.869898
  0
LINE
  5
39B
100
AcDbEntity
  8
2
370
    25
  6
CENTER
100
AcDbLine
 10
-296.154246
 20
-64.024231
 30
0.0
 11
-296.154246
 21
-87.226483
 31
0.0
  0
LINE
  5
39C
100
AcDbEntity
  8
2
370
    50
100
AcDbLine
 10
-302.654246
 20
-113.097598
 30
0.0
 11
-289.654246
 21
-113.097598
 31
0.0
  0
LINE
  5
39D
100
AcDbEntity
  8
2
370
    50
100
AcDbLine
 10
-300.735683
 20
-127.097598
 30
0.0
 11
-302.154246
 21
-127.097598
 31
0.0
  0
LINE
  5
39E
100
AcDbEntity
  8
2
370
    50
100
AcDbLine
 10
-300.735683
 20
-129.597598
 30
0.0
 11
-302.154246
 21
-129.597598
 31
0.0
  0
ARC
  5
39F
100
AcDbEntity
  8
2
370
    50
100
AcDbCircle
 10
-301.954246
 20
-129.897598
 30
0.0
 40
0.2
100
AcDbArc
 50
180.0
 51
270.0
  0
LINE
  5
3A0
100
AcDbEntity
  8
2
370
    50
100
AcDbLine
 10
-296.654246
 20
-129.597598
 30
0.0
 11
-300.028576
 21
-129.597598
 31
0.0
  0
LINE
  5
3A1
100
AcDbEntity
  8
2
370
    50
100
AcDbLine
 10
-296.654246
 20
-127.097598
 30
0.0
 11
-300.028576
 21
-127.097598
 31
0.0
  0
LINE
  5
3A2
100
AcDbEntity
  8
2
370
    50
100
AcDbLine
 10
-292.279916
 20
-129.597598
 30
0.0
 11
-295.654246
 21
-129.597598
 31
0.0
  0
LINE
  5
3A3
100
AcDbEntity
  8
2
370
    50
100
AcDbLine
 10
-292.279916
 20
-127.097598
 30
0.0
 11
-295.654246
 21
-127.097598
 31
0.0
  0
LINE
  5
3A4
100
AcDbEntity
  8
2
370
    50
100
AcDbLine
 10
-290.154246
 20
-129.597598
 30
0.0
 11
-291.572809
 21
-129.597598
 31
0.0
  0
LINE
  5
3A5
100
AcDbEntity
  8
2
370
    50
100
AcDbLine
 10
-290.154246
 20
-127.097598
 30
0.0
 11
-291.572809
 21
-127.097598
 31
0.0
  0
ARC
  5
3A6
100
AcDbEntity
  8
2
370
    50
100
AcDbCircle
 10
-290.354246
 20
-129.897598
 30
0.0
 40
0.2
100
AcDbArc
 50
270.0
 51
360.0
  0
LINE
  5
3A7
100
AcDbEntity
  8
2
370
    50
100
AcDbLine
 10
-290.154246
 20
-127.097598
 30
0.0
 11
-290.154246
 21
-129.897598
 31
0.0
  0
LINE
  5
3A8
100
AcDbEntity
  8
2
370
    50
100
AcDbLine
 10
-290.175115
 20
-127.097598
 30
0.0
 11
-290.175115
 21
-129.597598
 31
0.0
  0
ARC
  5
3A9
100
AcDbEntity
  8
2
370
    50
100
AcDbCircle
 10
-292.154246
 20
-125.597598
 30
0.0
 40
2.5
100
AcDbArc
 50
323.130102
 51
360.0
  0
LINE
  5
3AA
100
AcDbEntity
  8
2
370
    50
100
AcDbLine
 10
-291.572809
 20
-127.097598
 30
0.0
 11
-291.572809
 21
-129.597598
 31
0.0
  0
LINE
  5
3AB
100
AcDbEntity
  8
2
370
    50
100
AcDbLine
 10
-292.279916
 20
-127.097598
 30
0.0
 11
-292.279916
 21
-129.597598
 31
0.0
  0
LINE
  5
3AC
100
AcDbEntity
  8
2
370
    50
100
AcDbLine
 10
-295.654246
 20
-127.097598
 30
0.0
 11
-295.654246
 21
-129.597598
 31
0.0
  0
LINE
  5
3AD
100
AcDbEntity
  8
2
370
    50
100
AcDbLine
 10
-296.654246
 20
-127.097598
 30
0.0
 11
-296.654246
 21
-129.597598
 31
0.0
  0
LINE
  5
3AE
100
AcDbEntity
  8
2
370
    50
100
AcDbLine
 10
-300.735683
 20
-127.097598
 30
0.0
 11
-300.735683
 21
-129.597598
 31
0.0
  0
LINE
  5
3AF
100
AcDbEntity
  8
2
370
    50
100
AcDbLine
 10
-300.028576
 20
-127.097598
 30
0.0
 11
-300.028576
 21
-129.597598
 31
0.0
  0
LINE
  5
3B0
100
AcDbEntity
  8
2
370
    50
100
AcDbLine
 10
-302.154246
 20
-127.097598
 30
0.0
 11
-302.154246
 21
-129.897598
 31
0.0
  0
LINE
  5
3B1
100
AcDbEntity
  8
2
370
    50
100
AcDbLine
 10
-302.133376
 20
-127.097598
 30
0.0
 11
-302.133376
 21
-129.597598
 31
0.0
  0
ARC
  5
3B2
100
AcDbEntity
  8
2
370
    50
100
AcDbCircle
 10
-300.154246
 20
-125.597598
 30
0.0
 40
2.5
100
AcDbArc
 50
180.0
 51
216.869898
  0
LINE
  5
3B3
100
AcDbEntity
  8
2
370
    50
100
AcDbLine
 10
-302.654246
 20
-113.097598
 30
0.0
 11
-302.654246
 21
-125.597598
 31
0.0
  0
LINE
  5
3B4
100
AcDbEntity
  8
2
370
    25
100
AcDbLine
 10
-302.634986
 20
-113.097598
 30
0.0
 11
-302.634986
 21
-125.597598
 31
0.0
  0
LINE
  5
3B5
100
AcDbEntity
  8
2
370
    50
100
AcDbLine
 10
-289.654246
 20
-113.097598
 30
0.0
 11
-289.654246
 21
-125.597598
 31
0.0
  0
LINE
  5
3B6
100
AcDbEntity
  8
2
370
    50
100
AcDbLine
 10
-289.154246
 20
-130.097598
 30
0.0
 11
-303.154246
 21
-130.097598
 31
0.0
  0
LINE
  5
3B7
100
AcDbEntity
  8
2
370
    25
100
AcDbLine
 10
-292.088382
 20
-103.213979
 30
0.0
 11
-300.22011
 21
-95.082251
 31
0.0
  0
LINE
  5
3B8
100
AcDbEntity
  8
2
370
    25
100
AcDbLine
 10
-292.088382
 20
-95.082251
 30
0.0
 11
-300.22011
 21
-103.213979
 31
0.0
  0
LINE
  5
3B9
100
AcDbEntity
  8
2
370
    25
100
AcDbLine
 10
-292.857448
 20
-103.859126
 30
0.0
 11
-300.865257
 21
-95.851318
 31
0.0
  0
LINE
  5
3BA
100
AcDbEntity
  8
2
370
    25
100
AcDbLine
 10
-293.756472
 20
-104.374316
 30
0.0
 11
-301.380447
 21
-96.750341
 31
0.0
  0
LINE
  5
3BB
100
AcDbEntity
  8
2
370
    25
100
AcDbLine
 10
-294.806957
 20
-104.738045
 30
0.0
 11
-301.744175
 21
-97.800826
 31
0.0
  0
LINE
  5
3BC
100
AcDbEntity
  8
2
370
    25
100
AcDbLine
 10
-296.061843
 20
-104.897373
 30
0.0
 11
-301.903503
 21
-99.055712
 31
0.0
  0
LINE
  5
3BD
100
AcDbEntity
  8
2
370
    25
100
AcDbLine
 10
-297.681982
 20
-104.691446
 30
0.0
 11
-301.697577
 21
-100.675852
 31
0.0
  0
LINE
  5
3BE
100
AcDbEntity
  8
2
370
    25
100
AcDbLine
 10
-291.443235
 20
-102.444913
 30
0.0
 11
-299.451043
 21
-94.437104
 31
0.0
  0
LINE
  5
3BF
100
AcDbEntity
  8
2
370
    25
100
AcDbLine
 10
-290.928045
 20
-101.545889
 30
0.0
 11
-298.55202
 21
-93.921914
 31
0.0
  0
LINE
  5
3C0
100
AcDbEntity
  8
2
370
    25
100
AcDbLine
 10
-290.564316
 20
-100.495404
 30
0.0
 11
-297.501535
 21
-93.558186
 31
0.0
  0
LINE
  5
3C1
100
AcDbEntity
  8
2
370
    25
100
AcDbLine
 10
-290.404988
 20
-99.240518
 30
0.0
 11
-296.246649
 21
-93.398858
 31
0.0
  0
LINE
  5
3C2
100
AcDbEntity
  8
2
370
    25
100
AcDbLine
 10
-290.610915
 20
-97.620379
 30
0.0
 11
-294.626509
 21
-93.604784
 31
0.0
  0
LINE
  5
3C3
100
AcDbEntity
  8
2
370
    25
100
AcDbLine
 10
-292.857448
 20
-94.437104
 30
0.0
 11
-300.865257
 21
-102.444913
 31
0.0
  0
LINE
  5
3C4
100
AcDbEntity
  8
2
370
    25
100
AcDbLine
 10
-293.756472
 20
-93.921914
 30
0.0
 11
-301.380447
 21
-101.545889
 31
0.0
  0
LINE
  5
3C5
100
AcDbEntity
  8
2
370
    25
100
AcDbLine
 10
-294.806957
 20
-93.558186
 30
0.0
 11
-301.744175
 21
-100.495404
 31
0.0
  0
LINE
  5
3C6
100
AcDbEntity
  8
2
370
    25
100
AcDbLine
 10
-296.061843
 20
-93.398858
 30
0.0
 11
-301.903503
 21
-99.240518
 31
0.0
  0
LINE
  5
3C7
100
AcDbEntity
  8
2
370
    25
100
AcDbLine
 10
-297.681982
 20
-93.604784
 30
0.0
 11
-301.697577
 21
-97.620379
 31
0.0
  0
LINE
  5
3C8
100
AcDbEntity
  8
2
370
    25
100
AcDbLine
 10
-291.443235
 20
-95.851318
 30
0.0
 11
-299.451043
 21
-103.859126
 31
0.0
  0
LINE
  5
3C9
100
AcDbEntity
  8
2
370
    25
100
AcDbLine
 10
-290.928045
 20
-96.750341
 30
0.0
 11
-298.55202
 21
-104.374316
 31
0.0
  0
LINE
  5
3CA
100
AcDbEntity
  8
2
370
    25
100
AcDbLine
 10
-290.564316
 20
-97.800826
 30
0.0
 11
-297.501535
 21
-104.738045
 31
0.0
  0
LINE
  5
3CB
100
AcDbEntity
  8
2
370
    25
100
AcDbLine
 10
-290.404988
 20
-99.055712
 30
0.0
 11
-296.246649
 21
-104.897373
 31
0.0
  0
LINE
  5
3CC
100
AcDbEntity
  8
2
370
    25
100
AcDbLine
 10
-290.610915
 20
-100.675852
 30
0.0
 11
-294.626509
 21
-104.691446
 31
0.0
  0
LINE
  5
3CD
100
AcDbEntity
  8
2
370
    50
100
AcDbLine
 10
-290.404246
 20
-113.097598
 30
0.0
 11
-290.404246
 21
-79.810991
 31
0.0
  0
LINE
  5
3CE
100
AcDbEntity
  8
2
370
    50
100
AcDbLine
 10
-301.904246
 20
-79.810991
 30
0.0
 11
-301.904246
 21
-113.097598
 31
0.0
  0
LINE
  5
3CF
100
AcDbEntity
  8
2
370
    50
100
AcDbLine
 10
-172.653978
 20
-123.096891
 30
0.0
 11
-159.653978
 21
-123.096891
 31
0.0
  0
LINE
  5
3D0
100
AcDbEntity
  8
2
370
    50
100
AcDbLine
 10
-170.735415
 20
-137.096891
 30
0.0
 11
-172.153978
 21
-137.096891
 31
0.0
  0
LINE
  5
3D1
100
AcDbEntity
  8
2
370
    50
100
AcDbLine
 10
-170.735415
 20
-139.596891
 30
0.0
 11
-172.153978
 21
-139.596891
 31
0.0
  0
LINE
  5
3D2
100
AcDbEntity
  8
2
370
    50
100
AcDbLine
 10
-166.653978
 20
-139.596891
 30
0.0
 11
-170.028308
 21
-139.596891
 31
0.0
  0
LINE
  5
3D3
100
AcDbEntity
  8
2
370
    50
100
AcDbLine
 10
-166.653978
 20
-137.096891
 30
0.0
 11
-170.028308
 21
-137.096891
 31
0.0
  0
LINE
  5
3D4
100
AcDbEntity
  8
2
370
    50
100
AcDbLine
 10
-162.279648
 20
-139.596891
 30
0.0
 11
-165.653978
 21
-139.596891
 31
0.0
  0
LINE
  5
3D5
100
AcDbEntity
  8
2
370
    50
100
AcDbLine
 10
-162.279648
 20
-137.096891
 30
0.0
 11
-165.653978
 21
-137.096891
 31
0.0
  0
LINE
  5
3D6
100
AcDbEntity
  8
2
370
    50
100
AcDbLine
 10
-160.153978
 20
-139.596891
 30
0.0
 11
-161.572541
 21
-139.596891
 31
0.0
  0
LINE
  5
3D7
100
AcDbEntity
  8
2
370
    50
100
AcDbLine
 10
-160.153978
 20
-137.096891
 30
0.0
 11
-161.572541
 21
-137.096891
 31
0.0
  0
LINE
  5
3D8
100
AcDbEntity
  8
2
370
    50
100
AcDbLine
 10
-160.153978
 20
-137.096891
 30
0.0
 11
-160.153978
 21
-139.896891
 31
0.0
  0
LINE
  5
3D9
100
AcDbEntity
  8
2
370
    50
100
AcDbLine
 10
-160.174848
 20
-137.096891
 30
0.0
 11
-160.174848
 21
-139.596891
 31
0.0
  0
ARC
  5
3DA
100
AcDbEntity
  8
2
370
    50
100
AcDbCircle
 10
-162.153978
 20
-135.596891
 30
0.0
 40
2.5
100
AcDbArc
 50
323.130102
 51
360.0
  0
LINE
  5
3DB
100
AcDbEntity
  8
2
370
    50
100
AcDbLine
 10
-161.572541
 20
-137.096891
 30
0.0
 11
-161.572541
 21
-139.596891
 31
0.0
  0
LINE
  5
3DC
100
AcDbEntity
  8
2
370
    50
100
AcDbLine
 10
-162.279648
 20
-137.096891
 30
0.0
 11
-162.279648
 21
-139.596891
 31
0.0
  0
LINE
  5
3DD
100
AcDbEntity
  8
2
370
    50
100
AcDbLine
 10
-165.653978
 20
-137.096891
 30
0.0
 11
-165.653978
 21
-139.596891
 31
0.0
  0
LINE
  5
3DE
100
AcDbEntity
  8
2
370
    50
100
AcDbLine
 10
-166.653978
 20
-137.096891
 30
0.0
 11
-166.653978
 21
-139.596891
 31
0.0
  0
LINE
  5
3DF
100
AcDbEntity
  8
2
370
    50
100
AcDbLine
 10
-170.735415
 20
-137.096891
 30
0.0
 11
-170.735415
 21
-139.596891
 31
0.0
  0
LINE
  5
3E0
100
AcDbEntity
  8
2
370
    50
100
AcDbLine
 10
-170.028308
 20
-137.096891
 30
0.0
 11
-170.028308
 21
-139.596891
 31
0.0
  0
LINE
  5
3E1
100
AcDbEntity
  8
2
370
    50
100
AcDbLine
 10
-172.153978
 20
-137.096891
 30
0.0
 11
-172.153978
 21
-139.896891
 31
0.0
  0
LINE
  5
3E2
100
AcDbEntity
  8
2
370
    50
100
AcDbLine
 10
-172.133108
 20
-137.096891
 30
0.0
 11
-172.133108
 21
-139.596891
 31
0.0
  0
ARC
  5
3E3
100
AcDbEntity
  8
2
370
    50
100
AcDbCircle
 10
-170.153978
 20
-135.596891
 30
0.0
 40
2.5
100
AcDbArc
 50
180.0
 51
216.869898
  0
LINE
  5
3E4
100
AcDbEntity
  8
2
370
    50
100
AcDbLine
 10
-172.653978
 20
-123.096891
 30
0.0
 11
-172.653978
 21
-135.596891
 31
0.0
  0
LINE
  5
3E5
100
AcDbEntity
  8
2
370
    50
100
AcDbLine
 10
-159.653978
 20
-123.096891
 30
0.0
 11
-159.653978
 21
-135.596891
 31
0.0
  0
LINE
  5
3E6
100
AcDbEntity
  8
2
370
    25
100
AcDbLine
 10
-162.088114
 20
-113.213272
 30
0.0
 11
-170.219842
 21
-105.081544
 31
0.0
  0
LINE
  5
3E7
100
AcDbEntity
  8
2
370
    25
100
AcDbLine
 10
-162.088114
 20
-105.081544
 30
0.0
 11
-170.219842
 21
-113.213272
 31
0.0
  0
LINE
  5
3E8
100
AcDbEntity
  8
2
370
    25
100
AcDbLine
 10
-162.85718
 20
-113.858419
 30
0.0
 11
-170.864989
 21
-105.85061
 31
0.0
  0
LINE
  5
3E9
100
AcDbEntity
  8
2
370
    25
100
AcDbLine
 10
-163.756204
 20
-114.373609
 30
0.0
 11
-171.380179
 21
-106.749634
 31
0.0
  0
LINE
  5
3EA
100
AcDbEntity
  8
2
370
    25
100
AcDbLine
 10
-164.806689
 20
-114.737337
 30
0.0
 11
-171.743908
 21
-107.800119
 31
0.0
  0
LINE
  5
3EB
100
AcDbEntity
  8
2
370
    25
100
AcDbLine
 10
-166.061575
 20
-114.896665
 30
0.0
 11
-171.903236
 21
-109.055005
 31
0.0
  0
LINE
  5
3EC
100
AcDbEntity
  8
2
370
    25
100
AcDbLine
 10
-167.681715
 20
-114.690739
 30
0.0
 11
-171.697309
 21
-110.675144
 31
0.0
  0
LINE
  5
3ED
100
AcDbEntity
  8
2
370
    25
100
AcDbLine
 10
-161.442967
 20
-112.444205
 30
0.0
 11
-169.450776
 21
-104.436397
 31
0.0
  0
LINE
  5
3EE
100
AcDbEntity
  8
2
370
    25
100
AcDbLine
 10
-160.927777
 20
-111.545182
 30
0.0
 11
-168.551752
 21
-103.921207
 31
0.0
  0
LINE
  5
3EF
100
AcDbEntity
  8
2
370
    25
100
AcDbLine
 10
-160.564048
 20
-110.494697
 30
0.0
 11
-167.501267
 21
-103.557478
 31
0.0
  0
LINE
  5
3F0
100
AcDbEntity
  8
2
370
    25
100
AcDbLine
 10
-160.404721
 20
-109.239811
 30
0.0
 11
-166.246381
 21
-103.39815
 31
0.0
  0
LINE
  5
3F1
100
AcDbEntity
  8
2
370
    25
100
AcDbLine
 10
-160.610647
 20
-107.619671
 30
0.0
 11
-164.626241
 21
-103.604077
 31
0.0
  0
LINE
  5
3F2
100
AcDbEntity
  8
2
370
    25
100
AcDbLine
 10
-162.85718
 20
-104.436397
 30
0.0
 11
-170.864989
 21
-112.444205
 31
0.0
  0
LINE
  5
3F3
100
AcDbEntity
  8
2
370
    25
100
AcDbLine
 10
-163.756204
 20
-103.921207
 30
0.0
 11
-171.380179
 21
-111.545182
 31
0.0
  0
LINE
  5
3F4
100
AcDbEntity
  8
2
370
    25
100
AcDbLine
 10
-164.806689
 20
-103.557478
 30
0.0
 11
-171.743908
 21
-110.494697
 31
0.0
  0
LINE
  5
3F5
100
AcDbEntity
  8
2
370
    25
100
AcDbLine
 10
-166.061575
 20
-103.39815
 30
0.0
 11
-171.903236
 21
-109.239811
 31
0.0
  0
LINE
  5
3F6
100
AcDbEntity
  8
2
370
    25
100
AcDbLine
 10
-167.681715
 20
-103.604077
 30
0.0
 11
-171.697309
 21
-107.619671
 31
0.0
  0
LINE
  5
3F7
100
AcDbEntity
  8
2
370
    25
100
AcDbLine
 10
-161.442967
 20
-105.85061
 30
0.0
 11
-169.450776
 21
-113.858419
 31
0.0
  0
LINE
  5
3F8
100
AcDbEntity
  8
2
370
    25
100
AcDbLine
 10
-160.927777
 20
-106.749634
 30
0.0
 11
-168.551752
 21
-114.373609
 31
0.0
  0
LINE
  5
3F9
100
AcDbEntity
  8
2
370
    25
100
AcDbLine
 10
-160.564048
 20
-107.800119
 30
0.0
 11
-167.501267
 21
-114.737337
 31
0.0
  0
LINE
  5
3FA
100
AcDbEntity
  8
2
370
    25
100
AcDbLine
 10
-160.404721
 20
-109.055005
 30
0.0
 11
-166.246381
 21
-114.896665
 31
0.0
  0
LINE
  5
3FB
100
AcDbEntity
  8
2
370
    25
100
AcDbLine
 10
-160.610647
 20
-110.675144
 30
0.0
 11
-164.626241
 21
-114.690739
 31
0.0
  0
LINE
  5
3FC
100
AcDbEntity
  8
2
370
    50
100
AcDbLine
 10
-160.403978
 20
-123.096891
 30
0.0
 11
-160.403978
 21
-89.808482
 31
0.0
  0
LINE
  5
3FD
100
AcDbEntity
  8
2
370
    50
100
AcDbLine
 10
-171.903978
 20
-89.808518
 30
0.0
 11
-171.903978
 21
-123.096891
 31
0.0
  0
ARC
  5
3FE
100
AcDbEntity
  8
2
370
    50
100
AcDbCircle
 10
-299.029205
 20
-75.977448
 30
0.0
 40
4.791667
100
AcDbArc
 50
233.130102
 51
306.869898
  0
ARC
  5
3FF
100
AcDbEntity
  8
2
370
    50
100
AcDbCircle
 10
-293.279205
 20
-83.644114
 30
0.0
 40
4.791667
100
AcDbArc
 50
53.130102
 51
126.869898
  0
ARC
  5
400
100
AcDbEntity
  8
2
370
    50
100
AcDbCircle
 10
-293.279205
 20
-75.977448
 30
0.0
 40
4.791667
100
AcDbArc
 50
233.130102
 51
306.869898
  0
ARC
  5
401
100
AcDbEntity
  8
2
370
    50
100
AcDbCircle
 10
-169.028896
 20
-85.975118
 30
0.0
 40
4.791667
100
AcDbArc
 50
233.130102
 51
306.869898
  0
ARC
  5
402
100
AcDbEntity
  8
2
370
    50
100
AcDbCircle
 10
-163.278896
 20
-93.641785
 30
0.0
 40
4.791667
100
AcDbArc
 50
53.130102
 51
126.869898
  0
ARC
  5
403
100
AcDbEntity
  8
2
370
    50
100
AcDbCircle
 10
-163.278896
 20
-85.975118
 30
0.0
 40
4.791667
100
AcDbArc
 50
233.130102
 51
306.869898
  0
LINE
  5
404
100
AcDbEntity
  8
2
370
    25
  6
CENTER
100
AcDbLine
 10
-166.154388
 20
-74.024477
 30
0.0
 11
-166.154388
 21
-97.047662
 31
0.0
  0
ARC
  5
405
100
AcDbEntity
  8
2
370
    50
100
AcDbCircle
 10
-290.353653
 20
-129.896916
 30
0.0
 40
0.2
100
AcDbArc
 50
270.0
 51
360.0
  0
ARC
  5
406
100
AcDbEntity
  8
2
370
    50
100
AcDbCircle
 10
-301.953653
 20
-129.896916
 30
0.0
 40
0.2
100
AcDbArc
 50
180.0
 51
270.0
  0
LINE
  5
407
100
AcDbEntity
  8
2
370
    50
100
AcDbLine
 10
-303.153653
 20
-130.096916
 30
0.0
 11
-289.153653
 21
-130.096916
 31
0.0
  0
LINE
  5
408
100
AcDbEntity
  8
2
370
    50
100
AcDbLine
 10
-303.653653
 20
-130.596916
 30
0.0
 11
-303.153653
 21
-130.096916
 31
0.0
  0
LINE
  5
409
100
AcDbEntity
  8
2
370
    25
100
AcDbLine
 10
-302.653513
 20
-143.896293
 30
0.0
 11
-302.653513
 21
-140.896293
 31
0.0
  0
LINE
  5
40A
100
AcDbEntity
  8
2
370
    50
100
AcDbLine
 10
-305.053653
 20
-135.497551
 30
0.0
 11
-305.053653
 21
-137.897551
 31
0.0
  0
LINE
  5
40B
100
AcDbEntity
  8
2
370
    50
100
AcDbLine
 10
-304.853653
 20
-135.297551
 30
0.0
 11
-305.053653
 21
-135.497551
 31
0.0
  0
LINE
  5
40C
100
AcDbEntity
  8
2
370
    50
100
AcDbLine
 10
-304.853653
 20
-138.097551
 30
0.0
 11
-305.053653
 21
-137.897551
 31
0.0
  0
LINE
  5
40D
100
AcDbEntity
  8
2
370
    50
100
AcDbLine
 10
-303.653653
 20
-135.297551
 30
0.0
 11
-303.653653
 21
-134.896293
 31
0.0
  0
LINE
  5
40E
100
AcDbEntity
  8
2
370
    50
100
AcDbLine
 10
-303.653653
 20
-130.596916
 30
0.0
 11
-303.653653
 21
-131.896293
 31
0.0
  0
LINE
  5
40F
100
AcDbEntity
  8
2
370
    50
100
AcDbLine
 10
-287.253653
 20
-135.496916
 30
0.0
 11
-287.253653
 21
-137.896916
 31
0.0
  0
LINE
  5
410
100
AcDbEntity
  8
2
370
    50
100
AcDbLine
 10
-305.053653
 20
-135.496916
 30
0.0
 11
-305.053653
 21
-137.896916
 31
0.0
  0
LINE
  5
411
100
AcDbEntity
  8
2
370
    50
100
AcDbLine
 10
-304.853653
 20
-135.296916
 30
0.0
 11
-305.053653
 21
-135.496916
 31
0.0
  0
LINE
  5
412
100
AcDbEntity
  8
2
370
    50
100
AcDbLine
 10
-287.453653
 20
-135.296916
 30
0.0
 11
-287.253653
 21
-135.496916
 31
0.0
  0
LINE
  5
413
100
AcDbEntity
  8
2
370
    50
100
AcDbLine
 10
-287.453653
 20
-138.096916
 30
0.0
 11
-287.253653
 21
-137.896916
 31
0.0
  0
LINE
  5
414
100
AcDbEntity
  8
2
370
    50
100
AcDbLine
 10
-287.153653
 20
-143.896916
 30
0.0
 11
-305.153653
 21
-143.896916
 31
0.0
  0
LINE
  5
415
100
AcDbEntity
  8
2
370
    50
100
AcDbLine
 10
-287.853653
 20
-131.896916
 30
0.0
 11
-304.453653
 21
-131.896916
 31
0.0
  0
LINE
  5
416
100
AcDbEntity
  8
2
370
    50
100
AcDbLine
 10
-300.153653
 20
-132.896916
 30
0.0
 11
-300.153653
 21
-142.896916
 31
0.0
  0
LINE
  5
417
100
AcDbEntity
  8
2
370
    50
100
AcDbLine
 10
-292.153653
 20
-132.896916
 30
0.0
 11
-292.153653
 21
-142.896916
 31
0.0
  0
LINE
  5
418
100
AcDbEntity
  8
2
370
    50
100
AcDbLine
 10
-310.653653
 20
-130.896916
 30
0.0
 11
-310.653653
 21
-142.896916
 31
0.0
  0
LINE
  5
419
100
AcDbEntity
  8
2
370
    50
100
AcDbLine
 10
-281.653653
 20
-130.896916
 30
0.0
 11
-281.653653
 21
-142.896916
 31
0.0
  0
ARC
  5
41A
100
AcDbEntity
  8
2
370
    50
100
AcDbCircle
 10
-282.653653
 20
-130.896916
 30
0.0
 40
1.0
100
AcDbArc
 50
0.0
 51
90.0
  0
ARC
  5
41B
100
AcDbEntity
  8
2
370
    50
100
AcDbCircle
 10
-309.653653
 20
-130.896916
 30
0.0
 40
1.0
100
AcDbArc
 50
90.0
 51
180.0
  0
ARC
  5
41C
100
AcDbEntity
  8
2
370
    50
100
AcDbCircle
 10
-309.653653
 20
-142.896916
 30
0.0
 40
1.0
100
AcDbArc
 50
180.0
 51
270.0
  0
ARC
  5
41D
100
AcDbEntity
  8
2
370
    50
100
AcDbCircle
 10
-282.653653
 20
-142.896916
 30
0.0
 40
1.0
100
AcDbArc
 50
270.0
 51
360.0
  0
LINE
  5
41E
100
AcDbEntity
  8
2
370
    50
100
AcDbLine
 10
-309.653653
 20
-129.896916
 30
0.0
 11
-302.153653
 21
-129.896916
 31
0.0
  0
LINE
  5
41F
100
AcDbEntity
  8
2
370
    50
100
AcDbLine
 10
-290.153653
 20
-129.896916
 30
0.0
 11
-282.653653
 21
-129.896916
 31
0.0
  0
LINE
  5
420
100
AcDbEntity
  8
2
370
    50
100
AcDbLine
 10
-309.653653
 20
-143.896916
 30
0.0
 11
-303.653653
 21
-143.896916
 31
0.0
  0
LINE
  5
421
100
AcDbEntity
  8
2
370
    50
100
AcDbLine
 10
-287.853653
 20
-143.896916
 30
0.0
 11
-282.653653
 21
-143.896916
 31
0.0
  0
LINE
  5
422
100
AcDbEntity
  8
2
370
    50
100
AcDbLine
 10
-287.853653
 20
-134.896916
 30
0.0
 11
-292.153653
 21
-134.896916
 31
0.0
  0
LINE
  5
423
100
AcDbEntity
  8
2
370
    50
100
AcDbLine
 10
-300.153653
 20
-134.896916
 30
0.0
 11
-304.453653
 21
-134.896916
 31
0.0
  0
LINE
  5
424
100
AcDbEntity
  8
2
370
    50
100
AcDbLine
 10
-287.453653
 20
-135.296916
 30
0.0
 11
-292.153653
 21
-135.296916
 31
0.0
  0
LINE
  5
425
100
AcDbEntity
  8
2
370
    50
100
AcDbLine
 10
-300.153653
 20
-135.296916
 30
0.0
 11
-304.853653
 21
-135.296916
 31
0.0
  0
LINE
  5
426
100
AcDbEntity
  8
2
370
    50
100
AcDbLine
 10
-287.253653
 20
-135.496916
 30
0.0
 11
-292.153653
 21
-135.496916
 31
0.0
  0
LINE
  5
427
100
AcDbEntity
  8
2
370
    50
100
AcDbLine
 10
-300.153653
 20
-135.496916
 30
0.0
 11
-305.053653
 21
-135.496916
 31
0.0
  0
LINE
  5
428
100
AcDbEntity
  8
2
370
    50
100
AcDbLine
 10
-287.253653
 20
-137.896916
 30
0.0
 11
-292.153653
 21
-137.896916
 31
0.0
  0
LINE
  5
429
100
AcDbEntity
  8
2
370
    50
100
AcDbLine
 10
-300.153653
 20
-137.896916
 30
0.0
 11
-305.053653
 21
-137.896916
 31
0.0
  0
LINE
  5
42A
100
AcDbEntity
  8
2
370
    50
100
AcDbLine
 10
-287.853653
 20
-140.896916
 30
0.0
 11
-292.153653
 21
-140.896916
 31
0.0
  0
LINE
  5
42B
100
AcDbEntity
  8
2
370
    50
100
AcDbLine
 10
-300.153653
 20
-140.896916
 30
0.0
 11
-304.453653
 21
-140.896916
 31
0.0
  0
ARC
  5
42C
100
AcDbEntity
  8
2
370
    50
100
AcDbCircle
 10
-293.153653
 20
-132.896916
 30
0.0
 40
1.0
100
AcDbArc
 50
0.0
 51
90.0
  0
ARC
  5
42D
100
AcDbEntity
  8
2
370
    50
100
AcDbCircle
 10
-299.153653
 20
-132.896916
 30
0.0
 40
1.0
100
AcDbArc
 50
90.0
 51
180.0
  0
ARC
  5
42E
100
AcDbEntity
  8
2
370
    50
100
AcDbCircle
 10
-299.153653
 20
-142.896916
 30
0.0
 40
1.0
100
AcDbArc
 50
180.0
 51
270.0
  0
ARC
  5
42F
100
AcDbEntity
  8
2
370
    50
100
AcDbCircle
 10
-293.153653
 20
-142.896916
 30
0.0
 40
1.0
100
AcDbArc
 50
270.0
 51
0.0
  0
LINE
  5
430
100
AcDbEntity
  8
2
370
    50
100
AcDbLine
 10
-304.453653
 20
-131.896916
 30
0.0
 11
-304.453653
 21
-134.896916
 31
0.0
  0
LINE
  5
431
100
AcDbEntity
  8
2
370
    50
100
AcDbLine
 10
-287.853653
 20
-131.896916
 30
0.0
 11
-287.853653
 21
-134.896916
 31
0.0
  0
LINE
  5
432
100
AcDbEntity
  8
2
370
    50
100
AcDbLine
 10
-287.853653
 20
-140.896916
 30
0.0
 11
-287.853653
 21
-143.896916
 31
0.0
  0
LINE
  5
433
100
AcDbEntity
  8
2
370
    50
100
AcDbLine
 10
-304.453653
 20
-140.896916
 30
0.0
 11
-304.453653
 21
-143.896916
 31
0.0
  0
LINE
  5
434
100
AcDbEntity
  8
2
370
    50
100
AcDbLine
 10
-303.653653
 20
-135.296916
 30
0.0
 11
-303.653653
 21
-134.896916
 31
0.0
  0
LINE
  5
435
100
AcDbEntity
  8
2
370
    50
100
AcDbLine
 10
-288.653653
 20
-135.296916
 30
0.0
 11
-288.653653
 21
-134.896916
 31
0.0
  0
LINE
  5
436
100
AcDbEntity
  8
2
370
    25
100
AcDbLine
 10
-301.153653
 20
-143.597499
 30
0.0
 11
-301.153653
 21
-141.292277
 31
0.0
  0
LINE
  5
437
100
AcDbEntity
  8
2
370
    25
100
AcDbLine
 10
-301.153653
 20
-134.635729
 30
0.0
 11
-301.153653
 21
-132.203524
 31
0.0
  0
LINE
  5
438
100
AcDbEntity
  8
2
370
    25
100
AcDbLine
 10
-291.153653
 20
-143.597499
 30
0.0
 11
-291.153653
 21
-141.292277
 31
0.0
  0
LINE
  5
439
100
AcDbEntity
  8
2
370
    25
100
AcDbLine
 10
-291.153653
 20
-134.593051
 30
0.0
 11
-291.153653
 21
-132.124003
 31
0.0
  0
LINE
  5
43A
100
AcDbEntity
  8
2
370
    50
100
AcDbLine
 10
-304.953653
 20
-142.896916
 30
0.0
 11
-304.953653
 21
-140.296916
 31
0.0
  0
LINE
  5
43B
100
AcDbEntity
  8
2
370
    50
100
AcDbLine
 10
-304.953653
 20
-135.396916
 30
0.0
 11
-304.953653
 21
-130.896916
 31
0.0
  0
LINE
  5
43C
100
AcDbEntity
  8
2
370
    50
100
AcDbLine
 10
-287.353653
 20
-142.896916
 30
0.0
 11
-287.353653
 21
-140.296916
 31
0.0
  0
LINE
  5
43D
100
AcDbEntity
  8
2
370
    50
100
AcDbLine
 10
-287.353653
 20
-135.396916
 30
0.0
 11
-287.353653
 21
-130.896916
 31
0.0
  0
ARC
  5
43E
100
AcDbEntity
  8
2
370
    50
100
AcDbCircle
 10
-303.953653
 20
-130.896916
 30
0.0
 40
1.0
100
AcDbArc
 50
90.0
 51
180.0
  0
ARC
  5
43F
100
AcDbEntity
  8
2
370
    50
100
AcDbCircle
 10
-288.353653
 20
-130.896916
 30
0.0
 40
1.0
100
AcDbArc
 50
0.0
 51
90.0
  0
ARC
  5
440
100
AcDbEntity
  8
2
370
    50
100
AcDbCircle
 10
-305.953653
 20
-142.896916
 30
0.0
 40
1.0
100
AcDbArc
 50
270.0
 51
0.0
  0
ARC
  5
441
100
AcDbEntity
  8
2
370
    50
100
AcDbCircle
 10
-286.353653
 20
-142.896916
 30
0.0
 40
1.0
100
AcDbArc
 50
180.0
 51
270.0
  0
LINE
  5
442
100
AcDbEntity
  8
2
370
    50
100
AcDbLine
 10
-288.653653
 20
-130.596916
 30
0.0
 11
-288.653653
 21
-131.896293
 31
0.0
  0
ARC
  5
443
100
AcDbEntity
  8
2
370
    50
100
AcDbCircle
 10
-288.353653
 20
-130.896916
 30
0.0
 40
1.0
100
AcDbArc
 50
0.0
 51
90.0
  0
LINE
  5
444
100
AcDbEntity
  8
2
370
    50
100
AcDbLine
 10
-288.653653
 20
-130.596916
 30
0.0
 11
-289.153653
 21
-130.096916
 31
0.0
  0
LINE
  5
445
100
AcDbEntity
  8
2
370
    50
100
AcDbLine
 10
-287.153653
 20
-138.296916
 30
0.0
 11
-287.153653
 21
-140.096916
 31
0.0
  0
LINE
  5
446
100
AcDbEntity
  8
2
370
    50
100
AcDbLine
 10
-305.153653
 20
-138.296916
 30
0.0
 11
-305.153653
 21
-140.096916
 31
0.0
  0
LINE
  5
447
100
AcDbEntity
  8
2
370
    50
100
AcDbLine
 10
-305.153653
 20
-144.296916
 30
0.0
 11
-306.153653
 21
-145.296916
 31
0.0
  0
LINE
  5
448
100
AcDbEntity
  8
2
370
    50
100
AcDbLine
 10
-287.153653
 20
-144.296916
 30
0.0
 11
-286.153653
 21
-145.296916
 31
0.0
  0
LINE
  5
449
100
AcDbEntity
  8
2
370
    50
100
AcDbLine
 10
-287.153653
 20
-144.296916
 30
0.0
 11
-305.153653
 21
-144.296916
 31
0.0
  0
LINE
  5
44A
100
AcDbEntity
  8
2
370
    50
100
AcDbLine
 10
-287.353653
 20
-138.096916
 30
0.0
 11
-287.153653
 21
-138.296916
 31
0.0
  0
LINE
  5
44B
100
AcDbEntity
  8
2
370
    50
100
AcDbLine
 10
-287.153653
 20
-140.096916
 30
0.0
 11
-287.353653
 21
-140.296916
 31
0.0
  0
LINE
  5
44C
100
AcDbEntity
  8
2
370
    50
100
AcDbLine
 10
-304.953653
 20
-138.096916
 30
0.0
 11
-305.153653
 21
-138.296916
 31
0.0
  0
LINE
  5
44D
100
AcDbEntity
  8
2
370
    50
100
AcDbLine
 10
-305.153653
 20
-140.096916
 30
0.0
 11
-304.953653
 21
-140.296916
 31
0.0
  0
LINE
  5
44E
100
AcDbEntity
  8
2
370
    25
100
AcDbLine
 10
-306.153653
 20
-145.296916
 30
0.0
 11
-286.153653
 21
-145.296916
 31
0.0
  0
LINE
  5
44F
100
AcDbEntity
  8
2
370
    50
100
AcDbLine
 10
-303.653653
 20
-144.296916
 30
0.0
 11
-303.653653
 21
-143.896916
 31
0.0
  0
LINE
  5
450
100
AcDbEntity
  8
2
370
    50
100
AcDbLine
 10
-303.653653
 20
-140.896916
 30
0.0
 11
-303.653653
 21
-140.296916
 31
0.0
  0
LINE
  5
451
100
AcDbEntity
  8
2
370
    50
100
AcDbLine
 10
-288.653653
 20
-144.296916
 30
0.0
 11
-288.653653
 21
-143.896916
 31
0.0
  0
LINE
  5
452
100
AcDbEntity
  8
2
370
    50
100
AcDbLine
 10
-288.653653
 20
-140.896916
 30
0.0
 11
-288.653653
 21
-140.296916
 31
0.0
  0
LINE
  5
453
100
AcDbEntity
  8
2
370
    50
100
AcDbLine
 10
-287.353653
 20
-140.296916
 30
0.0
 11
-292.153653
 21
-140.296916
 31
0.0
  0
LINE
  5
454
100
AcDbEntity
  8
2
370
    50
100
AcDbLine
 10
-300.153653
 20
-140.296916
 30
0.0
 11
-304.953653
 21
-140.296916
 31
0.0
  0
LINE
  5
455
100
AcDbEntity
  8
2
370
    50
100
AcDbLine
 10
-287.153653
 20
-140.096916
 30
0.0
 11
-292.153653
 21
-140.096916
 31
0.0
  0
LINE
  5
456
100
AcDbEntity
  8
2
370
    50
100
AcDbLine
 10
-300.153653
 20
-140.096916
 30
0.0
 11
-305.153653
 21
-140.096916
 31
0.0
  0
LINE
  5
457
100
AcDbEntity
  8
2
370
    50
100
AcDbLine
 10
-287.153653
 20
-138.296916
 30
0.0
 11
-292.153653
 21
-138.296916
 31
0.0
  0
LINE
  5
458
100
AcDbEntity
  8
2
370
    50
100
AcDbLine
 10
-300.153653
 20
-138.296916
 30
0.0
 11
-305.153653
 21
-138.296916
 31
0.0
  0
LINE
  5
459
100
AcDbEntity
  8
2
370
    50
100
AcDbLine
 10
-287.353653
 20
-138.096916
 30
0.0
 11
-292.153653
 21
-138.096916
 31
0.0
  0
LINE
  5
45A
100
AcDbEntity
  8
2
370
    50
100
AcDbLine
 10
-300.153653
 20
-138.096916
 30
0.0
 11
-304.953653
 21
-138.096916
 31
0.0
  0
LINE
  5
45B
100
AcDbEntity
  8
2
370
    25
100
AcDbLine
 10
-289.653792
 20
-143.896293
 30
0.0
 11
-289.653792
 21
-140.896293
 31
0.0
  0
LINE
  5
45C
100
AcDbEntity
  8
2
370
    25
100
AcDbLine
 10
-302.653513
 20
-134.896916
 30
0.0
 11
-302.653513
 21
-131.896916
 31
0.0
  0
LINE
  5
45D
100
AcDbEntity
  8
2
370
    25
100
AcDbLine
 10
-289.653792
 20
-134.896916
 30
0.0
 11
-289.653792
 21
-131.896916
 31
0.0
  0
LINE
  5
45E
100
AcDbEntity
  8
2
370
    50
100
AcDbLine
 10
-170.735683
 20
-137.097598
 30
0.0
 11
-172.154246
 21
-137.097598
 31
0.0
  0
LINE
  5
45F
100
AcDbEntity
  8
2
370
    50
100
AcDbLine
 10
-170.735683
 20
-139.597598
 30
0.0
 11
-172.154246
 21
-139.597598
 31
0.0
  0
ARC
  5
460
100
AcDbEntity
  8
2
370
    50
100
AcDbCircle
 10
-171.954246
 20
-139.897598
 30
0.0
 40
0.2
100
AcDbArc
 50
180.0
 51
270.0
  0
LINE
  5
461
100
AcDbEntity
  8
2
370
    50
100
AcDbLine
 10
-166.654246
 20
-139.597598
 30
0.0
 11
-170.028576
 21
-139.597598
 31
0.0
  0
LINE
  5
462
100
AcDbEntity
  8
2
370
    50
100
AcDbLine
 10
-166.654246
 20
-137.097598
 30
0.0
 11
-170.028576
 21
-137.097598
 31
0.0
  0
LINE
  5
463
100
AcDbEntity
  8
2
370
    50
100
AcDbLine
 10
-162.279916
 20
-139.597598
 30
0.0
 11
-165.654246
 21
-139.597598
 31
0.0
  0
LINE
  5
464
100
AcDbEntity
  8
2
370
    50
100
AcDbLine
 10
-162.279916
 20
-137.097598
 30
0.0
 11
-165.654246
 21
-137.097598
 31
0.0
  0
LINE
  5
465
100
AcDbEntity
  8
2
370
    50
100
AcDbLine
 10
-160.154246
 20
-139.597598
 30
0.0
 11
-161.572809
 21
-139.597598
 31
0.0
  0
LINE
  5
466
100
AcDbEntity
  8
2
370
    50
100
AcDbLine
 10
-160.154246
 20
-137.097598
 30
0.0
 11
-161.572809
 21
-137.097598
 31
0.0
  0
ARC
  5
467
100
AcDbEntity
  8
2
370
    50
100
AcDbCircle
 10
-160.354246
 20
-139.897598
 30
0.0
 40
0.2
100
AcDbArc
 50
270.0
 51
360.0
  0
LINE
  5
468
100
AcDbEntity
  8
2
370
    50
100
AcDbLine
 10
-160.154246
 20
-137.097598
 30
0.0
 11
-160.154246
 21
-139.897598
 31
0.0
  0
LINE
  5
469
100
AcDbEntity
  8
2
370
    50
100
AcDbLine
 10
-160.175115
 20
-137.097598
 30
0.0
 11
-160.175115
 21
-139.597598
 31
0.0
  0
ARC
  5
46A
100
AcDbEntity
  8
2
370
    50
100
AcDbCircle
 10
-162.154246
 20
-135.597598
 30
0.0
 40
2.5
100
AcDbArc
 50
323.130102
 51
360.0
  0
LINE
  5
46B
100
AcDbEntity
  8
2
370
    50
100
AcDbLine
 10
-161.572809
 20
-137.097598
 30
0.0
 11
-161.572809
 21
-139.597598
 31
0.0
  0
LINE
  5
46C
100
AcDbEntity
  8
2
370
    50
100
AcDbLine
 10
-162.279916
 20
-137.097598
 30
0.0
 11
-162.279916
 21
-139.597598
 31
0.0
  0
LINE
  5
46D
100
AcDbEntity
  8
2
370
    50
100
AcDbLine
 10
-165.654246
 20
-137.097598
 30
0.0
 11
-165.654246
 21
-139.597598
 31
0.0
  0
LINE
  5
46E
100
AcDbEntity
  8
2
370
    50
100
AcDbLine
 10
-166.654246
 20
-137.097598
 30
0.0
 11
-166.654246
 21
-139.597598
 31
0.0
  0
LINE
  5
46F
100
AcDbEntity
  8
2
370
    50
100
AcDbLine
 10
-170.735683
 20
-137.097598
 30
0.0
 11
-170.735683
 21
-139.597598
 31
0.0
  0
LINE
  5
470
100
AcDbEntity
  8
2
370
    50
100
AcDbLine
 10
-170.028576
 20
-137.097598
 30
0.0
 11
-170.028576
 21
-139.597598
 31
0.0
  0
LINE
  5
471
100
AcDbEntity
  8
2
370
    50
100
AcDbLine
 10
-172.154246
 20
-137.097598
 30
0.0
 11
-172.154246
 21
-139.897598
 31
0.0
  0
LINE
  5
472
100
AcDbEntity
  8
2
370
    50
100
AcDbLine
 10
-172.133376
 20
-137.097598
 30
0.0
 11
-172.133376
 21
-139.597598
 31
0.0
  0
ARC
  5
473
100
AcDbEntity
  8
2
370
    50
100
AcDbCircle
 10
-170.154246
 20
-135.597598
 30
0.0
 40
2.5
100
AcDbArc
 50
180.0
 51
216.869898
  0
LINE
  5
474
100
AcDbEntity
  8
2
370
    50
100
AcDbLine
 10
-159.154246
 20
-140.097598
 30
0.0
 11
-173.154246
 21
-140.097598
 31
0.0
  0
ARC
  5
475
100
AcDbEntity
  8
2
370
    50
100
AcDbCircle
 10
-160.353653
 20
-139.896916
 30
0.0
 40
0.2
100
AcDbArc
 50
270.0
 51
360.0
  0
ARC
  5
476
100
AcDbEntity
  8
2
370
    50
100
AcDbCircle
 10
-171.953653
 20
-139.896916
 30
0.0
 40
0.2
100
AcDbArc
 50
180.0
 51
270.0
  0
LINE
  5
477
100
AcDbEntity
  8
2
370
    50
100
AcDbLine
 10
-173.153653
 20
-140.096916
 30
0.0
 11
-159.153653
 21
-140.096916
 31
0.0
  0
LINE
  5
478
100
AcDbEntity
  8
2
370
    50
100
AcDbLine
 10
-173.653653
 20
-140.596916
 30
0.0
 11
-173.153653
 21
-140.096916
 31
0.0
  0
LINE
  5
479
100
AcDbEntity
  8
2
370
    25
100
AcDbLine
 10
-172.653513
 20
-153.896293
 30
0.0
 11
-172.653513
 21
-150.896293
 31
0.0
  0
LINE
  5
47A
100
AcDbEntity
  8
2
370
    50
100
AcDbLine
 10
-175.053653
 20
-145.497551
 30
0.0
 11
-175.053653
 21
-147.897551
 31
0.0
  0
LINE
  5
47B
100
AcDbEntity
  8
2
370
    50
100
AcDbLine
 10
-174.853653
 20
-145.297551
 30
0.0
 11
-175.053653
 21
-145.497551
 31
0.0
  0
LINE
  5
47C
100
AcDbEntity
  8
2
370
    50
100
AcDbLine
 10
-174.853653
 20
-148.097551
 30
0.0
 11
-175.053653
 21
-147.897551
 31
0.0
  0
LINE
  5
47D
100
AcDbEntity
  8
2
370
    50
100
AcDbLine
 10
-173.653653
 20
-145.297551
 30
0.0
 11
-173.653653
 21
-144.896293
 31
0.0
  0
LINE
  5
47E
100
AcDbEntity
  8
2
370
    50
100
AcDbLine
 10
-173.653653
 20
-140.596916
 30
0.0
 11
-173.653653
 21
-141.896293
 31
0.0
  0
LINE
  5
47F
100
AcDbEntity
  8
2
370
    50
100
AcDbLine
 10
-157.253653
 20
-145.496916
 30
0.0
 11
-157.253653
 21
-147.896916
 31
0.0
  0
LINE
  5
480
100
AcDbEntity
  8
2
370
    50
100
AcDbLine
 10
-175.053653
 20
-145.496916
 30
0.0
 11
-175.053653
 21
-147.896916
 31
0.0
  0
LINE
  5
481
100
AcDbEntity
  8
2
370
    50
100
AcDbLine
 10
-174.853653
 20
-145.296916
 30
0.0
 11
-175.053653
 21
-145.496916
 31
0.0
  0
LINE
  5
482
100
AcDbEntity
  8
2
370
    50
100
AcDbLine
 10
-157.453653
 20
-145.296916
 30
0.0
 11
-157.253653
 21
-145.496916
 31
0.0
  0
LINE
  5
483
100
AcDbEntity
  8
2
370
    50
100
AcDbLine
 10
-157.453653
 20
-148.096916
 30
0.0
 11
-157.253653
 21
-147.896916
 31
0.0
  0
LINE
  5
484
100
AcDbEntity
  8
2
370
    50
100
AcDbLine
 10
-157.153653
 20
-153.896916
 30
0.0
 11
-175.153653
 21
-153.896916
 31
0.0
  0
LINE
  5
485
100
AcDbEntity
  8
2
370
    50
100
AcDbLine
 10
-157.853653
 20
-141.896916
 30
0.0
 11
-174.453653
 21
-141.896916
 31
0.0
  0
LINE
  5
486
100
AcDbEntity
  8
2
370
    50
100
AcDbLine
 10
-170.153653
 20
-142.896916
 30
0.0
 11
-170.153653
 21
-152.896916
 31
0.0
  0
LINE
  5
487
100
AcDbEntity
  8
2
370
    50
100
AcDbLine
 10
-162.153653
 20
-142.896916
 30
0.0
 11
-162.153653
 21
-152.896916
 31
0.0
  0
LINE
  5
488
100
AcDbEntity
  8
2
370
    50
100
AcDbLine
 10
-180.653653
 20
-140.896916
 30
0.0
 11
-180.653653
 21
-152.896916
 31
0.0
  0
LINE
  5
489
100
AcDbEntity
  8
2
370
    50
100
AcDbLine
 10
-151.653653
 20
-140.896916
 30
0.0
 11
-151.653653
 21
-152.896916
 31
0.0
  0
ARC
  5
48A
100
AcDbEntity
  8
2
370
    50
100
AcDbCircle
 10
-152.653653
 20
-140.896916
 30
0.0
 40
1.0
100
AcDbArc
 50
0.0
 51
90.0
  0
ARC
  5
48B
100
AcDbEntity
  8
2
370
    50
100
AcDbCircle
 10
-179.653653
 20
-140.896916
 30
0.0
 40
1.0
100
AcDbArc
 50
90.0
 51
180.0
  0
ARC
  5
48C
100
AcDbEntity
  8
2
370
    50
100
AcDbCircle
 10
-179.653653
 20
-152.896916
 30
0.0
 40
1.0
100
AcDbArc
 50
180.0
 51
270.0
  0
ARC
  5
48D
100
AcDbEntity
  8
2
370
    50
100
AcDbCircle
 10
-152.653653
 20
-152.896916
 30
0.0
 40
1.0
100
AcDbArc
 50
270.0
 51
360.0
  0
LINE
  5
48E
100
AcDbEntity
  8
2
370
    50
100
AcDbLine
 10
-179.653653
 20
-139.896916
 30
0.0
 11
-172.153653
 21
-139.896916
 31
0.0
  0
LINE
  5
48F
100
AcDbEntity
  8
2
370
    50
100
AcDbLine
 10
-160.153653
 20
-139.896916
 30
0.0
 11
-152.653653
 21
-139.896916
 31
0.0
  0
LINE
  5
490
100
AcDbEntity
  8
2
370
    50
100
AcDbLine
 10
-179.653653
 20
-153.896916
 30
0.0
 11
-173.653653
 21
-153.896916
 31
0.0
  0
LINE
  5
491
100
AcDbEntity
  8
2
370
    50
100
AcDbLine
 10
-157.853653
 20
-153.896916
 30
0.0
 11
-152.653653
 21
-153.896916
 31
0.0
  0
LINE
  5
492
100
AcDbEntity
  8
2
370
    50
100
AcDbLine
 10
-157.853653
 20
-144.896916
 30
0.0
 11
-162.153653
 21
-144.896916
 31
0.0
  0
LINE
  5
493
100
AcDbEntity
  8
2
370
    50
100
AcDbLine
 10
-170.153653
 20
-144.896916
 30
0.0
 11
-174.453653
 21
-144.896916
 31
0.0
  0
LINE
  5
494
100
AcDbEntity
  8
2
370
    50
100
AcDbLine
 10
-157.453653
 20
-145.296916
 30
0.0
 11
-162.153653
 21
-145.296916
 31
0.0
  0
LINE
  5
495
100
AcDbEntity
  8
2
370
    50
100
AcDbLine
 10
-170.153653
 20
-145.296916
 30
0.0
 11
-174.853653
 21
-145.296916
 31
0.0
  0
LINE
  5
496
100
AcDbEntity
  8
2
370
    50
100
AcDbLine
 10
-157.253653
 20
-145.496916
 30
0.0
 11
-162.153653
 21
-145.496916
 31
0.0
  0
LINE
  5
497
100
AcDbEntity
  8
2
370
    50
100
AcDbLine
 10
-170.153653
 20
-145.496916
 30
0.0
 11
-175.053653
 21
-145.496916
 31
0.0
  0
LINE
  5
498
100
AcDbEntity
  8
2
370
    50
100
AcDbLine
 10
-157.253653
 20
-147.896916
 30
0.0
 11
-162.153653
 21
-147.896916
 31
0.0
  0
LINE
  5
499
100
AcDbEntity
  8
2
370
    50
100
AcDbLine
 10
-170.153653
 20
-147.896916
 30
0.0
 11
-175.053653
 21
-147.896916
 31
0.0
  0
LINE
  5
49A
100
AcDbEntity
  8
2
370
    50
100
AcDbLine
 10
-157.853653
 20
-150.896916
 30
0.0
 11
-162.153653
 21
-150.896916
 31
0.0
  0
LINE
  5
49B
100
AcDbEntity
  8
2
370
    50
100
AcDbLine
 10
-170.153653
 20
-150.896916
 30
0.0
 11
-174.453653
 21
-150.896916
 31
0.0
  0
ARC
  5
49C
100
AcDbEntity
  8
2
370
    50
100
AcDbCircle
 10
-163.153653
 20
-142.896916
 30
0.0
 40
1.0
100
AcDbArc
 50
0.0
 51
90.0
  0
ARC
  5
49D
100
AcDbEntity
  8
2
370
    50
100
AcDbCircle
 10
-169.153653
 20
-142.896916
 30
0.0
 40
1.0
100
AcDbArc
 50
90.0
 51
180.0
  0
ARC
  5
49E
100
AcDbEntity
  8
2
370
    50
100
AcDbCircle
 10
-169.153653
 20
-152.896916
 30
0.0
 40
1.0
100
AcDbArc
 50
180.0
 51
270.0
  0
ARC
  5
49F
100
AcDbEntity
  8
2
370
    50
100
AcDbCircle
 10
-163.153653
 20
-152.896916
 30
0.0
 40
1.0
100
AcDbArc
 50
270.0
 51
0.0
  0
LINE
  5
4A0
100
AcDbEntity
  8
2
370
    50
100
AcDbLine
 10
-174.453653
 20
-141.896916
 30
0.0
 11
-174.453653
 21
-144.896916
 31
0.0
  0
LINE
  5
4A1
100
AcDbEntity
  8
2
370
    50
100
AcDbLine
 10
-157.853653
 20
-141.896916
 30
0.0
 11
-157.853653
 21
-144.896916
 31
0.0
  0
LINE
  5
4A2
100
AcDbEntity
  8
2
370
    50
100
AcDbLine
 10
-157.853653
 20
-150.896916
 30
0.0
 11
-157.853653
 21
-153.896916
 31
0.0
  0
LINE
  5
4A3
100
AcDbEntity
  8
2
370
    50
100
AcDbLine
 10
-174.453653
 20
-150.896916
 30
0.0
 11
-174.453653
 21
-153.896916
 31
0.0
  0
LINE
  5
4A4
100
AcDbEntity
  8
2
370
    50
100
AcDbLine
 10
-173.653653
 20
-145.296916
 30
0.0
 11
-173.653653
 21
-144.896916
 31
0.0
  0
LINE
  5
4A5
100
AcDbEntity
  8
2
370
    50
100
AcDbLine
 10
-158.653653
 20
-145.296916
 30
0.0
 11
-158.653653
 21
-144.896916
 31
0.0
  0
LINE
  5
4A6
100
AcDbEntity
  8
2
370
    25
100
AcDbLine
 10
-171.153653
 20
-153.597499
 30
0.0
 11
-171.153653
 21
-151.292277
 31
0.0
  0
LINE
  5
4A7
100
AcDbEntity
  8
2
370
    25
100
AcDbLine
 10
-171.153653
 20
-144.635729
 30
0.0
 11
-171.153653
 21
-142.203524
 31
0.0
  0
LINE
  5
4A8
100
AcDbEntity
  8
2
370
    25
100
AcDbLine
 10
-161.153653
 20
-153.597499
 30
0.0
 11
-161.153653
 21
-151.292277
 31
0.0
  0
LINE
  5
4A9
100
AcDbEntity
  8
2
370
    25
100
AcDbLine
 10
-161.153653
 20
-144.593051
 30
0.0
 11
-161.153653
 21
-142.124003
 31
0.0
  0
LINE
  5
4AA
100
AcDbEntity
  8
2
370
    50
100
AcDbLine
 10
-174.953653
 20
-152.896916
 30
0.0
 11
-174.953653
 21
-150.296916
 31
0.0
  0
LINE
  5
4AB
100
AcDbEntity
  8
2
370
    50
100
AcDbLine
 10
-174.953653
 20
-145.396916
 30
0.0
 11
-174.953653
 21
-140.896916
 31
0.0
  0
LINE
  5
4AC
100
AcDbEntity
  8
2
370
    50
100
AcDbLine
 10
-157.353653
 20
-152.896916
 30
0.0
 11
-157.353653
 21
-150.296916
 31
0.0
  0
LINE
  5
4AD
100
AcDbEntity
  8
2
370
    50
100
AcDbLine
 10
-157.353653
 20
-145.396916
 30
0.0
 11
-157.353653
 21
-140.896916
 31
0.0
  0
ARC
  5
4AE
100
AcDbEntity
  8
2
370
    50
100
AcDbCircle
 10
-173.953653
 20
-140.896916
 30
0.0
 40
1.0
100
AcDbArc
 50
90.0
 51
180.0
  0
ARC
  5
4AF
100
AcDbEntity
  8
2
370
    50
100
AcDbCircle
 10
-158.353653
 20
-140.896916
 30
0.0
 40
1.0
100
AcDbArc
 50
0.0
 51
90.0
  0
ARC
  5
4B0
100
AcDbEntity
  8
2
370
    50
100
AcDbCircle
 10
-175.953653
 20
-152.896916
 30
0.0
 40
1.0
100
AcDbArc
 50
270.0
 51
0.0
  0
ARC
  5
4B1
100
AcDbEntity
  8
2
370
    50
100
AcDbCircle
 10
-156.353653
 20
-152.896916
 30
0.0
 40
1.0
100
AcDbArc
 50
180.0
 51
270.0
  0
LINE
  5
4B2
100
AcDbEntity
  8
2
370
    50
100
AcDbLine
 10
-158.653653
 20
-140.596916
 30
0.0
 11
-158.653653
 21
-141.896293
 31
0.0
  0
ARC
  5
4B3
100
AcDbEntity
  8
2
370
    50
100
AcDbCircle
 10
-158.353653
 20
-140.896916
 30
0.0
 40
1.0
100
AcDbArc
 50
0.0
 51
90.0
  0
LINE
  5
4B4
100
AcDbEntity
  8
2
370
    50
100
AcDbLine
 10
-158.653653
 20
-140.596916
 30
0.0
 11
-159.153653
 21
-140.096916
 31
0.0
  0
LINE
  5
4B5
100
AcDbEntity
  8
2
370
    50
100
AcDbLine
 10
-157.153653
 20
-148.296916
 30
0.0
 11
-157.153653
 21
-150.096916
 31
0.0
  0
LINE
  5
4B6
100
AcDbEntity
  8
2
370
    50
100
AcDbLine
 10
-175.153653
 20
-148.296916
 30
0.0
 11
-175.153653
 21
-150.096916
 31
0.0
  0
LINE
  5
4B7
100
AcDbEntity
  8
2
370
    50
100
AcDbLine
 10
-175.153653
 20
-154.296916
 30
0.0
 11
-176.153653
 21
-155.296916
 31
0.0
  0
LINE
  5
4B8
100
AcDbEntity
  8
2
370
    50
100
AcDbLine
 10
-157.153653
 20
-154.296916
 30
0.0
 11
-156.153653
 21
-155.296916
 31
0.0
  0
LINE
  5
4B9
100
AcDbEntity
  8
2
370
    50
100
AcDbLine
 10
-157.153653
 20
-154.296916
 30
0.0
 11
-175.153653
 21
-154.296916
 31
0.0
  0
LINE
  5
4BA
100
AcDbEntity
  8
2
370
    50
100
AcDbLine
 10
-157.353653
 20
-148.096916
 30
0.0
 11
-157.153653
 21
-148.296916
 31
0.0
  0
LINE
  5
4BB
100
AcDbEntity
  8
2
370
    50
100
AcDbLine
 10
-157.153653
 20
-150.096916
 30
0.0
 11
-157.353653
 21
-150.296916
 31
0.0
  0
LINE
  5
4BC
100
AcDbEntity
  8
2
370
    50
100
AcDbLine
 10
-174.953653
 20
-148.096916
 30
0.0
 11
-175.153653
 21
-148.296916
 31
0.0
  0
LINE
  5
4BD
100
AcDbEntity
  8
2
370
    50
100
AcDbLine
 10
-175.153653
 20
-150.096916
 30
0.0
 11
-174.953653
 21
-150.296916
 31
0.0
  0
LINE
  5
4BE
100
AcDbEntity
  8
2
370
    25
100
AcDbLine
 10
-176.153653
 20
-155.296916
 30
0.0
 11
-156.153653
 21
-155.296916
 31
0.0
  0
LINE
  5
4BF
100
AcDbEntity
  8
2
370
    50
100
AcDbLine
 10
-173.653653
 20
-154.296916
 30
0.0
 11
-173.653653
 21
-153.896916
 31
0.0
  0
LINE
  5
4C0
100
AcDbEntity
  8
2
370
    50
100
AcDbLine
 10
-173.653653
 20
-150.896916
 30
0.0
 11
-173.653653
 21
-150.296916
 31
0.0
  0
LINE
  5
4C1
100
AcDbEntity
  8
2
370
    50
100
AcDbLine
 10
-158.653653
 20
-154.296916
 30
0.0
 11
-158.653653
 21
-153.896916
 31
0.0
  0
LINE
  5
4C2
100
AcDbEntity
  8
2
370
    50
100
AcDbLine
 10
-158.653653
 20
-150.896916
 30
0.0
 11
-158.653653
 21
-150.296916
 31
0.0
  0
LINE
  5
4C3
100
AcDbEntity
  8
2
370
    50
100
AcDbLine
 10
-157.353653
 20
-150.296916
 30
0.0
 11
-162.153653
 21
-150.296916
 31
0.0
  0
LINE
  5
4C4
100
AcDbEntity
  8
2
370
    50
100
AcDbLine
 10
-170.153653
 20
-150.296916
 30
0.0
 11
-174.953653
 21
-150.296916
 31
0.0
  0
LINE
  5
4C5
100
AcDbEntity
  8
2
370
    50
100
AcDbLine
 10
-157.153653
 20
-150.096916
 30
0.0
 11
-162.153653
 21
-150.096916
 31
0.0
  0
LINE
  5
4C6
100
AcDbEntity
  8
2
370
    50
100
AcDbLine
 10
-170.153653
 20
-150.096916
 30
0.0
 11
-175.153653
 21
-150.096916
 31
0.0
  0
LINE
  5
4C7
100
AcDbEntity
  8
2
370
    50
100
AcDbLine
 10
-157.153653
 20
-148.296916
 30
0.0
 11
-162.153653
 21
-148.296916
 31
0.0
  0
LINE
  5
4C8
100
AcDbEntity
  8
2
370
    50
100
AcDbLine
 10
-170.153653
 20
-148.296916
 30
0.0
 11
-175.153653
 21
-148.296916
 31
0.0
  0
LINE
  5
4C9
100
AcDbEntity
  8
2
370
    50
100
AcDbLine
 10
-157.353653
 20
-148.096916
 30
0.0
 11
-162.153653
 21
-148.096916
 31
0.0
  0
LINE
  5
4CA
100
AcDbEntity
  8
2
370
    50
100
AcDbLine
 10
-170.153653
 20
-148.096916
 30
0.0
 11
-174.953653
 21
-148.096916
 31
0.0
  0
LINE
  5
4CB
100
AcDbEntity
  8
2
370
    25
100
AcDbLine
 10
-159.653792
 20
-153.896293
 30
0.0
 11
-159.653792
 21
-150.896293
 31
0.0
  0
LINE
  5
4CC
100
AcDbEntity
  8
2
370
    25
100
AcDbLine
 10
-172.653513
 20
-144.896916
 30
0.0
 11
-172.653513
 21
-141.896916
 31
0.0
  0
LINE
  5
4CD
100
AcDbEntity
  8
2
370
    25
100
AcDbLine
 10
-159.653792
 20
-144.896916
 30
0.0
 11
-159.653792
 21
-141.896916
 31
0.0
  0
ARC
  5
4CE
100
AcDbEntity
  8
2
370
    50
100
AcDbCircle
 10
-152.653653
 20
-140.896916
 30
0.0
 40
1.0
100
AcDbArc
 50
0.0
 51
90.0
  0
ARC
  5
4CF
100
AcDbEntity
  8
2
370
    50
100
AcDbCircle
 10
-152.653653
 20
-152.896916
 30
0.0
 40
1.0
100
AcDbArc
 50
270.0
 51
360.0
  0
LINE
  5
4D0
100
AcDbEntity
  8
2
370
    50
100
AcDbLine
 10
-206.154246
 20
9.726075
 30
0.0
 11
-256.154246
 21
9.726075
 31
0.0
  0
LINE
  5
4D1
100
AcDbEntity
  8
2
370
    25
  6
CENTER
100
AcDbLine
 10
149.284702
 20
-60.273715
 30
0.0
 11
193.37381
 21
-60.273715
 31
0.0
  0
LINE
  5
4D2
100
AcDbEntity
  8
2
370
    25
  6
CENTER
100
AcDbLine
 10
-238.948246
 20
-155.273925
 30
0.0
 11
-296.154246
 21
-64.024231
 31
0.0
  0
LINE
  5
4D3
100
AcDbEntity
  8
2
370
    50
100
AcDbLine
 10
-204.154246
 20
104.83675
 30
0.0
 11
-204.154246
 21
93.232323
 31
0.0
  0
LINE
  5
4D4
100
AcDbEntity
  8
2
370
    50
100
AcDbLine
 10
-258.154246
 20
104.83675
 30
0.0
 11
-258.154246
 21
93.232323
 31
0.0
  0
ELLIPSE
  5
4D5
100
AcDbEntity
  8
2
370
    50
100
AcDbEllipse
 10
-231.154246
 20
104.83675
 30
0.0
 11
27.0
 21
0.0
 31
0.0
210
0.0
220
0.0
230
1.0
 40
0.156434
 41
0.0
 42
3.1415929999999999
  0
ELLIPSE
  5
4D6
100
AcDbEntity
  8
2
370
    50
100
AcDbEllipse
 10
-231.154246
 20
105.330599
 30
0.0
 11
27.0
 21
0.0
 31
0.0
210
0.0
220
0.0
230
1.0
 40
0.156434
 41
0.0
 42
3.1415929999999999
  0
LINE
  5
4D7
100
AcDbEntity
  8
2
370
    50
100
AcDbLine
 10
-204.154246
 20
134.961249
 30
0.0
 11
-204.154246
 21
105.330599
 31
0.0
  0
LINE
  5
4D8
100
AcDbEntity
  8
2
370
    50
100
AcDbLine
 10
-258.154246
 20
134.961249
 30
0.0
 11
-258.154246
 21
105.330599
 31
0.0
  0
ELLIPSE
  5
4D9
100
AcDbEntity
  8
2
370
    50
100
AcDbEllipse
 10
-231.154246
 20
147.801197
 30
0.0
 11
19.699999999999999
 21
0.0
 31
0.0
210
0.0
220
0.0
230
1.0
 40
0.156434
 41
0.0
 42
3.1415929999999999
  0
ARC
  5
4DA
100
AcDbEntity
  8
2
370
    50
100
AcDbCircle
 10
-229.692783
 20
128.852695
 30
0.0
 40
26.3
100
AcDbArc
 50
13.820935
 51
46.093742
  0
ARC
  5
4DB
100
AcDbEntity
  8
2
370
    50
100
AcDbCircle
 10
-232.615708
 20
128.852695
 30
0.0
 40
26.3
100
AcDbArc
 50
133.906258
 51
166.179065
  0
LINE
  5
4DC
100
AcDbEntity
  8
2
370
    50
100
AcDbLine
 10
-219.130653
 20
128.885704
 30
0.0
 11
-243.177839
 21
128.885704
 31
0.0
  0
ARC
  5
4DD
100
AcDbEntity
  8
2
370
    50
100
AcDbCircle
 10
-219.130653
 20
135.062112
 30
0.0
 40
6.176407
100
AcDbArc
 50
270.0
 51
360.0
  0
ARC
  5
4DE
100
AcDbEntity
  8
2
370
    50
100
AcDbCircle
 10
-218.932167
 20
135.062112
 30
0.0
 40
5.977921
100
AcDbArc
 50
360.0
 51
91.886209
  0
ARC
  5
4DF
100
AcDbEntity
  8
2
370
    50
100
AcDbCircle
 10
-243.376325
 20
135.062112
 30
0.0
 40
5.977921
100
AcDbArc
 50
88.113791
 51
180.0
  0
ARC
  5
4E0
100
AcDbEntity
  8
2
370
    50
100
AcDbCircle
 10
-243.177839
 20
135.062112
 30
0.0
 40
6.176407
100
AcDbArc
 50
180.0
 51
270.0
  0
LINE
  5
4E1
100
AcDbEntity
  8
2
370
    50
100
AcDbLine
 10
-219.154246
 20
141.036793
 30
0.0
 11
-243.179564
 21
141.036793
 31
0.0
  0
LINE
  5
4E2
100
AcDbEntity
  8
2
370
    50
100
AcDbLine
 10
-219.154246
 20
141.036793
 30
0.0
 11
-243.179564
 21
141.036793
 31
0.0
  0
LINE
  5
4E3
100
AcDbEntity
  8
2
370
    50
100
AcDbLine
 10
-219.128928
 20
129.087543
 30
0.0
 11
-243.179564
 21
129.087543
 31
0.0
  0
ARC
  5
4E4
100
AcDbEntity
  8
2
370
    50
100
AcDbCircle
 10
-243.179564
 20
135.062112
 30
0.0
 40
5.974682
100
AcDbArc
 50
90.0
 51
270.0
  0
ARC
  5
4E5
100
AcDbEntity
  8
2
370
    50
100
AcDbCircle
 10
-219.128928
 20
135.062112
 30
0.0
 40
5.974682
100
AcDbArc
 50
270.0
 51
90.0
  0
LINE
  5
4E6
100
AcDbEntity
  8
2
370
    50
100
AcDbLine
 10
-219.130653
 20
128.885704
 30
0.0
 11
-243.177839
 21
128.885704
 31
0.0
  0
ARC
  5
4E7
100
AcDbEntity
  8
2
370
    50
100
AcDbCircle
 10
-219.130653
 20
135.062112
 30
0.0
 40
6.176407
100
AcDbArc
 50
270.0
 51
360.0
  0
ARC
  5
4E8
100
AcDbEntity
  8
2
370
    50
100
AcDbCircle
 10
-218.932167
 20
135.062112
 30
0.0
 40
5.977921
100
AcDbArc
 50
360.0
 51
91.886209
  0
ARC
  5
4E9
100
AcDbEntity
  8
2
370
    50
100
AcDbCircle
 10
-243.376325
 20
135.062112
 30
0.0
 40
5.977921
100
AcDbArc
 50
88.113791
 51
180.0
  0
ARC
  5
4EA
100
AcDbEntity
  8
2
370
    50
100
AcDbCircle
 10
-243.177839
 20
135.062112
 30
0.0
 40
6.176407
100
AcDbArc
 50
180.0
 51
270.0
  0
ARC
  5
4EB
100
AcDbEntity
  8
2
370
    50
100
AcDbCircle
 10
-240.17962
 20
135.062168
 30
0.0
 40
5.974625
100
AcDbArc
 50
90.0
 51
270.0
  0
ARC
  5
4EC
100
AcDbEntity
  8
2
370
    50
100
AcDbCircle
 10
-222.128871
 20
135.062168
 30
0.0
 40
5.974625
100
AcDbArc
 50
270.0
 51
90.0
  0
ELLIPSE
  5
4ED
100
AcDbEntity
  8
2
370
    25
100
AcDbEllipse
 10
-231.154246
 20
134.961249
 30
0.0
 11
27.0
 21
0.0
 31
0.0
210
0.0
220
0.0
230
1.0
 40
0.156434
 41
0.0
 42
0.874928
  0
ELLIPSE
  5
4EE
100
AcDbEntity
  8
2
370
    25
100
AcDbEllipse
 10
-231.154246
 20
134.961249
 30
0.0
 11
27.0
 21
0.0
 31
0.0
210
0.0
220
0.0
230
1.0
 40
0.156434
 41
2.266664
 42
3.1415929999999999
  0
ELLIPSE
  5
4EF
100
AcDbEntity
  8
2
370
    50
100
AcDbEllipse
 10
-231.154246
 20
91.996806
 30
0.0
 11
27.0
 21
0.0
 31
0.0
210
0.0
220
0.0
230
1.0
 40
0.156434
 41
3.5157970000000001
 42
5.9029829999999999
  0
ELLIPSE
  5
4F0
100
AcDbEntity
  8
2
370
    50
100
AcDbEllipse
 10
-231.154246
 20
91.996806
 30
0.0
 11
27.0
 21
0.0
 31
0.0
210
0.0
220
0.0
230
1.0
 40
0.156434
 41
0.460922
 42
2.642531
  0
ARC
  5
4F1
100
AcDbEntity
  8
2
370
    50
100
AcDbCircle
 10
-207.154246
 20
93.232323
 30
0.0
 40
3.0
100
AcDbArc
 50
290.881094
 51
360.0
  0
ARC
  5
4F2
100
AcDbEntity
  8
2
370
    50
100
AcDbCircle
 10
-255.154246
 20
93.232323
 30
0.0
 40
3.0
100
AcDbArc
 50
180.0
 51
249.118906
  0
ELLIPSE
  5
4F3
100
AcDbEntity
  8
2
370
    50
100
AcDbEllipse
 10
-231.154246
 20
89.528048
 30
0.0
 11
9.9380000000000006
 21
0.0
 31
0.0
210
0.0
220
0.0
230
1.0
 40
0.156432
 41
0.0
 42
6.2831849999999996
  0
LINE
  5
4F4
100
AcDbEntity
  8
2
370
    50
100
AcDbLine
 10
-221.392372
 20
89.236662
 30
0.0
 11
-218.486796
 21
91.618689
 31
0.0
  0
LINE
  5
4F5
100
AcDbEntity
  8
2
370
    50
100
AcDbLine
 10
-240.916119
 20
89.236662
 30
0.0
 11
-243.821696
 21
91.618689
 31
0.0
  0
ELLIPSE
  5
4F6
100
AcDbEntity
  8
2
370
    50
100
AcDbEllipse
 10
-231.154246
 20
91.996806
 30
0.0
 11
12.896000000000001
 21
0.0
 31
0.0
210
0.0
220
0.0
230
1.0
 40
0.156432
 41
6.0946369999999996
 42
3.3301409999999998
  0
ARC
  5
4F7
100
AcDbEntity
  8
2
370
    50
100
AcDbCircle
 10
-231.154246
 20
87.233799
 30
0.0
 40
75.0
100
AcDbArc
 50
79.447526
 51
100.552474
  0
ARC
  5
4F8
100
AcDbEntity
  8
2
370
    50
100
AcDbCircle
 10
-231.154246
 20
61.110425
 30
0.0
 40
117.379877
100
AcDbArc
 50
85.27478
 51
94.72522
  0
ARC
  5
4F9
100
AcDbEntity
  8
2
370
    50
100
AcDbCircle
 10
-247.280718
 20
147.088781
 30
0.0
 40
44.341472
100
AcDbArc
 50
345.432834
 51
33.170236
  0
ARC
  5
4FA
100
AcDbEntity
  8
2
370
    50
100
AcDbCircle
 10
-222.720478
 20
163.142336
 30
0.0
 40
15.0
100
AcDbArc
 50
33.170236
 51
85.27478
  0
ARC
  5
4FB
100
AcDbEntity
  8
2
370
    50
100
AcDbCircle
 10
-239.588013
 20
163.142336
 30
0.0
 40
15.0
100
AcDbArc
 50
94.72522
 51
146.829764
  0
ARC
  5
4FC
100
AcDbEntity
  8
2
370
    50
100
AcDbCircle
 10
-231.154246
 20
153.101784
 30
0.0
 40
28.112632
100
AcDbArc
 50
49.970732
 51
130.029268
  0
ARC
  5
4FD
100
AcDbEntity
  8
2
370
    25
100
AcDbCircle
 10
-231.154246
 20
61.110425
 30
0.0
 40
114.080877
100
AcDbArc
 50
85.27478
 51
94.72522
  0
ARC
  5
4FE
100
AcDbEntity
  8
2
370
    25
100
AcDbCircle
 10
-222.720478
 20
163.142336
 30
0.0
 40
11.701
100
AcDbArc
 50
48.138173
 51
85.27478
  0
ARC
  5
4FF
100
AcDbEntity
  8
2
370
    25
100
AcDbCircle
 10
-239.588013
 20
163.142336
 30
0.0
 40
11.701
100
AcDbArc
 50
94.72522
 51
131.861827
  0
ARC
  5
500
100
AcDbEntity
  8
2
370
    25
100
AcDbCircle
 10
-223.700877
 20
145.412083
 30
0.0
 40
35.507785
100
AcDbArc
 50
131.861827
 51
164.908717
  0
ARC
  5
501
100
AcDbEntity
  8
2
370
    25
100
AcDbCircle
 10
-238.607615
 20
145.412083
 30
0.0
 40
35.507785
100
AcDbArc
 50
15.091283
 51
48.138173
  0
ARC
  5
502
100
AcDbEntity
  8
2
370
    50
100
AcDbCircle
 10
-231.154246
 20
61.110425
 30
0.0
 40
112.197877
100
AcDbArc
 50
85.810748
 51
94.189252
  0
ARC
  5
503
100
AcDbEntity
  8
2
370
    50
100
AcDbCircle
 10
-247.280718
 20
147.088781
 30
0.0
 40
37.755472
100
AcDbArc
 50
28.954892
 51
37.081621
  0
ARC
  5
504
100
AcDbEntity
  8
2
370
    50
100
AcDbCircle
 10
-223.542475
 20
165.029906
 30
0.0
 40
8.0
100
AcDbArc
 50
37.081621
 51
85.810748
  0
ARC
  5
505
100
AcDbEntity
  8
2
370
    50
100
AcDbCircle
 10
-216.869641
 20
163.914632
 30
0.0
 40
3.0
100
AcDbArc
 50
259.447526
 51
28.954892
  0
ARC
  5
506
100
AcDbEntity
  8
2
370
    50
100
AcDbCircle
 10
-245.438851
 20
163.914632
 30
0.0
 40
3.0
100
AcDbArc
 50
151.045108
 51
280.552474
  0
ARC
  5
507
100
AcDbEntity
  8
2
370
    25
100
AcDbCircle
 10
-150.601725
 20
194.14988
 30
0.0
 40
80.0
100
AcDbArc
 50
207.82174
 51
213.50082
  0
ARC
  5
508
100
AcDbEntity
  8
2
370
    25
100
AcDbCircle
 10
-311.706766
 20
194.14988
 30
0.0
 40
80.0
100
AcDbArc
 50
326.49918
 51
332.17826
  0
ARC
  5
509
100
AcDbEntity
  8
2
370
    50
100
AcDbCircle
 10
-238.766016
 20
165.029906
 30
0.0
 40
8.0
100
AcDbArc
 50
94.189252
 51
142.918379
  0
ARC
  5
50A
100
AcDbEntity
  8
2
370
    50
100
AcDbCircle
 10
-215.027773
 20
147.088781
 30
0.0
 40
37.755472
100
AcDbArc
 50
142.918379
 51
151.045108
  0
ARC
  5
50B
100
AcDbEntity
  8
2
370
    50
100
AcDbCircle
 10
-215.027773
 20
147.088781
 30
0.0
 40
44.341472
100
AcDbArc
 50
146.829764
 51
194.567166
  0
LINE
  5
50C
100
AcDbEntity
  8
2
370
    25
  6
CENTER
100
AcDbLine
 10
-231.154246
 20
-159.954338
 30
0.0
 11
-231.154246
 21
-196.749056
 31
0.0
  0
POINT
  5
50D
100
AcDbEntity
  8
2
370
    50
100
AcDbPoint
 10
90.140884
 20
-165.59643
 30
0.0
  0
LINE
  5
50E
100
AcDbEntity
  8
2
370
    50
100
AcDbLine
 10
113.834702
 20
10.026075
 30
0.0
 11
163.734702
 21
10.026075
 31
0.0
  0
ARC
  5
50F
100
AcDbEntity
  8
2
370
    50
100
AcDbCircle
 10
95.881077
 20
212.463893
 30
0.0
 40
1.0
100
AcDbArc
 50
103.903565
 51
153.9149
  0
ARC
  5
510
100
AcDbEntity
  8
2
370
    50
100
AcDbCircle
 10
98.126432
 20
211.364629
 30
0.0
 40
3.5
100
AcDbArc
 50
153.9149
 51
223.546351
  0
ARC
  5
511
100
AcDbEntity
  8
2
370
    50
100
AcDbCircle
 10
-155.327022
 20
-57.357461
 30
0.0
 40
371.5
100
AcDbArc
 50
40.547229
 51
45.860371
  0
ARC
  5
512
100
AcDbEntity
  8
2
370
    50
100
AcDbCircle
 10
-194.337338
 20
-66.623129
 30
0.0
 40
400.0
100
AcDbArc
 50
37.989895
 51
43.546351
  0
ARC
  5
513
100
AcDbEntity
  8
2
370
    50
100
AcDbCircle
 10
100.499987
 20
211.919078
 30
0.0
 40
1.0
100
AcDbArc
 50
19.942287
 51
62.642163
  0
ARC
  5
514
100
AcDbEntity
  8
2
370
    50
100
AcDbCircle
 10
97.466981
 20
206.057263
 30
0.0
 40
7.6
100
AcDbArc
 50
62.642163
 51
103.903565
  0
ARC
  5
515
100
AcDbEntity
  8
2
370
    50
100
AcDbCircle
 10
108.960317
 20
214.988738
 30
0.0
 40
8.0
100
AcDbArc
 50
199.942287
 51
225.860371
  0
LINE
  5
516
100
AcDbEntity
  8
2
370
    25
100
AcDbLine
 10
-161.217849
 20
-135.596891
 30
0.0
 11
-161.217849
 21
-134.346891
 31
0.0
  0
LINE
  5
517
100
AcDbEntity
  8
2
370
    25
100
AcDbLine
 10
-161.217849
 20
-124.346891
 30
0.0
 11
-161.217849
 21
-123.096891
 31
0.0
  0
LINE
  5
518
100
AcDbEntity
  8
2
370
    25
100
AcDbLine
 10
-161.924956
 20
-135.596891
 30
0.0
 11
-161.924956
 21
-134.346891
 31
0.0
  0
LINE
  5
519
100
AcDbEntity
  8
2
370
    25
100
AcDbLine
 10
-161.924956
 20
-124.346891
 30
0.0
 11
-161.924956
 21
-123.096891
 31
0.0
  0
LINE
  5
51A
100
AcDbEntity
  8
2
370
    25
100
AcDbLine
 10
-165.653978
 20
-135.596891
 30
0.0
 11
-165.653978
 21
-134.346891
 31
0.0
  0
LINE
  5
51B
100
AcDbEntity
  8
2
370
    25
100
AcDbLine
 10
-165.653978
 20
-124.346891
 30
0.0
 11
-165.653978
 21
-123.096891
 31
0.0
  0
LINE
  5
51C
100
AcDbEntity
  8
2
370
    25
100
AcDbLine
 10
-166.653978
 20
-135.596891
 30
0.0
 11
-166.653978
 21
-134.346891
 31
0.0
  0
LINE
  5
51D
100
AcDbEntity
  8
2
370
    25
100
AcDbLine
 10
-166.653978
 20
-124.346891
 30
0.0
 11
-166.653978
 21
-123.096891
 31
0.0
  0
LINE
  5
51E
100
AcDbEntity
  8
2
370
    25
100
AcDbLine
 10
-170.383
 20
-135.596891
 30
0.0
 11
-170.383
 21
-134.346891
 31
0.0
  0
LINE
  5
51F
100
AcDbEntity
  8
2
370
    25
100
AcDbLine
 10
-170.383
 20
-124.346891
 30
0.0
 11
-170.383
 21
-123.096891
 31
0.0
  0
LINE
  5
520
100
AcDbEntity
  8
2
370
    25
100
AcDbLine
 10
-171.090107
 20
-135.596891
 30
0.0
 11
-171.090107
 21
-134.346891
 31
0.0
  0
LINE
  5
521
100
AcDbEntity
  8
2
370
    25
100
AcDbLine
 10
-171.090107
 20
-124.346891
 30
0.0
 11
-171.090107
 21
-123.096891
 31
0.0
  0
LINE
  5
522
100
AcDbEntity
  8
2
370
    25
100
AcDbLine
 10
-291.218117
 20
-125.597598
 30
0.0
 11
-291.218117
 21
-124.347598
 31
0.0
  0
LINE
  5
523
100
AcDbEntity
  8
2
370
    25
100
AcDbLine
 10
-291.218117
 20
-114.347598
 30
0.0
 11
-291.218117
 21
-113.097598
 31
0.0
  0
LINE
  5
524
100
AcDbEntity
  8
2
370
    25
100
AcDbLine
 10
-291.925223
 20
-125.597598
 30
0.0
 11
-291.925223
 21
-124.347598
 31
0.0
  0
LINE
  5
525
100
AcDbEntity
  8
2
370
    25
100
AcDbLine
 10
-291.925223
 20
-114.347598
 30
0.0
 11
-291.925223
 21
-113.097598
 31
0.0
  0
LINE
  5
526
100
AcDbEntity
  8
2
370
    25
100
AcDbLine
 10
-295.654246
 20
-125.597598
 30
0.0
 11
-295.654246
 21
-124.347598
 31
0.0
  0
LINE
  5
527
100
AcDbEntity
  8
2
370
    25
100
AcDbLine
 10
-295.654246
 20
-114.347598
 30
0.0
 11
-295.654246
 21
-113.097598
 31
0.0
  0
LINE
  5
528
100
AcDbEntity
  8
2
370
    25
100
AcDbLine
 10
-296.654246
 20
-125.597598
 30
0.0
 11
-296.654246
 21
-124.347598
 31
0.0
  0
LINE
  5
529
100
AcDbEntity
  8
2
370
    25
100
AcDbLine
 10
-296.654246
 20
-114.347598
 30
0.0
 11
-296.654246
 21
-113.097598
 31
0.0
  0
LINE
  5
52A
100
AcDbEntity
  8
2
370
    25
100
AcDbLine
 10
-300.383268
 20
-125.597598
 30
0.0
 11
-300.383268
 21
-124.347598
 31
0.0
  0
LINE
  5
52B
100
AcDbEntity
  8
2
370
    25
100
AcDbLine
 10
-300.383268
 20
-114.347598
 30
0.0
 11
-300.383268
 21
-113.097598
 31
0.0
  0
LINE
  5
52C
100
AcDbEntity
  8
2
370
    25
100
AcDbLine
 10
-301.090375
 20
-125.597598
 30
0.0
 11
-301.090375
 21
-124.347598
 31
0.0
  0
LINE
  5
52D
100
AcDbEntity
  8
2
370
    25
100
AcDbLine
 10
-301.090375
 20
-114.347598
 30
0.0
 11
-301.090375
 21
-113.097598
 31
0.0
  0
LINE
  5
52E
100
AcDbEntity
  8
2
370
    25
100
AcDbLine
 10
95.077554
 20
-135.59643
 30
0.0
 11
95.077554
 21
-134.34643
 31
0.0
  0
LINE
  5
52F
100
AcDbEntity
  8
2
370
    25
100
AcDbLine
 10
95.077554
 20
-124.34643
 30
0.0
 11
95.077554
 21
-123.09643
 31
0.0
  0
LINE
  5
530
100
AcDbEntity
  8
2
370
    25
100
AcDbLine
 10
94.370447
 20
-135.59643
 30
0.0
 11
94.370447
 21
-134.34643
 31
0.0
  0
LINE
  5
531
100
AcDbEntity
  8
2
370
    25
100
AcDbLine
 10
94.370447
 20
-124.34643
 30
0.0
 11
94.370447
 21
-123.09643
 31
0.0
  0
LINE
  5
532
100
AcDbEntity
  8
2
370
    25
100
AcDbLine
 10
90.641425
 20
-135.59643
 30
0.0
 11
90.641425
 21
-134.34643
 31
0.0
  0
LINE
  5
533
100
AcDbEntity
  8
2
370
    25
100
AcDbLine
 10
90.641425
 20
-124.34643
 30
0.0
 11
90.641425
 21
-123.09643
 31
0.0
  0
LINE
  5
534
100
AcDbEntity
  8
2
370
    25
100
AcDbLine
 10
89.641425
 20
-135.59643
 30
0.0
 11
89.641425
 21
-134.34643
 31
0.0
  0
LINE
  5
535
100
AcDbEntity
  8
2
370
    25
100
AcDbLine
 10
89.641425
 20
-124.34643
 30
0.0
 11
89.641425
 21
-123.09643
 31
0.0
  0
LINE
  5
536
100
AcDbEntity
  8
2
370
    25
100
AcDbLine
 10
85.912402
 20
-135.59643
 30
0.0
 11
85.912402
 21
-134.34643
 31
0.0
  0
LINE
  5
537
100
AcDbEntity
  8
2
370
    25
100
AcDbLine
 10
85.912402
 20
-124.34643
 30
0.0
 11
85.912402
 21
-123.09643
 31
0.0
  0
LINE
  5
538
100
AcDbEntity
  8
2
370
    25
100
AcDbLine
 10
85.205295
 20
-135.59643
 30
0.0
 11
85.205295
 21
-134.34643
 31
0.0
  0
LINE
  5
539
100
AcDbEntity
  8
2
370
    25
100
AcDbLine
 10
85.205295
 20
-124.34643
 30
0.0
 11
85.205295
 21
-123.09643
 31
0.0
  0
LINE
  5
53A
100
AcDbEntity
  8
2
370
    50
100
AcDbLine
 10
-218.310246
 20
82.377672
 30
0.0
 11
-218.310246
 21
79.823975
 31
0.0
  0
LINE
  5
53B
100
AcDbEntity
  8
2
370
    50
100
AcDbLine
 10
-243.998246
 20
82.377672
 30
0.0
 11
-243.998246
 21
79.823975
 31
0.0
  0
ELLIPSE
  5
53C
100
AcDbEntity
  8
2
370
    50
100
AcDbEllipse
 10
-231.154246
 20
88.681211
 30
0.0
 11
17.0
 21
0.0
 31
0.0
210
0.0
220
0.0
230
1.0
 40
0.795302
 41
3.8559269999999999
 42
5.5688510000000004
  0
ELLIPSE
  5
53D
100
AcDbEntity
  8
2
370
    50
100
AcDbEllipse
 10
-231.154246
 20
91.234908
 30
0.0
 11
17.0
 21
0.0
 31
0.0
210
0.0
220
0.0
230
1.0
 40
0.795302
 41
3.8559269999999999
 42
5.5688510000000004
  0
LINE
  5
53E
100
AcDbEntity
  8
2
370
    50
100
AcDbLine
 10
100.141425
 20
-155.29643
 30
0.0
 11
100.141425
 21
-182.79643
 31
0.0
  0
LINE
  5
53F
100
AcDbEntity
  8
2
370
    50
100
AcDbLine
 10
80.141425
 20
-155.29643
 30
0.0
 11
80.141425
 21
-182.79643
 31
0.0
  0
POINT
  5
540
100
AcDbEntity
  8
2
370
    50
100
AcDbPoint
 10
90.141425
 20
-182.79643
 30
0.0
  0
LINE
  5
541
100
AcDbEntity
  8
2
370
    50
100
AcDbLine
 10
80.14087
 20
-155.297139
 30
0.0
 11
80.14087
 21
-182.797139
 31
0.0
  0
LINE
  5
542
100
AcDbEntity
  8
2
370
    50
100
AcDbLine
 10
100.14087
 20
-155.297139
 30
0.0
 11
100.14087
 21
-182.797139
 31
0.0
  0
POINT
  5
543
100
AcDbEntity
  8
2
370
    50
100
AcDbPoint
 10
90.14087
 20
-182.797139
 30
0.0
  0
LINE
  5
544
100
AcDbEntity
  8
2
370
    50
100
AcDbLine
 10
78.14087
 20
-182.797139
 30
0.0
 11
102.14087
 21
-182.797139
 31
0.0
  0
LINE
  5
545
100
AcDbEntity
  8
2
370
    50
100
AcDbLine
 10
78.14087
 20
-193.797139
 30
0.0
 11
78.14087
 21
-182.797139
 31
0.0
  0
LINE
  5
546
100
AcDbEntity
  8
2
370
    50
100
AcDbLine
 10
102.14087
 20
-182.797139
 30
0.0
 11
102.14087
 21
-193.797139
 31
0.0
  0
LINE
  5
547
100
AcDbEntity
  8
2
370
    50
100
AcDbLine
 10
78.14087
 20
-193.797139
 30
0.0
 11
102.14087
 21
-193.797139
 31
0.0
  0
LINE
  5
548
100
AcDbEntity
  8
2
370
    50
100
AcDbLine
 10
90.14087
 20
-184.653139
 30
0.0
 11
90.14087
 21
-191.941139
 31
0.0
  0
ARC
  5
549
100
AcDbEntity
  8
2
370
    50
100
AcDbCircle
 10
96.14087
 20
-193.423414
 30
0.0
 40
10.626276
100
AcDbArc
 50
55.622837
 51
124.377163
  0
ARC
  5
54A
100
AcDbEntity
  8
2
370
    50
100
AcDbCircle
 10
84.14087
 20
-193.423414
 30
0.0
 40
10.626276
100
AcDbArc
 50
55.622837
 51
124.377163
  0
ARC
  5
54B
100
AcDbEntity
  8
2
370
    50
100
AcDbCircle
 10
84.14087
 20
-183.170863
 30
0.0
 40
10.626276
100
AcDbArc
 50
235.622837
 51
304.377163
  0
ARC
  5
54C
100
AcDbEntity
  8
2
370
    50
100
AcDbCircle
 10
96.14087
 20
-183.170863
 30
0.0
 40
10.626276
100
AcDbArc
 50
235.622837
 51
304.377163
  0
LINE
  5
54D
100
AcDbEntity
  8
2
370
    25
  6
CENTER
100
AcDbLine
 10
193.37381
 20
-191.805223
 30
0.0
 11
193.37381
 21
-196.749056
 31
0.0
  0
LINE
  5
54E
100
AcDbEntity
  8
2
370
    50
100
AcDbLine
 10
-156.153653
 20
-155.296916
 30
0.0
 11
-156.153653
 21
-182.796916
 31
0.0
  0
LINE
  5
54F
100
AcDbEntity
  8
2
370
    50
100
AcDbLine
 10
-176.153653
 20
-155.296916
 30
0.0
 11
-176.153653
 21
-182.796916
 31
0.0
  0
LINE
  5
550
100
AcDbEntity
  8
2
370
    50
100
AcDbLine
 10
-176.48052
 20
-182.796916
 30
0.0
 11
-154.153653
 21
-182.796916
 31
0.0
  0
LINE
  5
551
100
AcDbEntity
  8
2
370
    50
100
AcDbLine
 10
-152.297246
 20
-184.653322
 30
0.0
 11
-152.297246
 21
-191.940509
 31
0.0
  0
LINE
  5
552
100
AcDbEntity
  8
2
370
    50
100
AcDbLine
 10
-180.010059
 20
-191.940509
 30
0.0
 11
-180.010059
 21
-184.653322
 31
0.0
  0
LINE
  5
553
100
AcDbEntity
  8
2
370
    50
100
AcDbLine
 10
-178.153653
 20
-193.796916
 30
0.0
 11
-154.153653
 21
-193.796916
 31
0.0
  0
LINE
  5
554
100
AcDbEntity
  8
2
370
    50
100
AcDbLine
 10
-159.225449
 20
-191.940509
 30
0.0
 11
-159.225449
 21
-184.653322
 31
0.0
  0
LINE
  5
555
100
AcDbEntity
  8
2
370
    50
100
AcDbLine
 10
-173.081856
 20
-191.940509
 30
0.0
 11
-173.081856
 21
-184.653322
 31
0.0
  0
LINE
  5
556
100
AcDbEntity
  8
2
370
    50
100
AcDbLine
 10
-178.153653
 20
-182.796916
 30
0.0
 11
-154.153653
 21
-182.796916
 31
0.0
  0
LINE
  5
557
100
AcDbEntity
  8
2
370
    50
100
AcDbLine
 10
-154.153653
 20
-182.796916
 30
0.0
 11
-152.297246
 21
-184.653322
 31
0.0
  0
LINE
  5
558
100
AcDbEntity
  8
2
370
    50
100
AcDbLine
 10
-178.153653
 20
-193.796916
 30
0.0
 11
-180.010059
 21
-191.940509
 31
0.0
  0
LINE
  5
559
100
AcDbEntity
  8
2
370
    50
100
AcDbLine
 10
-178.153653
 20
-182.796916
 30
0.0
 11
-180.010059
 21
-184.653322
 31
0.0
  0
LINE
  5
55A
100
AcDbEntity
  8
2
370
    50
100
AcDbLine
 10
-154.153653
 20
-193.796916
 30
0.0
 11
-152.297246
 21
-191.940509
 31
0.0
  0
ARC
  5
55B
100
AcDbEntity
  8
2
370
    50
100
AcDbCircle
 10
-166.153653
 20
-196.653322
 30
0.0
 40
13.856406
100
AcDbArc
 50
60.0
 51
120.0
  0
ARC
  5
55C
100
AcDbEntity
  8
2
370
    50
100
AcDbCircle
 10
-166.153653
 20
-179.940509
 30
0.0
 40
13.856406
100
AcDbArc
 50
240.0
 51
300.0
  0
ARC
  5
55D
100
AcDbEntity
  8
2
370
    50
100
AcDbCircle
 10
-155.826785
 20
-186.836215
 30
0.0
 40
4.039299
100
AcDbArc
 50
45.0
 51
147.288191
  0
ARC
  5
55E
100
AcDbEntity
  8
2
370
    50
100
AcDbCircle
 10
-155.826785
 20
-189.757616
 30
0.0
 40
4.039299
100
AcDbArc
 50
212.711809
 51
315.0
  0
ARC
  5
55F
100
AcDbEntity
  8
2
370
    50
100
AcDbCircle
 10
-176.48052
 20
-186.836215
 30
0.0
 40
4.039299
100
AcDbArc
 50
32.711809
 51
135.0
  0
ARC
  5
560
100
AcDbEntity
  8
2
370
    50
100
AcDbCircle
 10
-176.48052
 20
-189.757616
 30
0.0
 40
4.039299
100
AcDbArc
 50
225.0
 51
327.288191
  0
LINE
  5
561
100
AcDbEntity
  8
2
370
    50
100
AcDbLine
 10
-286.153653
 20
-145.296916
 30
0.0
 11
-286.153653
 21
-172.796916
 31
0.0
  0
LINE
  5
562
100
AcDbEntity
  8
2
370
    50
100
AcDbLine
 10
-306.153653
 20
-145.296916
 30
0.0
 11
-306.153653
 21
-172.796916
 31
0.0
  0
LINE
  5
563
100
AcDbEntity
  8
2
370
    50
100
AcDbLine
 10
-306.48052
 20
-172.796916
 30
0.0
 11
-284.153653
 21
-172.796916
 31
0.0
  0
LINE
  5
564
100
AcDbEntity
  8
2
370
    50
100
AcDbLine
 10
-282.297246
 20
-174.653322
 30
0.0
 11
-282.297246
 21
-181.940509
 31
0.0
  0
LINE
  5
565
100
AcDbEntity
  8
2
370
    50
100
AcDbLine
 10
-310.010059
 20
-181.940509
 30
0.0
 11
-310.010059
 21
-174.653322
 31
0.0
  0
LINE
  5
566
100
AcDbEntity
  8
2
370
    50
100
AcDbLine
 10
-308.153653
 20
-183.796916
 30
0.0
 11
-284.153653
 21
-183.796916
 31
0.0
  0
LINE
  5
567
100
AcDbEntity
  8
2
370
    50
100
AcDbLine
 10
-289.225449
 20
-181.940509
 30
0.0
 11
-289.225449
 21
-174.653322
 31
0.0
  0
LINE
  5
568
100
AcDbEntity
  8
2
370
    50
100
AcDbLine
 10
-303.081856
 20
-181.940509
 30
0.0
 11
-303.081856
 21
-174.653322
 31
0.0
  0
LINE
  5
569
100
AcDbEntity
  8
2
370
    50
100
AcDbLine
 10
-308.153653
 20
-172.796916
 30
0.0
 11
-284.153653
 21
-172.796916
 31
0.0
  0
LINE
  5
56A
100
AcDbEntity
  8
2
370
    50
100
AcDbLine
 10
-284.153653
 20
-172.796916
 30
0.0
 11
-282.297246
 21
-174.653322
 31
0.0
  0
LINE
  5
56B
100
AcDbEntity
  8
2
370
    50
100
AcDbLine
 10
-308.153653
 20
-183.796916
 30
0.0
 11
-310.010059
 21
-181.940509
 31
0.0
  0
LINE
  5
56C
100
AcDbEntity
  8
2
370
    50
100
AcDbLine
 10
-308.153653
 20
-172.796916
 30
0.0
 11
-310.010059
 21
-174.653322
 31
0.0
  0
LINE
  5
56D
100
AcDbEntity
  8
2
370
    50
100
AcDbLine
 10
-284.153653
 20
-183.796916
 30
0.0
 11
-282.297246
 21
-181.940509
 31
0.0
  0
ARC
  5
56E
100
AcDbEntity
  8
2
370
    50
100
AcDbCircle
 10
-296.153653
 20
-186.653322
 30
0.0
 40
13.856406
100
AcDbArc
 50
60.0
 51
120.0
  0
ARC
  5
56F
100
AcDbEntity
  8
2
370
    50
100
AcDbCircle
 10
-296.153653
 20
-169.940509
 30
0.0
 40
13.856406
100
AcDbArc
 50
240.0
 51
300.0
  0
ARC
  5
570
100
AcDbEntity
  8
2
370
    50
100
AcDbCircle
 10
-285.826785
 20
-176.836215
 30
0.0
 40
4.039299
100
AcDbArc
 50
45.0
 51
147.288191
  0
ARC
  5
571
100
AcDbEntity
  8
2
370
    50
100
AcDbCircle
 10
-285.826785
 20
-179.757616
 30
0.0
 40
4.039299
100
AcDbArc
 50
212.711809
 51
315.0
  0
ARC
  5
572
100
AcDbEntity
  8
2
370
    50
100
AcDbCircle
 10
-306.48052
 20
-176.836215
 30
0.0
 40
4.039299
100
AcDbArc
 50
32.711809
 51
135.0
  0
ARC
  5
573
100
AcDbEntity
  8
2
370
    50
100
AcDbCircle
 10
-306.48052
 20
-179.757616
 30
0.0
 40
4.039299
100
AcDbArc
 50
225.0
 51
327.288191
  0
ARC
  5
574
100
AcDbEntity
  8
2
370
    25
  6
CENTER
100
AcDbCircle
 10
183.37381
 20
-196.749056
 30
0.0
 40
10.0
100
AcDbArc
 50
270.0
 51
360.0
  0
LINE
  5
575
100
AcDbEntity
  8
2
370
    25
  6
CENTER
100
AcDbLine
 10
90.141425
 20
-74.121025
 30
0.0
 11
90.141425
 21
-94.555279
 31
0.0
  0
POINT
  5
576
100
AcDbEntity
  8
2
370
    50
100
AcDbPoint
 10
193.37381
 20
-172.749056
 30
0.0
  0
POINT
  5
577
100
AcDbEntity
  8
2
370
    50
100
AcDbPoint
 10
193.37381
 20
-172.749056
 30
0.0
  0
POINT
  5
578
100
AcDbEntity
  8
2
370
    50
100
AcDbPoint
 10
193.37381
 20
-142.748765
 30
0.0
  0
POINT
  5
579
100
AcDbEntity
  8
2
370
    50
100
AcDbPoint
 10
193.37381
 20
-172.749056
 30
0.0
  0
LINE
  5
57A
100
AcDbEntity
  8
2
370
    50
100
AcDbLine
 10
185.37381
 20
-152.198413
 30
0.0
 11
185.37381
 21
-146.098413
 31
0.0
  0
LINE
  5
57B
100
AcDbEntity
  8
2
370
    50
100
AcDbLine
 10
201.37381
 20
-152.198413
 30
0.0
 11
201.37381
 21
-146.098413
 31
0.0
  0
LINE
  5
57C
100
AcDbEntity
  8
2
370
    50
100
AcDbLine
 10
185.57381
 20
-152.398413
 30
0.0
 11
201.17381
 21
-152.398413
 31
0.0
  0
LINE
  5
57D
100
AcDbEntity
  8
2
370
    50
100
AcDbLine
 10
185.57381
 20
-145.898413
 30
0.0
 11
201.17381
 21
-145.898413
 31
0.0
  0
LINE
  5
57E
100
AcDbEntity
  8
2
370
    50
100
AcDbLine
 10
186.600256
 20
-161.458193
 30
0.0
 11
200.000256
 21
-164.847069
 31
0.0
  0
LINE
  5
57F
100
AcDbEntity
  8
2
370
    50
100
AcDbLine
 10
200.37381
 20
-164.556226
 30
0.0
 11
200.37381
 21
-162.080664
 31
0.0
  0
LINE
  5
580
100
AcDbEntity
  8
2
370
    50
100
AcDbLine
 10
199.27381
 20
-166.726318
 30
0.0
 11
199.27381
 21
-164.66335
 31
0.0
  0
LINE
  5
581
100
AcDbEntity
  8
2
370
    50
100
AcDbLine
 10
187.47381
 20
-163.742084
 30
0.0
 11
187.47381
 21
-161.679116
 31
0.0
  0
ARC
  5
582
100
AcDbEntity
  8
2
370
    50
100
AcDbCircle
 10
186.67381
 20
-176.65535
 30
0.0
 40
0.3
100
AcDbArc
 50
180.0
 51
255.807415
  0
ARC
  5
583
100
AcDbEntity
  8
2
370
    50
100
AcDbCircle
 10
200.07381
 20
-164.556226
 30
0.0
 40
0.3
100
AcDbArc
 50
255.807415
 51
0.0
  0
LINE
  5
584
100
AcDbEntity
  8
2
370
    50
100
AcDbLine
 10
201.37381
 20
-152.198413
 30
0.0
 11
201.17381
 21
-152.398413
 31
0.0
  0
LINE
  5
585
100
AcDbEntity
  8
2
370
    50
100
AcDbLine
 10
185.57381
 20
-152.398413
 30
0.0
 11
185.37381
 21
-152.198413
 31
0.0
  0
LINE
  5
586
100
AcDbEntity
  8
2
370
    50
100
AcDbLine
 10
185.37381
 20
-146.098413
 30
0.0
 11
185.57381
 21
-145.898413
 31
0.0
  0
LINE
  5
587
100
AcDbEntity
  8
2
370
    25
100
AcDbLine
 10
185.37381
 20
-152.198413
 30
0.0
 11
201.37381
 21
-152.198413
 31
0.0
  0
LINE
  5
588
100
AcDbEntity
  8
2
370
    25
100
AcDbLine
 10
185.37381
 20
-146.098413
 30
0.0
 11
201.37381
 21
-146.098413
 31
0.0
  0
LINE
  5
589
100
AcDbEntity
  8
2
370
    50
100
AcDbLine
 10
201.17381
 20
-145.898413
 30
0.0
 11
201.37381
 21
-146.098413
 31
0.0
  0
LINE
  5
58A
100
AcDbEntity
  8
2
370
    50
100
AcDbLine
 10
201.37381
 20
-145.598413
 30
0.0
 11
201.37381
 21
-138.74888
 31
0.0
  0
LINE
  5
58B
100
AcDbEntity
  8
2
370
    50
100
AcDbLine
 10
185.37381
 20
-145.598413
 30
0.0
 11
185.37381
 21
-138.74888
 31
0.0
  0
LINE
  5
58C
100
AcDbEntity
  8
2
370
    50
100
AcDbLine
 10
201.37381
 20
-145.598413
 30
0.0
 11
201.07381
 21
-145.898413
 31
0.0
  0
LINE
  5
58D
100
AcDbEntity
  8
2
370
    50
100
AcDbLine
 10
185.37381
 20
-145.598413
 30
0.0
 11
185.67381
 21
-145.898413
 31
0.0
  0
LINE
  5
58E
100
AcDbEntity
  8
2
370
    25
100
AcDbLine
 10
192.37381
 20
-145.598413
 30
0.0
 11
192.37381
 21
-138.74888
 31
0.0
  0
LINE
  5
58F
100
AcDbEntity
  8
2
370
    25
100
AcDbLine
 10
190.37381
 20
-145.598413
 30
0.0
 11
190.37381
 21
-138.74888
 31
0.0
  0
LINE
  5
590
100
AcDbEntity
  8
2
370
    25
100
AcDbLine
 10
188.87381
 20
-145.598413
 30
0.0
 11
188.87381
 21
-138.74888
 31
0.0
  0
LINE
  5
591
100
AcDbEntity
  8
2
370
    25
100
AcDbLine
 10
187.87381
 20
-145.598413
 30
0.0
 11
187.87381
 21
-138.74888
 31
0.0
  0
LINE
  5
592
100
AcDbEntity
  8
2
370
    25
100
AcDbLine
 10
186.87381
 20
-145.598413
 30
0.0
 11
186.87381
 21
-138.74888
 31
0.0
  0
LINE
  5
593
100
AcDbEntity
  8
2
370
    25
100
AcDbLine
 10
185.87381
 20
-145.598413
 30
0.0
 11
185.87381
 21
-138.74888
 31
0.0
  0
LINE
  5
594
100
AcDbEntity
  8
2
370
    50
100
AcDbLine
 10
185.37381
 20
-145.598413
 30
0.0
 11
201.37381
 21
-145.598413
 31
0.0
  0
LINE
  5
595
100
AcDbEntity
  8
2
370
    25
100
AcDbLine
 10
194.37381
 20
-145.598413
 30
0.0
 11
194.37381
 21
-138.74888
 31
0.0
  0
LINE
  5
596
100
AcDbEntity
  8
2
370
    25
100
AcDbLine
 10
196.37381
 20
-145.598413
 30
0.0
 11
196.37381
 21
-138.74888
 31
0.0
  0
LINE
  5
597
100
AcDbEntity
  8
2
370
    25
100
AcDbLine
 10
197.87381
 20
-145.598413
 30
0.0
 11
197.87381
 21
-138.74888
 31
0.0
  0
LINE
  5
598
100
AcDbEntity
  8
2
370
    25
100
AcDbLine
 10
198.87381
 20
-145.598413
 30
0.0
 11
198.87381
 21
-138.74888
 31
0.0
  0
LINE
  5
599
100
AcDbEntity
  8
2
370
    25
100
AcDbLine
 10
199.87381
 20
-145.598413
 30
0.0
 11
199.87381
 21
-138.74888
 31
0.0
  0
LINE
  5
59A
100
AcDbEntity
  8
2
370
    25
100
AcDbLine
 10
200.87381
 20
-145.598413
 30
0.0
 11
200.87381
 21
-138.74888
 31
0.0
  0
LINE
  5
59B
100
AcDbEntity
  8
2
370
    50
100
AcDbLine
 10
186.747365
 20
-168.731526
 30
0.0
 11
200.147365
 21
-172.120402
 31
0.0
  0
ARC
  5
59C
100
AcDbEntity
  8
2
370
    50
100
AcDbCircle
 10
186.67381
 20
-169.022369
 30
0.0
 40
0.3
100
AcDbArc
 50
75.807415
 51
180.0
  0
LINE
  5
59D
100
AcDbEntity
  8
2
370
    50
100
AcDbLine
 10
187.47381
 20
-168.915245
 30
0.0
 11
187.47381
 21
-166.852277
 31
0.0
  0
LINE
  5
59E
100
AcDbEntity
  8
2
370
    50
100
AcDbLine
 10
199.27381
 20
-171.899479
 30
0.0
 11
199.27381
 21
-169.836511
 31
0.0
  0
LINE
  5
59F
100
AcDbEntity
  8
2
370
    50
100
AcDbLine
 10
186.600256
 20
-166.631354
 30
0.0
 11
200.000256
 21
-170.02023
 31
0.0
  0
LINE
  5
5A0
100
AcDbEntity
  8
2
370
    50
100
AcDbLine
 10
186.747365
 20
-163.574106
 30
0.0
 11
200.147365
 21
-166.962982
 31
0.0
  0
LINE
  5
5A1
100
AcDbEntity
  8
2
370
    50
100
AcDbLine
 10
200.37381
 20
-169.729387
 30
0.0
 11
200.37381
 21
-167.253826
 31
0.0
  0
LINE
  5
5A2
100
AcDbEntity
  8
2
370
    50
100
AcDbLine
 10
186.37381
 20
-166.340511
 30
0.0
 11
186.37381
 21
-163.864949
 31
0.0
  0
LINE
  5
5A3
100
AcDbEntity
  8
2
370
    50
100
AcDbLine
 10
199.27381
 20
-166.742059
 30
0.0
 11
199.27381
 21
-164.679092
 31
0.0
  0
LINE
  5
5A4
100
AcDbEntity
  8
2
370
    50
100
AcDbLine
 10
187.47381
 20
-163.757825
 30
0.0
 11
187.47381
 21
-161.694857
 31
0.0
  0
ARC
  5
5A5
100
AcDbEntity
  8
2
370
    50
100
AcDbCircle
 10
186.67381
 20
-166.340511
 30
0.0
 40
0.3
100
AcDbArc
 50
180.0
 51
255.807415
  0
ARC
  5
5A6
100
AcDbEntity
  8
2
370
    50
100
AcDbCircle
 10
186.67381
 20
-163.864949
 30
0.0
 40
0.3
100
AcDbArc
 50
75.807415
 51
180.0
  0
ARC
  5
5A7
100
AcDbEntity
  8
2
370
    50
100
AcDbCircle
 10
200.07381
 20
-167.253826
 30
0.0
 40
0.3
100
AcDbArc
 50
0.0
 51
75.807415
  0
ARC
  5
5A8
100
AcDbEntity
  8
2
370
    50
100
AcDbCircle
 10
200.07381
 20
-169.729387
 30
0.0
 40
0.3
100
AcDbArc
 50
255.807415
 51
0.0
  0
LINE
  5
5A9
100
AcDbEntity
  8
2
370
    50
100
AcDbLine
 10
186.600256
 20
-161.473934
 30
0.0
 11
200.000256
 21
-164.862811
 31
0.0
  0
LINE
  5
5AA
100
AcDbEntity
  8
2
370
    50
100
AcDbLine
 10
186.747365
 20
-158.416687
 30
0.0
 11
200.147365
 21
-161.805563
 31
0.0
  0
LINE
  5
5AB
100
AcDbEntity
  8
2
370
    50
100
AcDbLine
 10
200.37381
 20
-164.571967
 30
0.0
 11
200.37381
 21
-162.096406
 31
0.0
  0
LINE
  5
5AC
100
AcDbEntity
  8
2
370
    50
100
AcDbLine
 10
186.37381
 20
-161.183091
 30
0.0
 11
186.37381
 21
-158.70753
 31
0.0
  0
LINE
  5
5AD
100
AcDbEntity
  8
2
370
    50
100
AcDbLine
 10
199.27381
 20
-161.58464
 30
0.0
 11
199.27381
 21
-159.521672
 31
0.0
  0
LINE
  5
5AE
100
AcDbEntity
  8
2
370
    50
100
AcDbLine
 10
187.47381
 20
-158.600406
 30
0.0
 11
187.47381
 21
-156.537438
 31
0.0
  0
ARC
  5
5AF
100
AcDbEntity
  8
2
370
    50
100
AcDbCircle
 10
186.67381
 20
-161.183091
 30
0.0
 40
0.3
100
AcDbArc
 50
180.0
 51
255.807415
  0
ARC
  5
5B0
100
AcDbEntity
  8
2
370
    50
100
AcDbCircle
 10
186.67381
 20
-158.70753
 30
0.0
 40
0.3
100
AcDbArc
 50
75.807415
 51
180.0
  0
ARC
  5
5B1
100
AcDbEntity
  8
2
370
    50
100
AcDbCircle
 10
200.07381
 20
-162.096406
 30
0.0
 40
0.3
100
AcDbArc
 50
0.0
 51
75.807415
  0
ARC
  5
5B2
100
AcDbEntity
  8
2
370
    50
100
AcDbCircle
 10
200.07381
 20
-164.571967
 30
0.0
 40
0.3
100
AcDbArc
 50
255.807415
 51
0.0
  0
LINE
  5
5B3
100
AcDbEntity
  8
2
370
    50
100
AcDbLine
 10
186.600256
 20
-156.316515
 30
0.0
 11
200.000256
 21
-159.705391
 31
0.0
  0
LINE
  5
5B4
100
AcDbEntity
  8
2
370
    50
100
AcDbLine
 10
186.747365
 20
-153.259267
 30
0.0
 11
200.147365
 21
-156.648143
 31
0.0
  0
LINE
  5
5B5
100
AcDbEntity
  8
2
370
    50
100
AcDbLine
 10
200.37381
 20
-159.414548
 30
0.0
 11
200.37381
 21
-156.938987
 31
0.0
  0
LINE
  5
5B6
100
AcDbEntity
  8
2
370
    50
100
AcDbLine
 10
186.37381
 20
-156.025672
 30
0.0
 11
186.37381
 21
-153.55011
 31
0.0
  0
LINE
  5
5B7
100
AcDbEntity
  8
2
370
    50
100
AcDbLine
 10
199.27381
 20
-156.42722
 30
0.0
 11
199.27381
 21
-154.364253
 31
0.0
  0
LINE
  5
5B8
100
AcDbEntity
  8
2
370
    50
100
AcDbLine
 10
187.47381
 20
-153.442986
 30
0.0
 11
187.47381
 21
-152.398413
 31
0.0
  0
ARC
  5
5B9
100
AcDbEntity
  8
2
370
    50
100
AcDbCircle
 10
186.67381
 20
-156.025672
 30
0.0
 40
0.3
100
AcDbArc
 50
180.0
 51
255.807415
  0
ARC
  5
5BA
100
AcDbEntity
  8
2
370
    50
100
AcDbCircle
 10
186.67381
 20
-153.55011
 30
0.0
 40
0.3
100
AcDbArc
 50
75.807415
 51
180.0
  0
ARC
  5
5BB
100
AcDbEntity
  8
2
370
    50
100
AcDbCircle
 10
200.07381
 20
-156.938987
 30
0.0
 40
0.3
100
AcDbArc
 50
0.0
 51
75.807415
  0
ARC
  5
5BC
100
AcDbEntity
  8
2
370
    50
100
AcDbCircle
 10
200.07381
 20
-159.414548
 30
0.0
 40
0.3
100
AcDbArc
 50
255.807415
 51
0.0
  0
LINE
  5
5BD
100
AcDbEntity
  8
2
370
    50
100
AcDbLine
 10
191.500656
 20
-152.398413
 30
0.0
 11
200.000256
 21
-154.547972
 31
0.0
  0
LINE
  5
5BE
100
AcDbEntity
  8
2
370
    50
100
AcDbLine
 10
200.37381
 20
-154.257128
 30
0.0
 11
200.37381
 21
-152.398413
 31
0.0
  0
ARC
  5
5BF
100
AcDbEntity
  8
2
370
    50
100
AcDbCircle
 10
200.07381
 20
-154.257128
 30
0.0
 40
0.3
100
AcDbArc
 50
255.807415
 51
0.0
  0
LINE
  5
5C0
100
AcDbEntity
  8
2
370
    50
100
AcDbLine
 10
186.600256
 20
-166.615612
 30
0.0
 11
200.000256
 21
-170.004488
 31
0.0
  0
LINE
  5
5C1
100
AcDbEntity
  8
2
370
    50
100
AcDbLine
 10
186.747365
 20
-163.558365
 30
0.0
 11
200.147365
 21
-166.947241
 31
0.0
  0
LINE
  5
5C2
100
AcDbEntity
  8
2
370
    50
100
AcDbLine
 10
186.37381
 20
-166.324769
 30
0.0
 11
186.37381
 21
-163.849208
 31
0.0
  0
ARC
  5
5C3
100
AcDbEntity
  8
2
370
    50
100
AcDbCircle
 10
186.67381
 20
-166.324769
 30
0.0
 40
0.3
100
AcDbArc
 50
180.0
 51
255.807415
  0
ARC
  5
5C4
100
AcDbEntity
  8
2
370
    50
100
AcDbCircle
 10
186.67381
 20
-163.849208
 30
0.0
 40
0.3
100
AcDbArc
 50
75.807415
 51
180.0
  0
LINE
  5
5C5
100
AcDbEntity
  8
2
370
    50
100
AcDbLine
 10
200.37381
 20
-169.713645
 30
0.0
 11
200.37381
 21
-167.238084
 31
0.0
  0
ARC
  5
5C6
100
AcDbEntity
  8
2
370
    50
100
AcDbCircle
 10
200.07381
 20
-167.238084
 30
0.0
 40
0.3
100
AcDbArc
 50
0.0
 51
75.807415
  0
ARC
  5
5C7
100
AcDbEntity
  8
2
370
    50
100
AcDbCircle
 10
200.07381
 20
-169.713645
 30
0.0
 40
0.3
100
AcDbArc
 50
255.807415
 51
0.0
  0
LINE
  5
5C8
100
AcDbEntity
  8
2
370
    50
100
AcDbLine
 10
199.27381
 20
-171.883737
 30
0.0
 11
199.27381
 21
-169.820769
 31
0.0
  0
LINE
  5
5C9
100
AcDbEntity
  8
2
370
    50
100
AcDbLine
 10
187.47381
 20
-168.899503
 30
0.0
 11
187.47381
 21
-166.836535
 31
0.0
  0
LINE
  5
5CA
100
AcDbEntity
  8
2
370
    50
100
AcDbLine
 10
186.747365
 20
-168.715784
 30
0.0
 11
200.147365
 21
-172.10466
 31
0.0
  0
LINE
  5
5CB
100
AcDbEntity
  8
2
370
    50
100
AcDbLine
 10
186.37381
 20
-170.228595
 30
0.0
 11
186.37381
 21
-169.006627
 31
0.0
  0
ARC
  5
5CC
100
AcDbEntity
  8
2
370
    50
100
AcDbCircle
 10
186.67381
 20
-169.006627
 30
0.0
 40
0.3
100
AcDbArc
 50
75.807415
 51
180.0
  0
ARC
  5
5CD
100
AcDbEntity
  8
2
370
    50
100
AcDbCircle
 10
200.07381
 20
-172.395503
 30
0.0
 40
0.3
100
AcDbArc
 50
53.589729
 51
75.807415
  0
LINE
  5
5CE
100
AcDbEntity
  8
2
370
    50
100
AcDbLine
 10
186.600256
 20
-182.087871
 30
0.0
 11
200.000256
 21
-185.476747
 31
0.0
  0
LINE
  5
5CF
100
AcDbEntity
  8
2
370
    50
100
AcDbLine
 10
186.747365
 20
-179.030623
 30
0.0
 11
200.147365
 21
-182.419499
 31
0.0
  0
LINE
  5
5D0
100
AcDbEntity
  8
2
370
    50
100
AcDbLine
 10
200.37381
 20
-185.185904
 30
0.0
 11
200.37381
 21
-182.710342
 31
0.0
  0
LINE
  5
5D1
100
AcDbEntity
  8
2
370
    50
100
AcDbLine
 10
186.37381
 20
-181.797027
 30
0.0
 11
186.37381
 21
-179.321466
 31
0.0
  0
ARC
  5
5D2
100
AcDbEntity
  8
2
370
    50
100
AcDbCircle
 10
186.67381
 20
-181.797027
 30
0.0
 40
0.3
100
AcDbArc
 50
180.0
 51
255.807415
  0
ARC
  5
5D3
100
AcDbEntity
  8
2
370
    50
100
AcDbCircle
 10
186.67381
 20
-179.321466
 30
0.0
 40
0.3
100
AcDbArc
 50
75.807415
 51
180.0
  0
ARC
  5
5D4
100
AcDbEntity
  8
2
370
    50
100
AcDbCircle
 10
200.07381
 20
-182.710342
 30
0.0
 40
0.3
100
AcDbArc
 50
0.0
 51
75.807415
  0
ARC
  5
5D5
100
AcDbEntity
  8
2
370
    50
100
AcDbCircle
 10
200.07381
 20
-185.185904
 30
0.0
 40
0.3
100
AcDbArc
 50
255.807415
 51
0.0
  0
LINE
  5
5D6
100
AcDbEntity
  8
2
370
    50
100
AcDbLine
 10
186.600256
 20
-187.24529
 30
0.0
 11
200.000256
 21
-190.634166
 31
0.0
  0
LINE
  5
5D7
100
AcDbEntity
  8
2
370
    50
100
AcDbLine
 10
186.747365
 20
-184.188042
 30
0.0
 11
200.147365
 21
-187.576919
 31
0.0
  0
LINE
  5
5D8
100
AcDbEntity
  8
2
370
    50
100
AcDbLine
 10
200.37381
 20
-190.343323
 30
0.0
 11
200.37381
 21
-187.867762
 31
0.0
  0
LINE
  5
5D9
100
AcDbEntity
  8
2
370
    50
100
AcDbLine
 10
186.37381
 20
-186.954447
 30
0.0
 11
186.37381
 21
-184.478886
 31
0.0
  0
LINE
  5
5DA
100
AcDbEntity
  8
2
370
    50
100
AcDbLine
 10
199.27381
 20
-192.513415
 30
0.0
 11
199.27381
 21
-190.450447
 31
0.0
  0
LINE
  5
5DB
100
AcDbEntity
  8
2
370
    50
100
AcDbLine
 10
187.47381
 20
-189.529181
 30
0.0
 11
187.47381
 21
-187.466213
 31
0.0
  0
ARC
  5
5DC
100
AcDbEntity
  8
2
370
    50
100
AcDbCircle
 10
186.67381
 20
-186.954447
 30
0.0
 40
0.3
100
AcDbArc
 50
180.0
 51
255.807415
  0
ARC
  5
5DD
100
AcDbEntity
  8
2
370
    50
100
AcDbCircle
 10
186.67381
 20
-184.478886
 30
0.0
 40
0.3
100
AcDbArc
 50
75.807415
 51
180.0
  0
ARC
  5
5DE
100
AcDbEntity
  8
2
370
    50
100
AcDbCircle
 10
200.07381
 20
-187.867762
 30
0.0
 40
0.3
100
AcDbArc
 50
0.0
 51
75.807415
  0
ARC
  5
5DF
100
AcDbEntity
  8
2
370
    50
100
AcDbCircle
 10
200.07381
 20
-190.343323
 30
0.0
 40
0.3
100
AcDbArc
 50
255.807415
 51
0.0
  0
LINE
  5
5E0
100
AcDbEntity
  8
2
370
    50
100
AcDbLine
 10
186.600256
 20
-192.40271
 30
0.0
 11
200.000256
 21
-195.791586
 31
0.0
  0
LINE
  5
5E1
100
AcDbEntity
  8
2
370
    50
100
AcDbLine
 10
186.747365
 20
-189.345462
 30
0.0
 11
200.147365
 21
-192.734338
 31
0.0
  0
LINE
  5
5E2
100
AcDbEntity
  8
2
370
    50
100
AcDbLine
 10
200.37381
 20
-195.500743
 30
0.0
 11
200.37381
 21
-193.025181
 31
0.0
  0
LINE
  5
5E3
100
AcDbEntity
  8
2
370
    50
100
AcDbLine
 10
186.37381
 20
-192.111866
 30
0.0
 11
186.37381
 21
-189.636305
 31
0.0
  0
LINE
  5
5E4
100
AcDbEntity
  8
2
370
    50
100
AcDbLine
 10
199.27381
 20
-197.670835
 30
0.0
 11
199.27381
 21
-195.607867
 31
0.0
  0
LINE
  5
5E5
100
AcDbEntity
  8
2
370
    50
100
AcDbLine
 10
187.47381
 20
-194.6866
 30
0.0
 11
187.47381
 21
-192.623633
 31
0.0
  0
ARC
  5
5E6
100
AcDbEntity
  8
2
370
    50
100
AcDbCircle
 10
186.67381
 20
-192.111866
 30
0.0
 40
0.3
100
AcDbArc
 50
180.0
 51
255.807415
  0
ARC
  5
5E7
100
AcDbEntity
  8
2
370
    50
100
AcDbCircle
 10
186.67381
 20
-189.636305
 30
0.0
 40
0.3
100
AcDbArc
 50
75.807415
 51
180.0
  0
ARC
  5
5E8
100
AcDbEntity
  8
2
370
    50
100
AcDbCircle
 10
200.07381
 20
-193.025181
 30
0.0
 40
0.3
100
AcDbArc
 50
0.0
 51
75.807415
  0
ARC
  5
5E9
100
AcDbEntity
  8
2
370
    50
100
AcDbCircle
 10
200.07381
 20
-195.500743
 30
0.0
 40
0.3
100
AcDbArc
 50
255.807415
 51
0.0
  0
LWPOLYLINE
  5
5EA
100
AcDbEntity
  8
2
370
    50
100
AcDbPolyline
 90
       26
 70
     0
 10
186.37381
 20
-170.228595
 10
186.80074
 20
-170.069495
 10
187.227076
 20
-169.918617
 10
187.652515
 20
-169.780203
 10
188.920381
 20
-169.482157
 10
189.339168
 20
-169.43601
 10
189.755528
 20
-169.423533
 10
190.169155
 20
-169.448967
 10
190.531314
 20
-169.505076
 10
190.891372
 20
-169.590103
 10
191.249586
 20
-169.700215
 10
192.315754
 20
-170.142738
 10
192.669181
 20
-170.314866
 10
193.022059
 20
-170.492916
 10
193.374645
 20
-170.673057
 10
193.846408
 20
-170.911584
 10
194.31869
 20
-171.143153
 10
194.792067
 20
-171.363926
 10
196.224539
 20
-171.923089
 10
196.708065
 20
-172.062296
 10
197.195571
 20
-172.171516
 10
197.687634
 20
-172.24691
 10
198.319555
 20
-172.290783
 10
198.958444
 20
-172.283527
 10
199.602992
 20
-172.234751
 10
200.251888
 20
-172.154065
  0
LWPOLYLINE
  5
606
100
AcDbEntity
  8
2
370
    50
100
AcDbPolyline
 90
       26
 70
     0
 10
186.37381
 20
-176.228595
 10
186.80074
 20
-176.069495
 10
187.227076
 20
-175.918617
 10
187.652515
 20
-175.780203
 10
188.920381
 20
-175.482157
 10
189.339168
 20
-175.43601
 10
189.755528
 20
-175.423533
 10
190.169155
 20
-175.448967
 10
190.531314
 20
-175.505076
 10
190.891372
 20
-175.590103
 10
191.249586
 20
-175.700215
 10
192.315754
 20
-176.142738
 10
192.669181
 20
-176.314866
 10
193.022059
 20
-176.492916
 10
193.374645
 20
-176.673057
 10
193.846408
 20
-176.911584
 10
194.31869
 20
-177.143153
 10
194.792067
 20
-177.363926
 10
196.224539
 20
-177.923089
 10
196.708065
 20
-178.062296
 10
197.195571
 20
-178.171516
 10
197.687634
 20
-178.24691
 10
198.349327
 20
-178.291509
 10
199.018589
 20
-178.280572
 10
199.693918
 20
-178.225122
 10
200.37381
 20
-178.136182
  0
LINE
  5
622
100
AcDbEntity
  8
2
370
    50
100
AcDbLine
 10
187.47381
 20
-179.214342
 30
0.0
 11
187.47381
 21
-177.151374
 31
0.0
  0
LINE
  5
623
100
AcDbEntity
  8
2
370
    50
100
AcDbLine
 10
199.27381
 20
-182.198576
 30
0.0
 11
199.27381
 21
-180.135608
 31
0.0
  0
LINE
  5
624
100
AcDbEntity
  8
2
370
    50
100
AcDbLine
 10
186.600256
 20
-176.930451
 30
0.0
 11
200.000256
 21
-180.319327
 31
0.0
  0
ARC
  5
625
100
AcDbEntity
  8
2
370
    50
100
AcDbCircle
 10
200.07381
 20
-180.028484
 30
0.0
 40
0.3
100
AcDbArc
 50
255.807415
 51
0.0
  0
ARC
  5
626
100
AcDbEntity
  8
2
370
    50
100
AcDbCircle
 10
186.67381
 20
-176.639608
 30
0.0
 40
0.3
100
AcDbArc
 50
180.0
 51
255.807415
  0
LINE
  5
627
100
AcDbEntity
  8
2
370
    50
100
AcDbLine
 10
186.37381
 20
-176.639608
 30
0.0
 11
186.37381
 21
-176.228595
 31
0.0
  0
LINE
  5
628
100
AcDbEntity
  8
2
370
    50
100
AcDbLine
 10
200.37381
 20
-180.028484
 30
0.0
 11
200.37381
 21
-178.136182
 31
0.0
  0
LINE
  5
629
100
AcDbEntity
  8
2
370
    50
100
AcDbLine
 10
179.052318
 20
-180.354395
 30
0.0
 11
208.13663
 21
-187.709853
 31
0.0
  0
LINE
  5
62A
100
AcDbEntity
  8
2
370
    50
100
AcDbLine
 10
178.61099
 20
-182.099454
 30
0.0
 11
207.695303
 21
-189.454911
 31
0.0
  0
LINE
  5
62B
100
AcDbEntity
  8
2
370
    50
100
AcDbLine
 10
179.052318
 20
-180.354395
 30
0.0
 11
178.61099
 21
-182.099454
 31
0.0
  0
LINE
  5
62C
100
AcDbEntity
  8
2
370
    50
100
AcDbLine
 10
208.13663
 20
-187.709853
 30
0.0
 11
207.695303
 21
-189.454911
 31
0.0
  0
ARC
  5
62D
100
AcDbEntity
  8
2
370
    25
  6
CENTER
100
AcDbCircle
 10
-221.154246
 20
-196.749056
 30
0.0
 40
10.0
100
AcDbArc
 50
180.0
 51
270.0
  0
LINE
  5
62E
100
AcDbEntity
  8
2
370
    25
  6
CENTER
100
AcDbLine
 10
144.784337
 20
-133.782654
 30
0.0
 11
144.784337
 21
-160.98204
 31
0.0
  0
LINE
  5
62F
100
AcDbEntity
  8
2
370
    25
  6
CENTER
100
AcDbLine
 10
90.141425
 20
-74.121025
 30
0.0
 11
144.784337
 21
-160.98204
 31
0.0
  0
TEXT
  5
630
100
AcDbEntity
  8
3
370
    50
100
AcDbText
 10
219.638214
 20
-271.313813
 30
0.0
 40
7.0
  1
外観寸法図
 72
     5
 11
253.238214
 21
-271.313813
 31
0.0
100
AcDbText
  0
POINT
  5
631
100
AcDbEntity
  8
3
370
    50
100
AcDbPoint
 10
384.001978
 20
276.500324
 30
0.0
  0
TEXT
  5
632
100
AcDbEntity
  8
3
370
    50
100
AcDbText
 10
279.629272
 20
-238.157929
 30
0.0
 40
6.0
  1
１　２
 72
     5
 11
296.429272
 21
-238.157929
 31
0.0
100
AcDbText
  0
TEXT
  5
633
100
AcDbEntity
  8
3
370
    50
100
AcDbText
 10
53.368427
 20
-226.265015
 30
0.0
 40
7.0
  1
台付シングルレバー湯水混合水栓（シャワ）
 41
0.9
 72
     5
 11
178.108427
 21
-226.265015
 31
0.0
100
AcDbText
  0
POINT
  5
634
100
AcDbEntity
  8
3
370
    50
100
AcDbPoint
 10
-15.874583
 20
89.588084
 30
0.0
  0
DIMENSION
  5
635
100
AcDbEntity
  8
3
370
    25
100
AcDbDimension
  2
*D0
 10
-15.874583
 20
89.58418
 30
0.0
 11
-17.396379
 21
53.653357
 31
0.0
 70
     2
 71
     0
 72
     0
 41
0.0
 42
0.0
  3
Standard
100
AcDb2LineAngularDimension
 13
-15.875193
 23
89.584228
 33
0.0
 14
-15.874583
 24
89.588084
 34
0.0
 15
-15.874583
 25
89.588084
 35
0.0
 16
-18.937793
 26
50.666305
 36
0.0
1001
ACAD
1000
DSTYLE
1002
{
1070
   275
1070
     0
1070
   179
1070
     0
1002
}
  0
DIMENSION
  5
636
100
AcDbEntity
  8
3
370
    25
100
AcDbDimension
  2
*D1
 10
-41.232471
 20
89.588084
 30
0.0
 11
-49.232471
 21
49.657079
 31
0.0
 71
     0
 72
     0
 41
0.0
 42
0.0
  3
Standard
100
AcDbAlignedDimension
 13
113.784702
 23
9.726075
 33
0.0
 14
-15.874583
 24
89.588084
 34
0.0
 50
90.0
100
AcDbRotatedDimension
  0
DIMENSION
  5
637
100
AcDbEntity
  8
3
370
    25
100
AcDbDimension
  2
*D2
 10
-57.844166
 20
151.11551
 30
0.0
 11
-69.344166
 21
76.920792
 31
0.0
 71
     0
 72
     0
 41
0.0
 42
0.0
  3
Standard
100
AcDbAlignedDimension
 13
113.784702
 23
9.726075
 33
0.0
 14
-20.807851
 24
151.11551
 34
0.0
 50
90.0
100
AcDbRotatedDimension
  0
ARC
  5
638
100
AcDbEntity
  8
3
370
    50
100
AcDbCircle
 10
118.501661
 20
129.308185
 30
0.0
 40
7.614286
100
AcDbArc
 50
144.699752
 51
215.300248
  0
DIMENSION
  5
639
100
AcDbEntity
  8
3
370
    25
100
AcDbDimension
  2
*D3
 10
-75.141331
 20
180.847672
 30
0.0
 11
-86.641331
 21
91.786873
 31
0.0
 71
     0
 72
     0
 41
0.0
 42
0.0
  3
Standard
100
AcDbAlignedDimension
 13
113.784702
 23
9.726075
 33
0.0
 14
57.382833
 24
180.847672
 34
0.0
 50
90.0
100
AcDbRotatedDimension
  0
DIMENSION
  5
63A
100
AcDbEntity
  8
3
370
    25
100
AcDbDimension
  2
*D4
 10
-92.96265
 20
213.657263
 30
0.0
 11
-104.46265
 21
108.191669
 31
0.0
 71
     0
 72
     0
 41
0.0
 42
0.0
  3
Standard
100
AcDbAlignedDimension
 13
113.784702
 23
9.726075
 33
0.0
 14
97.466981
 24
213.657263
 34
0.0
 50
90.0
100
AcDbRotatedDimension
  0
DIMENSION
  5
63B
100
AcDbEntity
  8
3
370
    25
100
AcDbDimension
  2
*D5
 10
60.599446
 20
172.735676
 30
0.0
 11
67.800384
 21
211.935078
 31
0.0
 70
     2
 71
     0
 72
     0
 41
0.0
 42
0.0
  3
Standard
100
AcDb2LineAngularDimension
 13
109.653016
 23
192.64234
 33
0.0
 14
155.302361
 24
139.697541
 34
0.0
 15
155.302361
 25
139.697541
 35
0.0
 16
61.893677
 26
203.254017
 36
0.0
1001
ACAD
1000
DSTYLE
1002
{
1070
   275
1070
     0
1070
   179
1070
     0
1002
}
  0
POINT
  5
63C
100
AcDbEntity
  8
3
370
    50
100
AcDbPoint
 10
138.784702
 20
9.726075
 30
0.0
  0
DIMENSION
  5
63D
100
AcDbEntity
  8
3
370
    25
100
AcDbDimension
  2
*D6
 10
138.784702
 20
-2.906529
 30
0.0
 11
61.45506
 21
1.593471
 31
0.0
 71
     0
 72
     0
 41
0.0
 42
0.0
  3
Standard
100
AcDbAlignedDimension
 13
-15.874583
 23
89.588084
 33
0.0
 14
138.784702
 24
9.726075
 34
0.0
100
AcDbRotatedDimension
  0
TEXT
  5
63E
100
AcDbEntity
  8
3
370
    50
100
AcDbText
 10
62.9452
 20
185.214309
 30
0.0
 40
7.0
  1
止水
 72
     5
 11
75.5452
 21
185.214309
 31
0.0
100
AcDbText
  0
TEXT
  5
63F
100
AcDbEntity
  8
3
370
    50
100
AcDbText
 10
110.270527
 20
213.788497
 30
0.0
 40
7.0
  1
吐水
 72
     5
 11
122.870527
 21
213.788497
 31
0.0
100
AcDbText
  0
TEXT
  5
640
100
AcDbEntity
  8
3
370
    50
100
AcDbText
 10
-295.050724
 20
-21.02435
 30
0.0
 40
7.0
  1
ＭＡＸ　３０
 50
90.0
 72
     5
 11
-295.050724
 21
19.57565
 31
0.0
100
AcDbText
  0
DIMENSION
  5
641
100
AcDbEntity
  8
3
370
    25
100
AcDbDimension
  2
*D7
 10
-294.050724
 20
9.726075
 30
0.0
 11
-296.550724
 21
-0.02435
 31
0.0
 71
     0
 72
     0
 41
0.0
 42
0.0
  3
Standard
100
AcDbAlignedDimension
 13
-256.154914
 23
-9.774775
 33
0.0
 14
-256.154246
 24
9.726075
 34
0.0
 50
90.0
100
AcDbRotatedDimension
  0
DIMENSION
  5
642
100
AcDbEntity
  8
3
370
    25
100
AcDbDimension
  2
*D8
 10
-257.654246
 20
41.576083
 30
0.0
 11
-277.319004
 21
46.076083
 31
0.0
 70
     1
 71
     0
 72
     0
 41
0.0
 42
0.0
  3
Standard
100
AcDbAlignedDimension
 13
-204.654246
 23
41.576083
 33
0.0
 14
-257.654246
 24
41.576083
 34
0.0
  0
TEXT
  5
643
100
AcDbEntity
  8
3
370
    50
100
AcDbText
 10
-168.980457
 20
-18.941701
 30
0.0
 40
7.0
  1
Ｗ３５山１６
 72
     5
 11
-128.380457
 21
-18.941701
 31
0.0
100
AcDbText
  0
TEXT
  5
644
100
AcDbEntity
  8
3
370
    50
100
AcDbText
 10
-180.980457
 20
-26.941701
 30
0.0
 40
7.0
  1
（取付穴φ３７±１）
 72
     5
 11
-112.380457
 21
-26.941701
 31
0.0
100
AcDbText
  0
LWPOLYLINE
  5
645
100
AcDbEntity
  8
3
370
    25
100
AcDbPolyline
 90
        3
 70
     0
 10
-213.654246
 20
-1.30407
 10
-181.460041
 20
-19.279592
 10
-114.058918
 20
-19.279592
  0
LINE
  5
64A
100
AcDbEntity
  8
3
370
    25
100
AcDbLine
 10
-210.280766
 20
-3.187641
 30
0.0
 11
-209.776065
 21
-2.28372
 31
0.0
  0
LINE
  5
64B
100
AcDbEntity
  8
3
370
    25
100
AcDbLine
 10
-209.776065
 20
-2.28372
 30
0.0
 11
-213.654246
 21
-1.30407
 31
0.0
  0
LINE
  5
64C
100
AcDbEntity
  8
3
370
    25
100
AcDbLine
 10
-213.654246
 20
-1.30407
 30
0.0
 11
-210.785467
 21
-4.091562
 31
0.0
  0
LINE
  5
64D
100
AcDbEntity
  8
3
370
    25
100
AcDbLine
 10
-210.785467
 20
-4.091562
 30
0.0
 11
-210.280766
 21
-3.187641
 31
0.0
  0
TEXT
  5
64E
100
AcDbEntity
  8
3
370
    50
100
AcDbText
 10
-182.394016
 20
-45.317262
 30
0.0
 40
7.0
  1
４６六角
 72
     5
 11
-155.794016
 21
-45.317262
 31
0.0
100
AcDbText
  0
LWPOLYLINE
  5
64F
100
AcDbEntity
  8
3
370
    25
100
AcDbPolyline
 90
        3
 70
     0
 10
-208.154914
 20
-19.651525
 10
-182.092106
 20
-46.827024
 10
-150.088779
 20
-46.827024
  0
LINE
  5
654
100
AcDbEntity
  8
3
370
    25
100
AcDbLine
 10
-205.480548
 20
-22.440067
 30
0.0
 11
-204.73336
 21
-21.723472
 31
0.0
  0
LINE
  5
655
100
AcDbEntity
  8
3
370
    25
100
AcDbLine
 10
-204.73336
 20
-21.723472
 30
0.0
 11
-208.154914
 21
-19.651525
 31
0.0
  0
LINE
  5
656
100
AcDbEntity
  8
3
370
    25
100
AcDbLine
 10
-208.154914
 20
-19.651525
 30
0.0
 11
-206.227735
 21
-23.156661
 31
0.0
  0
LINE
  5
657
100
AcDbEntity
  8
3
370
    25
100
AcDbLine
 10
-206.227735
 20
-23.156661
 30
0.0
 11
-205.480548
 21
-22.440067
 31
0.0
  0
LINE
  5
658
100
AcDbEntity
  8
3
370
    50
100
AcDbLine
 10
-235.916905
 20
138.261249
 30
0.0
 11
-235.916905
 21
137.161249
 31
0.0
  0
LINE
  5
659
100
AcDbEntity
  8
3
370
    50
100
AcDbLine
 10
-240.416905
 20
138.261249
 30
0.0
 11
-240.416905
 21
137.161249
 31
0.0
  0
LINE
  5
65A
100
AcDbEntity
  8
3
370
    50
100
AcDbLine
 10
-236.316905
 20
138.461249
 30
0.0
 11
-240.016905
 21
138.461249
 31
0.0
  0
LINE
  5
65B
100
AcDbEntity
  8
3
370
    50
100
AcDbLine
 10
-236.316905
 20
136.961249
 30
0.0
 11
-240.016905
 21
136.961249
 31
0.0
  0
ARC
  5
65C
100
AcDbEntity
  8
3
370
    50
100
AcDbCircle
 10
-236.316905
 20
137.961249
 30
0.0
 40
0.5
100
AcDbArc
 50
36.869898
 51
90.0
  0
ARC
  5
65D
100
AcDbEntity
  8
3
370
    50
100
AcDbCircle
 10
-240.016905
 20
137.961249
 30
0.0
 40
0.5
100
AcDbArc
 50
90.0
 51
143.130102
  0
ARC
  5
65E
100
AcDbEntity
  8
3
370
    50
100
AcDbCircle
 10
-236.316905
 20
137.461249
 30
0.0
 40
0.5
100
AcDbArc
 50
270.0
 51
323.130102
  0
ARC
  5
65F
100
AcDbEntity
  8
3
370
    50
100
AcDbCircle
 10
-240.016905
 20
137.461249
 30
0.0
 40
0.5
100
AcDbArc
 50
216.869898
 51
270.0
  0
ARC
  5
660
100
AcDbEntity
  8
3
370
    50
100
AcDbCircle
 10
-238.166905
 20
134.961249
 30
0.0
 40
0.5
100
AcDbArc
 50
0.0
 51
180.0
  0
ARC
  5
661
100
AcDbEntity
  8
3
370
    50
100
AcDbCircle
 10
-238.166905
 20
131.961249
 30
0.0
 40
0.5
100
AcDbArc
 50
180.0
 51
360.0
  0
ARC
  5
662
100
AcDbEntity
  8
3
370
    50
100
AcDbCircle
 10
-235.863057
 20
131.961249
 30
0.0
 40
0.5
100
AcDbArc
 50
195.0
 51
15.0
  0
ARC
  5
663
100
AcDbEntity
  8
3
370
    50
100
AcDbCircle
 10
-240.470752
 20
131.961249
 30
0.0
 40
0.5
100
AcDbArc
 50
165.0
 51
345.0
  0
ARC
  5
664
100
AcDbEntity
  8
3
370
    50
100
AcDbCircle
 10
-236.666905
 20
134.961249
 30
0.0
 40
0.5
100
AcDbArc
 50
15.0
 51
195.0
  0
ARC
  5
665
100
AcDbEntity
  8
3
370
    50
100
AcDbCircle
 10
-239.666905
 20
134.961249
 30
0.0
 40
0.5
100
AcDbArc
 50
345.0
 51
165.0
  0
ARC
  5
666
100
AcDbEntity
  8
3
370
    50
100
AcDbCircle
 10
-238.166905
 20
132.461249
 30
0.0
 40
0.5
100
AcDbArc
 50
0.0
 51
180.0
  0
ARC
  5
667
100
AcDbEntity
  8
3
370
    50
100
AcDbCircle
 10
-238.166905
 20
134.461249
 30
0.0
 40
0.5
100
AcDbArc
 50
180.0
 51
360.0
  0
ARC
  5
668
100
AcDbEntity
  8
3
370
    50
100
AcDbCircle
 10
-239.796314
 20
134.478286
 30
0.0
 40
0.5
100
AcDbArc
 50
165.0
 51
345.0
  0
ARC
  5
669
100
AcDbEntity
  8
3
370
    50
100
AcDbCircle
 10
-240.341343
 20
132.444212
 30
0.0
 40
0.5
100
AcDbArc
 50
345.0
 51
165.0
  0
ARC
  5
66A
100
AcDbEntity
  8
3
370
    50
100
AcDbCircle
 10
-235.992467
 20
132.444212
 30
0.0
 40
0.5
100
AcDbArc
 50
15.0
 51
195.0
  0
ARC
  5
66B
100
AcDbEntity
  8
3
370
    50
100
AcDbCircle
 10
-236.537495
 20
134.478286
 30
0.0
 40
0.5
100
AcDbArc
 50
195.0
 51
15.0
  0
LINE
  5
66C
100
AcDbEntity
  8
3
370
    50
100
AcDbLine
 10
-240.953715
 20
132.090658
 30
0.0
 11
-240.824306
 21
132.573621
 31
0.0
  0
LINE
  5
66D
100
AcDbEntity
  8
3
370
    50
100
AcDbLine
 10
-240.279277
 20
134.607696
 30
0.0
 11
-240.149868
 21
135.090658
 31
0.0
  0
LINE
  5
66E
100
AcDbEntity
  8
3
370
    50
100
AcDbLine
 10
-239.98779
 20
131.831839
 30
0.0
 11
-239.85838
 21
132.314802
 31
0.0
  0
LINE
  5
66F
100
AcDbEntity
  8
3
370
    50
100
AcDbLine
 10
-239.313351
 20
134.348876
 30
0.0
 11
-239.183942
 21
134.831839
 31
0.0
  0
LINE
  5
670
100
AcDbEntity
  8
3
370
    50
100
AcDbLine
 10
-238.666905
 20
131.961249
 30
0.0
 11
-238.666905
 21
132.461249
 31
0.0
  0
LINE
  5
671
100
AcDbEntity
  8
3
370
    50
100
AcDbLine
 10
-238.666905
 20
134.461249
 30
0.0
 11
-238.666905
 21
134.961249
 31
0.0
  0
LINE
  5
672
100
AcDbEntity
  8
3
370
    50
100
AcDbLine
 10
-237.666905
 20
131.961249
 30
0.0
 11
-237.666905
 21
132.461249
 31
0.0
  0
LINE
  5
673
100
AcDbEntity
  8
3
370
    50
100
AcDbLine
 10
-237.666905
 20
134.461249
 30
0.0
 11
-237.666905
 21
134.961249
 31
0.0
  0
LINE
  5
674
100
AcDbEntity
  8
3
370
    50
100
AcDbLine
 10
-237.149868
 20
134.831839
 30
0.0
 11
-237.020458
 21
134.348876
 31
0.0
  0
LINE
  5
675
100
AcDbEntity
  8
3
370
    50
100
AcDbLine
 10
-236.47543
 20
132.314802
 30
0.0
 11
-236.34602
 21
131.831839
 31
0.0
  0
LINE
  5
676
100
AcDbEntity
  8
3
370
    50
100
AcDbLine
 10
-236.183942
 20
135.090658
 30
0.0
 11
-236.054532
 21
134.607696
 31
0.0
  0
LINE
  5
677
100
AcDbEntity
  8
3
370
    50
100
AcDbLine
 10
-235.509504
 20
132.573621
 30
0.0
 11
-235.380094
 21
132.090658
 31
0.0
  0
LINE
  5
678
100
AcDbEntity
  8
3
370
    50
100
AcDbLine
 10
-226.416905
 20
138.261249
 30
0.0
 11
-226.416905
 21
137.161249
 31
0.0
  0
LINE
  5
679
100
AcDbEntity
  8
3
370
    50
100
AcDbLine
 10
-221.916905
 20
138.261249
 30
0.0
 11
-221.916905
 21
137.161249
 31
0.0
  0
LINE
  5
67A
100
AcDbEntity
  8
3
370
    50
100
AcDbLine
 10
-222.316905
 20
138.461249
 30
0.0
 11
-226.016905
 21
138.461249
 31
0.0
  0
LINE
  5
67B
100
AcDbEntity
  8
3
370
    50
100
AcDbLine
 10
-222.316905
 20
136.961249
 30
0.0
 11
-226.016905
 21
136.961249
 31
0.0
  0
LINE
  5
67C
100
AcDbEntity
  8
3
370
    50
100
AcDbLine
 10
-223.916905
 20
134.961249
 30
0.0
 11
-223.916905
 21
131.961249
 31
0.0
  0
LINE
  5
67D
100
AcDbEntity
  8
3
370
    50
100
AcDbLine
 10
-224.416905
 20
134.961249
 30
0.0
 11
-224.416905
 21
131.961249
 31
0.0
  0
LINE
  5
67E
100
AcDbEntity
  8
3
370
    50
100
AcDbLine
 10
-222.916905
 20
134.961249
 30
0.0
 11
-222.916905
 21
131.961249
 31
0.0
  0
LINE
  5
67F
100
AcDbEntity
  8
3
370
    50
100
AcDbLine
 10
-225.416905
 20
134.961249
 30
0.0
 11
-225.416905
 21
131.961249
 31
0.0
  0
ARC
  5
680
100
AcDbEntity
  8
3
370
    50
100
AcDbCircle
 10
-223.416905
 20
134.961249
 30
0.0
 40
0.5
100
AcDbArc
 50
0.0
 51
180.0
  0
ARC
  5
681
100
AcDbEntity
  8
3
370
    50
100
AcDbCircle
 10
-224.916905
 20
134.961249
 30
0.0
 40
0.5
100
AcDbArc
 50
0.0
 51
180.0
  0
ARC
  5
682
100
AcDbEntity
  8
3
370
    50
100
AcDbCircle
 10
-224.916905
 20
131.961249
 30
0.0
 40
0.5
100
AcDbArc
 50
180.0
 51
360.0
  0
ARC
  5
683
100
AcDbEntity
  8
3
370
    50
100
AcDbCircle
 10
-223.416905
 20
131.961249
 30
0.0
 40
0.5
100
AcDbArc
 50
180.0
 51
360.0
  0
ARC
  5
684
100
AcDbEntity
  8
3
370
    50
100
AcDbCircle
 10
-226.016905
 20
137.461249
 30
0.0
 40
0.5
100
AcDbArc
 50
216.869898
 51
270.0
  0
ARC
  5
685
100
AcDbEntity
  8
3
370
    50
100
AcDbCircle
 10
-226.016905
 20
137.961249
 30
0.0
 40
0.5
100
AcDbArc
 50
90.0
 51
143.130102
  0
ARC
  5
686
100
AcDbEntity
  8
3
370
    50
100
AcDbCircle
 10
-222.316905
 20
137.961249
 30
0.0
 40
0.5
100
AcDbArc
 50
36.869898
 51
90.0
  0
ARC
  5
687
100
AcDbEntity
  8
3
370
    50
100
AcDbCircle
 10
-222.316905
 20
137.461249
 30
0.0
 40
0.5
100
AcDbArc
 50
270.0
 51
323.130102
  0
LINE
  5
688
100
AcDbEntity
  8
3
370
    25
100
AcDbLine
 10
-239.666905
 20
136.961249
 30
0.0
 11
-238.166905
 21
138.461249
 31
0.0
  0
LINE
  5
689
100
AcDbEntity
  8
3
370
    25
100
AcDbLine
 10
-238.818377
 20
136.961249
 30
0.0
 11
-237.318377
 21
138.461249
 31
0.0
  0
LINE
  5
68A
100
AcDbEntity
  8
3
370
    25
100
AcDbLine
 10
-237.969849
 20
136.961249
 30
0.0
 11
-236.469849
 21
138.461249
 31
0.0
  0
LINE
  5
68B
100
AcDbEntity
  8
3
370
    25
100
AcDbLine
 10
-237.12132
 20
136.961249
 30
0.0
 11
-235.916905
 21
138.165665
 31
0.0
  0
LINE
  5
68C
100
AcDbEntity
  8
3
370
    25
100
AcDbLine
 10
-236.270648
 20
136.963393
 30
0.0
 11
-235.916905
 21
137.317136
 31
0.0
  0
LINE
  5
68D
100
AcDbEntity
  8
3
370
    25
100
AcDbLine
 10
-240.369722
 20
137.10696
 30
0.0
 11
-239.015433
 21
138.461249
 31
0.0
  0
LINE
  5
68E
100
AcDbEntity
  8
3
370
    25
100
AcDbLine
 10
-240.416905
 20
137.908305
 30
0.0
 11
-239.863961
 21
138.461249
 31
0.0
  0
LINE
  5
68F
100
AcDbEntity
  8
3
370
    25
100
AcDbLine
 10
-240.244602
 20
134.737105
 30
0.0
 11
-239.537495
 21
135.444212
 31
0.0
  0
LINE
  5
690
100
AcDbEntity
  8
3
370
    25
100
AcDbLine
 10
-240.072014
 20
134.061165
 30
0.0
 11
-239.16693
 21
134.966249
 31
0.0
  0
HATCH
  5
691
100
AcDbEntity
  8
3
370
    25
100
AcDbHatch
 10
0.0
 20
0.0
 30
0.0
210
0.0
220
0.0
230
1.0
  2
_U
 70
     0
 71
     1
 91
        1
 92
        1
 93
        4
 72
     2
 10
-240.34134299999999
 20
132.44421199999999
 40
0.5
 50
345.0
 51
165.0
 73
     1
 72
     1
 10
-240.82430600000001
 20
132.573621
 11
-240.95371499999999
 21
132.09065799999999
 72
     2
 10
-240.470752
 20
131.96124900000001
 40
0.5
 50
165.0
 51
345.0
 73
     1
 72
     1
 10
-239.98778999999999
 20
131.831839
 11
-239.85838000000001
 21
132.31480199999999
 97
        4
330
0
330
0
330
0
330
0
 75
     0
 76
     0
 52
45.0
 41
1.0
 77
     0
 78
     1
 53
45.0
 43
0.0
 44
0.0
 45
-0.424264
 46
0.424264
 79
     0
 98
        1
 10
0.0
 20
0.0
  0
LINE
  5
692
100
AcDbEntity
  8
3
370
    25
100
AcDbLine
 10
-238.666905
 20
132.461249
 30
0.0
 11
-238.166905
 21
132.961249
 31
0.0
  0
LINE
  5
693
100
AcDbEntity
  8
3
370
    25
100
AcDbLine
 10
-238.587987
 20
131.691639
 30
0.0
 11
-237.685018
 21
132.594608
 31
0.0
  0
LINE
  5
694
100
AcDbEntity
  8
3
370
    25
100
AcDbLine
 10
-237.877775
 20
131.553323
 30
0.0
 11
-237.758979
 21
131.672119
 31
0.0
  0
HATCH
  5
695
100
AcDbEntity
  8
3
370
    25
100
AcDbHatch
 10
0.0
 20
0.0
 30
0.0
210
0.0
220
0.0
230
1.0
  2
_U
 70
     0
 71
     1
 91
        1
 92
        1
 93
        4
 72
     2
 10
-238.16690500000001
 20
134.46124900000001
 40
0.5
 50
180.0
 51
0.0
 73
     1
 72
     1
 10
-237.66690500000001
 20
134.46124900000001
 11
-237.66690500000001
 21
134.96124900000001
 72
     2
 10
-238.16690500000001
 20
134.96124900000001
 40
0.5
 50
0.0
 51
180.0
 73
     1
 72
     1
 10
-238.66690500000001
 20
134.96124900000001
 11
-238.66690500000001
 21
134.46124900000001
 97
        4
330
0
330
0
330
0
330
0
 75
     0
 76
     0
 52
45.0
 41
1.0
 77
     0
 78
     1
 53
45.0
 43
0.0
 44
0.0
 45
-0.424264
 46
0.424264
 79
     0
 98
        1
 10
0.0
 20
0.0
  0
HATCH
  5
696
100
AcDbEntity
  8
3
370
    25
100
AcDbHatch
 10
0.0
 20
0.0
 30
0.0
210
0.0
220
0.0
230
1.0
  2
_U
 70
     0
 71
     1
 91
        1
 92
        1
 93
        4
 72
     2
 10
-236.53749500000001
 20
134.478286
 40
0.5
 50
195.0
 51
15.0
 73
     1
 72
     1
 10
-236.05453199999999
 20
134.607696
 11
-236.183942
 21
135.09065799999999
 72
     2
 10
-236.66690500000001
 20
134.96124900000001
 40
0.5
 50
15.0
 51
195.0
 73
     1
 72
     1
 10
-237.149868
 20
134.831839
 11
-237.02045799999999
 21
134.34887599999999
 97
        4
330
0
330
0
330
0
330
0
 75
     0
 76
     0
 52
45.0
 41
1.0
 77
     0
 78
     1
 53
45.0
 43
0.0
 44
0.0
 45
-0.424264
 46
0.424264
 79
     0
 98
        1
 10
0.0
 20
0.0
  0
LINE
  5
697
100
AcDbEntity
  8
3
370
    25
100
AcDbLine
 10
-236.47543
 20
132.573621
 30
0.0
 11
-236.121876
 21
132.927175
 31
0.0
  0
LINE
  5
698
100
AcDbEntity
  8
3
370
    25
100
AcDbLine
 10
-236.35081
 20
131.849713
 30
0.0
 11
-235.541136
 21
132.659387
 31
0.0
  0
LINE
  5
699
100
AcDbEntity
  8
3
370
    25
100
AcDbLine
 10
-235.890018
 20
131.461976
 30
0.0
 11
-235.363785
 21
131.98821
 31
0.0
  0
LINE
  5
69A
100
AcDbEntity
  8
3
370
    25
100
AcDbLine
 10
-224.416905
 20
134.461249
 30
0.0
 11
-225.416905
 21
133.461249
 31
0.0
  0
LINE
  5
69B
100
AcDbEntity
  8
3
370
    25
100
AcDbLine
 10
-224.416905
 20
133.612721
 30
0.0
 11
-225.416905
 21
132.612721
 31
0.0
  0
LINE
  5
69C
100
AcDbEntity
  8
3
370
    25
100
AcDbLine
 10
-225.387839
 20
131.793258
 30
0.0
 11
-224.416905
 21
132.764193
 31
0.0
  0
LINE
  5
69D
100
AcDbEntity
  8
3
370
    25
100
AcDbLine
 10
-224.869022
 20
131.463547
 30
0.0
 11
-224.419203
 21
131.913367
 31
0.0
  0
LINE
  5
69E
100
AcDbEntity
  8
3
370
    25
100
AcDbLine
 10
-224.495823
 20
135.230859
 30
0.0
 11
-225.416905
 21
134.309777
 31
0.0
  0
LINE
  5
69F
100
AcDbEntity
  8
3
370
    25
100
AcDbLine
 10
-225.324831
 20
135.250379
 30
0.0
 11
-225.206035
 21
135.369175
 31
0.0
  0
LINE
  5
6A0
100
AcDbEntity
  8
3
370
    25
100
AcDbLine
 10
-222.916905
 20
134.461249
 30
0.0
 11
-223.916905
 21
133.461249
 31
0.0
  0
LINE
  5
6A1
100
AcDbEntity
  8
3
370
    25
100
AcDbLine
 10
-222.916905
 20
133.612721
 30
0.0
 11
-223.916905
 21
132.612721
 31
0.0
  0
LINE
  5
6A2
100
AcDbEntity
  8
3
370
    25
100
AcDbLine
 10
-223.887839
 20
131.793258
 30
0.0
 11
-222.916905
 21
132.764193
 31
0.0
  0
LINE
  5
6A3
100
AcDbEntity
  8
3
370
    25
100
AcDbLine
 10
-223.369022
 20
131.463547
 30
0.0
 11
-222.919203
 21
131.913367
 31
0.0
  0
LINE
  5
6A4
100
AcDbEntity
  8
3
370
    25
100
AcDbLine
 10
-222.995823
 20
135.230859
 30
0.0
 11
-223.916905
 21
134.309777
 31
0.0
  0
LINE
  5
6A5
100
AcDbEntity
  8
3
370
    25
100
AcDbLine
 10
-223.824831
 20
135.250379
 30
0.0
 11
-223.706035
 21
135.369175
 31
0.0
  0
HATCH
  5
6A6
100
AcDbEntity
  8
3
370
    25
100
AcDbHatch
 10
0.0
 20
0.0
 30
0.0
210
0.0
220
0.0
230
1.0
  2
_U
 70
     0
 71
     1
 91
        1
 92
        1
 93
        8
 72
     1
 10
-226.01690500000001
 20
136.96124900000001
 11
-222.31690499999999
 21
136.96124900000001
 72
     2
 10
-222.31690499999999
 20
137.46124900000001
 40
0.5
 50
270.0
 51
323.130102
 73
     1
 72
     1
 10
-221.91690500000001
 20
137.161249
 11
-221.91690500000001
 21
138.26124899999999
 72
     2
 10
-222.31690499999999
 20
137.96124900000001
 40
0.5
 50
36.869898
 51
90.0
 73
     1
 72
     1
 10
-222.31690499999999
 20
138.46124900000001
 11
-226.01690500000001
 21
138.46124900000001
 72
     2
 10
-226.01690500000001
 20
137.96124900000001
 40
0.5
 50
90.0
 51
143.130102
 73
     1
 72
     1
 10
-226.41690500000001
 20
138.26124899999999
 11
-226.41690500000001
 21
137.161249
 72
     2
 10
-226.01690500000001
 20
137.46124900000001
 40
0.5
 50
216.869898
 51
270.0
 73
     1
 97
        8
330
0
330
0
330
0
330
0
330
0
330
0
330
0
330
0
 75
     0
 76
     0
 52
45.0
 41
1.0
 77
     0
 78
     1
 53
45.0
 43
0.0
 44
0.0
 45
-0.424264
 46
0.424264
 79
     0
 98
        1
 10
0.0
 20
0.0
  0
TEXT
  5
6A7
100
AcDbEntity
  8
3
370
    50
100
AcDbText
 10
-195.326167
 20
138.360782
 30
0.0
 40
7.0
  1
整流吐水の表示
 72
     5
 11
-147.726167
 21
138.360782
 31
0.0
100
AcDbText
  0
TEXT
  5
6A8
100
AcDbEntity
  8
3
370
    50
100
AcDbText
 10
-329.982325
 20
138.360782
 30
0.0
 40
7.0
  1
シャワー吐水の表示
 72
     5
 11
-268.382325
 21
138.360782
 31
0.0
100
AcDbText
  0
LWPOLYLINE
  5
6A9
100
AcDbEntity
  8
3
370
    25
100
AcDbPolyline
 90
        2
 70
     0
 10
-220.73382
 20
135.322696
 10
-196.946482
 20
141.810305
  0
LINE
  5
6AD
100
AcDbEntity
  8
3
370
    25
100
AcDbLine
 10
-217.006265
 20
136.339326
 30
0.0
 11
-217.278671
 21
137.338121
 31
0.0
  0
LINE
  5
6AE
100
AcDbEntity
  8
3
370
    25
100
AcDbLine
 10
-217.278671
 20
137.338121
 30
0.0
 11
-220.73382
 21
135.322696
 31
0.0
  0
LINE
  5
6AF
100
AcDbEntity
  8
3
370
    25
100
AcDbLine
 10
-220.73382
 20
135.322696
 30
0.0
 11
-216.73386
 21
135.34053
 31
0.0
  0
LINE
  5
6B0
100
AcDbEntity
  8
3
370
    25
100
AcDbLine
 10
-216.73386
 20
135.34053
 30
0.0
 11
-217.006265
 21
136.339326
 31
0.0
  0
LWPOLYLINE
  5
6B1
100
AcDbEntity
  8
3
370
    25
100
AcDbPolyline
 90
        2
 70
     0
 10
-241.574671
 20
135.322696
 10
-265.362009
 20
141.810305
  0
LINE
  5
6B5
100
AcDbEntity
  8
3
370
    25
100
AcDbLine
 10
-245.302226
 20
136.339326
 30
0.0
 11
-245.574631
 21
135.34053
 31
0.0
  0
LINE
  5
6B6
100
AcDbEntity
  8
3
370
    25
100
AcDbLine
 10
-245.574631
 20
135.34053
 30
0.0
 11
-241.574671
 21
135.322696
 31
0.0
  0
LINE
  5
6B7
100
AcDbEntity
  8
3
370
    25
100
AcDbLine
 10
-241.574671
 20
135.322696
 30
0.0
 11
-245.029821
 21
137.338121
 31
0.0
  0
LINE
  5
6B8
100
AcDbEntity
  8
3
370
    25
100
AcDbLine
 10
-245.029821
 20
137.338121
 30
0.0
 11
-245.302226
 21
136.339326
 31
0.0
  0
LINE
  5
6B9
100
AcDbEntity
  8
3
370
    25
100
AcDbLine
 10
210.256252
 20
165.060061
 30
0.0
 11
210.256252
 21
173.860061
 31
0.0
  0
HATCH
  5
6BA
100
AcDbEntity
  8
3
370
    25
100
AcDbHatch
 10
0.0
 20
0.0
 30
0.0
210
0.0
220
0.0
230
1.0
  2
_U
 70
     0
 71
     1
 91
        1
 92
        1
 93
        2
 72
     1
 10
210.25625199999999
 20
173.860061
 11
210.25625199999999
 21
165.06006099999999
 72
     2
 10
210.25625199999999
 20
169.460061
 40
4.4000000000000004
 50
270.0
 51
90.0
 73
     1
 97
        2
330
0
330
0
 75
     0
 76
     0
 52
45.0
 41
1.0
 77
     0
 78
     1
 53
45.0
 43
0.0
 44
0.0
 45
-1.0606599999999999
 46
1.0606599999999999
 79
     0
 98
        1
 10
0.0
 20
0.0
  0
CIRCLE
  5
6BB
100
AcDbEntity
  8
3
370
    50
100
AcDbCircle
 10
210.256252
 20
169.460061
 30
0.0
 40
4.4
  0
LINE
  5
6BC
100
AcDbEntity
  8
3
370
    25
100
AcDbLine
 10
207.144982
 20
166.348791
 30
0.0
 11
210.256252
 21
169.460061
 31
0.0
  0
LINE
  5
6BD
100
AcDbEntity
  8
3
370
    25
100
AcDbLine
 10
207.518689
 20
166.015391
 30
0.0
 11
210.256252
 21
168.752954
 31
0.0
  0
LINE
  5
6BE
100
AcDbEntity
  8
3
370
    25
100
AcDbLine
 10
207.933508
 20
165.723102
 30
0.0
 11
210.256252
 21
168.045847
 31
0.0
  0
LINE
  5
6BF
100
AcDbEntity
  8
3
370
    25
100
AcDbLine
 10
208.392019
 20
165.474507
 30
0.0
 11
210.256252
 21
167.33874
 31
0.0
  0
LINE
  5
6C0
100
AcDbEntity
  8
3
370
    25
100
AcDbLine
 10
208.899185
 20
165.274566
 30
0.0
 11
210.256252
 21
166.631634
 31
0.0
  0
LINE
  5
6C1
100
AcDbEntity
  8
3
370
    25
100
AcDbLine
 10
209.463746
 20
165.13202
 30
0.0
 11
210.256252
 21
165.924527
 31
0.0
  0
LINE
  5
6C2
100
AcDbEntity
  8
3
370
    25
100
AcDbLine
 10
210.101611
 20
165.062779
 30
0.0
 11
210.256252
 21
165.21742
 31
0.0
  0
LINE
  5
6C3
100
AcDbEntity
  8
3
370
    25
100
AcDbLine
 10
206.811583
 20
166.722498
 30
0.0
 11
210.256252
 21
170.167167
 31
0.0
  0
LINE
  5
6C4
100
AcDbEntity
  8
3
370
    25
100
AcDbLine
 10
206.519294
 20
167.137316
 30
0.0
 11
210.256252
 21
170.874274
 31
0.0
  0
LINE
  5
6C5
100
AcDbEntity
  8
3
370
    25
100
AcDbLine
 10
206.270699
 20
167.595828
 30
0.0
 11
210.256252
 21
171.581381
 31
0.0
  0
LINE
  5
6C6
100
AcDbEntity
  8
3
370
    25
100
AcDbLine
 10
206.070757
 20
168.102993
 30
0.0
 11
210.256252
 21
172.288488
 31
0.0
  0
LINE
  5
6C7
100
AcDbEntity
  8
3
370
    25
100
AcDbLine
 10
205.928212
 20
168.667554
 30
0.0
 11
210.256252
 21
172.995595
 31
0.0
  0
LINE
  5
6C8
100
AcDbEntity
  8
3
370
    25
100
AcDbLine
 10
205.858971
 20
169.30542
 30
0.0
 11
210.256252
 21
173.702701
 31
0.0
  0
LINE
  5
6C9
100
AcDbEntity
  8
3
370
    25
100
AcDbLine
 10
205.895908
 20
170.049464
 30
0.0
 11
209.666849
 21
173.820405
 31
0.0
  0
LINE
  5
6CA
100
AcDbEntity
  8
3
370
    25
100
AcDbLine
 10
206.131677
 20
170.99234
 30
0.0
 11
208.723973
 21
173.584636
 31
0.0
  0
TEXT
  5
6CB
100
AcDbEntity
  8
3
370
    50
100
AcDbText
 10
225.504162
 20
179.473586
 30
0.0
 40
7.0
  1
青色
 72
     5
 11
238.104162
 21
179.473586
 31
0.0
100
AcDbText
  0
TEXT
  5
6CC
100
AcDbEntity
  8
3
370
    50
100
AcDbText
 10
222.883112
 20
169.601878
 30
0.0
 40
7.0
  1
（水表示）
 72
     5
 11
256.483112
 21
169.601878
 31
0.0
100
AcDbText
  0
TEXT
  5
6CD
100
AcDbEntity
  8
3
370
    50
100
AcDbText
 10
180.015894
 20
179.81959
 30
0.0
 40
7.0
  1
赤色
 72
     5
 11
192.615894
 21
179.81959
 31
0.0
100
AcDbText
  0
TEXT
  5
6CE
100
AcDbEntity
  8
3
370
    50
100
AcDbText
 10
162.153696
 20
170.888346
 30
0.0
 40
7.0
  1
（湯表示）
 72
     5
 11
195.753696
 21
170.888346
 31
0.0
100
AcDbText
  0
LWPOLYLINE
  5
6CF
100
AcDbEntity
  8
3
370
    25
100
AcDbPolyline
 90
        3
 70
     0
 10
212.596569
 20
170.318694
 10
218.825588
 20
181.699843
 10
223.976574
 20
181.699843
  0
LINE
  5
6D4
100
AcDbEntity
  8
3
370
    25
100
AcDbLine
 10
214.451557
 20
173.707975
 30
0.0
 11
213.543402
 21
174.205017
 31
0.0
  0
LINE
  5
6D5
100
AcDbEntity
  8
3
370
    25
100
AcDbLine
 10
213.543402
 20
174.205017
 30
0.0
 11
212.596569
 21
170.318694
 31
0.0
  0
LINE
  5
6D6
100
AcDbEntity
  8
3
370
    25
100
AcDbLine
 10
212.596569
 20
170.318694
 30
0.0
 11
215.359712
 21
173.210932
 31
0.0
  0
LINE
  5
6D7
100
AcDbEntity
  8
3
370
    25
100
AcDbLine
 10
215.359712
 20
173.210932
 30
0.0
 11
214.451557
 21
173.707975
 31
0.0
  0
LWPOLYLINE
  5
6D8
100
AcDbEntity
  8
3
370
    25
100
AcDbPolyline
 90
        3
 70
     0
 10
207.915936
 20
170.318694
 10
201.686916
 20
181.699843
 10
196.535931
 20
181.699843
  0
LINE
  5
6DD
100
AcDbEntity
  8
3
370
    25
100
AcDbLine
 10
206.060948
 20
173.707975
 30
0.0
 11
205.152793
 21
173.210932
 31
0.0
  0
LINE
  5
6DE
100
AcDbEntity
  8
3
370
    25
100
AcDbLine
 10
205.152793
 20
173.210932
 30
0.0
 11
207.915936
 21
170.318694
 31
0.0
  0
LINE
  5
6DF
100
AcDbEntity
  8
3
370
    25
100
AcDbLine
 10
207.915936
 20
170.318694
 30
0.0
 11
206.969103
 21
174.205017
 31
0.0
  0
LINE
  5
6E0
100
AcDbEntity
  8
3
370
    25
100
AcDbLine
 10
206.969103
 20
174.205017
 30
0.0
 11
206.060948
 21
173.707975
 31
0.0
  0
TEXT
  5
6E1
100
AcDbEntity
  8
3
370
    50
100
AcDbText
 10
-281.609867
 20
-225.714204
 30
0.0
 40
7.0
  1
逆止弁内蔵
 72
     5
 11
-248.009867
 21
-225.714204
 31
0.0
100
AcDbText
  0
POINT
  5
6E2
100
AcDbEntity
  8
3
370
    50
100
AcDbPoint
 10
-262.880955
 20
-214.508286
 30
0.0
  0
LWPOLYLINE
  5
6E3
100
AcDbEntity
  8
3
370
    25
100
AcDbPolyline
 90
        2
 70
     0
 10
-168.459766
 20
-172.479295
 10
-262.880955
 20
-214.508286
  0
LINE
  5
6E7
100
AcDbEntity
  8
3
370
    25
100
AcDbLine
 10
-171.989574
 20
-174.050492
 30
0.0
 11
-171.568573
 21
-174.996301
 31
0.0
  0
LINE
  5
6E8
100
AcDbEntity
  8
3
370
    25
100
AcDbLine
 10
-171.568573
 20
-174.996301
 30
0.0
 11
-168.459766
 21
-172.479295
 31
0.0
  0
LINE
  5
6E9
100
AcDbEntity
  8
3
370
    25
100
AcDbLine
 10
-168.459766
 20
-172.479295
 30
0.0
 11
-172.410575
 21
-173.104682
 31
0.0
  0
LINE
  5
6EA
100
AcDbEntity
  8
3
370
    25
100
AcDbLine
 10
-172.410575
 20
-173.104682
 30
0.0
 11
-171.989574
 21
-174.050492
 31
0.0
  0
LWPOLYLINE
  5
6EB
100
AcDbEntity
  8
3
370
    25
100
AcDbPolyline
 90
        3
 70
     0
 10
-292.84766
 20
-162.207643
 10
-257.471256
 20
-192.451951
 10
-262.880955
 20
-214.508286
  0
LINE
  5
6F0
100
AcDbEntity
  8
3
370
    25
100
AcDbLine
 10
-289.910907
 20
-164.718357
 30
0.0
 11
-289.238164
 21
-163.931457
 31
0.0
  0
LINE
  5
6F1
100
AcDbEntity
  8
3
370
    25
100
AcDbLine
 10
-289.238164
 20
-163.931457
 30
0.0
 11
-292.84766
 21
-162.207643
 31
0.0
  0
LINE
  5
6F2
100
AcDbEntity
  8
3
370
    25
100
AcDbLine
 10
-292.84766
 20
-162.207643
 30
0.0
 11
-290.583651
 21
-165.505258
 31
0.0
  0
LINE
  5
6F3
100
AcDbEntity
  8
3
370
    25
100
AcDbLine
 10
-290.583651
 20
-165.505258
 30
0.0
 11
-289.910907
 21
-164.718357
 31
0.0
  0
TEXT
  5
6F4
100
AcDbEntity
  8
3
370
    50
100
AcDbText
 10
325.566589
 20
-270.383759
 30
0.0
 40
7.0
  1
１１００７４
 72
     5
 11
366.166589
 21
-270.383759
 31
0.0
100
AcDbText
  0
TEXT
  5
6F5
100
AcDbEntity
  8
3
370
    50
100
AcDbText
 10
52.824833
 20
-235.145066
 30
0.0
 40
7.0
  1
ＭＬＺ６４５ＴＢ
 72
     5
 11
107.424833
 21
-235.145066
 31
0.0
100
AcDbText
  0
TEXT
  5
6F6
100
AcDbEntity
  8
3
370
    50
100
AcDbText
 10
236.137646
 20
-89.093511
 30
0.0
 40
7.0
  1
２２２（金具先端マデ）
 50
90.0
 72
     5
 11
236.137646
 21
-13.493511
 31
0.0
100
AcDbText
  0
DIMENSION
  5
6F7
100
AcDbEntity
  8
3
370
    25
100
AcDbDimension
  2
*D9
 10
237.137646
 20
9.726075
 30
0.0
 11
234.637646
 21
-50.593511
 31
0.0
 71
     0
 72
     0
 41
0.0
 42
0.0
  3
Standard
100
AcDbAlignedDimension
 13
193.3735
 23
-110.913096
 33
0.0
 14
163.784702
 24
9.726075
 34
0.0
 50
90.0
100
AcDbRotatedDimension
  0
LWPOLYLINE
  5
6F8
100
AcDbEntity
  8
3
370
    25
100
AcDbPolyline
 90
        3
 70
     0
 10
110.976663
 20
128.145536
 10
98.972691
 20
150.143036
 10
162.20459
 20
174.32869
  0
LINE
  5
6FD
100
AcDbEntity
  8
3
370
    25
100
AcDbLine
 10
109.125886
 20
131.537118
 30
0.0
 11
108.217115
 21
131.041204
 31
0.0
  0
LINE
  5
6FE
100
AcDbEntity
  8
3
370
    25
100
AcDbLine
 10
108.217115
 20
131.041204
 30
0.0
 11
110.976663
 21
128.145536
 31
0.0
  0
LINE
  5
6FF
100
AcDbEntity
  8
3
370
    25
100
AcDbLine
 10
110.976663
 20
128.145536
 30
0.0
 11
110.034658
 21
132.033032
 31
0.0
  0
LINE
  5
700
100
AcDbEntity
  8
3
370
    25
100
AcDbLine
 10
110.034658
 20
132.033032
 30
0.0
 11
109.125886
 21
131.537118
 31
0.0
  0
TEXT
  5
701
100
AcDbEntity
  8
3
370
    50
100
AcDbText
 10
-351.883476
 20
-186.676785
 30
0.0
 40
7.0
  1
２４六角
 72
     5
 11
-325.283476
 21
-186.676785
 31
0.0
100
AcDbText
  0
LWPOLYLINE
  5
702
100
AcDbEntity
  8
3
370
    25
100
AcDbPolyline
 90
        3
 70
     0
 10
-310.062881
 20
-178.471829
 10
-324.332252
 20
-187.676098
 10
-352.590027
 20
-187.676098
  0
LINE
  5
707
100
AcDbEntity
  8
3
370
    25
100
AcDbLine
 10
-313.309722
 20
-180.566161
 30
0.0
 11
-312.748548
 21
-181.436149
 31
0.0
  0
LINE
  5
708
100
AcDbEntity
  8
3
370
    25
100
AcDbLine
 10
-312.748548
 20
-181.436149
 30
0.0
 11
-310.062881
 21
-178.471829
 31
0.0
  0
LINE
  5
709
100
AcDbEntity
  8
3
370
    25
100
AcDbLine
 10
-310.062881
 20
-178.471829
 30
0.0
 11
-313.870897
 21
-179.696172
 31
0.0
  0
LINE
  5
70A
100
AcDbEntity
  8
3
370
    25
100
AcDbLine
 10
-313.870897
 20
-179.696172
 30
0.0
 11
-313.309722
 21
-180.566161
 31
0.0
  0
TEXT
  5
70B
100
AcDbEntity
  8
3
370
    50
100
AcDbText
 10
-332.476405
 20
-208.467377
 30
0.0
 40
7.0
  1
Ｇ１／２
 72
     5
 11
-305.876405
 21
-208.467377
 31
0.0
100
AcDbText
  0
LWPOLYLINE
  5
70C
100
AcDbEntity
  8
3
370
    25
100
AcDbPolyline
 90
        3
 70
     0
 10
-289.845241
 20
-184.013148
 10
-305.776942
 20
-209.767991
 10
-334.388972
 20
-209.767991
  0
LINE
  5
711
100
AcDbEntity
  8
3
370
    25
100
AcDbLine
 10
-291.877833
 20
-187.298992
 30
0.0
 11
-290.997394
 21
-187.843624
 31
0.0
  0
LINE
  5
712
100
AcDbEntity
  8
3
370
    25
100
AcDbLine
 10
-290.997394
 20
-187.843624
 30
0.0
 11
-289.845241
 21
-184.013148
 31
0.0
  0
LINE
  5
713
100
AcDbEntity
  8
3
370
    25
100
AcDbLine
 10
-289.845241
 20
-184.013148
 30
0.0
 11
-292.758272
 21
-186.754361
 31
0.0
  0
LINE
  5
714
100
AcDbEntity
  8
3
370
    25
100
AcDbLine
 10
-292.758272
 20
-186.754361
 30
0.0
 11
-291.877833
 21
-187.298992
 31
0.0
  0
TEXT
  5
715
100
AcDbEntity
  8
3
370
    50
100
AcDbText
 10
-42.232472
 20
-144.435178
 30
0.0
 40
7.0
  1
水側４１３、湯側４０３（金具先端マデ）
 50
90.0
 72
     5
 11
-42.232472
 21
-12.835178
 31
0.0
100
AcDbText
  0
DIMENSION
  5
716
100
AcDbEntity
  8
3
370
    25
100
AcDbDimension
  2
*D10
 10
-41.232471
 20
9.726075
 30
0.0
 11
-43.732471
 21
-77.935178
 31
0.0
 71
     0
 72
     0
 41
0.0
 42
0.0
  3
Standard
100
AcDbAlignedDimension
 13
90.140884
 23
-165.59643
 33
0.0
 14
113.784702
 24
9.726075
 34
0.0
 50
90.0
100
AcDbRotatedDimension
  0
TEXT
  5
717
100
AcDbEntity
  8
3
370
    50
100
AcDbText
 10
-53.354
 20
-203.594804
 30
0.0
 40
7.0
  1
外径φ１４，Ｌ＝１０００
 72
     5
 11
29.246
 21
-203.594804
 31
0.0
100
AcDbText
  0
ENDSEC
  0
SECTION
  2
OBJECTS
  0
DICTIONARY
  5
797
100
AcDbDictionary
280
     0
281
     1
  3
ACAD_GROUP
350
798
  3
ACAD_MLINESTYLE
350
799
  0
DICTIONARY
  5
798
102
{ACAD_REACTORS
330
797
102
}
100
AcDbDictionary
280
     0
281
     1
  0
DICTIONARY
  5
799
102
{ACAD_REACTORS
330
797
102
}
100
AcDbDictionary
280
     0
281
     1
  3
Standard
350
79A
  0
MLINESTYLE
  5
79A
102
{ACAD_REACTORS
330
799
102
}
100
AcDbMlineStyle
  2
Standard
 70
     0
  3

 62
     0
 51
90.0
 52
90.0
 71
     2
 49
0.5
 62
   256
  6
ByLayer
 49
-0.5
 62
   256
  6
ByLayer
  0
ENDSEC
  0
EOF
