  0
SECTION
  2
HEADER
  9
$ACADVER
  1
AC1009
  9
$DWGCODEPAGE
  3
ansi_932
  9
$INSBASE
 10
0.0
 20
0.0
 30
0.0
  9
$EXTMIN
 10
-420.0
 20
-297.0
 30
1.000000E+20
  9
$EXTMAX
 10
420.0
 20
297.0
 30
-1.000000E+20
  9
$LIMMIN
 10
-420.0
 20
-297.0
  9
$LIMMAX
 10
420.0
 20
297.0
  9
$ORTHOMODE
 70
     0
  9
$REGENMODE
 70
     1
  9
$FILLMODE
 70
     1
  9
$QTEXTMODE
 70
     0
  9
$MIRRTEXT
 70
     1
  9
$DRAGMODE
 70
     2
  9
$LTSCALE
 40
1.0
  9
$OSMODE
 70
     0
  9
$ATTMODE
 70
     1
  9
$TEXTSIZE
 40
0.2
  9
$TRACEWID
 40
0.05
  9
$TEXTSTYLE
  7
STANDARD
  9
$CLAYER
  8
0
  9
$CELTYPE
  6
CONTINUOUS
  9
$CECOLOR
 62
   256
  9
$DIMSCALE
 40
2.0
  9
$DIMASZ
 40
2.0
  9
$DIMEXO
 40
1.0
  9
$DIMDLI
 40
0.38
  9
$DIMRND
 40
0.0
  9
$DIMDLE
 40
0.0
  9
$DIMEXE
 40
2.0
  9
$DIMTP
 40
0.0
  9
$DIMTM
 40
0.0
  9
$DIMTXT
 40
3.5
  9
$DIMCEN
 40
0.09
  9
$DIMTSZ
 40
0.0
  9
$DIMTOL
 70
     0
  9
$DIMLIM
 70
     0
  9
$DIMTIH
 70
     0
  9
$DIMTOH
 70
     0
  9
$DIMSE1
 70
     0
  9
$DIMSE2
 70
     0
  9
$DIMTAD
 70
     1
  9
$DIMZIN
 70
     0
  9
$DIMBLK
  1

  9
$DIMASO
 70
     1
  9
$DIMSHO
 70
     1
  9
$DIMPOST
  1

  9
$DIMAPOST
  1

  9
$DIMALT
 70
     0
  9
$DIMALTD
 70
     2
  9
$DIMALTF
 40
25.4
  9
$DIMLFAC
 40
1.0
  9
$DIMTOFL
 70
     0
  9
$DIMTVP
 40
0.0
  9
$DIMTIX
 70
     0
  9
$DIMSOXD
 70
     0
  9
$DIMSAH
 70
     0
  9
$DIMBLK1
  1

  9
$DIMBLK2
  1

  9
$DIMSTYLE
  2
STANDARD
  9
$DIMCLRD
 70
     0
  9
$DIMCLRE
 70
     0
  9
$DIMCLRT
 70
     0
  9
$DIMTFAC
 40
1.0
  9
$DIMGAP
 40
0.5
  9
$LUNITS
 70
     2
  9
$LUPREC
 70
     4
  9
$AXISMODE
 70
     0
  9
$AXISUNIT
 10
0.0
 20
0.0
  9
$SKETCHINC
 40
0.1
  9
$FILLETRAD
 40
0.0
  9
$AUNITS
 70
     0
  9
$AUPREC
 70
     0
  9
$MENU
  1
acad
  9
$ELEVATION
 40
0.0
  9
$PELEVATION
 40
0.0
  9
$THICKNESS
 40
0.0
  9
$LIMCHECK
 70
     0
  9
$BLIPMODE
 70
     1
  9
$CHAMFERA
 40
0.0
  9
$CHAMFERB
 40
0.0
  9
$SKPOLY
 70
     0
  9
$TDCREATE
 40
2453383.000000000
  9
$TDUPDATE
 40
0.000000000
  9
$TDINDWG
 40
0.0000000000
  9
$TDUSRTIMER
 40
0.0000000000
  9
$USRTIMER
 70
     1
  9
$ANGBASE
 50
0.0
  9
$ANGDIR
 70
     0
  9
$PDMODE
 70
     0
  9
$PDSIZE
 40
0.0
  9
$PLINEWID
 40
0.0
  9
$COORDS
 70
     0
  9
$SPLFRAME
 70
     0
  9
$SPLINETYPE
 70
     6
  9
$SPLINESEGS
 70
     8
  9
$ATTDIA
 70
     0
  9
$ATTREQ
 70
     1
  9
$HANDLING
 70
     1
  9
$HANDSEED
  5
7B8
  9
$SURFTAB1
 70
     6
  9
$SURFTAB2
 70
     6
  9
$SURFTYPE
 70
     6
  9
$SURFU
 70
     6
  9
$SURFV
 70
     6
  9
$UCSNAME
  2

  9
$UCSORG
 10
0.0
 20
0.0
 30
0.0
  9
$UCSXDIR
 10
1.0
 20
0.0
 30
0.0
  9
$UCSYDIR
 10
0.0
 20
1.0
 30
0.0
  9
$PUCSNAME
  2

  9
$PUCSORG
 10
0.0
 20
0.0
 30
0.0
  9
$PUCSXDIR
 10
1.0
 20
0.0
 30
0.0
  9
$PUCSYDIR
 10
0.0
 20
1.0
 30
0.0
  9
$USERI1
 70
     0
  9
$USERI2
 70
     0
  9
$USERI3
 70
     0
  9
$USERI4
 70
     0
  9
$USERI5
 70
     0
  9
$USERR1
 40
0.0
  9
$USERR2
 40
0.0
  9
$USERR3
 40
0.0
  9
$USERR4
 40
0.0
  9
$USERR5
 40
0.0
  9
$WORLDVIEW
 70
     1
  9
$SHADEDGE
 70
     3
  9
$SHADEDIF
 70
    70
  9
$TILEMODE
 70
     1
  9
$MAXACTVP
 70
    16
  9
$PINSBASE
 10
0.0
 20
0.0
 30
0.0
  9
$PLIMCHECK
 70
     0
  9
$PEXTMIN
 10
1.000000E+20
 20
1.000000E+20
 30
1.000000E+20
  9
$PEXTMAX
 10
-1.000000E+20
 20
-1.000000E+20
 30
-1.000000E+20
  9
$PLIMMIN
 10
0.0
 20
0.0
  9
$PLIMMAX
 10
12.0
 20
9.0
  9
$UNITMODE
 70
     0
  9
$VISRETAIN
 70
     0
  9
$PLINEGEN
 70
     1
  9
$PSLTSCALE
 70
     0
  9
$TREEDEPTH
 70
  3020
  0
ENDSEC
  0
SECTION
  2
TABLES
  0
TABLE
  2
VPORT
 70
     1
  0
VPORT
  2
*ACTIVE
 70
     0
 10
0.0
 20
0.0
 11
1.0
 21
1.0
 12
0.0
 22
0.0
 13
0.0
 23
0.0
 14
1.0
 24
1.0
 15
0.0
 25
0.0
 16
0.0
 26
0.0
 36
1.0
 17
0.0
 27
0.0
 37
0.0
 40
594.0
 41
1.414141
 42
50.0
 43
0.0
 44
0.0
 50
0.0
 51
0.0
 71
     0
 72
   500
 73
     1
 74
     1
 75
     0
 76
     0
 77
     0
 78
     0
  0
ENDTAB
  0
TABLE
  2
LTYPE
 70
     7
  0
LTYPE
  2
CONTINUOUS
 70
     0
  3
Solid line
 72
    65
 73
     0
 40
0.0
  0
LTYPE
  2
DASHED
 70
     0
  3
__ __ __ __ __ __ __ __ __ __ __ __ __ __ __
 72
    65
 73
     2
 40
2.0
 49
1.2
 49
-0.8
  0
LTYPE
  2
CENTER
 70
     0
  3
____ _ ____ _ ____ _ ____ _ ____ _ ____ _ ____
 72
    65
 73
     4
 40
12.0
 49
9.0
 49
-1.0
 49
1.0
 49
-1.0
  0
LTYPE
  2
HIDDEN
 70
     0
  3
_ _ _ _ _ _ _ _ _ _ _ _ _ _ _ _ _ _ _ _ _ _ _
 72
    65
 73
     2
 40
3.2
 49
2.4
 49
-0.8
  0
LTYPE
  2
PHANTOM
 70
     0
  3
_____ _ _ _____ _ _ _____ _ _ _____ _ _ _____
 72
    65
 73
     6
 40
13.5
 49
9.0
 49
-1.0
 49
1.0
 49
-0.5
 49
1.0
 49
-1.0
  0
LTYPE
  2
DOT
 70
     0
  3
...............................................
 72
    65
 73
     2
 40
1.0
 49
0.5
 49
-0.5
  0
LTYPE
  2
DASHDOT
 70
     0
  3
__ . __ . __ . __ . __ . __ . __ . __ . __ . __
 72
    65
 73
     4
 40
8.0
 49
5.0
 49
-1.0
 49
1.0
 49
-1.0
  0
ENDTAB
  0
TABLE
  2
LAYER
 70
     4
  0
LAYER
  2
0
 70
     0
 62
     7
  6
CONTINUOUS
  0
LAYER
  2
1
 70
     0
 62
     7
  6
CONTINUOUS
  0
LAYER
  2
2
 70
     0
 62
     7
  6
CONTINUOUS
  0
LAYER
  2
3
 70
     0
 62
     7
  6
CONTINUOUS
  0
ENDTAB
  0
TABLE
  2
STYLE
 70
     1
  0
STYLE
  2
STANDARD
 70
    64
 40
0.0
 41
1.0
 50
0.0
 71
     0
 42
1.0
  3
txt
  4
BIGFONT
  0
ENDTAB
  0
TABLE
  2
VIEW
 70
     0
  0
ENDTAB
  0
TABLE
  2
UCS
 70
     0
  0
ENDTAB
  0
TABLE
  2
APPID
 70
     1
  0
APPID
  2
ACAD
 70
     0
  0
ENDTAB
  0
TABLE
  2
DIMSTYLE
 70
     1
  0
DIMSTYLE
  2
STANDARD
 70
     0
  3

  4

  5

  6

  7

 40
2.0
 41
2.0
 42
1.0
 43
0.38
 44
2.0
 45
0.0
 46
0.0
 47
0.0
 48
0.0
 71
     0
 72
     0
 73
     0
 74
     0
 75
     0
 76
     0
 77
     1
 78
     0
140
3.5
141
0.09
142
0.0
143
25.4
144
1.0
145
0.0
146
1.0
147
0.5
170
     0
171
     2
172
     0
173
     0
174
     0
175
     0
176
     0
177
     0
178
     0
  0
ENDTAB
  0
ENDSEC
  0
SECTION
  2
BLOCKS
  0
BLOCK
  8
3
  5
618
  2
*D0
 70
     1
 10
0.0
 20
0.0
 30
0.0
  3
*D0
  0
TEXT
  8
3
 62
     2
  5
619
 10
38.624824
 20
19.620919
 30
0.0
 40
7.0
  1
９０゜
 50
45.0
 72
     5
 11
52.484117
 21
33.480212
 31
0.0
  0
LINE
  8
3
 62
     2
  5
61A
 10
34.05576
 20
-42.065207
 30
0.0
 11
16.422837
 21
-42.065207
 31
0.0
  0
LINE
  8
3
 62
     2
  5
61B
 10
115.160192
 20
54.672148
 30
0.0
 11
111.276585
 21
55.63006
 31
0.0
  0
LINE
  8
3
 62
     2
  5
61C
 10
115.160192
 20
54.672148
 30
0.0
 11
111.317934
 21
53.55992
 31
0.0
  0
LINE
  8
3
 62
     2
  5
61D
 10
111.276585
 20
55.63006
 30
0.0
 11
111.317934
 21
53.55992
 31
0.0
  0
LINE
  8
3
 62
     2
  5
61E
 10
18.422837
 20
-42.065207
 30
0.0
 11
19.535065
 21
-38.222949
 31
0.0
  0
LINE
  8
3
 62
     2
  5
61F
 10
18.422837
 20
-42.065207
 30
0.0
 11
17.464925
 21
-38.1816
 31
0.0
  0
LINE
  8
3
 62
     2
  5
620
 10
19.535065
 20
-38.222949
 30
0.0
 11
17.464925
 21
-38.1816
 31
0.0
  0
ARC
  8
3
 62
     2
  5
621
 10
115.160192
 20
-42.065207
 30
0.0
 40
96.737355
 50
90.0
 51
180.0
  0
ENDBLK
  8
3
  5
622
  0
BLOCK
  8
3
  5
623
  2
*D1
 70
     1
 10
0.0
 20
0.0
 30
0.0
  3
*D1
  0
TEXT
  8
3
 62
     2
  5
624
 10
247.467957
 20
-84.065206
 30
0.0
 40
7.0
  1
７０
 50
90.0
 72
     5
 11
247.467957
 21
-71.465206
 31
0.0
  0
LINE
  8
3
 62
     2
  5
625
 10
140.560192
 20
-112.065206
 30
0.0
 11
250.467957
 21
-112.065206
 31
0.0
  0
LINE
  8
3
 62
     2
  5
626
 10
248.467957
 20
-112.065206
 30
0.0
 11
249.503233
 21
-108.201503
 31
0.0
  0
LINE
  8
3
 62
     2
  5
627
 10
248.467957
 20
-112.065206
 30
0.0
 11
247.43268
 21
-108.201503
 31
0.0
  0
LINE
  8
3
 62
     2
  5
628
 10
249.503233
 20
-108.201503
 30
0.0
 11
247.43268
 21
-108.201503
 31
0.0
  0
LINE
  8
3
 62
     2
  5
629
 10
248.467957
 20
-112.065206
 30
0.0
 11
248.467957
 21
-42.065206
 31
0.0
  0
LINE
  8
3
 62
     2
  5
62A
 10
248.467957
 20
-42.065206
 30
0.0
 11
247.43268
 21
-45.928909
 31
0.0
  0
LINE
  8
3
 62
     2
  5
62B
 10
248.467957
 20
-42.065206
 30
0.0
 11
249.503233
 21
-45.928909
 31
0.0
  0
LINE
  8
3
 62
     2
  5
62C
 10
247.43268
 20
-45.928909
 30
0.0
 11
249.503233
 21
-45.928909
 31
0.0
  0
LINE
  8
3
 62
     2
  5
62D
 10
139.163086
 20
-42.065206
 30
0.0
 11
250.467957
 21
-42.065206
 31
0.0
  0
ENDBLK
  8
3
  5
62E
  0
BLOCK
  8
3
  5
62F
  2
*D2
 70
     1
 10
0.0
 20
0.0
 30
0.0
  3
*D2
  0
TEXT
  8
3
 62
     2
  5
630
 10
-132.778389
 20
46.879462
 30
0.0
 40
7.0
  1
２２゜
 50
349.0
 72
     5
 11
-113.538497
 21
43.139606
 31
0.0
  0
LINE
  8
3
 62
     2
  5
631
 10
-112.474305
 20
22.388239
 30
0.0
 11
-105.053734
 21
40.754796
 31
0.0
  0
LINE
  8
3
 62
     2
  5
632
 10
-140.164411
 20
35.934794
 30
0.0
 11
-140.164411
 21
47.57962
 31
0.0
  0
LINE
  8
3
 62
     2
  5
633
 10
-105.802948
 20
38.900428
 30
0.0
 11
-109.04748
 21
41.239874
 31
0.0
  0
LINE
  8
3
 62
     2
  5
634
 10
-105.802948
 20
38.900428
 30
0.0
 11
-109.782518
 21
39.304182
 31
0.0
  0
LINE
  8
3
 62
     2
  5
635
 10
-109.04748
 20
41.239874
 30
0.0
 11
-109.782518
 21
39.304182
 31
0.0
  0
LINE
  8
3
 62
     2
  5
636
 10
-140.164411
 20
45.57962
 30
0.0
 11
-136.323369
 21
44.4632
 31
0.0
  0
LINE
  8
3
 62
     2
  5
637
 10
-140.164411
 20
45.57962
 30
0.0
 11
-136.279761
 21
46.533293
 31
0.0
  0
LINE
  8
3
 62
     2
  5
638
 10
-136.323369
 20
44.4632
 30
0.0
 11
-136.279761
 21
46.533293
 31
0.0
  0
ARC
  8
3
 62
     2
  5
639
 10
-140.164411
 20
-46.14718
 30
0.0
 40
91.7268
 50
68.0
 51
90.0
  0
ENDBLK
  8
3
  5
63A
  0
BLOCK
  8
3
  5
63B
  2
*D3
 70
     1
 10
0.0
 20
0.0
 30
0.0
  3
*D3
  0
TEXT
  8
3
 62
     2
  5
63C
 10
-171.864411
 20
-97.679977
 30
0.0
 40
7.0
  1
φ４７．８
 72
     5
 11
-138.264411
 21
-97.679977
 31
0.0
  0
LINE
  8
3
 62
     2
  5
63D
 10
-179.864411
 20
-109.565206
 30
0.0
 11
-179.864411
 21
-96.679977
 31
0.0
  0
LINE
  8
3
 62
     2
  5
63E
 10
-179.864411
 20
-98.679977
 30
0.0
 11
-176.000708
 21
-99.715254
 31
0.0
  0
LINE
  8
3
 62
     2
  5
63F
 10
-179.864411
 20
-98.679977
 30
0.0
 11
-176.000708
 21
-97.644701
 31
0.0
  0
LINE
  8
3
 62
     2
  5
640
 10
-176.000708
 20
-99.715254
 30
0.0
 11
-176.000708
 21
-97.644701
 31
0.0
  0
LINE
  8
3
 62
     2
  5
641
 10
-136.864411
 20
-98.679977
 30
0.0
 11
-237.664411
 21
-98.679977
 31
0.0
  0
LINE
  8
3
 62
     2
  5
642
 10
-227.664411
 20
-98.679977
 30
0.0
 11
-231.528114
 21
-97.644701
 31
0.0
  0
LINE
  8
3
 62
     2
  5
643
 10
-227.664411
 20
-98.679977
 30
0.0
 11
-231.528114
 21
-99.715254
 31
0.0
  0
LINE
  8
3
 62
     2
  5
644
 10
-231.528114
 20
-97.644701
 30
0.0
 11
-231.528114
 21
-99.715254
 31
0.0
  0
LINE
  8
3
 62
     2
  5
645
 10
-227.664411
 20
-109.565206
 30
0.0
 11
-227.664411
 21
-96.679977
 31
0.0
  0
ENDBLK
  8
3
  5
646
  0
BLOCK
  8
3
  5
647
  2
*D4
 70
     1
 10
0.0
 20
0.0
 30
0.0
  3
*D4
  0
LINE
  8
3
 62
     2
  5
648
 10
95.960192
 20
-138.877021
 30
0.0
 11
28.941689
 21
-138.877021
 31
0.0
  0
LINE
  8
3
 62
     2
  5
649
 10
30.941689
 20
-138.877021
 30
0.0
 11
31.976965
 21
-135.013318
 31
0.0
  0
LINE
  8
3
 62
     2
  5
64A
 10
30.941689
 20
-138.877021
 30
0.0
 11
29.906412
 21
-135.013318
 31
0.0
  0
LINE
  8
3
 62
     2
  5
64B
 10
31.976965
 20
-135.013318
 30
0.0
 11
29.906412
 21
-135.013318
 31
0.0
  0
LINE
  8
3
 62
     2
  5
64C
 10
30.941689
 20
-138.877021
 30
0.0
 11
30.941689
 21
-112.065206
 31
0.0
  0
LINE
  8
3
 62
     2
  5
64D
 10
30.941689
 20
-112.065206
 30
0.0
 11
29.906412
 21
-115.92891
 31
0.0
  0
LINE
  8
3
 62
     2
  5
64E
 10
30.941689
 20
-112.065206
 30
0.0
 11
31.976965
 21
-115.92891
 31
0.0
  0
LINE
  8
3
 62
     2
  5
64F
 10
29.906412
 20
-115.92891
 30
0.0
 11
31.976965
 21
-115.92891
 31
0.0
  0
LINE
  8
3
 62
     2
  5
650
 10
89.760192
 20
-112.065206
 30
0.0
 11
28.941689
 21
-112.065206
 31
0.0
  0
ENDBLK
  8
3
  5
651
  0
BLOCK
  8
3
  5
652
  2
*D5
 70
     1
 10
0.0
 20
0.0
 30
0.0
  3
*D5
  0
TEXT
  8
3
 62
     2
  5
653
 10
268.567413
 20
23.323733
 30
0.0
 40
7.0
  1
（３０６）
 50
90.0
 72
     5
 11
268.567413
 21
56.923733
 31
0.0
  0
LINE
  8
3
 62
     2
  5
654
 10
140.560192
 20
-112.065206
 30
0.0
 11
271.567413
 21
-112.065206
 31
0.0
  0
LINE
  8
3
 62
     2
  5
655
 10
269.567413
 20
-112.065206
 30
0.0
 11
270.60269
 21
-108.201503
 31
0.0
  0
LINE
  8
3
 62
     2
  5
656
 10
269.567413
 20
-112.065206
 30
0.0
 11
268.532137
 21
-108.201503
 31
0.0
  0
LINE
  8
3
 62
     2
  5
657
 10
270.60269
 20
-108.201503
 30
0.0
 11
268.532137
 21
-108.201503
 31
0.0
  0
LINE
  8
3
 62
     2
  5
658
 10
269.567413
 20
-112.065206
 30
0.0
 11
269.567413
 21
193.712672
 31
0.0
  0
LINE
  8
3
 62
     2
  5
659
 10
269.567413
 20
193.712672
 30
0.0
 11
268.532137
 21
189.848969
 31
0.0
  0
LINE
  8
3
 62
     2
  5
65A
 10
269.567413
 20
193.712672
 30
0.0
 11
270.60269
 21
189.848969
 31
0.0
  0
LINE
  8
3
 62
     2
  5
65B
 10
268.532137
 20
189.848969
 30
0.0
 11
270.60269
 21
189.848969
 31
0.0
  0
LINE
  8
3
 62
     2
  5
65C
 10
82.160192
 20
193.712672
 30
0.0
 11
271.567413
 21
193.712672
 31
0.0
  0
ENDBLK
  8
3
  5
65D
  0
BLOCK
  8
3
  5
65E
  2
*D6
 70
     1
 10
0.0
 20
0.0
 30
0.0
  3
*D6
  0
LINE
  8
3
 62
     2
  5
65F
 10
-144.264411
 20
-231.045521
 30
0.0
 11
-72.30349
 21
-231.045521
 31
0.0
  0
LINE
  8
3
 62
     2
  5
660
 10
-74.30349
 20
-231.045521
 30
0.0
 11
-73.268214
 21
-227.181818
 31
0.0
  0
LINE
  8
3
 62
     2
  5
661
 10
-74.30349
 20
-231.045521
 30
0.0
 11
-75.338766
 21
-227.181818
 31
0.0
  0
LINE
  8
3
 62
     2
  5
662
 10
-73.268214
 20
-227.181818
 30
0.0
 11
-75.338766
 21
-227.181818
 31
0.0
  0
LINE
  8
3
 62
     2
  5
663
 10
-74.30349
 20
-231.045521
 30
0.0
 11
-74.30349
 21
-112.065206
 31
0.0
  0
LINE
  8
3
 62
     2
  5
664
 10
-74.30349
 20
-112.065206
 30
0.0
 11
-75.338766
 21
-115.92891
 31
0.0
  0
LINE
  8
3
 62
     2
  5
665
 10
-74.30349
 20
-112.065206
 30
0.0
 11
-73.268214
 21
-115.92891
 31
0.0
  0
LINE
  8
3
 62
     2
  5
666
 10
-75.338766
 20
-115.92891
 30
0.0
 11
-73.268214
 21
-115.92891
 31
0.0
  0
LINE
  8
3
 62
     2
  5
667
 10
-178.364411
 20
-112.065206
 30
0.0
 11
-72.30349
 21
-112.065206
 31
0.0
  0
ENDBLK
  8
3
  5
668
  0
BLOCK
  8
3
  5
669
  2
*D7
 70
     1
 10
0.0
 20
0.0
 30
0.0
  3
*D7
  0
TEXT
  8
3
 62
     2
  5
66A
 10
79.735123
 20
167.397659
 30
0.0
 40
7.0
  1
Ｒ３５
 50
276.076774
 72
     5
 11
81.809998
 21
147.907793
 31
0.0
  0
LINE
  8
3
 62
     2
  5
66B
 10
80.160192
 20
149.187672
 30
0.0
 11
76.455058
 21
183.991005
 31
0.0
  0
LINE
  8
3
 62
     2
  5
66C
 10
76.455058
 20
183.991005
 30
0.0
 11
75.834615
 21
180.039417
 31
0.0
  0
LINE
  8
3
 62
     2
  5
66D
 10
76.455058
 20
183.991005
 30
0.0
 11
77.893532
 21
180.258607
 31
0.0
  0
LINE
  8
3
 62
     2
  5
66E
 10
75.834615
 20
180.039417
 30
0.0
 11
77.893532
 21
180.258607
 31
0.0
  0
ENDBLK
  8
3
  5
66F
  0
BLOCK
  8
3
  5
670
  2
*D8
 70
     1
 10
0.0
 20
0.0
 30
0.0
  3
*D8
  0
TEXT
  8
3
 62
     2
  5
671
 10
49.660192
 20
111.166641
 30
0.0
 40
7.0
  1
１１０
 72
     5
 11
69.260192
 21
111.166641
 31
0.0
  0
LINE
  8
3
 62
     2
  5
672
 10
5.160192
 20
47.46002
 30
0.0
 11
5.160192
 21
112.166641
 31
0.0
  0
LINE
  8
3
 62
     2
  5
673
 10
5.160192
 20
110.166641
 30
0.0
 11
9.023896
 21
109.131365
 31
0.0
  0
LINE
  8
3
 62
     2
  5
674
 10
5.160192
 20
110.166641
 30
0.0
 11
9.023896
 21
111.201917
 31
0.0
  0
LINE
  8
3
 62
     2
  5
675
 10
9.023896
 20
109.131365
 30
0.0
 11
9.023896
 21
111.201917
 31
0.0
  0
LINE
  8
3
 62
     2
  5
676
 10
5.160192
 20
110.166641
 30
0.0
 11
115.160192
 21
110.166641
 31
0.0
  0
LINE
  8
3
 62
     2
  5
677
 10
115.160192
 20
110.166641
 30
0.0
 11
111.296489
 21
111.201917
 31
0.0
  0
LINE
  8
3
 62
     2
  5
678
 10
115.160192
 20
110.166641
 30
0.0
 11
111.296489
 21
109.131365
 31
0.0
  0
LINE
  8
3
 62
     2
  5
679
 10
111.296489
 20
111.201917
 30
0.0
 11
111.296489
 21
109.131365
 31
0.0
  0
ENDBLK
  8
3
  5
67A
  0
BLOCK
  8
3
  5
67B
  2
*D9
 70
     1
 10
0.0
 20
0.0
 30
0.0
  3
*D9
  0
TEXT
  8
3
 62
     2
  5
67C
 10
-42.144901
 20
-43.802593
 30
0.0
 40
7.0
  1
１５８
 50
90.0
 72
     5
 11
-42.144901
 21
-24.202593
 31
0.0
  0
LINE
  8
3
 62
     2
  5
67D
 10
89.760192
 20
-112.065206
 30
0.0
 11
-43.144901
 21
-112.065206
 31
0.0
  0
LINE
  8
3
 62
     2
  5
67E
 10
-41.144901
 20
-112.065206
 30
0.0
 11
-40.109625
 21
-108.201503
 31
0.0
  0
LINE
  8
3
 62
     2
  5
67F
 10
-41.144901
 20
-112.065206
 30
0.0
 11
-42.180177
 21
-108.201503
 31
0.0
  0
LINE
  8
3
 62
     2
  5
680
 10
-40.109625
 20
-108.201503
 30
0.0
 11
-42.180177
 21
-108.201503
 31
0.0
  0
LINE
  8
3
 62
     2
  5
681
 10
-41.144901
 20
-112.065206
 30
0.0
 11
-41.144901
 21
45.46002
 31
0.0
  0
LINE
  8
3
 62
     2
  5
682
 10
-41.144901
 20
45.46002
 30
0.0
 11
-42.180177
 21
41.596317
 31
0.0
  0
LINE
  8
3
 62
     2
  5
683
 10
-41.144901
 20
45.46002
 30
0.0
 11
-40.109625
 21
41.596317
 31
0.0
  0
LINE
  8
3
 62
     2
  5
684
 10
-42.180177
 20
41.596317
 30
0.0
 11
-40.109625
 21
41.596317
 31
0.0
  0
LINE
  8
3
 62
     2
  5
685
 10
3.160192
 20
45.46002
 30
0.0
 11
-43.144901
 21
45.46002
 31
0.0
  0
ENDBLK
  8
3
  5
686
  0
BLOCK
  8
3
  5
687
  2
*D10
 70
     1
 10
0.0
 20
0.0
 30
0.0
  3
*D10
  0
TEXT
  8
3
 62
     2
  5
688
 10
-49.981828
 20
226.095854
 30
0.0
 40
7.0
  1
４０゜
 50
290.0
 72
     5
 11
-43.278233
 21
207.677879
 31
0.0
  0
LINE
  8
3
 62
     2
  5
689
 10
-21.506432
 20
275.028767
 30
0.0
 11
-58.758587
 21
275.028767
 31
0.0
  0
LINE
  8
3
 62
     2
  5
68A
 10
18.171245
 20
193.645377
 30
0.0
 11
-18.069322
 21
163.235931
 31
0.0
  0
LINE
  8
3
 62
     2
  5
68B
 10
-56.758587
 20
275.028767
 30
0.0
 11
-57.750381
 21
271.153675
 31
0.0
  0
LINE
  8
3
 62
     2
  5
68C
 10
-56.758587
 20
275.028767
 30
0.0
 11
-55.67996
 21
271.176941
 31
0.0
  0
LINE
  8
3
 62
     2
  5
68D
 10
-57.750381
 20
271.153675
 30
0.0
 11
-55.67996
 21
271.176941
 31
0.0
  0
LINE
  8
3
 62
     2
  5
68E
 10
-16.537233
 20
164.521506
 30
0.0
 11
-18.186863
 21
168.165504
 31
0.0
  0
LINE
  8
3
 62
     2
  5
68F
 10
-16.537233
 20
164.521506
 30
0.0
 11
-19.787853
 21
166.852486
 31
0.0
  0
LINE
  8
3
 62
     2
  5
690
 10
-18.186863
 20
168.165504
 30
0.0
 11
-19.787853
 21
166.852486
 31
0.0
  0
ARC
  8
3
 62
     2
  5
691
 10
115.160192
 20
275.028767
 30
0.0
 40
171.91878
 50
180.0
 51
220.0
  0
ENDBLK
  8
3
  5
692
  0
BLOCK
  8
3
  5
693
  2
*D11
 70
     1
 10
0.0
 20
0.0
 30
0.0
  3
*D11
  0
TEXT
  8
3
 62
     2
  5
694
 10
-15.054783
 20
-13.063913
 30
0.0
 40
7.0
  1
２０゜
 50
350.0
 72
     5
 11
4.247449
 21
-16.467418
 31
0.0
  0
LINE
  8
3
 62
     2
  5
695
 10
1.515829
 20
35.447213
 30
0.0
 11
-17.506886
 21
-16.817267
 31
0.0
  0
LINE
  8
3
 62
     2
  5
696
 10
5.160192
 20
43.46002
 30
0.0
 11
5.160192
 21
-20.814085
 31
0.0
  0
LINE
  8
3
 62
     2
  5
697
 10
-16.822846
 20
-14.937882
 30
0.0
 11
-13.47876
 21
-17.132668
 31
0.0
  0
LINE
  8
3
 62
     2
  5
698
 10
-16.822846
 20
-14.937882
 30
0.0
 11
-12.829389
 21
-15.166579
 31
0.0
  0
LINE
  8
3
 62
     2
  5
699
 10
-13.47876
 20
-17.132668
 30
0.0
 11
-12.829389
 21
-15.166579
 31
0.0
  0
LINE
  8
3
 62
     2
  5
69A
 10
5.160192
 20
-18.814085
 30
0.0
 11
1.329352
 21
-17.663147
 31
0.0
  0
LINE
  8
3
 62
     2
  5
69B
 10
5.160192
 20
-18.814085
 30
0.0
 11
1.267118
 21
-19.732764
 31
0.0
  0
LINE
  8
3
 62
     2
  5
69C
 10
1.329352
 20
-17.663147
 30
0.0
 11
1.267118
 21
-19.732764
 31
0.0
  0
ARC
  8
3
 62
     2
  5
69D
 10
5.160192
 20
45.46002
 30
0.0
 40
64.274105
 50
250.0
 51
270.0
  0
ENDBLK
  8
3
  5
69E
  0
BLOCK
  8
3
  5
69F
  2
*D12
 70
     1
 10
0.0
 20
0.0
 30
0.0
  3
*D12
  0
LINE
  8
3
 62
     2
  5
6A0
 10
-203.764411
 20
-96.470032
 30
0.0
 11
-203.764411
 21
-84.042984
 31
0.0
  0
LINE
  8
3
 62
     2
  5
6A1
 10
-203.764411
 20
-86.042984
 30
0.0
 11
-199.900708
 21
-87.07826
 31
0.0
  0
LINE
  8
3
 62
     2
  5
6A2
 10
-203.764411
 20
-86.042984
 30
0.0
 11
-199.900708
 21
-85.007708
 31
0.0
  0
LINE
  8
3
 62
     2
  5
6A3
 10
-199.900708
 20
-87.07826
 30
0.0
 11
-199.900708
 21
-85.007708
 31
0.0
  0
LINE
  8
3
 62
     2
  5
6A4
 10
-203.764411
 20
-86.042984
 30
0.0
 11
-113.223518
 21
-86.042984
 31
0.0
  0
LINE
  8
3
 62
     2
  5
6A5
 10
-113.223518
 20
-86.042984
 30
0.0
 11
-117.087221
 21
-85.007708
 31
0.0
  0
LINE
  8
3
 62
     2
  5
6A6
 10
-113.223518
 20
-86.042984
 30
0.0
 11
-117.087221
 21
-87.07826
 31
0.0
  0
LINE
  8
3
 62
     2
  5
6A7
 10
-117.087221
 20
-85.007708
 30
0.0
 11
-117.087221
 21
-87.07826
 31
0.0
  0
LINE
  8
3
 62
     2
  5
6A8
 10
-113.223518
 20
18.533872
 30
0.0
 11
-113.223518
 21
-88.042984
 31
0.0
  0
ENDBLK
  8
3
  5
6A9
  0
BLOCK
  8
3
  5
6AA
  2
*D13
 70
     1
 10
0.0
 20
0.0
 30
0.0
  3
*D13
  0
LINE
  8
3
 62
     2
  5
6AB
 10
-203.764411
 20
-92.474976
 30
0.0
 11
-203.764411
 21
-71.727226
 31
0.0
  0
LINE
  8
3
 62
     2
  5
6AC
 10
-203.764411
 20
-73.727226
 30
0.0
 11
-199.900708
 21
-74.762502
 31
0.0
  0
LINE
  8
3
 62
     2
  5
6AD
 10
-203.764411
 20
-73.727226
 30
0.0
 11
-199.900708
 21
-72.69195
 31
0.0
  0
LINE
  8
3
 62
     2
  5
6AE
 10
-199.900708
 20
-74.762502
 30
0.0
 11
-199.900708
 21
-72.69195
 31
0.0
  0
LINE
  8
3
 62
     2
  5
6AF
 10
-203.764411
 20
-73.727226
 30
0.0
 11
-136.16441
 21
-73.727226
 31
0.0
  0
LINE
  8
3
 62
     2
  5
6B0
 10
-136.16441
 20
-73.727226
 30
0.0
 11
-140.028114
 21
-72.69195
 31
0.0
  0
LINE
  8
3
 62
     2
  5
6B1
 10
-136.16441
 20
-73.727226
 30
0.0
 11
-140.028114
 21
-74.762502
 31
0.0
  0
LINE
  8
3
 62
     2
  5
6B2
 10
-140.028114
 20
-72.69195
 30
0.0
 11
-140.028114
 21
-74.762502
 31
0.0
  0
LINE
  8
3
 62
     2
  5
6B3
 10
-136.16441
 20
-60.565206
 30
0.0
 11
-136.16441
 21
-75.727226
 31
0.0
  0
ENDBLK
  8
3
  5
6B4
  0
ENDSEC
  0
SECTION
  2
ENTITIES
  0
LINE
  8
1
 62
     3
  5
32
 10
-373.02157
 20
275.028767
 30
0.0
 11
394.982385
 21
275.028767
 31
0.0
  0
LINE
  8
1
 62
     3
  5
33
 10
-373.02157
 20
275.028767
 30
0.0
 11
-373.02157
 21
-277.971881
 31
0.0
  0
LINE
  8
1
 62
     3
  5
34
 10
-373.02157
 20
-277.971881
 30
0.0
 11
394.982385
 21
-277.971881
 31
0.0
  0
LINE
  8
1
 62
     3
  5
35
 10
394.982385
 20
-277.971881
 30
0.0
 11
394.982385
 21
275.028767
 31
0.0
  0
TEXT
  8
1
  5
36
 10
359.628442
 20
-226.252857
 30
0.0
 40
6.0
  1
設計
 72
     5
 11
370.428442
 21
-226.252857
 31
0.0
  0
TEXT
  8
1
  5
37
 10
379.127478
 20
-226.099658
 30
0.0
 40
6.0
  1
製図
 72
     5
 11
389.927478
 21
-226.099658
 31
0.0
  0
TEXT
  8
1
  5
38
 10
319.005745
 20
-226.252857
 30
0.0
 40
6.0
  1
承認
 72
     5
 11
329.805745
 21
-226.252857
 31
0.0
  0
TEXT
  8
1
  5
39
 10
338.989679
 20
-226.19802
 30
0.0
 40
6.0
  1
検図
 72
     5
 11
349.789679
 21
-226.19802
 31
0.0
  0
LINE
  8
1
 62
     2
  5
3A
 10
284.982385
 20
-227.971881
 30
0.0
 11
394.982385
 21
-227.971881
 31
0.0
  0
LINE
  8
1
 62
     2
  5
3B
 10
342.482385
 20
-245.971881
 30
0.0
 11
342.482385
 21
-259.971881
 31
0.0
  0
TEXT
  8
1
  5
3C
 10
319.55159
 20
-256.012528
 30
0.0
 40
6.0
  1
日　付
 72
     5
 11
336.35159
 21
-256.012528
 31
0.0
  0
LINE
  8
1
  5
3D
 10
40.982385
 20
-259.971881
 30
0.0
 11
394.982385
 21
-259.971881
 31
0.0
  0
TEXT
  8
1
  5
3E
 10
287.775011
 20
-256.322406
 30
0.0
 40
6.0
  1
第三角法
 72
     5
 11
310.575011
 21
-256.322406
 31
0.0
  0
TEXT
  8
1
  5
3F
 10
291.087419
 20
-225.99802
 30
0.0
 40
6.0
  1
尺　度
 72
     5
 11
307.887419
 21
-225.99802
 31
0.0
  0
LINE
  8
1
 62
     3
  5
40
 10
40.982385
 20
-217.971881
 30
0.0
 11
394.982385
 21
-217.971881
 31
0.0
  0
LINE
  8
1
  5
41
 10
211.982385
 20
-217.971881
 30
0.0
 11
211.982385
 21
-277.971881
 31
0.0
  0
LINE
  8
1
 62
     2
  5
42
 10
374.982385
 20
-245.971881
 30
0.0
 11
374.982385
 21
-217.971881
 31
0.0
  0
LINE
  8
1
 62
     2
  5
43
 10
354.982385
 20
-245.971881
 30
0.0
 11
354.982385
 21
-217.971881
 31
0.0
  0
LINE
  8
1
 62
     2
  5
44
 10
334.982385
 20
-245.971881
 30
0.0
 11
334.982385
 21
-217.971881
 31
0.0
  0
LINE
  8
1
  5
45
 10
284.982385
 20
-277.971881
 30
0.0
 11
284.982385
 21
-217.971881
 31
0.0
  0
LINE
  8
1
  5
46
 10
189.982385
 20
-217.971881
 30
0.0
 11
189.982385
 21
-277.971881
 31
0.0
  0
LINE
  8
1
  5
47
 10
62.982385
 20
-217.971881
 30
0.0
 11
62.982385
 21
-259.971881
 31
0.0
  0
LINE
  8
1
  5
48
 10
284.982385
 20
-245.971881
 30
0.0
 11
394.982385
 21
-245.971881
 31
0.0
  0
TEXT
  8
1
  5
49
 10
287.101129
 20
-271.880939
 30
0.0
 40
6.0
  1
コードＮｏ
 41
0.9
 72
     5
 11
313.021129
 21
-271.880939
 31
0.0
  0
TEXT
  8
1
 62
     3
  5
4A
 10
52.886774
 20
-272.875659
 30
0.0
 40
8.0
  1
ミズタニバルブ工業株式会社
 41
1.2
 72
     5
 11
175.766774
 21
-272.875659
 31
0.0
  0
LINE
  8
1
  5
4B
 10
40.982385
 20
-238.971881
 30
0.0
 11
284.982385
 21
-238.971881
 31
0.0
  0
LINE
  8
1
  5
4C
 10
115.482385
 20
-238.971881
 30
0.0
 11
115.482385
 21
-259.971881
 31
0.0
  0
LINE
  8
1
  5
4D
 10
137.482385
 20
-238.971881
 30
0.0
 11
137.482385
 21
-259.971881
 31
0.0
  0
LINE
  8
1
  5
4E
 10
314.982385
 20
-277.971881
 30
0.0
 11
314.982385
 21
-217.971881
 31
0.0
  0
TEXT
  8
1
  5
4F
 10
345.098131
 20
-256.100293
 30
0.0
 40
6.0
  1
　　・　　・
 72
     5
 11
379.898131
 21
-256.100293
 31
0.0
  0
LINE
  8
1
 62
     3
  5
50
 10
40.982385
 20
-217.971881
 30
0.0
 11
40.982385
 21
-277.971881
 31
0.0
  0
TEXT
  8
1
  5
51
 10
290.832582
 20
-240.013492
 30
0.0
 40
6.0
  1
　／ 
 72
     5
 11
301.632582
 21
-240.013492
 31
0.0
  0
TEXT
  8
1
  5
52
 10
193.904123
 20
-272.024909
 30
0.0
 40
6.0
  1
備 考 
 72
     5
 11
207.704123
 21
-272.024909
 31
0.0
  0
TEXT
  8
1
  5
53
 10
193.512534
 20
-230.89184
 30
0.0
 40
6.0
  1
仕 上
 72
     5
 11
207.312534
 21
-230.89184
 31
0.0
  0
TEXT
  8
1
  5
54
 10
193.447176
 20
-248.891666
 30
0.0
 40
6.0
  1
表 面
 72
     5
 11
207.247176
 21
-248.891666
 31
0.0
  0
TEXT
  8
1
  5
55
 10
193.447176
 20
-255.891666
 30
0.0
 40
6.0
  1
処 理
 72
     5
 11
207.247176
 21
-255.891666
 31
0.0
  0
TEXT
  8
1
  5
56
 10
44.79335
 20
-231.693399
 30
0.0
 40
6.0
  1
品 名
 72
     5
 11
58.59335
 21
-231.693399
 31
0.0
  0
TEXT
  8
1
  5
57
 10
44.397766
 20
-252.462534
 30
0.0
 40
6.0
  1
材 質
 72
     5
 11
58.197766
 21
-252.462534
 31
0.0
  0
TEXT
  8
1
  5
58
 10
118.897766
 20
-252.462534
 30
0.0
 40
6.0
  1
規 格
 72
     5
 11
132.697766
 21
-252.462534
 31
0.0
  0
LINE
  8
2
  5
59
 10
-194.239412
 20
184.187672
 30
0.0
 11
-194.239412
 21
10.434793
 31
0.0
  0
LINE
  8
2
  5
5A
 10
-213.289412
 20
184.187672
 30
0.0
 11
-213.289412
 21
10.434793
 31
0.0
  0
LINE
  8
2
  6
CENTER
 62
     2
  5
5B
 10
-224.48233
 20
-42.065207
 30
0.0
 11
-132.114623
 21
-42.065205
 31
0.0
  0
LINE
  8
2
  6
CENTER
 62
     2
  5
5C
 10
-203.764411
 20
-24.565207
 30
0.0
 11
-203.764411
 21
-180.666176
 31
0.0
  0
LINE
  8
2
  5
5D
 10
-221.264411
 20
0.134793
 30
0.0
 11
-221.264411
 21
-107.265206
 31
0.0
  0
LINE
  8
2
  5
5E
 10
-181.264411
 20
-59.565207
 30
0.0
 11
-163.264413
 21
-59.565207
 31
0.0
  0
LINE
  8
2
  5
5F
 10
-163.264411
 20
-24.565207
 30
0.0
 11
-181.264411
 21
-24.565207
 31
0.0
  0
LINE
  8
2
  5
60
 10
-162.764411
 20
-59.065207
 30
0.0
 11
-163.264412
 21
-59.565206
 31
0.0
  0
LINE
  8
2
  5
61
 10
-162.76441
 20
-25.065207
 30
0.0
 11
-162.76441
 21
-59.065207
 31
0.0
  0
LINE
  8
2
  5
62
 10
-163.264411
 20
-24.565207
 30
0.0
 11
-162.76441
 21
-25.065207
 31
0.0
  0
LINE
  8
2
  5
63
 10
-186.264411
 20
-107.265206
 30
0.0
 11
-186.264411
 21
-64.565207
 31
0.0
  0
LINE
  8
2
  5
64
 10
-186.264411
 20
-19.565207
 30
0.0
 11
-186.264411
 21
0.134793
 31
0.0
  0
ARC
  8
2
  5
65
 10
-181.264411
 20
-19.565207
 30
0.0
 40
5.0
 50
180.0
 51
270.0
  0
ARC
  8
2
  5
66
 10
-181.264411
 20
-64.565207
 30
0.0
 40
5.0
 50
90.0
 51
180.0
  0
LINE
  8
2
  5
67
 10
-186.564411
 20
-107.565206
 30
0.0
 11
-186.264411
 21
-107.265206
 31
0.0
  0
LINE
  8
2
  5
68
 10
-220.964411
 20
-107.565206
 30
0.0
 11
-221.264411
 21
-107.265206
 31
0.0
  0
LINE
  8
2
  6
CENTER
 62
     2
  5
69
 10
-203.764412
 20
199.402374
 30
0.0
 11
-203.764412
 21
-24.565207
 31
0.0
  0
LINE
  8
2
  5
6A
 10
-225.764411
 20
-115.065206
 30
0.0
 11
-225.764411
 21
-112.065206
 31
0.0
  0
LINE
  8
2
  5
6B
 10
-181.764411
 20
-115.065206
 30
0.0
 11
-225.764411
 21
-115.065206
 31
0.0
  0
LINE
  8
2
  5
6C
 10
-227.164411
 20
-112.065206
 30
0.0
 11
-180.364411
 21
-112.065206
 31
0.0
  0
LINE
  8
2
  5
6D
 10
-181.764411
 20
-115.065206
 30
0.0
 11
-181.764411
 21
-112.065206
 31
0.0
  0
LINE
  8
2
  5
6E
 10
-220.764411
 20
-115.565206
 30
0.0
 11
-220.764411
 21
-115.065206
 31
0.0
  0
LINE
  8
2
  5
6F
 10
-220.264411
 20
-116.065206
 30
0.0
 11
-187.264411
 21
-116.065206
 31
0.0
  0
LINE
  8
2
  5
70
 10
-227.664411
 20
-111.565206
 30
0.0
 11
-227.664411
 21
-108.065206
 31
0.0
  0
LINE
  8
2
  5
71
 10
-227.164411
 20
-107.565206
 30
0.0
 11
-180.364411
 21
-107.565206
 31
0.0
  0
LINE
  8
2
  5
72
 10
-227.164411
 20
-107.565206
 30
0.0
 11
-227.664411
 21
-108.065206
 31
0.0
  0
LINE
  8
2
  5
73
 10
-227.164411
 20
-112.065206
 30
0.0
 11
-227.664411
 21
-111.565206
 31
0.0
  0
LINE
  8
2
  5
74
 10
-220.764411
 20
-115.565206
 30
0.0
 11
-220.264411
 21
-116.065206
 31
0.0
  0
LINE
  8
2
  5
75
 10
-186.764411
 20
-115.565206
 30
0.0
 11
-186.764411
 21
-115.065206
 31
0.0
  0
LINE
  8
2
  5
76
 10
-179.864411
 20
-111.565206
 30
0.0
 11
-179.864411
 21
-108.065206
 31
0.0
  0
LINE
  8
2
  5
77
 10
-180.364411
 20
-107.565206
 30
0.0
 11
-179.864411
 21
-108.065206
 31
0.0
  0
LINE
  8
2
  5
78
 10
-180.364411
 20
-112.065206
 30
0.0
 11
-179.864411
 21
-111.565206
 31
0.0
  0
LINE
  8
2
  5
79
 10
-186.764411
 20
-115.565206
 30
0.0
 11
-187.264411
 21
-116.065206
 31
0.0
  0
LINE
  8
2
  5
7A
 10
-140.164411
 20
-24.565207
 30
0.0
 11
-140.164411
 21
33.934794
 31
0.0
  0
LINE
  8
2
  5
7B
 10
-148.164411
 20
33.934795
 30
0.0
 11
-148.164412
 21
-24.565207
 31
0.0
  0
LINE
  8
2
  5
7C
 10
-148.164411
 20
33.934795
 30
0.0
 11
-147.66441
 21
34.434794
 31
0.0
  0
LINE
  8
2
  5
7D
 10
-140.664412
 20
34.434795
 30
0.0
 11
-140.164411
 21
33.934794
 31
0.0
  0
LINE
  8
2
  5
7E
 10
-147.66441
 20
34.434794
 30
0.0
 11
-140.664412
 21
34.434795
 31
0.0
  0
LINE
  8
2
  5
7F
 10
-153.419444
 20
-59.565205
 30
0.0
 11
-137.164411
 21
-59.565222
 31
0.0
  0
LINE
  8
2
  5
80
 10
-137.164411
 20
-24.565209
 30
0.0
 11
-160.164411
 21
-24.565207
 31
0.0
  0
LINE
  8
2
  5
81
 10
-148.164411
 20
-60.565206
 30
0.0
 11
-148.164411
 21
-59.565206
 31
0.0
  0
LINE
  8
2
  5
82
 10
-147.164411
 20
-59.565206
 30
0.0
 11
-148.164411
 21
-59.565206
 31
0.0
  0
ARC
  8
2
  5
83
 10
-144.164411
 20
-53.637003
 30
0.0
 40
8.0
 50
239.999998
 51
299.999998
  0
LINE
  8
2
  5
84
 10
-140.164411
 20
-60.565206
 30
0.0
 11
-140.164411
 21
-59.565206
 31
0.0
  0
LINE
  8
2
  6
CENTER
 62
     2
  5
85
 10
-144.164415
 20
36.920723
 30
0.0
 11
-144.164411
 21
-62.723373
 31
0.0
  0
LINE
  8
2
  5
86
 10
64.248505
 20
14.503335
 30
0.0
 11
61.420078
 21
11.674908
 31
0.0
  0
LINE
  8
2
  5
87
 10
105.941837
 20
-27.189996
 30
0.0
 11
64.248505
 21
14.503335
 31
0.0
  0
LINE
  8
2
  5
88
 10
58.591651
 20
8.846481
 30
0.0
 11
100.284982
 21
-32.846851
 31
0.0
  0
LINE
  8
2
  5
89
 10
61.420078
 20
11.674908
 30
0.0
 11
58.591651
 21
8.846481
 31
0.0
  0
LINE
  8
2
  5
8A
 10
58.591651
 20
9.553588
 30
0.0
 11
61.066525
 21
12.028462
 31
0.0
  0
LINE
  8
2
  5
8B
 10
64.248505
 20
14.503335
 30
0.0
 11
63.541398
 21
14.503335
 31
0.0
  0
LINE
  8
2
  5
8C
 10
58.591651
 20
9.553588
 30
0.0
 11
58.591651
 21
8.846481
 31
0.0
  0
LINE
  8
2
  5
8D
 10
61.066525
 20
12.028462
 30
0.0
 11
63.541398
 21
14.503335
 31
0.0
  0
CIRCLE
  8
2
  5
8E
 10
115.160194
 20
-42.065206
 30
0.0
 40
16.5
  0
CIRCLE
  8
2
  5
8F
 10
115.160194
 20
-42.065206
 30
0.0
 40
17.5
  0
LINE
  8
2
  6
CENTER
 62
     2
  5
90
 10
130.094435
 20
-56.99945
 30
0.0
 11
55.737237
 21
17.357748
 31
0.0
  0
LINE
  8
2
  6
PHANTOM
 62
     2
  5
91
 10
91.012047
 20
-38.065206
 30
0.0
 11
39.160194
 21
-38.065207
 31
0.0
  0
LINE
  8
2
  6
PHANTOM
 62
     2
  5
92
 10
39.160194
 20
-46.065206
 30
0.0
 11
91.012046
 21
-46.065207
 31
0.0
  0
LINE
  8
2
  6
PHANTOM
 62
     2
  5
93
 10
38.660193
 20
-45.565206
 30
0.0
 11
38.660193
 21
-38.565206
 31
0.0
  0
LINE
  8
2
  6
PHANTOM
 62
     2
  5
94
 10
39.160194
 20
-38.065207
 30
0.0
 11
38.660193
 21
-38.565206
 31
0.0
  0
LINE
  8
2
  6
PHANTOM
 62
     2
  5
95
 10
38.660193
 20
-45.565206
 30
0.0
 11
39.160194
 21
-46.065206
 31
0.0
  0
LINE
  8
2
  6
PHANTOM
 62
     2
  5
96
 10
111.160192
 20
-17.917061
 30
0.0
 11
111.160192
 21
33.934792
 31
0.0
  0
LINE
  8
2
  6
PHANTOM
 62
     2
  5
97
 10
119.160192
 20
33.934792
 30
0.0
 11
119.160192
 21
-17.917061
 31
0.0
  0
LINE
  8
2
  6
PHANTOM
 62
     2
  5
98
 10
118.660192
 20
34.434792
 30
0.0
 11
111.660192
 21
34.434792
 31
0.0
  0
LINE
  8
2
  6
PHANTOM
 62
     2
  5
99
 10
111.160192
 20
33.934792
 30
0.0
 11
111.660192
 21
34.434792
 31
0.0
  0
LINE
  8
2
  6
PHANTOM
 62
     2
  5
9A
 10
118.660192
 20
34.434792
 30
0.0
 11
119.160192
 21
33.934792
 31
0.0
  0
LINE
  8
2
  6
CENTER
 62
     2
  5
9B
 10
36.05576
 20
-42.065207
 30
0.0
 11
137.163086
 21
-42.065206
 31
0.0
  0
POINT
  8
2
  5
9C
 10
115.160194
 20
-42.065207
 30
0.0
  0
LINE
  8
2
  5
9D
 10
132.660192
 20
0.134793
 30
0.0
 11
132.660192
 21
-107.565206
 31
0.0
  0
LINE
  8
2
  5
9E
 10
105.635192
 20
149.187672
 30
0.0
 11
105.635192
 21
10.434793
 31
0.0
  0
LINE
  8
2
  5
9F
 10
124.685192
 20
149.187672
 30
0.0
 11
124.685192
 21
10.434793
 31
0.0
  0
LINE
  8
2
  5
A0
 10
38.320378
 20
164.416119
 30
0.0
 11
3.426245
 21
68.545276
 31
0.0
  0
LINE
  8
2
  5
A1
 10
56.221523
 20
157.900635
 30
0.0
 11
21.32739
 21
62.029792
 31
0.0
  0
LINE
  8
2
  5
A2
 10
21.303897
 20
62.038343
 30
0.0
 11
21.132887
 21
61.568497
 31
0.0
  0
LINE
  8
2
  5
A3
 10
3.449738
 20
68.536726
 30
0.0
 11
3.278728
 21
68.066879
 31
0.0
  0
LINE
  8
2
  5
A4
 10
4.172016
 20
67.103242
 30
0.0
 11
4.377228
 21
67.667058
 31
0.0
  0
LINE
  8
2
  5
A5
 10
3.278728
 20
68.066879
 30
0.0
 11
21.132887
 21
61.568497
 31
0.0
  0
LINE
  8
2
  5
A6
 10
4.377228
 20
67.667058
 30
0.0
 11
4.497535
 21
66.984763
 31
0.0
  0
LINE
  8
2
  5
A7
 10
3.426245
 20
68.545276
 30
0.0
 11
21.32739
 21
62.029792
 31
0.0
  0
LINE
  8
2
  5
A8
 10
20.756665
 20
60.534835
 30
0.0
 11
14.258282
 21
42.680675
 31
0.0
  0
LINE
  8
2
  5
A9
 10
2.902505
 20
67.033217
 30
0.0
 11
-3.595877
 21
49.179058
 31
0.0
  0
LINE
  8
2
  5
AA
 10
13.617426
 20
42.381839
 30
0.0
 11
-3.297041
 21
48.538201
 31
0.0
  0
ARC
  8
2
  5
AB
 10
-3.126031
 20
49.008048
 30
0.0
 40
0.5
 50
160.0
 51
250.0
  0
ARC
  8
2
  5
AC
 10
3.372352
 20
66.862207
 30
0.0
 40
0.5
 50
70.0
 51
160.0
  0
ARC
  8
2
  5
AD
 10
20.286819
 20
60.705845
 30
0.0
 40
0.5
 50
340.0
 51
70.0
  0
LINE
  8
2
  5
AE
 10
20.457829
 20
61.175691
 30
0.0
 11
3.543362
 21
67.332054
 31
0.0
  0
ARC
  8
2
  5
AF
 10
13.788436
 20
42.851685
 30
0.0
 40
0.5
 50
250.0
 51
340.0
  0
LINE
  8
2
  5
B0
 10
20.034387
 20
61.968318
 30
0.0
 11
19.503656
 21
61.522982
 31
0.0
  0
LINE
  8
2
  5
B1
 10
19.829175
 20
61.404503
 30
0.0
 11
20.034387
 21
61.968318
 31
0.0
  0
LINE
  8
2
 62
     2
  5
B2
 10
131.070098
 20
-52.318256
 30
0.0
 11
125.413243
 21
-57.97511
 31
0.0
  0
LINE
  8
2
  5
B3
 10
131.070098
 20
-52.318256
 30
0.0
 11
130.035406
 21
-51.283564
 31
0.0
  0
ARC
  8
2
  5
B4
 10
123.342691
 20
-50.247704
 30
0.0
 40
8.0
 50
315.0
 51
345.0
  0
ARC
  8
2
  5
B5
 10
123.342691
 20
-50.247704
 30
0.0
 40
8.0
 50
285.0
 51
315.0
  0
LINE
  8
2
  5
B6
 10
125.413243
 20
-57.97511
 30
0.0
 11
124.378552
 21
-56.940419
 31
0.0
  0
LINE
  8
2
  5
B7
 10
93.160192
 20
-115.065206
 30
0.0
 11
93.160192
 21
-112.065206
 31
0.0
  0
LINE
  8
2
  5
B8
 10
137.160192
 20
-115.065206
 30
0.0
 11
93.160192
 21
-115.065206
 31
0.0
  0
LINE
  8
2
  5
B9
 10
137.160192
 20
-115.065206
 30
0.0
 11
137.160192
 21
-112.065206
 31
0.0
  0
LINE
  8
2
  5
BA
 10
138.560192
 20
-112.065206
 30
0.0
 11
91.760192
 21
-112.065206
 31
0.0
  0
LINE
  8
2
  5
BB
 10
91.260192
 20
-111.565206
 30
0.0
 11
91.260192
 21
-108.065206
 31
0.0
  0
LINE
  8
2
  5
BC
 10
91.760192
 20
-107.565206
 30
0.0
 11
138.560192
 21
-107.565206
 31
0.0
  0
LINE
  8
2
  5
BD
 10
91.760192
 20
-107.565206
 30
0.0
 11
91.260192
 21
-108.065206
 31
0.0
  0
LINE
  8
2
  5
BE
 10
91.760192
 20
-112.065206
 30
0.0
 11
91.260192
 21
-111.565206
 31
0.0
  0
LINE
  8
2
  5
BF
 10
139.060192
 20
-111.565206
 30
0.0
 11
139.060192
 21
-108.065206
 31
0.0
  0
LINE
  8
2
  5
C0
 10
138.560192
 20
-107.565206
 30
0.0
 11
139.060192
 21
-108.065206
 31
0.0
  0
LINE
  8
2
  5
C1
 10
138.560192
 20
-112.065206
 30
0.0
 11
139.060192
 21
-111.565206
 31
0.0
  0
LINE
  8
2
  5
C2
 10
139.060192
 20
-108.065206
 30
0.0
 11
91.260192
 21
-108.065206
 31
0.0
  0
LINE
  8
2
  5
C3
 10
91.260192
 20
-111.565206
 30
0.0
 11
139.060192
 21
-111.565206
 31
0.0
  0
LINE
  8
2
  5
C4
 10
98.160192
 20
-115.565206
 30
0.0
 11
98.160192
 21
-115.065206
 31
0.0
  0
LINE
  8
2
  5
C5
 10
98.160192
 20
-115.565206
 30
0.0
 11
98.660192
 21
-116.065206
 31
0.0
  0
LINE
  8
2
  5
C6
 10
132.160192
 20
-115.565206
 30
0.0
 11
132.160192
 21
-115.065206
 31
0.0
  0
LINE
  8
2
  5
C7
 10
131.660192
 20
-116.065206
 30
0.0
 11
98.660192
 21
-116.065206
 31
0.0
  0
LINE
  8
2
  5
C8
 10
132.160192
 20
-115.565206
 30
0.0
 11
131.660192
 21
-116.065206
 31
0.0
  0
LINE
  8
2
  5
C9
 10
132.160192
 20
-115.565206
 30
0.0
 11
98.160192
 21
-115.565206
 31
0.0
  0
LINE
  8
2
  5
CA
 10
-140.164411
 20
33.934794
 30
0.0
 11
-148.164411
 21
33.934795
 31
0.0
  0
LINE
  8
2
  5
CB
 10
-140.164411
 20
-60.565206
 30
0.0
 11
-148.164411
 21
-60.565206
 31
0.0
  0
LINE
  8
2
  5
CC
 10
-163.264411
 20
-24.565207
 30
0.0
 11
-163.264411
 21
-59.565207
 31
0.0
  0
LINE
  8
2
  5
CD
 10
-227.664411
 20
-108.065206
 30
0.0
 11
-179.864411
 21
-108.065206
 31
0.0
  0
LINE
  8
2
  5
CE
 10
-179.864411
 20
-111.565206
 30
0.0
 11
-227.664411
 21
-111.565206
 31
0.0
  0
LINE
  8
2
  5
CF
 10
-186.264411
 20
-107.265206
 30
0.0
 11
-221.264411
 21
-107.265206
 31
0.0
  0
LINE
  8
2
  5
D0
 10
-186.764411
 20
-115.565206
 30
0.0
 11
-220.764411
 21
-115.565206
 31
0.0
  0
ARC
  8
2
  5
D1
 10
-203.764412
 20
184.187672
 30
0.0
 40
9.525
 50
0.0
 51
180.0
  0
POLYLINE
  8
2
  5
D2
 66
     1
 10
0.0
 20
0.0
 30
0.0
  0
VERTEX
  8
2
  5
6BB
 10
-194.254512
 20
64.356311
 30
0.0
  0
VERTEX
  8
2
  5
6BC
 10
-194.239412
 20
64.582888
 30
0.0
  0
VERTEX
  8
2
  5
6BD
 10
-194.314119
 20
65.086068
 30
0.0
  0
VERTEX
  8
2
  5
6BE
 10
-194.54187
 20
65.589248
 30
0.0
  0
VERTEX
  8
2
  5
6BF
 10
-194.9345
 20
66.092427
 30
0.0
  0
VERTEX
  8
2
  5
6C0
 10
-195.51552
 20
66.595607
 30
0.0
  0
VERTEX
  8
2
  5
6C1
 10
-196.328961
 20
67.098787
 30
0.0
  0
VERTEX
  8
2
  5
6C2
 10
-197.464216
 20
67.601967
 30
0.0
  0
VERTEX
  8
2
  5
6C3
 10
-199.153141
 20
68.105147
 30
0.0
  0
VERTEX
  8
2
  5
6C4
 10
-203.764412
 20
68.608327
 30
0.0
  0
VERTEX
  8
2
  5
6C5
 10
-208.375682
 20
68.105147
 30
0.0
  0
VERTEX
  8
2
  5
6C6
 10
-210.064607
 20
67.601967
 30
0.0
  0
VERTEX
  8
2
  5
6C7
 10
-211.199862
 20
67.098787
 30
0.0
  0
VERTEX
  8
2
  5
6C8
 10
-212.013304
 20
66.595607
 30
0.0
  0
VERTEX
  8
2
  5
6C9
 10
-212.594323
 20
66.092427
 30
0.0
  0
VERTEX
  8
2
  5
6CA
 10
-212.986953
 20
65.589248
 30
0.0
  0
VERTEX
  8
2
  5
6CB
 10
-213.214705
 20
65.086068
 30
0.0
  0
VERTEX
  8
2
  5
6CC
 10
-213.289412
 20
64.582888
 30
0.0
  0
VERTEX
  8
2
  5
6CD
 10
-213.274311
 20
64.356311
 30
0.0
  0
SEQEND
  8
2
  5
6CE
  0
POLYLINE
  8
2
  5
E7
 66
     1
 10
0.0
 20
0.0
 30
0.0
  0
VERTEX
  8
2
  5
6CF
 10
-194.261221
 20
63.857484
 30
0.0
  0
VERTEX
  8
2
  5
6D0
 10
-194.239412
 20
64.129734
 30
0.0
  0
VERTEX
  8
2
  5
6D1
 10
-194.314119
 20
64.632914
 30
0.0
  0
VERTEX
  8
2
  5
6D2
 10
-194.54187
 20
65.136094
 30
0.0
  0
VERTEX
  8
2
  5
6D3
 10
-194.9345
 20
65.639274
 30
0.0
  0
VERTEX
  8
2
  5
6D4
 10
-195.51552
 20
66.142453
 30
0.0
  0
VERTEX
  8
2
  5
6D5
 10
-196.328961
 20
66.645633
 30
0.0
  0
VERTEX
  8
2
  5
6D6
 10
-197.464216
 20
67.148813
 30
0.0
  0
VERTEX
  8
2
  5
6D7
 10
-199.153141
 20
67.651993
 30
0.0
  0
VERTEX
  8
2
  5
6D8
 10
-203.764412
 20
68.155173
 30
0.0
  0
VERTEX
  8
2
  5
6D9
 10
-208.375682
 20
67.651993
 30
0.0
  0
VERTEX
  8
2
  5
6DA
 10
-210.064607
 20
67.148813
 30
0.0
  0
VERTEX
  8
2
  5
6DB
 10
-211.199862
 20
66.645633
 30
0.0
  0
VERTEX
  8
2
  5
6DC
 10
-212.013304
 20
66.142453
 30
0.0
  0
VERTEX
  8
2
  5
6DD
 10
-212.594323
 20
65.639274
 30
0.0
  0
VERTEX
  8
2
  5
6DE
 10
-212.986953
 20
65.136094
 30
0.0
  0
VERTEX
  8
2
  5
6DF
 10
-213.214705
 20
64.632914
 30
0.0
  0
VERTEX
  8
2
  5
6E0
 10
-213.289412
 20
64.129734
 30
0.0
  0
VERTEX
  8
2
  5
6E1
 10
-213.267602
 20
63.857484
 30
0.0
  0
SEQEND
  8
2
  5
6E2
  0
POLYLINE
  8
2
  5
FC
 66
     1
 10
0.0
 20
0.0
 30
0.0
  0
VERTEX
  8
2
  5
6E3
 10
-194.239412
 20
63.585949
 30
0.0
  0
VERTEX
  8
2
  5
6E4
 10
-194.314119
 20
64.087808
 30
0.0
  0
VERTEX
  8
2
  5
6E5
 10
-194.54187
 20
64.589668
 30
0.0
  0
VERTEX
  8
2
  5
6E6
 10
-194.9345
 20
65.091527
 30
0.0
  0
VERTEX
  8
2
  5
6E7
 10
-195.51552
 20
65.593386
 30
0.0
  0
VERTEX
  8
2
  5
6E8
 10
-196.328961
 20
66.095245
 30
0.0
  0
VERTEX
  8
2
  5
6E9
 10
-197.464216
 20
66.597104
 30
0.0
  0
VERTEX
  8
2
  5
6EA
 10
-199.153141
 20
67.098964
 30
0.0
  0
VERTEX
  8
2
  5
6EB
 10
-203.764412
 20
67.600823
 30
0.0
  0
VERTEX
  8
2
  5
6EC
 10
-208.375682
 20
67.098964
 30
0.0
  0
VERTEX
  8
2
  5
6ED
 10
-210.064607
 20
66.597104
 30
0.0
  0
VERTEX
  8
2
  5
6EE
 10
-211.199862
 20
66.095245
 30
0.0
  0
VERTEX
  8
2
  5
6EF
 10
-212.013304
 20
65.593386
 30
0.0
  0
VERTEX
  8
2
  5
6F0
 10
-212.594323
 20
65.091527
 30
0.0
  0
VERTEX
  8
2
  5
6F1
 10
-212.986953
 20
64.589668
 30
0.0
  0
VERTEX
  8
2
  5
6F2
 10
-213.214705
 20
64.087808
 30
0.0
  0
VERTEX
  8
2
  5
6F3
 10
-213.289412
 20
63.585949
 30
0.0
  0
SEQEND
  8
2
  5
6F4
  0
POLYLINE
  8
2
  5
10F
 66
     1
 10
0.0
 20
0.0
 30
0.0
 70
     1
  0
VERTEX
  8
2
  5
6F5
 10
-194.764412
 20
45.459794
 30
0.0
  0
VERTEX
  8
2
  5
6F6
 10
-194.856722
 20
46.00316
 30
0.0
  0
VERTEX
  8
2
  5
6F7
 10
-195.139578
 20
46.546526
 30
0.0
  0
VERTEX
  8
2
  5
6F8
 10
-195.63284
 20
47.089893
 30
0.0
  0
VERTEX
  8
2
  5
6F9
 10
-196.378545
 20
47.633259
 30
0.0
  0
VERTEX
  8
2
  5
6FA
 10
-197.465724
 20
48.176625
 30
0.0
  0
VERTEX
  8
2
  5
6FB
 10
-199.128703
 20
48.719992
 30
0.0
  0
VERTEX
  8
2
  5
6FC
 10
-203.764412
 20
49.263358
 30
0.0
  0
VERTEX
  8
2
  5
6FD
 10
-208.40012
 20
48.719992
 30
0.0
  0
VERTEX
  8
2
  5
6FE
 10
-210.063099
 20
48.176625
 30
0.0
  0
VERTEX
  8
2
  5
6FF
 10
-211.150278
 20
47.633259
 30
0.0
  0
VERTEX
  8
2
  5
700
 10
-211.895983
 20
47.089893
 30
0.0
  0
VERTEX
  8
2
  5
701
 10
-212.389245
 20
46.546526
 30
0.0
  0
VERTEX
  8
2
  5
702
 10
-212.672101
 20
46.00316
 30
0.0
  0
VERTEX
  8
2
  5
703
 10
-212.764412
 20
45.459794
 30
0.0
  0
VERTEX
  8
2
  5
704
 10
-212.672101
 20
44.916427
 30
0.0
  0
VERTEX
  8
2
  5
705
 10
-212.389245
 20
44.373061
 30
0.0
  0
VERTEX
  8
2
  5
706
 10
-211.895983
 20
43.829695
 30
0.0
  0
VERTEX
  8
2
  5
707
 10
-211.150278
 20
43.286328
 30
0.0
  0
VERTEX
  8
2
  5
708
 10
-210.063099
 20
42.742962
 30
0.0
  0
VERTEX
  8
2
  5
709
 10
-208.40012
 20
42.199596
 30
0.0
  0
VERTEX
  8
2
  5
70A
 10
-203.764412
 20
41.656229
 30
0.0
  0
VERTEX
  8
2
  5
70B
 10
-199.128703
 20
42.199596
 30
0.0
  0
VERTEX
  8
2
  5
70C
 10
-197.465724
 20
42.742962
 30
0.0
  0
VERTEX
  8
2
  5
70D
 10
-196.378545
 20
43.286328
 30
0.0
  0
VERTEX
  8
2
  5
70E
 10
-195.63284
 20
43.829695
 30
0.0
  0
VERTEX
  8
2
  5
70F
 10
-195.139578
 20
44.373061
 30
0.0
  0
VERTEX
  8
2
  5
710
 10
-194.856722
 20
44.916427
 30
0.0
  0
VERTEX
  8
2
  5
711
 10
-194.764412
 20
45.459794
 30
0.0
  0
SEQEND
  8
2
  5
712
  0
POLYLINE
  8
2
  5
12E
 66
     1
 10
0.0
 20
0.0
 30
0.0
  0
VERTEX
  8
2
  5
713
 10
-195.671365
 20
43.795804
 30
0.0
  0
VERTEX
  8
2
  5
714
 10
-195.51552
 20
43.905511
 30
0.0
  0
VERTEX
  8
2
  5
715
 10
-194.9345
 20
44.40737
 30
0.0
  0
VERTEX
  8
2
  5
716
 10
-194.54187
 20
44.909229
 30
0.0
  0
VERTEX
  8
2
  5
717
 10
-194.314119
 20
45.411088
 30
0.0
  0
VERTEX
  8
2
  5
718
 10
-194.239412
 20
45.912947
 30
0.0
  0
VERTEX
  8
2
  5
719
 10
-194.314119
 20
46.414807
 30
0.0
  0
VERTEX
  8
2
  5
71A
 10
-194.54187
 20
46.916666
 30
0.0
  0
VERTEX
  8
2
  5
71B
 10
-194.9345
 20
47.418525
 30
0.0
  0
VERTEX
  8
2
  5
71C
 10
-195.51552
 20
47.920384
 30
0.0
  0
VERTEX
  8
2
  5
71D
 10
-196.328961
 20
48.422243
 30
0.0
  0
VERTEX
  8
2
  5
71E
 10
-197.464216
 20
48.924103
 30
0.0
  0
VERTEX
  8
2
  5
71F
 10
-199.153141
 20
49.425962
 30
0.0
  0
VERTEX
  8
2
  5
720
 10
-203.764412
 20
49.927821
 30
0.0
  0
VERTEX
  8
2
  5
721
 10
-208.375682
 20
49.425962
 30
0.0
  0
VERTEX
  8
2
  5
722
 10
-210.064607
 20
48.924103
 30
0.0
  0
VERTEX
  8
2
  5
723
 10
-211.199862
 20
48.422243
 30
0.0
  0
VERTEX
  8
2
  5
724
 10
-212.013304
 20
47.920384
 30
0.0
  0
VERTEX
  8
2
  5
725
 10
-212.594323
 20
47.418525
 30
0.0
  0
VERTEX
  8
2
  5
726
 10
-212.986953
 20
46.916666
 30
0.0
  0
VERTEX
  8
2
  5
727
 10
-213.214705
 20
46.414807
 30
0.0
  0
VERTEX
  8
2
  5
728
 10
-213.289412
 20
45.912947
 30
0.0
  0
VERTEX
  8
2
  5
729
 10
-213.214705
 20
45.411088
 30
0.0
  0
VERTEX
  8
2
  5
72A
 10
-212.986953
 20
44.909229
 30
0.0
  0
VERTEX
  8
2
  5
72B
 10
-212.594323
 20
44.40737
 30
0.0
  0
VERTEX
  8
2
  5
72C
 10
-212.013304
 20
43.905511
 30
0.0
  0
VERTEX
  8
2
  5
72D
 10
-211.857458
 20
43.795804
 30
0.0
  0
SEQEND
  8
2
  5
72E
  0
POLYLINE
  8
2
  5
14B
 66
     1
 10
0.0
 20
0.0
 30
0.0
 70
     1
  0
VERTEX
  8
2
  5
72F
 10
-196.014412
 20
45.459794
 30
0.0
  0
VERTEX
  8
2
  5
730
 10
-196.122809
 20
46.005675
 30
0.0
  0
VERTEX
  8
2
  5
731
 10
-196.457642
 20
46.551557
 30
0.0
  0
VERTEX
  8
2
  5
732
 10
-197.052715
 20
47.097439
 30
0.0
  0
VERTEX
  8
2
  5
733
 10
-197.987903
 20
47.643321
 30
0.0
  0
VERTEX
  8
2
  5
734
 10
-199.480438
 20
48.189203
 30
0.0
  0
VERTEX
  8
2
  5
735
 10
-203.764412
 20
48.735085
 30
0.0
  0
VERTEX
  8
2
  5
736
 10
-208.048385
 20
48.189203
 30
0.0
  0
VERTEX
  8
2
  5
737
 10
-209.540921
 20
47.643321
 30
0.0
  0
VERTEX
  8
2
  5
738
 10
-210.476108
 20
47.097439
 30
0.0
  0
VERTEX
  8
2
  5
739
 10
-211.071182
 20
46.551557
 30
0.0
  0
VERTEX
  8
2
  5
73A
 10
-211.406015
 20
46.005675
 30
0.0
  0
VERTEX
  8
2
  5
73B
 10
-211.514412
 20
45.459794
 30
0.0
  0
VERTEX
  8
2
  5
73C
 10
-211.406015
 20
44.913912
 30
0.0
  0
VERTEX
  8
2
  5
73D
 10
-211.071182
 20
44.36803
 30
0.0
  0
VERTEX
  8
2
  5
73E
 10
-210.476108
 20
43.822148
 30
0.0
  0
VERTEX
  8
2
  5
73F
 10
-209.540921
 20
43.276266
 30
0.0
  0
VERTEX
  8
2
  5
740
 10
-208.048385
 20
42.730384
 30
0.0
  0
VERTEX
  8
2
  5
741
 10
-203.764412
 20
42.184502
 30
0.0
  0
VERTEX
  8
2
  5
742
 10
-199.480438
 20
42.730384
 30
0.0
  0
VERTEX
  8
2
  5
743
 10
-197.987903
 20
43.276266
 30
0.0
  0
VERTEX
  8
2
  5
744
 10
-197.052715
 20
43.822148
 30
0.0
  0
VERTEX
  8
2
  5
745
 10
-196.457642
 20
44.36803
 30
0.0
  0
VERTEX
  8
2
  5
746
 10
-196.122809
 20
44.913912
 30
0.0
  0
VERTEX
  8
2
  5
747
 10
-196.014412
 20
45.459794
 30
0.0
  0
SEQEND
  8
2
  5
748
  0
POLYLINE
  8
2
  5
166
 66
     1
 10
0.0
 20
0.0
 30
0.0
 70
     1
  0
VERTEX
  8
2
  5
749
 10
-197.264412
 20
45.459794
 30
0.0
  0
VERTEX
  8
2
  5
74A
 10
-197.395738
 20
45.972945
 30
0.0
  0
VERTEX
  8
2
  5
74B
 10
-197.807063
 20
46.486096
 30
0.0
  0
VERTEX
  8
2
  5
74C
 10
-198.564412
 20
46.999248
 30
0.0
  0
VERTEX
  8
2
  5
74D
 10
-199.864412
 20
47.512399
 30
0.0
  0
VERTEX
  8
2
  5
74E
 10
-203.764412
 20
48.025551
 30
0.0
  0
VERTEX
  8
2
  5
74F
 10
-207.664412
 20
47.512399
 30
0.0
  0
VERTEX
  8
2
  5
750
 10
-208.964412
 20
46.999248
 30
0.0
  0
VERTEX
  8
2
  5
751
 10
-209.72176
 20
46.486096
 30
0.0
  0
VERTEX
  8
2
  5
752
 10
-210.133085
 20
45.972945
 30
0.0
  0
VERTEX
  8
2
  5
753
 10
-210.264412
 20
45.459794
 30
0.0
  0
VERTEX
  8
2
  5
754
 10
-210.133085
 20
44.946642
 30
0.0
  0
VERTEX
  8
2
  5
755
 10
-209.72176
 20
44.433491
 30
0.0
  0
VERTEX
  8
2
  5
756
 10
-208.964412
 20
43.920339
 30
0.0
  0
VERTEX
  8
2
  5
757
 10
-207.664412
 20
43.407188
 30
0.0
  0
VERTEX
  8
2
  5
758
 10
-203.764412
 20
42.894036
 30
0.0
  0
VERTEX
  8
2
  5
759
 10
-199.864412
 20
43.407188
 30
0.0
  0
VERTEX
  8
2
  5
75A
 10
-198.564412
 20
43.920339
 30
0.0
  0
VERTEX
  8
2
  5
75B
 10
-197.807063
 20
44.433491
 30
0.0
  0
VERTEX
  8
2
  5
75C
 10
-197.395738
 20
44.946642
 30
0.0
  0
VERTEX
  8
2
  5
75D
 10
-197.264412
 20
45.459794
 30
0.0
  0
SEQEND
  8
2
  5
75E
  0
LINE
  8
2
  6
CENTER
 62
     2
  5
17D
 10
124.660193
 20
-113.455589
 30
0.0
 11
124.660193
 21
-215.333725
 31
0.0
  0
LINE
  8
2
  5
17E
 10
97.960192
 20
-142.877021
 30
0.0
 11
137.960192
 21
-142.877021
 31
0.0
  0
LINE
  8
2
  5
17F
 10
97.960192
 20
-138.877021
 30
0.0
 11
97.960192
 21
-142.877021
 31
0.0
  0
LINE
  8
2
  5
180
 10
137.960192
 20
-142.877021
 30
0.0
 11
137.960192
 21
-138.877021
 31
0.0
  0
LINE
  8
2
  5
181
 10
128.660192
 20
-138.877021
 30
0.0
 11
128.660192
 21
-116.065206
 31
0.0
  0
LINE
  8
2
  5
182
 10
128.035192
 20
-138.877021
 30
0.0
 11
128.035192
 21
-116.065206
 31
0.0
  0
LINE
  8
2
  5
183
 10
121.285192
 20
-138.877021
 30
0.0
 11
121.285192
 21
-116.065206
 31
0.0
  0
LINE
  8
2
  5
184
 10
120.660192
 20
-138.877021
 30
0.0
 11
120.660192
 21
-116.065206
 31
0.0
  0
LINE
  8
2
  5
185
 10
-228.264543
 20
-138.877021
 30
0.0
 11
-228.264543
 21
-142.877021
 31
0.0
  0
LINE
  8
2
  5
186
 10
-179.264543
 20
-138.877021
 30
0.0
 11
-179.264543
 21
-142.877021
 31
0.0
  0
LINE
  8
2
  5
187
 10
-228.264543
 20
-138.877021
 30
0.0
 11
-217.76433
 21
-138.877021
 31
0.0
  0
LINE
  8
2
  5
188
 10
-204.764492
 20
-138.877021
 30
0.0
 11
-202.764492
 21
-138.877021
 31
0.0
  0
LINE
  8
2
  5
189
 10
-189.764492
 20
-138.877021
 30
0.0
 11
-179.264543
 21
-138.877021
 31
0.0
  0
LINE
  8
2
  5
18A
 10
-190.514492
 20
-142.877021
 30
0.0
 11
-179.264543
 21
-142.877021
 31
0.0
  0
LINE
  8
2
  5
18B
 10
-228.264543
 20
-142.877021
 30
0.0
 11
-217.01433
 21
-142.877021
 31
0.0
  0
LINE
  8
2
  5
18C
 10
-205.51433
 20
-142.877021
 30
0.0
 11
-202.014492
 21
-142.877021
 31
0.0
  0
LINE
  8
2
  5
18D
 10
-202.264492
 20
-121.676531
 30
0.0
 11
-202.264492
 21
-116.353882
 31
0.0
  0
LINE
  8
2
  5
18E
 10
-190.264492
 20
-121.676531
 30
0.0
 11
-190.264492
 21
-116.353882
 31
0.0
  0
LINE
  8
2
  5
18F
 10
-190.464492
 20
-121.965206
 30
0.0
 11
-202.064492
 21
-121.965206
 31
0.0
  0
LINE
  8
2
  5
190
 10
-193.866576
 20
-116.353882
 30
0.0
 11
-193.866576
 21
-121.676531
 31
0.0
  0
LINE
  8
2
  5
191
 10
-192.70031
 20
-116.353882
 30
0.0
 11
-192.70031
 21
-121.676531
 31
0.0
  0
LINE
  8
2
  5
192
 10
-190.302395
 20
-116.353882
 30
0.0
 11
-190.302395
 21
-121.676531
 31
0.0
  0
LINE
  8
2
  5
193
 10
-190.764492
 20
-121.965206
 30
0.0
 11
-190.264492
 21
-121.676531
 31
0.0
  0
LINE
  8
2
  5
194
 10
-192.70031
 20
-121.676531
 30
0.0
 11
-193.866576
 21
-121.676531
 31
0.0
  0
LINE
  8
2
  5
195
 10
-202.264492
 20
-121.676531
 30
0.0
 11
-201.764492
 21
-121.965206
 31
0.0
  0
LINE
  8
2
  5
196
 10
-202.264492
 20
-116.353882
 30
0.0
 11
-201.764492
 21
-116.065206
 31
0.0
  0
ARC
  8
2
  5
197
 10
-196.264492
 20
-111.861577
 30
0.0
 40
10.10363
 50
270.0
 51
283.729133
  0
ARC
  8
2
  5
198
 10
-196.264492
 20
-126.168836
 30
0.0
 40
10.10363
 50
76.270867
 51
90.0
  0
LINE
  8
2
  5
199
 10
-192.70031
 20
-116.353882
 30
0.0
 11
-193.866576
 21
-116.353882
 31
0.0
  0
LINE
  8
2
  5
19A
 10
-190.264492
 20
-121.676531
 30
0.0
 11
-190.302395
 21
-121.676531
 31
0.0
  0
ARC
  8
2
  5
19B
 10
-191.501352
 20
-119.331046
 30
0.0
 40
2.634161
 50
242.924933
 51
297.075067
  0
ARC
  8
2
  5
19C
 10
-191.501352
 20
-118.699367
 30
0.0
 40
2.634161
 50
62.924933
 51
117.075067
  0
LINE
  8
2
  5
19D
 10
-190.764492
 20
-116.065206
 30
0.0
 11
-190.264492
 21
-116.353882
 31
0.0
  0
LINE
  8
2
  5
19E
 10
-202.764492
 20
-138.965206
 30
0.0
 11
-189.764492
 21
-138.965206
 31
0.0
  0
LINE
  8
2
  5
19F
 10
-202.764492
 20
-138.965206
 30
0.0
 11
-202.764492
 21
-126.465206
 31
0.0
  0
LINE
  8
2
  5
1A0
 10
-189.764492
 20
-138.965206
 30
0.0
 11
-189.764492
 21
-126.465206
 31
0.0
  0
LINE
  8
2
  5
1A1
 10
-200.138822
 20
-124.965206
 30
0.0
 11
-200.138822
 21
-122.465206
 31
0.0
  0
LINE
  8
2
  5
1A2
 10
-200.845929
 20
-124.965206
 30
0.0
 11
-200.845929
 21
-122.465206
 31
0.0
  0
LINE
  8
2
  5
1A3
 10
-202.264492
 20
-124.965206
 30
0.0
 11
-202.264492
 21
-122.165206
 31
0.0
  0
LINE
  8
2
  5
1A4
 10
-196.764492
 20
-124.965206
 30
0.0
 11
-196.764492
 21
-122.465206
 31
0.0
  0
LINE
  8
2
  5
1A5
 10
-195.764492
 20
-124.965206
 30
0.0
 11
-195.764492
 21
-122.465206
 31
0.0
  0
LINE
  8
2
  5
1A6
 10
-192.390162
 20
-124.965206
 30
0.0
 11
-192.390162
 21
-122.465206
 31
0.0
  0
LINE
  8
2
  5
1A7
 10
-191.683055
 20
-124.965206
 30
0.0
 11
-191.683055
 21
-122.465206
 31
0.0
  0
LINE
  8
2
  5
1A8
 10
-190.264492
 20
-124.965206
 30
0.0
 11
-190.264492
 21
-122.165206
 31
0.0
  0
LINE
  8
2
  5
1A9
 10
-190.285362
 20
-124.965206
 30
0.0
 11
-190.285362
 21
-122.465206
 31
0.0
  0
LINE
  8
2
  5
1AA
 10
-200.845929
 20
-122.465206
 30
0.0
 11
-202.264492
 21
-122.465206
 31
0.0
  0
LINE
  8
2
  5
1AB
 10
-196.764492
 20
-122.465206
 30
0.0
 11
-200.138822
 21
-122.465206
 31
0.0
  0
LINE
  8
2
  5
1AC
 10
-190.264492
 20
-122.465206
 30
0.0
 11
-191.683055
 21
-122.465206
 31
0.0
  0
LINE
  8
2
  5
1AD
 10
-192.390162
 20
-122.465206
 30
0.0
 11
-195.764492
 21
-122.465206
 31
0.0
  0
LINE
  8
2
  5
1AE
 10
-200.845929
 20
-124.965206
 30
0.0
 11
-202.264492
 21
-124.965206
 31
0.0
  0
LINE
  8
2
  5
1AF
 10
-196.764492
 20
-124.965206
 30
0.0
 11
-200.138822
 21
-124.965206
 31
0.0
  0
LINE
  8
2
  5
1B0
 10
-190.264492
 20
-124.965206
 30
0.0
 11
-191.683055
 21
-124.965206
 31
0.0
  0
LINE
  8
2
  5
1B1
 10
-192.390162
 20
-124.965206
 30
0.0
 11
-195.764492
 21
-124.965206
 31
0.0
  0
ARC
  8
2
  5
1B2
 10
-190.464492
 20
-122.165206
 30
0.0
 40
0.2
 50
0.0
 51
90.0
  0
ARC
  8
2
  5
1B3
 10
-202.064492
 20
-122.165206
 30
0.0
 40
0.2
 50
90.0
 51
180.0
  0
ARC
  8
2
  5
1B4
 10
-200.264492
 20
-126.465206
 30
0.0
 40
2.5
 50
143.130102
 51
180.0
  0
ARC
  8
2
  5
1B5
 10
-192.264492
 20
-126.465206
 30
0.0
 40
2.5
 50
0.0
 51
36.869898
  0
LINE
  8
2
 62
     2
  5
1B6
 10
-202.745233
 20
-138.965206
 30
0.0
 11
-202.745233
 21
-126.465206
 31
0.0
  0
LINE
  8
2
 62
     2
  5
1B7
 10
-201.200621
 20
-138.965206
 30
0.0
 11
-201.200621
 21
-126.465206
 31
0.0
  0
LINE
  8
2
 62
     2
  5
1B8
 10
-200.493514
 20
-138.965206
 30
0.0
 11
-200.493514
 21
-126.465206
 31
0.0
  0
LINE
  8
2
 62
     2
  5
1B9
 10
-196.764492
 20
-138.965206
 30
0.0
 11
-196.764492
 21
-126.465206
 31
0.0
  0
LINE
  8
2
 62
     2
  5
1BA
 10
-195.764492
 20
-138.965206
 30
0.0
 11
-195.764492
 21
-126.465206
 31
0.0
  0
LINE
  8
2
 62
     2
  5
1BB
 10
-192.03547
 20
-138.965206
 30
0.0
 11
-192.03547
 21
-126.465206
 31
0.0
  0
LINE
  8
2
 62
     2
  5
1BC
 10
-191.328363
 20
-138.965206
 30
0.0
 11
-191.328363
 21
-126.465206
 31
0.0
  0
LINE
  8
2
 62
     2
  5
1BD
 10
-189.783751
 20
-138.965206
 30
0.0
 11
-189.783751
 21
-126.465206
 31
0.0
  0
LINE
  8
2
  5
1BE
 10
-202.014492
 20
-184.965206
 30
0.0
 11
-202.014492
 21
-138.965206
 31
0.0
  0
LINE
  8
2
  5
1BF
 10
-190.514492
 20
-184.965206
 30
0.0
 11
-190.514492
 21
-138.965206
 31
0.0
  0
LINE
  8
2
  5
1C0
 10
-202.22659
 20
-121.676531
 30
0.0
 11
-202.264492
 21
-121.676531
 31
0.0
  0
POINT
  8
2
  5
1C1
 10
-196.264411
 20
-116.065206
 30
0.0
  0
ARC
  8
2
  5
1C2
 10
-196.26433
 20
-111.861577
 30
0.0
 40
10.10363
 50
256.270867
 51
270.0
  0
LINE
  8
2
  5
1C3
 10
-199.828511
 20
-121.676531
 30
0.0
 11
-198.662245
 21
-121.676531
 31
0.0
  0
ARC
  8
2
  5
1C4
 10
-201.027469
 20
-119.331046
 30
0.0
 40
2.634161
 50
242.924933
 51
297.075067
  0
LINE
  8
2
  5
1C5
 10
-199.828511
 20
-116.353882
 30
0.0
 11
-199.828511
 21
-121.676531
 31
0.0
  0
LINE
  8
2
  5
1C6
 10
-198.662245
 20
-116.353882
 30
0.0
 11
-198.662245
 21
-121.676531
 31
0.0
  0
LINE
  8
2
  5
1C7
 10
-202.226427
 20
-116.353882
 30
0.0
 11
-202.226427
 21
-121.676531
 31
0.0
  0
ARC
  8
2
  5
1C8
 10
-196.26433
 20
-126.168836
 30
0.0
 40
10.10363
 50
90.0
 51
103.729133
  0
LINE
  8
2
  5
1C9
 10
-199.828511
 20
-116.353882
 30
0.0
 11
-198.662245
 21
-116.353882
 31
0.0
  0
ARC
  8
2
  5
1CA
 10
-201.027469
 20
-118.699367
 30
0.0
 40
2.634161
 50
62.924933
 51
117.075067
  0
LINE
  8
2
  5
1CB
 10
-201.764492
 20
-116.065206
 30
0.0
 11
-190.764492
 21
-116.065206
 31
0.0
  0
LINE
  8
2
  5
1CC
 10
-217.26433
 20
-121.676531
 30
0.0
 11
-217.26433
 21
-116.353882
 31
0.0
  0
LINE
  8
2
  5
1CD
 10
-217.06433
 20
-121.965206
 30
0.0
 11
-205.464492
 21
-121.965206
 31
0.0
  0
LINE
  8
2
  5
1CE
 10
-213.662245
 20
-116.353882
 30
0.0
 11
-213.662245
 21
-121.676531
 31
0.0
  0
LINE
  8
2
  5
1CF
 10
-214.828511
 20
-116.353882
 30
0.0
 11
-214.828511
 21
-121.676531
 31
0.0
  0
LINE
  8
2
  5
1D0
 10
-217.226427
 20
-116.353882
 30
0.0
 11
-217.226427
 21
-121.676531
 31
0.0
  0
LINE
  8
2
  5
1D1
 10
-216.76433
 20
-121.965206
 30
0.0
 11
-217.26433
 21
-121.676531
 31
0.0
  0
LINE
  8
2
  5
1D2
 10
-214.828511
 20
-121.676531
 30
0.0
 11
-213.662245
 21
-121.676531
 31
0.0
  0
ARC
  8
2
  5
1D3
 10
-211.26433
 20
-111.861577
 30
0.0
 40
10.10363
 50
256.270867
 51
270.0
  0
ARC
  8
2
  5
1D4
 10
-211.26433
 20
-126.168836
 30
0.0
 40
10.10363
 50
90.0
 51
103.729133
  0
LINE
  8
2
  5
1D5
 10
-214.828511
 20
-116.353882
 30
0.0
 11
-213.662245
 21
-116.353882
 31
0.0
  0
LINE
  8
2
  5
1D6
 10
-217.26433
 20
-121.676531
 30
0.0
 11
-217.226427
 21
-121.676531
 31
0.0
  0
ARC
  8
2
  5
1D7
 10
-216.027469
 20
-119.331046
 30
0.0
 40
2.634161
 50
242.924933
 51
297.075067
  0
ARC
  8
2
  5
1D8
 10
-216.027469
 20
-118.699367
 30
0.0
 40
2.634161
 50
62.924933
 51
117.075067
  0
LINE
  8
2
  5
1D9
 10
-216.76433
 20
-116.065206
 30
0.0
 11
-217.26433
 21
-116.353882
 31
0.0
  0
LINE
  8
2
  5
1DA
 10
-204.764492
 20
-138.965206
 30
0.0
 11
-217.76433
 21
-138.965206
 31
0.0
  0
LINE
  8
2
  5
1DB
 10
-217.76433
 20
-138.965206
 30
0.0
 11
-217.76433
 21
-126.465206
 31
0.0
  0
LINE
  8
2
  5
1DC
 10
-207.389999
 20
-124.965206
 30
0.0
 11
-207.389999
 21
-122.465206
 31
0.0
  0
LINE
  8
2
  5
1DD
 10
-206.682893
 20
-124.965206
 30
0.0
 11
-206.682893
 21
-122.465206
 31
0.0
  0
LINE
  8
2
  5
1DE
 10
-210.76433
 20
-124.965206
 30
0.0
 11
-210.76433
 21
-122.465206
 31
0.0
  0
LINE
  8
2
  5
1DF
 10
-211.76433
 20
-124.965206
 30
0.0
 11
-211.76433
 21
-122.465206
 31
0.0
  0
LINE
  8
2
  5
1E0
 10
-215.13866
 20
-124.965206
 30
0.0
 11
-215.13866
 21
-122.465206
 31
0.0
  0
LINE
  8
2
  5
1E1
 10
-215.845767
 20
-124.965206
 30
0.0
 11
-215.845767
 21
-122.465206
 31
0.0
  0
LINE
  8
2
  5
1E2
 10
-217.26433
 20
-124.965206
 30
0.0
 11
-217.26433
 21
-122.165206
 31
0.0
  0
LINE
  8
2
  5
1E3
 10
-217.24346
 20
-124.965206
 30
0.0
 11
-217.24346
 21
-122.465206
 31
0.0
  0
LINE
  8
2
  5
1E4
 10
-206.682893
 20
-122.465206
 30
0.0
 11
-206.615516
 21
-122.465206
 31
0.0
  0
LINE
  8
2
  5
1E5
 10
-210.76433
 20
-122.465206
 30
0.0
 11
-207.389999
 21
-122.465206
 31
0.0
  0
LINE
  8
2
  5
1E6
 10
-217.26433
 20
-122.465206
 30
0.0
 11
-215.845767
 21
-122.465206
 31
0.0
  0
LINE
  8
2
  5
1E7
 10
-215.13866
 20
-122.465206
 30
0.0
 11
-211.76433
 21
-122.465206
 31
0.0
  0
LINE
  8
2
  5
1E8
 10
-206.682893
 20
-124.965206
 30
0.0
 11
-206.615516
 21
-124.965206
 31
0.0
  0
LINE
  8
2
  5
1E9
 10
-210.76433
 20
-124.965206
 30
0.0
 11
-207.389999
 21
-124.965206
 31
0.0
  0
LINE
  8
2
  5
1EA
 10
-217.26433
 20
-124.965206
 30
0.0
 11
-215.845767
 21
-124.965206
 31
0.0
  0
LINE
  8
2
  5
1EB
 10
-215.13866
 20
-124.965206
 30
0.0
 11
-211.76433
 21
-124.965206
 31
0.0
  0
ARC
  8
2
  5
1EC
 10
-217.06433
 20
-122.165206
 30
0.0
 40
0.2
 50
90.0
 51
180.0
  0
ARC
  8
2
  5
1ED
 10
-215.26433
 20
-126.465206
 30
0.0
 40
2.5
 50
143.130102
 51
180.0
  0
LINE
  8
2
 62
     2
  5
1EE
 10
-210.76433
 20
-138.965206
 30
0.0
 11
-210.76433
 21
-126.465206
 31
0.0
  0
LINE
  8
2
 62
     2
  5
1EF
 10
-211.76433
 20
-138.965206
 30
0.0
 11
-211.76433
 21
-126.465206
 31
0.0
  0
LINE
  8
2
 62
     2
  5
1F0
 10
-215.493352
 20
-138.965206
 30
0.0
 11
-215.493352
 21
-126.465206
 31
0.0
  0
LINE
  8
2
 62
     2
  5
1F1
 10
-216.200459
 20
-138.965206
 30
0.0
 11
-216.200459
 21
-126.465206
 31
0.0
  0
LINE
  8
2
 62
     2
  5
1F2
 10
-217.74507
 20
-138.965206
 30
0.0
 11
-217.74507
 21
-126.465206
 31
0.0
  0
LINE
  8
2
  5
1F3
 10
-205.51433
 20
-184.965206
 30
0.0
 11
-205.51433
 21
-138.965206
 31
0.0
  0
LINE
  8
2
  5
1F4
 10
-217.01433
 20
-184.965206
 30
0.0
 11
-217.01433
 21
-138.965206
 31
0.0
  0
POINT
  8
2
  5
1F5
 10
-211.264411
 20
-116.065206
 30
0.0
  0
ARC
  8
2
  5
1F6
 10
-211.264492
 20
-111.861577
 30
0.0
 40
10.10363
 50
270.0
 51
283.729133
  0
LINE
  8
2
  5
1F7
 10
-207.70031
 20
-121.676531
 30
0.0
 11
-208.866576
 21
-121.676531
 31
0.0
  0
ARC
  8
2
  5
1F8
 10
-206.501352
 20
-119.331046
 30
0.0
 40
2.634161
 50
242.924933
 51
297.075067
  0
LINE
  8
2
  5
1F9
 10
-207.70031
 20
-116.353882
 30
0.0
 11
-207.70031
 21
-121.676531
 31
0.0
  0
LINE
  8
2
  5
1FA
 10
-208.866576
 20
-116.353882
 30
0.0
 11
-208.866576
 21
-121.676531
 31
0.0
  0
ARC
  8
2
  5
1FB
 10
-211.264492
 20
-126.168836
 30
0.0
 40
10.10363
 50
76.270867
 51
90.0
  0
LINE
  8
2
  5
1FC
 10
-207.70031
 20
-116.353882
 30
0.0
 11
-208.866576
 21
-116.353882
 31
0.0
  0
ARC
  8
2
  5
1FD
 10
-206.501352
 20
-118.699367
 30
0.0
 40
2.634161
 50
62.924933
 51
117.075067
  0
LINE
  8
2
  5
1FE
 10
-205.76433
 20
-116.065206
 30
0.0
 11
-216.76433
 21
-116.065206
 31
0.0
  0
LINE
  8
2
  6
CENTER
 62
     2
  5
1FF
 10
-196.264411
 20
-211.009988
 30
0.0
 11
-146.264411
 21
-139.544156
 31
0.0
  0
LINE
  8
2
  5
200
 10
-152.764411
 20
-188.54627
 30
0.0
 11
-139.764411
 21
-188.54627
 31
0.0
  0
LINE
  8
2
  5
201
 10
-150.845848
 20
-202.54627
 30
0.0
 11
-152.264411
 21
-202.54627
 31
0.0
  0
LINE
  8
2
  5
202
 10
-150.845848
 20
-205.04627
 30
0.0
 11
-152.264411
 21
-205.04627
 31
0.0
  0
ARC
  8
2
  5
203
 10
-152.064411
 20
-205.34627
 30
0.0
 40
0.2
 50
180.0
 51
270.0
  0
LINE
  8
2
  5
204
 10
-146.764411
 20
-205.04627
 30
0.0
 11
-150.138741
 21
-205.04627
 31
0.0
  0
LINE
  8
2
  5
205
 10
-146.764411
 20
-202.54627
 30
0.0
 11
-150.138741
 21
-202.54627
 31
0.0
  0
LINE
  8
2
  5
206
 10
-142.390081
 20
-205.04627
 30
0.0
 11
-145.764411
 21
-205.04627
 31
0.0
  0
LINE
  8
2
  5
207
 10
-142.390081
 20
-202.54627
 30
0.0
 11
-145.764411
 21
-202.54627
 31
0.0
  0
LINE
  8
2
  5
208
 10
-140.264411
 20
-205.04627
 30
0.0
 11
-141.682974
 21
-205.04627
 31
0.0
  0
LINE
  8
2
  5
209
 10
-140.264411
 20
-202.54627
 30
0.0
 11
-141.682974
 21
-202.54627
 31
0.0
  0
ARC
  8
2
  5
20A
 10
-140.464411
 20
-205.34627
 30
0.0
 40
0.2
 50
270.0
 51
360.0
  0
LINE
  8
2
  5
20B
 10
-140.264411
 20
-202.54627
 30
0.0
 11
-140.264411
 21
-205.34627
 31
0.0
  0
LINE
  8
2
  5
20C
 10
-140.285281
 20
-202.54627
 30
0.0
 11
-140.285281
 21
-205.04627
 31
0.0
  0
ARC
  8
2
  5
20D
 10
-142.264411
 20
-201.04627
 30
0.0
 40
2.5
 50
323.130102
 51
360.0
  0
LINE
  8
2
  5
20E
 10
-141.682974
 20
-202.54627
 30
0.0
 11
-141.682974
 21
-205.04627
 31
0.0
  0
LINE
  8
2
  5
20F
 10
-142.390081
 20
-202.54627
 30
0.0
 11
-142.390081
 21
-205.04627
 31
0.0
  0
LINE
  8
2
  5
210
 10
-145.764411
 20
-202.54627
 30
0.0
 11
-145.764411
 21
-205.04627
 31
0.0
  0
LINE
  8
2
  5
211
 10
-146.764411
 20
-202.54627
 30
0.0
 11
-146.764411
 21
-205.04627
 31
0.0
  0
LINE
  8
2
  5
212
 10
-150.845848
 20
-202.54627
 30
0.0
 11
-150.845848
 21
-205.04627
 31
0.0
  0
LINE
  8
2
  5
213
 10
-150.138741
 20
-202.54627
 30
0.0
 11
-150.138741
 21
-205.04627
 31
0.0
  0
LINE
  8
2
  5
214
 10
-152.264411
 20
-202.54627
 30
0.0
 11
-152.264411
 21
-205.34627
 31
0.0
  0
LINE
  8
2
  5
215
 10
-152.243541
 20
-202.54627
 30
0.0
 11
-152.243541
 21
-205.04627
 31
0.0
  0
ARC
  8
2
  5
216
 10
-150.264411
 20
-201.04627
 30
0.0
 40
2.5
 50
180.0
 51
216.869898
  0
LINE
  8
2
  5
217
 10
-152.764411
 20
-188.54627
 30
0.0
 11
-152.764411
 21
-201.04627
 31
0.0
  0
LINE
  8
2
 62
     2
  5
218
 10
-139.78367
 20
-188.54627
 30
0.0
 11
-139.78367
 21
-201.04627
 31
0.0
  0
LINE
  8
2
  5
219
 10
-139.764411
 20
-188.54627
 30
0.0
 11
-139.764411
 21
-201.04627
 31
0.0
  0
LINE
  8
2
  5
21A
 10
-139.264411
 20
-205.54627
 30
0.0
 11
-153.264411
 21
-205.54627
 31
0.0
  0
LINE
  8
2
  5
21B
 10
-138.764411
 20
-206.04627
 30
0.0
 11
-139.264411
 21
-205.54627
 31
0.0
  0
LINE
  8
2
  5
21C
 10
-152.014411
 20
-188.54627
 30
0.0
 11
-152.014411
 21
-153.054411
 31
0.0
  0
LINE
  8
2
  5
21D
 10
-140.514411
 20
-188.54627
 30
0.0
 11
-140.514411
 21
-153.202471
 31
0.0
  0
LINE
  8
2
 62
     2
  5
21E
 10
-139.764551
 20
-219.345647
 30
0.0
 11
-139.764551
 21
-216.345647
 31
0.0
  0
LINE
  8
2
  5
21F
 10
-137.364411
 20
-210.946905
 30
0.0
 11
-137.364411
 21
-213.346905
 31
0.0
  0
LINE
  8
2
  5
220
 10
-137.564411
 20
-210.746905
 30
0.0
 11
-137.364411
 21
-210.946905
 31
0.0
  0
LINE
  8
2
  5
221
 10
-137.564411
 20
-213.546905
 30
0.0
 11
-137.364411
 21
-213.346905
 31
0.0
  0
LINE
  8
2
  5
222
 10
-138.764411
 20
-210.746905
 30
0.0
 11
-138.764411
 21
-210.345647
 31
0.0
  0
LINE
  8
2
  5
223
 10
-138.764411
 20
-206.04627
 30
0.0
 11
-138.764411
 21
-207.345647
 31
0.0
  0
LINE
  8
2
  5
224
 10
-155.164411
 20
-210.94627
 30
0.0
 11
-155.164411
 21
-213.34627
 31
0.0
  0
LINE
  8
2
  5
225
 10
-137.364411
 20
-210.94627
 30
0.0
 11
-137.364411
 21
-213.34627
 31
0.0
  0
LINE
  8
2
  5
226
 10
-137.564411
 20
-210.74627
 30
0.0
 11
-137.364411
 21
-210.94627
 31
0.0
  0
LINE
  8
2
  5
227
 10
-154.964411
 20
-210.74627
 30
0.0
 11
-155.164411
 21
-210.94627
 31
0.0
  0
LINE
  8
2
  5
228
 10
-154.964411
 20
-213.54627
 30
0.0
 11
-155.164411
 21
-213.34627
 31
0.0
  0
LINE
  8
2
  5
229
 10
-155.264411
 20
-219.34627
 30
0.0
 11
-137.264411
 21
-219.34627
 31
0.0
  0
LINE
  8
2
  5
22A
 10
-154.564411
 20
-207.34627
 30
0.0
 11
-137.964411
 21
-207.34627
 31
0.0
  0
LINE
  8
2
  5
22B
 10
-142.264411
 20
-208.34627
 30
0.0
 11
-142.264411
 21
-218.34627
 31
0.0
  0
LINE
  8
2
  5
22C
 10
-150.264411
 20
-208.34627
 30
0.0
 11
-150.264411
 21
-218.34627
 31
0.0
  0
ARC
  8
2
  5
22D
 10
-132.764411
 20
-206.34627
 30
0.0
 40
1.0
 50
0.0
 51
90.0
  0
ARC
  8
2
  5
22E
 10
-132.764411
 20
-218.34627
 30
0.0
 40
1.0
 50
270.0
 51
360.0
  0
LINE
  8
2
  5
22F
 10
-132.764411
 20
-205.34627
 30
0.0
 11
-140.264411
 21
-205.34627
 31
0.0
  0
LINE
  8
2
  5
230
 10
-152.264411
 20
-205.34627
 30
0.0
 11
-159.764411
 21
-205.34627
 31
0.0
  0
LINE
  8
2
  5
231
 10
-132.764411
 20
-219.34627
 30
0.0
 11
-138.764411
 21
-219.34627
 31
0.0
  0
LINE
  8
2
  5
232
 10
-154.564411
 20
-219.34627
 30
0.0
 11
-159.764411
 21
-219.34627
 31
0.0
  0
LINE
  8
2
  5
233
 10
-154.564411
 20
-210.34627
 30
0.0
 11
-150.264411
 21
-210.34627
 31
0.0
  0
LINE
  8
2
  5
234
 10
-142.264411
 20
-210.34627
 30
0.0
 11
-137.964411
 21
-210.34627
 31
0.0
  0
LINE
  8
2
  5
235
 10
-154.964411
 20
-210.74627
 30
0.0
 11
-150.264411
 21
-210.74627
 31
0.0
  0
LINE
  8
2
  5
236
 10
-142.264411
 20
-210.74627
 30
0.0
 11
-137.564411
 21
-210.74627
 31
0.0
  0
LINE
  8
2
  5
237
 10
-155.164411
 20
-210.94627
 30
0.0
 11
-150.264411
 21
-210.94627
 31
0.0
  0
LINE
  8
2
  5
238
 10
-142.264411
 20
-210.94627
 30
0.0
 11
-137.364411
 21
-210.94627
 31
0.0
  0
LINE
  8
2
  5
239
 10
-155.164411
 20
-213.34627
 30
0.0
 11
-150.264411
 21
-213.34627
 31
0.0
  0
LINE
  8
2
  5
23A
 10
-142.264411
 20
-213.34627
 30
0.0
 11
-137.364411
 21
-213.34627
 31
0.0
  0
LINE
  8
2
  5
23B
 10
-154.564411
 20
-216.34627
 30
0.0
 11
-150.264411
 21
-216.34627
 31
0.0
  0
LINE
  8
2
  5
23C
 10
-142.264411
 20
-216.34627
 30
0.0
 11
-137.964411
 21
-216.34627
 31
0.0
  0
ARC
  8
2
  5
23D
 10
-149.264411
 20
-208.34627
 30
0.0
 40
1.0
 50
90.0
 51
180.0
  0
ARC
  8
2
  5
23E
 10
-143.264411
 20
-208.34627
 30
0.0
 40
1.0
 50
0.0
 51
90.0
  0
ARC
  8
2
  5
23F
 10
-143.264411
 20
-218.34627
 30
0.0
 40
1.0
 50
270.0
 51
0.0
  0
ARC
  8
2
  5
240
 10
-149.264411
 20
-218.34627
 30
0.0
 40
1.0
 50
180.0
 51
270.0
  0
LINE
  8
2
  5
241
 10
-137.964411
 20
-207.34627
 30
0.0
 11
-137.964411
 21
-210.34627
 31
0.0
  0
LINE
  8
2
  5
242
 10
-154.564411
 20
-207.34627
 30
0.0
 11
-154.564411
 21
-210.34627
 31
0.0
  0
LINE
  8
2
  5
243
 10
-154.564411
 20
-216.34627
 30
0.0
 11
-154.564411
 21
-219.34627
 31
0.0
  0
LINE
  8
2
  5
244
 10
-137.964411
 20
-216.34627
 30
0.0
 11
-137.964411
 21
-219.34627
 31
0.0
  0
LINE
  8
2
  5
245
 10
-138.764411
 20
-210.74627
 30
0.0
 11
-138.764411
 21
-210.34627
 31
0.0
  0
LINE
  8
2
  5
246
 10
-153.764411
 20
-210.74627
 30
0.0
 11
-153.764411
 21
-210.34627
 31
0.0
  0
LINE
  8
2
 62
     2
  5
247
 10
-141.264411
 20
-219.046852
 30
0.0
 11
-141.264411
 21
-216.741631
 31
0.0
  0
LINE
  8
2
 62
     2
  5
248
 10
-141.264411
 20
-210.085083
 30
0.0
 11
-141.264411
 21
-207.652878
 31
0.0
  0
LINE
  8
2
 62
     2
  5
249
 10
-151.264411
 20
-219.046852
 30
0.0
 11
-151.264411
 21
-216.741631
 31
0.0
  0
LINE
  8
2
 62
     2
  5
24A
 10
-151.264411
 20
-210.042405
 30
0.0
 11
-151.264411
 21
-207.573357
 31
0.0
  0
LINE
  8
2
  5
24B
 10
-137.464411
 20
-218.34627
 30
0.0
 11
-137.464411
 21
-215.74627
 31
0.0
  0
LINE
  8
2
  5
24C
 10
-137.464411
 20
-210.84627
 30
0.0
 11
-137.464411
 21
-206.34627
 31
0.0
  0
LINE
  8
2
  5
24D
 10
-155.064411
 20
-218.34627
 30
0.0
 11
-155.064411
 21
-215.74627
 31
0.0
  0
LINE
  8
2
  5
24E
 10
-155.064411
 20
-210.84627
 30
0.0
 11
-155.064411
 21
-206.34627
 31
0.0
  0
ARC
  8
2
  5
24F
 10
-138.464411
 20
-206.34627
 30
0.0
 40
1.0
 50
0.0
 51
90.0
  0
ARC
  8
2
  5
250
 10
-154.064411
 20
-206.34627
 30
0.0
 40
1.0
 50
90.0
 51
180.0
  0
ARC
  8
2
  5
251
 10
-136.464411
 20
-218.34627
 30
0.0
 40
1.0
 50
180.0
 51
270.0
  0
ARC
  8
2
  5
252
 10
-156.064411
 20
-218.34627
 30
0.0
 40
1.0
 50
270.0
 51
360.0
  0
LINE
  8
2
  5
253
 10
-153.764411
 20
-206.04627
 30
0.0
 11
-153.764411
 21
-207.345647
 31
0.0
  0
ARC
  8
2
  5
254
 10
-154.064411
 20
-206.34627
 30
0.0
 40
1.0
 50
90.0
 51
180.0
  0
LINE
  8
2
  5
255
 10
-153.764411
 20
-206.04627
 30
0.0
 11
-153.264411
 21
-205.54627
 31
0.0
  0
LINE
  8
2
  5
256
 10
-155.264411
 20
-213.74627
 30
0.0
 11
-155.264411
 21
-215.54627
 31
0.0
  0
LINE
  8
2
  5
257
 10
-137.264411
 20
-213.74627
 30
0.0
 11
-137.264411
 21
-215.54627
 31
0.0
  0
LINE
  8
2
  5
258
 10
-155.064411
 20
-213.54627
 30
0.0
 11
-155.264411
 21
-213.74627
 31
0.0
  0
LINE
  8
2
  5
259
 10
-155.264411
 20
-215.54627
 30
0.0
 11
-155.064411
 21
-215.74627
 31
0.0
  0
LINE
  8
2
  5
25A
 10
-137.464411
 20
-213.54627
 30
0.0
 11
-137.264411
 21
-213.74627
 31
0.0
  0
LINE
  8
2
  5
25B
 10
-137.264411
 20
-215.54627
 30
0.0
 11
-137.464411
 21
-215.74627
 31
0.0
  0
LINE
  8
2
  5
25C
 10
-138.764411
 20
-219.74627
 30
0.0
 11
-138.764411
 21
-219.34627
 31
0.0
  0
LINE
  8
2
  5
25D
 10
-138.764411
 20
-216.34627
 30
0.0
 11
-138.764411
 21
-215.74627
 31
0.0
  0
LINE
  8
2
  5
25E
 10
-153.764411
 20
-219.74627
 30
0.0
 11
-153.764411
 21
-219.34627
 31
0.0
  0
LINE
  8
2
  5
25F
 10
-153.764411
 20
-216.34627
 30
0.0
 11
-153.764411
 21
-215.74627
 31
0.0
  0
LINE
  8
2
  5
260
 10
-155.064411
 20
-215.74627
 30
0.0
 11
-150.264411
 21
-215.74627
 31
0.0
  0
LINE
  8
2
  5
261
 10
-142.264411
 20
-215.74627
 30
0.0
 11
-137.464411
 21
-215.74627
 31
0.0
  0
LINE
  8
2
  5
262
 10
-155.264411
 20
-215.54627
 30
0.0
 11
-150.264411
 21
-215.54627
 31
0.0
  0
LINE
  8
2
  5
263
 10
-142.264411
 20
-215.54627
 30
0.0
 11
-137.264411
 21
-215.54627
 31
0.0
  0
LINE
  8
2
  5
264
 10
-155.264411
 20
-213.74627
 30
0.0
 11
-150.264411
 21
-213.74627
 31
0.0
  0
LINE
  8
2
  5
265
 10
-142.264411
 20
-213.74627
 30
0.0
 11
-137.264411
 21
-213.74627
 31
0.0
  0
LINE
  8
2
  5
266
 10
-155.064411
 20
-213.54627
 30
0.0
 11
-150.264411
 21
-213.54627
 31
0.0
  0
LINE
  8
2
  5
267
 10
-142.264411
 20
-213.54627
 30
0.0
 11
-137.464411
 21
-213.54627
 31
0.0
  0
LINE
  8
2
 62
     2
  5
268
 10
-152.764271
 20
-219.345647
 30
0.0
 11
-152.764271
 21
-216.345647
 31
0.0
  0
LINE
  8
2
 62
     2
  5
269
 10
-139.764551
 20
-210.34627
 30
0.0
 11
-139.764551
 21
-207.34627
 31
0.0
  0
LINE
  8
2
 62
     2
  5
26A
 10
-152.764271
 20
-210.34627
 30
0.0
 11
-152.764271
 21
-207.34627
 31
0.0
  0
LINE
  8
2
 62
     2
  5
26B
 10
-142.198547
 20
-179.862704
 30
0.0
 11
-150.330275
 21
-171.730976
 31
0.0
  0
LINE
  8
2
 62
     2
  5
26C
 10
-142.198547
 20
-171.730976
 30
0.0
 11
-150.330275
 21
-179.862704
 31
0.0
  0
LINE
  8
2
 62
     2
  5
26D
 10
-142.967613
 20
-180.507851
 30
0.0
 11
-150.975422
 21
-172.500043
 31
0.0
  0
LINE
  8
2
 62
     2
  5
26E
 10
-143.866637
 20
-181.023041
 30
0.0
 11
-151.490612
 21
-173.399066
 31
0.0
  0
LINE
  8
2
 62
     2
  5
26F
 10
-144.917122
 20
-181.38677
 30
0.0
 11
-151.85434
 21
-174.449551
 31
0.0
  0
LINE
  8
2
 62
     2
  5
270
 10
-146.172008
 20
-181.546098
 30
0.0
 11
-152.013668
 21
-175.704437
 31
0.0
  0
LINE
  8
2
 62
     2
  5
271
 10
-147.792148
 20
-181.340171
 30
0.0
 11
-151.807742
 21
-177.324577
 31
0.0
  0
LINE
  8
2
 62
     2
  5
272
 10
-141.5534
 20
-179.093638
 30
0.0
 11
-149.561208
 21
-171.085829
 31
0.0
  0
LINE
  8
2
 62
     2
  5
273
 10
-141.03821
 20
-178.194614
 30
0.0
 11
-148.662185
 21
-170.570639
 31
0.0
  0
LINE
  8
2
 62
     2
  5
274
 10
-140.674481
 20
-177.144129
 30
0.0
 11
-147.6117
 21
-170.206911
 31
0.0
  0
LINE
  8
2
 62
     2
  5
275
 10
-140.515153
 20
-175.889243
 30
0.0
 11
-146.356814
 21
-170.047583
 31
0.0
  0
LINE
  8
2
 62
     2
  5
276
 10
-140.72108
 20
-174.269104
 30
0.0
 11
-144.736674
 21
-170.253509
 31
0.0
  0
LINE
  8
2
 62
     2
  5
277
 10
-142.967613
 20
-171.085829
 30
0.0
 11
-150.975422
 21
-179.093638
 31
0.0
  0
LINE
  8
2
 62
     2
  5
278
 10
-143.866637
 20
-170.570639
 30
0.0
 11
-151.490612
 21
-178.194614
 31
0.0
  0
LINE
  8
2
 62
     2
  5
279
 10
-144.917122
 20
-170.206911
 30
0.0
 11
-151.85434
 21
-177.144129
 31
0.0
  0
LINE
  8
2
 62
     2
  5
27A
 10
-146.172008
 20
-170.047583
 30
0.0
 11
-152.013668
 21
-175.889243
 31
0.0
  0
LINE
  8
2
 62
     2
  5
27B
 10
-147.792148
 20
-170.253509
 30
0.0
 11
-151.807742
 21
-174.269104
 31
0.0
  0
LINE
  8
2
 62
     2
  5
27C
 10
-141.5534
 20
-172.500043
 30
0.0
 11
-149.561208
 21
-180.507851
 31
0.0
  0
LINE
  8
2
 62
     2
  5
27D
 10
-141.03821
 20
-173.399066
 30
0.0
 11
-148.662185
 21
-181.023041
 31
0.0
  0
LINE
  8
2
 62
     2
  5
27E
 10
-140.674481
 20
-174.449551
 30
0.0
 11
-147.6117
 21
-181.38677
 31
0.0
  0
LINE
  8
2
 62
     2
  5
27F
 10
-140.515153
 20
-175.704437
 30
0.0
 11
-146.356814
 21
-181.546098
 31
0.0
  0
LINE
  8
2
 62
     2
  5
280
 10
-140.72108
 20
-177.324577
 30
0.0
 11
-144.736674
 21
-181.340171
 31
0.0
  0
LINE
  8
2
  5
281
 10
-160.764411
 20
-206.34627
 30
0.0
 11
-160.764411
 21
-218.34627
 31
0.0
  0
ARC
  8
2
  5
282
 10
-159.764411
 20
-206.34627
 30
0.0
 40
1.0
 50
90.0
 51
180.0
  0
ARC
  8
2
  5
283
 10
-159.764411
 20
-218.34627
 30
0.0
 40
1.0
 50
180.0
 51
270.0
  0
LINE
  8
2
  6
CENTER
 62
     2
  5
284
 10
-146.264411
 20
-139.544156
 30
0.0
 11
-146.264411
 21
-242.427714
 31
0.0
  0
ARC
  8
2
  5
285
 10
-149.139411
 20
-149.201623
 30
0.0
 40
4.791667
 50
233.130102
 51
306.869898
  0
ARC
  8
2
  5
286
 10
-143.389411
 20
-156.86829
 30
0.0
 40
4.791667
 50
53.130102
 51
126.869898
  0
ARC
  8
2
  5
287
 10
-149.139411
 20
-156.86829
 30
0.0
 40
4.791667
 50
53.130102
 51
126.869898
  0
LINE
  8
2
  5
288
 10
-131.764411
 20
-206.34627
 30
0.0
 11
-131.764411
 21
-218.34627
 31
0.0
  0
LINE
  8
2
  6
CENTER
 62
     2
  5
289
 10
-211.264411
 20
-211.009988
 30
0.0
 11
-261.264411
 21
-139.544156
 31
0.0
  0
LINE
  8
2
  5
28A
 10
-254.764411
 20
-188.54627
 30
0.0
 11
-267.764411
 21
-188.54627
 31
0.0
  0
LINE
  8
2
  5
28B
 10
-256.682974
 20
-202.54627
 30
0.0
 11
-255.264411
 21
-202.54627
 31
0.0
  0
LINE
  8
2
  5
28C
 10
-256.682974
 20
-205.04627
 30
0.0
 11
-255.264411
 21
-205.04627
 31
0.0
  0
ARC
  8
2
  5
28D
 10
-255.464411
 20
-205.34627
 30
0.0
 40
0.2
 50
270.0
 51
360.0
  0
LINE
  8
2
  5
28E
 10
-260.764411
 20
-205.04627
 30
0.0
 11
-257.390081
 21
-205.04627
 31
0.0
  0
LINE
  8
2
  5
28F
 10
-260.764411
 20
-202.54627
 30
0.0
 11
-257.390081
 21
-202.54627
 31
0.0
  0
LINE
  8
2
  5
290
 10
-265.138741
 20
-205.04627
 30
0.0
 11
-261.764411
 21
-205.04627
 31
0.0
  0
LINE
  8
2
  5
291
 10
-265.138741
 20
-202.54627
 30
0.0
 11
-261.764411
 21
-202.54627
 31
0.0
  0
LINE
  8
2
  5
292
 10
-267.264411
 20
-205.04627
 30
0.0
 11
-265.845848
 21
-205.04627
 31
0.0
  0
LINE
  8
2
  5
293
 10
-267.264411
 20
-202.54627
 30
0.0
 11
-265.845848
 21
-202.54627
 31
0.0
  0
ARC
  8
2
  5
294
 10
-267.064411
 20
-205.34627
 30
0.0
 40
0.2
 50
180.0
 51
270.0
  0
LINE
  8
2
  5
295
 10
-267.264411
 20
-202.54627
 30
0.0
 11
-267.264411
 21
-205.34627
 31
0.0
  0
LINE
  8
2
  5
296
 10
-267.243541
 20
-202.54627
 30
0.0
 11
-267.243541
 21
-205.04627
 31
0.0
  0
ARC
  8
2
  5
297
 10
-265.264411
 20
-201.04627
 30
0.0
 40
2.5
 50
180.0
 51
216.869898
  0
LINE
  8
2
  5
298
 10
-265.845848
 20
-202.54627
 30
0.0
 11
-265.845848
 21
-205.04627
 31
0.0
  0
LINE
  8
2
  5
299
 10
-265.138741
 20
-202.54627
 30
0.0
 11
-265.138741
 21
-205.04627
 31
0.0
  0
LINE
  8
2
  5
29A
 10
-261.764411
 20
-202.54627
 30
0.0
 11
-261.764411
 21
-205.04627
 31
0.0
  0
LINE
  8
2
  5
29B
 10
-260.764411
 20
-202.54627
 30
0.0
 11
-260.764411
 21
-205.04627
 31
0.0
  0
LINE
  8
2
  5
29C
 10
-256.682974
 20
-202.54627
 30
0.0
 11
-256.682974
 21
-205.04627
 31
0.0
  0
LINE
  8
2
  5
29D
 10
-257.390081
 20
-202.54627
 30
0.0
 11
-257.390081
 21
-205.04627
 31
0.0
  0
LINE
  8
2
  5
29E
 10
-255.264411
 20
-202.54627
 30
0.0
 11
-255.264411
 21
-205.34627
 31
0.0
  0
LINE
  8
2
  5
29F
 10
-255.285281
 20
-202.54627
 30
0.0
 11
-255.285281
 21
-205.04627
 31
0.0
  0
ARC
  8
2
  5
2A0
 10
-257.264411
 20
-201.04627
 30
0.0
 40
2.5
 50
323.130102
 51
360.0
  0
LINE
  8
2
  5
2A1
 10
-254.764411
 20
-188.54627
 30
0.0
 11
-254.764411
 21
-201.04627
 31
0.0
  0
LINE
  8
2
 62
     2
  5
2A2
 10
-267.745152
 20
-188.54627
 30
0.0
 11
-267.745152
 21
-201.04627
 31
0.0
  0
LINE
  8
2
  5
2A3
 10
-267.764411
 20
-188.54627
 30
0.0
 11
-267.764411
 21
-201.04627
 31
0.0
  0
LINE
  8
2
  5
2A4
 10
-268.264411
 20
-205.54627
 30
0.0
 11
-254.264411
 21
-205.54627
 31
0.0
  0
LINE
  8
2
  5
2A5
 10
-268.764411
 20
-206.04627
 30
0.0
 11
-268.264411
 21
-205.54627
 31
0.0
  0
LINE
  8
2
  5
2A6
 10
-255.514411
 20
-188.54627
 30
0.0
 11
-255.514411
 21
-153.054411
 31
0.0
  0
LINE
  8
2
  5
2A7
 10
-267.014411
 20
-188.54627
 30
0.0
 11
-267.014411
 21
-153.202471
 31
0.0
  0
LINE
  8
2
 62
     2
  5
2A8
 10
-267.764271
 20
-219.345647
 30
0.0
 11
-267.764271
 21
-216.345647
 31
0.0
  0
LINE
  8
2
  5
2A9
 10
-270.164411
 20
-210.946905
 30
0.0
 11
-270.164411
 21
-213.346905
 31
0.0
  0
LINE
  8
2
  5
2AA
 10
-269.964411
 20
-210.746905
 30
0.0
 11
-270.164411
 21
-210.946905
 31
0.0
  0
LINE
  8
2
  5
2AB
 10
-269.964411
 20
-213.546905
 30
0.0
 11
-270.164411
 21
-213.346905
 31
0.0
  0
LINE
  8
2
  5
2AC
 10
-268.764411
 20
-210.746905
 30
0.0
 11
-268.764411
 21
-210.345647
 31
0.0
  0
LINE
  8
2
  5
2AD
 10
-268.764411
 20
-206.04627
 30
0.0
 11
-268.764411
 21
-207.345647
 31
0.0
  0
LINE
  8
2
  5
2AE
 10
-252.364411
 20
-210.94627
 30
0.0
 11
-252.364411
 21
-213.34627
 31
0.0
  0
LINE
  8
2
  5
2AF
 10
-270.164411
 20
-210.94627
 30
0.0
 11
-270.164411
 21
-213.34627
 31
0.0
  0
LINE
  8
2
  5
2B0
 10
-269.964411
 20
-210.74627
 30
0.0
 11
-270.164411
 21
-210.94627
 31
0.0
  0
LINE
  8
2
  5
2B1
 10
-252.564411
 20
-210.74627
 30
0.0
 11
-252.364411
 21
-210.94627
 31
0.0
  0
LINE
  8
2
  5
2B2
 10
-252.564411
 20
-213.54627
 30
0.0
 11
-252.364411
 21
-213.34627
 31
0.0
  0
LINE
  8
2
  5
2B3
 10
-252.264411
 20
-219.34627
 30
0.0
 11
-270.264411
 21
-219.34627
 31
0.0
  0
LINE
  8
2
  5
2B4
 10
-252.964411
 20
-207.34627
 30
0.0
 11
-269.564411
 21
-207.34627
 31
0.0
  0
LINE
  8
2
  5
2B5
 10
-265.264411
 20
-208.34627
 30
0.0
 11
-265.264411
 21
-218.34627
 31
0.0
  0
LINE
  8
2
  5
2B6
 10
-257.264411
 20
-208.34627
 30
0.0
 11
-257.264411
 21
-218.34627
 31
0.0
  0
ARC
  8
2
  5
2B7
 10
-274.764411
 20
-206.34627
 30
0.0
 40
1.0
 50
90.0
 51
180.0
  0
ARC
  8
2
  5
2B8
 10
-274.764411
 20
-218.34627
 30
0.0
 40
1.0
 50
180.0
 51
270.0
  0
LINE
  8
2
  5
2B9
 10
-274.764411
 20
-205.34627
 30
0.0
 11
-267.264411
 21
-205.34627
 31
0.0
  0
LINE
  8
2
  5
2BA
 10
-255.264411
 20
-205.34627
 30
0.0
 11
-247.764411
 21
-205.34627
 31
0.0
  0
LINE
  8
2
  5
2BB
 10
-274.764411
 20
-219.34627
 30
0.0
 11
-268.764411
 21
-219.34627
 31
0.0
  0
LINE
  8
2
  5
2BC
 10
-252.964411
 20
-219.34627
 30
0.0
 11
-247.764411
 21
-219.34627
 31
0.0
  0
LINE
  8
2
  5
2BD
 10
-252.964411
 20
-210.34627
 30
0.0
 11
-257.264411
 21
-210.34627
 31
0.0
  0
LINE
  8
2
  5
2BE
 10
-265.264411
 20
-210.34627
 30
0.0
 11
-269.564411
 21
-210.34627
 31
0.0
  0
LINE
  8
2
  5
2BF
 10
-252.564411
 20
-210.74627
 30
0.0
 11
-257.264411
 21
-210.74627
 31
0.0
  0
LINE
  8
2
  5
2C0
 10
-265.264411
 20
-210.74627
 30
0.0
 11
-269.964411
 21
-210.74627
 31
0.0
  0
LINE
  8
2
  5
2C1
 10
-252.364411
 20
-210.94627
 30
0.0
 11
-257.264411
 21
-210.94627
 31
0.0
  0
LINE
  8
2
  5
2C2
 10
-265.264411
 20
-210.94627
 30
0.0
 11
-270.164411
 21
-210.94627
 31
0.0
  0
LINE
  8
2
  5
2C3
 10
-252.364411
 20
-213.34627
 30
0.0
 11
-257.264411
 21
-213.34627
 31
0.0
  0
LINE
  8
2
  5
2C4
 10
-265.264411
 20
-213.34627
 30
0.0
 11
-270.164411
 21
-213.34627
 31
0.0
  0
LINE
  8
2
  5
2C5
 10
-252.964411
 20
-216.34627
 30
0.0
 11
-257.264411
 21
-216.34627
 31
0.0
  0
LINE
  8
2
  5
2C6
 10
-265.264411
 20
-216.34627
 30
0.0
 11
-269.564411
 21
-216.34627
 31
0.0
  0
ARC
  8
2
  5
2C7
 10
-258.264411
 20
-208.34627
 30
0.0
 40
1.0
 50
0.0
 51
90.0
  0
ARC
  8
2
  5
2C8
 10
-264.264411
 20
-208.34627
 30
0.0
 40
1.0
 50
90.0
 51
180.0
  0
ARC
  8
2
  5
2C9
 10
-264.264411
 20
-218.34627
 30
0.0
 40
1.0
 50
180.0
 51
270.0
  0
ARC
  8
2
  5
2CA
 10
-258.264411
 20
-218.34627
 30
0.0
 40
1.0
 50
270.0
 51
0.0
  0
LINE
  8
2
  5
2CB
 10
-269.564411
 20
-207.34627
 30
0.0
 11
-269.564411
 21
-210.34627
 31
0.0
  0
LINE
  8
2
  5
2CC
 10
-252.964411
 20
-207.34627
 30
0.0
 11
-252.964411
 21
-210.34627
 31
0.0
  0
LINE
  8
2
  5
2CD
 10
-252.964411
 20
-216.34627
 30
0.0
 11
-252.964411
 21
-219.34627
 31
0.0
  0
LINE
  8
2
  5
2CE
 10
-269.564411
 20
-216.34627
 30
0.0
 11
-269.564411
 21
-219.34627
 31
0.0
  0
LINE
  8
2
  5
2CF
 10
-268.764411
 20
-210.74627
 30
0.0
 11
-268.764411
 21
-210.34627
 31
0.0
  0
LINE
  8
2
  5
2D0
 10
-253.764411
 20
-210.74627
 30
0.0
 11
-253.764411
 21
-210.34627
 31
0.0
  0
LINE
  8
2
 62
     2
  5
2D1
 10
-266.264411
 20
-219.046852
 30
0.0
 11
-266.264411
 21
-216.741631
 31
0.0
  0
LINE
  8
2
 62
     2
  5
2D2
 10
-266.264411
 20
-210.085083
 30
0.0
 11
-266.264411
 21
-207.652878
 31
0.0
  0
LINE
  8
2
 62
     2
  5
2D3
 10
-256.264411
 20
-219.046852
 30
0.0
 11
-256.264411
 21
-216.741631
 31
0.0
  0
LINE
  8
2
 62
     2
  5
2D4
 10
-256.264411
 20
-210.042405
 30
0.0
 11
-256.264411
 21
-207.573357
 31
0.0
  0
LINE
  8
2
  5
2D5
 10
-270.064411
 20
-218.34627
 30
0.0
 11
-270.064411
 21
-215.74627
 31
0.0
  0
LINE
  8
2
  5
2D6
 10
-270.064411
 20
-210.84627
 30
0.0
 11
-270.064411
 21
-206.34627
 31
0.0
  0
LINE
  8
2
  5
2D7
 10
-252.464411
 20
-218.34627
 30
0.0
 11
-252.464411
 21
-215.74627
 31
0.0
  0
LINE
  8
2
  5
2D8
 10
-252.464411
 20
-210.84627
 30
0.0
 11
-252.464411
 21
-206.34627
 31
0.0
  0
ARC
  8
2
  5
2D9
 10
-269.064411
 20
-206.34627
 30
0.0
 40
1.0
 50
90.0
 51
180.0
  0
ARC
  8
2
  5
2DA
 10
-253.464411
 20
-206.34627
 30
0.0
 40
1.0
 50
0.0
 51
90.0
  0
ARC
  8
2
  5
2DB
 10
-271.064411
 20
-218.34627
 30
0.0
 40
1.0
 50
270.0
 51
0.0
  0
ARC
  8
2
  5
2DC
 10
-251.464411
 20
-218.34627
 30
0.0
 40
1.0
 50
180.0
 51
270.0
  0
LINE
  8
2
  5
2DD
 10
-253.764411
 20
-206.04627
 30
0.0
 11
-253.764411
 21
-207.345647
 31
0.0
  0
ARC
  8
2
  5
2DE
 10
-253.464411
 20
-206.34627
 30
0.0
 40
1.0
 50
0.0
 51
90.0
  0
LINE
  8
2
  5
2DF
 10
-253.764411
 20
-206.04627
 30
0.0
 11
-254.264411
 21
-205.54627
 31
0.0
  0
LINE
  8
2
  5
2E0
 10
-252.264411
 20
-213.74627
 30
0.0
 11
-252.264411
 21
-215.54627
 31
0.0
  0
LINE
  8
2
  5
2E1
 10
-270.264411
 20
-213.74627
 30
0.0
 11
-270.264411
 21
-215.54627
 31
0.0
  0
LINE
  8
2
  5
2E2
 10
-252.464411
 20
-213.54627
 30
0.0
 11
-252.264411
 21
-213.74627
 31
0.0
  0
LINE
  8
2
  5
2E3
 10
-252.264411
 20
-215.54627
 30
0.0
 11
-252.464411
 21
-215.74627
 31
0.0
  0
LINE
  8
2
  5
2E4
 10
-270.064411
 20
-213.54627
 30
0.0
 11
-270.264411
 21
-213.74627
 31
0.0
  0
LINE
  8
2
  5
2E5
 10
-270.264411
 20
-215.54627
 30
0.0
 11
-270.064411
 21
-215.74627
 31
0.0
  0
LINE
  8
2
  5
2E6
 10
-268.764411
 20
-219.74627
 30
0.0
 11
-268.764411
 21
-219.34627
 31
0.0
  0
LINE
  8
2
  5
2E7
 10
-268.764411
 20
-216.34627
 30
0.0
 11
-268.764411
 21
-215.74627
 31
0.0
  0
LINE
  8
2
  5
2E8
 10
-253.764411
 20
-219.74627
 30
0.0
 11
-253.764411
 21
-219.34627
 31
0.0
  0
LINE
  8
2
  5
2E9
 10
-253.764411
 20
-216.34627
 30
0.0
 11
-253.764411
 21
-215.74627
 31
0.0
  0
LINE
  8
2
  5
2EA
 10
-252.464411
 20
-215.74627
 30
0.0
 11
-257.264411
 21
-215.74627
 31
0.0
  0
LINE
  8
2
  5
2EB
 10
-265.264411
 20
-215.74627
 30
0.0
 11
-270.064411
 21
-215.74627
 31
0.0
  0
LINE
  8
2
  5
2EC
 10
-252.264411
 20
-215.54627
 30
0.0
 11
-257.264411
 21
-215.54627
 31
0.0
  0
LINE
  8
2
  5
2ED
 10
-265.264411
 20
-215.54627
 30
0.0
 11
-270.264411
 21
-215.54627
 31
0.0
  0
LINE
  8
2
  5
2EE
 10
-252.264411
 20
-213.74627
 30
0.0
 11
-257.264411
 21
-213.74627
 31
0.0
  0
LINE
  8
2
  5
2EF
 10
-265.264411
 20
-213.74627
 30
0.0
 11
-270.264411
 21
-213.74627
 31
0.0
  0
LINE
  8
2
  5
2F0
 10
-252.464411
 20
-213.54627
 30
0.0
 11
-257.264411
 21
-213.54627
 31
0.0
  0
LINE
  8
2
  5
2F1
 10
-265.264411
 20
-213.54627
 30
0.0
 11
-270.064411
 21
-213.54627
 31
0.0
  0
LINE
  8
2
 62
     2
  5
2F2
 10
-254.764551
 20
-219.345647
 30
0.0
 11
-254.764551
 21
-216.345647
 31
0.0
  0
LINE
  8
2
 62
     2
  5
2F3
 10
-267.764271
 20
-210.34627
 30
0.0
 11
-267.764271
 21
-207.34627
 31
0.0
  0
LINE
  8
2
 62
     2
  5
2F4
 10
-254.764551
 20
-210.34627
 30
0.0
 11
-254.764551
 21
-207.34627
 31
0.0
  0
LINE
  8
2
 62
     2
  5
2F5
 10
-265.330275
 20
-179.862704
 30
0.0
 11
-257.198547
 21
-171.730976
 31
0.0
  0
LINE
  8
2
 62
     2
  5
2F6
 10
-265.330275
 20
-171.730976
 30
0.0
 11
-257.198547
 21
-179.862704
 31
0.0
  0
LINE
  8
2
 62
     2
  5
2F7
 10
-264.561208
 20
-180.507851
 30
0.0
 11
-256.5534
 21
-172.500043
 31
0.0
  0
LINE
  8
2
 62
     2
  5
2F8
 10
-263.662185
 20
-181.023041
 30
0.0
 11
-256.03821
 21
-173.399066
 31
0.0
  0
LINE
  8
2
 62
     2
  5
2F9
 10
-262.6117
 20
-181.38677
 30
0.0
 11
-255.674481
 21
-174.449551
 31
0.0
  0
LINE
  8
2
 62
     2
  5
2FA
 10
-261.356814
 20
-181.546098
 30
0.0
 11
-255.515153
 21
-175.704437
 31
0.0
  0
LINE
  8
2
 62
     2
  5
2FB
 10
-259.736674
 20
-181.340171
 30
0.0
 11
-255.72108
 21
-177.324577
 31
0.0
  0
LINE
  8
2
 62
     2
  5
2FC
 10
-265.975422
 20
-179.093638
 30
0.0
 11
-257.967613
 21
-171.085829
 31
0.0
  0
LINE
  8
2
 62
     2
  5
2FD
 10
-266.490612
 20
-178.194614
 30
0.0
 11
-258.866637
 21
-170.570639
 31
0.0
  0
LINE
  8
2
 62
     2
  5
2FE
 10
-266.85434
 20
-177.144129
 30
0.0
 11
-259.917122
 21
-170.206911
 31
0.0
  0
LINE
  8
2
 62
     2
  5
2FF
 10
-267.013668
 20
-175.889243
 30
0.0
 11
-261.172008
 21
-170.047583
 31
0.0
  0
LINE
  8
2
 62
     2
  5
300
 10
-266.807742
 20
-174.269104
 30
0.0
 11
-262.792148
 21
-170.253509
 31
0.0
  0
LINE
  8
2
 62
     2
  5
301
 10
-264.561208
 20
-171.085829
 30
0.0
 11
-256.5534
 21
-179.093638
 31
0.0
  0
LINE
  8
2
 62
     2
  5
302
 10
-263.662185
 20
-170.570639
 30
0.0
 11
-256.03821
 21
-178.194614
 31
0.0
  0
LINE
  8
2
 62
     2
  5
303
 10
-262.6117
 20
-170.206911
 30
0.0
 11
-255.674481
 21
-177.144129
 31
0.0
  0
LINE
  8
2
 62
     2
  5
304
 10
-261.356814
 20
-170.047583
 30
0.0
 11
-255.515153
 21
-175.889243
 31
0.0
  0
LINE
  8
2
 62
     2
  5
305
 10
-259.736674
 20
-170.253509
 30
0.0
 11
-255.72108
 21
-174.269104
 31
0.0
  0
LINE
  8
2
 62
     2
  5
306
 10
-265.975422
 20
-172.500043
 30
0.0
 11
-257.967613
 21
-180.507851
 31
0.0
  0
LINE
  8
2
 62
     2
  5
307
 10
-266.490612
 20
-173.399066
 30
0.0
 11
-258.866637
 21
-181.023041
 31
0.0
  0
LINE
  8
2
 62
     2
  5
308
 10
-266.85434
 20
-174.449551
 30
0.0
 11
-259.917122
 21
-181.38677
 31
0.0
  0
LINE
  8
2
 62
     2
  5
309
 10
-267.013668
 20
-175.704437
 30
0.0
 11
-261.172008
 21
-181.546098
 31
0.0
  0
LINE
  8
2
 62
     2
  5
30A
 10
-266.807742
 20
-177.324577
 30
0.0
 11
-262.792148
 21
-181.340171
 31
0.0
  0
LINE
  8
2
  5
30B
 10
-246.764411
 20
-206.34627
 30
0.0
 11
-246.764411
 21
-218.34627
 31
0.0
  0
ARC
  8
2
  5
30C
 10
-247.764411
 20
-206.34627
 30
0.0
 40
1.0
 50
0.0
 51
90.0
  0
ARC
  8
2
  5
30D
 10
-247.764411
 20
-218.34627
 30
0.0
 40
1.0
 50
270.0
 51
360.0
  0
LINE
  8
2
  6
CENTER
 62
     2
  5
30E
 10
-261.264411
 20
-139.544156
 30
0.0
 11
-261.264411
 21
-243.442118
 31
0.0
  0
ARC
  8
2
  5
30F
 10
-264.139411
 20
-149.201623
 30
0.0
 40
4.791667
 50
233.130102
 51
306.869898
  0
ARC
  8
2
  5
310
 10
-258.389411
 20
-156.86829
 30
0.0
 40
4.791667
 50
53.130102
 51
126.869898
  0
ARC
  8
2
  5
311
 10
-264.139411
 20
-156.86829
 30
0.0
 40
4.791667
 50
53.130102
 51
126.869898
  0
LINE
  8
2
  5
312
 10
-275.764411
 20
-206.34627
 30
0.0
 11
-275.764411
 21
-218.34627
 31
0.0
  0
LINE
  8
2
 62
     2
  5
313
 10
-141.328282
 20
-201.04627
 30
0.0
 11
-141.328282
 21
-199.79627
 31
0.0
  0
LINE
  8
2
 62
     2
  5
314
 10
-141.328282
 20
-189.79627
 30
0.0
 11
-141.328282
 21
-188.54627
 31
0.0
  0
LINE
  8
2
 62
     2
  5
315
 10
-142.035389
 20
-201.04627
 30
0.0
 11
-142.035389
 21
-199.79627
 31
0.0
  0
LINE
  8
2
 62
     2
  5
316
 10
-142.035389
 20
-189.79627
 30
0.0
 11
-142.035389
 21
-188.54627
 31
0.0
  0
LINE
  8
2
 62
     2
  5
317
 10
-145.764411
 20
-201.04627
 30
0.0
 11
-145.764411
 21
-199.79627
 31
0.0
  0
LINE
  8
2
 62
     2
  5
318
 10
-145.764411
 20
-189.79627
 30
0.0
 11
-145.764411
 21
-188.54627
 31
0.0
  0
LINE
  8
2
 62
     2
  5
319
 10
-146.764411
 20
-201.04627
 30
0.0
 11
-146.764411
 21
-199.79627
 31
0.0
  0
LINE
  8
2
 62
     2
  5
31A
 10
-146.764411
 20
-189.79627
 30
0.0
 11
-146.764411
 21
-188.54627
 31
0.0
  0
LINE
  8
2
 62
     2
  5
31B
 10
-150.493433
 20
-201.04627
 30
0.0
 11
-150.493433
 21
-199.79627
 31
0.0
  0
LINE
  8
2
 62
     2
  5
31C
 10
-150.493433
 20
-189.79627
 30
0.0
 11
-150.493433
 21
-188.54627
 31
0.0
  0
LINE
  8
2
 62
     2
  5
31D
 10
-151.20054
 20
-201.04627
 30
0.0
 11
-151.20054
 21
-199.79627
 31
0.0
  0
LINE
  8
2
 62
     2
  5
31E
 10
-151.20054
 20
-189.79627
 30
0.0
 11
-151.20054
 21
-188.54627
 31
0.0
  0
LINE
  8
2
 62
     2
  5
31F
 10
-256.328282
 20
-201.04627
 30
0.0
 11
-256.328282
 21
-199.79627
 31
0.0
  0
LINE
  8
2
 62
     2
  5
320
 10
-256.328282
 20
-189.79627
 30
0.0
 11
-256.328282
 21
-188.54627
 31
0.0
  0
LINE
  8
2
 62
     2
  5
321
 10
-257.035389
 20
-201.04627
 30
0.0
 11
-257.035389
 21
-199.79627
 31
0.0
  0
LINE
  8
2
 62
     2
  5
322
 10
-257.035389
 20
-189.79627
 30
0.0
 11
-257.035389
 21
-188.54627
 31
0.0
  0
LINE
  8
2
 62
     2
  5
323
 10
-260.764411
 20
-201.04627
 30
0.0
 11
-260.764411
 21
-199.79627
 31
0.0
  0
LINE
  8
2
 62
     2
  5
324
 10
-260.764411
 20
-189.79627
 30
0.0
 11
-260.764411
 21
-188.54627
 31
0.0
  0
LINE
  8
2
 62
     2
  5
325
 10
-261.764411
 20
-201.04627
 30
0.0
 11
-261.764411
 21
-199.79627
 31
0.0
  0
LINE
  8
2
 62
     2
  5
326
 10
-261.764411
 20
-189.79627
 30
0.0
 11
-261.764411
 21
-188.54627
 31
0.0
  0
LINE
  8
2
 62
     2
  5
327
 10
-265.493433
 20
-201.04627
 30
0.0
 11
-265.493433
 21
-199.79627
 31
0.0
  0
LINE
  8
2
 62
     2
  5
328
 10
-265.493433
 20
-189.79627
 30
0.0
 11
-265.493433
 21
-188.54627
 31
0.0
  0
LINE
  8
2
 62
     2
  5
329
 10
-266.20054
 20
-201.04627
 30
0.0
 11
-266.20054
 21
-199.79627
 31
0.0
  0
LINE
  8
2
 62
     2
  5
32A
 10
-266.20054
 20
-189.79627
 30
0.0
 11
-266.20054
 21
-188.54627
 31
0.0
  0
POINT
  8
2
  5
32B
 10
-267.764411
 20
-189.79627
 30
0.0
  0
LINE
  8
2
  5
32C
 10
-137.264205
 20
-219.745521
 30
0.0
 11
-136.264205
 21
-220.745521
 31
0.0
  0
LINE
  8
2
  5
32D
 10
-155.264205
 20
-219.745521
 30
0.0
 11
-156.264205
 21
-220.745521
 31
0.0
  0
LINE
  8
2
  5
32E
 10
-155.264205
 20
-219.745521
 30
0.0
 11
-137.264205
 21
-219.745521
 31
0.0
  0
LINE
  8
2
  5
32F
 10
-136.264205
 20
-220.745521
 30
0.0
 11
-156.264205
 21
-220.745521
 31
0.0
  0
LINE
  8
2
  5
330
 10
-138.764205
 20
-219.745521
 30
0.0
 11
-138.764205
 21
-219.345521
 31
0.0
  0
LINE
  8
2
  5
331
 10
-153.764205
 20
-219.745521
 30
0.0
 11
-153.764205
 21
-219.345521
 31
0.0
  0
LINE
  8
2
  5
332
 10
-136.264205
 20
-220.745521
 30
0.0
 11
-136.264205
 21
-229.545521
 31
0.0
  0
LINE
  8
2
  5
333
 10
-156.264205
 20
-220.745521
 30
0.0
 11
-156.264205
 21
-229.545521
 31
0.0
  0
LINE
  8
2
  5
334
 10
-156.591073
 20
-229.545521
 30
0.0
 11
-134.264205
 21
-229.545521
 31
0.0
  0
LINE
  8
2
  5
335
 10
-132.407799
 20
-231.401928
 30
0.0
 11
-132.407799
 21
-238.689115
 31
0.0
  0
LINE
  8
2
  5
336
 10
-160.120612
 20
-238.689115
 30
0.0
 11
-160.120612
 21
-231.401928
 31
0.0
  0
LINE
  8
2
  5
337
 10
-158.264205
 20
-240.545521
 30
0.0
 11
-134.264205
 21
-240.545521
 31
0.0
  0
LINE
  8
2
  5
338
 10
-139.336002
 20
-238.689115
 30
0.0
 11
-139.336002
 21
-231.401928
 31
0.0
  0
LINE
  8
2
  5
339
 10
-153.192408
 20
-238.689115
 30
0.0
 11
-153.192408
 21
-231.401928
 31
0.0
  0
LINE
  8
2
  5
33A
 10
-158.264205
 20
-229.545521
 30
0.0
 11
-134.264205
 21
-229.545521
 31
0.0
  0
LINE
  8
2
  5
33B
 10
-134.264205
 20
-229.545521
 30
0.0
 11
-132.407799
 21
-231.401928
 31
0.0
  0
LINE
  8
2
  5
33C
 10
-158.264205
 20
-240.545521
 30
0.0
 11
-160.120612
 21
-238.689115
 31
0.0
  0
LINE
  8
2
  5
33D
 10
-158.264205
 20
-229.545521
 30
0.0
 11
-160.120612
 21
-231.401928
 31
0.0
  0
LINE
  8
2
  5
33E
 10
-134.264205
 20
-240.545521
 30
0.0
 11
-132.407799
 21
-238.689115
 31
0.0
  0
ARC
  8
2
  5
33F
 10
-146.264205
 20
-243.401928
 30
0.0
 40
13.856406
 50
60.0
 51
120.0
  0
ARC
  8
2
  5
340
 10
-146.264205
 20
-226.689115
 30
0.0
 40
13.856406
 50
240.0
 51
300.0
  0
ARC
  8
2
  5
341
 10
-135.937338
 20
-233.584821
 30
0.0
 40
4.039299
 50
45.0
 51
147.288191
  0
ARC
  8
2
  5
342
 10
-135.937338
 20
-236.506222
 30
0.0
 40
4.039299
 50
212.711809
 51
315.0
  0
ARC
  8
2
  5
343
 10
-156.591073
 20
-233.584821
 30
0.0
 40
4.039299
 50
32.711809
 51
135.0
  0
ARC
  8
2
  5
344
 10
-156.591073
 20
-236.506222
 30
0.0
 40
4.039299
 50
225.0
 51
327.288191
  0
POINT
  8
2
  5
345
 10
-146.264411
 20
-219.74627
 30
0.0
  0
POINT
  8
2
  5
346
 10
-146.264205
 20
-219.745521
 30
0.0
  0
LINE
  8
2
  5
347
 10
-270.264145
 20
-219.745521
 30
0.0
 11
-271.264145
 21
-220.745521
 31
0.0
  0
LINE
  8
2
  5
348
 10
-252.264145
 20
-219.745521
 30
0.0
 11
-251.264145
 21
-220.745521
 31
0.0
  0
LINE
  8
2
  5
349
 10
-271.264145
 20
-220.745521
 30
0.0
 11
-251.264145
 21
-220.745521
 31
0.0
  0
LINE
  8
2
  5
34A
 10
-271.264145
 20
-220.745521
 30
0.0
 11
-271.264145
 21
-229.545521
 31
0.0
  0
LINE
  8
2
  5
34B
 10
-251.264145
 20
-220.745521
 30
0.0
 11
-251.264145
 21
-229.545521
 31
0.0
  0
LINE
  8
2
  5
34C
 10
-250.937278
 20
-229.545521
 30
0.0
 11
-273.264145
 21
-229.545521
 31
0.0
  0
LINE
  8
2
  5
34D
 10
-275.120552
 20
-231.401928
 30
0.0
 11
-275.120552
 21
-238.689115
 31
0.0
  0
LINE
  8
2
  5
34E
 10
-247.407739
 20
-238.689115
 30
0.0
 11
-247.407739
 21
-231.401928
 31
0.0
  0
LINE
  8
2
  5
34F
 10
-249.264145
 20
-240.545521
 30
0.0
 11
-273.264145
 21
-240.545521
 31
0.0
  0
LINE
  8
2
  5
350
 10
-268.192349
 20
-238.689115
 30
0.0
 11
-268.192349
 21
-231.401928
 31
0.0
  0
LINE
  8
2
  5
351
 10
-254.335942
 20
-238.689115
 30
0.0
 11
-254.335942
 21
-231.401928
 31
0.0
  0
LINE
  8
2
  5
352
 10
-249.264145
 20
-229.545521
 30
0.0
 11
-273.264145
 21
-229.545521
 31
0.0
  0
LINE
  8
2
  5
353
 10
-273.264145
 20
-229.545521
 30
0.0
 11
-275.120552
 21
-231.401928
 31
0.0
  0
LINE
  8
2
  5
354
 10
-249.264145
 20
-240.545521
 30
0.0
 11
-247.407739
 21
-238.689115
 31
0.0
  0
LINE
  8
2
  5
355
 10
-249.264145
 20
-229.545521
 30
0.0
 11
-247.407739
 21
-231.401928
 31
0.0
  0
LINE
  8
2
  5
356
 10
-273.264145
 20
-240.545521
 30
0.0
 11
-275.120552
 21
-238.689115
 31
0.0
  0
ARC
  8
2
  5
357
 10
-261.264145
 20
-243.401928
 30
0.0
 40
13.856406
 50
60.0
 51
120.0
  0
ARC
  8
2
  5
358
 10
-261.264145
 20
-226.689115
 30
0.0
 40
13.856406
 50
240.0
 51
300.0
  0
ARC
  8
2
  5
359
 10
-271.591013
 20
-233.584821
 30
0.0
 40
4.039299
 50
32.711809
 51
135.0
  0
ARC
  8
2
  5
35A
 10
-271.591013
 20
-236.506222
 30
0.0
 40
4.039299
 50
225.0
 51
327.288191
  0
ARC
  8
2
  5
35B
 10
-250.937278
 20
-233.584821
 30
0.0
 40
4.039299
 50
45.0
 51
147.288191
  0
ARC
  8
2
  5
35C
 10
-250.937278
 20
-236.506222
 30
0.0
 40
4.039299
 50
212.711809
 51
315.0
  0
LINE
  8
2
  5
35D
 10
-252.264145
 20
-219.745521
 30
0.0
 11
-270.264145
 21
-219.745521
 31
0.0
  0
LINE
  8
2
  6
CENTER
 62
     2
  5
35E
 10
-196.264411
 20
-110.092213
 30
0.0
 11
-196.264411
 21
-211.009988
 31
0.0
  0
LINE
  8
2
  6
CENTER
 62
     2
  5
35F
 10
-211.264411
 20
-110.092213
 30
0.0
 11
-211.264411
 21
-211.009988
 31
0.0
  0
LINE
  8
2
  5
360
 10
-267.764411
 20
-189.79627
 30
0.0
 11
-254.764411
 21
-189.79627
 31
0.0
  0
LINE
  8
2
 62
     2
  5
361
 10
-262.764411
 20
-189.79627
 30
0.0
 11
-267.764411
 21
-194.79627
 31
0.0
  0
LINE
  8
2
 62
     2
  5
362
 10
-262.057304
 20
-189.79627
 30
0.0
 11
-267.764411
 21
-195.503376
 31
0.0
  0
LINE
  8
2
 62
     2
  5
363
 10
-261.350197
 20
-189.79627
 30
0.0
 11
-267.764411
 21
-196.210483
 31
0.0
  0
LINE
  8
2
 62
     2
  5
364
 10
-260.643091
 20
-189.79627
 30
0.0
 11
-267.764411
 21
-196.91759
 31
0.0
  0
LINE
  8
2
 62
     2
  5
365
 10
-259.935984
 20
-189.79627
 30
0.0
 11
-267.764411
 21
-197.624697
 31
0.0
  0
LINE
  8
2
 62
     2
  5
366
 10
-259.228877
 20
-189.79627
 30
0.0
 11
-267.764411
 21
-198.331803
 31
0.0
  0
LINE
  8
2
 62
     2
  5
367
 10
-258.52177
 20
-189.79627
 30
0.0
 11
-267.764411
 21
-199.03891
 31
0.0
  0
LINE
  8
2
 62
     2
  5
368
 10
-257.814663
 20
-189.79627
 30
0.0
 11
-267.764411
 21
-199.746017
 31
0.0
  0
LINE
  8
2
 62
     2
  5
369
 10
-257.107557
 20
-189.79627
 30
0.0
 11
-267.107557
 21
-199.79627
 31
0.0
  0
LINE
  8
2
 62
     2
  5
36A
 10
-256.40045
 20
-189.79627
 30
0.0
 11
-266.40045
 21
-199.79627
 31
0.0
  0
LINE
  8
2
 62
     2
  5
36B
 10
-255.693343
 20
-189.79627
 30
0.0
 11
-265.693343
 21
-199.79627
 31
0.0
  0
LINE
  8
2
 62
     2
  5
36C
 10
-254.986236
 20
-189.79627
 30
0.0
 11
-264.986236
 21
-199.79627
 31
0.0
  0
LINE
  8
2
 62
     2
  5
36D
 10
-254.764411
 20
-190.281551
 30
0.0
 11
-264.27913
 21
-199.79627
 31
0.0
  0
LINE
  8
2
 62
     2
  5
36E
 10
-254.764411
 20
-190.988658
 30
0.0
 11
-263.572023
 21
-199.79627
 31
0.0
  0
LINE
  8
2
 62
     2
  5
36F
 10
-254.764411
 20
-191.695764
 30
0.0
 11
-262.864916
 21
-199.79627
 31
0.0
  0
LINE
  8
2
 62
     2
  5
370
 10
-254.764411
 20
-192.402871
 30
0.0
 11
-262.157809
 21
-199.79627
 31
0.0
  0
LINE
  8
2
 62
     2
  5
371
 10
-254.764411
 20
-193.109978
 30
0.0
 11
-261.450702
 21
-199.79627
 31
0.0
  0
LINE
  8
2
 62
     2
  5
372
 10
-254.764411
 20
-193.817085
 30
0.0
 11
-260.743596
 21
-199.79627
 31
0.0
  0
LINE
  8
2
 62
     2
  5
373
 10
-254.764411
 20
-194.524192
 30
0.0
 11
-260.036489
 21
-199.79627
 31
0.0
  0
LINE
  8
2
 62
     2
  5
374
 10
-254.764411
 20
-195.231298
 30
0.0
 11
-259.329382
 21
-199.79627
 31
0.0
  0
LINE
  8
2
 62
     2
  5
375
 10
-254.764411
 20
-195.938405
 30
0.0
 11
-258.622275
 21
-199.79627
 31
0.0
  0
LINE
  8
2
 62
     2
  5
376
 10
-254.764411
 20
-196.645512
 30
0.0
 11
-257.915169
 21
-199.79627
 31
0.0
  0
LINE
  8
2
 62
     2
  5
377
 10
-254.764411
 20
-197.352619
 30
0.0
 11
-257.208062
 21
-199.79627
 31
0.0
  0
LINE
  8
2
 62
     2
  5
378
 10
-254.764411
 20
-198.059726
 30
0.0
 11
-256.500955
 21
-199.79627
 31
0.0
  0
LINE
  8
2
 62
     2
  5
379
 10
-254.764411
 20
-198.766832
 30
0.0
 11
-255.793848
 21
-199.79627
 31
0.0
  0
LINE
  8
2
 62
     2
  5
37A
 10
-254.764411
 20
-199.473939
 30
0.0
 11
-255.086741
 21
-199.79627
 31
0.0
  0
LINE
  8
2
 62
     2
  5
37B
 10
-263.471518
 20
-189.79627
 30
0.0
 11
-267.764411
 21
-194.089163
 31
0.0
  0
LINE
  8
2
 62
     2
  5
37C
 10
-264.178624
 20
-189.79627
 30
0.0
 11
-267.764411
 21
-193.382056
 31
0.0
  0
LINE
  8
2
 62
     2
  5
37D
 10
-264.885731
 20
-189.79627
 30
0.0
 11
-267.764411
 21
-192.674949
 31
0.0
  0
LINE
  8
2
 62
     2
  5
37E
 10
-265.592838
 20
-189.79627
 30
0.0
 11
-267.764411
 21
-191.967842
 31
0.0
  0
LINE
  8
2
 62
     2
  5
37F
 10
-266.299945
 20
-189.79627
 30
0.0
 11
-267.764411
 21
-191.260736
 31
0.0
  0
LINE
  8
2
 62
     2
  5
380
 10
-267.007052
 20
-189.79627
 30
0.0
 11
-267.764411
 21
-190.553629
 31
0.0
  0
LINE
  8
2
 62
     2
  5
381
 10
-267.714158
 20
-189.79627
 30
0.0
 11
-267.764411
 21
-189.846522
 31
0.0
  0
LINE
  8
2
  5
382
 10
-267.764411
 20
-199.79627
 30
0.0
 11
-254.764411
 21
-199.79627
 31
0.0
  0
LINE
  8
2
  5
383
 10
-139.764411
 20
-189.79627
 30
0.0
 11
-152.764411
 21
-189.79627
 31
0.0
  0
LINE
  8
2
  5
384
 10
-139.764411
 20
-199.79627
 30
0.0
 11
-152.764411
 21
-199.79627
 31
0.0
  0
LINE
  8
2
 62
     2
  5
385
 10
-147.764411
 20
-189.79627
 30
0.0
 11
-152.764411
 21
-194.79627
 31
0.0
  0
LINE
  8
2
 62
     2
  5
386
 10
-145.643091
 20
-189.79627
 30
0.0
 11
-152.764411
 21
-196.91759
 31
0.0
  0
LINE
  8
2
 62
     2
  5
387
 10
-143.52177
 20
-189.79627
 30
0.0
 11
-152.764411
 21
-199.03891
 31
0.0
  0
LINE
  8
2
 62
     2
  5
388
 10
-151.40045
 20
-199.79627
 30
0.0
 11
-141.40045
 21
-189.79627
 31
0.0
  0
LINE
  8
2
 62
     2
  5
389
 10
-149.27913
 20
-199.79627
 30
0.0
 11
-139.764411
 21
-190.281551
 31
0.0
  0
LINE
  8
2
 62
     2
  5
38A
 10
-147.157809
 20
-199.79627
 30
0.0
 11
-139.764411
 21
-192.402871
 31
0.0
  0
LINE
  8
2
 62
     2
  5
38B
 10
-145.036489
 20
-199.79627
 30
0.0
 11
-139.764411
 21
-194.524192
 31
0.0
  0
LINE
  8
2
 62
     2
  5
38C
 10
-142.915169
 20
-199.79627
 30
0.0
 11
-139.764411
 21
-196.645512
 31
0.0
  0
LINE
  8
2
 62
     2
  5
38D
 10
-140.793848
 20
-199.79627
 30
0.0
 11
-139.764411
 21
-198.766832
 31
0.0
  0
LINE
  8
2
 62
     2
  5
38E
 10
-149.885731
 20
-189.79627
 30
0.0
 11
-152.764411
 21
-192.674949
 31
0.0
  0
LINE
  8
2
 62
     2
  5
38F
 10
-152.007052
 20
-189.79627
 30
0.0
 11
-152.764411
 21
-190.553629
 31
0.0
  0
LINE
  8
2
  5
390
 10
-205.764492
 20
-116.065206
 30
0.0
 11
-205.264492
 21
-116.353882
 31
0.0
  0
LINE
  8
2
  5
391
 10
-205.264492
 20
-121.676531
 30
0.0
 11
-205.264492
 21
-116.353882
 31
0.0
  0
LINE
  8
2
  5
392
 10
-205.302395
 20
-116.353882
 30
0.0
 11
-205.302395
 21
-121.676531
 31
0.0
  0
LINE
  8
2
  5
393
 10
-205.764492
 20
-121.965206
 30
0.0
 11
-205.264492
 21
-121.676531
 31
0.0
  0
ARC
  8
2
  5
394
 10
-205.464492
 20
-122.165206
 30
0.0
 40
0.2
 50
0.0
 51
90.0
  0
LINE
  8
2
  5
395
 10
-205.264492
 20
-124.965206
 30
0.0
 11
-205.264492
 21
-122.165206
 31
0.0
  0
LINE
  8
2
  5
396
 10
-205.264492
 20
-122.465206
 30
0.0
 11
-206.683055
 21
-122.465206
 31
0.0
  0
LINE
  8
2
  5
397
 10
-205.264492
 20
-124.965206
 30
0.0
 11
-206.683055
 21
-124.965206
 31
0.0
  0
LINE
  8
2
  5
398
 10
-205.285362
 20
-124.965206
 30
0.0
 11
-205.285362
 21
-122.465206
 31
0.0
  0
ARC
  8
2
  5
399
 10
-207.264492
 20
-126.465206
 30
0.0
 40
2.5
 50
0.0
 51
36.869898
  0
LINE
  8
2
 62
     2
  5
39A
 10
-204.783751
 20
-138.965206
 30
0.0
 11
-204.783751
 21
-126.465206
 31
0.0
  0
LINE
  8
2
  5
39B
 10
-204.764492
 20
-138.965206
 30
0.0
 11
-204.764492
 21
-126.465206
 31
0.0
  0
LINE
  8
2
 62
     2
  5
39C
 10
-206.328363
 20
-138.965206
 30
0.0
 11
-206.328363
 21
-126.465206
 31
0.0
  0
LINE
  8
2
 62
     2
  5
39D
 10
-207.03547
 20
-138.965206
 30
0.0
 11
-207.03547
 21
-126.465206
 31
0.0
  0
LINE
  8
2
  5
39E
 10
-202.24346
 20
-124.965206
 30
0.0
 11
-202.24346
 21
-122.465206
 31
0.0
  0
POINT
  8
2
  5
39F
 10
-203.764411
 20
-116.065206
 30
0.0
  0
ARC
  8
2
  5
3A0
 10
-199.13937
 20
-181.131927
 30
0.0
 40
4.791599
 50
233.130102
 51
306.869898
  0
ARC
  8
2
  5
3A1
 10
-193.389452
 20
-188.798486
 30
0.0
 40
4.791599
 50
53.130102
 51
126.869898
  0
ARC
  8
2
  5
3A2
 10
-193.389452
 20
-181.131927
 30
0.0
 40
4.791599
 50
233.130102
 51
306.869898
  0
ARC
  8
2
  5
3A3
 10
-214.139452
 20
-181.131819
 30
0.0
 40
4.791734
 50
233.130102
 51
306.869898
  0
ARC
  8
2
  5
3A4
 10
-208.38937
 20
-188.798594
 30
0.0
 40
4.791734
 50
53.130102
 51
126.869898
  0
ARC
  8
2
  5
3A5
 10
-208.38937
 20
-181.131819
 30
0.0
 40
4.791734
 50
233.130102
 51
306.869898
  0
LINE
  8
2
  5
3A6
 10
118.160273
 20
-121.676531
 30
0.0
 11
118.160273
 21
-116.353882
 31
0.0
  0
LINE
  8
2
  5
3A7
 10
106.160273
 20
-121.676531
 30
0.0
 11
106.160273
 21
-116.353882
 31
0.0
  0
LINE
  8
2
  5
3A8
 10
106.360273
 20
-121.965206
 30
0.0
 11
117.960273
 21
-121.965206
 31
0.0
  0
LINE
  8
2
  5
3A9
 10
109.762357
 20
-116.353882
 30
0.0
 11
109.762357
 21
-121.676531
 31
0.0
  0
LINE
  8
2
  5
3AA
 10
108.596091
 20
-116.353882
 30
0.0
 11
108.596091
 21
-121.676531
 31
0.0
  0
LINE
  8
2
  5
3AB
 10
106.198175
 20
-116.353882
 30
0.0
 11
106.198175
 21
-121.676531
 31
0.0
  0
LINE
  8
2
  5
3AC
 10
106.660273
 20
-121.965206
 30
0.0
 11
106.160273
 21
-121.676531
 31
0.0
  0
LINE
  8
2
  5
3AD
 10
108.596091
 20
-121.676531
 30
0.0
 11
109.762357
 21
-121.676531
 31
0.0
  0
LINE
  8
2
  5
3AE
 10
118.160273
 20
-121.676531
 30
0.0
 11
117.660273
 21
-121.965206
 31
0.0
  0
LINE
  8
2
  5
3AF
 10
118.160273
 20
-116.353882
 30
0.0
 11
117.660273
 21
-116.065206
 31
0.0
  0
ARC
  8
2
  5
3B0
 10
112.160273
 20
-111.861577
 30
0.0
 40
10.10363
 50
256.270867
 51
270.0
  0
ARC
  8
2
  5
3B1
 10
112.160273
 20
-126.168836
 30
0.0
 40
10.10363
 50
90.0
 51
103.729133
  0
LINE
  8
2
  5
3B2
 10
108.596091
 20
-116.353882
 30
0.0
 11
109.762357
 21
-116.353882
 31
0.0
  0
LINE
  8
2
  5
3B3
 10
106.160273
 20
-121.676531
 30
0.0
 11
106.198175
 21
-121.676531
 31
0.0
  0
ARC
  8
2
  5
3B4
 10
107.397133
 20
-119.331046
 30
0.0
 40
2.634161
 50
242.924933
 51
297.075067
  0
ARC
  8
2
  5
3B5
 10
107.397133
 20
-118.699367
 30
0.0
 40
2.634161
 50
62.924933
 51
117.075067
  0
LINE
  8
2
  5
3B6
 10
106.660273
 20
-116.065206
 30
0.0
 11
106.160273
 21
-116.353882
 31
0.0
  0
LINE
  8
2
  5
3B7
 10
118.660273
 20
-138.877021
 30
0.0
 11
118.660273
 21
-126.465206
 31
0.0
  0
LINE
  8
2
  5
3B8
 10
105.660273
 20
-138.877021
 30
0.0
 11
105.660273
 21
-126.465206
 31
0.0
  0
LINE
  8
2
  5
3B9
 10
116.034603
 20
-124.965206
 30
0.0
 11
116.034603
 21
-122.465206
 31
0.0
  0
LINE
  8
2
  5
3BA
 10
116.74171
 20
-124.965206
 30
0.0
 11
116.74171
 21
-122.465206
 31
0.0
  0
LINE
  8
2
  5
3BB
 10
118.139403
 20
-124.965206
 30
0.0
 11
118.139403
 21
-122.465206
 31
0.0
  0
LINE
  8
2
  5
3BC
 10
118.160273
 20
-124.965206
 30
0.0
 11
118.160273
 21
-122.165206
 31
0.0
  0
LINE
  8
2
  5
3BD
 10
112.660273
 20
-124.965206
 30
0.0
 11
112.660273
 21
-122.465206
 31
0.0
  0
LINE
  8
2
  5
3BE
 10
111.660273
 20
-124.965206
 30
0.0
 11
111.660273
 21
-122.465206
 31
0.0
  0
LINE
  8
2
  5
3BF
 10
108.285943
 20
-124.965206
 30
0.0
 11
108.285943
 21
-122.465206
 31
0.0
  0
LINE
  8
2
  5
3C0
 10
107.578836
 20
-124.965206
 30
0.0
 11
107.578836
 21
-122.465206
 31
0.0
  0
LINE
  8
2
  5
3C1
 10
106.160273
 20
-124.965206
 30
0.0
 11
106.160273
 21
-122.165206
 31
0.0
  0
LINE
  8
2
  5
3C2
 10
106.181143
 20
-124.965206
 30
0.0
 11
106.181143
 21
-122.465206
 31
0.0
  0
LINE
  8
2
  5
3C3
 10
116.74171
 20
-122.465206
 30
0.0
 11
118.160273
 21
-122.465206
 31
0.0
  0
LINE
  8
2
  5
3C4
 10
112.660273
 20
-122.465206
 30
0.0
 11
116.034603
 21
-122.465206
 31
0.0
  0
LINE
  8
2
  5
3C5
 10
106.160273
 20
-122.465206
 30
0.0
 11
107.578836
 21
-122.465206
 31
0.0
  0
LINE
  8
2
  5
3C6
 10
108.285943
 20
-122.465206
 30
0.0
 11
111.660273
 21
-122.465206
 31
0.0
  0
LINE
  8
2
  5
3C7
 10
116.74171
 20
-124.965206
 30
0.0
 11
118.160273
 21
-124.965206
 31
0.0
  0
LINE
  8
2
  5
3C8
 10
112.660273
 20
-124.965206
 30
0.0
 11
116.034603
 21
-124.965206
 31
0.0
  0
LINE
  8
2
  5
3C9
 10
106.160273
 20
-124.965206
 30
0.0
 11
107.578836
 21
-124.965206
 31
0.0
  0
LINE
  8
2
  5
3CA
 10
108.285943
 20
-124.965206
 30
0.0
 11
111.660273
 21
-124.965206
 31
0.0
  0
ARC
  8
2
  5
3CB
 10
106.360273
 20
-122.165206
 30
0.0
 40
0.2
 50
90.0
 51
180.0
  0
ARC
  8
2
  5
3CC
 10
117.960273
 20
-122.165206
 30
0.0
 40
0.2
 50
0.0
 51
90.0
  0
ARC
  8
2
  5
3CD
 10
116.160273
 20
-126.465206
 30
0.0
 40
2.5
 50
0.0
 51
36.869898
  0
ARC
  8
2
  5
3CE
 10
108.160273
 20
-126.465206
 30
0.0
 40
2.5
 50
143.130102
 51
180.0
  0
LINE
  8
2
 62
     2
  5
3CF
 10
118.641014
 20
-138.877021
 30
0.0
 11
118.641014
 21
-126.465206
 31
0.0
  0
LINE
  8
2
 62
     2
  5
3D0
 10
117.096402
 20
-138.877021
 30
0.0
 11
117.096402
 21
-126.465206
 31
0.0
  0
LINE
  8
2
 62
     2
  5
3D1
 10
116.389295
 20
-138.877021
 30
0.0
 11
116.389295
 21
-126.465206
 31
0.0
  0
LINE
  8
2
 62
     2
  5
3D2
 10
112.660273
 20
-138.877021
 30
0.0
 11
112.660273
 21
-126.465206
 31
0.0
  0
LINE
  8
2
 62
     2
  5
3D3
 10
111.660273
 20
-138.877021
 30
0.0
 11
111.660273
 21
-126.465206
 31
0.0
  0
LINE
  8
2
 62
     2
  5
3D4
 10
107.931251
 20
-138.877021
 30
0.0
 11
107.931251
 21
-126.465206
 31
0.0
  0
LINE
  8
2
 62
     2
  5
3D5
 10
107.224144
 20
-138.877021
 30
0.0
 11
107.224144
 21
-126.465206
 31
0.0
  0
LINE
  8
2
 62
     2
  5
3D6
 10
105.679532
 20
-138.877021
 30
0.0
 11
105.679532
 21
-126.465206
 31
0.0
  0
LINE
  8
2
  5
3D7
 10
117.910273
 20
-184.965206
 30
0.0
 11
117.910273
 21
-142.877021
 31
0.0
  0
LINE
  8
2
  5
3D8
 10
106.410273
 20
-184.965206
 30
0.0
 11
106.410273
 21
-142.877021
 31
0.0
  0
LINE
  8
2
  5
3D9
 10
118.122371
 20
-121.676531
 30
0.0
 11
118.160273
 21
-121.676531
 31
0.0
  0
ARC
  8
2
  5
3DA
 10
112.160111
 20
-111.861577
 30
0.0
 40
10.10363
 50
270.0
 51
283.729133
  0
LINE
  8
2
  5
3DB
 10
115.724292
 20
-121.676531
 30
0.0
 11
114.558026
 21
-121.676531
 31
0.0
  0
ARC
  8
2
  5
3DC
 10
116.92325
 20
-119.331046
 30
0.0
 40
2.634161
 50
242.924933
 51
297.075067
  0
LINE
  8
2
  5
3DD
 10
115.724292
 20
-116.353882
 30
0.0
 11
115.724292
 21
-121.676531
 31
0.0
  0
LINE
  8
2
  5
3DE
 10
114.558026
 20
-116.353882
 30
0.0
 11
114.558026
 21
-121.676531
 31
0.0
  0
LINE
  8
2
  5
3DF
 10
118.122208
 20
-116.353882
 30
0.0
 11
118.122208
 21
-121.676531
 31
0.0
  0
ARC
  8
2
  5
3E0
 10
112.160111
 20
-126.168836
 30
0.0
 40
10.10363
 50
76.270867
 51
90.0
  0
LINE
  8
2
  5
3E1
 10
115.724292
 20
-116.353882
 30
0.0
 11
114.558026
 21
-116.353882
 31
0.0
  0
ARC
  8
2
  5
3E2
 10
116.92325
 20
-118.699367
 30
0.0
 40
2.634161
 50
62.924933
 51
117.075067
  0
LINE
  8
2
  5
3E3
 10
117.660273
 20
-116.065206
 30
0.0
 11
106.660273
 21
-116.065206
 31
0.0
  0
ARC
  8
2
  5
3E4
 10
115.035273
 20
-188.966055
 30
0.0
 40
4.791667
 50
53.130102
 51
126.869898
  0
ARC
  8
2
  5
3E5
 10
109.285273
 20
-181.299388
 30
0.0
 40
4.791667
 50
233.130102
 51
306.869898
  0
ARC
  8
2
  5
3E6
 10
115.035273
 20
-181.299388
 30
0.0
 40
4.791667
 50
233.130102
 51
306.869898
  0
LINE
  8
2
  6
CENTER
 62
     2
  5
3E7
 10
112.160192
 20
-113.455589
 30
0.0
 11
112.160192
 21
-189.013824
 31
0.0
  0
LINE
  8
2
  5
3E8
 10
97.960192
 20
-138.877021
 30
0.0
 11
137.960192
 21
-138.877021
 31
0.0
  0
LINE
  8
2
 62
     2
  5
3E9
 10
-206.764411
 20
-115.065206
 30
0.0
 11
-203.764411
 21
-112.065206
 31
0.0
  0
LINE
  8
2
 62
     2
  5
3EA
 10
-203.935984
 20
-115.065206
 30
0.0
 11
-200.935984
 21
-112.065206
 31
0.0
  0
LINE
  8
2
 62
     2
  5
3EB
 10
-201.107557
 20
-115.065206
 30
0.0
 11
-198.107557
 21
-112.065206
 31
0.0
  0
LINE
  8
2
 62
     2
  5
3EC
 10
-198.27913
 20
-115.065206
 30
0.0
 11
-195.27913
 21
-112.065206
 31
0.0
  0
LINE
  8
2
 62
     2
  5
3ED
 10
-195.450702
 20
-115.065206
 30
0.0
 11
-192.450702
 21
-112.065206
 31
0.0
  0
LINE
  8
2
 62
     2
  5
3EE
 10
-192.622275
 20
-115.065206
 30
0.0
 11
-189.622275
 21
-112.065206
 31
0.0
  0
LINE
  8
2
 62
     2
  5
3EF
 10
-189.793848
 20
-115.065206
 30
0.0
 11
-186.793848
 21
-112.065206
 31
0.0
  0
LINE
  8
2
 62
     2
  5
3F0
 10
-186.965421
 20
-115.065206
 30
0.0
 11
-183.965421
 21
-112.065206
 31
0.0
  0
LINE
  8
2
 62
     2
  5
3F1
 10
-181.764411
 20
-112.692623
 30
0.0
 11
-184.136994
 21
-115.065206
 31
0.0
  0
LINE
  8
2
 62
     2
  5
3F2
 10
-209.592838
 20
-115.065206
 30
0.0
 11
-206.592838
 21
-112.065206
 31
0.0
  0
LINE
  8
2
 62
     2
  5
3F3
 10
-212.421265
 20
-115.065206
 30
0.0
 11
-209.421265
 21
-112.065206
 31
0.0
  0
LINE
  8
2
 62
     2
  5
3F4
 10
-215.249692
 20
-115.065206
 30
0.0
 11
-212.249692
 21
-112.065206
 31
0.0
  0
LINE
  8
2
 62
     2
  5
3F5
 10
-218.078119
 20
-115.065206
 30
0.0
 11
-215.078119
 21
-112.065206
 31
0.0
  0
LINE
  8
2
 62
     2
  5
3F6
 10
-220.906547
 20
-115.065206
 30
0.0
 11
-217.906547
 21
-112.065206
 31
0.0
  0
LINE
  8
2
 62
     2
  5
3F7
 10
-223.734974
 20
-115.065206
 30
0.0
 11
-220.734974
 21
-112.065206
 31
0.0
  0
LINE
  8
2
 62
     2
  5
3F8
 10
-225.764411
 20
-114.266217
 30
0.0
 11
-223.563401
 21
-112.065206
 31
0.0
  0
LINE
  8
2
 62
     2
  5
3F9
 10
112.160192
 20
-115.065206
 30
0.0
 11
115.160192
 21
-112.065206
 31
0.0
  0
LINE
  8
2
 62
     2
  5
3FA
 10
114.988619
 20
-115.065206
 30
0.0
 11
117.988619
 21
-112.065206
 31
0.0
  0
LINE
  8
2
 62
     2
  5
3FB
 10
117.817046
 20
-115.065206
 30
0.0
 11
120.817046
 21
-112.065206
 31
0.0
  0
LINE
  8
2
 62
     2
  5
3FC
 10
120.645473
 20
-115.065206
 30
0.0
 11
123.645473
 21
-112.065206
 31
0.0
  0
LINE
  8
2
 62
     2
  5
3FD
 10
123.4739
 20
-115.065206
 30
0.0
 11
126.4739
 21
-112.065206
 31
0.0
  0
LINE
  8
2
 62
     2
  5
3FE
 10
126.302327
 20
-115.065206
 30
0.0
 11
129.302327
 21
-112.065206
 31
0.0
  0
LINE
  8
2
 62
     2
  5
3FF
 10
129.130755
 20
-115.065206
 30
0.0
 11
132.130755
 21
-112.065206
 31
0.0
  0
LINE
  8
2
 62
     2
  5
400
 10
131.959182
 20
-115.065206
 30
0.0
 11
134.959182
 21
-112.065206
 31
0.0
  0
LINE
  8
2
 62
     2
  5
401
 10
137.160192
 20
-112.692623
 30
0.0
 11
134.787609
 21
-115.065206
 31
0.0
  0
LINE
  8
2
 62
     2
  5
402
 10
109.331765
 20
-115.065206
 30
0.0
 11
112.331765
 21
-112.065206
 31
0.0
  0
LINE
  8
2
 62
     2
  5
403
 10
106.503338
 20
-115.065206
 30
0.0
 11
109.503338
 21
-112.065206
 31
0.0
  0
LINE
  8
2
 62
     2
  5
404
 10
103.67491
 20
-115.065206
 30
0.0
 11
106.67491
 21
-112.065206
 31
0.0
  0
LINE
  8
2
 62
     2
  5
405
 10
100.846483
 20
-115.065206
 30
0.0
 11
103.846483
 21
-112.065206
 31
0.0
  0
LINE
  8
2
 62
     2
  5
406
 10
98.018056
 20
-115.065206
 30
0.0
 11
101.018056
 21
-112.065206
 31
0.0
  0
LINE
  8
2
 62
     2
  5
407
 10
95.189629
 20
-115.065206
 30
0.0
 11
98.189629
 21
-112.065206
 31
0.0
  0
LINE
  8
2
 62
     2
  5
408
 10
93.160192
 20
-114.266217
 30
0.0
 11
95.361202
 21
-112.065206
 31
0.0
  0
LINE
  8
2
  5
409
 10
97.660192
 20
234.328767
 30
0.0
 11
132.660192
 21
234.328767
 31
0.0
  0
LINE
  8
2
  5
40A
 10
97.660192
 20
265.503767
 30
0.0
 11
97.660192
 21
234.328767
 31
0.0
  0
LINE
  8
2
  5
40B
 10
132.660192
 20
234.328767
 30
0.0
 11
132.660192
 21
275.028767
 31
0.0
  0
LINE
  8
2
  5
40C
 10
132.360192
 20
234.028767
 30
0.0
 11
97.960192
 21
234.028767
 31
0.0
  0
LINE
  8
2
  5
40D
 10
97.660192
 20
234.328767
 30
0.0
 11
97.960192
 21
234.028767
 31
0.0
  0
LINE
  8
2
  5
40E
 10
132.360192
 20
234.028767
 30
0.0
 11
132.660192
 21
234.328767
 31
0.0
  0
LINE
  8
2
  6
CENTER
 62
     2
  5
40F
 10
115.160192
 20
275.028767
 30
0.0
 11
115.160192
 21
203.15817
 31
0.0
  0
LINE
  8
2
  5
410
 10
131.660192
 20
207.628766
 30
0.0
 11
98.660192
 21
207.628766
 31
0.0
  0
LINE
  8
2
  5
411
 10
113.922649
 20
233.128766
 30
0.0
 11
132.660192
 21
225.558307
 31
0.0
  0
LINE
  8
2
  5
412
 10
97.660192
 20
231.628766
 30
0.0
 11
97.660192
 21
219.828766
 31
0.0
  0
ARC
  8
2
  5
413
 10
131.660192
 20
208.628766
 30
0.0
 40
1.0
 50
270.0
 51
360.0
  0
ARC
  8
2
  5
414
 10
98.660192
 20
208.428766
 30
0.0
 40
1.0
 50
180.0
 51
270.0
  0
LINE
  8
2
  5
415
 10
97.660192
 20
208.628766
 30
0.0
 11
97.660192
 21
211.428766
 31
0.0
  0
ARC
  8
2
  5
416
 10
80.671667
 20
215.628766
 30
0.0
 40
17.5
 50
0.0
 51
13.88654
  0
ARC
  8
2
  5
417
 10
80.671667
 20
215.628766
 30
0.0
 40
17.5
 50
346.11346
 51
360.0
  0
ARC
  8
2
  5
418
 10
126.731989
 20
215.628766
 30
0.0
 40
8.0
 50
330.0
 51
360.0
  0
LINE
  8
2
  5
419
 10
133.660192
 20
211.628766
 30
0.0
 11
132.660192
 21
211.628766
 31
0.0
  0
LINE
  8
2
  5
41A
 10
132.660192
 20
212.378766
 30
0.0
 11
132.660192
 21
211.628766
 31
0.0
  0
ARC
  8
2
  5
41B
 10
126.731989
 20
215.628766
 30
0.0
 40
8.0
 50
0.0
 51
30.0
  0
LINE
  8
2
  5
41C
 10
133.660192
 20
219.628766
 30
0.0
 11
132.660192
 21
219.628766
 31
0.0
  0
LINE
  8
2
  5
41D
 10
132.660192
 20
218.878766
 30
0.0
 11
132.660192
 21
219.628766
 31
0.0
  0
LINE
  8
2
  5
41E
 10
132.660192
 20
224.20929
 30
0.0
 11
132.660192
 21
215.628766
 31
0.0
  0
LINE
  8
2
  5
41F
 10
132.660192
 20
215.628766
 30
0.0
 11
132.660192
 21
208.628766
 31
0.0
  0
LINE
  8
2
  5
420
 10
39.16037
 20
219.628766
 30
0.0
 11
97.708392
 21
219.628766
 31
0.0
  0
LINE
  8
2
  5
421
 10
39.16037
 20
211.628766
 30
0.0
 11
97.708392
 21
211.628766
 31
0.0
  0
LINE
  8
2
  5
422
 10
38.66037
 20
219.128766
 30
0.0
 11
38.66037
 21
212.128766
 31
0.0
  0
LINE
  8
2
  5
423
 10
39.16037
 20
211.628766
 30
0.0
 11
38.66037
 21
212.128766
 31
0.0
  0
LINE
  8
2
  5
424
 10
38.66037
 20
219.128766
 30
0.0
 11
39.16037
 21
219.628766
 31
0.0
  0
LINE
  8
2
 62
     2
  5
425
 10
133.660192
 20
211.628766
 30
0.0
 11
133.660192
 21
219.628766
 31
0.0
  0
LINE
  8
2
 62
     2
  5
426
 10
39.16037
 20
211.628766
 30
0.0
 11
39.16037
 21
219.628766
 31
0.0
  0
LINE
  8
2
  6
PHANTOM
 62
     2
  5
427
 10
-120.640989
 20
23.530724
 30
0.0
 11
-136.558822
 21
-15.867295
 31
0.0
  0
LINE
  8
2
  6
PHANTOM
 62
     2
  5
428
 10
-113.223518
 20
20.533872
 30
0.0
 11
-130.560588
 21
-22.376883
 31
0.0
  0
LINE
  8
2
  6
PHANTOM
 62
     2
  5
429
 10
-119.990094
 20
23.807013
 30
0.0
 11
-113.499807
 21
21.184767
 31
0.0
  0
LINE
  8
2
  6
PHANTOM
 62
     2
  5
42A
 10
-113.223518
 20
20.533872
 30
0.0
 11
-113.499807
 21
21.184767
 31
0.0
  0
LINE
  8
2
  6
PHANTOM
 62
     2
  5
42B
 10
-119.990094
 20
23.807013
 30
0.0
 11
-120.640989
 21
23.530724
 31
0.0
  0
LINE
  8
2
  6
PHANTOM
 62
     2
  5
42C
 10
-113.223518
 20
20.533872
 30
0.0
 11
-120.640989
 21
23.530724
 31
0.0
  0
LINE
  8
2
  6
PHANTOM
 62
     2
  5
42D
 10
-144.165826
 20
-66.728897
 30
0.0
 11
-142.852498
 21
-63.478297
 31
0.0
  0
LINE
  8
2
  6
PHANTOM
 62
     2
  5
42E
 10
-161.164414
 20
-58.230547
 30
0.0
 11
-161.164414
 21
-60.939557
 31
0.0
  0
ARC
  8
2
  6
PHANTOM
 62
     2
  5
42F
 10
-145.09301
 20
-66.35429
 30
0.0
 40
1.0
 50
248.000004
 51
338.000004
  0
ARC
  8
2
  6
PHANTOM
 62
     2
  5
430
 10
-149.73716
 20
-59.162694
 30
0.0
 40
8.0
 50
248.000004
 51
278.000004
  0
LINE
  8
2
  6
PHANTOM
 62
     2
  5
431
 10
-148.623775
 20
-67.084838
 30
0.0
 11
-148.249168
 21
-66.157655
 31
0.0
  0
ARC
  8
2
  6
PHANTOM
 62
     2
  5
432
 10
-149.73716
 20
-59.162694
 30
0.0
 40
8.0
 50
218.000004
 51
248.000004
  0
LINE
  8
2
  6
PHANTOM
 62
     2
  5
433
 10
-161.164414
 20
-60.939557
 30
0.0
 11
-151.957904
 21
-64.659228
 31
0.0
  0
LINE
  8
2
  6
PHANTOM
 62
     2
  5
434
 10
-151.957904
 20
-64.659228
 30
0.0
 11
-145.467617
 21
-67.281474
 31
0.0
  0
LINE
  8
2
  6
PHANTOM
 62
     2
  5
435
 10
-148.623775
 20
-67.084838
 30
0.0
 11
-156.041246
 21
-64.087986
 31
0.0
  0
ARC
  8
2
  5
436
 10
115.160192
 20
275.028767
 30
0.0
 40
9.525
 50
270.0
 51
360.0
  0
ARC
  8
2
  5
437
 10
115.160192
 20
275.028767
 30
0.0
 40
9.6
 50
262.833357
 51
360.0
  0
ARC
  8
2
  5
438
 10
115.160192
 20
275.028767
 30
0.0
 40
17.2
 50
213.626661
 51
360.0
  0
ARC
  8
2
  5
439
 10
115.160192
 20
275.028767
 30
0.0
 40
17.5
 50
212.975865
 51
360.0
  0
POLYLINE
  8
2
  5
43A
 66
     1
 10
0.0
 20
0.0
 30
0.0
  0
VERTEX
  8
2
  5
43B
 10
-3.449887
 20
275.028767
 30
0.0
 40
0.0
 41
0.0
  0
VERTEX
  8
2
  5
43C
 10
-2.943421
 20
271.810123
 30
0.0
 40
0.0
 41
0.0
  0
VERTEX
  8
2
  5
43D
 10
-2.436955
 20
270.546414
 30
0.0
 40
0.0
 41
0.0
  0
VERTEX
  8
2
  5
43E
 10
-1.930489
 20
269.625487
 30
0.0
 40
0.0
 41
0.0
  0
VERTEX
  8
2
  5
43F
 10
-1.424023
 20
268.891053
 30
0.0
 40
0.0
 41
0.0
  0
VERTEX
  8
2
  5
440
 10
-0.917557
 20
268.281933
 30
0.0
 40
0.0
 41
0.0
  0
VERTEX
  8
2
  5
441
 10
-0.41109
 20
267.766526
 30
0.0
 40
0.0
 41
0.0
  0
VERTEX
  8
2
  5
442
 10
0.095376
 20
267.325997
 30
0.0
 40
0.0
 41
0.0
  0
VERTEX
  8
2
  5
443
 10
0.601842
 20
266.948091
 30
0.0
 40
0.0
 41
0.0
  0
VERTEX
  8
2
  5
444
 10
1.108308
 20
266.624356
 30
0.0
 40
0.0
 41
0.0
  0
VERTEX
  8
2
  5
445
 10
1.614774
 20
266.348728
 30
0.0
 40
0.0
 41
0.0
  0
VERTEX
  8
2
  5
446
 10
2.12124
 20
266.116744
 30
0.0
 40
0.0
 41
0.0
  0
VERTEX
  8
2
  5
447
 10
2.627706
 20
265.925065
 30
0.0
 40
0.0
 41
0.0
  0
VERTEX
  8
2
  5
448
 10
3.134172
 20
265.771189
 30
0.0
 40
0.0
 41
0.0
  0
VERTEX
  8
2
  5
449
 10
3.640638
 20
265.653254
 30
0.0
 40
0.0
 41
0.0
  0
VERTEX
  8
2
  5
44A
 10
4.147105
 20
265.569914
 30
0.0
 40
0.0
 41
0.0
  0
VERTEX
  8
2
  5
44B
 10
4.653571
 20
265.520261
 30
0.0
 40
0.0
 41
0.0
  0
VERTEX
  8
2
  5
44C
 10
5.160037
 20
265.503767
 30
0.0
 40
0.0
 41
0.0
  0
VERTEX
  8
2
  5
44D
 10
5.160037
 20
265.503767
 30
0.0
 40
0.0
 41
0.0
  0
SEQEND
  8
2
  5
44E
  0
POLYLINE
  8
2
  5
44F
 66
     1
 10
0.0
 20
0.0
 30
0.0
  0
VERTEX
  8
2
  5
75F
 10
5.002478
 20
275.028767
 30
0.0
  0
VERTEX
  8
2
  5
760
 10
5.508944
 20
271.810123
 30
0.0
  0
VERTEX
  8
2
  5
761
 10
6.01541
 20
270.546414
 30
0.0
  0
VERTEX
  8
2
  5
762
 10
6.521876
 20
269.625487
 30
0.0
  0
VERTEX
  8
2
  5
763
 10
7.028343
 20
268.891053
 30
0.0
  0
VERTEX
  8
2
  5
764
 10
7.534809
 20
268.281933
 30
0.0
  0
VERTEX
  8
2
  5
765
 10
8.041275
 20
267.766526
 30
0.0
  0
VERTEX
  8
2
  5
766
 10
8.547741
 20
267.325997
 30
0.0
  0
VERTEX
  8
2
  5
767
 10
9.054207
 20
266.948091
 30
0.0
  0
VERTEX
  8
2
  5
768
 10
9.560673
 20
266.624356
 30
0.0
  0
VERTEX
  8
2
  5
769
 10
10.067139
 20
266.348728
 30
0.0
  0
VERTEX
  8
2
  5
76A
 10
10.573605
 20
266.116744
 30
0.0
  0
VERTEX
  8
2
  5
76B
 10
11.080071
 20
265.925065
 30
0.0
  0
VERTEX
  8
2
  5
76C
 10
11.586538
 20
265.771189
 30
0.0
  0
VERTEX
  8
2
  5
76D
 10
12.093004
 20
265.653254
 30
0.0
  0
VERTEX
  8
2
  5
76E
 10
12.59947
 20
265.569914
 30
0.0
  0
VERTEX
  8
2
  5
76F
 10
13.105936
 20
265.520261
 30
0.0
  0
VERTEX
  8
2
  5
770
 10
13.612402
 20
265.503767
 30
0.0
  0
VERTEX
  8
2
  5
771
 10
13.739188
 20
265.5048
 30
0.0
  0
SEQEND
  8
2
  5
772
  0
POLYLINE
  8
2
  5
464
 66
     1
 10
0.0
 20
0.0
 30
0.0
  0
VERTEX
  8
2
  5
465
 10
5.256049
 20
275.028767
 30
0.0
 40
0.0
 41
0.0
  0
VERTEX
  8
2
  5
466
 10
5.762515
 20
271.810123
 30
0.0
 40
0.0
 41
0.0
  0
VERTEX
  8
2
  5
467
 10
6.268981
 20
270.546414
 30
0.0
 40
0.0
 41
0.0
  0
VERTEX
  8
2
  5
468
 10
6.775447
 20
269.625487
 30
0.0
 40
0.0
 41
0.0
  0
VERTEX
  8
2
  5
469
 10
7.281913
 20
268.891053
 30
0.0
 40
0.0
 41
0.0
  0
VERTEX
  8
2
  5
46A
 10
7.78838
 20
268.281933
 30
0.0
 40
0.0
 41
0.0
  0
VERTEX
  8
2
  5
46B
 10
8.294846
 20
267.766526
 30
0.0
 40
0.0
 41
0.0
  0
VERTEX
  8
2
  5
46C
 10
8.801312
 20
267.325997
 30
0.0
 40
0.0
 41
0.0
  0
VERTEX
  8
2
  5
46D
 10
9.307778
 20
266.948091
 30
0.0
 40
0.0
 41
0.0
  0
VERTEX
  8
2
  5
46E
 10
9.814244
 20
266.624356
 30
0.0
 40
0.0
 41
0.0
  0
VERTEX
  8
2
  5
46F
 10
10.32071
 20
266.348728
 30
0.0
 40
0.0
 41
0.0
  0
VERTEX
  8
2
  5
470
 10
10.827176
 20
266.116744
 30
0.0
 40
0.0
 41
0.0
  0
VERTEX
  8
2
  5
471
 10
11.333642
 20
265.925065
 30
0.0
 40
0.0
 41
0.0
  0
VERTEX
  8
2
  5
472
 10
11.840109
 20
265.771189
 30
0.0
 40
0.0
 41
0.0
  0
VERTEX
  8
2
  5
473
 10
12.346575
 20
265.653254
 30
0.0
 40
0.0
 41
0.0
  0
VERTEX
  8
2
  5
474
 10
12.853041
 20
265.569914
 30
0.0
 40
0.0
 41
0.0
  0
VERTEX
  8
2
  5
475
 10
13.359507
 20
265.520261
 30
0.0
 40
0.0
 41
0.0
  0
VERTEX
  8
2
  5
476
 10
13.865973
 20
265.503767
 30
0.0
 40
0.0
 41
0.0
  0
VERTEX
  8
2
  5
477
 10
13.865973
 20
265.503767
 30
0.0
 40
0.0
 41
0.0
  0
SEQEND
  8
2
  5
478
  0
POLYLINE
  8
2
  5
479
 66
     1
 10
0.0
 20
0.0
 30
0.0
  0
VERTEX
  8
2
  5
47A
 10
5.467358
 20
275.028767
 30
0.0
 40
0.0
 41
0.0
  0
VERTEX
  8
2
  5
47B
 10
5.973824
 20
271.810123
 30
0.0
 40
0.0
 41
0.0
  0
VERTEX
  8
2
  5
47C
 10
6.48029
 20
270.546414
 30
0.0
 40
0.0
 41
0.0
  0
VERTEX
  8
2
  5
47D
 10
6.986756
 20
269.625487
 30
0.0
 40
0.0
 41
0.0
  0
VERTEX
  8
2
  5
47E
 10
7.493223
 20
268.891053
 30
0.0
 40
0.0
 41
0.0
  0
VERTEX
  8
2
  5
47F
 10
7.999689
 20
268.281933
 30
0.0
 40
0.0
 41
0.0
  0
VERTEX
  8
2
  5
480
 10
8.506155
 20
267.766526
 30
0.0
 40
0.0
 41
0.0
  0
VERTEX
  8
2
  5
481
 10
9.012621
 20
267.325997
 30
0.0
 40
0.0
 41
0.0
  0
VERTEX
  8
2
  5
482
 10
9.519087
 20
266.948091
 30
0.0
 40
0.0
 41
0.0
  0
VERTEX
  8
2
  5
483
 10
10.025553
 20
266.624356
 30
0.0
 40
0.0
 41
0.0
  0
VERTEX
  8
2
  5
484
 10
10.532019
 20
266.348728
 30
0.0
 40
0.0
 41
0.0
  0
VERTEX
  8
2
  5
485
 10
11.038485
 20
266.116744
 30
0.0
 40
0.0
 41
0.0
  0
VERTEX
  8
2
  5
486
 10
11.544952
 20
265.925065
 30
0.0
 40
0.0
 41
0.0
  0
VERTEX
  8
2
  5
487
 10
12.051418
 20
265.771189
 30
0.0
 40
0.0
 41
0.0
  0
VERTEX
  8
2
  5
488
 10
12.557884
 20
265.653254
 30
0.0
 40
0.0
 41
0.0
  0
VERTEX
  8
2
  5
489
 10
13.06435
 20
265.569914
 30
0.0
 40
0.0
 41
0.0
  0
VERTEX
  8
2
  5
48A
 10
13.570816
 20
265.520261
 30
0.0
 40
0.0
 41
0.0
  0
VERTEX
  8
2
  5
48B
 10
14.077282
 20
265.503767
 30
0.0
 40
0.0
 41
0.0
  0
VERTEX
  8
2
  5
48C
 10
14.077282
 20
265.503767
 30
0.0
 40
0.0
 41
0.0
  0
SEQEND
  8
2
  5
48D
  0
LINE
  8
2
  5
48E
 10
5.160037
 20
265.503767
 30
0.0
 11
115.160192
 21
265.503767
 31
0.0
  0
LINE
  8
2
  6
CENTER
 62
     2
  5
48F
 10
2.199869
 20
37.326598
 30
0.0
 11
47.270951
 21
161.158377
 31
0.0
  0
LINE
  8
2
  6
CENTER
 62
     2
  5
490
 10
115.160192
 20
149.187672
 30
0.0
 11
115.160193
 21
-121.656561
 31
0.0
  0
ARC
  8
2
  6
CENTER
 62
     2
  5
491
 10
80.160192
 20
149.187672
 30
0.0
 40
35.0
 50
0.0
 51
160.0
  0
ARC
  8
2
  5
492
 10
80.160192
 20
149.187672
 30
0.0
 40
44.525
 50
0.0
 51
160.0
  0
ARC
  8
2
  5
493
 10
80.160192
 20
149.187672
 30
0.0
 40
25.475
 50
0.0
 51
160.0
  0
POLYLINE
  8
2
  6
PHANTOM
 62
     2
  5
494
 66
     1
 10
0.0
 20
0.0
 30
0.0
  0
VERTEX
  8
2
  6
PHANTOM
 62
     2
  5
495
 10
24.2996
 20
198.787678
 30
0.0
 40
0.0
 41
0.0
  0
VERTEX
  8
2
  6
PHANTOM
 62
     2
  5
496
 10
26.756481
 20
196.647603
 30
0.0
 40
0.0
 41
0.0
  0
VERTEX
  8
2
  6
PHANTOM
 62
     2
  5
497
 10
27.956752
 20
196.005096
 30
0.0
 40
0.0
 41
0.0
  0
VERTEX
  8
2
  6
PHANTOM
 62
     2
  5
498
 10
28.936689
 20
195.625175
 30
0.0
 40
0.0
 41
0.0
  0
VERTEX
  8
2
  6
PHANTOM
 62
     2
  5
499
 10
29.796749
 20
195.388116
 30
0.0
 40
0.0
 41
0.0
  0
VERTEX
  8
2
  6
PHANTOM
 62
     2
  5
49A
 10
30.57626
 20
195.247053
 30
0.0
 40
0.0
 41
0.0
  0
VERTEX
  8
2
  6
PHANTOM
 62
     2
  5
49B
 10
31.295532
 20
195.177779
 30
0.0
 40
0.0
 41
0.0
  0
VERTEX
  8
2
  6
PHANTOM
 62
     2
  5
49C
 10
31.966674
 20
195.165864
 30
0.0
 40
0.0
 41
0.0
  0
VERTEX
  8
2
  6
PHANTOM
 62
     2
  5
49D
 10
32.597563
 20
195.201921
 30
0.0
 40
0.0
 41
0.0
  0
VERTEX
  8
2
  6
PHANTOM
 62
     2
  5
49E
 10
33.193632
 20
195.279476
 30
0.0
 40
0.0
 41
0.0
  0
VERTEX
  8
2
  6
PHANTOM
 62
     2
  5
49F
 10
33.758777
 20
195.393883
 30
0.0
 40
0.0
 41
0.0
  0
VERTEX
  8
2
  6
PHANTOM
 62
     2
  5
4A0
 10
34.295869
 20
195.541723
 30
0.0
 40
0.0
 41
0.0
  0
VERTEX
  8
2
  6
PHANTOM
 62
     2
  5
4A1
 10
34.807053
 20
195.720439
 30
0.0
 40
0.0
 41
0.0
  0
VERTEX
  8
2
  6
PHANTOM
 62
     2
  5
4A2
 10
35.293939
 20
195.928113
 30
0.0
 40
0.0
 41
0.0
  0
VERTEX
  8
2
  6
PHANTOM
 62
     2
  5
4A3
 10
35.757722
 20
196.163319
 30
0.0
 40
0.0
 41
0.0
  0
VERTEX
  8
2
  6
PHANTOM
 62
     2
  5
4A4
 10
36.199267
 20
196.425028
 30
0.0
 40
0.0
 41
0.0
  0
VERTEX
  8
2
  6
PHANTOM
 62
     2
  5
4A5
 10
36.619159
 20
196.712541
 30
0.0
 40
0.0
 41
0.0
  0
VERTEX
  8
2
  6
PHANTOM
 62
     2
  5
4A6
 10
37.017736
 20
197.025457
 30
0.0
 40
0.0
 41
0.0
  0
VERTEX
  8
2
  6
PHANTOM
 62
     2
  5
4A7
 10
37.017736
 20
197.025457
 30
0.0
 40
0.0
 41
0.0
  0
SEQEND
  8
2
  6
PHANTOM
 62
     2
  5
4A8
  0
POLYLINE
  8
2
  6
PHANTOM
 62
     2
  5
4A9
 66
     1
 10
0.0
 20
0.0
 30
0.0
  0
VERTEX
  8
2
  6
PHANTOM
 62
     2
  5
773
 10
30.774487
 20
204.220753
 30
0.0
  0
VERTEX
  8
2
  6
PHANTOM
 62
     2
  5
774
 10
33.231368
 20
202.080679
 30
0.0
  0
VERTEX
  8
2
  6
PHANTOM
 62
     2
  5
775
 10
34.43164
 20
201.438172
 30
0.0
  0
VERTEX
  8
2
  6
PHANTOM
 62
     2
  5
776
 10
35.411576
 20
201.058251
 30
0.0
  0
VERTEX
  8
2
  6
PHANTOM
 62
     2
  5
777
 10
36.271637
 20
200.821192
 30
0.0
  0
VERTEX
  8
2
  6
PHANTOM
 62
     2
  5
778
 10
37.051147
 20
200.680129
 30
0.0
  0
VERTEX
  8
2
  6
PHANTOM
 62
     2
  5
779
 10
37.77042
 20
200.610854
 30
0.0
  0
VERTEX
  8
2
  6
PHANTOM
 62
     2
  5
77A
 10
38.441562
 20
200.59894
 30
0.0
  0
VERTEX
  8
2
  6
PHANTOM
 62
     2
  5
77B
 10
39.072451
 20
200.634997
 30
0.0
  0
VERTEX
  8
2
  6
PHANTOM
 62
     2
  5
77C
 10
39.668519
 20
200.712552
 30
0.0
  0
VERTEX
  8
2
  6
PHANTOM
 62
     2
  5
77D
 10
40.233665
 20
200.826959
 30
0.0
  0
VERTEX
  8
2
  6
PHANTOM
 62
     2
  5
77E
 10
40.770757
 20
200.974799
 30
0.0
  0
VERTEX
  8
2
  6
PHANTOM
 62
     2
  5
77F
 10
41.281941
 20
201.153515
 30
0.0
  0
VERTEX
  8
2
  6
PHANTOM
 62
     2
  5
780
 10
41.768826
 20
201.361189
 30
0.0
  0
VERTEX
  8
2
  6
PHANTOM
 62
     2
  5
781
 10
42.232609
 20
201.596395
 30
0.0
  0
VERTEX
  8
2
  6
PHANTOM
 62
     2
  5
782
 10
42.674155
 20
201.858103
 30
0.0
  0
VERTEX
  8
2
  6
PHANTOM
 62
     2
  5
783
 10
43.094046
 20
202.145617
 30
0.0
  0
VERTEX
  8
2
  6
PHANTOM
 62
     2
  5
784
 10
43.492624
 20
202.458533
 30
0.0
  0
VERTEX
  8
2
  6
PHANTOM
 62
     2
  5
785
 10
43.589083
 20
202.54082
 30
0.0
  0
SEQEND
  8
2
  6
PHANTOM
 62
     2
  5
786
  0
POLYLINE
  8
2
  6
PHANTOM
 62
     2
  5
4BE
 66
     1
 10
0.0
 20
0.0
 30
0.0
  0
VERTEX
  8
2
  6
PHANTOM
 62
     2
  5
4BF
 10
30.968734
 20
204.383746
 30
0.0
 40
0.0
 41
0.0
  0
VERTEX
  8
2
  6
PHANTOM
 62
     2
  5
4C0
 10
33.425615
 20
202.243671
 30
0.0
 40
0.0
 41
0.0
  0
VERTEX
  8
2
  6
PHANTOM
 62
     2
  5
4C1
 10
34.625886
 20
201.601164
 30
0.0
 40
0.0
 41
0.0
  0
VERTEX
  8
2
  6
PHANTOM
 62
     2
  5
4C2
 10
35.605823
 20
201.221243
 30
0.0
 40
0.0
 41
0.0
  0
VERTEX
  8
2
  6
PHANTOM
 62
     2
  5
4C3
 10
36.465883
 20
200.984184
 30
0.0
 40
0.0
 41
0.0
  0
VERTEX
  8
2
  6
PHANTOM
 62
     2
  5
4C4
 10
37.245394
 20
200.843121
 30
0.0
 40
0.0
 41
0.0
  0
VERTEX
  8
2
  6
PHANTOM
 62
     2
  5
4C5
 10
37.964666
 20
200.773847
 30
0.0
 40
0.0
 41
0.0
  0
VERTEX
  8
2
  6
PHANTOM
 62
     2
  5
4C6
 10
38.635808
 20
200.761932
 30
0.0
 40
0.0
 41
0.0
  0
VERTEX
  8
2
  6
PHANTOM
 62
     2
  5
4C7
 10
39.266697
 20
200.797989
 30
0.0
 40
0.0
 41
0.0
  0
VERTEX
  8
2
  6
PHANTOM
 62
     2
  5
4C8
 10
39.862766
 20
200.875544
 30
0.0
 40
0.0
 41
0.0
  0
VERTEX
  8
2
  6
PHANTOM
 62
     2
  5
4C9
 10
40.427911
 20
200.989951
 30
0.0
 40
0.0
 41
0.0
  0
VERTEX
  8
2
  6
PHANTOM
 62
     2
  5
4CA
 10
40.965003
 20
201.137791
 30
0.0
 40
0.0
 41
0.0
  0
VERTEX
  8
2
  6
PHANTOM
 62
     2
  5
4CB
 10
41.476188
 20
201.316507
 30
0.0
 40
0.0
 41
0.0
  0
VERTEX
  8
2
  6
PHANTOM
 62
     2
  5
4CC
 10
41.963073
 20
201.524181
 30
0.0
 40
0.0
 41
0.0
  0
VERTEX
  8
2
  6
PHANTOM
 62
     2
  5
4CD
 10
42.426856
 20
201.759387
 30
0.0
 40
0.0
 41
0.0
  0
VERTEX
  8
2
  6
PHANTOM
 62
     2
  5
4CE
 10
42.868401
 20
202.021096
 30
0.0
 40
0.0
 41
0.0
  0
VERTEX
  8
2
  6
PHANTOM
 62
     2
  5
4CF
 10
43.288293
 20
202.308609
 30
0.0
 40
0.0
 41
0.0
  0
VERTEX
  8
2
  6
PHANTOM
 62
     2
  5
4D0
 10
43.686871
 20
202.621525
 30
0.0
 40
0.0
 41
0.0
  0
VERTEX
  8
2
  6
PHANTOM
 62
     2
  5
4D1
 10
43.686871
 20
202.621525
 30
0.0
 40
0.0
 41
0.0
  0
SEQEND
  8
2
  6
PHANTOM
 62
     2
  5
4D2
  0
POLYLINE
  8
2
  6
PHANTOM
 62
     2
  5
4D3
 66
     1
 10
0.0
 20
0.0
 30
0.0
  0
VERTEX
  8
2
  6
PHANTOM
 62
     2
  5
4D4
 10
31.130606
 20
204.519573
 30
0.0
 40
0.0
 41
0.0
  0
VERTEX
  8
2
  6
PHANTOM
 62
     2
  5
4D5
 10
33.587487
 20
202.379498
 30
0.0
 40
0.0
 41
0.0
  0
VERTEX
  8
2
  6
PHANTOM
 62
     2
  5
4D6
 10
34.787758
 20
201.736991
 30
0.0
 40
0.0
 41
0.0
  0
VERTEX
  8
2
  6
PHANTOM
 62
     2
  5
4D7
 10
35.767695
 20
201.35707
 30
0.0
 40
0.0
 41
0.0
  0
VERTEX
  8
2
  6
PHANTOM
 62
     2
  5
4D8
 10
36.627755
 20
201.120011
 30
0.0
 40
0.0
 41
0.0
  0
VERTEX
  8
2
  6
PHANTOM
 62
     2
  5
4D9
 10
37.407266
 20
200.978948
 30
0.0
 40
0.0
 41
0.0
  0
VERTEX
  8
2
  6
PHANTOM
 62
     2
  5
4DA
 10
38.126539
 20
200.909673
 30
0.0
 40
0.0
 41
0.0
  0
VERTEX
  8
2
  6
PHANTOM
 62
     2
  5
4DB
 10
38.797681
 20
200.897759
 30
0.0
 40
0.0
 41
0.0
  0
VERTEX
  8
2
  6
PHANTOM
 62
     2
  5
4DC
 10
39.42857
 20
200.933816
 30
0.0
 40
0.0
 41
0.0
  0
VERTEX
  8
2
  6
PHANTOM
 62
     2
  5
4DD
 10
40.024638
 20
201.011371
 30
0.0
 40
0.0
 41
0.0
  0
VERTEX
  8
2
  6
PHANTOM
 62
     2
  5
4DE
 10
40.589783
 20
201.125778
 30
0.0
 40
0.0
 41
0.0
  0
VERTEX
  8
2
  6
PHANTOM
 62
     2
  5
4DF
 10
41.126876
 20
201.273618
 30
0.0
 40
0.0
 41
0.0
  0
VERTEX
  8
2
  6
PHANTOM
 62
     2
  5
4E0
 10
41.63806
 20
201.452334
 30
0.0
 40
0.0
 41
0.0
  0
VERTEX
  8
2
  6
PHANTOM
 62
     2
  5
4E1
 10
42.124945
 20
201.660008
 30
0.0
 40
0.0
 41
0.0
  0
VERTEX
  8
2
  6
PHANTOM
 62
     2
  5
4E2
 10
42.588728
 20
201.895214
 30
0.0
 40
0.0
 41
0.0
  0
VERTEX
  8
2
  6
PHANTOM
 62
     2
  5
4E3
 10
43.030273
 20
202.156923
 30
0.0
 40
0.0
 41
0.0
  0
VERTEX
  8
2
  6
PHANTOM
 62
     2
  5
4E4
 10
43.450165
 20
202.444436
 30
0.0
 40
0.0
 41
0.0
  0
VERTEX
  8
2
  6
PHANTOM
 62
     2
  5
4E5
 10
43.848743
 20
202.757352
 30
0.0
 40
0.0
 41
0.0
  0
VERTEX
  8
2
  6
PHANTOM
 62
     2
  5
4E6
 10
43.848743
 20
202.757352
 30
0.0
 40
0.0
 41
0.0
  0
SEQEND
  8
2
  6
PHANTOM
 62
     2
  5
4E7
  0
LINE
  8
2
  6
PHANTOM
 62
     2
  5
4E8
 10
37.017736
 20
197.025457
 30
0.0
 11
43.492624
 21
202.458533
 31
0.0
  0
LINE
  8
2
  6
PHANTOM
 62
     2
  5
4E9
 10
43.686871
 20
202.621525
 30
0.0
 11
106.738326
 21
255.527978
 31
0.0
  0
POLYLINE
  8
2
  6
PHANTOM
 62
     2
  5
4EA
 66
     1
 10
0.0
 20
0.0
 30
0.0
  0
VERTEX
  8
2
  6
PHANTOM
 62
     2
  5
4EB
 10
24.772632
 20
211.618604
 30
0.0
 40
0.0
 41
0.0
  0
VERTEX
  8
2
  6
PHANTOM
 62
     2
  5
4EC
 10
24.772632
 20
211.618604
 30
0.0
 40
0.0
 41
0.0
  0
VERTEX
  8
2
  6
PHANTOM
 62
     2
  5
4ED
 10
24.395259
 20
211.280419
 30
0.0
 40
0.0
 41
0.0
  0
VERTEX
  8
2
  6
PHANTOM
 62
     2
  5
4EE
 10
24.0392
 20
210.916832
 30
0.0
 40
0.0
 41
0.0
  0
VERTEX
  8
2
  6
PHANTOM
 62
     2
  5
4EF
 10
23.704794
 20
210.52744
 30
0.0
 40
0.0
 41
0.0
  0
VERTEX
  8
2
  6
PHANTOM
 62
     2
  5
4F0
 10
23.392626
 20
210.111546
 30
0.0
 40
0.0
 41
0.0
  0
VERTEX
  8
2
  6
PHANTOM
 62
     2
  5
4F1
 10
23.10356
 20
209.66812
 30
0.0
 40
0.0
 41
0.0
  0
VERTEX
  8
2
  6
PHANTOM
 62
     2
  5
4F2
 10
22.838793
 20
209.195735
 30
0.0
 40
0.0
 41
0.0
  0
VERTEX
  8
2
  6
PHANTOM
 62
     2
  5
4F3
 10
22.599934
 20
208.692475
 30
0.0
 40
0.0
 41
0.0
  0
VERTEX
  8
2
  6
PHANTOM
 62
     2
  5
4F4
 10
22.389128
 20
208.155782
 30
0.0
 40
0.0
 41
0.0
  0
VERTEX
  8
2
  6
PHANTOM
 62
     2
  5
4F5
 10
22.209246
 20
207.582236
 30
0.0
 40
0.0
 41
0.0
  0
VERTEX
  8
2
  6
PHANTOM
 62
     2
  5
4F6
 10
22.064183
 20
206.967193
 30
0.0
 40
0.0
 41
0.0
  0
VERTEX
  8
2
  6
PHANTOM
 62
     2
  5
4F7
 10
21.959374
 20
206.304179
 30
0.0
 40
0.0
 41
0.0
  0
VERTEX
  8
2
  6
PHANTOM
 62
     2
  5
4F8
 10
21.902696
 20
205.583804
 30
0.0
 40
0.0
 41
0.0
  0
VERTEX
  8
2
  6
PHANTOM
 62
     2
  5
4F9
 10
21.906255
 20
204.79164
 30
0.0
 40
0.0
 41
0.0
  0
VERTEX
  8
2
  6
PHANTOM
 62
     2
  5
4FA
 10
21.990365
 20
203.903481
 30
0.0
 40
0.0
 41
0.0
  0
VERTEX
  8
2
  6
PHANTOM
 62
     2
  5
4FB
 10
22.19435
 20
202.87246
 30
0.0
 40
0.0
 41
0.0
  0
VERTEX
  8
2
  6
PHANTOM
 62
     2
  5
4FC
 10
22.618671
 20
201.578853
 30
0.0
 40
0.0
 41
0.0
  0
VERTEX
  8
2
  6
PHANTOM
 62
     2
  5
4FD
 10
24.2996
 20
198.787678
 30
0.0
 40
0.0
 41
0.0
  0
SEQEND
  8
2
  6
PHANTOM
 62
     2
  5
4FE
  0
POLYLINE
  8
2
  6
PHANTOM
 62
     2
  5
4FF
 66
     1
 10
0.0
 20
0.0
 30
0.0
  0
VERTEX
  8
2
  6
PHANTOM
 62
     2
  5
787
 10
31.345307
 20
217.132384
 30
0.0
  0
VERTEX
  8
2
  6
PHANTOM
 62
     2
  5
788
 10
31.24752
 20
217.051679
 30
0.0
  0
VERTEX
  8
2
  6
PHANTOM
 62
     2
  5
789
 10
30.870146
 20
216.713494
 30
0.0
  0
VERTEX
  8
2
  6
PHANTOM
 62
     2
  5
78A
 10
30.514087
 20
216.349908
 30
0.0
  0
VERTEX
  8
2
  6
PHANTOM
 62
     2
  5
78B
 10
30.179681
 20
215.960516
 30
0.0
  0
VERTEX
  8
2
  6
PHANTOM
 62
     2
  5
78C
 10
29.867513
 20
215.544622
 30
0.0
  0
VERTEX
  8
2
  6
PHANTOM
 62
     2
  5
78D
 10
29.578447
 20
215.101195
 30
0.0
  0
VERTEX
  8
2
  6
PHANTOM
 62
     2
  5
78E
 10
29.31368
 20
214.628811
 30
0.0
  0
VERTEX
  8
2
  6
PHANTOM
 62
     2
  5
78F
 10
29.074821
 20
214.125551
 30
0.0
  0
VERTEX
  8
2
  6
PHANTOM
 62
     2
  5
790
 10
28.864016
 20
213.588858
 30
0.0
  0
VERTEX
  8
2
  6
PHANTOM
 62
     2
  5
791
 10
28.684133
 20
213.015312
 30
0.0
  0
VERTEX
  8
2
  6
PHANTOM
 62
     2
  5
792
 10
28.539071
 20
212.400269
 30
0.0
  0
VERTEX
  8
2
  6
PHANTOM
 62
     2
  5
793
 10
28.434262
 20
211.737254
 30
0.0
  0
VERTEX
  8
2
  6
PHANTOM
 62
     2
  5
794
 10
28.377584
 20
211.016879
 30
0.0
  0
VERTEX
  8
2
  6
PHANTOM
 62
     2
  5
795
 10
28.381143
 20
210.224716
 30
0.0
  0
VERTEX
  8
2
  6
PHANTOM
 62
     2
  5
796
 10
28.465252
 20
209.336557
 30
0.0
  0
VERTEX
  8
2
  6
PHANTOM
 62
     2
  5
797
 10
28.669238
 20
208.305535
 30
0.0
  0
VERTEX
  8
2
  6
PHANTOM
 62
     2
  5
798
 10
29.093558
 20
207.011928
 30
0.0
  0
VERTEX
  8
2
  6
PHANTOM
 62
     2
  5
799
 10
30.774487
 20
204.220753
 30
0.0
  0
SEQEND
  8
2
  6
PHANTOM
 62
     2
  5
79A
  0
POLYLINE
  8
2
  6
PHANTOM
 62
     2
  5
514
 66
     1
 10
0.0
 20
0.0
 30
0.0
  0
VERTEX
  8
2
  6
PHANTOM
 62
     2
  5
515
 10
31.441767
 20
217.214671
 30
0.0
 40
0.0
 41
0.0
  0
VERTEX
  8
2
  6
PHANTOM
 62
     2
  5
516
 10
31.441767
 20
217.214671
 30
0.0
 40
0.0
 41
0.0
  0
VERTEX
  8
2
  6
PHANTOM
 62
     2
  5
517
 10
31.064393
 20
216.876487
 30
0.0
 40
0.0
 41
0.0
  0
VERTEX
  8
2
  6
PHANTOM
 62
     2
  5
518
 10
30.708334
 20
216.5129
 30
0.0
 40
0.0
 41
0.0
  0
VERTEX
  8
2
  6
PHANTOM
 62
     2
  5
519
 10
30.373928
 20
216.123508
 30
0.0
 40
0.0
 41
0.0
  0
VERTEX
  8
2
  6
PHANTOM
 62
     2
  5
51A
 10
30.06176
 20
215.707614
 30
0.0
 40
0.0
 41
0.0
  0
VERTEX
  8
2
  6
PHANTOM
 62
     2
  5
51B
 10
29.772694
 20
215.264188
 30
0.0
 40
0.0
 41
0.0
  0
VERTEX
  8
2
  6
PHANTOM
 62
     2
  5
51C
 10
29.507927
 20
214.791803
 30
0.0
 40
0.0
 41
0.0
  0
VERTEX
  8
2
  6
PHANTOM
 62
     2
  5
51D
 10
29.269068
 20
214.288543
 30
0.0
 40
0.0
 41
0.0
  0
VERTEX
  8
2
  6
PHANTOM
 62
     2
  5
51E
 10
29.058262
 20
213.75185
 30
0.0
 40
0.0
 41
0.0
  0
VERTEX
  8
2
  6
PHANTOM
 62
     2
  5
51F
 10
28.87838
 20
213.178304
 30
0.0
 40
0.0
 41
0.0
  0
VERTEX
  8
2
  6
PHANTOM
 62
     2
  5
520
 10
28.733317
 20
212.563261
 30
0.0
 40
0.0
 41
0.0
  0
VERTEX
  8
2
  6
PHANTOM
 62
     2
  5
521
 10
28.628508
 20
211.900246
 30
0.0
 40
0.0
 41
0.0
  0
VERTEX
  8
2
  6
PHANTOM
 62
     2
  5
522
 10
28.57183
 20
211.179872
 30
0.0
 40
0.0
 41
0.0
  0
VERTEX
  8
2
  6
PHANTOM
 62
     2
  5
523
 10
28.575389
 20
210.387708
 30
0.0
 40
0.0
 41
0.0
  0
VERTEX
  8
2
  6
PHANTOM
 62
     2
  5
524
 10
28.659499
 20
209.499549
 30
0.0
 40
0.0
 41
0.0
  0
VERTEX
  8
2
  6
PHANTOM
 62
     2
  5
525
 10
28.863484
 20
208.468528
 30
0.0
 40
0.0
 41
0.0
  0
VERTEX
  8
2
  6
PHANTOM
 62
     2
  5
526
 10
29.287805
 20
207.174921
 30
0.0
 40
0.0
 41
0.0
  0
VERTEX
  8
2
  6
PHANTOM
 62
     2
  5
527
 10
30.968734
 20
204.383746
 30
0.0
 40
0.0
 41
0.0
  0
SEQEND
  8
2
  6
PHANTOM
 62
     2
  5
528
  0
POLYLINE
  8
2
  6
PHANTOM
 62
     2
  5
529
 66
     1
 10
0.0
 20
0.0
 30
0.0
  0
VERTEX
  8
2
  6
PHANTOM
 62
     2
  5
52A
 10
31.603639
 20
217.350498
 30
0.0
 40
0.0
 41
0.0
  0
VERTEX
  8
2
  6
PHANTOM
 62
     2
  5
52B
 10
31.603639
 20
217.350498
 30
0.0
 40
0.0
 41
0.0
  0
VERTEX
  8
2
  6
PHANTOM
 62
     2
  5
52C
 10
31.226265
 20
217.012313
 30
0.0
 40
0.0
 41
0.0
  0
VERTEX
  8
2
  6
PHANTOM
 62
     2
  5
52D
 10
30.870206
 20
216.648727
 30
0.0
 40
0.0
 41
0.0
  0
VERTEX
  8
2
  6
PHANTOM
 62
     2
  5
52E
 10
30.5358
 20
216.259335
 30
0.0
 40
0.0
 41
0.0
  0
VERTEX
  8
2
  6
PHANTOM
 62
     2
  5
52F
 10
30.223632
 20
215.843441
 30
0.0
 40
0.0
 41
0.0
  0
VERTEX
  8
2
  6
PHANTOM
 62
     2
  5
530
 10
29.934566
 20
215.400014
 30
0.0
 40
0.0
 41
0.0
  0
VERTEX
  8
2
  6
PHANTOM
 62
     2
  5
531
 10
29.669799
 20
214.92763
 30
0.0
 40
0.0
 41
0.0
  0
VERTEX
  8
2
  6
PHANTOM
 62
     2
  5
532
 10
29.43094
 20
214.42437
 30
0.0
 40
0.0
 41
0.0
  0
VERTEX
  8
2
  6
PHANTOM
 62
     2
  5
533
 10
29.220135
 20
213.887677
 30
0.0
 40
0.0
 41
0.0
  0
VERTEX
  8
2
  6
PHANTOM
 62
     2
  5
534
 10
29.040252
 20
213.314131
 30
0.0
 40
0.0
 41
0.0
  0
VERTEX
  8
2
  6
PHANTOM
 62
     2
  5
535
 10
28.89519
 20
212.699088
 30
0.0
 40
0.0
 41
0.0
  0
VERTEX
  8
2
  6
PHANTOM
 62
     2
  5
536
 10
28.790381
 20
212.036073
 30
0.0
 40
0.0
 41
0.0
  0
VERTEX
  8
2
  6
PHANTOM
 62
     2
  5
537
 10
28.733702
 20
211.315698
 30
0.0
 40
0.0
 41
0.0
  0
VERTEX
  8
2
  6
PHANTOM
 62
     2
  5
538
 10
28.737262
 20
210.523535
 30
0.0
 40
0.0
 41
0.0
  0
VERTEX
  8
2
  6
PHANTOM
 62
     2
  5
539
 10
28.821371
 20
209.635376
 30
0.0
 40
0.0
 41
0.0
  0
VERTEX
  8
2
  6
PHANTOM
 62
     2
  5
53A
 10
29.025356
 20
208.604354
 30
0.0
 40
0.0
 41
0.0
  0
VERTEX
  8
2
  6
PHANTOM
 62
     2
  5
53B
 10
29.449677
 20
207.310748
 30
0.0
 40
0.0
 41
0.0
  0
VERTEX
  8
2
  6
PHANTOM
 62
     2
  5
53C
 10
31.130606
 20
204.519573
 30
0.0
 40
0.0
 41
0.0
  0
SEQEND
  8
2
  6
PHANTOM
 62
     2
  5
53D
  0
LINE
  8
2
  6
PHANTOM
 62
     2
  5
53E
 10
24.772632
 20
211.618604
 30
0.0
 11
31.24752
 21
217.051679
 31
0.0
  0
LINE
  8
2
  6
PHANTOM
 62
     2
  5
53F
 10
31.441767
 20
217.214671
 30
0.0
 11
94.493222
 21
270.121124
 31
0.0
  0
LINE
  8
2
  5
540
 10
-186.264411
 20
0.134793
 30
0.0
 11
-186.564411
 21
0.434793
 31
0.0
  0
LINE
  8
2
  5
541
 10
-220.964411
 20
0.434793
 30
0.0
 11
-186.564411
 21
0.434793
 31
0.0
  0
LINE
  8
2
  5
542
 10
-221.264412
 20
0.134793
 30
0.0
 11
-220.964412
 21
0.434793
 31
0.0
  0
LINE
  8
2
  5
543
 10
97.960192
 20
0.434793
 30
0.0
 11
132.360192
 21
0.434793
 31
0.0
  0
LINE
  8
2
  5
544
 10
132.660192
 20
0.134793
 30
0.0
 11
132.360192
 21
0.434793
 31
0.0
  0
LINE
  8
2
  5
545
 10
97.960192
 20
0.434793
 30
0.0
 11
97.660192
 21
0.134793
 31
0.0
  0
LINE
  8
2
  5
546
 10
-186.264411
 20
0.134793
 30
0.0
 11
-221.264411
 21
0.134793
 31
0.0
  0
LINE
  8
2
  5
547
 10
132.660192
 20
0.134793
 30
0.0
 11
97.660192
 21
0.134793
 31
0.0
  0
LINE
  8
2
  5
548
 10
97.960192
 20
10.434793
 30
0.0
 11
132.360192
 21
10.434793
 31
0.0
  0
LINE
  8
2
  5
549
 10
97.660192
 20
10.134793
 30
0.0
 11
97.660192
 21
0.734793
 31
0.0
  0
LINE
  8
2
  5
54A
 10
132.660192
 20
10.134793
 30
0.0
 11
132.660192
 21
0.734793
 31
0.0
  0
LINE
  8
2
  5
54B
 10
132.660192
 20
0.734793
 30
0.0
 11
132.360192
 21
0.434793
 31
0.0
  0
LINE
  8
2
  5
54C
 10
132.360192
 20
10.434793
 30
0.0
 11
132.660192
 21
10.134793
 31
0.0
  0
LINE
  8
2
  5
54D
 10
97.960192
 20
10.434793
 30
0.0
 11
97.660192
 21
10.134793
 31
0.0
  0
LINE
  8
2
  5
54E
 10
97.660192
 20
0.734793
 30
0.0
 11
97.960192
 21
0.434793
 31
0.0
  0
LINE
  8
2
  5
54F
 10
132.660192
 20
10.134793
 30
0.0
 11
97.660192
 21
10.134793
 31
0.0
  0
LINE
  8
2
  5
550
 10
132.660192
 20
0.734793
 30
0.0
 11
97.660192
 21
0.734793
 31
0.0
  0
LINE
  8
2
  5
551
 10
-220.964411
 20
10.434793
 30
0.0
 11
-186.564411
 21
10.434793
 31
0.0
  0
LINE
  8
2
  5
552
 10
-186.264411
 20
10.134793
 30
0.0
 11
-186.264411
 21
0.734793
 31
0.0
  0
LINE
  8
2
  5
553
 10
-221.264411
 20
10.134793
 30
0.0
 11
-221.264411
 21
0.734793
 31
0.0
  0
LINE
  8
2
  5
554
 10
-186.264411
 20
10.134793
 30
0.0
 11
-186.564411
 21
10.434793
 31
0.0
  0
LINE
  8
2
  5
555
 10
-221.264411
 20
10.134793
 30
0.0
 11
-220.964411
 21
10.434793
 31
0.0
  0
LINE
  8
2
  5
556
 10
-186.264411
 20
0.734793
 30
0.0
 11
-186.564411
 21
0.434793
 31
0.0
  0
LINE
  8
2
  5
557
 10
-220.964411
 20
0.434793
 30
0.0
 11
-221.264411
 21
0.734793
 31
0.0
  0
LINE
  8
2
  5
558
 10
-186.264411
 20
10.134793
 30
0.0
 11
-221.264411
 21
10.134793
 31
0.0
  0
LINE
  8
2
  5
559
 10
-186.264411
 20
0.734793
 30
0.0
 11
-221.264411
 21
0.734793
 31
0.0
  0
LINE
  8
2
  5
55A
 10
118.160639
 20
-212.877021
 30
0.0
 11
131.159746
 21
-212.877021
 31
0.0
  0
LINE
  8
2
  5
55B
 10
118.160193
 20
-147.877021
 30
0.0
 11
131.160193
 21
-147.877021
 31
0.0
  0
LINE
  8
2
  5
55C
 10
117.154639
 20
-211.871021
 30
0.0
 11
117.154639
 21
-185.801056
 31
0.0
  0
LINE
  8
2
  5
55D
 10
132.165746
 20
-211.871021
 30
0.0
 11
132.165746
 21
-148.882575
 31
0.0
  0
LINE
  8
2
  5
55E
 10
131.160193
 20
-147.877021
 30
0.0
 11
132.165746
 21
-148.882575
 31
0.0
  0
LINE
  8
2
  5
55F
 10
118.160193
 20
-147.877021
 30
0.0
 11
117.910273
 21
-148.126941
 31
0.0
  0
LINE
  8
2
  5
560
 10
132.165746
 20
-211.871021
 30
0.0
 11
131.159746
 21
-212.877021
 31
0.0
  0
LINE
  8
2
  5
561
 10
117.154639
 20
-211.871021
 30
0.0
 11
118.160639
 21
-212.877021
 31
0.0
  0
LINE
  8
2
  5
562
 10
128.412969
 20
-211.871021
 30
0.0
 11
128.412969
 21
-148.882575
 31
0.0
  0
ARC
  8
2
  5
563
 10
130.253912
 20
-150.064975
 30
0.0
 40
2.187954
 50
45.0
 51
147.288191
  0
ARC
  8
2
  5
564
 10
124.660193
 20
-155.382575
 30
0.0
 40
7.505554
 50
60.0
 51
120.0
  0
ARC
  8
2
  5
565
 10
124.660193
 20
-205.374353
 30
0.0
 40
7.502669
 50
239.98728
 51
300.01272
  0
ARC
  8
2
  5
566
 10
130.253782
 20
-210.689831
 30
0.0
 40
2.187191
 50
212.68699
 51
315.0
  0
LINE
  8
2
  5
567
 10
118.660193
 20
-142.877021
 30
0.0
 11
130.660193
 21
-142.877021
 31
0.0
  0
LINE
  8
2
  5
568
 10
118.160193
 20
-147.877021
 30
0.0
 11
118.160193
 21
-143.377021
 31
0.0
  0
LINE
  8
2
  5
569
 10
131.160193
 20
-147.877021
 30
0.0
 11
131.160193
 21
-143.377021
 31
0.0
  0
LINE
  8
2
  5
56A
 10
118.660193
 20
-142.877021
 30
0.0
 11
118.160193
 21
-143.377021
 31
0.0
  0
LINE
  8
2
  5
56B
 10
130.660193
 20
-142.877021
 30
0.0
 11
131.160193
 21
-143.377021
 31
0.0
  0
LINE
  8
2
 62
     2
  5
56C
 10
131.160193
 20
-143.377021
 30
0.0
 11
118.160193
 21
-143.377021
 31
0.0
  0
LINE
  8
2
 62
     2
  5
56D
 10
-167.264411
 20
-26.909762
 30
0.0
 11
-166.264411
 21
-25.909762
 31
0.0
  0
LINE
  8
2
 62
     2
  5
56E
 10
-166.733401
 20
-27.792966
 30
0.0
 11
-165.381208
 21
-26.440772
 31
0.0
  0
LINE
  8
2
 62
     2
  5
56F
 10
-167.264411
 20
-33.315207
 30
0.0
 11
-166.264411
 21
-32.315207
 31
0.0
  0
LINE
  8
2
 62
     2
  5
570
 10
-167.043186
 20
-33.94251
 30
0.0
 11
-165.637108
 21
-32.536432
 31
0.0
  0
LINE
  8
2
 62
     2
  5
571
 10
-166.531129
 20
-34.278981
 30
0.0
 11
-165.300636
 21
-33.048488
 31
0.0
  0
LINE
  8
2
  6
PHANTOM
 62
     2
  5
572
 10
-156.041246
 20
-64.087986
 30
0.0
 11
-155.666639
 21
-63.160802
 31
0.0
  0
ARC
  8
2
  5
573
 10
119.066473
 20
-150.064975
 30
0.0
 40
2.187954
 50
32.711809
 51
121.015696
  0
LINE
  8
2
  5
574
 10
120.907416
 20
-211.871021
 30
0.0
 11
120.907416
 21
-148.882575
 31
0.0
  0
ARC
  8
2
  5
575
 10
119.066603
 20
-210.689831
 30
0.0
 40
2.187191
 50
225.0
 51
327.31301
  0
LINE
  8
2
  5
576
 10
-210.263964
 20
-212.877021
 30
0.0
 11
-197.264857
 21
-212.877021
 31
0.0
  0
LINE
  8
2
  5
577
 10
-205.51433
 20
-147.877021
 30
0.0
 11
-202.014492
 21
-147.877021
 31
0.0
  0
LINE
  8
2
  5
578
 10
-211.269964
 20
-211.871021
 30
0.0
 11
-211.269964
 21
-185.636383
 31
0.0
  0
LINE
  8
2
  5
579
 10
-196.258857
 20
-211.871021
 30
0.0
 11
-196.258857
 21
-185.208633
 31
0.0
  0
LINE
  8
2
  5
57A
 10
-196.258857
 20
-211.871021
 30
0.0
 11
-197.264857
 21
-212.877021
 31
0.0
  0
LINE
  8
2
  5
57B
 10
-211.269964
 20
-211.871021
 30
0.0
 11
-210.263964
 21
-212.877021
 31
0.0
  0
LINE
  8
2
  5
57C
 10
-200.011634
 20
-211.871021
 30
0.0
 11
-200.011634
 21
-186.212189
 31
0.0
  0
ARC
  8
2
  5
57D
 10
-203.764411
 20
-155.382575
 30
0.0
 40
7.505554
 50
76.517412
 51
103.482588
  0
ARC
  8
2
  5
57E
 10
-203.764411
 20
-205.374353
 30
0.0
 40
7.502669
 50
239.98728
 51
300.01272
  0
ARC
  8
2
  5
57F
 10
-198.170821
 20
-210.689831
 30
0.0
 40
2.187191
 50
212.68699
 51
315.0
  0
LINE
  8
2
  6
CENTER
 62
     2
  5
580
 10
-203.764411
 20
-213.252531
 30
0.0
 11
-203.764411
 21
-140.456736
 31
0.0
  0
LINE
  8
2
 62
     2
  5
581
 10
-202.014492
 20
-143.377021
 30
0.0
 11
-205.51433
 21
-143.377021
 31
0.0
  0
LINE
  8
2
  5
582
 10
-207.517188
 20
-211.871021
 30
0.0
 11
-207.517188
 21
-186.1633
 31
0.0
  0
ARC
  8
2
  5
583
 10
-209.358
 20
-210.689831
 30
0.0
 40
2.187191
 50
225.0
 51
327.31301
  0
LINE
  8
2
  5
584
 10
97.660192
 20
-107.565206
 30
0.0
 11
97.660192
 21
-30.222061
 31
0.0
  0
LINE
  8
2
  5
585
 10
97.660192
 20
-18.908351
 30
0.0
 11
97.660192
 21
0.134793
 31
0.0
  0
ARC
  8
2
  5
586
 10
-163.022896
 20
-83.565898
 30
0.0
 40
56.0
 50
88.814623
 51
89.735531
  0
ARC
  8
2
  5
587
 10
-163.022896
 20
-0.563786
 30
0.0
 40
56.0
 50
270.264469
 51
277.512994
  0
LINE
  8
2
  5
588
 10
-136.36441
 20
-58.565207
 30
0.0
 11
-136.36441
 21
-25.565207
 31
0.0
  0
LINE
  8
2
  5
589
 10
-161.86441
 20
-40.827663
 30
0.0
 11
-154.293952
 21
-59.565207
 31
0.0
  0
LINE
  8
2
  5
58A
 10
-161.86441
 20
-24.565207
 30
0.0
 11
-148.56441
 21
-24.565207
 31
0.0
  0
ARC
  8
2
  5
58B
 10
-137.36441
 20
-58.565207
 30
0.0
 40
1.0
 50
270.0
 51
360.0
  0
ARC
  8
2
  5
58C
 10
-137.36441
 20
-25.565207
 30
0.0
 40
1.0
 50
0.0
 51
90.0
  0
LINE
  8
2
  5
58D
 10
-137.36441
 20
-24.565207
 30
0.0
 11
-140.16441
 21
-24.565207
 31
0.0
  0
LINE
  8
2
  5
58E
 10
-161.86441
 20
-40.827663
 30
0.0
 11
-161.86441
 21
-24.565207
 31
0.0
  0
LINE
  8
2
  5
58F
 10
-154.293952
 20
-59.565207
 30
0.0
 11
-147.364407
 21
-59.565207
 31
0.0
  0
LINE
  8
2
  5
590
 10
-141.364407
 20
-59.565207
 30
0.0
 11
-137.36441
 21
-59.565207
 31
0.0
  0
LINE
  8
2
  5
591
 10
39.160191
 20
219.628767
 30
0.0
 11
97.660192
 21
219.628768
 31
0.0
  0
LINE
  8
2
  5
592
 10
39.160191
 20
219.628767
 30
0.0
 11
38.660192
 21
219.128766
 31
0.0
  0
LINE
  8
2
  5
593
 10
38.660191
 20
212.128768
 30
0.0
 11
39.160191
 21
211.628766
 31
0.0
  0
LINE
  8
2
  5
594
 10
38.660192
 20
219.128766
 30
0.0
 11
38.660191
 21
212.128768
 31
0.0
  0
LINE
  8
2
  5
595
 10
132.660191
 20
224.8838
 30
0.0
 11
132.660208
 21
208.628767
 31
0.0
  0
LINE
  8
2
  5
596
 10
133.660192
 20
219.628767
 30
0.0
 11
132.660192
 21
219.628767
 31
0.0
  0
LINE
  8
2
  5
597
 10
132.660192
 20
218.628767
 30
0.0
 11
132.660192
 21
219.628767
 31
0.0
  0
ARC
  8
2
  5
598
 10
126.731989
 20
215.628767
 30
0.0
 40
8.0
 50
330.000002
 51
30.000002
  0
LINE
  8
2
  5
599
 10
133.660192
 20
211.628767
 30
0.0
 11
132.660192
 21
211.628767
 31
0.0
  0
LINE
  8
2
  6
CENTER
 62
     2
  5
59A
 10
36.174262
 20
215.62877
 30
0.0
 11
135.818359
 21
215.628767
 31
0.0
  0
LINE
  8
2
  5
59B
 10
39.160191
 20
211.628766
 30
0.0
 11
39.160191
 21
219.628767
 31
0.0
  0
LINE
  8
2
  5
59C
 10
133.660192
 20
211.628767
 30
0.0
 11
133.660192
 21
219.628767
 31
0.0
  0
LINE
  8
2
  5
59D
 10
133.659828
 20
219.628763
 30
0.0
 11
132.659828
 21
219.628763
 31
0.0
  0
LINE
  8
2
  5
59E
 10
133.659828
 20
211.628763
 30
0.0
 11
132.659828
 21
211.628763
 31
0.0
  0
ARC
  8
2
  5
59F
 10
156.660884
 20
234.287252
 30
0.0
 40
56.0
 50
180.264469
 51
181.185377
  0
ARC
  8
2
  5
5A0
 10
73.658772
 20
234.287252
 30
0.0
 40
56.0
 50
352.487007
 51
359.735531
  0
ARC
  8
2
  5
5A1
 10
131.660192
 20
208.628766
 30
0.0
 40
1.0
 50
270.0
 51
0.0
  0
ARC
  8
2
  5
5A2
 10
98.660192
 20
208.628766
 30
0.0
 40
1.0
 50
180.0
 51
270.0
  0
LINE
  8
2
  5
5A3
 10
113.922654
 20
233.128766
 30
0.0
 11
97.660192
 21
233.128766
 31
0.0
  0
LINE
  8
2
  5
5A4
 10
132.660192
 20
225.558307
 30
0.0
 11
132.660192
 21
218.628763
 31
0.0
  0
LINE
  8
2
  5
5A5
 10
132.660192
 20
212.628763
 30
0.0
 11
132.660192
 21
208.628766
 31
0.0
  0
POINT
  8
2
  5
5A6
 10
115.160192
 20
207.628766
 30
0.0
  0
LINE
  8
2
  5
5A7
 10
97.660192
 20
208.628766
 30
0.0
 11
97.660192
 21
211.228766
 31
0.0
  0
LINE
  8
2
  5
5A8
 10
97.660192
 20
219.628766
 30
0.0
 11
97.660192
 21
233.128766
 31
0.0
  0
POINT
  8
2
  5
5A9
 10
-113.223518
 20
20.533872
 30
0.0
  0
TEXT
  8
3
  5
5AA
 10
143.996262
 20
-183.594681
 30
0.0
 40
6.0
  1
１３六角
 72
     5
 11
166.796262
 21
-183.594681
 31
0.0
  0
TEXT
  8
3
  5
5AB
 10
-122.980895
 20
-240.258067
 30
0.0
 40
7.0
  1
２４六角
 72
     5
 11
-96.380895
 21
-240.258067
 31
0.0
  0
POLYLINE
  8
3
 62
     2
  5
5AC
 66
     1
 10
0.0
 20
0.0
 30
0.0
  0
VERTEX
  8
3
 62
     2
  5
79B
 10
-140.75668
 20
-194.264727
 30
0.0
  0
VERTEX
  8
3
 62
     2
  5
79C
 10
-128.491198
 20
-184.164775
 30
0.0
  0
VERTEX
  8
3
 62
     2
  5
79D
 10
-125.992892
 20
-184.164775
 30
0.0
  0
SEQEND
  8
3
 62
     2
  5
79E
  0
LINE
  8
3
 62
     2
  5
5B1
 10
-137.774048
 20
-191.808693
 30
0.0
 11
-138.43214
 21
-191.009499
 31
0.0
  0
LINE
  8
3
 62
     2
  5
5B2
 10
-138.43214
 20
-191.009499
 30
0.0
 11
-140.75668
 21
-194.264727
 31
0.0
  0
LINE
  8
3
 62
     2
  5
5B3
 10
-140.75668
 20
-194.264727
 30
0.0
 11
-137.115955
 21
-192.607887
 31
0.0
  0
LINE
  8
3
 62
     2
  5
5B4
 10
-137.115955
 20
-192.607887
 30
0.0
 11
-137.774048
 21
-191.808693
 31
0.0
  0
TEXT
  8
3
  5
5B5
 10
-121.007098
 20
-185.906603
 30
0.0
 40
7.0
  1
青色
 72
     5
 11
-108.407098
 21
-185.906603
 31
0.0
  0
TEXT
  8
3
  5
5B6
 10
-223.679117
 20
-221.82992
 30
0.0
 40
7.0
  1
赤色
 72
     5
 11
-211.079117
 21
-221.82992
 31
0.0
  0
TEXT
  8
3
  5
5B7
 10
-225.202036
 20
-239.840815
 30
0.0
 40
7.0
  1
　　　表示）
 72
     5
 11
-184.602036
 21
-239.840815
 31
0.0
  0
TEXT
  8
3
  5
5B8
 10
-225.202036
 20
-231.840815
 30
0.0
 40
7.0
  1
（給湯接続の
 72
     5
 11
-184.602036
 21
-231.840815
 31
0.0
  0
TEXT
  8
3
  5
5B9
 10
-127.511572
 20
-253.116786
 30
0.0
 40
7.0
  1
Ｇ１/２
 72
     5
 11
-104.411572
 21
-253.116786
 31
0.0
  0
POLYLINE
  8
3
 62
     2
  5
5BA
 66
     1
 10
0.0
 20
0.0
 30
0.0
  0
VERTEX
  8
3
 62
     2
  5
79F
 10
-136.94657
 20
-240.545521
 30
0.0
  0
VERTEX
  8
3
 62
     2
  5
7A0
 10
-128.211394
 20
-254.064356
 30
0.0
  0
VERTEX
  8
3
 62
     2
  5
7A1
 10
-104.141867
 20
-254.064356
 30
0.0
  0
SEQEND
  8
3
 62
     2
  5
7A2
  0
LINE
  8
3
 62
     2
  5
5BF
 10
-134.849691
 20
-243.790718
 30
0.0
 11
-133.980143
 21
-243.228861
 31
0.0
  0
LINE
  8
3
 62
     2
  5
5C0
 10
-133.980143
 20
-243.228861
 30
0.0
 11
-136.94657
 21
-240.545521
 31
0.0
  0
LINE
  8
3
 62
     2
  5
5C1
 10
-136.94657
 20
-240.545521
 30
0.0
 11
-135.719238
 21
-244.352575
 31
0.0
  0
LINE
  8
3
 62
     2
  5
5C2
 10
-135.719238
 20
-244.352575
 30
0.0
 11
-134.849691
 21
-243.790718
 31
0.0
  0
POLYLINE
  8
3
 62
     2
  5
5C3
 66
     1
 10
0.0
 20
0.0
 30
0.0
  0
VERTEX
  8
3
 62
     2
  5
7A3
 10
-132.40821
 20
-233.269175
 30
0.0
  0
VERTEX
  8
3
 62
     2
  5
7A4
 10
-124.466812
 20
-240.905207
 30
0.0
  0
VERTEX
  8
3
 62
     2
  5
7A5
 10
-94.33432
 20
-240.905207
 30
0.0
  0
SEQEND
  8
3
 62
     2
  5
7A6
  0
LINE
  8
3
 62
     2
  5
5C8
 10
-129.623138
 20
-235.947155
 30
0.0
 11
-128.905575
 21
-235.200897
 31
0.0
  0
LINE
  8
3
 62
     2
  5
5C9
 10
-128.905575
 20
-235.200897
 30
0.0
 11
-132.40821
 21
-233.269175
 31
0.0
  0
LINE
  8
3
 62
     2
  5
5CA
 10
-132.40821
 20
-233.269175
 30
0.0
 11
-130.3407
 21
-236.693413
 31
0.0
  0
LINE
  8
3
 62
     2
  5
5CB
 10
-130.3407
 20
-236.693413
 30
0.0
 11
-129.623138
 21
-235.947155
 31
0.0
  0
TEXT
  8
3
  5
5CC
 10
-127.119204
 20
-201.398202
 30
0.0
 40
7.0
  1
　　　表示）
 72
     5
 11
-86.519204
 21
-201.398202
 31
0.0
  0
TEXT
  8
3
  5
5CD
 10
-127.119204
 20
-193.398202
 30
0.0
 40
7.0
  1
（給水接続の
 72
     5
 11
-86.519204
 21
-193.398202
 31
0.0
  0
DIMENSION
  8
3
 62
     2
  5
5CE
  2
*D0
 10
53.688683
 20
-42.065207
 30
0.0
 11
53.474067
 21
34.470161
 31
0.0
 70
     2
 13
115.160192
 23
54.672148
 33
0.0
 14
115.160192
 24
-42.065207
 34
0.0
 15
115.160192
 25
-42.065207
 35
0.0
 16
46.756552
 26
26.338433
 36
0.0
  3
Standard
1001
ACAD
1000
DSTYLE
1002
{
1070
   275
1070
     0
1070
   179
1070
     0
1002
}
  0
TEXT
  8
3
  5
5CF
 10
130.817154
 20
31.908981
 30
0.0
 40
7.0
  1
湯側
 72
     5
 11
143.417154
 21
31.908981
 31
0.0
  0
TEXT
  8
3
  5
5D0
 10
27.79637
 20
-57.772694
 30
0.0
 40
7.0
  1
水側
 72
     5
 11
40.39637
 21
-57.772694
 31
0.0
  0
DIMENSION
  8
3
 62
     2
  5
5D1
  2
*D1
 10
248.467957
 20
-42.065206
 30
0.0
 11
240.467957
 21
-77.065206
 31
0.0
 13
138.560192
 23
-112.065206
 33
0.0
 14
137.163086
 24
-42.065206
 34
0.0
 50
90.0
  3
Standard
  0
DIMENSION
  8
3
 62
     2
  5
5D2
  2
*D2
 10
-140.164411
 20
22.289969
 30
0.0
 11
-112.164219
 21
42.872473
 31
0.0
 70
     2
 13
-120.644088
 23
2.167315
 33
0.0
 14
-140.164411
 24
-46.14718
 34
0.0
 15
-140.164411
 25
-46.14718
 35
0.0
 16
-122.662113
 26
43.89434
 36
0.0
  3
Standard
1001
ACAD
1000
DSTYLE
1002
{
1070
   275
1070
     0
1070
   179
1070
     0
1002
}
  0
TEXT
  8
3
  5
5D3
 10
-105.25415
 20
11.852744
 30
0.0
 40
7.0
  1
吐水
 72
     5
 11
-92.65415
 21
11.852744
 31
0.0
  0
TEXT
  8
3
  5
5D4
 10
-165.230179
 20
36.259087
 30
0.0
 40
7.0
  1
止水
 72
     5
 11
-152.630179
 21
36.259087
 31
0.0
  0
DIMENSION
  8
3
 62
     2
  5
5D5
  2
*D3
 10
-227.664411
 20
-98.679977
 30
0.0
 11
-154.364411
 21
-94.179977
 31
0.0
 70
     1
 13
-179.864411
 23
-111.565206
 33
0.0
 14
-227.664411
 24
-111.565206
 34
0.0
  3
Standard
  0
TEXT
  8
3
  5
5D6
 10
-172.355759
 20
-108.374985
 30
0.0
 40
7.0
  1
（取付穴φ３６±１）
 72
     5
 11
-103.755759
 21
-108.374985
 31
0.0
  0
TEXT
  8
3
  5
5D7
 10
29.941688
 20
-139.471114
 30
0.0
 40
7.0
  1
５～３０
 50
90.0
 72
     5
 11
29.941688
 21
-112.871114
 31
0.0
  0
DIMENSION
  8
3
 62
     2
  5
5D8
  2
*D4
 10
30.941689
 20
-112.065206
 30
0.0
 11
28.441689
 21
-125.471114
 31
0.0
 13
97.960192
 23
-138.877021
 33
0.0
 14
91.760192
 24
-112.065206
 34
0.0
 50
90.0
  3
Standard
  0
TEXT
  8
3
  5
5D9
 10
290.832582
 20
-240.013492
 30
0.0
 40
6.0
  1
１　２
 72
     5
 11
307.632582
 21
-240.013492
 31
0.0
  0
DIMENSION
  8
3
 62
     2
  5
5DA
  2
*D5
 10
269.567413
 20
193.712672
 30
0.0
 11
251.067413
 21
30.323733
 31
0.0
 13
138.560192
 23
-112.065206
 33
0.0
 14
80.160192
 24
193.712672
 34
0.0
 50
90.0
  3
Standard
  0
TEXT
  8
3
  5
5DB
 10
-75.30349
 20
-187.305364
 30
0.0
 40
7.0
  1
３５９
 50
90.0
 72
     5
 11
-75.30349
 21
-167.705364
 31
0.0
  0
DIMENSION
  8
3
 62
     2
  5
5DC
  2
*D6
 10
-74.30349
 20
-112.065206
 30
0.0
 11
-76.80349
 21
-176.805364
 31
0.0
 13
-146.264411
 23
-231.045521
 33
0.0
 14
-180.364411
 24
-112.065206
 34
0.0
 50
90.0
  3
Standard
  0
POLYLINE
  8
3
 62
     2
  5
5DD
 66
     1
 10
0.0
 20
0.0
 30
0.0
  0
VERTEX
  8
3
 62
     2
  5
7A7
 10
-255.633972
 20
-195.064651
 30
0.0
  0
VERTEX
  8
3
 62
     2
  5
7A8
 10
-232.751953
 20
-203.970764
 30
0.0
  0
VERTEX
  8
3
 62
     2
  5
7A9
 10
-224.891693
 20
-213.226151
 30
0.0
  0
SEQEND
  8
3
 62
     2
  5
7AA
  0
LINE
  8
3
 62
     2
  5
5E2
 10
-252.033384
 20
-196.466068
 30
0.0
 11
-251.657876
 21
-195.501294
 31
0.0
  0
LINE
  8
3
 62
     2
  5
5E3
 10
-251.657876
 20
-195.501294
 30
0.0
 11
-255.633972
 21
-195.064651
 31
0.0
  0
LINE
  8
3
 62
     2
  5
5E4
 10
-255.633972
 20
-195.064651
 30
0.0
 11
-252.408893
 21
-197.430843
 31
0.0
  0
LINE
  8
3
 62
     2
  5
5E5
 10
-252.408893
 20
-197.430843
 30
0.0
 11
-252.033384
 21
-196.466068
 31
0.0
  0
DIMENSION
  8
3
 62
     2
  5
5E6
  2
*D7
 10
80.160192
 20
149.187672
 30
0.0
 11
81.958203
 21
146.51566
 31
0.0
 70
     4
 15
76.455058
 25
183.991005
 35
0.0
  3
Standard
  0
POINT
  8
3
  5
5E7
 10
5.160192
 20
45.46002
 30
0.0
  0
DIMENSION
  8
3
 62
     2
  5
5E8
  2
*D8
 10
115.160192
 20
110.166641
 30
0.0
 11
60.160192
 21
114.666641
 31
0.0
 13
5.160192
 23
45.46002
 33
0.0
 14
115.160192
 24
110.166641
 34
0.0
  3
Standard
  0
DIMENSION
  8
3
 62
     2
  5
5E9
  2
*D9
 10
-41.144901
 20
45.46002
 30
0.0
 11
-52.644901
 21
-36.802593
 31
0.0
 13
91.760192
 23
-112.065206
 33
0.0
 14
5.160192
 24
45.46002
 34
0.0
 50
90.0
  3
Standard
  0
LINE
  8
3
  6
CENTER
 62
     2
  5
5EA
 10
19.703333
 20
194.930952
 30
0.0
 11
115.160192
 21
275.028767
 31
0.0
  0
DIMENSION
  8
3
 62
     2
  5
5EB
  2
*D10
 10
55.9439
 20
225.340398
 30
0.0
 11
-42.799405
 21
206.362309
 31
0.0
 70
     2
 13
17.745723
 23
275.028767
 33
0.0
 14
115.160192
 24
275.028767
 34
0.0
 15
115.160192
 25
275.028767
 35
0.0
 16
-46.390616
 26
216.229082
 36
0.0
  3
Standard
1001
ACAD
1000
DSTYLE
1002
{
1070
   275
1070
     0
1070
   179
1070
     0
1002
}
  0
TEXT
  8
3
  5
5EC
 10
-69.230362
 20
239.13829
 30
0.0
 40
7.0
  1
（左右合計８０°）
 50
295.0
 72
     5
 11
-43.197077
 21
183.309731
 31
0.0
  0
CIRCLE
  8
3
  5
5ED
 10
-166.264411
 20
-26.909762
 30
0.0
 40
1.0
  0
CIRCLE
  8
3
  5
5EE
 10
-166.264411
 20
-33.315207
 30
0.0
 40
1.0
  0
DIMENSION
  8
3
 62
     2
  5
5EF
  2
*D11
 10
5.160192
 20
45.453593
 30
0.0
 11
5.62618
 21
-16.710525
 31
0.0
 70
     2
 13
5.157994
 23
45.45398
 33
0.0
 14
5.160192
 24
45.46002
 34
0.0
 15
5.160192
 25
45.46002
 35
0.0
 16
-6.000889
 26
-17.837617
 36
0.0
  3
Standard
1001
ACAD
1000
DSTYLE
1002
{
1070
   275
1070
     0
1070
   179
1070
     0
1002
}
  0
TEXT
  8
3
  5
5F0
 10
-264.537506
 20
-37.940807
 30
0.0
 40
7.0
  1
青色
 72
     5
 11
-251.937506
 21
-37.940807
 31
0.0
  0
TEXT
  8
3
  5
5F1
 10
-265.232534
 20
-46.724646
 30
0.0
 40
7.0
  1
（水表示）
 72
     5
 11
-231.632534
 21
-46.724646
 31
0.0
  0
TEXT
  8
3
  5
5F2
 10
-263.937485
 20
-22.175264
 30
0.0
 40
7.0
  1
（湯表示）
 72
     5
 11
-230.337485
 21
-22.175264
 31
0.0
  0
TEXT
  8
3
  5
5F3
 10
-264.559326
 20
-13.261343
 30
0.0
 40
7.0
  1
赤色
 72
     5
 11
-251.959326
 21
-13.261343
 31
0.0
  0
POLYLINE
  8
3
 62
     2
  5
5F4
 66
     1
 10
0.0
 20
0.0
 30
0.0
  0
VERTEX
  8
3
 62
     2
  5
7AB
 10
-167.104115
 20
-26.366717
 30
0.0
  0
VERTEX
  8
3
 62
     2
  5
7AC
 10
-176.954727
 20
-13.206251
 30
0.0
  0
VERTEX
  8
3
 62
     2
  5
7AD
 10
-229.716873
 20
-13.206251
 30
0.0
  0
SEQEND
  8
3
 62
     2
  5
7AE
  0
LINE
  8
3
 62
     2
  5
5F9
 10
-169.419367
 20
-23.27353
 30
0.0
 11
-170.248184
 21
-23.893899
 31
0.0
  0
LINE
  8
3
 62
     2
  5
5FA
 10
-170.248184
 20
-23.893899
 30
0.0
 11
-167.104115
 21
-26.366717
 31
0.0
  0
LINE
  8
3
 62
     2
  5
5FB
 10
-167.104115
 20
-26.366717
 30
0.0
 11
-168.59055
 21
-22.65316
 31
0.0
  0
LINE
  8
3
 62
     2
  5
5FC
 10
-168.59055
 20
-22.65316
 30
0.0
 11
-169.419367
 21
-23.27353
 31
0.0
  0
POLYLINE
  8
3
 62
     2
  5
5FD
 66
     1
 10
0.0
 20
0.0
 30
0.0
  0
VERTEX
  8
3
 62
     2
  5
7AF
 10
-166.688911
 20
-34.220635
 30
0.0
  0
VERTEX
  8
3
 62
     2
  5
7B0
 10
-171.867874
 20
-38.081905
 30
0.0
  0
VERTEX
  8
3
 62
     2
  5
7B1
 10
-229.78775
 20
-38.081905
 30
0.0
  0
SEQEND
  8
3
 62
     2
  5
7B2
  0
LINE
  8
3
 62
     2
  5
602
 10
-169.78645
 20
-36.530062
 30
0.0
 11
-169.167641
 21
-37.360045
 31
0.0
  0
LINE
  8
3
 62
     2
  5
603
 10
-169.167641
 20
-37.360045
 30
0.0
 11
-166.688911
 21
-34.220635
 31
0.0
  0
LINE
  8
3
 62
     2
  5
604
 10
-166.688911
 20
-34.220635
 30
0.0
 11
-170.405259
 21
-35.700079
 31
0.0
  0
LINE
  8
3
 62
     2
  5
605
 10
-170.405259
 20
-35.700079
 30
0.0
 11
-169.78645
 21
-36.530062
 31
0.0
  0
POLYLINE
  8
3
 62
     2
  5
606
 66
     1
 10
0.0
 20
0.0
 30
0.0
  0
VERTEX
  8
3
 62
     2
  5
7B3
 10
132.165746
 20
-175.047882
 30
0.0
  0
VERTEX
  8
3
 62
     2
  5
7B4
 10
141.365891
 20
-184.580811
 30
0.0
  0
VERTEX
  8
3
 62
     2
  5
7B5
 10
169.314056
 20
-184.580811
 30
0.0
  0
SEQEND
  8
3
 62
     2
  5
7B6
  0
LINE
  8
3
 62
     2
  5
60B
 10
134.84884
 20
-177.828028
 30
0.0
 11
135.593778
 21
-177.109095
 31
0.0
  0
LINE
  8
3
 62
     2
  5
60C
 10
135.593778
 20
-177.109095
 30
0.0
 11
132.165746
 21
-175.047882
 31
0.0
  0
LINE
  8
3
 62
     2
  5
60D
 10
132.165746
 20
-175.047882
 30
0.0
 11
134.103902
 21
-178.546961
 31
0.0
  0
LINE
  8
3
 62
     2
  5
60E
 10
134.103902
 20
-178.546961
 30
0.0
 11
134.84884
 21
-177.828028
 31
0.0
  0
TEXT
  8
3
  5
60F
 10
66.170868
 20
-228.095123
 30
0.0
 40
7.0
  1
台付シングルレバー湯水混合水栓（共）
 72
     5
 11
190.770868
 21
-228.095123
 31
0.0
  0
TEXT
  8
3
  5
610
 10
228.578979
 20
-272.715088
 30
0.0
 40
7.0
  1
外観寸法図
 72
     5
 11
262.178979
 21
-272.715088
 31
0.0
  0
TEXT
  8
3
  5
611
 10
66.170868
 20
-236.095123
 30
0.0
 40
7.0
  1
ＭＬＺ５４６ＭＭ
 72
     5
 11
120.770868
 21
-236.095123
 31
0.0
  0
TEXT
  8
3
  5
612
 10
345.098131
 20
-256.100293
 30
0.0
 40
6.0
  1
１６　０１　２９
 72
     5
 11
391.898131
 21
-256.100293
 31
0.0
  0
TEXT
  8
3
  5
613
 10
336.070276
 20
-271.880939
 30
0.0
 40
6.4
  1
１１０１７８
 72
     5
 11
373.190276
 21
-271.880939
 31
0.0
  0
TEXT
  8
3
  5
614
 10
-165.493964
 20
-85.042984
 30
0.0
 40
7.0
  1
９１
 72
     5
 11
-152.893964
 21
-85.042984
 31
0.0
  0
DIMENSION
  8
3
 62
     2
  5
615
  2
*D12
 10
-113.223518
 20
-86.042984
 30
0.0
 11
-158.493964
 21
-84.042984
 31
0.0
 13
-203.764411
 23
-98.470032
 33
0.0
 14
-113.223518
 24
20.533872
 34
0.0
  3
Standard
  0
TEXT
  8
3
  5
616
 10
-183.964411
 20
-72.727226
 30
0.0
 40
7.0
  1
６８．１
 72
     5
 11
-157.364411
 21
-72.727226
 31
0.0
  0
DIMENSION
  8
3
 62
     2
  5
617
  2
*D13
 10
-136.16441
 20
-73.727226
 30
0.0
 11
-169.964411
 21
-71.727226
 31
0.0
 13
-203.764411
 23
-94.474976
 33
0.0
 14
-136.16441
 24
-58.565206
 34
0.0
  3
Standard
  0
ENDSEC
  0
EOF
